<?xml version="1.0" standalone="no"?>
<!DOCTYPE svg PUBLIC "-//W3C//DTD SVG 1.1//EN" "http://www.w3.org/Graphics/SVG/1.1/DTD/svg11.dtd" >
<svg xmlns="http://www.w3.org/2000/svg" xmlns:xlink="http://www.w3.org/1999/xlink" version="1.1">
<metadata></metadata>
<defs>
<font id="pf_kids_prograde_five" horiz-adv-x="806" >
<font-face units-per-em="2048" ascent="1536" descent="-512" />
<missing-glyph horiz-adv-x="499" />
<glyph horiz-adv-x="0" />
<glyph horiz-adv-x="682" />
<glyph unicode=" "  horiz-adv-x="499" />
<glyph unicode="&#x09;" horiz-adv-x="499" />
<glyph unicode="&#xa0;" horiz-adv-x="499" />
<glyph unicode="!" horiz-adv-x="352" d="M57 90q0 29 13.5 54.5t15.5 27.5l12 -1q13 -1 29 -3t30.5 -3t18.5 -3q6 -4 9 -14.5t5.5 -22.5t2.5 -22.5v-14.5q0 -16 -18.5 -36.5t-65.5 -20.5q-16 0 -34 13t-18 46zM76 326v856q0 29 9 50t19 38q12 18 31 30l64 -12q29 -4 37 -27.5t8 -58.5q0 -10 -7.5 -188t-31.5 -510 q-6 -82 -9 -135.5t-6 -55.5q0 2 -6 -7t-15 -20.5t-20.5 -20.5t-17.5 -9t-15.5 10t-18.5 22.5t-15 24t-6 13.5z" />
<glyph unicode="&#x22;" horiz-adv-x="530" d="M94 1397q0 66 18.5 111.5t63.5 56.5q33 -14 43 -46t10 -75q0 -29 -2 -59.5t-2 -59.5q0 -20 1 -37.5t1 -40.5q0 -43 -4 -89t-14 -83l-51 -20q-23 68 -43.5 163t-20.5 179zM287 1430q0 61 16 105t66 44q47 0 61 -34t14 -85q0 -68 -14 -149.5t-14 -145.5v-24 q-31 -35 -54 -35t-37 27.5t-22 72.5t-12 103.5t-4 120.5z" />
<glyph unicode="#" horiz-adv-x="966" d="M149 608.5q3 24.5 7 28.5t47 13t102 20h23l4 53q2 14 3 50t9 67q4 16 14.5 26.5t21.5 16.5t20.5 8t11.5 2q14 -6 21 -26.5t9 -46t0 -55.5t-8 -54q-2 -10 -3 -21.5t-5 -23.5q27 0 50.5 -1t35.5 -1h68l4 34q0 6 2 26.5t5 45.5t7 48.5t8 37.5t16.5 19.5t27 4.5t26.5 -4.5 t14 -3.5q4 0 6 -28.5t2 -67.5v-24.5t-2 -24.5l-6 -63h35q16 0 52 2t67 -2q14 -2 24.5 -11.5t16.5 -19.5t9 -19.5t3 -11.5q-10 -23 -48 -33t-81 -10h-27.5t-25.5 2q-8 0 -17.5 1t-19.5 1l-6 -78l-6 -73h63q29 0 69 -2t62 -7q14 -2 18.5 -14t4.5 -27q0 -14 -3 -26t-3 -14 q0 -4 -13.5 -7.5t-35 -6.5t-47 -5t-50.5 -2q-10 -2 -37 -2h-43v-6q0 -2 -6 -38t-13 -77t-13.5 -75.5t-8.5 -36.5q-4 -4 -13 -8.5t-20.5 -7.5t-20.5 -2t-15 7t-7.5 38t0 72t4.5 78t5 58h-54q-23 -2 -45 -3t-51 -1l-4 -21q0 -2 -3 -23.5t-8 -51t-10.5 -61t-11.5 -54.5 q-2 -25 -5 -33t-9 -6t-15.5 7t-21.5 7q-14 6 -26.5 13.5t-14.5 9.5q-4 2 0 37q2 35 6 75t11 105q-14 2 -33 4t-36 4t-30.5 4t-15.5 4q-8 8 -16.5 32t6.5 36q6 6 22.5 9t38 6t43 5.5t37.5 4.5q4 29 7 56.5t5 41.5l6 51l-34 2q-4 0 -23.5 2t-43.5 4t-43 5t-21 6q-4 6 -1 30.5z M406 412h147l10 94l6 59q-29 0 -54.5 -1t-41.5 -3q-10 -2 -26.5 -3t-32.5 -1q-2 -27 -3 -49.5t-1 -38.5q0 -10 -1 -25.5t-3 -31.5z" />
<glyph unicode="$" horiz-adv-x="909" d="M125 476.5q8 21.5 25.5 31.5t39 5t33.5 -30q29 -82 78 -149.5t117 -95.5q45 -18 88 -10t77.5 34.5t56.5 68.5t22 89q0 66 -60 137q-43 51 -101.5 89t-114.5 78t-101 90t-64 128q-16 63 -4 123.5t44 109t79 82t100 46.5l-1 17t-1 46t-1 63.5t-1 67.5q0 43 5 75t14 32 q12 2 27.5 3t30.5 -4.5t26.5 -17.5t13.5 -39q2 -18 2 -45.5t-2 -59.5t-5 -65t-5 -59q0 -2 20.5 -7t49 -18.5t58 -36t48.5 -59.5q12 -20 13 -56t-15 -53q-16 -16 -39 -14t-39 23q-33 66 -93.5 85t-119.5 -10q-39 -18 -65.5 -54t-37 -77t-1 -80.5t42.5 -68.5 q61 -51 142 -107.5t146.5 -125t98.5 -153.5t0 -194q-6 -29 -31 -62.5t-56.5 -64t-67.5 -51t-62 -20.5q-20 0 -21.5 -38t-5.5 -83q-4 -47 -10 -89t-19 -48q-23 -14 -44 -8t-25 14q-14 47 -17.5 90t-0.5 77.5t9.5 58.5t8.5 30q-51 14 -93.5 46t-76 75t-61 92t-50.5 98 q-12 27 -4 48.5z" />
<glyph unicode="%" horiz-adv-x="1308" d="M141 1075q0 37 13.5 86t39 93t61.5 75t81 31q25 0 37 -27q10 6 24.5 12.5t28.5 6.5q51 0 85 -24.5t54.5 -62.5t27.5 -83t7 -84q0 -45 -9 -90t-36 -76q-35 -41 -83 -68.5t-105 -27.5t-100.5 21.5t-71 55t-41 76.5t-13.5 86zM221 1069q0 -76 41 -115t92 -39q68 0 115 51.5 t47 135.5q0 55 -16.5 96t-63.5 80q-2 2 -13 4t-24.5 4t-23.5 5t-10 5q-4 0 -9 -4q-59 -29 -97 -92t-38 -131zM258 74q2 4 25.5 43t50 87t50.5 91t26 53q2 6 20.5 42t45 85t58 104.5t58 102.5t45 78t20.5 31q2 2 15.5 24.5t34 58t46 80.5t52.5 93l143 249q10 14 21 27 q10 10 20 18.5t21 8.5q16 0 30.5 -17.5t14.5 -46.5q0 -18 -19.5 -52t-45 -76t-52.5 -88t-41 -89q-8 -27 -33.5 -76t-54.5 -99t-54.5 -92t-33.5 -55q-10 -14 -43 -68t-76 -126t-91 -152t-91 -146.5t-74 -110.5t-39 -44q-12 0 -21.5 8.5t-15.5 18.5t-9 20.5t-3 14.5zM768 272 q0 37 13.5 86.5t38 93.5t60 74.5t81.5 30.5q27 0 38 -27q10 6 24.5 12.5t29.5 6.5q51 0 84.5 -25.5t53 -63.5t28 -82t8.5 -83q0 -45 -9 -89t-36 -77q-35 -43 -83 -69.5t-104 -26.5q-59 0 -101 21.5t-70.5 55t-42 76.5t-13.5 86zM848 264q0 -76 42 -113.5t91 -37.5 q72 0 117 53t45 133q0 47 -13.5 92t-66.5 82q-2 2 -13.5 4t-24.5 5t-23.5 6.5t-10.5 5.5q-4 -4 -4 -2t-4 -3q-59 -29 -97 -93t-38 -132z" />
<glyph unicode="&#x26;" horiz-adv-x="1112" d="M154 317q0 57 18 116t49 114t70 106.5t80 98.5q-74 104 -132.5 210.5t-58.5 211.5q0 47 24.5 104t69.5 108.5t111 85t145 33.5q55 0 106.5 -19.5t91.5 -53t63.5 -80.5t23.5 -101q0 -41 -14.5 -90t-35 -94t-43 -82t-36.5 -53q-37 -41 -80 -95.5t-82 -88.5q16 -25 53 -74 t80 -103.5t83 -104.5t65 -81q4 -4 8 -4q12 0 27.5 22.5t35 50t41 51t44.5 23.5q31 0 57 -57q-4 -31 -22.5 -62.5t-39 -59t-37 -50.5t-16.5 -35q0 -2 1 -3t1 -3q23 -31 56.5 -57.5t64.5 -53t52.5 -52t21.5 -54.5q0 -33 -19.5 -52.5t-48.5 -19.5q-23 0 -54.5 27t-62 57.5 t-56 57t-38.5 26.5q-2 0 -4 -2q-51 -70 -138 -103.5t-179 -33.5q-82 0 -146.5 27.5t-108.5 71.5t-67.5 101.5t-23.5 118.5zM276 324q0 -37 12.5 -76t38 -70t63.5 -50t87 -19q31 0 70 11t75.5 29.5t68.5 41t52 47.5q-6 20 -18 44.5t-44 68.5t-89 117t-152 189 q-49 -59 -87.5 -120t-61.5 -131q-6 -20 -10.5 -40t-4.5 -42zM299 1149q0 -43 14.5 -85t37 -82t50 -79t54.5 -74q39 39 78.5 90.5t72.5 104.5t54.5 107.5t21.5 103.5q0 70 -49 111q-20 18 -47 26t-58 8q-57 0 -100 -23.5t-71.5 -59t-43 -75.5t-14.5 -73z" />
<glyph unicode="'" horiz-adv-x="452" d="M146 1177q-1 44 2.5 90t7.5 79q6 49 10 78.5t18 48.5q23 29 39.5 39.5t32.5 -3.5q20 -16 27.5 -44.5t3.5 -34.5q-4 -4 -6 -50q-2 -45 -5.5 -98t-3.5 -98t2 -45l2 -17q-4 -10 -12 -32.5t-14 -32.5l-7 -7q-7 -6 -17.5 -10t-21.5 -5t-22 5l-2 4q-16 14 -24.5 51.5t-9.5 81.5 z" />
<glyph unicode="(" horiz-adv-x="706" d="M133 694q0 250 86 419t242 288q16 -8 38.5 -9t43 -4.5t35 -15.5t14.5 -41q0 -18 -11.5 -30.5t-27.5 -19.5t-35.5 -11t-36.5 -8q-57 -70 -99 -136.5t-69.5 -140.5t-41 -161t-13.5 -195q0 -127 43 -234.5t119 -228.5q23 -35 33 -61.5t10 -43.5q0 -23 -13.5 -37t-35.5 -26 q-78 53 -132.5 132t-87 172t-47 193.5t-14.5 198.5z" />
<glyph unicode=")" horiz-adv-x="706" d="M84 1331q0 29 14.5 41t35 15.5t43 4.5t38.5 9q158 -121 243 -288t85 -417q0 -98 -14.5 -198.5t-47 -193.5t-87 -173t-132.5 -133q-23 12 -36 26.5t-13 36.5q0 33 43 105q76 123 120 232.5t44 230.5q0 109 -13.5 195.5t-41 160.5t-70.5 140.5t-100 136.5q-16 4 -36 8 t-36.5 11t-27.5 19.5t-11 30.5z" />
<glyph unicode="*" horiz-adv-x="872" d="M123 770q0 10 2 21.5t6 15.5q2 2 21.5 6t42 9t41.5 10l18 4q2 0 35 -1t69 -4l-122 109q0 -2 2 9.5t8 24.5t16 25.5t25 12.5q18 0 36.5 -14.5t18.5 -18.5l8 -9t18.5 -21.5t21.5 -27t20 -26.5l-4 82v27q0 45 13 58t32 13q18 0 29.5 -9t16.5 -20.5t6 -23.5t1 -18 q0 -2 -2 -16.5t-4 -34t-5.5 -40t-5.5 -32.5l54 51q6 6 16 19.5t23.5 25.5t30 22.5t32.5 10.5q20 0 36.5 -5.5t18.5 -7.5q6 -6 -15 -32.5t-49 -56t-52 -54.5l-25 -25h51q10 0 26.5 1t37.5 1q39 0 67.5 -23.5t28.5 -43.5q0 -2 -14.5 -5t-36 -6t-47 -6.5t-45.5 -3.5 q-14 0 -23.5 1t-23.5 1h-23l127 -122q-4 -23 -12 -41q-6 -16 -14.5 -27.5t-16.5 -11.5q-4 0 -22.5 18.5t-38 41t-36 42t-18.5 21.5l-37 39l5 -193q-2 0 -30 -14.5t-48 -14.5q-14 0 -15 13q0 14 2 39.5t3.5 51t3.5 45t2 21.5l2 23q-27 -25 -49.5 -46.5t-26.5 -23.5 q-2 -2 -14.5 -12t-27.5 -22.5t-28.5 -22.5t-17.5 -10q-6 0 -18.5 16t-12.5 23q0 2 10.5 19t23.5 36.5l23 34.5l11 16q2 2 20.5 18.5t40.5 38.5h-69.5t-72.5 3.5t-57.5 8.5t-23.5 17z" />
<glyph unicode="+" horiz-adv-x="872" d="M25 473q0 23 4 35t21.5 19.5t52 13.5t94.5 16q41 -2 77 -4q33 -2 67 -2h60l-18 287q12 6 27 12q12 4 26.5 9t30.5 5q18 0 28.5 -12t15.5 -27.5t6 -31t1 -19.5q0 -10 -7 -57t-15 -119v-47h159q10 0 33 2t47 2q12 0 24.5 -1t24.5 -3q16 -2 30.5 -15.5t25 -27.5t16.5 -27.5 t6 -15.5t-19.5 -7t-49 -9.5t-63.5 -8.5t-62 -4q-33 0 -76 3t-94 3q2 -39 2 -72.5v-62.5q0 -176 -15 -182q-16 -8 -41.5 -17.5t-42.5 -9.5q-18 0 -18 17q0 61 2 100t5 71.5t6 66.5t5 85q-23 0 -36 -2t-39 -2h-70h-52t-78 4t-70.5 11.5t-30.5 23.5z" />
<glyph unicode="," horiz-adv-x="249" d="M37 -180q0 35 22 94q12 33 23 59q10 23 17 43.5t7 24.5q4 8 5 12q0 2 2 9.5t9 15.5t20.5 15t35.5 7q4 0 20.5 -6t16.5 -41v-33q0 -6 -6 -22t-16.5 -38.5t-21.5 -46.5t-21 -42q-16 -33 -44 -58.5t-47 -25.5q-23 0 -22 33z" />
<glyph unicode="-" horiz-adv-x="827" d="M53 418q0 33 28 49t67.5 24.5t83.5 9.5t77 1q59 0 122 -3t128 -3q72 0 146 6q88 -27 88 -66q0 -36 -84 -63q-92 -2 -169 -3t-151 -1h-149q-20 0 -52 -2t-62 1t-51.5 13t-21.5 37z" />
<glyph unicode="." horiz-adv-x="299" d="M63.5 96q-6.5 37 16.5 86q12 10 31 19q14 6 34.5 12t42.5 2q23 -2 36.5 -11t21.5 -21.5t10 -25t4 -20.5q6 -20 -2 -35q-6 -16 -22.5 -53t-38.5 -55q-23 -18 -62 6q-41 25 -53 41q-12 18 -18.5 55z" />
<glyph unicode="/" horiz-adv-x="600" d="M49 -41q0 4 12.5 48t27.5 96.5t27.5 99.5t12.5 59q0 8 9 47t23.5 93.5t32 115t32 111.5t24.5 86t12 37t14.5 45t31 105.5t38 135t36.5 134t23 81.5l17 60q6 18 14 33q6 12 16.5 23t22.5 11q18 0 37.5 -19.5t19.5 -51.5q0 -14 -11 -51t-26.5 -83.5t-28.5 -95.5t-15 -86 q-2 -29 -15.5 -82t-30 -108t-31 -101.5t-18.5 -62.5q-4 -23 -22.5 -85t-44 -143t-54 -169t-55 -162t-47 -122t-29.5 -48q-20 0 -37.5 19.5t-17.5 29.5z" />
<glyph unicode="0" horiz-adv-x="1064" d="M145 428q0 104 14.5 206.5t47.5 196t87 174t136 140.5q12 10 31 10q20 0 37 -16q66 55 129 49q100 -10 163.5 -62.5t98.5 -130t47 -173t12 -191.5q0 -115 -19.5 -226.5t-60.5 -212t-105.5 -185.5t-154.5 -144q-43 -12 -82 -13q-76 0 -141.5 36t-114.5 96.5t-79.5 137.5 t-38.5 159q-6 74 -7 149zM258 393q0 -113 33 -213t123 -166q25 -18 51.5 -26t50.5 -8q78 0 137.5 70.5t99.5 172t60.5 213t20.5 193.5q0 61 -5.5 125.5t-23 123t-51 104.5t-90.5 71q-16 8 -35 8q-18 0 -34.5 -10.5t-30 -22.5t-28 -22.5t-28.5 -10.5q-27 0 -41 19 q-63 -53 -104 -124t-64 -152t-32 -170t-9 -175z" />
<glyph unicode="1" horiz-adv-x="1173" d="M-2 -4q0 23 13.5 38t35.5 19q111 23 216.5 37t215.5 25q45 258 133 495.5t189 476.5q-104 -74 -217 -130t-230 -113q-12 -6 -28 -6q-23 0 -41.5 16t-18.5 45q0 35 33 51q154 78 295 159t270 191l41 35q20 16 41 17q23 0 41.5 -16.5t18.5 -41.5q0 -12 -2 -18l-33 -115 q-123 -252 -217.5 -508t-147.5 -528q117 8 232.5 12t232.5 8q27 0 45.5 -14t18.5 -43q0 -23 -16.5 -41t-43.5 -20q-254 -8 -505 -22.5t-498 -67.5q-4 0 -6.5 -1.5t-6.5 -1.5q-25 0 -43 17.5t-18 44.5z" />
<glyph unicode="2" horiz-adv-x="1155" d="M96 -53q0 23 19 39l14 12q16 25 34.5 49.5t41.5 44.5q154 135 295 264t284 271q78 76 121 169t45 193q0 68 -20 129q-35 43 -76 61.5t-88 18.5t-96 -16.5t-95.5 -43t-88.5 -59t-72 -65.5q-16 -14 -39 -15q-23 0 -43.5 16.5t-20.5 41.5q0 27 25 47q37 41 88 81t109.5 70.5 t122 49t122.5 18.5q57 0 111.5 -23.5t96.5 -69.5t66.5 -111.5t24.5 -149.5q0 -86 -34.5 -167t-88 -155t-118 -139.5t-123.5 -120.5q-92 -86 -187.5 -166t-187.5 -166q76 12 163 25.5t178 27t179 25.5t164 21q4 0 6 1t6 1q25 0 40.5 -20.5t15.5 -43.5t-12.5 -37t-41.5 -18 q-92 -10 -195.5 -23.5t-209 -31t-209 -35t-193.5 -35.5l-45 -23q-12 -6 -26 -6q-23 0 -42.5 17.5t-19.5 46.5z" />
<glyph unicode="3" horiz-adv-x="1067" d="M127 152q0 27 21.5 43t44.5 16q18 0 28 -9t18.5 -23.5t16.5 -33.5t18 -39q20 -2 40 -3t40 -1q80 0 162 18.5t149.5 57.5t109.5 99.5t42 142.5q0 37 -18.5 66.5t-48 51t-65.5 33t-71 11.5q-53 0 -104 -11.5t-104 -17.5l-37 -4h-9q-23 0 -39 16.5t-16 38.5q0 20 9.5 37.5 t31.5 24.5l19 6q66 35 140.5 71.5t142 81.5t120.5 103.5t78 136.5q4 10 4 31q0 39 -19.5 64.5t-50 42t-66.5 23.5t-69 7q-100 0 -193.5 -51.5t-156.5 -126.5q-18 -23 -47 -23t-45.5 18.5t-16.5 41.5t15 36q39 47 90 88t109.5 72t123 48.5t127.5 17.5q57 0 114.5 -17.5 t103.5 -51.5t75 -83t29 -110q0 -68 -30 -126.5t-75 -107.5t-99 -89t-105 -71q57 -6 108 -34.5t89 -70.5t59.5 -95.5t21.5 -108.5q0 -84 -53 -157.5t-134 -128t-176.5 -86t-177.5 -31.5q-41 0 -84 6l-86 4q-8 0 -16 5t-14 9l-51 70q-6 16 -14.5 35.5t-8.5 36.5z" />
<glyph unicode="4" horiz-adv-x="1187" d="M59 451q0 29 21.5 45t51.5 28.5t60.5 26.5t49.5 39q115 158 196.5 321.5t96.5 352.5q2 23 18 40t43 17t44 -16.5t17 -42.5q-23 -209 -106.5 -396.5t-218.5 -353.5h391q10 78 19.5 154.5t21.5 154.5q0 25 17.5 42.5t43.5 17.5q25 0 43.5 -17.5t18.5 -44.5 q-12 -78 -21.5 -153.5t-19.5 -153.5h231q25 0 43.5 -17.5t18.5 -43.5q0 -25 -18.5 -42.5t-43.5 -17.5h-246q-20 -150 -53 -295t-102 -286q-14 -31 -47 -31q-25 0 -46.5 17.5t-21.5 41.5q0 14 8 29q59 125 90 257t50 267h-590q-25 0 -42.5 18.5t-17.5 41.5z" />
<glyph unicode="5" horiz-adv-x="1062" d="M135 168q0 25 19.5 41t42.5 16q33 0 49 -28q35 -53 89 -77t118 -24q72 0 142.5 24.5t129.5 61.5q68 41 87 104.5t19 129.5q0 53 -12 101t-39.5 85t-74 58.5t-113.5 21.5q-74 0 -143.5 -28.5t-129.5 -75.5l-28 -23q-16 -12 -33 -12q-25 0 -44 19.5t-19 43.5q0 8 4 21l6 10 q10 113 34.5 222.5t47.5 219.5q2 10 6 17.5t8 15.5q-35 18 -35 57q0 31 25.5 47.5t60.5 23.5t71 8t58 1q72 0 135.5 -5t135.5 -5q41 0 85 7t97 7q29 0 44 -21.5t15 -45.5q0 -23 -13 -42.5t-42 -21.5q-43 -6 -79 -8t-71 -2q-68 0 -125 5t-124 5q-33 0 -70 -2t-80 -8 q16 -16 17 -41v-8q-14 -86 -36 -166t-32 -166q61 31 129 51.5t137 20.5q94 0 160.5 -36t108.5 -91t61.5 -124t19.5 -136q0 -109 -41 -190t-110.5 -135t-159.5 -81.5t-188 -27.5q-96 0 -179 34.5t-131 116.5q-10 20 -10 35z" />
<glyph unicode="6" horiz-adv-x="937" d="M88 541q0 119 44 244.5t120 228t177 168t216 65.5q20 0 43 -2t41.5 -9t29.5 -20.5t11 -33.5q0 -27 -15.5 -44.5t-43.5 -17.5q-10 2 -29 2q-98 0 -185 -55t-150.5 -143t-100.5 -198t-37 -216v-33q2 31 21.5 62.5t46 59.5t57.5 49.5t55 29.5q82 29 174 29q59 0 114.5 -16.5 t98.5 -53.5t68.5 -96.5t25.5 -145.5q0 -125 -64.5 -233.5t-166.5 -165.5q-25 -14 -54.5 -20.5t-60.5 -6.5q-117 0 -199.5 61.5t-135 149.5t-77 187.5t-24.5 173.5zM211 453q14 -225 186 -340q51 -33 101 -33q55 0 104 32.5t86 83t58.5 108.5t21.5 110q0 47 -21.5 80.5 t-55.5 56t-73.5 33t-78.5 10.5q-72 0 -134.5 -36t-93.5 -114q-16 -32 -47 -32q-18 0 -33.5 12t-19.5 29z" />
<glyph unicode="7" horiz-adv-x="1140" d="M209 1126q0 37 37 54q111 -2 205 -11.5t186 -9.5t183 15.5t196 60.5l37 18q14 8 28 9q23 0 39.5 -17.5t16.5 -42.5l-21 -74q-80 -123 -166 -241.5t-172 -241.5q35 4 69 6t68 2h52.5t55.5 -6t44 -19.5t18 -39.5q0 -25 -16 -40.5t-39 -15.5q-31 0 -62.5 4.5t-64.5 4.5 q-53 0 -104 -4.5t-105 -12.5q-98 -147 -179 -299.5t-134 -318.5q-4 -23 -18.5 -37t-34.5 -14q-29 0 -45.5 15t-18.5 38h-6q-2 0 -14 4q63 166 140 309.5t165 284.5q-16 -2 -32.5 -3t-33.5 -1h-77t-83.5 6t-68.5 20.5t-29 42.5q0 25 15.5 41.5t38.5 16.5q53 0 104 -4t104 -4 q35 0 71 2t71 6q78 119 159.5 233.5t163.5 231.5q-88 -25 -165.5 -34t-151.5 -9q-86 0 -171 8t-177 14q-12 -4 -21 -4q-20 0 -38.5 15.5t-18.5 41.5z" />
<glyph unicode="8" horiz-adv-x="1112" d="M131 162q0 82 47 147.5t117 119.5t146.5 97t136.5 84q-23 53 -41.5 112.5t-18.5 119.5q0 23 19.5 40t46.5 17q29 0 43 -22.5t21 -55.5t12.5 -70.5t17.5 -66.5q43 33 84 73t72.5 83t52 91t20.5 97q0 94 -72.5 154.5t-205.5 60.5q-61 0 -113.5 -32.5t-52.5 -88.5 q0 -20 10 -37.5t22.5 -34t22.5 -31.5t10 -28q0 -20 -18 -36.5t-45 -16.5q-31 0 -53.5 20.5t-39 50t-24.5 60.5t-8 53q0 55 27.5 98.5t71.5 71t99.5 42t110.5 14.5q94 0 165 -29t119 -75t72.5 -104.5t24.5 -119.5q0 -63 -26.5 -124.5t-69.5 -119t-97.5 -107.5t-109.5 -91 q41 -92 74 -195.5t33 -206.5q0 -55 -13.5 -108.5t-46.5 -97.5t-85 -78.5t-130 -55.5q-49 -14 -96 -14q-74 0 -135.5 30.5t-104.5 80t-67.5 109.5t-24.5 120zM256 145q0 -37 17.5 -74.5t48 -70.5t72.5 -53.5t93 -20.5q66 0 109 28t67.5 67.5t35 81.5t10.5 73q0 41 -9.5 88 t-22.5 92t-28.5 84t-27.5 66q-68 -47 -133.5 -86t-117 -79t-83 -86t-31.5 -110z" />
<glyph unicode="9" horiz-adv-x="1040" d="M131 -131q0 37 43 59q98 53 169 89t128 76t107.5 94.5t109.5 140.5q61 92 88 210.5t29 237.5q0 51 -7 114.5t-28.5 121t-62.5 96.5t-109 39q-49 0 -95 -25.5t-81 -68.5t-55.5 -97.5t-20.5 -111.5q0 -63 42 -112.5t104 -49.5q49 0 95 31.5t79 74.5q18 18 43 19 q23 0 42 -16.5t19 -42.5q0 -27 -18 -41q-59 -76 -127 -110t-133 -34q-53 0 -101.5 20.5t-85.5 58.5t-58.5 91t-21.5 117q0 63 25.5 135t81.5 150q49 66 123.5 97.5t144.5 31.5q94 0 158.5 -49.5t102.5 -124t54.5 -167t16.5 -178.5q0 -129 -33.5 -253t-99.5 -226 q-61 -96 -113.5 -155.5t-115 -105.5t-147.5 -88t-214 -103q-6 -2 -16 -2q-23 0 -42.5 14t-19.5 43z" />
<glyph unicode=":" horiz-adv-x="317" d="M66 177.5q4 21.5 12 43.5q8 27 24 58l50 16q18 6 33.5 11t17.5 3l16 -16t25 -68q12 -53 -9.5 -76.5t-74.5 -39.5q-29 -8 -42.5 -5.5t-20.5 11t-11 18.5t-14 17q-10 6 -6 27.5zM78 633q-4 12 0 27.5t12 29.5q8 16 23 33h24q20 0 48 -7t40 -24q18 -27 9 -61.5t-27 -61.5 t-45 -28.5t-56 -1.5q-20 0 -22 21.5t-2 43.5q0 12 -4 29z" />
<glyph unicode=";" horiz-adv-x="317" d="M66 68l32 118v21q0 59 -12 96t-20 59q-2 2 8 10.5t22 16.5q15 9 31 21q20 6 47 6q37 0 50.5 -13.5t11.5 -48.5q-2 -31 -3.5 -50t-7.5 -37.5t-18 -41t-35 -59.5q-18 -31 -34.5 -54.5t-71.5 -43.5zM76 641q0 25 18 53q8 14 19 29h24q16 0 34.5 -3t34 -11.5t25 -21.5 t7.5 -34q-4 -66 -39 -94.5t-93 -19.5q-10 2 -16 14t-9 29.5t-4 34t-1 24.5z" />
<glyph unicode="&#x3c;" horiz-adv-x="942" d="M164 352q0 37 11 70t18 39l15 15t33.5 32.5t45 45.5t51.5 50q59 59 135 133l9 7q10 8 24 16t29.5 14t29.5 6q18 0 25.5 -10t7.5 -22q0 -39 -30.5 -80t-84.5 -119q-16 -25 -46.5 -52.5t-59.5 -50t-50.5 -37t-21.5 -12.5l6 -7q6 -7 13.5 -15t13.5 -17.5t8 -13.5t12.5 -19.5 t25.5 -35t31.5 -39t30.5 -33.5q12 -12 40 -34.5t55.5 -47t48 -48.5t20.5 -36t-29.5 -18t-50.5 -6q-29 0 -38 8q-8 6 -48.5 40t-89.5 76t-96 79.5t-68 52.5q-27 25 -26 69z" />
<glyph unicode="=" horiz-adv-x="872" d="M94 336q2 23 48 29t126 10h408q41 0 84 -1t63 -14q4 -4 6 -12t2 -14q0 -16 -3 -31.5t-7 -19.5q-12 -4 -45 -11.5t-98 -7.5h-242q-23 0 -48.5 -2t-53.5 0q-12 0 -40 1t-61.5 3t-66.5 6t-53 11q-10 8 -15.5 23.5t-3.5 29.5zM94 557q0 39 8 45q14 8 49 14.5t101 18.5l26 -1 q25 -1 60 -2t69.5 -2t51.5 -1h215h30.5t43.5 2q31 2 49 -5.5t29.5 -17.5t14.5 -21.5t3 -19.5q-10 -20 -48 -32.5t-81 -12.5q-41 0 -82 3t-98 3q-55 0 -88 -3t-78 -3h-62q-12 0 -38.5 1t-58.5 3t-61.5 6.5t-46.5 10.5q-4 2 -6 6t-2 8z" />
<glyph unicode="&#x3e;" horiz-adv-x="942" d="M223 750q0 10 31 16t51 6q29 0 37 -8q8 -6 48 -40t90 -75t97.5 -80t67.5 -55q16 -10 21.5 -26.5t5.5 -36.5q0 -37 -13.5 -73t-17.5 -40q-2 -4 -23.5 -25.5t-52 -52.5t-67.5 -65.5t-68 -64.5t-40 -40l-30 -29l-9 -7t-22.5 -14t-28.5 -13.5t-30 -6.5q-18 0 -25 9.5t-7 21.5 q0 41 29.5 84t82.5 115q18 25 49 51.5t59.5 49t49.5 37.5l22 15q0 -2 -10 9q-8 10 -18 24.5t-13 18.5q-2 4 -12 19t-25.5 33.5t-33 39t-31.5 33.5q-12 12 -40 35.5t-54.5 49t-48 49t-21.5 36.5z" />
<glyph unicode="?" horiz-adv-x="700" d="M39 1047q0 10 6 20q20 49 50 101.5t70 95.5t89 71.5t108 28.5t116 -25.5t101 -67.5t70.5 -93.5t26.5 -102.5t-2 -84t-9.5 -62.5t-21.5 -60t-39 -75.5q-47 -86 -92 -155t-92 -153l-105 -188q-12 -18 -43 -18q-27 0 -43 14t-16 31q0 4 4 16l6 12q2 12 8.5 28.5t13.5 34 t14 34t13 26.5q37 70 69 115t60.5 86t58 86t62.5 115q39 82 39 153q0 33 -11 75t-34.5 79t-60.5 62.5t-88 25.5q-45 0 -79 -22.5t-58.5 -58.5t-44 -79t-35.5 -82q-16 -27 -52 -26q-25 0 -42 13t-17 30zM223 141v21q10 16 23 28q10 10 23.5 19.5t25.5 9.5q27 0 40 -16.5 t18 -40t5 -46v-34.5q0 -31 -28 -31q-20 0 -38 -8t-34 -8q-12 0 -19.5 12t-10.5 28.5t-4 35t-1 30.5z" />
<glyph unicode="@" horiz-adv-x="1187" d="M92 631q0 139 46 245.5t125 178t181.5 108.5t217.5 37q98 0 184 -45t148.5 -121t98 -175t35.5 -208q0 -41 -12 -99t-38.5 -111.5t-70 -91.5t-102.5 -38q-49 2 -85 21.5t-61.5 52.5t-44 73t-34.5 81q-6 -35 -19.5 -73t-37 -69.5t-57.5 -52t-79 -20.5q-51 0 -82.5 23.5 t-49 61t-24.5 86t-7 95.5q10 43 24 88t39 84q23 23 36 42t28.5 37.5t39 39t64.5 45.5l20 -31q8 10 15.5 14t16.5 6.5t19.5 4.5t26.5 10q37 -125 72 -254t94 -246q16 -18 31.5 -25.5t38.5 -7.5q29 0 53.5 28t43 65.5t29.5 76.5t11 62q0 100 -29.5 188t-82 152.5t-123 102.5 t-154.5 38t-164 -33t-141.5 -94t-98 -149.5t-36.5 -196.5q0 -96 29.5 -174t80.5 -133.5t119 -85t143 -29.5q23 0 45.5 3t49.5 3t48 -16.5t21 -44.5q0 -25 -11 -41.5t-26.5 -27.5t-32 -16t-24.5 -5q-27 0 -55.5 9t-51.5 15q-86 27 -165.5 68t-140 104.5t-97.5 152.5t-37 212z M420 551q0 -14 1 -40t8 -51.5t20.5 -44t37.5 -18.5q31 8 54.5 34t40 60.5t24.5 74.5t8 79t-9 105.5t-25 121.5q-4 -27 -24.5 -51t-37.5 -41q-53 -53 -75.5 -117.5t-22.5 -111.5z" />
<glyph unicode="A" horiz-adv-x="888" d="M-41 -20q0 4 4 16q31 59 49.5 120.5t31.5 125t28.5 126t40.5 124.5q-25 6 -42.5 7t-28.5 4t-17.5 9t-6.5 23q0 16 13.5 30.5t36.5 14.5q45 0 79 -7q68 168 136.5 331t156.5 325q8 18 29 26v11q0 16 15.5 28.5t37.5 12.5q23 0 39.5 -12.5t16.5 -28.5q18 -174 24 -343 t14 -343q29 2 60 3t65 1q23 0 39.5 -11.5t16.5 -27.5q0 -23 -19.5 -33t-47.5 -13t-58.5 -3h-50.5q8 -123 20 -243t41 -243q0 -2 1 -3t1 -3q0 -16 -14.5 -26.5t-34.5 -14.5q-51 0 -60 37q-33 113 -42 224.5t-15 228.5l-2 41q-55 -4 -106.5 -5.5t-106.5 -1.5h-78l-6 -16 q-18 -51 -38.5 -140t-44 -176t-54.5 -150.5t-70 -63.5q-27 0 -40 12t-13 27zM260 571h51q51 0 99.5 1t101.5 3q-6 129 -14.5 253t-16.5 253q-63 -125 -115.5 -253t-105.5 -257z" />
<glyph unicode="B" horiz-adv-x="765" d="M39 1202q0 25 33.5 42.5t82 27.5t100.5 14t91 4q66 0 130.5 -13t121.5 -46q41 -45 59.5 -93t18.5 -98q0 -92 -52.5 -175t-129.5 -144q121 -35 187.5 -107.5t66.5 -218.5q0 -41 -10.5 -76.5t-39.5 -70.5q-98 -117 -210.5 -206t-247.5 -161l-7 -55q-4 -25 -21 -38t-40 -13 q-27 0 -42 17.5t-15 39.5q4 6 2 12t2 13q-23 16 -23 41q0 10 9.5 29.5t25.5 19.5q27 207 41 409.5t14 409.5q0 90 -6 177t-6 179q0 16 13.5 30.5t31.5 18.5q-51 -6 -96 -18q-16 -6 -29 -6q-20 0 -37.5 14.5t-17.5 40.5zM229 1174h4q25 0 41.5 -16.5t18.5 -39.5q4 -84 7 -164 t3 -163v-52l41 17q37 29 76 56.5t69.5 59t50 73.5t19.5 102q0 49 -22.5 75.5t-57.5 40t-74.5 15.5t-76.5 2q-49 0 -99 -6zM258 20q57 35 124 79t123 96.5t93 111t37 119.5q0 49 -31 96q-25 33 -57.5 54.5t-69.5 34t-76 18.5t-75 10q-12 0 -23 8q-4 -160 -15.5 -313.5 t-29.5 -313.5z" />
<glyph unicode="C" horiz-adv-x="817" d="M92 498q2 106 18.5 211.5t39.5 210.5q14 72 53 138t94 118.5t122.5 83t139.5 30.5q27 0 63.5 -8t73.5 -22.5t64.5 -35t36.5 -42.5l18 -27q10 -16 13 -23.5t3 -21.5q0 -27 -8 -51.5t-41 -24.5q-18 0 -28.5 3t-12.5 28l-39 47l-32 21q-57 36 -110 36h-3q-47 0 -89 -22.5 t-79 -57t-65.5 -79.5t-47.5 -90q-35 -80 -44 -167t-9 -178q0 -39 1 -77.5t1 -75.5q0 -55 15.5 -112.5t45 -103.5t70.5 -75t95 -29q76 0 128 49.5t87 114.5q23 29 49 29q29 0 46 -19.5t17 -42.5q0 -16 -10 -36q-41 -96 -128 -158t-191 -62q-98 0 -167 53.5t-111 132.5 t-60.5 170t-18.5 165z" />
<glyph unicode="D" horiz-adv-x="737" d="M-2 942v53t1 87t1 87v56q0 27 17.5 44t41.5 17q25 0 42.5 -17.5t17.5 -43.5q0 -72 -1 -141.5t-1 -135.5q0 -115 2 -223.5t6 -217t10 -223t17 -241.5q76 37 141 94.5t115.5 128t81 152.5t36.5 170q-16 88 -29.5 176t-44 162.5t-88 133t-163.5 89.5q-20 6 -34.5 20.5 t-14.5 36.5q0 23 17 43.5t40 20.5q6 0 10 -2q137 -29 219 -101.5t126 -172t57.5 -214t13.5 -225.5q0 -109 -39 -206t-105.5 -180t-153.5 -148.5t-181 -106.5q-12 -6 -25 -6q-41 0 -53 39l-2 4q-18 6 -29.5 21.5t-13.5 33.5q-10 131 -16.5 250t-10.5 231.5t-6 224t-2 230.5z " />
<glyph unicode="E" horiz-adv-x="827" d="M-14 1221q0 27 21.5 44t47.5 17q55 0 109.5 -4t107.5 -4q113 0 222.5 5t222.5 5h44.5t45 -5t34 -18.5t13.5 -37.5q0 -23 -18.5 -40.5t-44.5 -17.5q-25 0 -48.5 1t-48.5 1q-98 0 -197.5 -4t-197.5 -6q4 -106 11 -210.5t18 -209.5q145 23 286 31q27 0 46.5 -15.5 t19.5 -39.5q0 -31 -38 -48.5t-91 -25.5t-111.5 -11t-101.5 -7q8 -96 13 -189.5t5 -189.5q0 -88 -6 -176q88 12 176 20t179 8h33.5t33.5 -2q29 -2 46.5 -18.5t17.5 -40.5q0 -23 -15.5 -40.5t-44.5 -17.5h-65q-131 0 -260 -14t-258 -35q-4 0 -6.5 -1t-6.5 -1q-25 0 -44 16.5 t-19 43.5q0 39 32.5 49t69.5 14q4 51 6 101.5t2 99.5q0 115 -8 228.5t-17 227t-18.5 227t-11.5 228.5h-56.5t-61 5t-49 18.5t-19.5 38.5z" />
<glyph unicode="F" horiz-adv-x="845" d="M127 1313q0 23 15.5 43t41.5 20q6 0 19 -4q154 -18 301 -18q78 0 156.5 7t158.5 7q27 0 41 -19.5t14 -41.5q0 -20 -11 -37t-36 -23q-84 -8 -163.5 -12t-161.5 -4q-57 0 -113.5 3t-114.5 7q16 -10 24.5 -64.5t11.5 -123t3 -138t2 -108.5q86 31 172 36t172 9 q27 0 44.5 -17.5t17.5 -43.5q0 -27 -17.5 -44.5t-44.5 -17.5h-30q-154 0 -310 -53q12 -264 13 -533v-52t-4 -44.5t-17.5 -32t-40.5 -12.5q-23 0 -41 15.5t-18 45.5q0 43 1 84t1 82q0 246 -9 476.5t-26 482.5q0 47 39 59q-49 6 -69.5 21.5t-20.5 44.5z" />
<glyph unicode="G" horiz-adv-x="888" d="M86 561q0 104 27.5 222t88 217.5t159 165t239.5 65.5q31 0 72 -6t77.5 -17.5t63.5 -30t27 -42.5q0 -25 -20.5 -42.5t-45.5 -17.5q-10 0 -17.5 2t-15.5 6q-31 23 -62.5 31t-64.5 8q-41 0 -80.5 -10t-80.5 -25q-59 -20 -95 -56t-60 -81t-36 -96t-22 -100q-23 -119 -23 -236 q0 -131 41 -254t150 -215q41 -33 92 -33q10 0 19 1t20 3l34 11l64 102q8 59 11 115.5t3 113.5t-3 113.5t-7 114.5q-51 -8 -106.5 -21.5t-108.5 -13.5q-27 0 -41 16.5t-14 38.5q0 18 11 33.5t38 20.5q53 10 103 21t104 15l61 7q4 0 6 1t4 1q20 0 37 -12.5t21 -34.5l6 -46 q10 -63 15 -126.5t5 -129.5q0 -88 -14 -173t-55 -167l-47 -63q-16 -25 -50 -27l-79 -20q-10 -2 -19.5 -2h-19.5q-111 0 -189 66.5t-127 165t-72.5 212t-23.5 209.5z" />
<glyph unicode="H" horiz-adv-x="915" d="M4 737q0 23 17.5 37t41.5 14h93v43q0 98 -7.5 194.5t-23.5 195.5v10q0 23 18.5 36t40.5 13q20 0 37 -11.5t21 -33.5q18 -100 25 -200.5t7 -203.5v-43h361q0 119 -3 237t-14 235q-2 6 -2 16q0 23 18.5 36t43.5 13q18 0 33.5 -10.5t21.5 -28.5q14 -131 18.5 -261t4.5 -261 q0 -147 -3 -291.5t-3 -292.5q0 -45 1 -90t1 -90q0 -23 -17.5 -37t-42.5 -14t-42 14t-17 37q0 55 -1 109.5t-1 107.5q0 117 1 233.5t3 233.5h-363q-8 -174 -26.5 -342t-36.5 -342q0 -23 -17.5 -37t-39.5 -14q-27 0 -44.5 13t-17.5 38q16 174 35.5 342t28.5 342h-91 q-25 0 -42 15.5t-17 37.5z" />
<glyph unicode="I" horiz-adv-x="655" d="M66 1282q0 23 16 38t39 15q16 0 33.5 -1t33.5 -1t30.5 1t31.5 1h4q2 0 3 1t3 1t3 -1t5 -1q37 0 72 1t70 1q23 0 54.5 -2t59 -8t47 -20.5t19.5 -38.5q0 -25 -19.5 -39.5t-40.5 -14.5q-4 0 -20 5q2 2 2 10h-178q31 -139 43 -280.5t16 -284t7 -284.5t16 -284q18 2 36.5 3 t34.5 1q31 0 61.5 -3t61.5 -7q27 0 39.5 -16.5t12.5 -36.5t-13.5 -36.5t-40.5 -16.5t-52.5 5t-51.5 5q-49 0 -94 -6q-12 -31 -52 -31h-6l-92 8h2l-41 2q-25 2 -41 16.5t-16 36.5q0 23 18.5 37.5t40.5 16.5l76 6q-12 143 -15 287.5t-7.5 289t-17.5 287.5t-46 285h-88 q-25 0 -42 15.5t-17 37.5z" />
<glyph unicode="J" horiz-adv-x="808" d="M57 508v10q0 27 17.5 40t38.5 13q18 0 32.5 -10t18.5 -33q16 -86 22.5 -136t14.5 -95q2 -14 11 -52t25.5 -82t42 -85t64.5 -62l39 -8l61 168q10 74 13.5 141.5t3.5 133.5q0 86 -5 170t-10.5 170t-10.5 176t-5 188v8l-45 4q-47 4 -95 5.5t-95 5.5h-45q-23 0 -38.5 16 t-15.5 39t15.5 38t38.5 15h563q23 0 39 -16.5t16 -38.5q0 -23 -16.5 -38t-38.5 -15h-174v-21q0 -96 6 -183t13 -172t13.5 -169t6.5 -170q0 -100 -12.5 -203.5t-43.5 -218.5l-51 -104q-10 -18 -33.5 -29.5t-40.5 -11.5q-12 0 -18 2l-47 10q-68 25 -111 74t-68.5 104 t-37 105.5t-17.5 74.5q-10 47 -17 101.5t-24 140.5z" />
<glyph unicode="K" horiz-adv-x="864" d="M100 1262q0 31 18.5 46t47.5 15q23 0 42 -12.5t21 -40.5l21 -430q57 57 113.5 107t110.5 99.5t106.5 98.5t99.5 106q16 23 51 23q29 0 47.5 -18.5t18.5 -38.5q0 -16 -15.5 -39t-38 -46.5t-46.5 -46.5t-42 -41q-100 -98 -203.5 -185t-191.5 -193l37 -703q2 -23 -16.5 -43 t-44.5 -20q-27 0 -46.5 15t-21.5 42zM440 817q0 25 21.5 41t48.5 16q16 0 32.5 -7t22.5 -27q78 -223 152 -446.5t174 -440.5q6 -12 6 -23q0 -39 -41 -55q-12 -6 -27 -6q-41 0 -57 37q-100 217 -174 440t-152 447q-6 12 -6 24z" />
<glyph unicode="L" horiz-adv-x="851" d="M90 1260q0 29 20.5 44t43.5 15q20 0 37.5 -11.5t23.5 -37.5q68 -272 97.5 -541.5t37.5 -552.5l25 8q106 35 212.5 67t213.5 66q16 4 24 5q29 0 46.5 -20.5t17.5 -47.5q0 -16 -8.5 -31.5t-30.5 -25.5q-137 -37 -271.5 -80t-269.5 -88q-12 -4 -20 -4q-23 0 -43.5 19 t-20.5 46v41q0 285 -33.5 558.5t-99.5 549.5q-2 6 -2 21z" />
<glyph unicode="M" horiz-adv-x="1097" d="M37 -45q35 166 59.5 336t52 339t62.5 336t90 330l8 41q4 23 21.5 36t38.5 13q16 0 32.5 -11t20.5 -34l27 -135q27 -135 44 -269t37 -269q29 135 58.5 266t66.5 262l-8 31l-4 49v8q0 29 19.5 45.5t42.5 16.5q25 0 39 -11.5t21 -29t10 -35t5 -29.5l-10 -43l2 -14 q90 -285 155.5 -571.5t125.5 -579.5q0 -4 1 -6t1 -7q0 -27 -17.5 -46t-46.5 -19q-18 0 -34.5 13.5t-20.5 35.5q-43 242 -101.5 477.5t-119.5 474.5q-49 -219 -101 -426l-36 -96q-8 -23 -34 -36t-44 -13q-35 0 -48.5 32t-13.5 62l-86 578q-35 -137 -59.5 -275.5t-46 -279 t-43 -279.5t-49.5 -278q-2 -27 -20.5 -42.5t-41.5 -15.5q-27 0 -41 19.5t-14 48.5z" />
<glyph unicode="N" horiz-adv-x="829" d="M86 567v59.5t1 90.5t1 90v59v338q0 25 18.5 38t40.5 13q16 0 31 -8t21 -24l51 -111q55 -92 100 -187.5t87 -192.5t82 -194.5t85 -193.5q-16 172 -25.5 337t-9.5 335q0 31 1 62.5t1 62.5q-2 6 -2 14q0 23 17.5 34t38.5 11q18 0 34.5 -9t22.5 -30q4 -270 15 -530t51 -529 v-43q0 -23 -18.5 -36t-41.5 -13q-37 0 -53 41v2q-66 106 -119 221t-103.5 231t-100.5 232.5t-107 229.5q0 -98 -1 -197.5t-1 -198.5q0 -147 6 -295.5t24 -300.5q2 -4 3 -14q0 -18 -5.5 -37.5t-14.5 -37t-22.5 -29t-31.5 -11.5q-23 0 -41.5 13.5t-18.5 36.5q0 16 9.5 31.5 t9.5 27.5v6q-23 154 -29 303.5t-6 302.5z" />
<glyph unicode="O" horiz-adv-x="862" d="M49 678q0 72 12.5 148.5t41 149.5t75.5 136.5t119 110.5q18 12 39 12q10 0 14 -2q8 18 24.5 27.5t35.5 9.5q23 0 39 -13q72 -49 137 -108t96 -137q33 -86 47 -170t14 -170q0 -76 -9 -151t-23 -150q-14 -86 -53.5 -170.5t-133.5 -141.5q-72 -47 -159 -47 q-59 0 -105.5 23.5t-80.5 58.5t-54.5 77t-30.5 77q-16 55 -17 112.5t-11 112.5q-8 51 -12.5 101.5t-4.5 103.5zM170 668q0 -47 4 -93.5t12 -93.5q8 -49 13.5 -96t16.5 -92t31.5 -86t59.5 -76q16 -2 33.5 -3t34.5 -1q66 0 106.5 35t65 84t36 104.5t17.5 98.5q8 61 13 120.5 t5 118.5q0 74 -11 145.5t-42 143.5q-23 55 -69.5 99t-104.5 83q-8 -14 -20 -22q-59 -41 -98.5 -96.5t-62 -118t-31.5 -128t-9 -126.5z" />
<glyph unicode="P" horiz-adv-x="741" d="M35 1217q0 27 24.5 45t59.5 28t73.5 15.5t69.5 5.5q80 0 157 -30t137 -82t97 -127t37 -163q0 -76 -41 -134t-103.5 -101t-135.5 -73t-136 -46q6 -154 11 -307.5t18 -306.5q0 -53 -55 -64q-23 0 -42.5 12.5t-23.5 40.5q-12 150 -17 299.5t-11.5 298t-15.5 298t-29 298.5 q0 27 20 43l-16 -6q-4 -2 -17 -2q-23 0 -42 15.5t-19 42.5zM176 1184q20 -4 35.5 -19.5t19.5 -38.5q14 -117 24.5 -226t14.5 -226q45 12 97.5 34.5t97.5 53.5t73.5 68.5t28.5 80.5q0 53 -26.5 104.5t-69.5 91.5t-98.5 64.5t-110.5 24.5q-43 0 -86 -12z" />
<glyph unicode="Q" horiz-adv-x="1136" d="M127 737q0 129 12.5 253t26.5 229q4 25 20.5 36t36.5 11q25 0 45.5 -14.5t20.5 -43.5q0 -2 -1 -4t-1 -6q-16 -106 -27.5 -211.5t-11.5 -212.5q0 -55 4 -124.5t15.5 -143.5t31.5 -145.5t54 -132t83 -102.5t119 -54l31 -6l49 34q53 72 90 152q-16 14 -37.5 27.5t-42 28 t-35 28.5t-14.5 33q0 25 17.5 47t41.5 22q23 0 55.5 -24.5t61.5 -44.5q18 66 28.5 130t10.5 130q0 145 -51 283.5t-166 250.5q-43 43 -98.5 72t-114.5 29q-23 0 -42.5 -6.5t-39.5 -6.5q-27 0 -41 19.5t-14 44.5q0 23 13 37t34.5 21t45 10t46.5 3q86 0 165 -41.5t138 -101.5 q125 -129 185.5 -288.5t60.5 -329.5q0 -86 -14.5 -170t-45.5 -164l118 -90t122 -84q31 -16 31 -49q0 -25 -17.5 -45.5t-42.5 -20.5q-16 0 -30 8q-59 37 -116.5 80t-115.5 86q-29 -53 -62.5 -102t-76.5 -94l-55 -33q-16 -8 -31 -8q-14 0 -39 6q-131 41 -214 123t-131 188 t-66.5 230t-18.5 251z" />
<glyph unicode="R" horiz-adv-x="876" d="M84 1235q0 35 17.5 51.5t43.5 16.5q23 0 38.5 -12.5t19.5 -41.5q10 -113 13 -224.5t5 -223.5h8q53 18 116 33.5t117 38t91 56.5t37 89q0 53 -22.5 91t-58.5 62.5t-81 36t-90 11.5q-14 0 -28.5 -1t-28.5 -4q-27 0 -44.5 18.5t-17.5 43.5q0 45 35 54t72 9q66 0 134 -20.5 t123.5 -59t91.5 -97t36 -132.5q0 -80 -34 -133t-86 -90t-117 -59.5t-124 -38.5q74 -72 138.5 -151t126 -162t121 -167t122.5 -163q14 -16 14 -39q0 -27 -19 -45.5t-42 -18.5q-27 0 -43 23q-139 168 -267 343t-280 330q0 -106 -1 -211.5t-1 -209.5q0 -53 1 -106.5t1 -106.5 q0 -27 -17.5 -45.5t-43.5 -18.5q-31 0 -44.5 23.5t-16.5 58.5q-2 21 -2 43q0 15 1 30q2 38 2 68q0 127 1 252t1 254q0 137 -4 272.5t-14 272.5z" />
<glyph unicode="S" horiz-adv-x="909" d="M86 375q0 29 19.5 46t41.5 17q35 0 54 -39q14 -57 38.5 -112.5t59.5 -99.5t79 -71.5t97 -27.5q39 0 77 15.5t65.5 43t45 65.5t17.5 81q0 70 -33 123t-82 99t-106.5 90t-106.5 94.5t-81.5 112.5t-32.5 146q0 72 28.5 132.5t74.5 104.5t103.5 68.5t114.5 24.5 q80 0 149.5 -46t110.5 -130q10 -20 10 -39q1 -35 -24 -55q-16 -12 -35 -12q-29 0 -49 30q-23 57 -68 86t-96 29q-43 0 -79 -18.5t-63.5 -48t-43 -66.5t-15.5 -76q0 -29 9.5 -55.5t31.5 -48.5q53 -53 123 -111.5t131.5 -125t103.5 -142.5t42 -164q0 -76 -28 -138.5 t-73 -106.5t-103 -68.5t-120 -24.5q-80 0 -142.5 35t-108.5 90t-77.5 124.5t-54.5 139.5q-4 10 -4 29z" />
<glyph unicode="T" horiz-adv-x="714" d="M-72 1184q0 27 18.5 44t45.5 17h186q63 0 123.5 2t123 6t128 11.5t141.5 17.5q6 2 15 2q27 0 42 -21.5t15 -43.5q0 -23 -13.5 -39.5t-41.5 -18.5q-92 -12 -168 -20t-150 -13q18 -14 21 -38q10 -147 12 -267.5t2 -232.5q0 -94 -1 -188.5t-1 -202.5q0 -45 1 -93.5t1 -101.5 q0 -27 -18 -44t-43 -17q-35 0 -49.5 26.5t-17.5 63.5q-2 18 -2 37.5t2 39.5q3 40 3 66q0 123 1 227.5t1 210.5q0 104 -2 214t-12 245v10q0 25 16 41q-35 -2 -72.5 -3t-76.5 -1q-27 0 -66 -2q-16 -1 -31 -1q-23 0 -45 2q-36 3 -62 17.5t-26 47.5z" />
<glyph unicode="U" horiz-adv-x="960" d="M121 1094q-1 12 -1 22q0 22 3 43q4 31 17.5 52.5t43.5 21.5q27 0 44.5 -17.5t17.5 -44.5q0 -59 -1 -119.5t-1 -119.5q0 -100 4 -200.5t19.5 -199t43 -193.5t74.5 -187q14 -25 41 -25q8 0 12 2q96 41 149.5 140.5t79 223t30.5 256t5 242.5q0 8 -1 42t-1 72t-1 70.5 t-1 41.5q0 29 18.5 43t41.5 14q25 0 42 -16.5t17 -55.5l2 -22q8 -61 8 -122v-122q0 -154 -21.5 -304.5t-60.5 -299.5q-14 -55 -42.5 -112.5t-70.5 -103.5t-97.5 -75t-120.5 -29q-66 0 -112 53.5t-79 140.5t-52 197.5t-29.5 223t-14.5 219t-4 186.5q0 28 -2 62z" />
<glyph unicode="V" horiz-adv-x="784" d="M57 1260q0 29 19.5 47t44.5 18q39 0 57 -47q86 -227 160 -450.5t137 -458.5q37 229 87 459.5t87 463.5q4 29 22.5 42.5t39.5 13.5q23 0 42 -16.5t19 -47.5v-10q-20 -150 -41.5 -286t-45 -268t-48.5 -268.5t-53 -285.5l-33 -115q-8 -29 -23.5 -47t-40.5 -18t-43 18.5 t-18 46.5v6q-76 305 -166 597t-201 585q-2 8 -2 21z" />
<glyph unicode="W" horiz-adv-x="1132" d="M109 1208q0 27 20.5 44.5t44.5 17.5q16 0 29.5 -8.5t21.5 -28.5q57 -203 96 -403.5t74 -405.5q14 94 29.5 185t50.5 184l10 36q4 27 22.5 41.5t41.5 14.5q16 0 30.5 -9.5t20.5 -27.5l45 -131q35 -104 66.5 -203.5t60.5 -204.5q74 236 133.5 474.5t143.5 467.5 q14 41 53 41q25 0 45 -17.5t20 -43.5q0 -6 -1 -11.5t-3 -11.5q-94 -281 -168.5 -559t-160.5 -561l-9 -47q-4 -25 -21.5 -37t-37.5 -12t-37.5 12t-21.5 39q-14 80 -31 150.5t-36 140t-40.5 139.5t-46.5 148q-29 -129 -46.5 -258.5t-53.5 -253.5l-2 -43q-2 -29 -21.5 -43.5 t-42.5 -14.5q-18 0 -35.5 12.5t-21.5 38.5q-43 287 -92.5 564.5t-122.5 558.5q-6 12 -6 26z" />
<glyph unicode="X" horiz-adv-x="720" d="M-39 109q0 14 6 26q37 80 80 157t89 151.5t93 148.5t90 149q-47 135 -105 263.5t-130 250.5q-8 14 -8 33q0 25 17.5 44.5t47.5 19.5q37 0 56 -31q59 -104 109 -206.5t97 -219.5q66 113 121.5 222.5t98.5 225.5q8 20 26.5 33t36.5 13q27 0 47.5 -17.5t20.5 -44.5 q0 -8 -4 -20q-29 -78 -64 -151.5t-74 -145.5q-37 -72 -75.5 -140.5t-73.5 -140.5q16 -55 32.5 -109.5t30.5 -107.5q35 -135 70 -266t100 -254q14 -16 14 -37q0 -29 -21 -47.5t-50 -18.5t-55.5 40t-49 95.5t-41 114t-28.5 94.5q-4 12 -17.5 62.5t-29 109t-28.5 109.5t-17 64 q-84 -117 -157 -239t-128 -255q-16 -39 -61 -39q-31 0 -48.5 20.5t-17.5 43.5z" />
<glyph unicode="Y" horiz-adv-x="704" d="M-10 1268q0 25 21.5 44t45.5 19q27 0 41 -22q106 -113 190.5 -239t172.5 -255q8 -12 12 -24q25 117 35 231.5t33 230.5q18 39 55 39q25 0 45.5 -16t20.5 -43q0 -8 -5 -21q-29 -311 -107.5 -611t-174.5 -599q-6 -20 -22.5 -31.5t-35.5 -11.5q-27 0 -45 17.5t-18 43.5 q0 10 2 17q59 172 103 340t96 346q2 6 2 11t2 9q-6 -6 -20.5 -14t-28.5 -8q-29 0 -50 27q-86 123 -167.5 246.5t-186.5 236.5q-16 16 -16 37z" />
<glyph unicode="Z" horiz-adv-x="917" d="M78 23v8l12 49q23 37 55.5 69.5t49.5 75.5q37 111 78.5 208t88.5 202q29 63 47.5 128.5t32 133.5t25.5 136.5t29 135.5q-78 16 -155 26.5t-155 21.5q-27 4 -39 20t-12 39q0 25 16.5 45t47.5 20h8q78 -12 157.5 -20t157.5 -29q20 -4 42 -6t39.5 -7t28.5 -18.5t11 -39.5 q0 -8 -4 -25l-33 -121q-18 -117 -51 -230.5t-73 -224t-85 -220t-90 -220.5q-8 -18 -15 -37.5t-28 -50.5q131 20 252 55t248 48q6 2 11 3t11 1q27 0 43.5 -20.5t16.5 -45.5q0 -16 -10.5 -32.5t-32.5 -26.5q-82 -10 -161 -29t-159 -39q-72 -16 -142.5 -32.5t-141.5 -16.5 h-18.5t-18.5 2l-29 2q-23 2 -39 20.5t-16 41.5z" />
<glyph unicode="[" horiz-adv-x="649" d="M125 -70l2 230l55 1095q4 66 12.5 108t12.5 58q23 16 67 17h73t81 -2t65.5 -5.5t26.5 -9.5l6 -45q0 -8 -9 -14t-20.5 -10t-19.5 -6l-8 -3q-23 8 -57 9q-23 0 -45.5 -2t-40.5 -2q-16 0 -19.5 -14.5t-9.5 -61.5q-12 -109 -22.5 -267.5t-18.5 -330.5t-14 -336t-11 -283 q-2 -29 8.5 -54.5t43.5 -25.5h180q12 -25 12 -41q0 -31 -30.5 -42t-65.5 -11q-23 0 -40 3t-20 7q-6 -6 -28 -6h-33t-56.5 3t-53 12.5t-23.5 29.5z" />
<glyph unicode="\" horiz-adv-x="962" d="M57 1288q14 31 28.5 47.5t37.5 16.5q18 0 37 -9q96 -172 195.5 -330.5t194.5 -315t184 -316.5t165 -332q-27 -43 -57 -43q-31 0 -62.5 39t-66.5 100.5t-73 136t-81 146.5z" />
<glyph unicode="]" horiz-adv-x="649" d="M94 -16q0 20 15 43q66 -6 113.5 -9.5t72.5 -3.5q31 0 41 27t10 55v37q2 25 4 89.5t5 148.5t5 176t4.5 174t3.5 142.5t1 80.5v172v161.5t-2 79t-7.5 25.5t-17.5 2q-23 2 -48.5 7.5t-53.5 5.5q-23 0 -41 -6l-9 3q-10 3 -19 8t-17.5 11t-8.5 14l9 43q0 4 19.5 7.5t47.5 3.5 q33 0 70 -1t71.5 -4t63.5 -8.5t41 -15.5l4 -33q2 -12 4 -24.5t2 -18.5v-94l-20 -1096l-15 -227q-2 -18 -16 -26.5t-32.5 -10.5t-36 -1t-25.5 1q-31 0 -56.5 2t-29.5 8q-6 -6 -41 -6q-16 0 -35.5 3t-36 9.5t-28 17.5t-11.5 28z" />
<glyph unicode="^" horiz-adv-x="794" d="M121 1212l2 2q94 119 171 159t132 40q29 0 48.5 -6t35.5 -14q17 -9 31 -19q41 -23 69.5 -54.5t47 -62t26.5 -56t8 -34.5q-4 0 -20.5 -12t-20.5 -12q-25 8 -43 27.5t-37.5 43t-43 48t-56.5 45.5q-10 6 -24.5 14t-32.5 8q-16 0 -31 -8l-43 -39q-14 -12 -46 -45t-79 -78 l-14 -4q-16 10 -32.5 14.5t-25.5 20.5l-2 -4q-2 16 -20 26z" />
<glyph unicode="_" horiz-adv-x="1069" d="M6 -131q4 25 8 31q10 4 48.5 12t99.5 20q47 -2 88 -4q35 -2 69.5 -2h51.5h520q16 0 52 2t65 -2q16 -2 29.5 -14t23.5 -25.5t15 -26t5 -14.5q0 -4 -46 -11t-95 -13q-35 -4 -59 0q-12 2 -34 2h-54q-31 2 -64 2h-67h-87.5t-102.5 -1t-91 -2t-49 -1q-39 -4 -90.5 -10.5 t-104.5 10.5q-2 0 -21.5 2t-43 5t-43 6t-21.5 5q-6 4 -2 29z" />
<glyph unicode="`" horiz-adv-x="655" d="M115 1493q0 23 18.5 29t59.5 6q25 0 68.5 -29t86.5 -71t75 -87t32 -77v-7q0 -12 -9.5 -20t-20.5 -14t-19 -9l-9 -2q-10 0 -35.5 8.5t-35.5 12.5l-13 12q-4 10 -42 54t-103 114q-12 0 -32.5 25.5t-20.5 54.5z" />
<glyph unicode="a" horiz-adv-x="835" d="M12 297q0 74 42 139.5t106.5 115.5t143.5 82t153 40q25 0 43 -18.5t18 -43.5q0 -27 -18.5 -44t-42.5 -17q-49 -6 -107.5 -29.5t-107.5 -60.5t-83 -84t-34 -103q0 -72 53 -116.5t125 -44.5q63 0 141 34q41 18 82 48t64 53q-29 141 -47.5 267t-18.5 259q0 29 18.5 47.5 t47.5 18.5q23 0 39 -18.5t18 -41.5q8 -96 16.5 -193.5t22.5 -193.5t40 -190.5t69 -182.5q16 -14 16 -36q0 -25 -21.5 -45.5t-46.5 -20.5t-41 23l7 4q-35 39 -56.5 82t-34.5 90q-63 -43 -139 -70t-151 -27q-57 0 -113.5 19.5t-101.5 55.5t-73 87t-28 115z" />
<glyph unicode="b" horiz-adv-x="837" d="M152 170v49q16 119 33.5 237.5t27.5 235.5q8 76 11 151t3 148q0 86 -6 168t-6 168q0 25 19.5 42t44.5 17q35 0 51 -36t21 -90q4 -45 4 -93v-19q-1 -58 -1 -99q0 -127 -8 -251t-24 -249q41 39 92 66.5t98 27.5q61 0 115.5 -38t85.5 -91q57 -100 57 -215q0 -47 -8 -91 t-25 -89q-45 -70 -122.5 -113t-161.5 -43q-57 0 -110.5 25.5t-90.5 81.5q-16 23 -16 41q-6 -2 -11.5 -3.5t-11.5 -1.5q-25 2 -43 19.5t-18 44.5zM279 258q0 -57 21.5 -90t51 -50.5t59 -22.5t46.5 -5q66 0 104.5 23.5t60 58.5t28.5 72t7 65q0 78 -42 136.5t-126 68.5 q-10 0 -28.5 -6t-41 -16.5t-43 -24t-32.5 -27.5q-25 -31 -34 -48t-12 -30.5t-5 -30t-12 -44.5q-2 -10 -2 -29z" />
<glyph unicode="c" horiz-adv-x="770" d="M78 385q0 70 23.5 137.5t67.5 120.5t106.5 86t138.5 33q57 0 109 -23.5t87 -76.5q12 -16 13 -31q0 -23 -19.5 -41.5t-42.5 -18.5q-25 0 -39 23q-16 31 -44.5 45t-61.5 14q-55 0 -98.5 -26.5t-71 -66.5t-42 -88t-14.5 -93q0 -41 12.5 -88t37 -88t63.5 -69t94 -28 q68 0 121 48.5t76 113.5q16 35 49 35q29 0 43 -17.5t14 -35.5q0 -6 -1 -12.5t-3 -14.5q-37 -98 -123 -162.5t-190 -64.5q-70 0 -126 37t-96 94t-61.5 126t-21.5 132z" />
<glyph unicode="d" horiz-adv-x="823" d="M80 334q0 80 22.5 137t61.5 94t88 53.5t102 16.5q88 0 176 -33v64q0 152 25 299t90 290q16 35 55 35q29 0 46.5 -19.5t17.5 -45.5q0 -14 -6 -27q-59 -139 -80 -281.5t-21 -289.5q0 -172 16.5 -343t26.5 -341v-9q0 -29 -20.5 -43t-44.5 -14q-29 0 -42 15.5t-18.5 39 t-5.5 52t-2 55.5q-55 -29 -131 -29q-72 0 -136 24.5t-113.5 67.5t-78 102.5t-28.5 129.5zM205 336q0 -45 20.5 -82t54 -63.5t75.5 -41t85 -14.5q70 0 115 53l-20 275q-43 20 -90.5 32.5t-94.5 12.5q-32 0 -63 -6q-39 -29 -60.5 -74t-21.5 -92z" />
<glyph unicode="e" horiz-adv-x="839" d="M70 393q0 72 25.5 140.5t72.5 123t113.5 88t148.5 33.5q39 0 78 -9t72.5 -27.5t59.5 -48t40 -68.5l10 -29q4 -8 4 -16q0 -6 -4 -19l-4 -20q-14 -18 -18 -42t-19 -42l-20 -29q-6 -10 -14.5 -15t-18.5 -10l-39 -12q-47 -10 -95 -20.5t-97 -10.5q-20 0 -43 2.5t-42.5 10.5 t-31.5 22.5t-12 36.5q0 29 18 46.5t41 17.5q16 0 34.5 -4.5t37.5 -4.5q41 0 79.5 8.5t75.5 16.5l13 4l14 29q4 6 7 13t7 13l-8 19q-23 33 -55.5 48t-69.5 15q-43 0 -85 -20.5t-74.5 -56t-53 -80.5t-20.5 -95q0 -43 10 -91t38.5 -88t78 -65.5t127.5 -25.5q66 0 128 22.5 t97 75.5q14 27 45 27q25 0 47.5 -19.5t22.5 -46.5q-1 -20 -17 -36q-37 -72 -108.5 -108t-149.5 -36q-47 0 -96 3t-95 15.5t-87 36t-74 64.5q-47 57 -70.5 125t-23.5 139z" />
<glyph unicode="f" horiz-adv-x="878" d="M49 567q0 31 24.5 46.5t61.5 21.5t78 7t72 1q2 90 5 186.5t20.5 188.5t57.5 174t115 147q43 37 95 37q45 0 90 -21.5t78.5 -56t55 -79.5t21.5 -93q0 -33 -15 -58.5t-50 -25.5q-27 0 -45.5 18.5t-18.5 45.5q4 10 4 27q0 18 -11 38.5t-29.5 38t-42 27.5t-46.5 10 q-61 -55 -93 -129t-46 -154.5t-15 -162.5t-1 -152q94 0 180 -1t178 -7q27 -2 45.5 -19.5t18.5 -43.5q0 -29 -18.5 -46.5t-45.5 -17.5q-94 6 -181 7t-179 1q-1 -108 -1 -215v-107v-45q0 -137 -5 -276q-4 -141 -24 -278.5t-48 -274.5q-12 -53 -60 -53q-29 0 -47 18.5t-18 53.5 q57 262 70 534q5 137 5 273v46v105q0 106 1 213q-86 -4 -172 -12q-27 0 -45.5 17.5t-18.5 45.5z" />
<glyph unicode="g" horiz-adv-x="927" d="M72 -446q0 27 17 45t46 18q37 0 49.5 -23.5t19.5 -56.5t16 -64.5t38 -45.5q78 -45 154 -48q90 0 139 51.5t71.5 122t26.5 146.5t4 125q0 102 -5 202.5t-9 202.5q-37 -72 -98.5 -127t-147.5 -55q-72 0 -126 29.5t-91 79t-56.5 112t-19.5 125.5q0 80 38 157t116 118 q23 12 60.5 28.5t88.5 16.5q47 0 104.5 -21.5t125.5 -81.5q2 25 2 53.5t5 54t18.5 43t41.5 17.5q29 0 47.5 -20.5t18.5 -42.5q0 -37 -3 -75t-3 -77q0 -188 9 -373.5t9 -373.5q0 -78 -5 -154t-26.5 -142.5t-62.5 -124t-113 -97.5q-70 -41 -149 -41q-51 0 -101.5 13t-101.5 34 q-35 12 -61.5 39.5t-46 63.5t-29.5 74t-10 73zM242 379q0 -31 9 -67t27.5 -66.5t45 -52t61.5 -21.5q43 0 77 24.5t55.5 61.5t32.5 80t11 80q0 53 -18 100q-10 25 -49 49.5t-99 24.5q-41 0 -69.5 -21.5t-47 -53.5t-27.5 -68.5t-9 -69.5z" />
<glyph unicode="h" horiz-adv-x="770" d="M104 1271q-2 34 2.5 63.5t18.5 50t47 20.5q27 0 45.5 -18.5t18.5 -45.5q0 -35 -1.5 -69.5t-1.5 -69.5q0 -158 6.5 -314.5t16.5 -314.5q35 49 85 84t116 48l22 2q23 0 31 -9l43 -26q82 -82 113 -184q30 -100 38 -210q6 -81 7 -164q0 -28 -1 -58q-1 -20 -1 -40 q0 -92 12 -178q0 -4 1 -5t1 -5q0 -27 -20.5 -40t-43.5 -13q-25 0 -44 14t-21 43q-8 129 -9 252t-18 252q-4 33 -9 67.5t-15.5 66.5t-28.5 60.5t-47 47.5q-53 -2 -91 -49.5t-62.5 -113t-36 -135t-11.5 -116.5v-88q0 -27 -18.5 -45.5t-44.5 -18.5q-27 0 -45.5 18.5t-18.5 45.5 v92q0 264 -16.5 522t-16.5 520q0 27 -2 61z" />
<glyph unicode="i" horiz-adv-x="436" d="M96 909q0 29 20.5 49.5t49.5 20.5t49.5 -20.5t20.5 -49.5t-20.5 -49t-49.5 -20t-49.5 20.5t-20.5 48.5zM117 684q0 23 18.5 42t46.5 19q20 0 38 -12t22 -33q14 -66 24 -142.5t18.5 -155t19 -154.5t24.5 -142q10 -16 10 -34q0 -25 -18.5 -43.5t-47.5 -18.5q-35 0 -53 31 q-25 66 -39 145.5t-23.5 162.5t-17.5 165t-20 152q-2 6 -2 18z" />
<glyph unicode="j" horiz-adv-x="591" d="M43 -139q0 23 1 41t1 37v12q0 25 15.5 45t39.5 20q20 0 38 -13t22 -36q-6 -47 -6 -96q0 -78 22.5 -150.5t73.5 -117.5q49 14 71.5 55t29.5 94q6 46 6 96v14q-1 58 -1 107q0 170 -11 340t-21 336q-35 0 -88.5 -8t-100.5 -8q-35 0 -63.5 16.5t-28.5 46.5q0 25 17.5 45.5 t41.5 20.5q10 0 19.5 -4t32.5 -4q59 0 107 9t65 9q39 0 74.5 -19.5t37.5 -66.5l4 -121q16 -131 24.5 -260t8.5 -258q0 -84 -3 -167t-11 -167q-4 -37 -20.5 -77t-43 -72.5t-61.5 -53t-74 -20.5q-20 0 -51 10q-55 20 -88 60.5t-50.5 91.5t-23.5 106.5t-6 106.5zM231 950 q0 33 22.5 55.5t55.5 22.5t54.5 -22.5t21.5 -55.5t-21.5 -55.5t-54.5 -22.5t-55.5 23t-22.5 55z" />
<glyph unicode="k" horiz-adv-x="798" d="M106 47v365q0 172 5.5 341t23.5 341q0 25 17.5 43t44.5 18q43 0 53 -35t10 -73q0 -10 -1 -18.5t-3 -18.5q-16 -123 -21.5 -243t-5.5 -243q31 35 73 62.5t86 55.5t87 58.5t76 73.5q20 25 51 25q29 0 46.5 -19.5t17.5 -42.5t-15 -37q-33 -47 -81 -79.5t-97 -61.5t-93 -58.5 t-69 -68.5v-2l8 -14q25 -45 70 -85t96 -81q20 -18 52 -42t62 -51.5t50.5 -54t20.5 -51.5q0 -23 -17.5 -43t-46.5 -20q-33 0 -53 32q-25 39 -64.5 76t-84 75t-90.5 77t-83 82v-142q1 -28 3 -64q1 -13 0 -25q0 -21 -2 -41q-4 -30 -18.5 -52t-45.5 -22q-27 0 -44.5 18t-17.5 45 z" />
<glyph unicode="l" horiz-adv-x="659" d="M-98 119q0 29 26 49q80 57 157 116.5t144 131.5q-8 111 -9 217t-1 217q0 63 4 127.5t19 130.5q12 57 26.5 120.5t39 119t65.5 96.5t108 53l49 -6q23 -2 39 -27l23 -37q35 -80 51 -164.5t16 -170.5q0 -78 -14 -144.5t-37.5 -128t-55.5 -123t-65 -125.5q-57 -109 -139 -196 q12 -117 42 -224.5t85 -211.5q6 -12 6 -25q0 -25 -20.5 -40t-42.5 -15q-14 0 -27.5 8t-21.5 24q-47 92 -77 186.5t-46 192.5q-59 -53 -124 -102t-130 -96q-16 -10 -33 -11q-23 0 -40 17.5t-17 40.5zM340 553q39 57 76 121.5t65.5 134.5t46 142.5t17.5 144.5t-12.5 141.5 t-43.5 134.5l-30 -8q-80 -117 -99.5 -251t-19.5 -273v-287z" />
<glyph unicode="m" horiz-adv-x="1171" d="M-53 690q0 25 14 42.5t36.5 28.5t48.5 16t48 5q106 0 158.5 -73.5t85.5 -221.5q16 45 29.5 86t29 78t36 69t54.5 56h66q16 0 35.5 -18.5t29.5 -36.5l54 -107q10 41 26 82l35 49q8 10 37 15.5t47 5.5h8l103 -47q45 -47 67.5 -106.5t33.5 -124t14.5 -133t9.5 -132.5 q10 -104 14 -202.5t8 -202.5q0 -35 -16.5 -52.5t-40.5 -17.5q-20 0 -36.5 15.5t-16.5 46.5q-4 100 -5.5 197t-17.5 202q-8 53 -9 113.5t-7 118t-25.5 106.5t-62.5 80q-49 -31 -75 -102.5t-36 -155.5t-11 -169t-3 -147l-8 -55q-10 -57 -56 -57q-23 0 -39 19.5t-16 47.5v17 q0 33 1 68.5t1 74.5q0 111 -11.5 227.5t-58.5 214.5q-39 -47 -61.5 -112.5t-37.5 -138t-24.5 -145.5t-21.5 -130l-10 -53q-4 -23 -19.5 -37t-36.5 -14q-27 0 -40 21.5t-13 49.5v19q0 57 -4 135t-14.5 156.5t-29.5 150.5t-50 119q-31 18 -68 18q-29 0 -53.5 -15.5 t-42.5 -15.5q-23 0 -38 23t-15 49z" />
<glyph unicode="n" horiz-adv-x="802" d="M31 803q0 23 17.5 41t45.5 18q27 0 40 -17.5t19.5 -43t7.5 -54t5 -49.5q55 27 116.5 45.5t123.5 18.5q90 0 144 -40t85 -100.5t42 -132t13 -135.5q6 -125 7 -246.5t1 -250.5q0 -23 -17 -41.5t-44 -18.5q-29 0 -42 16.5t-18.5 42t-4.5 54.5t1 53q0 70 2.5 139.5t2.5 135.5 q0 98 -14.5 189t-59.5 177q-47 35 -105 35q-59 0 -112.5 -26.5t-108.5 -45.5q8 -125 17.5 -247.5t46.5 -245.5q0 -4 1 -6t1 -5q0 -29 -20.5 -43t-43.5 -14q-20 0 -36.5 11t-20.5 36q-27 90 -40 181.5t-20.5 183.5t-12.5 183t-17 183q-2 6 -2 19z" />
<glyph unicode="o" horiz-adv-x="786" d="M53 365q0 55 19.5 124.5t55.5 133t87 106.5t115 43q39 0 55 -37q14 10 34.5 17.5t39.5 7.5q37 0 69.5 -10.5t42.5 -20.5q76 -55 108 -141t32 -203q0 -61 -14.5 -121.5t-51.5 -103.5q-53 -59 -121.5 -99.5t-146.5 -40.5q-82 0 -143.5 31t-101.5 80t-59.5 110.5 t-19.5 123.5zM170 354q0 -55 16.5 -95t44 -67.5t62.5 -41t69 -13.5q94 0 160 73t66 193q0 70 -20.5 134.5t-92.5 115.5q-4 2 -19.5 6.5t-32.5 7.5t-32.5 7t-17.5 8l-13 -6q-43 -18 -77.5 -53t-60 -78t-39 -92.5t-13.5 -98.5z" />
<glyph unicode="p" d="M98 594q0 23 14.5 38t32.5 19q-4 16 -4 27q0 29 20.5 52.5t49.5 38.5t59.5 23.5t53.5 8.5q68 0 134 -32t117 -77q74 -63 121 -155.5t47 -186.5q0 -68 -30.5 -128t-80.5 -105t-115.5 -73t-135.5 -32l-35 -2h-8q-12 0 -27 6l-39 21l-8 10q4 -78 6 -153.5t2 -151.5 q0 -164 -15 -327t-19 -326q0 -27 -18.5 -45.5t-45.5 -18.5q-29 0 -47 19.5t-18 44.5q0 76 6 152.5t13 153.5t12 153.5t5 154.5q0 20 -3 90t-9 162t-11 196.5t-11.5 196.5t-9.5 159.5t-3 86.5zM223 614q4 -20 4 -24q4 -45 4 -121t8.5 -149.5t34 -127t82.5 -53.5q41 0 87 14.5 t84 40t62.5 62.5t24.5 82q0 70 -24.5 131t-65.5 106.5t-94 71t-111 25.5q-16 0 -27 -8.5t-21.5 -17.5t-21.5 -19.5t-26 -12.5z" />
<glyph unicode="q" horiz-adv-x="968" d="M37 442q0 88 28.5 152.5t72.5 105.5t96.5 60.5t99.5 21.5q2 0 27.5 -1t59.5 -5t68.5 -13t55.5 -26q43 -35 66.5 -60.5t33.5 -53.5q-8 51 -20.5 106t-12.5 109q0 23 16.5 40t39.5 21q4 0 6 1t4 1q23 0 41 -16.5t22 -38.5q72 -432 110 -856t42 -858q0 -29 -18.5 -47.5 t-47.5 -18.5q-27 0 -45 18.5t-18 47.5q-2 242 -15.5 482.5t-37.5 481.5q-53 -47 -121 -73.5t-135 -42.5q-90 2 -167 41.5t-132.5 104t-87 147.5t-31.5 169zM168 432q0 -53 21.5 -108.5t56.5 -102.5t82 -76.5t98 -29.5q35 0 75 9t74.5 27.5t60.5 47t34 69.5q8 27 8 62 q0 63 -34 120.5t-81 100.5t-102 68.5t-99 25.5q-25 0 -57.5 -5t-63 -26.5t-52 -64.5t-21.5 -117z" />
<glyph unicode="r" horiz-adv-x="675" d="M106 784q0 27 15.5 48.5t48.5 21.5q29 0 44 -29.5t21.5 -72.5t9.5 -90.5t7 -83.5q27 55 70 105t97 87t116.5 59.5t126.5 22.5q23 0 42 -16.5t19 -42.5q0 -23 -15.5 -41.5t-39.5 -20.5q-111 -8 -198 -76.5t-128 -173.5q-8 -78 -21.5 -153.5t-23.5 -153.5v-82v-24.5 t2 -24.5l2 -29q2 -23 -13.5 -40t-37.5 -21l-14 -2q-4 -2 -13 -2q-39 0 -53 37l-10 41q0 10 -1 20t-1 21q0 27 6 52t10 50q-10 154 -32.5 307.5t-35.5 306.5z" />
<glyph unicode="s" horiz-adv-x="804" d="M57 158q0 16 12.5 35.5t41.5 19.5q20 0 32.5 -14.5t24.5 -33t25.5 -37.5t33.5 -30q25 -12 51.5 -17t51.5 -5t55.5 6t61 18.5t57 29.5t43.5 40q4 8 5 20.5t1 22.5q0 49 -27 74q-23 20 -56.5 34.5t-70.5 23.5t-73.5 16.5t-65.5 17.5q-57 20 -93 70.5t-36 109.5 q0 57 27.5 100t72.5 71t99.5 41t109.5 13q27 0 67 -7t77 -21.5t64.5 -34t27.5 -43.5q0 -23 -17.5 -40t-40.5 -17q-16 0 -20 5t-16.5 12t-44 16.5t-101.5 19.5q-10 2 -28 2q-52 0 -103 -27q-27 -12 -45 -35.5t-18 -52.5t17 -52.5t48 -31.5q55 -12 117.5 -27.5t115 -43 t87.5 -71.5t37 -118q0 -47 -15.5 -83t-43 -62.5t-66.5 -46t-82 -35.5q-35 -14 -68 -19.5t-59 -5.5q-86 0 -161 41t-108 127q-4 16 -4 25z" />
<glyph unicode="t" horiz-adv-x="733" d="M-4 719q0 25 18.5 40t36.5 15q12 0 25 -6q37 -8 73.5 -10t75.5 -2h58q2 45 10 117.5t22.5 142t37 120t55.5 50.5q23 0 40 -16.5t16 -39.5q0 -12 -5 -24q-31 -82 -44.5 -167t-17.5 -173q35 4 72 15t72 10q25 0 38 -17.5t13 -40.5q0 -25 -20.5 -39t-50 -21t-64.5 -10.5 t-64 -7.5q-2 -57 -3 -113.5t-5 -113.5q2 -12 3 -25.5t1 -27.5q0 -31 -2 -62.5t-2 -62.5q0 -20 3 -48t11.5 -52.5t24.5 -41t43 -16.5q31 0 55 5.5t53 21.5q12 6 25 6q23 0 39 -18.5t16 -40.5q0 -20 -16 -36t-41 -26t-51.5 -15t-46.5 -5q-115 0 -170.5 65.5t-55.5 206.5 q0 45 2.5 89t2.5 87v213h-46q-29 0 -68.5 1t-77.5 7t-64.5 21.5t-26.5 44.5z" />
<glyph unicode="u" horiz-adv-x="909" d="M90 395q0 86 9.5 172t9.5 172q0 27 18 45.5t45 18.5t45.5 -18.5t18.5 -45.5q0 -82 -10.5 -164.5t-10.5 -168.5q0 -37 5 -87.5t19.5 -96.5t41 -77.5t71.5 -31.5q23 0 41 8l60 29q47 33 74.5 74.5t41 86.5t17.5 93.5t4 95.5v86q0 90 7 136t17 50q14 8 19.5 12t36.5 -4 q18 -4 35.5 -17t17.5 -48q0 -12 -2 -24.5t-4 -22.5q-4 -12 -6 -23q-4 -72 -12.5 -136.5t-8.5 -125.5q0 -41 6 -80q14 -88 42 -119.5t54.5 -41.5t46 -17.5t19.5 -46.5q0 -27 -18.5 -45.5t-44.5 -18.5q-45 0 -100.5 32t-96.5 89q-10 -10 -19.5 -33.5t-21.5 -33.5l-29.5 -29.5 t-20.5 -18t-17.5 -10.5t-20.5 -6q-27 -14 -52.5 -19t-51.5 -5q-72 0 -124.5 35.5t-86 95t-49 133t-15.5 151.5z" />
<glyph unicode="v" horiz-adv-x="882" d="M47 743q0 23 16.5 40.5t40.5 17.5q29 0 50 -27q86 -135 170 -271t149 -284q23 66 41 132.5t47 131.5q33 72 72 137.5t67 139.5q14 37 50 37q12 0 24 -6q37 -16 37 -54q0 -10 -6 -22q-68 -133 -123 -264q-41 -96 -78 -194.5t-72 -207.5q-10 -45 -55 -45q-43 0 -55 35 l-12 33q-66 174 -160 328.5t-193 308.5q-10 20 -10 34z" />
<glyph unicode="w" horiz-adv-x="1124" d="M-2 791q0 23 15.5 39t39.5 16q31 0 47 -25q92 -137 158 -285.5t115 -308.5q33 78 63.5 158t71.5 156l16 30q16 27 45 27q23 0 39 -16l47 -66q47 -66 72 -139.5t47 -151.5q8 37 18.5 94.5t24.5 122t29.5 130t34 117.5t39 85t43.5 33q12 0 18 -2q18 -4 28.5 -19.5 t10.5 -33.5q0 -10 -2 -17q-16 -53 -34.5 -105t-35.5 -106q-18 -61 -29.5 -123.5t-21.5 -124t-24.5 -122t-38.5 -117.5l-15 -33q-16 -31 -47 -31q-18 0 -33.5 10.5t-19.5 26.5l-6 15q-29 104 -55.5 207.5t-79.5 201.5q-41 -86 -76 -174t-76 -174l-14 -31q-10 -35 -45 -35 q-41 0 -58 41l-8 25q-59 178 -124.5 349t-170.5 327q-8 10 -8 29z" />
<glyph unicode="x" horiz-adv-x="768" d="M-12 55q0 29 18 47q43 47 71.5 80t53.5 63.5t51.5 63.5t67.5 80q-41 66 -78 134.5t-66 142.5q-6 14 -6 26q0 27 20.5 44.5t43.5 17.5q33 0 47 -39q23 -61 53.5 -120.5t65.5 -115.5q59 72 120.5 140.5t122.5 138.5q16 14 37 14q23 0 40.5 -20.5t17.5 -42.5q0 -31 -23 -50 q-66 -70 -126 -139t-122 -141q59 -82 124 -157t132 -146q20 -18 21 -43q0 -27 -19.5 -47.5t-42.5 -20.5q-20 1 -34 19q-68 72 -133.5 147.5t-125.5 155.5q-39 -45 -64.5 -78t-50 -62.5t-52 -61.5t-70.5 -75q-16 -16 -37 -16q-20 0 -38.5 18.5t-18.5 42.5z" />
<glyph unicode="y" horiz-adv-x="794" d="M-49 -383q0 23 16.5 38t38.5 15q18 0 36.5 -18.5t36 -45t35 -56t36.5 -50.5l24 -22q23 4 41 15t35 26q113 92 161 208.5t68 245.5q-4 -2 -14 -2q-35 0 -47 31q-41 96 -93.5 186.5t-104.5 179.5t-98 181t-73 194q-2 6 -2 15q0 25 17.5 38t39.5 13q16 0 32 -11.5t20 -33.5 q27 -90 67.5 -173t87.5 -165t95.5 -163t87.5 -165q2 10 6 57.5t10 113t13 139t14.5 140t11.5 115t6 60.5q4 20 18.5 30.5t30.5 10.5q27 0 42.5 -14.5t15.5 -36.5q-1 -11 -3 -17q-4 -8 -4 -16v-16v-37q0 -76 -5 -138.5t-13 -123t-17.5 -124t-17.5 -139.5 q-12 -104 -26.5 -200.5t-51.5 -190.5q-47 -117 -127 -205t-190 -133l-49 -4h-6q-20 0 -35 15l-86 92q-20 31 -50 71.5t-30 69.5z" />
<glyph unicode="z" d="M84 727q0 27 16.5 41t38.5 14q10 0 17 -2q51 -16 102 -20t104 -4q31 0 63 1t62 1h29.5t30.5 -2l71 -2q25 0 40.5 -15.5t15.5 -38.5t-15 -36l-24 -39q-51 -55 -104.5 -109.5t-104.5 -111t-98 -116t-84 -124.5q106 -2 210 -10.5t208 -28.5q25 -2 36 -18.5t11 -36.5 q0 -23 -12.5 -39.5t-34.5 -16.5h-11q-123 23 -240.5 32t-242.5 9l-39 15q-31 14 -31 45q0 12 6 28l21 31q33 72 78 133.5t96 117.5t104.5 110.5t102.5 111.5h-193q-29 0 -67.5 3t-74.5 11.5t-61.5 23.5t-25.5 42z" />
<glyph unicode="{" horiz-adv-x="679" d="M72 719q0 23 14 41t37 20l90 58q14 74 21.5 132t7.5 99v86q14 104 16 182t12 105q35 16 58.5 22t44.5 6q20 0 49 -3t54.5 -7t43 -9t17.5 -9l71 -17q10 -27 10 -39q0 -29 -21.5 -34.5t-33.5 -5.5q-23 0 -47 6t-50 13t-48.5 14t-36.5 7v-2q0 -4 -5 -13t-11.5 -19.5 t-11.5 -20.5t-5 -16q0 -4 -3 -60.5t-7 -137.5t-8 -172t-8 -165q0 -12 -16.5 -21t-35 -16.5t-35 -14.5t-16.5 -13q0 -4 15.5 -16.5t35 -28t34.5 -28.5t15 -17q0 -55 -5 -129t-12 -149t-12 -142.5t-5 -112.5q0 -29 9 -53.5t42 -24.5q29 0 75 6.5t113 16.5l6 2q33 -31 33 -51 q0 -29 -38 -43.5t-85 -14.5h-18q-2 -4 -16.5 -6t-34 -4t-41 -2h-37.5h-23q-29 20 -47 48t-28.5 56.5t-14.5 58.5t-4 54q0 18 1 34.5t3 27.5l35 424q-10 10 -33.5 18t-48 19.5t-43 25.5t-18.5 35z" />
<glyph unicode="|" horiz-adv-x="600" d="M152 -25q0 2 3 40t8 87.5t8 96.5t3 71q0 14 -1 16.5t-1 18.5q0 23 2 68t6 99t8.5 110.5t8.5 102.5t7 76t5 32t6 46t9 108.5t11.5 139t11.5 138t7 85.5l4 64l3 12q3 13 8 27t14.5 26.5t21.5 12.5q20 0 42 -23.5t22 -64.5t-11.5 -105.5t-11.5 -125.5q0 -35 2 -54.5t2 -54.5 q0 -39 -3 -89t-8 -98.5t-9 -86t-6 -50.5q0 -10 -5.5 -69.5t-14.5 -142t-20.5 -177t-22.5 -175.5t-20.5 -136t-15.5 -59q-8 -4 -16 -4q-23 0 -40 14t-17 24z" />
<glyph unicode="}" horiz-adv-x="618" d="M31 -12q0 25 37 53l6 -2q70 -14 118 -24.5t74 -10.5q31 0 41 26.5t10 57.5v37q0 25 2.5 52.5t2.5 60.5q0 72 -2.5 147.5t-2.5 142.5q0 23 1 43.5t1 38.5q0 25 17.5 39.5t37 23.5t37 13t17.5 8q0 6 -13.5 18.5t-28.5 26t-28.5 27.5t-13.5 25q-6 63 -9 134.5t-3 137.5 q0 96 3 164.5t3 72.5q0 6 -4 17.5t-8 24t-8.5 21.5t-4.5 11q-4 0 -6 1t-6 1q-33 0 -80 -12t-86 -18l-10 1t-20.5 5t-19.5 12t-9 25q0 16 12 41l72 12q0 6 16.5 9t39 5t49 3t48.5 1q23 0 47.5 -7t65.5 -30q0 -18 2 -34q2 -14 3 -27.5t1 -20.5v-96q0 -31 1 -61.5t1 -48.5 q-2 -12 -2 -29v-82q0 -41 2 -94t6 -115l86 -63q25 -4 36 -22.5t11 -41.5q0 -18 -20.5 -32.5t-46 -23.5t-50 -17.5t-32.5 -14.5l4 -426q0 -25 -1 -59.5t-11 -73.5t-33 -76t-64 -63q-133 6 -151 24q-49 0 -93 16.5t-44 45.5z" />
<glyph unicode="~" horiz-adv-x="1122" d="M154 676q4 6 26.5 22.5t55 39t70.5 48t71 48.5q25 16 47 35.5t72 19.5q18 0 32.5 -4t32 -16.5t40 -32t56.5 -50.5q20 -16 38 -35.5t46 -19.5q16 0 49 19.5t54 35.5q2 2 16 11.5t31.5 19.5t35 17.5t29.5 7.5q16 0 33 -15.5t17 -40.5q0 -23 -38 -48t-75 -46 q-12 -6 -32.5 -19.5t-46.5 -25.5t-53.5 -21.5t-51.5 -9.5q-35 0 -69 33t-58 58l-23 22q-14 14 -27.5 30.5t-35.5 16.5q-33 0 -69 -26.5t-95 -67.5q-6 -6 -25.5 -18.5t-41 -24.5t-41 -20.5t-25.5 -8.5q-8 0 -26.5 15.5t-18.5 50.5z" />
<glyph unicode="&#xa2;" horiz-adv-x="768" d="M70 410q0 59 14 121.5t48 119t89 99.5t137 63v4q-2 8 -2 37v41q0 16 7.5 27.5t42.5 11.5q37 0 47 -16.5t10 -36.5q0 -6 -1 -29t-1 -27v-2q31 -2 70.5 -11t75.5 -28.5t60.5 -49t24.5 -72.5q0 -18 -11 -35t-40 -17q-47 0 -47 41q0 29 -32 51.5t-103 22.5q-72 0 -122 -25.5 t-81 -67.5t-45 -93.5t-14 -100.5q0 -41 12 -98t39.5 -108.5t74 -87t115.5 -35.5q59 0 99.5 16t40.5 70q0 20 8 32.5t41 12.5q31 0 49 -17.5t18 -54.5q0 -33 -17.5 -59.5t-47 -46t-67.5 -31t-77 -15.5v-6q0 -8 1 -24.5t1 -24.5q0 -23 -10 -37t-47 -14q-41 0 -46 14.5t-5 30.5 v34.5t4 28.5q-78 8 -131 40t-89 74t-55.5 90t-29.5 91q-4 25 -6 47.5t-2 49.5z" />
<glyph unicode="&#xa3;" horiz-adv-x="1161" d="M70 186q0 78 27.5 133.5t72.5 89t102.5 49t116.5 15.5q45 0 76 -8q31 86 49 166t41 178q-72 -6 -134.5 -16.5t-121.5 -10.5q-16 0 -28.5 13.5t-12.5 31.5q14 27 31 50q12 18 27.5 33.5t25.5 15.5q66 0 125 5t123 9q14 63 31.5 118.5t40 105.5t54.5 97.5t75 94.5 q8 14 29.5 29.5t49 27.5t59.5 19.5t60 7.5q37 0 62.5 -15.5t25.5 -52.5q0 -41 -23.5 -56.5t-57 -21.5t-70.5 -12t-64 -29q-61 -90 -91 -162.5t-58 -158.5q12 2 24.5 2h24.5q61 0 112.5 -6t108.5 -6q23 0 35 -28t12 -48q0 -18 -10 -28.5t-24.5 -15.5t-31 -7t-30.5 -2 q-76 0 -136.5 7t-131.5 11q-10 -41 -14.5 -64.5t-8.5 -48t-12 -57.5t-25 -92l-37 -131q86 -29 152.5 -73t130.5 -95q66 -53 128 -110.5t136 -112.5q-4 -12 -3 -21.5t1 -13.5v-43q0 -23 -5 -43.5t-26 -34.5q-74 61 -149.5 128t-149.5 122q-61 47 -120.5 94t-128.5 86 q-18 -47 -43 -104.5t-59 -107.5t-80 -85t-107 -35q-39 0 -75 24.5t-67 41.5q-35 74 -34 151zM190 203q0 -45 35 -92q49 4 82 25.5t54.5 53t36 70.5t26.5 80q-14 2 -26.5 3t-24.5 1q-39 0 -73 -10t-69 -39q-41 -41 -41 -92z" />
<glyph unicode="&#xa5;" horiz-adv-x="913" d="M70 512q0 18 26.5 29.5t63.5 17.5t76.5 8t64.5 2q23 0 46.5 -1t49.5 -1q4 16 2 39t2 39q-68 0 -122 -2t-125 -2q-35 0 -55.5 7t-20.5 24q0 20 34.5 32.5t83 18.5t99.5 7t84 1q-14 10 -19 17q-43 61 -72.5 117.5t-57 110.5t-60.5 107.5t-84 108.5q-14 20 -14 39 q0 27 19.5 44t43.5 17q25 0 43 -20q53 -55 88 -109.5t63.5 -111t58.5 -114.5t73 -122q8 -10 10 -19.5t2 -19.5q23 59 55.5 119.5t69.5 121t74 120t67 114.5q23 39 60 39q29 0 45 -19.5t16 -41.5q0 -6 -4 -19q-90 -137 -158.5 -247.5t-115.5 -235.5h73q18 0 37 1t37 3 q37 -10 51.5 -20.5t14.5 -20.5t-9.5 -18t-20.5 -14.5t-21 -10.5l-11 -4l-180 -2l-21 -74h98.5t90.5 4q37 -10 51 -20t14 -21q0 -10 -9 -18t-20.5 -14t-16.5 -8l-15 -7q-57 0 -109.5 -1t-101.5 -1q-18 -98 -28.5 -217t-14.5 -268q0 -43 -49 -43q-41 0 -55.5 21.5t-14.5 56.5 q10 129 20.5 236.5t26.5 211.5h-188q-23 0 -47.5 1t-46 4t-34.5 10.5t-13 17.5z" />
<glyph unicode="&#xa8;" d="M143 1032q0 25 12.5 42.5t41.5 31.5q23 2 47 1t43.5 -7t31 -19.5t9.5 -36.5q0 -29 -20.5 -52t-49.5 -34q-27 -8 -45 -1.5t-32.5 19.5t-22.5 28.5t-15 27.5zM463 1005.5q-2 34.5 15.5 59.5t51 32t72.5 -22q20 -6 32.5 -21.5t16.5 -32.5t1 -33.5t-11 -29.5 q-8 -18 -26.5 -25t-40 -6t-43 7t-35.5 12q-31 25 -33 59.5z" />
<glyph unicode="&#xa9;" horiz-adv-x="1447" d="M143 600q0 90 30 179t85 175q23 37 68 89.5t112.5 100.5t157.5 82t203 34q86 -16 150.5 -42t113.5 -59t83.5 -70.5t59.5 -74.5q55 -84 79 -171t24 -177q0 -74 -12.5 -145.5t-34.5 -139.5q-14 -49 -53.5 -110.5t-104 -114t-156.5 -88t-213 -35.5q-113 0 -194.5 23.5 t-140 58.5t-95.5 76.5t-59 76.5q-102 164 -103 332zM281 592q0 -39 5 -77t15 -77q12 -47 27.5 -84t42 -68.5t68.5 -61t110 -64.5q45 -10 90 -18.5t88 -8.5q23 0 42 2t38 8q154 47 233.5 129t98.5 170q14 59 22 124t8 130q0 82 -19.5 161t-68.5 149q-18 27 -43.5 45 t-60.5 32.5t-76 27.5t-90 32q-16 2 -30.5 3t-28.5 1q-43 0 -75 -4t-42 -8q-51 -20 -88 -40t-65.5 -45.5t-55.5 -60.5t-57 -86q-45 -74 -66.5 -152.5t-21.5 -158.5zM403 633q0 70 24 137.5t68 121.5t105.5 87t136.5 33q57 0 109.5 -24t87.5 -77q12 -16 12 -34 q0 -20 -16.5 -37t-38.5 -17q-25 0 -45 21q-16 31 -44 45t-63 14q-55 0 -98 -26.5t-70.5 -66.5t-42 -88t-14.5 -93q0 -41 12.5 -88t39 -88t64.5 -69t91 -28q72 0 124 48.5t75 113.5q6 16 19 25.5t30 9.5q27 0 41 -18.5t14 -36.5q0 -8 -4 -25q-16 -47 -47 -89t-72 -72.5 t-90 -48t-100 -17.5q-72 0 -128.5 35.5t-96.5 93t-61.5 125t-21.5 133.5z" />
<glyph unicode="&#xab;" horiz-adv-x="972" d="M88 659q0 55 78 134t219 182q37 27 64 26q35 0 47 -27.5t12 -41.5q0 -16 -7.5 -31t-11.5 -27q-2 -10 -41.5 -36.5t-88 -57t-88.5 -59.5t-42 -43q-10 -14 -10 -33q0 -20 16.5 -39.5t52.5 -42t92 -50.5t136 -64l8 -17q-10 -23 -12 -45t-27 -33l4 -2q-12 -4 -20 -4t-16.5 1 t-18.5 1l-80 27q-29 10 -75 36.5t-76 61.5q-16 18 -36 37.5t-37 42.5t-29.5 48.5t-12.5 55.5zM424 659q0 20 6 43q10 31 60.5 73t105.5 83q66 47 145 96q33 27 60 27q37 0 49 -26.5t12 -43.5q0 -16 -6 -30.5t-10 -26.5q-2 -6 -23.5 -19.5t-51.5 -30t-65.5 -34.5t-65.5 -35.5 t-51.5 -33t-23.5 -23.5q-10 -10 -10 -33q0 -20 15.5 -38.5t50 -40t91 -50.5t138.5 -67l8 -17q-10 -23 -12 -45t-27 -33l6 -2q-12 -4 -20 -4t-16.5 1t-18.5 1l-80 27q-31 10 -77 36.5t-76 61.5q-16 18 -36 37.5t-36 42.5t-28.5 48.5t-12.5 55.5z" />
<glyph unicode="&#xad;" horiz-adv-x="827" d="M53 418q0 33 28 49t67.5 24.5t83.5 9.5t77 1q59 0 122 -3t128 -3q72 0 146 6q88 -27 88 -66q0 -36 -84 -63q-92 -2 -169 -3t-151 -1h-149q-20 0 -52 -2t-62 1t-51.5 13t-21.5 37z" />
<glyph unicode="&#xae;" horiz-adv-x="1413" d="M156.5 715q25.5 123 101.5 239q20 35 66.5 87.5t114 101.5t157.5 84t203 33q86 -16 151.5 -42t113.5 -59t83 -70.5t59 -76.5q49 -74 74 -153t28 -161t-9 -161.5t-37 -155.5q-12 -41 -37 -86t-65 -87t-94 -79t-128 -63q-51 -18 -111.5 -26.5t-122 -6.5t-121 14t-110.5 31 q-51 20 -87 42.5t-62.5 46t-45 49.5t-32.5 52q-33 51 -53.5 101.5t-32.5 103.5q-29 119 -3.5 242zM276 676.5q-8 -121.5 25 -238.5q12 -47 27.5 -84t42 -68.5t68.5 -61t110 -64.5q66 -16 135.5 -24.5t122.5 7.5q154 47 238.5 103.5t115.5 156.5q20 68 32.5 137.5t10.5 140.5 t-20.5 141.5t-59.5 135.5q-35 55 -69.5 84t-72.5 45.5t-80 26.5t-91 29q-16 2 -30.5 3t-28.5 1q-43 0 -75 -4t-42 -8q-51 -20 -90 -39t-72 -43.5t-62.5 -58t-60.5 -85.5q-66 -111 -74 -232.5zM516 948q-2 23 7 37t23.5 21.5t31 6.5t30.5 -9q18 37 88 36q41 0 88 -15t86 -45 t65 -73t23 -98q-2 -47 -22.5 -82t-51 -58.5t-67.5 -39t-72 -25.5q39 -41 69 -73.5t57.5 -64.5t57 -66.5t70.5 -77.5q23 -23 18.5 -45.5t-20.5 -36.5t-40.5 -16.5t-45.5 18.5q-43 47 -75.5 82.5t-62.5 67.5t-59.5 64.5t-68.5 73.5q0 -33 -1 -58.5t-1 -49.5q0 -25 1 -55.5 t1 -73.5q0 -25 -17.5 -42.5t-41.5 -17.5q-27 0 -43.5 17.5t-16.5 42.5q-2 96 -1 175t2 152.5t-1 152.5t-10 175zM635 924q4 -57 6 -112.5t2 -113.5q31 8 70 19.5t70.5 27t48 38t2.5 57.5q-14 49 -62.5 66.5t-107.5 11.5q-16 0 -29 6z" />
<glyph unicode="&#xb4;" horiz-adv-x="692" d="M236 893v6q0 33 31.5 78t74.5 87t87 70.5t69 28.5q41 0 59 -6t18 -29q0 -29 -20 -54t-33 -25q-66 -70 -103.5 -114t-41.5 -54l-12 -13q-10 -4 -36 -12t-36 -8l-9 2q-8 2 -19 8t-20 14.5t-9 20.5z" />
<glyph unicode="&#xb8;" horiz-adv-x="770" d="M227 -250q0 16 13.5 25.5t32 14.5t37 8t28.5 7q6 2 21.5 9.5t31 19.5t27.5 28.5t12 39.5q0 27 -11 46t-25.5 39.5t-26 42t-11.5 50.5q0 18 10.5 25.5t22.5 7.5t22.5 -6.5t14.5 -16.5q14 -41 22.5 -54.5t18.5 -21.5q23 -18 37 -46.5t14 -63.5q0 -55 -29.5 -93t-69.5 -59.5 t-82 -31t-65 -9.5q-12 0 -28.5 5t-16.5 34z" />
<glyph unicode="&#xbb;" horiz-adv-x="972" d="M109.5 900q-9.5 26 19.5 67q27 18 52.5 13t49.5 -26q80 -49 146 -96q55 -41 105 -83t61 -73q12 -39 4 -71.5t-26.5 -60t-42 -51t-42.5 -44.5q-31 -35 -78 -61.5t-75 -36.5l-80 -27q-16 0 -30.5 -1t-25.5 3l5 2q-23 10 -28 35t-9 43l6 17l131 63q51 25 95 49.5t50 34.5 q18 18 20.5 42t-9.5 40q-2 14 -45.5 39.5t-94.5 52.5t-94 50.5t-47 33.5q-8 20 -17.5 46zM449 432l8 17l40 19t91 44t94 49.5t49 34.5q18 18 20.5 42t-10.5 40q-2 14 -42 43t-87 59.5t-87 57t-44 36.5q-8 23 -16 47.5t20 65.5q25 18 49.5 12t51.5 -24q41 -31 74.5 -57.5 t60.5 -49.5q53 -43 99 -89t57 -77q12 -39 3.5 -71.5t-26.5 -60t-42 -51t-42 -44.5q-31 -35 -78 -61.5t-76 -36.5l-79 -27q-16 0 -30.5 -1t-25.5 3l4 2q-23 10 -27.5 35t-8.5 43z" />
<glyph unicode="&#x2c6;" horiz-adv-x="835" d="M102 901q-4 12 1.5 27.5t11.5 29t9 18.5l9 13q47 59 84 109q33 41 61.5 75.5t32.5 38.5q10 8 29.5 18.5t42.5 14.5t44.5 1t37.5 -17q14 -16 47 -48t66.5 -66t61.5 -60.5t34 -32.5t13 -19.5t10 -27.5t-2 -28.5t-23 -22.5q-10 -6 -28.5 2t-38 21.5t-38 28.5t-30.5 28 q-25 23 -40.5 36t-26.5 22t-22.5 18.5t-29.5 23.5q-10 6 -25.5 7t-32.5 -17q-47 -55 -88 -102.5t-90 -88.5q-8 -4 -19 -9t-23.5 -7t-21.5 1t-16 13z" />
<glyph unicode="&#x2da;" horiz-adv-x="835" d="M205 976q-8 46 5 95t46 88q23 27 46.5 48.5t57.5 25.5q10 0 22.5 -5t16.5 -18q10 4 24.5 8.5t25.5 -1.5q20 -10 29 -10.5t20 -10.5q51 -49 55 -125q2 -20 1 -45t-6 -49.5t-15.5 -47t-26.5 -36.5q-37 -35 -82 -50.5t-94 -2.5q-55 14 -86 52t-39 84zM303 981 q8 -20 24.5 -30.5t35 -11.5t37 7t30.5 25q14 16 19.5 38.5t3.5 45.5q-4 20 -10.5 35.5t-22.5 31.5q-2 0 -17.5 5.5t-15.5 7.5l-8 -2q-45 -14 -68.5 -61.5t-7.5 -90.5z" />
<glyph unicode="&#x2dc;" horiz-adv-x="835" d="M74 963q4 12 23.5 37.5t78.5 80.5l28.5 28.5t35.5 27.5q18 12 47.5 17t44.5 -1q16 -8 49 -27.5t78 -52.5q23 -16 41 -33.5t45 -15.5q12 2 26.5 13.5t29.5 24.5t30.5 28.5t27.5 25.5q45 33 70 -16q16 -27 5 -41.5t-27 -34.5q-10 -8 -30 -26.5t-43.5 -37t-51 -35 t-54.5 -18.5q-16 -4 -34.5 3.5t-36 19.5t-33.5 26.5t-29 24.5l-24 18q-16 14 -31.5 28.5t-38.5 10.5q-18 -4 -33.5 -15t-25.5 -28q-6 -8 -20.5 -22.5t-33 -29.5t-36 -26.5t-25.5 -11.5q0 -8 -23.5 4.5t-29.5 53.5z" />
<glyph unicode="&#x401;" horiz-adv-x="827" d="M-14 1221q0 27 21.5 44t47.5 17q55 0 109.5 -4t107.5 -4q113 0 222.5 5t222.5 5h44.5t45 -5t34 -18.5t13.5 -37.5q0 -23 -18.5 -40.5t-44.5 -17.5q-25 0 -48.5 1t-48.5 1q-98 0 -197.5 -4t-197.5 -6q4 -106 11 -210.5t18 -209.5q145 23 286 31q27 0 46.5 -15.5 t19.5 -39.5q0 -31 -38 -48.5t-91 -25.5t-111.5 -11t-101.5 -7q8 -96 13 -189.5t5 -189.5q0 -88 -6 -176q88 12 176 20t179 8h33.5t33.5 -2q29 -2 46.5 -18.5t17.5 -40.5q0 -23 -15.5 -40.5t-44.5 -17.5h-65q-131 0 -260 -14t-258 -35q-4 0 -6.5 -1t-6.5 -1q-25 0 -44 16.5 t-19 43.5q0 39 32.5 49t69.5 14q4 51 6 101.5t2 99.5q0 115 -8 228.5t-17 227t-18.5 227t-11.5 228.5h-56.5t-61 5t-49 18.5t-19.5 38.5zM182 1493q0 25 12.5 42.5t41.5 31.5q23 2 47 1t43.5 -7.5t31 -19.5t9.5 -36q0 -29 -20.5 -52t-49.5 -34q-27 -8 -45.5 -2t-32.5 19.5 t-22.5 29t-14.5 27.5zM502 1466.5q-2 34.5 15.5 59t51 32t72.5 -21.5q20 -6 32.5 -21.5t16.5 -33t1 -33.5t-11 -29q-8 -18 -26.5 -25.5t-40 -6t-43 7.5t-35.5 12q-31 25 -33 59.5z" />
<glyph unicode="&#x402;" horiz-adv-x="1048" d="M-72 1266q0 43 40 54t91 11h104.5t96.5 -4q0 61 51 62q23 0 44.5 -15.5t21.5 -48.5q68 0 135.5 -1t134.5 -1q45 0 88 1t88 1q29 0 42.5 -16.5t13.5 -38.5q0 -41 -41 -53.5t-95 -12.5q-98 0 -181 2t-175 2q14 -166 19 -334q23 2 42 2.5t41 0.5q92 0 177.5 -13.5t154 -52.5 t118 -107t67.5 -174q8 -41 11 -79.5t3 -77.5q0 -127 -35 -244t-99.5 -220.5t-153.5 -190.5t-200 -150q-14 -8 -28 -8q-25 0 -41.5 19.5t-16.5 41.5q0 12 6.5 24.5t22.5 22.5q199 117 312.5 299.5t113.5 411.5q0 123 -30.5 197.5t-84 115.5t-126 54.5t-156.5 13.5h-48.5 t-47.5 -2v-117q0 -147 -5.5 -292.5t-11.5 -293.5q0 -29 -18.5 -43t-40.5 -14q-23 0 -40.5 13.5t-17.5 41.5q0 168 9.5 335t9.5 335q0 123 -5 243.5t-16 243.5q-29 2 -59.5 2h-58.5q-43 0 -85 -2t-83 -2q-29 0 -43.5 17.5t-14.5 40.5z" />
<glyph unicode="&#x403;" horiz-adv-x="710" d="M-14 1290q0 27 20.5 45.5t46.5 18.5q41 0 84 -6.5t84 -6.5q104 0 205.5 5.5t206.5 5.5h45t40.5 -6.5t31 -18.5t12.5 -37q0 -29 -20.5 -45t-49.5 -16q-20 2 -39.5 2h-42.5q-82 0 -161.5 -4t-165.5 -6q18 -147 24 -294t9 -294.5t7.5 -295t18.5 -294.5q0 -4 1 -5t1 -5 q0 -29 -22.5 -44.5t-49.5 -15.5q-23 0 -43 13.5t-24 42.5q-16 150 -19.5 299t-5.5 297.5t-8 298t-27 297.5q-25 2 -53.5 3t-52 7t-38.5 20.5t-15 38.5zM197 1475v4q0 20 24.5 48.5t60 57.5t73.5 55.5t65 42.5q43 25 68.5 40.5t48.5 15.5q39 0 56 -5t17 -28 q0 -27 -18.5 -50.5t-26.5 -23.5t-43 -26q-25 -16 -58.5 -41t-63 -47.5t-50.5 -39.5l-20 -16l-13 -12q-10 -2 -33.5 -10t-33.5 -8l-10 2q-9 2 -18 7t-17 13t-8 21z" />
<glyph unicode="&#x404;" horiz-adv-x="1024" d="M-25 698q0 37 28 47.5t75 20.5q23 129 78 240.5t139 194.5t194.5 130t243.5 47q23 0 53.5 -1t59 -7t49 -18.5t20.5 -34.5q0 -23 -16 -43.5t-45 -20.5q-31 0 -61.5 5.5t-59.5 5.5q-109 0 -199 -39t-159.5 -105.5t-115.5 -156t-66 -191.5q72 -2 149 -22q57 -14 132 -38 t144 -24q35 0 65 8.5t54 28.5q16 14 37 14q27 0 46.5 -18.5t19.5 -40.5q0 -29 -27 -48.5t-62.5 -32.5t-72.5 -19.5t-57 -6.5q-53 0 -108.5 11.5t-111 26t-112 26.5t-111.5 16q0 -10 -1 -19t-1 -20q0 -82 18.5 -174t62.5 -168.5t119 -127t185 -50.5q94 0 185.5 37t175.5 84 q14 8 28 8q25 0 41.5 -19.5t16.5 -41.5q0 -33 -53.5 -66t-127 -60.5t-152.5 -45t-128 -17.5q-121 0 -210 55.5t-149.5 142.5t-92.5 193.5t-34 206.5v37t2 37q-16 -6 -34 -6q-25 0 -39.5 18.5t-14.5 40.5z" />
<glyph unicode="&#x405;" horiz-adv-x="909" d="M86 375q0 29 19.5 46t41.5 17q35 0 54 -39q14 -57 38.5 -112.5t59.5 -99.5t79 -71.5t97 -27.5q39 0 77 15.5t65.5 43t45 65.5t17.5 81q0 70 -33 123t-82 99t-106.5 90t-106.5 94.5t-81.5 112.5t-32.5 146q0 72 28.5 132.5t74.5 104.5t103.5 68.5t114.5 24.5 q80 0 149.5 -46t110.5 -130q10 -20 10 -39q1 -35 -24 -55q-16 -12 -35 -12q-29 0 -49 30q-23 57 -68 86t-96 29q-43 0 -79 -18.5t-63.5 -48t-43 -66.5t-15.5 -76q0 -29 9.5 -55.5t31.5 -48.5q53 -53 123 -111.5t131.5 -125t103.5 -142.5t42 -164q0 -76 -28 -138.5 t-73 -106.5t-103 -68.5t-120 -24.5q-80 0 -142.5 35t-108.5 90t-77.5 124.5t-54.5 139.5q-4 10 -4 29z" />
<glyph unicode="&#x406;" horiz-adv-x="655" d="M66 1282q0 23 16 38t39 15q16 0 33.5 -1t33.5 -1t30.5 1t31.5 1h4q2 0 3 1t3 1t3 -1t5 -1q37 0 72 1t70 1q23 0 54.5 -2t59 -8t47 -20.5t19.5 -38.5q0 -25 -19.5 -39.5t-40.5 -14.5q-4 0 -20 5q2 2 2 10h-178q31 -139 43 -280.5t16 -284t7 -284.5t16 -284q18 2 36.5 3 t34.5 1q31 0 61.5 -3t61.5 -7q27 0 39.5 -16.5t12.5 -36.5t-13.5 -36.5t-40.5 -16.5t-52.5 5t-51.5 5q-49 0 -94 -6q-12 -31 -52 -31h-6l-92 8h2l-41 2q-25 2 -41 16.5t-16 36.5q0 23 18.5 37.5t40.5 16.5l76 6q-12 143 -15 287.5t-7.5 289t-17.5 287.5t-46 285h-88 q-25 0 -42 15.5t-17 37.5z" />
<glyph unicode="&#x407;" horiz-adv-x="655" d="M49 1507q0 25 12 42.5t41 31.5q23 2 47.5 1t44 -7t31 -19.5t8.5 -35.5q0 -29 -20 -52.5t-49 -33.5q-27 -8 -45.5 -2t-32.5 19t-22.5 28.5t-14.5 27.5zM66 1282q0 23 16 38t39 15q16 0 33.5 -1t33.5 -1t30.5 1t31.5 1h4q2 0 3 1t3 1t3 -1t5 -1q37 0 72 1t70 1 q23 0 54.5 -2t59 -8t47 -20.5t19.5 -38.5q0 -25 -19.5 -39.5t-40.5 -14.5q-4 0 -20 5q2 2 2 10h-178q31 -139 43 -280.5t16 -284t7 -284.5t16 -284q18 2 36.5 3t34.5 1q31 0 61.5 -3t61.5 -7q27 0 39.5 -16.5t12.5 -36.5t-13.5 -36.5t-40.5 -16.5t-52.5 5t-51.5 5 q-49 0 -94 -6q-12 -31 -52 -31h-6l-92 8h2l-41 2q-25 2 -41 16.5t-16 36.5q0 23 18.5 37.5t40.5 16.5l76 6q-12 143 -15 287.5t-7.5 289t-17.5 287.5t-46 285h-88q-25 0 -42 15.5t-17 37.5zM368.5 1481q-1.5 35 15.5 59.5t51 31.5t73 -22q20 -6 32.5 -21.5t16.5 -32.5 t1 -33.5t-11 -28.5q-8 -18 -26.5 -25.5t-40 -6.5t-43 7t-36.5 12q-31 25 -32.5 60z" />
<glyph unicode="&#x408;" horiz-adv-x="878" d="M223 508v10q0 27 17.5 40t38.5 13q18 0 32.5 -10t18.5 -33q16 -86 22 -136t15 -95q2 -14 11 -52t25.5 -82t42 -85t64.5 -62l39 -8l61 168q10 74 13.5 141.5t3.5 133.5q0 86 -5.5 170t-10.5 170t-10 176t-5 188v8l-45 4q-47 4 -95 5.5t-96 5.5h-45q-23 0 -38 16t-15 39 t15.5 38t37.5 15h564q23 0 39 -16.5t16 -38.5q0 -23 -16.5 -38t-38.5 -15h-174v-21q0 -96 6 -183t13 -172t13 -169t6 -170q0 -100 -12 -203.5t-43 -218.5l-51 -104q-10 -18 -33.5 -29.5t-40.5 -11.5q-12 0 -18 2l-47 10q-68 25 -111 74t-68.5 104t-37 105.5t-17.5 74.5 q-10 47 -17 101.5t-24 140.5z" />
<glyph unicode="&#x409;" horiz-adv-x="1378" d="M-96 53q0 16 8 32.5t31 25.5q102 39 163.5 116.5t94 178t45 216t14.5 231.5t1 224.5t9 194.5q4 23 18.5 40t39.5 17q137 0 273 4t273 4q29 0 42.5 -17t13.5 -40q0 -59 -68 -59q-12 -262 -18 -519q12 23 37 29q55 14 116 14q72 0 138.5 -21.5t118 -63.5t82 -103t32.5 -143 q0 -113 -47 -196t-123 -137t-173 -82t-198 -28q-29 0 -42 18.5t-13 41.5q0 10 4 26q-16 4 -29.5 17.5t-15.5 36.5q-4 86 -4 167.5v167.5q0 195 5 386.5t16 386.5q-92 -2 -183.5 -3.5t-183.5 -1.5q-8 -104 -8 -222t-6.5 -237.5t-24.5 -236.5t-61 -217t-117 -179t-191 -124 q-16 -4 -20 -4q-23 0 -36 18.5t-13 40.5zM842 465q0 -176 6 -354q0 -17 -2 -23q68 2 139.5 19.5t131 53.5t97 92t37.5 136q0 59 -19.5 104.5t-53 76t-78.5 46t-96 15.5q-27 0 -53.5 -7.5t-53.5 -7.5q-20 0 -33.5 12.5t-19.5 28.5q-2 -47 -2 -96v-96z" />
<glyph unicode="&#x40a;" horiz-adv-x="1331" d="M119 1239q-4 41 19.5 55.5t45.5 16.5q23 2 42.5 -14.5t21.5 -57.5q4 -115 4 -250v-250q35 6 81 11.5t99 10.5t109.5 9t111.5 4q2 80 3 139.5t1 115.5t2.5 116.5t6.5 138.5q0 29 19.5 42t41.5 11q23 -2 39 -16t14 -43q-4 -78 -5 -137.5t-1 -114.5t-1 -114.5t-3 -137.5 q96 -4 188.5 -22.5t166 -56.5t122.5 -99t60 -154q2 -10 2 -19v-20q0 -88 -44 -162.5t-113 -130t-155 -86t-168 -30.5q-35 0 -51 17.5t-16 43.5q0 23 13 39.5t42 16.5q57 0 124 20.5t123 58t93 92t37 121.5q0 76 -47 123t-114.5 75t-141.5 38t-125 14q-4 -158 -7 -314.5 t-3 -315.5q0 -29 -17.5 -42.5t-40.5 -13.5t-41 13.5t-18 42.5q0 160 3 317.5t7 316.5q-92 -2 -194.5 -10t-190.5 -22h-14l-6 -260q-2 -86 -2 -169t4 -155q8 -20 4 -35q-2 -25 -23.5 -40t-46.5 -11q-12 2 -24.5 12t-18.5 27q-10 57 -13 122.5t-1 135.5q2 68 4 141.5t4 140 t3 117.5t1 70q0 121 -1 260t-15 258z" />
<glyph unicode="&#x40b;" horiz-adv-x="1177" d="M-121 1323q0 43 35 52t80 9q154 0 309.5 -9t308.5 -9q72 0 140.5 3t140.5 13q57 0 57 -51q0 -23 -14 -42t-43 -23q-72 -10 -144.5 -13.5t-144.5 -3.5q-29 0 -57.5 1t-57.5 1q8 -104 12.5 -205.5t8.5 -205.5q61 29 129 50t129 21q72 0 130 -40t81 -142q14 -66 13 -160 t5.5 -189t31.5 -176t93 -120q29 -16 29 -47q0 -23 -16.5 -42.5t-40.5 -19.5q-14 0 -29 9q-68 39 -102.5 100t-50 133t-18.5 147.5t-7 141.5q-2 39 -3 91t-12.5 98t-39 79t-82.5 33q-29 0 -61 -9.5t-63.5 -23.5t-61 -30.5t-54.5 -30.5q0 -172 -2 -340t-8 -340 q0 -29 -18.5 -42.5t-41.5 -13.5t-40 12.5t-17 41.5q0 170 6 339t6 337q-10 16 -10 36q0 18 10 29q-4 123 -8 243t-14 240q-90 4 -178.5 8.5t-176.5 4.5q-23 0 -42 -1t-39 -1q-29 0 -43.5 17t-14.5 40z" />
<glyph unicode="&#x40c;" horiz-adv-x="864" d="M100 1262q0 31 18.5 46t47.5 15q23 0 42 -12.5t21 -40.5l21 -430q57 57 113.5 107t110.5 99.5t106.5 98.5t99.5 106q16 23 51 23q29 0 47.5 -18.5t18.5 -38.5q0 -16 -15.5 -39t-38 -46.5t-46.5 -46.5t-42 -41q-100 -98 -203.5 -185t-191.5 -193l37 -703q2 -23 -16.5 -43 t-44.5 -20q-27 0 -46.5 15t-21.5 42zM334 1421v4q0 20 24.5 49t60.5 58t73.5 55.5t64.5 42.5q43 25 68.5 40.5t48.5 15.5q39 0 56.5 -5t17.5 -28q0 -27 -18.5 -50.5t-27.5 -23.5q-8 0 -43 -27q-25 -16 -58.5 -40.5t-63 -47t-49.5 -38.5l-21 -17l-12 -12q-10 -2 -34 -10.5 t-34 -8.5l-9 2t-18.5 7.5t-17.5 13.5t-8 20zM440 817q0 25 21.5 41t48.5 16q16 0 32.5 -7t22.5 -27q78 -223 152 -446.5t174 -440.5q6 -12 6 -23q0 -39 -41 -55q-12 -6 -27 -6q-41 0 -57 37q-100 217 -174 440t-152 447q-6 12 -6 24z" />
<glyph unicode="&#x40e;" horiz-adv-x="921" d="M35 1278q0 29 16.5 43t38.5 14q23 0 41.5 -14t20.5 -43q4 -106 22.5 -228t60 -235t111.5 -205t178 -141q45 98 77 207.5t57.5 219.5t48 213t49.5 189q6 23 22.5 32t32.5 9q23 0 42 -14t19 -39q0 -6 -4 -18q-29 -92 -53 -201t-52 -221.5t-62.5 -225t-82.5 -212.5 q2 -4 3 -15q0 -18 -10.5 -35.5t-28.5 -23.5q-70 -127 -171.5 -220.5t-252.5 -129.5q-6 -2 -17 -2q-27 0 -42 19t-15 42q0 18 10 33.5t33 19.5q117 29 200 100.5t142 170.5q-123 57 -204 159.5t-130 228.5t-71.5 262t-28.5 261zM150 1573q0 23 19 40t44 17q23 0 39 -14 q51 -41 105.5 -67.5t107.5 -26.5q43 0 85 20.5t79 67.5q18 20 37 20q23 0 41 -19.5t18 -43.5q0 -23 -14 -39q-53 -66 -112.5 -94.5t-125.5 -28.5q-78 0 -155.5 36t-147.5 93q-20 18 -20 39z" />
<glyph unicode="&#x40f;" horiz-adv-x="968" d="M29 1364q0 29 17 43t40 14t40 -14t17 -43q0 -61 2 -176t5.5 -251t7.5 -276.5t8 -256t9 -188.5t11 -73q8 0 24.5 5.5t55.5 5.5q53 0 109.5 -1t113.5 5q12 2 50.5 3t79 7t73.5 19.5t37 41.5q23 143 37 285q43 430 43 860q2 29 19.5 42.5t39.5 13.5q23 0 40.5 -13.5 t17.5 -42.5q-2 -317 -23.5 -627.5t-75.5 -621.5q-2 -23 -32.5 -35t-73.5 -20.5t-87 -11.5t-75 -5q2 -25 3 -49t1 -47q0 -78 -18.5 -147.5t-71.5 -135.5q-14 -20 -37 -20t-41 19.5t-18 43.5q0 23 14 39q35 41 47.5 90.5t12.5 102.5q0 23 -2.5 47t-4.5 47q-20 0 -39.5 -1 t-39.5 -1q-63 0 -126 4t-128 12q-20 4 -30.5 21.5t-12.5 36.5q-20 313 -29.5 624.5t-9.5 624.5z" />
<glyph unicode="&#x410;" horiz-adv-x="808" d="M-41 -20q0 4 4 16q31 59 49.5 120.5t31.5 125t28.5 126t40.5 124.5q-25 6 -42.5 7t-28.5 4t-17.5 9t-6.5 23q0 16 13.5 30.5t36.5 14.5q45 0 79 -7q68 168 136.5 331t156.5 325q8 18 29 26v11q0 16 15.5 28.5t37.5 12.5q23 0 39.5 -12.5t16.5 -28.5q18 -174 24 -343 t14 -343q29 2 60 3t65 1q23 0 39.5 -11.5t16.5 -27.5q0 -23 -19.5 -33t-47.5 -13t-58.5 -3h-50.5q8 -123 20 -243t41 -243q0 -2 1 -3t1 -3q0 -16 -14.5 -26.5t-34.5 -14.5q-51 0 -60 37q-33 113 -42 224.5t-15 228.5l-2 41q-55 -4 -106.5 -5.5t-106.5 -1.5h-78l-6 -16 q-18 -51 -38.5 -140t-44 -176t-54.5 -150.5t-70 -63.5q-27 0 -40 12t-13 27zM260 571h51q51 0 99.5 1t101.5 3q-6 129 -14.5 253t-16.5 253q-63 -125 -115.5 -253t-105.5 -257z" />
<glyph unicode="&#x411;" horiz-adv-x="753" d="M80 49q0 217 18.5 429t18.5 427q0 100 -7.5 199.5t-27.5 200.5q0 59 49 69q18 12 43 12q102 -14 202.5 -21t205.5 -7q29 0 42 -17.5t13 -40.5t-13.5 -41t-41.5 -18q-190 0 -375 25q12 -86 17 -170t5 -170v-58.5t-2 -58.5q98 -4 190.5 -29.5t163 -79t113.5 -135.5t43 -196 q0 -119 -44 -195t-117.5 -120t-169 -63.5t-199.5 -25.5q-39 0 -51 31q-6 -2 -19 -2q-23 0 -40 13t-17 42zM197 78q2 0 4 1t6 1q74 4 149.5 16.5t136 42t99.5 79.5t39 130q0 100 -36 167t-94.5 107t-131 56t-146.5 16q-6 -154 -16 -307.5t-10 -308.5z" />
<glyph unicode="&#x412;" horiz-adv-x="765" d="M39 1202q0 25 33.5 42.5t82 27.5t100.5 14t91 4q66 0 130.5 -13t121.5 -46q41 -45 59.5 -93t18.5 -98q0 -92 -52.5 -175t-129.5 -144q121 -35 187.5 -107.5t66.5 -218.5q0 -41 -10.5 -76.5t-39.5 -70.5q-98 -117 -210.5 -206t-247.5 -161l-7 -55q-4 -25 -21 -38t-40 -13 q-27 0 -42 17.5t-15 39.5q4 6 2 12t2 13q-23 16 -23 41q0 10 9.5 29.5t25.5 19.5q27 207 41 409.5t14 409.5q0 90 -6 177t-6 179q0 16 13.5 30.5t31.5 18.5q-51 -6 -96 -18q-16 -6 -29 -6q-20 0 -37.5 14.5t-17.5 40.5zM229 1174h4q25 0 41.5 -16.5t18.5 -39.5q4 -84 7 -164 t3 -163v-52l41 17q37 29 76 56.5t69.5 59t50 73.5t19.5 102q0 49 -22.5 75.5t-57.5 40t-74.5 15.5t-76.5 2q-49 0 -99 -6zM258 20q57 35 124 79t123 96.5t93 111t37 119.5q0 49 -31 96q-25 33 -57.5 54.5t-69.5 34t-76 18.5t-75 10q-12 0 -23 8q-4 -160 -15.5 -313.5 t-29.5 -313.5z" />
<glyph unicode="&#x413;" horiz-adv-x="710" d="M-14 1290q0 27 20.5 45.5t46.5 18.5q41 0 84 -6.5t84 -6.5q104 0 205.5 5.5t206.5 5.5h45t40.5 -6.5t31 -18.5t12.5 -37q0 -29 -20.5 -45t-49.5 -16q-20 2 -39.5 2h-42.5q-82 0 -161.5 -4t-165.5 -6q18 -147 24 -294t9 -294.5t7.5 -295t18.5 -294.5q0 -4 1 -5t1 -5 q0 -29 -22.5 -44.5t-49.5 -15.5q-23 0 -43 13.5t-24 42.5q-16 150 -19.5 299t-5.5 297.5t-8 298t-27 297.5q-25 2 -53.5 3t-52 7t-38.5 20.5t-15 38.5z" />
<glyph unicode="&#x414;" horiz-adv-x="1103" d="M14 45q0 12 6.5 24.5t22.5 22.5q84 55 146.5 148.5t103.5 206t61.5 236.5t20.5 239q0 68 -6.5 129t-20.5 114q0 4 -1 7.5t-1 7.5q0 29 20.5 44t43.5 15q4 0 6 -1t4 -1q113 0 222.5 8t221.5 8q37 0 69 -10t34 -51q4 -78 5 -157t1 -156q0 -182 -4 -362.5t-6 -362.5 q14 0 27.5 -1t29.5 -1q29 -2 42 -20.5t13 -41.5t-12 -39t-39 -16q-16 0 -31.5 1t-31.5 1q0 -37 1 -75t1 -77q0 -29 -17.5 -43t-40.5 -14q-41 0 -52 35t-11 80q0 27 2 52t2 48q-82 4 -163 8t-165 4q-92 0 -183 -6t-183 -22q-6 0 -8.5 -2t-6.5 -5q0 -25 2 -53t2 -57 q0 -47 -11 -81t-50 -34q-23 0 -41.5 13.5t-18.5 41.5q0 49 -3 96.5t-3 98.5zM270 158q66 6 132.5 8t132.5 2q78 0 155.5 -2t155.5 -6q4 174 8 347t4 347q0 139 -6 281q-92 0 -186.5 -3.5t-190.5 -7.5q8 -47 12.5 -98t4.5 -104q0 -98 -13.5 -201t-41 -203t-70 -192 t-97.5 -168z" />
<glyph unicode="&#x415;" horiz-adv-x="827" d="M-14 1221q0 27 21.5 44t47.5 17q55 0 109.5 -4t107.5 -4q113 0 222.5 5t222.5 5h44.5t45 -5t34 -18.5t13.5 -37.5q0 -23 -18.5 -40.5t-44.5 -17.5q-25 0 -48.5 1t-48.5 1q-98 0 -197.5 -4t-197.5 -6q4 -106 11 -210.5t18 -209.5q145 23 286 31q27 0 46.5 -15.5 t19.5 -39.5q0 -31 -38 -48.5t-91 -25.5t-111.5 -11t-101.5 -7q8 -96 13 -189.5t5 -189.5q0 -88 -6 -176q88 12 176 20t179 8h33.5t33.5 -2q29 -2 46.5 -18.5t17.5 -40.5q0 -23 -15.5 -40.5t-44.5 -17.5h-65q-131 0 -260 -14t-258 -35q-4 0 -6.5 -1t-6.5 -1q-25 0 -44 16.5 t-19 43.5q0 39 32.5 49t69.5 14q4 51 6 101.5t2 99.5q0 115 -8 228.5t-17 227t-18.5 227t-11.5 228.5h-56.5t-61 5t-49 18.5t-19.5 38.5z" />
<glyph unicode="&#x416;" horiz-adv-x="1273" d="M47 29q0 16 8 30q35 61 92.5 128t111.5 138.5t93 146.5t39 149q0 84 -34.5 158.5t-84 144t-103.5 136t-93 134.5q-8 14 -8 29q0 25 20.5 41t42.5 16q12 0 24.5 -6t20.5 -23q35 -59 84 -120.5t98.5 -126t88 -132t55.5 -139.5h88q-2 133 -9.5 264t-7.5 265q0 29 17.5 42 t40.5 13t41 -13.5t18 -41.5l15 -533q25 -2 48 -4t46 -6q18 80 61 147.5t96.5 130t108.5 123.5t98 131q16 29 47 29q23 0 42.5 -16.5t19.5 -40.5q0 -14 -8 -29q-35 -55 -90.5 -115.5t-111.5 -124t-101.5 -131t-55.5 -137.5q10 -8 14.5 -19.5t4.5 -21.5q0 -27 -15 -43 q18 -78 58.5 -147.5t87.5 -135t97 -129t89 -131.5q8 -14 8 -28q0 -25 -19.5 -42.5t-41.5 -17.5q-31 0 -47 29q-39 66 -96.5 137.5t-111.5 146t-96 154.5t-49 164q-20 4 -39.5 6t-39.5 4q2 -98 4 -197.5t2 -197.5q0 -59 -2 -115.5t-2 -115.5q0 -29 -17.5 -42.5t-40.5 -13.5 t-40 12.5t-17 41.5q0 57 1 113.5t1 113.5q0 203 -6 405h-86q-12 -92 -51 -170.5t-91.5 -152.5t-107.5 -145.5t-100 -147.5q-16 -29 -47 -29q-23 0 -42.5 16.5t-19.5 41.5z" />
<glyph unicode="&#x417;" horiz-adv-x="897" d="M27 147q0 25 18 43.5t41 18.5q20 0 39 -19q45 -49 124 -76.5t165 -27.5q61 0 117.5 17.5t99.5 51t67.5 83t24.5 114.5q0 76 -41 138.5t-105.5 106.5t-142.5 69.5t-149 27.5q-27 2 -41.5 22.5t-14.5 41.5q0 43 41 49q31 6 84.5 20.5t103.5 38t88 57t38 76.5q0 41 -21.5 72 t-52.5 50.5t-66.5 28.5t-64.5 9q-47 0 -94 -12t-88 -33q-12 -6 -27 -6q-27 0 -44 20.5t-17 42.5q0 25 30.5 44.5t73.5 32t89 19.5t79 7q49 0 104.5 -15.5t102.5 -49t77.5 -85t30.5 -125.5q0 -84 -59 -143t-139 -98q68 -29 133 -71t115.5 -95t81 -114.5t30.5 -129.5 q0 -82 -43 -151.5t-111.5 -119.5t-154.5 -79t-170 -29q-94 0 -182 34t-154 106q-16 20 -16 38z" />
<glyph unicode="&#x418;" horiz-adv-x="813" d="M35 1247q6 20 21.5 30.5t33.5 10.5q23 0 40 -13t17 -36q0 -8 -2 -12q4 -164 20.5 -347.5t16.5 -357.5q0 -86 -6 -162q45 96 93 201t99.5 209t104.5 205.5t109 193.5l51 113q8 16 23.5 24.5t31.5 8.5q23 0 40 -13.5t17 -37.5v-35q0 -41 -1 -83t-1 -83q0 -23 1 -84 t2.5 -142t3.5 -170t3 -168t2 -136.5t1 -75.5v-61.5t-2 -73.5q0 -10 1 -33t1 -51q0 -33 -8.5 -68t-49.5 -35q-25 0 -38 12.5t-19 32t-6 43v45.5v39t1 59.5t1 57.5v37q0 104 -2 192t-3 174t-3 175.5t-2 191.5q-57 -115 -117.5 -242t-120 -256t-116 -256t-103.5 -241v-2 q-14 -41 -55 -41q-23 0 -41.5 13t-18.5 36v45q6 66 8.5 131t2.5 133q0 233 -15.5 463.5t-15.5 439.5z" />
<glyph unicode="&#x419;" horiz-adv-x="835" d="M29 1280q0 29 17 43t40 14t40 -14t17 -43q2 -254 7.5 -504t15.5 -504q119 248 239.5 494t227.5 502q8 20 25.5 30.5t33.5 10.5q20 0 36.5 -14.5t16.5 -43.5q8 -219 14.5 -436t6.5 -434q4 -92 -1 -181t-5 -182q0 -29 -18.5 -43t-41.5 -14t-39 13.5t-16 41.5q0 90 3 178.5 t3 178.5q0 156 -4 311.5t-8 310.5q-115 -252 -235.5 -496.5t-237.5 -494.5q-14 -29 -45 -29q-23 0 -42.5 16.5t-21.5 41.5q-10 313 -19 623.5t-9 623.5zM119 1618q0 23 19.5 41t43.5 18q23 0 39 -14q51 -41 105.5 -68.5t107.5 -27.5q43 0 85 21.5t79 68.5q18 20 37 20 q23 0 41 -19.5t18 -45.5q0 -23 -14 -39q-51 -66 -110.5 -94.5t-125.5 -28.5q-78 0 -156.5 37t-150.5 94q-18 18 -18 37z" />
<glyph unicode="&#x41a;" horiz-adv-x="864" d="M100 1262q0 31 18.5 46t47.5 15q23 0 42 -12.5t21 -40.5l21 -430q57 57 113.5 107t110.5 99.5t106.5 98.5t99.5 106q16 23 51 23q29 0 47.5 -18.5t18.5 -38.5q0 -16 -15.5 -39t-38 -46.5t-46.5 -46.5t-42 -41q-100 -98 -203.5 -185t-191.5 -193l37 -703q2 -23 -16.5 -43 t-44.5 -20q-27 0 -46.5 15t-21.5 42zM440 817q0 25 21.5 41t48.5 16q16 0 32.5 -7t22.5 -27q78 -223 152 -446.5t174 -440.5q6 -12 6 -23q0 -39 -41 -55q-12 -6 -27 -6q-41 0 -57 37q-100 217 -174 440t-152 447q-6 12 -6 24z" />
<glyph unicode="&#x41b;" horiz-adv-x="1001" d="M-90 -41q0 16 9 32.5t30 24.5q102 39 163.5 117t95.5 178.5t45 216t14 231t2 224.5t10 195q4 25 17 41t40 16q137 0 272.5 4t272.5 4q29 0 43 -17.5t14 -39.5q0 -23 -16.5 -41.5t-49.5 -18.5q0 -279 4.5 -554t26.5 -556q0 -29 -15.5 -42t-37.5 -13q-23 0 -40 13.5 t-22 41.5q-23 281 -27.5 555.5t-4.5 554.5l-367 -6q-8 -104 -9 -221t-7 -237.5t-24.5 -236.5t-61.5 -216t-117 -179t-190 -124q-8 -4 -21 -4q-23 0 -36 17.5t-13 39.5z" />
<glyph unicode="&#x41c;" horiz-adv-x="1097" d="M37 -45q35 166 59.5 336t52 339t62.5 336t90 330l8 41q4 23 21.5 36t38.5 13q16 0 32.5 -11t20.5 -34l27 -135q27 -135 44 -269t37 -269q29 135 58.5 266t66.5 262l-8 31l-4 49v8q0 29 19.5 45.5t42.5 16.5q25 0 39 -11.5t21 -29t10 -35t5 -29.5l-10 -43l2 -14 q90 -285 155.5 -571.5t125.5 -579.5q0 -4 1 -6t1 -7q0 -27 -17.5 -46t-46.5 -19q-18 0 -34.5 13.5t-20.5 35.5q-43 242 -101.5 477.5t-119.5 474.5q-49 -219 -101 -426l-36 -96q-8 -23 -34 -36t-44 -13q-35 0 -48.5 32t-13.5 62l-86 578q-35 -137 -59.5 -275.5t-46 -279 t-43 -279.5t-49.5 -278q-2 -27 -20.5 -42.5t-41.5 -15.5q-27 0 -41 19.5t-14 48.5z" />
<glyph unicode="&#x41d;" horiz-adv-x="927" d="M16 737q0 23 17.5 37t42.5 14h92v43q0 98 -7 194.5t-24 195.5v10q0 23 18.5 36t41.5 13q20 0 36.5 -11.5t20.5 -33.5q18 -100 25.5 -200.5t7.5 -203.5v-43h360q0 119 -3 237t-13 235q-2 6 -2 16q0 23 18.5 36t42.5 13q18 0 33.5 -10.5t21.5 -28.5q14 -131 18.5 -261 t4.5 -261q0 -147 -3 -291.5t-3 -292.5q0 -45 1 -90t1 -90q0 -23 -17.5 -37t-41.5 -14q-25 0 -42.5 14t-17.5 37q0 55 -1 109.5t-1 107.5q0 117 1 233.5t3 233.5h-362q-8 -174 -26.5 -342t-37.5 -342q0 -23 -17.5 -37t-39.5 -14q-27 0 -44.5 13t-17.5 38q16 174 36 342 t28 342h-90q-25 0 -42.5 15.5t-17.5 37.5z" />
<glyph unicode="&#x41e;" horiz-adv-x="862" d="M49 678q0 72 12.5 148.5t41 149.5t75.5 136.5t119 110.5q18 12 39 12q10 0 14 -2q8 18 24.5 27.5t35.5 9.5q23 0 39 -13q72 -49 137 -108t96 -137q33 -86 47 -170t14 -170q0 -76 -9 -151t-23 -150q-14 -86 -53.5 -170.5t-133.5 -141.5q-72 -47 -159 -47 q-59 0 -105.5 23.5t-80.5 58.5t-54.5 77t-30.5 77q-16 55 -17 112.5t-11 112.5q-8 51 -12.5 101.5t-4.5 103.5zM170 668q0 -47 4 -93.5t12 -93.5q8 -49 13.5 -96t16.5 -92t31.5 -86t59.5 -76q16 -2 33.5 -3t34.5 -1q66 0 106.5 35t65 84t36 104.5t17.5 98.5q8 61 13 120.5 t5 118.5q0 74 -11 145.5t-42 143.5q-23 55 -69.5 99t-104.5 83q-8 -14 -20 -22q-59 -41 -98.5 -96.5t-62 -118t-31.5 -128t-9 -126.5z" />
<glyph unicode="&#x41f;" horiz-adv-x="1042" d="M-53 1278q0 23 16.5 41t46.5 18q45 0 88 -10t86 -16q16 14 45 14q35 0 54 -27q98 -10 193 -17t194 -7q25 0 48 1t48 1q20 14 45 14h16q8 0 11 -2l20 -2q29 -4 44.5 -18.5t15.5 -34.5q0 -29 -31 -47l-10 -6q2 -41 2 -79v-77q0 -258 -12.5 -503t-28.5 -509 q-2 -27 -22.5 -40t-43.5 -13q-29 0 -47 15.5t-18 43.5q18 289 24 571.5t12 573.5h-45q-98 0 -194 6.5t-195 16.5q39 -211 47.5 -423t8.5 -427v-365q0 -27 -20.5 -42t-45.5 -15q-35 0 -50.5 24.5t-18.5 61.5t0 77t3 70v222q0 211 -9 418.5t-48 414.5q-31 2 -69.5 5 t-74.5 10.5t-60.5 20.5t-24.5 40z" />
<glyph unicode="&#x420;" horiz-adv-x="741" d="M35 1217q0 27 24.5 45t59.5 28t73.5 15.5t69.5 5.5q80 0 157 -30t137 -82t97 -127t37 -163q0 -76 -41 -134t-103.5 -101t-135.5 -73t-136 -46q6 -154 10.5 -307.5t18.5 -306.5q0 -53 -55 -64q-23 0 -42.5 12.5t-23.5 40.5q-12 150 -17 299.5t-11.5 298t-15.5 298 t-29 298.5q0 27 20 43l-16 -6q-4 -2 -17 -2q-23 0 -42 15.5t-19 42.5zM176 1184q20 -4 35.5 -19.5t19.5 -38.5q14 -117 24.5 -226t14.5 -226q45 12 97.5 34.5t97.5 53.5t73.5 68.5t28.5 80.5q0 53 -26.5 104.5t-69.5 91.5t-98.5 64.5t-110.5 24.5q-43 0 -86 -12z" />
<glyph unicode="&#x421;" horiz-adv-x="817" d="M92 498q2 106 18.5 211.5t39.5 210.5q14 72 53 138t94 118.5t122.5 83t139.5 30.5q27 0 63.5 -8t73.5 -22.5t64.5 -35t36.5 -42.5l18 -27q10 -16 13 -23.5t3 -21.5q0 -27 -8 -51.5t-41 -24.5q-18 0 -28.5 3t-12.5 28l-39 47l-32 21q-59 37 -113 36q-47 0 -89 -22.5 t-79 -57t-65.5 -79.5t-47.5 -90q-35 -80 -44 -167t-9 -178q0 -39 1 -77.5t1 -75.5q0 -55 15.5 -112.5t45 -103.5t70.5 -75t95 -29q76 0 128 49.5t87 114.5q23 29 49 29q29 0 46 -19.5t17 -42.5q0 -16 -10 -36q-41 -96 -128 -158t-191 -62q-98 0 -167 53.5t-111 132.5 t-60.5 170t-18.5 165z" />
<glyph unicode="&#x422;" horiz-adv-x="714" d="M-72 1184q0 27 18.5 44t45.5 17h186q63 0 123.5 2t123 6t128 11.5t141.5 17.5q6 2 15 2q27 0 42 -21.5t15 -43.5q0 -23 -13.5 -39.5t-41.5 -18.5q-92 -12 -168 -20t-150 -13q18 -14 21 -38q10 -147 12 -267.5t2 -232.5q0 -94 -1 -188.5t-1 -202.5q0 -45 1 -93.5t1 -101.5 q0 -27 -18 -44t-43 -17q-35 0 -49.5 26.5t-17.5 63.5t0 77t3 66q0 123 1 227.5t1 210.5q0 104 -2 214t-12 245v10q0 25 16 41q-35 -2 -72.5 -3t-76.5 -1q-27 0 -66 -2t-75.5 1t-62.5 17.5t-26 47.5z" />
<glyph unicode="&#x423;" horiz-adv-x="884" d="M45 1253q0 29 16.5 43.5t38.5 14.5q23 0 41.5 -14.5t20.5 -43.5q4 -106 22.5 -228t60.5 -234.5t111.5 -204.5t178.5 -142q45 98 76.5 208t57 219.5t48 213t49.5 189.5q6 23 22.5 32t32.5 9q23 0 42.5 -14.5t19.5 -38.5q0 -6 -4 -19q-29 -92 -53.5 -200.5t-52.5 -221 t-62.5 -225.5t-81.5 -213q2 -4 2 -14q0 -18 -10.5 -36t-28.5 -24q-70 -127 -171.5 -220t-252.5 -130q-6 -2 -16 -2q-27 0 -42.5 19.5t-15.5 41.5q0 18 10.5 34t32.5 20q117 29 200 100.5t142 169.5q-123 57 -203.5 159.5t-130 228.5t-72 262t-28.5 261z" />
<glyph unicode="&#x424;" horiz-adv-x="1034" d="M51 762q0 47 8.5 98t27.5 99.5t50 89.5t74 65q-6 10 -8 19.5t-2 19.5q0 27 17.5 42t42 22.5t54 8.5t54.5 1q27 0 51 -3t49 -7v149q0 29 19.5 45t46.5 16q35 0 50 -26.5t19 -64.5t1 -82t-3 -76q80 -35 144.5 -90.5t109.5 -125t68.5 -150.5t23.5 -169q0 -86 -24.5 -167 t-77.5 -150q-59 -47 -124.5 -70t-135.5 -27q-4 -139 -13 -274q-2 -27 -17 -45.5t-44 -18.5q-25 0 -47.5 16.5t-22.5 45.5q0 72 5.5 144.5t7.5 144.5q-86 23 -160 74t-128 121.5t-85 154.5t-31 170zM172 764q0 -115 58.5 -202t136.5 -156q23 -10 46 -18.5t46 -14.5 q4 150 7 297t3 295v122q-56 13 -117 13q4 -8 4 -23q0 -23 -13 -40t-38 -21q-37 -10 -61.5 -35t-41 -59.5t-23.5 -75.5t-7 -82zM592 358q47 2 92 16.5t86 49.5q29 51 44 108.5t15 116.5q0 90 -32 173.5t-95 142.5q-23 23 -48 40t-52 33q0 -174 -3 -341t-7 -339z" />
<glyph unicode="&#x425;" horiz-adv-x="720" d="M-39 109q0 14 6 26q37 80 80 157t89 151.5t93 148.5t90 149q-47 135 -105 263.5t-130 250.5q-8 14 -8 33q0 25 17.5 44.5t47.5 19.5q37 0 56 -31q59 -104 109 -206.5t97 -219.5q66 113 121.5 222.5t98.5 225.5q8 20 26.5 33t36.5 13q27 0 47.5 -17.5t20.5 -44.5 q0 -8 -4 -20q-29 -78 -64 -151.5t-74 -145.5q-37 -72 -75.5 -140.5t-73.5 -140.5q16 -55 32.5 -109.5t30.5 -107.5q35 -135 70 -266t100 -254q14 -16 15 -37q0 -29 -21.5 -47.5t-50.5 -18.5t-55.5 40t-49 95.5t-41 114t-28.5 94.5q-4 12 -17.5 62.5t-29 109t-28.5 109.5 t-17 64q-84 -117 -157 -239t-128 -255q-16 -39 -61 -39q-31 0 -48.5 20.5t-17.5 43.5z" />
<glyph unicode="&#x426;" horiz-adv-x="876" d="M49 1221q0 29 17.5 43t39.5 14q23 0 41.5 -14.5t18.5 -42.5q0 -33 1 -119t3 -198.5t3 -238.5t3 -239t3 -200t1 -120q82 -4 162 -7t162 -3q51 0 79.5 20.5t43 54.5t17.5 77t3 88q0 80 2 158.5t2 156.5q0 143 -5 285.5t-9 284.5q0 29 16.5 43t38.5 14q23 0 40.5 -14.5 t19.5 -42.5q0 -16 1 -57.5t3 -93.5t4 -110.5t3 -110.5t2 -93t1 -58q0 -147 -9 -290.5t-32 -290.5q68 -43 93.5 -114t25.5 -146q0 -53 -13.5 -79t-52.5 -26q-23 0 -38 12.5t-15 34.5q0 16 2 32.5t2 33.5q0 35 -7 68.5t-30 60.5q-23 -14 -39 -14q-133 0 -265 2t-265 12 q-23 2 -40 17.5t-17 39.5q-2 295 -6.5 586t-10.5 584z" />
<glyph unicode="&#x427;" horiz-adv-x="784" d="M2 1198q0 55 7 91t54 36q23 0 40.5 -12.5t17.5 -40.5q0 -25 -1 -50.5t-1 -54.5q0 -92 13 -186t47 -170t91.5 -123t145.5 -47q45 0 93 11.5t97 29.5l8 4q0 180 -6 357.5t-6 357.5q0 29 17.5 42t39.5 13q23 0 41.5 -13t18.5 -42l22 -1374q0 -29 -16 -42.5t-39 -13.5 t-41 13.5t-18 42.5l-11 536q-106 -39 -208 -39q-125 0 -204 64.5t-124 164t-61.5 218.5t-16.5 227z" />
<glyph unicode="&#x428;" horiz-adv-x="1015" d="M16 1262q0 29 17.5 42t40.5 13t40 -13.5t19 -41.5q0 -6 2 -59.5t5 -135.5t7.5 -186.5t7.5 -212t7 -212t6 -186.5t4 -135t2 -59q86 8 169 11t167 3q-35 10 -35 51q6 147 6 295q0 182 -6 362.5t-14 362.5q0 29 17.5 42.5t39.5 13.5q23 0 40 -13.5t20 -42.5 q8 -184 13 -365.5t5 -367.5q0 -12 -1 -54t-1 -89t-1 -89t-1 -55q0 -20 -12.5 -33.5t-28.5 -17.5q78 0 156.5 -1t156.5 -3q6 184 10.5 365.5t4.5 365.5q0 109 -2.5 215.5t-6.5 214.5q0 29 16.5 42.5t39.5 13.5t41 -13.5t20 -42.5q4 -111 6 -221.5t2 -222.5q0 -195 -4 -387.5 t-12 -388.5q0 -23 -17.5 -40.5t-41.5 -17.5q-98 0 -193.5 2t-194.5 2q-104 0 -206.5 -4t-206.5 -14q-23 0 -41.5 17.5t-18.5 41.5q0 27 -3 122t-7 225.5t-9 276.5t-10 276t-9.5 225.5t-4.5 122.5z" />
<glyph unicode="&#x429;" horiz-adv-x="1165" d="M16 1280q0 29 16.5 43t39.5 14t40 -14t19 -43q10 -299 23.5 -592t19.5 -592q150 12 305 13q-16 16 -16 41q-4 182 -7 361t-3 361q0 78 2 154t6 154q2 29 20.5 43t40.5 14q20 0 36.5 -13.5t16.5 -39.5q0 -96 -4 -190.5t-4 -192.5q0 -164 3 -326t8 -325q0 -25 -17 -41 q76 0 150.5 -1.5t150.5 -1.5q6 180 11.5 356.5t5.5 356.5q0 113 -2.5 223.5t-8.5 223.5q0 29 16.5 43t39.5 14t41 -14.5t20 -42.5q6 -113 8 -223.5t2 -223.5q0 -180 -5 -357.5t-11 -357.5q88 -33 127 -107.5t39 -166.5q0 -47 -14.5 -72.5t-49.5 -25.5q-23 0 -38 13t-15 38 q0 10 1 22.5t1 22.5q0 53 -17.5 98t-68.5 68q-16 -4 -24 -4q-100 0 -201 2t-201 2q-102 0 -201.5 -4t-199.5 -15q-23 0 -40.5 17.5t-17.5 40.5q0 18 -2 77.5t-4 144.5t-6 189.5t-8 212t-7 212t-6 189.5t-6.5 144.5t-3.5 77.5z" />
<glyph unicode="&#x42a;" horiz-adv-x="942" d="M-6 1257q0 20 12 36t37 16q16 0 33.5 -1t34.5 -1q68 0 134 8t134 8q29 0 43 -17.5t14 -39.5q0 -135 -7 -270.5t-17 -270.5q4 4 9 5t9 3q55 14 119 15q74 0 141.5 -23t119.5 -66t83 -108.5t31 -151.5q0 -109 -48.5 -188.5t-125 -131.5t-173 -78t-194.5 -26q-27 0 -41 25 q-4 -2 -12 -2q-41 0 -50.5 30.5t-9.5 71.5q0 281 21.5 554.5t27.5 549.5q-51 -4 -100 -9t-100 -5q-53 0 -89 11t-36 56zM387 119q0 -19 2 -29q68 0 141.5 16.5t135 52.5t101.5 92t40 136q0 61 -20.5 107.5t-54.5 77t-80 46t-97 15.5q-25 0 -51.5 -6t-52.5 -6q-31 0 -45 18 q-8 -131 -13.5 -260t-5.5 -260z" />
<glyph unicode="&#x42b;" horiz-adv-x="1333" d="M158 100q0 281 21.5 554.5t27.5 549.5q2 66 17.5 92.5t35.5 26.5q63 0 64 -57q0 -135 -7.5 -270.5t-17.5 -270.5q4 4 9 5t9 3q55 14 119 15q74 0 141.5 -23t120 -66t83 -108.5t30.5 -151.5q0 -109 -48 -188.5t-125 -131.5t-173 -78t-195 -26q-27 0 -41 25q-4 -2 -12 -2 q-41 0 -50 30.5t-9 71.5zM274 119q0 -19 2 -29q68 0 142 16.5t135 52.5t101 92t40 136q0 61 -20.5 107.5t-54 77t-79.5 46t-98 15.5q-25 0 -51 -6t-53 -6q-31 0 -45 18q-8 -131 -13.5 -260t-5.5 -260zM1024 1274q-4 41 19.5 55t46.5 17q23 2 42 -14.5t21 -57.5q2 -57 3 -124 t1 -134.5v-134v-123.5l-2 -115l-6 -260q-2 -86 -2 -169t4 -155q8 -20 4 -34q-2 -25 -23.5 -40.5t-46.5 -11.5q-12 2 -24 12.5t-19 26.5q-10 57 -13 123t-1 135q2 68 4 141.5t4 140t3 118t1 69.5v128t-1 139.5t-5 139t-10 128.5z" />
<glyph unicode="&#x42c;" horiz-adv-x="841" d="M158 100q0 281 21.5 554.5t27.5 549.5q2 66 17.5 92.5t35.5 26.5q63 0 64 -57q0 -135 -7.5 -270.5t-17.5 -270.5q4 4 9 5t9 3q55 14 119 15q74 0 141.5 -23t120 -66t83 -108.5t30.5 -151.5q0 -109 -48 -188.5t-125 -131.5t-173 -78t-195 -26q-27 0 -41 25q-4 -2 -12 -2 q-41 0 -50 30.5t-9 71.5zM274 119q0 -19 2 -29q68 0 142 16.5t135 52.5t101 92t40 136q0 61 -20.5 107.5t-54 77t-79.5 46t-98 15.5q-25 0 -51 -6t-53 -6q-31 0 -45 18q-8 -131 -13.5 -260t-5.5 -260z" />
<glyph unicode="&#x42d;" horiz-adv-x="886" d="M12 45q0 23 17.5 42t44.5 19q14 0 26 -6q80 -37 154 -37q94 0 178 51.5t145.5 131.5t97.5 179t36 196v18t-2 18q-258 -18 -516 -18q-29 0 -43.5 18.5t-14.5 40.5q0 23 14.5 40.5t43.5 17.5q125 0 247.5 3t247.5 13q-25 94 -66.5 177t-101 145.5t-139.5 98.5t-178 36 q-23 0 -46.5 -3t-47.5 -3q-29 0 -47.5 21.5t-18.5 43.5q0 16 10 29.5t33 17.5q25 4 49.5 6t46.5 2q135 0 254 -55t206 -148t137 -219t50 -268q0 -125 -44 -251t-120.5 -226t-182 -163.5t-228.5 -63.5q-23 0 -63.5 5t-80.5 16.5t-69 29.5t-29 45z" />
<glyph unicode="&#x42e;" horiz-adv-x="1423" d="M123 1305q-4 41 19.5 55t45.5 16q23 2 42.5 -14t21.5 -57q2 -57 3 -128t1 -146v-145.5v-127.5v-27q74 4 154.5 6.5t152.5 10.5q16 96 44 187t63 170t76.5 141.5t87.5 99.5q16 14 36 14q16 0 30.5 -9.5t25.5 -21.5q12 6 30 6q104 -6 182.5 -63.5t129.5 -148.5t76.5 -206.5 t25.5 -238.5q0 -145 -31.5 -276.5t-93 -230.5t-153 -158.5t-209.5 -59.5q-94 0 -160 42t-107 112.5t-59 165t-18 200.5q0 39 2 78t6 80q-70 -6 -145.5 -9.5t-147.5 -7.5l-6 -231q-2 -86 -2 -173t4 -159q8 -20 4 -35q-2 -25 -23.5 -40t-46.5 -11q-12 2 -24.5 12.5t-18.5 26.5 q-10 57 -13 127t-1 139q2 68 4 141.5t4 140t3 118t1 69.5v133t-1 151t-5 149.5t-10 132.5zM647 438q0 -78 12.5 -145.5t41 -117.5t73.5 -78.5t111 -28.5h17.5t17.5 2q80 8 141 67.5t104 147.5t64.5 197.5t21.5 219.5q0 98 -17 189.5t-54 163t-92.5 115.5t-131.5 49 q-37 2 -51 34q-47 -43 -93 -132t-83 -202.5t-59.5 -239.5t-22.5 -241z" />
<glyph unicode="&#x42f;" horiz-adv-x="874" d="M16 27q0 23 15 39q63 80 122.5 163.5t121 166.5t126 162t138.5 151q-59 16 -124 38.5t-117 59.5t-86 90t-34 133q0 74 36 132.5t91 97t124 59t134 20.5q37 0 72 -9t35 -54q0 -25 -17.5 -43.5t-44.5 -18.5q-14 2 -28.5 3.5t-28.5 1.5q-45 0 -90 -11.5t-81 -36t-58.5 -62.5 t-22.5 -91q0 -55 37 -89t91 -56.5t116.5 -38t115.5 -33.5h9q2 113 5 224.5t13 223.5q4 29 19.5 41.5t37.5 12.5q27 0 44.5 -16.5t17.5 -51.5q-10 -137 -14.5 -272.5t-4.5 -272.5q0 -129 1 -254t1 -252q0 -31 2.5 -68.5t-1 -72.5t-16.5 -58.5t-44 -23.5q-27 0 -44 18.5 t-17 45.5q0 53 1 106t1 107q0 104 -1 209.5t-1 211.5q-152 -156 -280 -330.5t-267 -342.5q-16 -23 -43 -23q-23 0 -42.5 18.5t-19.5 45.5z" />
<glyph unicode="&#x430;" horiz-adv-x="835" d="M12 297q0 74 42 139.5t106.5 115.5t143.5 82t153 40q25 0 43 -18.5t18 -43.5q0 -27 -18.5 -44t-42.5 -17q-49 -6 -107.5 -29.5t-107.5 -60.5t-83 -84t-34 -103q0 -72 53 -116.5t125 -44.5q63 0 141 34q41 18 82 48t64 53q-29 141 -47.5 267t-18.5 259q0 29 18.5 47.5 t47.5 18.5q23 0 39 -18.5t18 -41.5q8 -96 16.5 -193.5t22.5 -193.5t40 -190.5t69 -182.5q16 -14 16 -36q0 -25 -21.5 -45.5t-46.5 -20.5t-41 23l7 4q-35 39 -56.5 82t-34.5 90q-63 -43 -139 -70t-151 -27q-57 0 -113.5 19.5t-101.5 55.5t-73 87t-28 115z" />
<glyph unicode="&#x431;" horiz-adv-x="714" d="M53 334q0 88 33 150.5t80 103.5t102.5 60.5t98.5 19.5q31 0 57.5 -3t46.5 -3q-59 168 -154.5 319.5t-191.5 300.5l-4 21q-8 20 -8 30q0 49 51 62l12 2q4 0 5 1t5 1q12 0 29 -8l29 -5q53 0 106 -3t107 -3q41 0 83 4.5t83 18.5q12 4 18 4q43 0 57 -47q4 -12 4 -19 q0 -43 -45 -57l-163 -14h-119l-107 10q61 -78 108.5 -152.5t87.5 -151.5t74.5 -159t71.5 -174q23 -59 36 -122.5t13 -127.5q0 -68 -17 -140.5t-54 -131t-96.5 -96t-141.5 -37.5q-68 0 -123 28.5t-94 76.5t-59.5 110.5t-20.5 130.5zM170 342q0 -41 11.5 -81t34 -73.5t56 -54 t76.5 -20.5q47 0 82 23.5t57.5 59t32.5 78.5t10 82q0 47 -7 92.5t-17 92.5q-8 -4 -17 -4q-23 0 -47 5t-51 5q-94 0 -157.5 -47t-63.5 -158z" />
<glyph unicode="&#x432;" horiz-adv-x="745" d="M23 578q0 141 24.5 262t48.5 190q27 70 54.5 122t62.5 94t82 81t111 84q33 23 79.5 41t94.5 18q53 0 90 -25.5t59.5 -64.5t32.5 -85t10 -85q0 -41 -9 -94t-29.5 -107.5t-53.5 -105.5t-78 -88q-104 -86 -212.5 -152.5t-227.5 -123.5q0 -16 2 -18.5t4 -18.5q20 16 59 35.5 t66 25.5q51 10 98 10t96.5 -15t89 -49t65.5 -87t26 -131q0 -59 -19.5 -115.5t-55.5 -101.5t-88 -72t-116 -27q-29 0 -59.5 5.5t-63.5 19.5q-14 6 -38.5 29.5t-52.5 56.5t-52.5 71t-38.5 70q-35 82 -47 172t-14 179zM158 674q45 25 95 49.5t99 54t94.5 62t79.5 73.5 q51 57 74 96.5t32 73t11 65.5t10 75q2 4 2 12q0 18 -12 38.5t-29.5 36t-37 26t-33.5 10.5q-55 0 -106.5 -37t-96.5 -93.5t-82 -125t-59 -132.5q-8 -23 -14.5 -61.5t-10.5 -80.5t-8 -81t-8 -61zM190 315q0 -76 31 -119.5t69 -66.5t54 -26l47 -9q88 6 123 56.5t35 109.5 q0 55 -16.5 94t-41 63.5t-53 36t-53.5 11.5q-49 0 -87 -26.5t-69 -43.5q-25 -18 -32 -42.5t-7 -37.5z" />
<glyph unicode="&#x433;" horiz-adv-x="804" d="M94 154q-8 45 12 94q25 63 61 100t80 61.5t93 45t102 51.5q23 14 46.5 33.5t19.5 48.5q-6 74 -78 84q-53 8 -108.5 -8.5t-98.5 -51.5q-20 -16 -39.5 -8t-30 25.5t-9.5 40t24 39.5q37 29 86 49t101.5 26.5t102.5 -4t89 -41.5q43 -33 59.5 -77t10 -89t-33 -86t-69.5 -65 q-51 -35 -105.5 -54.5t-107.5 -48.5q-23 -10 -44 -30.5t-36.5 -46t-18.5 -53t13 -52.5q41 -61 103.5 -67.5t128 18.5t123 68t87.5 82q18 20 39 17t36.5 -17.5t19.5 -37t-13 -42.5q-41 -49 -93 -89t-111.5 -67t-124 -36t-129.5 7q-45 12 -86 38t-67 62t-34 81z" />
<glyph unicode="&#x434;" horiz-adv-x="772" d="M-201 -566.5q-4 21.5 7.5 41t34 29t46.5 -3.5q94 -45 185.5 -47t171.5 32t145.5 101.5t108.5 161.5q41 86 59 175t23 181q-57 -57 -135 -79.5t-164 10.5q-88 33 -142.5 97.5t-77 141t-14.5 159.5t47 152.5t105.5 118t162.5 58.5q6 2 11.5 1t9.5 -1q23 18 53 8 q68 -25 119 -69t85 -101t48 -123.5t6 -136.5q6 -104 4 -210.5t-22.5 -209t-61.5 -199t-110 -178.5q-139 -162 -311.5 -198.5t-364.5 55.5q-25 12 -29 33.5zM160 411.5q-6 -59.5 7 -112.5t49 -95.5t95 -58.5q63 -18 112.5 -4.5t83.5 47t51 82.5t17 103q0 10 -2 16q0 8 2 14 q-6 80 -48 153t-121 103q-2 0 -4.5 1.5t-4.5 1.5q-14 -14 -35 -15q-59 -6 -102 -41t-68.5 -85t-31.5 -109.5z" />
<glyph unicode="&#x435;" horiz-adv-x="839" d="M70 393q0 72 25.5 140.5t72.5 123t113.5 88t148.5 33.5q39 0 78 -9t72.5 -27.5t59.5 -48t40 -68.5l10 -29q4 -8 4 -16q0 -6 -4 -19l-4 -20q-14 -18 -18 -42t-19 -42l-20 -29q-6 -10 -14.5 -15t-18.5 -10l-39 -12q-47 -10 -95 -20.5t-97 -10.5q-20 0 -43 2.5t-42.5 10.5 t-31.5 22.5t-12 36.5q0 29 18 46.5t41 17.5q16 0 34.5 -4.5t37.5 -4.5q41 0 79.5 8.5t75.5 16.5l13 4l14 29q4 6 7 13t7 13l-8 19q-23 33 -55.5 48t-69.5 15q-43 0 -85 -20.5t-74.5 -56t-53 -80.5t-20.5 -95q0 -43 10 -91t38.5 -88t78 -65.5t127.5 -25.5q66 0 128 22.5 t97 75.5q14 27 45 27q25 0 47.5 -19.5t22.5 -46.5q-1 -20 -17 -36q-37 -72 -108.5 -108t-149.5 -36q-47 0 -96 3t-95 15.5t-87 36t-74 64.5q-47 57 -70.5 125t-23.5 139z" />
<glyph unicode="&#x436;" horiz-adv-x="1388" d="M12 113q0 25 19.5 42t42.5 17q16 0 29.5 -12.5t25.5 -26.5t26.5 -26.5t32.5 -12.5q33 0 70 28t68.5 64.5t57.5 76.5t38 65q31 63 31 127q0 51 -18.5 95t-52.5 78t-82 53t-105 19q-31 0 -45.5 17.5t-14.5 40.5t13.5 41t41.5 18q78 0 143.5 -25.5t115 -69.5t80 -103.5 t36.5 -126.5q29 4 56.5 5t56.5 3q2 94 9 186t24 186q4 23 18 33t31 10q23 0 44 -16t21 -45q0 -4 -1 -6t-1 -6q-29 -172 -30 -344q29 -2 58.5 -8.5t57.5 -6.5q27 106 87.5 199.5t146.5 151.5q12 10 31 10q23 0 39 -19.5t16 -42.5q0 -31 -27 -49q-47 -31 -83 -75t-60.5 -96 t-37.5 -108.5t-13 -113.5q0 -115 36.5 -166t81.5 -51q25 0 51.5 12t49 33.5t40 51.5t27.5 63q6 23 21.5 32t34.5 9q23 0 41 -14.5t18 -41.5q0 -47 -30.5 -95t-77 -88t-98.5 -65.5t-95 -25.5q-59 0 -100 36t-67 91t-38 121.5t-12 128.5q-23 0 -48.5 5t-51.5 7 q0 -106 2 -210.5t2 -211.5q0 -29 -17.5 -43t-40.5 -14t-41 14t-18 43v133t-1 138.5t-1 108.5v44q-59 -4 -117 -12q-4 -23 -20.5 -61t-43 -83t-61.5 -90t-77 -82t-89 -60.5t-96 -23.5q-43 0 -82 26t-72 85q-6 14 -6 29z" />
<glyph unicode="&#x437;" horiz-adv-x="774" d="M-16 -147q0 25 6 61.5t20.5 70t33.5 57.5t48 24q25 0 46.5 -16.5t21.5 -41.5q0 -16 -10 -28q-39 -59 -39 -117q0 -37 15 -68t42 -54.5t61.5 -35.5t73.5 -12q63 0 118.5 37t96.5 97t64.5 136t23.5 154q0 43 -9 83t-28.5 70.5t-50.5 49t-76 18.5q-49 0 -108 -23 q-12 -4 -23 -4q-25 0 -40 19.5t-15 42.5q0 31 45 59.5t99.5 60t99.5 71.5t45 91q0 35 -32 47.5t-75 12.5q-31 0 -65.5 -5t-64 -11.5t-52.5 -12.5t-31 -8q-6 -2 -11 -3t-11 -1q-23 0 -37 17.5t-14 39.5q0 27 25.5 46.5t66.5 32.5t92 19.5t102 6.5q45 0 87 -8.5t75 -29 t51.5 -54t18.5 -85.5q0 -66 -39 -119t-92 -96q49 -16 83.5 -50t58.5 -80t35 -101t11 -113q0 -84 -21.5 -164.5t-66.5 -146.5q-29 -41 -69 -83t-87 -77t-101 -56.5t-110 -21.5q-68 0 -121 29t-89.5 73t-57 97t-20.5 103z" />
<glyph unicode="&#x438;" horiz-adv-x="870" d="M51 418q0 12 2 57t5 96.5t5.5 94.5t2.5 51q2 29 19 42t40 13t40 -12t17 -41q0 -53 -11 -141.5t-11 -180.5q0 -53 7 -102t25.5 -88t49 -62.5t80.5 -23.5q45 0 79.5 34.5t61 89t45 121t31 131t18.5 119t8 84.5q4 29 22.5 43.5t41.5 14.5q20 0 36.5 -13.5t16.5 -39.5 q0 -55 -6 -115t-6 -119q0 -88 14 -173t57 -161q12 8 25 15.5t25 17.5q14 12 30 12q23 0 38 -19.5t15 -43.5q0 -16 -16 -37t-39.5 -37t-50.5 -27.5t-47 -11.5q-25 0 -46.5 23.5t-40 57.5t-31.5 72t-21 64q-41 -94 -102.5 -156.5t-153.5 -62.5q-86 0 -140.5 37t-84 96.5 t-40 133t-10.5 147.5z" />
<glyph unicode="&#x439;" horiz-adv-x="909" d="M90 395q0 86 9.5 172t9.5 172q0 27 18 45.5t45 18.5t45.5 -18.5t18.5 -45.5q0 -82 -10.5 -164.5t-10.5 -168.5q0 -37 5 -87.5t19.5 -96.5t41 -77.5t71.5 -31.5q23 0 41 8l60 29q47 33 74.5 74.5t41 86.5t17.5 93.5t4 95.5v86q0 90 7 136t17 50q14 8 19.5 12t36.5 -4 q18 -4 35.5 -17t17.5 -48q0 -12 -2 -24.5t-4 -22.5q-4 -12 -6 -23q-4 -72 -12.5 -136.5t-8.5 -125.5q0 -41 6 -80q14 -88 42 -119.5t54.5 -42t46 -17.5t19.5 -46q0 -27 -18.5 -45.5t-44.5 -18.5q-45 0 -100.5 32t-96.5 89q-10 -10 -19.5 -33.5t-21.5 -33.5l-29.5 -29.5 t-20.5 -18t-17.5 -10.5t-20.5 -6q-27 -14 -52.5 -19t-51.5 -5q-72 0 -124.5 35.5t-86 95t-49 133t-15.5 151.5zM172 1057q0 25 18.5 43t40.5 18q20 0 39 -18q35 -35 86.5 -62.5t102.5 -27.5q33 0 61.5 13t50.5 44q18 27 50 27q23 0 42 -15.5t19 -38.5q0 -18 -10 -30 q-43 -59 -99.5 -87t-117.5 -28q-72 0 -142 33t-125 90q-16 20 -16 39z" />
<glyph unicode="&#x43a;" d="M88 10v31q0 63 7 129t16.5 130.5t17.5 129t8 129.5q0 47 -5 93t-19 93q-4 16 -4 21q0 25 19 39t42 14q33 0 51.5 -35.5t27.5 -82t11 -91.5t2 -61q0 -43 -5 -80t-11 -74t-12.5 -75.5t-8.5 -83.5q76 106 154 225t149 229q0 10 9 29l6 12q18 33 32.5 52.5t61.5 19.5 q53 0 53 -39q0 -25 -23.5 -69t-56 -93t-67.5 -94t-56 -74q31 -72 49.5 -128t39 -108.5t49 -104.5t80.5 -113q16 -20 16 -41q-1 -25 -21 -43q-16 -16 -43 -17q-35 0 -73.5 51.5t-74.5 122t-64.5 144t-43.5 116.5q-53 -72 -97 -153.5t-95 -155.5l-8 -16q-8 -16 -22.5 -27.5 t-31.5 -11.5q-29 0 -44 19.5t-15 41.5z" />
<glyph unicode="&#x43b;" horiz-adv-x="903" d="M-18 27q0 16 10 30.5t33 18.5q98 16 165.5 70.5t107.5 130t57.5 165.5t17.5 181q0 35 -1 68.5t-3 66.5q-20 18 -21 47q0 23 13.5 39t39.5 16q59 0 106.5 -1t92.5 -3t91 -3t106 -1q25 0 41 -17t18 -40q2 -29 2 -58.5v-58.5q2 -166 -2 -331t-4 -331q0 -29 -17.5 -43 t-39.5 -14q-23 0 -40.5 13.5t-17.5 41.5q0 182 2 361.5t2 361.5h-72.5t-56 1t-56.5 2t-71 1q2 -23 2 -44v-44q0 -111 -20.5 -224.5t-70.5 -209.5t-133 -165.5t-208 -90.5q-4 0 -6 -1t-6 -1q-29 0 -45 21.5t-16 44.5z" />
<glyph unicode="&#x43c;" horiz-adv-x="1058" d="M-10 47q0 27 11 39t28 16l16 7q12 6 23 16q55 59 94 144t66.5 181.5t45 195.5t31.5 185q4 23 17.5 32t29.5 9q20 0 38 -11t26 -30q47 -115 78.5 -233.5t72.5 -235.5h2q57 131 105.5 263.5t105.5 261.5q6 16 19.5 22t29.5 6q20 0 37 -10t21 -33q14 -98 30.5 -203.5 t40 -209t58.5 -202.5t86 -187q8 -14 8 -29q0 -25 -19.5 -41t-41.5 -16q-31 0 -48 28q-82 141 -126 306t-70 331l-2 -8q-45 -117 -90 -232.5t-99 -226.5q-6 -14 -20 -21t-31 -7q-16 0 -29.5 7t-19.5 21q-41 96 -72.5 199.5t-62.5 202.5l-4 -6q-18 -92 -47 -195.5t-68 -193 t-87 -147.5t-105 -58q-35 0 -56.5 17t-21.5 46z" />
<glyph unicode="&#x43d;" horiz-adv-x="876" d="M53 18q0 4 1 7.5t1 7.5q16 80 21.5 158.5t5.5 156.5q-14 6 -20.5 19.5t-6.5 27.5q0 33 23 49q-4 72 -7 141.5t-3 141.5q0 45 11 66.5t46 21.5q20 0 37.5 -12t17.5 -41q0 -76 2 -148.5t6 -148.5q86 8 173.5 12t173.5 8q4 84 16 163t24 140q4 23 18.5 32t31.5 9 q23 0 42 -15t19 -44q0 -8 -2 -12q-10 -49 -23.5 -122t-19.5 -151q43 0 64.5 -12t21.5 -45q0 -35 -21.5 -45t-66.5 -10q2 -49 11 -94.5t28.5 -78t50.5 -52t78 -19.5q18 0 40.5 3t47.5 11q6 2 16 2q23 0 37.5 -17t14.5 -40q0 -25 -20.5 -40t-48.5 -23.5t-56.5 -10.5t-46.5 -2 q-70 0 -118 30t-78 79t-44 114.5t-16 137.5q-86 -2 -171 -6.5t-171 -14.5q0 -6 1 -36.5t0 -73.5t-5.5 -92.5t-12.5 -90.5t-23.5 -68.5t-37.5 -27.5q-23 0 -42.5 15.5t-19.5 39.5z" />
<glyph unicode="&#x43e;" horiz-adv-x="786" d="M53 365q0 55 19.5 124.5t55.5 133t87 106.5t115 43q39 0 55 -37q14 10 34.5 17.5t39.5 7.5q37 0 69.5 -10.5t42.5 -20.5q76 -55 108 -141t32 -203q0 -61 -14.5 -121.5t-51.5 -103.5q-53 -59 -121.5 -99.5t-146.5 -40.5q-82 0 -143.5 31t-101.5 80t-59.5 110.5 t-19.5 123.5zM170 354q0 -55 16.5 -95t44 -67.5t62.5 -41t69 -13.5q94 0 160 73t66 193q0 70 -20.5 134.5t-92.5 115.5q-4 2 -19.5 6.5t-32.5 7.5t-32.5 7t-17.5 8l-13 -6q-43 -18 -77.5 -53t-60 -78t-39 -92.5t-13.5 -98.5z" />
<glyph unicode="&#x43f;" horiz-adv-x="802" d="M31 803q0 23 17.5 41t45.5 18q27 0 40 -17.5t19.5 -43t7.5 -54t5 -49.5q55 27 116.5 45.5t123.5 18.5q90 0 144 -40t85 -100.5t42 -132t13 -135.5q6 -125 7 -246.5t1 -250.5q0 -23 -17 -41.5t-44 -18.5q-29 0 -42 16.5t-18.5 42t-4.5 54.5t1 53q0 70 2.5 139.5t2.5 135.5 q0 98 -14.5 189t-59.5 177q-47 35 -105 35q-59 0 -112.5 -26.5t-108.5 -45.5q8 -125 17.5 -247.5t46.5 -245.5q0 -4 1 -6t1 -5q0 -29 -20.5 -43t-43.5 -14q-20 0 -36.5 11t-20.5 36q-27 90 -40 181.5t-20.5 183.5t-12.5 183t-17 183q-2 6 -2 19z" />
<glyph unicode="&#x440;" d="M98 594q0 23 14.5 38t32.5 19q-4 16 -4 27q0 29 20.5 52.5t49.5 38.5t59.5 23.5t53.5 8.5q68 0 134 -32t117 -77q74 -63 121 -155.5t47 -186.5q0 -68 -30.5 -128t-80.5 -105t-115.5 -73t-135.5 -32l-35 -2h-8q-12 0 -27 6l-39 21l-8 10q4 -78 6 -153.5t2 -151.5 q0 -164 -15 -327t-19 -326q0 -27 -18.5 -45.5t-45.5 -18.5q-29 0 -47 19.5t-18 44.5q0 76 6 152.5t13 153.5t12 153.5t5 154.5q0 20 -3 90t-9 162t-11 196.5t-11.5 196.5t-9.5 159.5t-3 86.5zM223 614q4 -20 4 -24q4 -45 4 -121t8.5 -149.5t34 -127t82.5 -53.5q41 0 87 14.5 t84 40t62.5 62.5t24.5 82q0 70 -24.5 131t-65.5 106.5t-94 71t-111 25.5q-16 0 -27 -8.5t-21.5 -17.5t-21.5 -19.5t-26 -12.5z" />
<glyph unicode="&#x441;" horiz-adv-x="770" d="M78 385q0 70 23.5 137.5t67.5 120.5t106.5 86t138.5 33q57 0 109 -23.5t87 -76.5q12 -16 13 -31q0 -23 -19.5 -41.5t-42.5 -18.5q-25 0 -39 23q-16 31 -44.5 45t-61.5 14q-55 0 -98.5 -26.5t-71 -66.5t-42 -88t-14.5 -93q0 -41 12.5 -88t37 -88t63.5 -69t94 -28 q68 0 121 48.5t76 113.5q16 35 49 35q29 0 43 -17.5t14 -35.5q0 -6 -1 -12.5t-3 -14.5q-37 -98 -123 -162.5t-190 -64.5q-70 0 -126 37t-96 94t-61.5 126t-21.5 132z" />
<glyph unicode="&#x442;" horiz-adv-x="1171" d="M-53 690q0 25 14 42.5t36.5 28.5t48.5 16t48 5q106 0 158.5 -73.5t85.5 -221.5q16 45 29.5 86t29 78t36 69t54.5 56h66q16 0 35.5 -18.5t29.5 -36.5l54 -107q10 41 26 82l35 49q8 10 37 15.5t47 5.5h8l103 -47q45 -47 67.5 -106.5t33.5 -124t14.5 -133t9.5 -132.5 q10 -104 14 -202.5t8 -202.5q0 -35 -16.5 -52.5t-40.5 -17.5q-20 0 -36.5 15.5t-16.5 46.5q-4 100 -5.5 197t-17.5 202q-8 53 -9 113.5t-7 118t-25.5 106.5t-62.5 80q-49 -31 -75 -102.5t-36 -155.5t-11 -169t-3 -147l-8 -55q-10 -57 -56 -57q-23 0 -39 19.5t-16 47.5v17 q0 33 1 68.5t1 74.5q0 111 -11.5 227.5t-58.5 214.5q-39 -47 -61.5 -112.5t-37.5 -138t-24.5 -145.5t-21.5 -130l-10 -53q-4 -23 -19.5 -37t-36.5 -14q-27 0 -40 21.5t-13 49.5v19q0 57 -4 135t-14.5 156.5t-29.5 150.5t-50 119q-31 18 -68 18q-29 0 -53.5 -15.5 t-42.5 -15.5q-23 0 -38 23t-15 49z" />
<glyph unicode="&#x443;" horiz-adv-x="706" d="M-49 -383q0 23 16.5 38t38.5 15q18 0 36.5 -18.5t36 -45t35 -56t36.5 -50.5l24 -22q23 4 41 15t35 26q113 92 161 208.5t68 245.5q-4 -2 -14 -2q-35 0 -47 31q-41 96 -93.5 186.5t-104.5 179.5t-98 181t-73 194q-2 6 -2 15q0 25 17.5 38t39.5 13q16 0 32 -11.5t20 -33.5 q27 -90 67.5 -173t87.5 -165t95.5 -163t87.5 -165q2 10 6 57.5t10 113t13 139t14.5 140t11.5 115t6 60.5q4 20 18.5 30.5t30.5 10.5q27 0 42.5 -14.5t15.5 -36.5q-1 -11 -3 -17q-4 -8 -4 -16v-16v-37q0 -76 -5 -138.5t-13 -123t-17.5 -124t-17.5 -139.5 q-12 -104 -26.5 -200.5t-51.5 -190.5q-47 -117 -127 -205t-190 -133l-49 -4h-6q-20 0 -35 15l-86 92q-20 31 -50 71.5t-30 69.5z" />
<glyph unicode="&#x444;" horiz-adv-x="1261" d="M47 387q0 70 16.5 135.5t48 115.5t80 81t111.5 31q29 0 64.5 -8.5t71.5 -22.5t69 -34.5t55 -47.5q8 186 37 377q4 23 17.5 32t29.5 9q23 0 44.5 -16.5t21.5 -45.5q0 -2 -1 -4t-1 -6q-12 -90 -20.5 -177t-12.5 -175q41 51 104 84q6 0 9 2q-2 6 -3 16q0 16 9 31.5t32 19.5 q45 10 78 11q76 0 136.5 -38t102.5 -100.5t64.5 -140.5t22.5 -158q0 -74 -22.5 -142.5t-63.5 -121.5t-101.5 -85t-134.5 -32q-78 0 -140 43t-103 113v-64.5t-1 -125t-2 -155.5t-2 -155.5t-2.5 -128t-1.5 -69.5q-2 -29 -20 -43.5t-41 -14.5t-39 14.5t-16 43.5q10 154 10 305 v305q-35 -43 -77 -67.5t-95 -24.5q-74 0 -134.5 37t-105.5 98.5t-69.5 139t-24.5 159.5zM162 399q0 -59 14 -117.5t42 -104.5t68 -74.5t89 -28.5q59 0 98 50t55 122q12 51 13 106q0 70 -23.5 133.5t-77.5 110.5q-10 0 -18 1t-19 7q-51 29 -96 29q-37 0 -64.5 -19.5 t-45 -51.5t-26.5 -75t-9 -88zM711 395q0 -55 17 -109.5t47 -98.5t69 -70.5t82 -26.5q27 0 54 13t54 42q37 39 55.5 102.5t18.5 133.5q0 55 -12.5 108.5t-37 95.5t-61 67.5t-86.5 25.5h-21t-22 -4q4 -12 4 -19q0 -27 -30 -41q-72 -35 -101.5 -94t-29.5 -125z" />
<glyph unicode="&#x445;" horiz-adv-x="768" d="M-12 55q0 29 18 47q43 47 71.5 80t53.5 63.5t51.5 63.5t67.5 80q-41 66 -78 134.5t-66 142.5q-6 14 -6 26q0 27 20.5 44.5t43.5 17.5q33 0 47 -39q23 -61 53.5 -120.5t65.5 -115.5q59 72 120.5 140.5t122.5 138.5q16 14 37 14q23 0 40.5 -20.5t17.5 -42.5q0 -31 -23 -50 q-66 -70 -126 -139t-122 -141q59 -82 124 -157t132 -146q20 -18 21 -43q0 -27 -19.5 -47.5t-42.5 -20.5q-20 1 -34 19q-68 72 -133.5 147.5t-125.5 155.5q-39 -45 -64.5 -78t-50 -62.5t-52 -61.5t-70.5 -75q-16 -16 -37 -16q-20 0 -38.5 18.5t-18.5 42.5z" />
<glyph unicode="&#x446;" horiz-adv-x="1034" d="M49 549q0 78 6 151.5t15 133.5q4 23 17 33t30 10q23 0 44 -17.5t21 -46.5q0 -39 -8 -108.5t-8 -151.5q0 -74 8 -149.5t30.5 -137t61.5 -100.5t101 -39q66 0 112.5 37t79.5 96t54.5 134t35 149.5t21.5 142.5t14 115q4 23 19.5 33t33.5 10q23 0 42.5 -14.5t19.5 -41.5 q0 -125 -14.5 -246.5t-14.5 -246.5q0 -70 17.5 -125t60.5 -55q20 0 42.5 12t45 25.5t42 25.5t34.5 12q18 0 34.5 -13.5t22.5 -31.5q12 -29 17.5 -56.5t5.5 -55.5q0 -51 -15.5 -101.5t-40 -98.5t-56.5 -91t-62 -82q-18 -20 -39 -20q-23 0 -39.5 19t-16.5 44q0 20 13 39 q51 63 94 137t43 160q-76 -41 -133 -41q-80 0 -118 68.5t-50 173.5q-45 -98 -111.5 -163t-167.5 -65q-104 0 -171.5 49.5t-105.5 127t-52.5 173t-14.5 187.5z" />
<glyph unicode="&#x447;" horiz-adv-x="751" d="M72 754q0 27 2 60.5t9 64t21.5 51t38.5 20.5q23 0 42.5 -15t19.5 -40q0 -35 -8.5 -71t-8.5 -70q0 -66 25 -125.5t92 -93.5q59 -31 126 -41.5t132 -10.5q2 123 6 244t27 244q4 23 17.5 31t29.5 8q23 0 42.5 -15.5t19.5 -42.5q0 -2 -1.5 -4t-1.5 -6q-20 -117 -25 -233.5 t-7 -233.5q18 -16 18 -43q0 -31 -20 -49q-2 -88 -6.5 -176t-16.5 -178q-4 -23 -15.5 -32t-27.5 -9q-29 0 -46 19.5t-17 49.5q10 78 14 155t8 155q-96 0 -188 20.5t-170 77.5q-74 55 -102.5 130t-28.5 159z" />
<glyph unicode="&#x448;" horiz-adv-x="1114" d="M41 461q0 104 10 196.5t19 147.5q4 23 17 33t30 10q23 0 43 -17.5t20 -46.5l-3 -22q-3 -23 -6 -63t-5 -93t-2 -114q0 -72 5 -144t19.5 -130t40 -95t64.5 -37q33 0 61.5 16.5t51 43t40 59.5t27.5 65q-6 55 -6 111q0 57 5 123.5t17.5 124t31 95.5t46.5 38q43 0 52.5 -33 t9.5 -86q0 -76 -9.5 -175t-33.5 -198q4 -31 12 -60.5t24.5 -53t43 -39t67.5 -15.5q43 0 73 21.5t50.5 56.5t33.5 78t23 84q0 111 14.5 223.5t28.5 225.5q4 29 22.5 42t41.5 13q20 0 35.5 -12.5t15.5 -36.5q0 -41 -1 -99.5t-5 -126t-12.5 -139.5t-22.5 -139q10 -72 38 -139.5 t87 -124.5q18 -18 19 -39q0 -23 -19.5 -42.5t-42.5 -19.5t-45.5 20.5t-41.5 49.5t-36.5 59.5t-25.5 51.5q-39 -59 -92.5 -91t-137.5 -32q-78 0 -129 33.5t-82 86.5q-37 -59 -86 -96t-121 -37q-84 0 -137 44t-84 114t-42 157t-11 173z" />
<glyph unicode="&#x449;" horiz-adv-x="1353" d="M35 389q0 59 5 118.5t14 113t19.5 99.5t20.5 79q6 23 22.5 32t33.5 9q23 0 42 -14.5t19 -39.5q0 -6 -4 -18q-25 -80 -40 -164t-15 -170q0 -18 1 -37.5t3 -38.5q2 -16 8 -61t20.5 -92t36 -83t51.5 -36q14 0 31 10q43 27 76 77t55.5 112.5t38.5 134.5t27 141q2 49 7 98.5 t14 89t26.5 65.5t44.5 26q23 0 41 -15.5t18 -42.5q0 -14 -4 -42.5t-10 -66.5t-14.5 -83t-16.5 -90q0 -76 18.5 -142.5t47 -117t65.5 -80t74 -29.5q41 0 72.5 38t48.5 112l4 16q-8 37 -11 76t-3 78q0 119 22.5 233.5t46.5 200.5q6 23 21.5 33t31.5 10q23 0 42.5 -16.5 t19.5 -43.5q0 -10 -2 -14q-8 -41 -10 -107.5t-3 -145.5t-5.5 -163t-18.5 -159q14 -66 38.5 -89.5t53.5 -28.5t61.5 -4.5t61.5 -13.5q53 -27 71.5 -80t18.5 -116q0 -41 -5 -82t-12 -80t-15.5 -74t-12.5 -61q-4 -23 -18.5 -32t-30.5 -9q-23 0 -43.5 15.5t-20.5 43.5 q0 6 6.5 33t14.5 64.5t14 80.5t6 84q0 47 -14 79t-53 34q-49 2 -94 15.5t-78 60.5q-31 -59 -80 -90t-123 -31q-109 0 -173.5 71.5t-98.5 178.5q-18 -57 -44 -106.5t-56.5 -86.5t-68.5 -57.5t-83 -20.5q-74 0 -123 35t-79 93.5t-41 132t-11 151.5z" />
<glyph unicode="&#x44a;" horiz-adv-x="991" d="M-115 901q0 20 12.5 36.5t39.5 16.5q16 0 29.5 -1t27.5 -1q84 0 151.5 21.5t145.5 64.5q8 4 14 6.5t14 2.5q23 0 41.5 -16.5t18.5 -43.5q0 -104 -9.5 -206.5t-25.5 -207.5q76 41 159 67t165 26q109 0 175 -59.5t66 -164.5q0 -78 -27.5 -159.5t-78.5 -149t-121 -110.5 t-154 -43q-96 0 -165.5 46t-110.5 113q-6 -4 -13.5 -4h-13.5q-20 0 -35.5 11.5t-15.5 33.5q0 33 5 66t9 61q-4 31 -14 65t-10 50q0 20 16.5 34.5t34.5 30.5q16 102 28.5 203t16.5 203q-66 -29 -129 -43t-137 -14q-53 0 -81 13t-28 52zM305 315q10 -45 28.5 -85t46.5 -70.5 t65.5 -48t86.5 -17.5q57 4 105.5 38t82.5 83t53.5 107.5t19.5 113.5q0 66 -30 92.5t-83 26.5q-41 0 -89 -13.5t-97.5 -33t-94.5 -44t-77 -44.5z" />
<glyph unicode="&#x44b;" horiz-adv-x="1193" d="M41 399q0 88 10 179.5t23.5 176.5t25 158.5t15.5 124.5q4 29 23.5 42.5t39.5 13.5q23 0 38 -13.5t15 -42.5q-10 -154 -33.5 -306t-23.5 -306q0 -35 2 -92.5t14.5 -110.5t39 -92t73.5 -39q14 0 71.5 24.5t120 66.5t112.5 99.5t50 125.5q0 70 -38.5 96t-88.5 26 q-27 0 -59.5 -16t-54.5 -16q-14 0 -21 2q-18 -8 -34.5 -17.5t-32.5 -9.5q-25 0 -41.5 19.5t-16.5 42.5q0 20 17.5 36.5t45 28.5t60.5 19.5t62 11.5q121 47 242.5 86t244.5 80q6 2 16 2q29 0 42.5 -22.5t13.5 -51.5q-23 -117 -41.5 -231.5t-18.5 -235.5q0 -18 2 -41.5 t6.5 -44t13.5 -35t25 -14.5t36 12t38.5 27.5t34 31l23.5 23.5q16 16 38 16q23 0 42.5 -18t19.5 -41q0 -31 -32 -59.5t-73 -51t-82.5 -36t-62.5 -13.5q-66 0 -104.5 62.5t-38.5 214.5q0 92 13 183t30 181l-191 -61q39 -23 62.5 -58.5t23.5 -89.5q0 -37 -12 -81 q-16 -55 -62.5 -125t-110 -129.5t-138 -100.5t-148.5 -41q-78 0 -129 38t-81.5 99.5t-43 138.5t-12.5 154z" />
<glyph unicode="&#x44c;" horiz-adv-x="831" d="M29 383q0 92 11 187.5t23.5 182.5t23.5 159.5t15 115.5q4 29 23.5 43t40.5 14q23 0 38 -14t15 -43q-10 -123 -32.5 -251t-32.5 -257q66 29 145.5 48.5t157.5 19.5q51 0 98 -10.5t86 -32t69 -58.5t44 -88q6 -23 6 -45q0 -72 -52.5 -141.5t-127 -122.5t-159.5 -86t-149 -33 q-72 0 -119 34t-74.5 90.5t-38.5 131t-11 156.5zM150 387q4 -141 39.5 -216t101.5 -75q45 0 97 26.5t101 61.5q51 37 94.5 89.5t43.5 99.5q0 41 -45 70.5t-156 29.5q-143 0 -276 -86z" />
<glyph unicode="&#x44d;" horiz-adv-x="909" d="M31 145q0 23 18.5 39.5t40.5 16.5q20 0 37 -15q55 -47 109.5 -69.5t103.5 -22.5q61 0 113.5 28t92.5 77t67.5 115.5t43.5 144.5q-82 -2 -162.5 -4t-162.5 -9q-27 0 -39 14.5t-12 37.5t12 39t39 18q84 6 167 8t169 4q0 61 -15.5 114.5t-45 93.5t-74 63.5t-105.5 23.5 q-31 0 -66.5 -12t-76.5 -12q-23 0 -36 16t-13 39q0 25 22.5 40t55 24.5t69.5 13.5t63 4q76 0 137.5 -30t104.5 -82t66.5 -124.5t23.5 -158.5q0 -8 10.5 -11.5t22.5 -3.5q10 0 20.5 1t16.5 1q27 0 40 -16t13 -37q0 -37 -26.5 -46t-61.5 -9h-43q-14 -74 -45 -158t-81 -156.5 t-122.5 -120t-171.5 -47.5q-82 0 -157.5 37t-143.5 97q-18 14 -18 34z" />
<glyph unicode="&#x44e;" horiz-adv-x="1206" d="M33 731q0 51 88 51q61 0 103 -29.5t68.5 -78.5t39 -115.5t16.5 -140.5q41 55 97.5 97t127.5 69q31 45 67 86t77 71.5t87 49t95 18.5q35 0 72 -10t76 -35q82 -49 117.5 -134t35.5 -177q0 -80 -29.5 -163t-82 -150.5t-124 -109.5t-157.5 -42q-76 0 -130 32.5t-90 84 t-53.5 115t-17.5 124.5q0 43 6 84q-66 -45 -103.5 -108.5t-58 -132t-29.5 -136t-18.5 -121t-23 -87t-43.5 -33.5q-25 0 -43.5 15t-18.5 42q10 121 27.5 238.5t17.5 248.5q0 63 -5 120.5t-17 100.5t-33.5 69t-54.5 26q-4 0 -11.5 -1t-11.5 -1q-29 0 -46 20.5t-17 42.5z M633 348q0 -43 8 -87t28.5 -80t53.5 -57.5t80 -21.5q51 0 97 26t84 65.5t62.5 89t32.5 94.5q4 16 4 31.5v31.5q0 41 -10 86t-31.5 82t-58.5 61.5t-88 24.5q-39 0 -73 -17.5t-62.5 -45t-53 -60t-44.5 -63.5q-12 -29 -20.5 -71t-8.5 -89z" />
<glyph unicode="&#x44f;" horiz-adv-x="952" d="M20 66q0 29 31 43q57 27 112.5 57.5t105.5 68t91 84t72 103.5q-53 0 -109.5 15.5t-103.5 48t-76.5 85t-29.5 125.5q0 70 33.5 116t85 73.5t111.5 39t116 11.5q57 0 91 -10.5t34 -55.5q0 -20 -12.5 -36.5t-39.5 -16.5q-10 0 -20 1t-25 1q-37 0 -82 -5t-85.5 -17.5 t-68.5 -35t-28 -59.5q0 -43 20.5 -74.5t51.5 -51t66.5 -29.5t64.5 -10q16 0 39.5 2t47.5 8t44.5 14t32.5 21q10 109 27.5 200.5t29.5 147.5q4 23 19.5 32t31.5 9q23 0 42.5 -15.5t19.5 -44.5q0 -18 -10.5 -72.5t-21.5 -127t-21.5 -155.5t-10.5 -163q0 -61 6.5 -114.5 t22.5 -94.5t42 -64.5t67 -23.5h17t19 4q6 2 17 2q27 0 42 -18t15 -41t-13 -35t-32.5 -19t-41 -9.5t-38.5 -2.5q-78 0 -124 40t-71.5 105.5t-33.5 151.5t-8 177q-4 -2 -10.5 -4.5t-6.5 -12.5q-66 -158 -184.5 -258t-271.5 -168q-12 -6 -25 -6q-27 0 -45.5 20.5t-18.5 43.5z " />
<glyph unicode="&#x451;" horiz-adv-x="839" d="M70 393q0 72 25.5 140.5t72.5 123t113.5 88t148.5 33.5q39 0 78 -9t72.5 -27.5t59.5 -48t40 -68.5l10 -29q4 -8 4 -16q0 -6 -4 -19l-4 -20q-14 -18 -18 -42t-19 -42l-20 -29q-6 -10 -14.5 -15t-18.5 -10l-39 -12q-47 -10 -95 -20.5t-97 -10.5q-20 0 -43 2.5t-42.5 10.5 t-31.5 22.5t-12 36.5q0 29 18 46.5t41 17.5q16 0 34.5 -4.5t37.5 -4.5q41 0 79.5 8.5t75.5 16.5l13 4l14 29q4 6 7 13t7 13l-8 19q-23 33 -55.5 48t-69.5 15q-43 0 -85 -20.5t-74.5 -56t-53 -80.5t-20.5 -95q0 -43 10 -91t38.5 -88t78 -65.5t127.5 -25.5q66 0 128 22.5 t97 75.5q14 27 45 27q25 0 47.5 -19.5t22.5 -46.5q-1 -20 -17 -36q-37 -72 -108.5 -108t-149.5 -36q-47 0 -96 3t-95 15.5t-87 36t-74 64.5q-47 57 -70.5 125t-23.5 139zM166 1012q0 25 12 42t41 31q23 2 47.5 1t44 -7t30.5 -19t9 -36q0 -29 -20.5 -52.5t-48.5 -33.5 q-27 -8 -45.5 -2t-33 19.5t-22.5 28.5t-14 28zM485 985.5q-2 34.5 15.5 59t51.5 32t73 -21.5q20 -6 32.5 -21.5t16.5 -33t1 -34t-11 -28.5q-8 -18 -27 -25.5t-40.5 -6.5t-43 7.5t-35.5 12.5q-31 25 -33 59.5z" />
<glyph unicode="&#x452;" horiz-adv-x="710" d="M41 911q0 23 12.5 38.5t36.5 15.5q45 0 89 -4.5t89 -6.5q-4 55 -15 111.5t-11 112.5q0 29 20.5 45t42.5 16q25 0 39 -31.5t22.5 -78t11.5 -95.5t7 -82q57 -2 113.5 -2h113.5q29 0 42.5 -17.5t13.5 -39.5q0 -23 -13.5 -41t-42.5 -18h-109t-108 2l11 -177q61 12 122 13 q61 0 120 -13.5t105 -45t75.5 -84t33.5 -128.5q0 -8 1 -16t1 -16q0 -100 -32.5 -194.5t-87 -177.5t-126 -154.5t-149.5 -129.5q-16 -12 -31 -12q-23 0 -38 19.5t-15 43.5q0 29 27 50q61 45 121.5 104t107.5 130t77 148.5t30 159.5q0 109 -65 155t-159 46q-29 0 -57.5 -4 t-56.5 -10q4 -129 3 -258t-1 -258q0 -29 -17.5 -43.5t-40.5 -14.5t-41 14.5t-18 43.5q0 61 1 122.5t1 122.5q0 143 -4 283.5t-14 282.5q-31 2 -72 1t-78 5t-62.5 20.5t-25.5 46.5z" />
<glyph unicode="&#x453;" horiz-adv-x="804" d="M94 154q-8 45 12 94q25 63 61 100t80 61.5t93 45t102 51.5q23 14 46.5 33.5t19.5 48.5q-6 74 -78 84q-53 8 -108.5 -8.5t-98.5 -51.5q-20 -16 -39.5 -8t-30 25.5t-9.5 40t24 39.5q37 29 86 49t101.5 26.5t102.5 -4t89 -41.5q43 -33 59.5 -77t10 -89t-33 -86t-69.5 -65 q-51 -35 -105.5 -54.5t-107.5 -48.5q-23 -10 -44 -30.5t-36.5 -46t-18.5 -53t13 -52.5q41 -61 103.5 -67.5t128 18.5t123 68t87.5 82q18 20 39 17t36.5 -17.5t19.5 -37t-13 -42.5q-41 -49 -93 -89t-111.5 -67t-124 -36t-129.5 7q-45 12 -86 38t-67 62t-34 81zM305 893v6 q0 33 32 78t75 87t87 70.5t68 28.5q41 0 59.5 -6t18.5 -29q0 -29 -20.5 -54t-32.5 -25q-66 -70 -103.5 -114t-42.5 -54l-12 -13q-10 -4 -35.5 -12t-36.5 -8l-8 2t-19 8t-20.5 14.5t-9.5 20.5z" />
<glyph unicode="&#x454;" horiz-adv-x="694" d="M18 440q0 37 26 51.5t75 14.5q18 76 59 143.5t99.5 116.5t131 77.5t154.5 28.5q20 0 43 -1t41.5 -7t30.5 -17t12 -32q0 -23 -16.5 -43t-44.5 -20q-16 0 -35 3t-35 3q-55 0 -105.5 -18.5t-92.5 -51.5t-72.5 -78t-48.5 -96q70 2 138 3t140 1q29 0 42 -17.5t13 -39.5 q0 -23 -13 -41.5t-42 -18.5h-149.5t-149.5 -4q0 -68 21.5 -123t56.5 -95t78 -61.5t88 -21.5q47 0 95 25t91 78q18 20 37 20q23 0 41 -19.5t18 -43.5q0 -23 -14 -39q-57 -72 -124.5 -106t-135.5 -34q-70 0 -135.5 31t-116.5 86.5t-82 131t-31 163.5q-23 0 -32 -2 q-29 0 -42.5 15.5t-13.5 37.5z" />
<glyph unicode="&#x455;" horiz-adv-x="804" d="M57 158q0 16 12.5 35.5t41.5 19.5q20 0 32.5 -14.5t24.5 -33t25.5 -37.5t33.5 -30q25 -12 51.5 -17t51.5 -5t55.5 6t61 18.5t57 29.5t43.5 40q4 8 5 20.5t1 22.5q0 49 -27 74q-23 20 -56.5 34.5t-70.5 23.5t-73.5 16.5t-65.5 17.5q-57 20 -93 70.5t-36 109.5 q0 57 27.5 100t72.5 71t99.5 41t109.5 13q27 0 67 -7t77 -21.5t64.5 -34t27.5 -43.5q0 -23 -17.5 -40t-40.5 -17q-16 0 -20 5t-16.5 12t-44 16.5t-101.5 19.5q-10 2 -28 2q-52 0 -103 -27q-27 -12 -45 -35.5t-18 -52.5t17 -52.5t48 -31.5q55 -12 117.5 -27.5t115 -43 t87.5 -71.5t37 -118q0 -47 -15.5 -83t-43 -62.5t-66.5 -46t-82 -35.5q-35 -14 -68 -19.5t-59 -5.5q-86 0 -161 41t-108 127q-4 16 -4 25z" />
<glyph unicode="&#x456;" horiz-adv-x="436" d="M96 909q0 29 20.5 49.5t49.5 20.5t49.5 -20.5t20.5 -49.5t-20.5 -49t-49.5 -20t-49.5 20.5t-20.5 48.5zM117 684q0 23 18.5 42t46.5 19q20 0 38 -12t22 -33q14 -66 24 -142.5t18.5 -155t19 -154.5t24.5 -142q10 -16 10 -34q0 -25 -18.5 -43.5t-47.5 -18.5q-35 0 -53 31 q-25 66 -39 145.5t-23.5 162.5t-17.5 165t-20 152q-2 6 -2 18z" />
<glyph unicode="&#x457;" horiz-adv-x="395" d="M-70 936q0 25 12.5 42.5t41.5 31.5q23 2 47 1t43.5 -7.5t31 -19.5t9.5 -36q0 -29 -20.5 -52.5t-49.5 -33.5q-27 -8 -45 -2t-32.5 19.5t-22.5 29t-15 27.5zM119 666q-8 25 5 47t40 30q25 8 49.5 -5t28.5 -38q14 -66 24 -142.5t18.5 -155t19 -154.5t24.5 -142q14 -23 8 -48 t-29 -38q-23 -14 -48.5 -8t-39.5 29q-25 66 -39 145.5t-23.5 162.5t-17.5 165t-20 152zM250 909.5q-2 34.5 15.5 59t51 32t72.5 -21.5q20 -6 32.5 -21.5t16.5 -33t1 -34t-11 -28.5q-8 -18 -26.5 -25.5t-40 -6.5t-43 7.5t-35.5 12.5q-31 25 -33 59.5z" />
<glyph unicode="&#x458;" horiz-adv-x="591" d="M43 -139q0 23 1 41t1 37v12q0 25 15.5 45t39.5 20q20 0 38 -13t22 -36q-6 -47 -6 -96q0 -78 22.5 -150.5t73.5 -117.5q49 14 71.5 55t29.5 94t6 110.5t-1 106.5q0 170 -11 340t-21 336q-35 0 -88.5 -8t-100.5 -8q-35 0 -63.5 16.5t-28.5 46.5q0 25 17.5 45.5t41.5 20.5 q10 0 19.5 -4t32.5 -4q59 0 107 9t65 9q39 0 74.5 -19.5t37.5 -66.5l4 -121q16 -131 24.5 -260t8.5 -258q0 -84 -3 -167t-11 -167q-4 -37 -20.5 -77t-43 -72.5t-61.5 -53t-74 -20.5q-20 0 -51 10q-55 20 -88 60.5t-50.5 91.5t-23.5 106.5t-6 106.5zM231 950q0 33 22.5 55.5 t55.5 22.5t54.5 -22.5t21.5 -55.5t-21.5 -55.5t-54.5 -22.5t-55.5 23t-22.5 55z" />
<glyph unicode="&#x459;" horiz-adv-x="1263" d="M-8 61q0 31 28 48q88 51 162 121.5t126 154.5t81 180.5t29 196.5q0 23 -2 43t-2 43q0 37 46 48t103 11h43.5t25.5 -1t23.5 -1h38.5q74 0 113 -10t39 -51q0 -57 -7.5 -116.5t-11.5 -119.5q14 10 57.5 11.5t76.5 1.5q49 0 97 -8.5t87 -37.5q53 -37 79.5 -91t26.5 -117 q0 -106 -49 -175t-122.5 -112t-162 -66.5t-163.5 -42.5q-4 -2 -15 -2q-27 0 -42 20.5t-15 43.5q0 33 27 45q-23 16 -23 47q10 166 16.5 329.5t22.5 329.5q-27 2 -52.5 2h-54.5h-27h-15.5t-15.5 -1t-28 -1q0 -121 -30.5 -233.5t-89 -212.5t-143.5 -184t-191 -146 q-14 -8 -29 -8q-25 0 -41 19.5t-16 41.5zM797 100q47 10 99 23.5t98 35t81 53.5t47 77q12 43 13 76q0 43 -17.5 69.5t-47.5 42t-67.5 20.5t-78.5 5q-20 0 -39 -1t-39 -3q-18 0 -25 2q-4 -94 -8 -187.5t-10 -187.5q0 -16 -6 -25z" />
<glyph unicode="&#x45a;" horiz-adv-x="1126" d="M31 53q0 20 18 37q51 43 84 96.5t50.5 113.5t23.5 124.5t6 130.5q0 72 -4 144.5t-4 138.5q0 29 17.5 43t39.5 14q23 0 41.5 -14.5t18.5 -42.5q0 -55 2 -112.5t4 -117.5q66 6 135 8t141 2q6 125 6 252q0 29 18.5 43.5t41.5 14.5t40 -14.5t17 -43.5q0 -66 -2 -130t-4 -130 q51 -6 115.5 -21.5t124 -44t104.5 -72.5t57 -105q4 -12 4 -24.5v-25.5q0 -66 -36.5 -124t-93 -102t-124 -70.5t-129.5 -26.5q-23 0 -36 10q-6 -20 -22.5 -30.5t-35.5 -10.5q-23 0 -40 14.5t-17 42.5q0 121 3 240t7 240q-16 2 -30.5 2h-30.5q-53 0 -107.5 -3t-107.5 -7 q-4 -68 -13.5 -134.5t-31 -129t-58.5 -118t-92 -102.5q-16 -14 -37 -14q-25 0 -44 18.5t-19 40.5zM709 102l12 4q33 4 83 19.5t96 41.5t80 60.5t34 81.5q0 55 -37 89t-87 53.5t-99.5 26.5t-73.5 11q-4 -98 -5 -193t-3 -194z" />
<glyph unicode="&#x45b;" horiz-adv-x="700" d="M-80 963q0 39 32 50t73 11q23 0 46 -2t44 -2q2 27 5 62.5t9 67.5t17.5 53.5t33.5 21.5q23 0 44.5 -16.5t21.5 -45.5q0 -35 -5 -71.5t-10 -71.5q25 0 53.5 2t57.5 2q47 0 83 -11.5t36 -49.5q0 -41 -38 -52.5t-87 -11.5q-31 0 -61.5 2t-55.5 2q-4 -41 -6 -83t-4 -83 q37 8 73.5 13.5t73.5 5.5q86 0 159 -37t108 -133q23 -63 27.5 -128t4.5 -130.5t1.5 -131t17.5 -128.5q2 -6 2 -15q0 -27 -19.5 -42t-42.5 -15q-25 0 -39 21.5t-21 55t-9 71.5t-2 73q0 121 -8.5 202t-30 130t-60 69.5t-100.5 20.5q-59 0 -137 -23q0 -143 4 -285.5t14 -287.5 q0 -29 -15 -43t-38 -14t-40 14t-21 43q-10 121 -15.5 239.5t-5.5 237.5q0 96 3 191.5t11 191.5q-18 0 -38.5 -1t-40.5 -1q-41 0 -73 10.5t-32 51.5z" />
<glyph unicode="&#x45c;" d="M88 10v31q0 63 7 129t16.5 130.5t17.5 129t8 129.5q0 47 -5 93t-19 93q-4 16 -4 21q0 25 19 39t42 14q33 0 51.5 -35.5t27.5 -82t11 -91.5t2 -61q0 -43 -5 -80t-11 -74t-12.5 -75.5t-8.5 -83.5q76 106 154 225t149 229q0 10 9 29l6 12q18 33 32.5 52.5t61.5 19.5 q53 0 53 -39q0 -25 -23.5 -69t-56 -93t-67.5 -94t-56 -74q31 -72 49.5 -128t39 -108.5t49 -104.5t80.5 -113q16 -20 16 -41q-1 -25 -21 -43q-16 -16 -43 -17q-35 0 -73.5 51.5t-74.5 122t-64.5 144t-43.5 116.5q-53 -72 -97 -153.5t-95 -155.5l-8 -16q-8 -16 -22.5 -27.5 t-31.5 -11.5q-29 0 -44 19.5t-15 41.5zM313 1006v4q0 20 24.5 48.5t60.5 57.5t74 55.5t65 42.5q43 25 68.5 40.5t47.5 15.5q39 0 56.5 -5t17.5 -28q0 -27 -18.5 -50.5t-26.5 -23.5t-43 -26q-25 -16 -58.5 -41t-63.5 -47.5t-51 -38.5l-20 -17l-12 -12q-10 -2 -33.5 -10 t-33.5 -8l-9 2q-10 2 -19 7t-17.5 13t-8.5 21z" />
<glyph unicode="&#x45e;" horiz-adv-x="794" d="M-49 -383q0 23 16.5 38t38.5 15q18 0 36.5 -18.5t36 -45t35 -56t36.5 -50.5l24 -22q23 4 41 15t35 26q113 92 161 208.5t68 245.5q-4 -2 -14 -2q-35 0 -47 31q-41 96 -93.5 186.5t-104.5 179.5t-98 181t-73 194q-2 6 -2 15q0 25 17.5 38t39.5 13q16 0 32 -11.5t20 -33.5 q27 -90 67.5 -173t87.5 -165t95.5 -163t87.5 -165q2 10 6 57.5t10 113t13 139t14.5 140t11.5 115t6 60.5q4 20 18.5 30.5t30.5 10.5q27 0 42.5 -14.5t15.5 -36.5q-1 -11 -3 -17q-4 -8 -4 -16v-16v-37q0 -76 -5 -138.5t-13 -123t-17.5 -124t-17.5 -139.5 q-12 -104 -26.5 -200.5t-51.5 -190.5q-47 -117 -127 -205t-190 -133l-49 -4h-6q-20 0 -35 15l-86 92q-20 31 -50 71.5t-30 69.5zM184 999q0 23 19.5 39.5t44.5 16.5q29 0 47 -27q31 -43 66.5 -61.5t76.5 -18.5q33 0 68 11.5t69 27.5q14 6 27 6q27 0 45.5 -19.5t18.5 -41.5 q0 -25 -28 -42.5t-64.5 -29.5t-75.5 -18t-62 -6q-68 0 -129 31.5t-112 103.5q-10 16 -11 28z" />
<glyph unicode="&#x45f;" horiz-adv-x="870" d="M51 418q0 12 2 57t5 96.5t5.5 94.5t2.5 51q2 29 19 42t40 13t40 -12t17 -41q0 -53 -11 -141.5t-11 -180.5q0 -53 7 -102t25.5 -88t49 -62.5t80.5 -23.5q45 0 79.5 34.5t61 89t45 121t31 131t18.5 119t8 84.5q4 29 22.5 43.5t41.5 14.5q20 0 36.5 -13.5t16.5 -39.5 q0 -55 -6 -115t-6 -119q0 -88 14 -173t57 -161q12 8 25 15.5t25 17.5q14 12 30 12q23 0 38 -19.5t15 -43.5q0 -16 -16 -37t-39.5 -37t-50.5 -27.5t-47 -11.5q-25 0 -46.5 23.5t-40 57.5t-31.5 72t-21 64q-41 -94 -102.5 -156.5t-153.5 -62.5q-86 0 -140.5 37t-84 96.5 t-40 133t-10.5 147.5zM283 -344q0 29 28 43q76 35 123 93.5t49 144.5q2 29 19.5 42t40.5 13t40 -13.5t17 -39.5q0 -117 -63.5 -205t-165.5 -135q-12 -6 -25 -7q-29 0 -46 20.5t-17 43.5z" />
<glyph unicode="&#x490;" d="M55 1137q0 29 16.5 43t41.5 14q47 0 96 5t96 5q80 0 160 -4t160 -4q16 0 23 16.5t8 41t0 54t-1 56.5q0 31 9.5 38t40.5 7q18 0 31.5 -20.5t20.5 -52t11 -68.5t4 -68q0 -45 -12 -81t-41 -36q-76 2 -166 4.5t-182 2.5q-53 0 -103.5 -1.5t-93.5 -5.5q10 -170 19.5 -336.5 t9.5 -334.5q0 -104 -5 -209t-18 -209q-4 -29 -22.5 -43t-40.5 -14q-51 0 -51 57q10 104 15 205.5t5 206.5q0 184 -10 364t-21 367z" />
<glyph unicode="&#x491;" horiz-adv-x="649" d="M55 33q16 117 24.5 228.5t8.5 225.5q0 78 -7 157t-7 159q0 18 20.5 39.5t46.5 21.5h351q8 0 5 25.5t-3 56.5t9 56.5t44 25.5q18 0 26 -4q10 -6 17.5 -28.5t12.5 -50t8 -56.5t3 -47q0 -37 -12 -65.5t-41 -28.5h-368q6 -66 8 -129.5t2 -129.5q0 -123 -8.5 -243.5 t-26.5 -243.5q-4 -23 -17.5 -33t-29.5 -10q-29 0 -47.5 19.5t-18.5 54.5z" />
<glyph unicode="&#x4d9;" d="M88 588q0 21 16 37q20 39 57.5 65.5t81.5 43t90 23.5t85 7q76 0 135 -32t101 -84t64.5 -119.5t22.5 -137.5q0 -72 -25.5 -141.5t-71.5 -124.5t-113.5 -90t-149.5 -35q-51 0 -99.5 16.5t-85 48t-59 80t-22.5 113.5q0 70 41 113t97 66.5t112.5 31.5t87.5 8q20 0 41.5 -2 t40 -9t31 -21.5t12.5 -36.5q0 -29 -19.5 -46.5t-42.5 -17.5t-48.5 8t-47.5 8q-4 0 -9 -1t-10 -1h-31.5t-53 -9t-50 -33.5t-22.5 -75.5q0 -31 12 -52.5t32.5 -35t45 -20.5t47.5 -7q55 0 99 26.5t75 67.5t46 89t15 91q0 49 -12 92.5t-37.5 77t-64.5 53t-94 19.5 q-51 0 -111.5 -21.5t-93.5 -70.5q-14 -27 -43 -27q-27 0 -49.5 19.5t-22.5 46.5z" />
<glyph unicode="&#x2000;" horiz-adv-x="869" />
<glyph unicode="&#x2001;" horiz-adv-x="1739" />
<glyph unicode="&#x2002;" horiz-adv-x="869" />
<glyph unicode="&#x2003;" horiz-adv-x="1739" />
<glyph unicode="&#x2004;" horiz-adv-x="579" />
<glyph unicode="&#x2005;" horiz-adv-x="434" />
<glyph unicode="&#x2006;" horiz-adv-x="289" />
<glyph unicode="&#x2007;" horiz-adv-x="289" />
<glyph unicode="&#x2008;" horiz-adv-x="217" />
<glyph unicode="&#x2009;" horiz-adv-x="347" />
<glyph unicode="&#x200a;" horiz-adv-x="96" />
<glyph unicode="&#x2010;" horiz-adv-x="827" d="M53 418q0 33 28 49t67.5 24.5t83.5 9.5t77 1q59 0 122 -3t128 -3q72 0 146 6q88 -27 88 -66q0 -36 -84 -63q-92 -2 -169 -3t-151 -1h-149q-20 0 -52 -2t-62 1t-51.5 13t-21.5 37z" />
<glyph unicode="&#x2011;" horiz-adv-x="827" d="M53 418q0 33 28 49t67.5 24.5t83.5 9.5t77 1q59 0 122 -3t128 -3q72 0 146 6q88 -27 88 -66q0 -36 -84 -63q-92 -2 -169 -3t-151 -1h-149q-20 0 -52 -2t-62 1t-51.5 13t-21.5 37z" />
<glyph unicode="&#x2012;" horiz-adv-x="827" d="M53 418q0 33 28 49t67.5 24.5t83.5 9.5t77 1q59 0 122 -3t128 -3q72 0 146 6q88 -27 88 -66q0 -36 -84 -63q-92 -2 -169 -3t-151 -1h-149q-20 0 -52 -2t-62 1t-51.5 13t-21.5 37z" />
<glyph unicode="&#x2013;" horiz-adv-x="1148" d="M131 604q0 25 33 45.5t69 18.5q39 0 65 -1t60 -3q35 0 70 -1t51 -1h400q16 0 34.5 -12.5t23.5 -30t-8.5 -35t-62.5 -27.5q-14 -2 -36.5 -2h-55.5q-43 0 -95 1t-99.5 2t-86.5 1t-53 -2q-20 -2 -41.5 -3t-44.5 -1t-50.5 1t-55.5 3q-51 -8 -83 8.5t-34 38.5z" />
<glyph unicode="&#x2014;" horiz-adv-x="1509" d="M180 601.5q-6 19.5 7.5 33.5t36 23.5t32.5 11.5q143 -6 209 -6h749q14 0 50 2t67 -2q16 -2 30.5 -10.5t23 -22t6.5 -30.5t-19 -38q-2 -2 -19.5 -4t-43 -3t-54 0t-53.5 3q-16 2 -76.5 3t-142.5 1h-348q-80 0 -138.5 -1t-70.5 -3q-47 -6 -88 -5t-107 5q-45 23 -51 42.5z " />
<glyph unicode="&#x2018;" horiz-adv-x="423" d="M100 1348q0 27 15.5 43t54.5 20q31 -12 49.5 -52t31.5 -89t25.5 -100.5t28.5 -86.5q-10 -47 -39 -47t-65 56q-10 27 -27.5 60.5t-34 67t-28 67.5t-11.5 61z" />
<glyph unicode="&#x2019;" horiz-adv-x="389" d="M84 1083q16 35 28.5 86.5t26 100.5t31.5 89t49 52q57 -4 66.5 -39t-7 -84t-45 -102t-45.5 -94q-41 -59 -67.5 -54.5t-36.5 45.5z" />
<glyph unicode="&#x201a;" horiz-adv-x="249" d="M37 -180q0 35 22 94q12 33 23 59q10 23 17 43.5t7 24.5q4 8 5 12q0 2 2 9.5t9 15.5t20.5 15t35.5 7q4 0 20.5 -6t16.5 -41v-33q0 -6 -6 -22t-16.5 -38.5t-21.5 -46.5t-21 -42q-16 -33 -44 -58.5t-47 -25.5q-23 0 -22 33z" />
<glyph unicode="&#x201c;" horiz-adv-x="530" d="M100 1258.5q-6 50.5 31 74.5q29 0 46.5 -18.5t29.5 -47t22.5 -61t24.5 -63.5q16 -37 31.5 -86t23.5 -88l-33 -31q-33 41 -73.5 98.5t-68.5 114.5t-34 107.5zM244 1372q8 35 67 39q31 -12 49.5 -52t32 -89t24.5 -100.5t29 -86.5q-10 -41 -36.5 -46t-67.5 55q-16 41 -45 94 t-45 102t-8 84z" />
<glyph unicode="&#x201d;" horiz-adv-x="530" d="M84 1083q16 35 28.5 86.5t26 100.5t31.5 89t49 52q57 -4 66.5 -39t-7 -84t-45 -102t-45.5 -94q-41 -59 -67.5 -54.5t-36.5 45.5zM221 969q6 39 21.5 88t33.5 86q14 31 24.5 63.5t23 61t30 47t43.5 18.5q37 -25 32 -74t-32.5 -107t-67.5 -115.5t-75 -98.5z" />
<glyph unicode="&#x201e;" horiz-adv-x="489" d="M37 -180q0 35 22 94q12 33 23 59q10 23 17 43.5t7 24.5q4 8 5 12q0 2 2 9.5t9 15.5t20.5 15t35.5 7q4 0 20.5 -6t16.5 -41v-33q0 -6 -6 -22t-16.5 -38.5t-21.5 -46.5t-21 -42q-16 -33 -44 -58.5t-47 -25.5q-23 0 -22 33zM276 -180q0 35 23 94q12 33 23 59q10 23 17 43.5 t7 24.5q4 8 4 12q0 2 2 9.5t9.5 15.5t20.5 15t36 7q4 0 20.5 -6t16.5 -41v-33q0 -6 -6.5 -22t-16.5 -38.5t-21.5 -46.5t-21.5 -42q-16 -33 -44 -58.5t-46 -25.5q-23 0 -23 33z" />
<glyph unicode="&#x2026;" horiz-adv-x="1103" d="M83.5 96q-6.5 37 16.5 86q12 10 31 19q14 6 34.5 12t43.5 2q23 -2 36 -11t21 -21.5t10.5 -25t4.5 -20.5q6 -20 -2 -35q-6 -16 -22.5 -53t-39.5 -55t-61 6q-41 25 -54 41q-12 18 -18.5 55zM432.5 96q-6.5 37 16.5 86q12 10 30 19q14 6 35 12t43 2q23 -2 36 -11t21.5 -21.5 t10.5 -25t4 -20.5q6 -20 -2 -35q-6 -16 -22.5 -53t-39.5 -55t-61 6q-41 25 -53 41q-12 18 -18.5 55zM800.5 96q-6.5 37 16.5 86q12 10 31 19q14 6 34.5 12t43.5 2q23 -2 36 -11t21 -21.5t10 -25t4 -20.5q6 -20 -2 -35q-6 -16 -22.5 -53t-38.5 -55q-23 -18 -62 6 q-41 25 -53 41q-12 18 -18.5 55z" />
<glyph unicode="&#x202f;" horiz-adv-x="347" />
<glyph unicode="&#x2039;" horiz-adv-x="634" d="M88 659q0 55 78 134t219 182q37 27 64 26q35 0 47 -27.5t12 -41.5q0 -16 -7.5 -31t-11.5 -27q-2 -10 -41.5 -36.5t-88 -57t-88.5 -59.5t-42 -43q-10 -14 -10 -33q0 -20 16.5 -39.5t52.5 -42t92 -50.5t136 -64l8 -17q-10 -23 -12 -45t-27 -33l4 -2q-12 -4 -20 -4t-16.5 1 t-18.5 1l-80 27q-29 10 -75 36.5t-76 61.5q-16 18 -36 37.5t-37 42.5t-29.5 48.5t-12.5 55.5z" />
<glyph unicode="&#x203a;" horiz-adv-x="632" d="M106 432l9 17q80 37 136 64.5t92 50t52.5 42t16.5 39.5q0 18 -11 33q-2 14 -42 43t-88 59.5t-88 57t-42 36.5q-4 12 -11 26.5t-7 31.5q0 14 12 41.5t47 27.5q31 0 64 -26q141 -102 219 -181t78 -135q0 -31 -11.5 -56t-30 -48t-39 -42t-34.5 -38q-29 -35 -75 -61.5 t-77 -36.5l-79 -27q-10 0 -18.5 -1t-16.5 -1t-21 4l4 2q-23 10 -25.5 33t-13.5 45z" />
<glyph unicode="&#x205f;" horiz-adv-x="434" />
<glyph unicode="&#x20ac;" horiz-adv-x="1009" d="M74 555q0 23 46 33t99 10l6 49h-18q-12 0 -33.5 2t-44.5 6t-39 10.5t-16 14.5q0 23 5 35t22.5 18t48 10.5t81.5 14.5h11q6 41 13 81t17 81q14 72 53.5 138t94.5 118.5t121.5 83t140.5 30.5q27 0 63.5 -8t73.5 -22.5t64.5 -35t36.5 -42.5l18 -27q10 -16 13 -23.5t3 -21.5 q0 -31 -10 -53.5t-47 -22.5q-14 0 -22.5 4t-10.5 27l-39 47l-32 21q-59 37 -113 36q-74 0 -130 -43t-97 -106.5t-64.5 -136t-30.5 -129.5q12 -2 23.5 -2h21.5h250q10 0 31 1t43 1q59 0 77.5 -23.5t18.5 -40.5q-10 -20 -48 -32.5t-81 -12.5q-41 0 -82 3t-98 3q-45 0 -82 -3 t-55 -3h-27q-2 -6 -2 -22v-23h307q14 0 28.5 1t31.5 1q37 0 66.5 -7t29.5 -36q0 -20 -3 -33.5t-18.5 -21.5t-46 -11.5t-86.5 -3.5h-241q-16 0 -32.5 -1t-35.5 -1v-65q0 -55 15.5 -112.5t45 -103.5t70.5 -75t94 -29q76 0 128.5 49.5t86.5 114.5q23 29 50 29q29 0 46 -19.5 t17 -42.5q0 -16 -10 -36q-41 -96 -128 -158t-192 -62q-98 0 -165.5 52.5t-109.5 130.5t-60.5 167t-20.5 165q-61 0 -101 9t-40 54z" />
<glyph unicode="&#x2122;" horiz-adv-x="1015" d="M113 1294q0 18 13 29.5t30 11.5h78.5t69.5 2t69 5.5t78 9.5q4 0 5 1t5 1q18 0 27.5 -13.5t9.5 -29.5q0 -20 -17.5 -31.5t-41 -17t-48 -6.5t-41.5 -1q4 -49 6 -91t2 -79q0 -51 -2 -98t-2 -104q0 -20 1 -42t1 -46q0 -18 -13.5 -29.5t-29.5 -11.5t-29.5 11t-13.5 30 q-2 68 -3 121t-1 104v231h-110q-16 0 -29.5 12.5t-13.5 30.5zM442 737v6q29 143 52.5 285.5t58.5 284.5l4 16q10 35 39 35q20 0 33.5 -25.5t20.5 -61.5t11.5 -76t8.5 -66q8 33 15 65.5t17 65.5l-4 32q0 45 39 45q16 0 31.5 -11t17.5 -34l2 -14l-4 -20q39 -119 67 -241 t52 -245q2 -4 2 -10q0 -31 -33 -41q-4 0 -5 -1t-5 -1q-29 0 -39 35q-16 86 -35.5 168t-42.5 168q-4 -20 -9 -48t-12 -54.5t-17.5 -49t-26.5 -31.5l-6 -2q-12 -4 -21 -4q-41 0 -41 54l-24 157q-16 -98 -30.5 -191t-33.5 -192q-4 -18 -15 -28.5t-28 -10.5q-16 0 -27.5 10.5 t-11.5 30.5z" />
<glyph unicode="&#x25fc;" horiz-adv-x="768" d="M0 0v768h768v-768h-768z" />
</font>
</defs>
</svg>
