<?xml version="1.0" standalone="no"?>
<!DOCTYPE svg PUBLIC "-//W3C//DTD SVG 1.1//EN" "http://www.w3.org/Graphics/SVG/1.1/DTD/svg11.dtd" >
<svg xmlns="http://www.w3.org/2000/svg" xmlns:xlink="http://www.w3.org/1999/xlink" version="1.1">
<metadata>
Created by FontForge 20170731 at Wed May 14 19:56:34 2014
 By ,,,
Copyright (c) 2010 by TypeTogether. All rights reserved.This font is ONLY licensed for use when accessed from the Extensis WebINK font service. Any other use of this font file is illegal under United States and international copyright laws. Please respect the rights of the people who design and license fonts.
</metadata>
<defs>
<font id="AdelleCyrillic-BoldItalic" horiz-adv-x="500" >
  <font-face 
    font-family="Adelle Cyrillic"
    font-weight="700"
    font-style="italic"
    font-stretch="normal"
    units-per-em="1000"
    panose-1="2 0 8 3 0 0 0 9 0 4"
    ascent="755"
    descent="-245"
    x-height="521"
    cap-height="724"
    bbox="-157 -256 1108 955"
    underline-thickness="50"
    underline-position="-200"
    unicode-range="U+000D-25CA"
  />
<missing-glyph 
 />
    <glyph glyph-name=".notdef" 
 />
    <glyph glyph-name=".null" horiz-adv-x="0" 
 />
    <glyph glyph-name="nonmarkingreturn" unicode="&#xd;" 
 />
    <glyph glyph-name="NULL" horiz-adv-x="0" 
 />
    <glyph glyph-name="NULL" horiz-adv-x="0" 
 />
    <glyph glyph-name="space" unicode=" " horiz-adv-x="202" 
 />
    <glyph glyph-name="exclam" unicode="!" horiz-adv-x="283" 
d="M88 192l33 355l25 177h161l-25 -177l-67 -355h-127zM221 79q0 -44 -23.5 -67.5t-73.5 -23.5q-77 0 -77 64q0 44 24 68t75 24q75 0 75 -65z" />
    <glyph glyph-name="quotedbl" unicode="&#x22;" horiz-adv-x="415" 
d="M275 447l37 259h135l-37 -259h-135zM75 447l37 259h135l-37 -259h-135z" />
    <glyph glyph-name="numbersign" unicode="#" horiz-adv-x="607" 
d="M425 121l-34 -121h-104l35 121h-87l-34 -121h-104l34 121h-99l36 101h94l33 113h-100l35 102h94l31 106h104l-31 -106h86l31 106h104l-31 -106h101l-34 -102h-96l-33 -113h101l-35 -101h-97zM385 335h-86l-34 -113h87z" />
    <glyph glyph-name="dollar" unicode="$" horiz-adv-x="518" 
d="M402 444l-3 69q0 15 -12 19q-11 4 -26.5 5t-33.5 1q-48 0 -76.5 -17.5t-28.5 -52.5q0 -19 9.5 -33t25.5 -24t37 -18t44 -17q27 -10 54 -23t48.5 -32t35 -46.5t13.5 -66.5q0 -85 -51 -135.5t-133 -65.5l-11 -87h-124l11 82q-46 3 -89.5 11.5t-72.5 24.5l23 164l105 -6
l5 -69q1 -10 4.5 -15t14.5 -8t28.5 -5t40.5 -2q107 0 107 77q0 19 -9 32t-24.5 23t-36 17.5t-42.5 15.5q-28 10 -56 22.5t-50.5 32t-36.5 47.5t-14 70q0 45 14.5 79.5t40.5 58.5t61 38.5t75 20.5l12 76h125l-11 -74q40 -3 74.5 -11t61.5 -17l-23 -170z" />
    <glyph glyph-name="percent" unicode="%" horiz-adv-x="908" 
d="M222 257q-41 0 -69 11.5t-45.5 31t-25 45.5t-7.5 56q0 47 12 87.5t37 69.5t63.5 45.5t91.5 16.5q78 0 112 -38.5t34 -103.5q0 -48 -13 -89t-38.5 -70t-63.5 -45.5t-88 -16.5zM172 -17l466 638h138l-465 -638h-139zM237 339q25 0 39.5 12.5t22 32t10 43t2.5 45.5
q0 32 -10.5 48.5t-35.5 16.5q-40 0 -57.5 -35t-17.5 -93q0 -33 10.5 -51.5t36.5 -18.5zM674 -12q-41 0 -69 11.5t-45.5 31t-25 45.5t-7.5 56q0 47 12 87.5t37 69.5t63.5 45.5t91.5 16.5q78 0 112.5 -38.5t34.5 -103.5q0 -48 -13 -89t-38.5 -70t-64 -45.5t-88.5 -16.5z
M690 70q24 0 38.5 12.5t22 32t10 43t2.5 45.5q0 32 -10.5 48.5t-34.5 16.5q-41 0 -58 -35t-17 -93q0 -33 10.5 -51.5t36.5 -18.5z" />
    <glyph glyph-name="ampersand" unicode="&#x26;" horiz-adv-x="698" 
d="M631 316q-9 -1 -12 -3.5t-4 -10.5l-34 -260q-55 -28 -124 -41t-131 -13q-70 0 -118.5 12t-79.5 34.5t-45 55t-14 72.5t12.5 71.5t33.5 54.5t48.5 38t57.5 22v2q-16 6 -32.5 16.5t-30 27t-22 38.5t-8.5 49q0 49 18.5 86.5t52.5 63t80.5 38.5t103.5 13q70 0 131.5 -16
t95.5 -38l-25 -155l-108 9l-4 64q-1 7 -2.5 11.5t-9.5 6.5q-13 4 -33 6.5t-40 2.5q-21 0 -41 -4t-36 -14.5t-25.5 -28.5t-9.5 -45q0 -38 24.5 -60.5t71.5 -22.5h40l-14 -106q-35 0 -67.5 -4t-57 -15.5t-39.5 -32.5t-15 -55q0 -48 31.5 -67.5t85.5 -19.5q57 0 84 8
q14 4 18 8.5t6 18.5l37 256l18 12h185l-11 -80z" />
    <glyph glyph-name="quotesingle" unicode="'" horiz-adv-x="215" 
d="M75 447l37 259h135l-37 -259h-135z" />
    <glyph glyph-name="parenleft" unicode="(" horiz-adv-x="362" 
d="M169 -173q-21 34 -40.5 77t-33.5 92t-22.5 102t-8.5 108q0 82 19.5 156t53 141t78 127t93.5 114l102 -67q-50 -62 -85.5 -120t-58 -116t-33 -118.5t-10.5 -127.5q0 -90 19.5 -163t51.5 -140z" />
    <glyph glyph-name="parenright" unicode=")" horiz-adv-x="362" 
d="M-13 -106q50 62 85.5 120t58 116t33 118.5t10.5 127.5q0 90 -19.5 162.5t-50.5 140.5l124 65q22 -34 41 -77.5t33.5 -92t22.5 -102t8 -108.5q0 -82 -19.5 -155.5t-53 -140.5t-77.5 -127t-93 -114z" />
    <glyph glyph-name="asterisk" unicode="*" horiz-adv-x="477" 
d="M123 446l51 56l95 55l-104 -4l-64 22l48 100l64 -22l70 -65l-22 97l10 70h105l-10 -70l-49 -97h-34l-14 -31l25 -19l-43 -99l-50 -57zM344 383l-35 56l-15 99l28 19l-5 31l89 65l70 22l19 -100l-70 -22l-103 4l79 -56l36 -56z" />
    <glyph glyph-name="plus" unicode="+" horiz-adv-x="570" 
d="M210 121l21 144h-133l16 116h133l20 140h120l-20 -140h134l-16 -116h-134l-21 -144h-120z" />
    <glyph glyph-name="comma" unicode="," horiz-adv-x="258" 
d="M36 -99l43 107q4 9 -4 12l-39 14l38 108q27 0 50.5 -2.5t41 -9.5t27.5 -20.5t10 -36.5q0 -20 -10.5 -40.5t-20.5 -37.5l-71 -114z" />
    <glyph glyph-name="hyphen" unicode="-" horiz-adv-x="311" 
d="M35 227l18 127h271l-18 -127h-271z" />
    <glyph glyph-name="period" unicode="." horiz-adv-x="276" 
d="M216 76q0 -42 -24.5 -65t-72.5 -23q-76 0 -76 67q0 43 24.5 66t73.5 23q39 0 57 -17t18 -51z" />
    <glyph glyph-name="slash" unicode="/" horiz-adv-x="455" 
d="M-20 -92l388 823h145l-388 -823h-145z" />
    <glyph glyph-name="zero" unicode="0" horiz-adv-x="579" 
d="M567 289q-9 -70 -29.5 -126t-56 -95t-88 -59.5t-125.5 -20.5q-61 0 -103 16t-68 45t-38 70t-12 90q0 42 6 87q8 66 29.5 120.5t58 93t89.5 60t125 21.5q60 0 102 -16.5t67.5 -45.5t37 -69.5t11.5 -88.5q0 -40 -6 -82zM283 94q54 0 84 43.5t43 149.5q3 26 5.5 47.5
t2.5 38.5q0 55 -18 82t-60 27q-55 0 -85.5 -42.5t-44.5 -147.5q-6 -51 -6 -86q0 -55 18 -83.5t61 -28.5z" />
    <glyph glyph-name="one" unicode="1" horiz-adv-x="402" 
d="M15 0l10 75l85 6q10 1 12.5 5t4.5 15l50 359q3 17 -10 21l-84 18l12 77h246l-66 -475q-2 -12 0.5 -15.5t13.5 -4.5l78 -7l-11 -74h-341z" />
    <glyph glyph-name="two" unicode="2" horiz-adv-x="516" 
d="M17 0l13 93l154 137q47 41 78.5 69t51 50t28 41t8.5 41q0 23 -14.5 37.5t-48.5 14.5q-42 0 -60.5 -18t-26.5 -72l-135 13q8 60 32 97t57 56.5t73 26t81 6.5q51 0 86.5 -11.5t58 -31.5t33 -46.5t10.5 -57.5q0 -40 -13 -72t-35.5 -59.5t-52.5 -54t-64 -55.5l-125 -107h146
q7 0 10 1.5t5 9.5l25 80h104l-26 -188h-453z" />
    <glyph glyph-name="three" unicode="3" horiz-adv-x="516" 
d="M372 265q45 -12 74 -43.5t29 -92.5q0 -53 -19 -92.5t-53 -66t-81 -40t-104 -13.5q-78 0 -139 26.5t-92 68.5l88 85q23 -23 57 -45t85 -22q47 0 79 21.5t32 76.5q0 42 -24 60.5t-66 18.5q-19 0 -33.5 -1t-36.5 -5l13 100l47 5q60 7 93.5 37t33.5 82q0 25 -15 41.5
t-50 16.5q-41 0 -61 -18t-27 -71l-138 13q7 58 31 94t58.5 56t75 27t79.5 7q100 0 147 -40t47 -115q0 -67 -38 -108.5t-92 -58.5v-4z" />
    <glyph glyph-name="four" unicode="4" horiz-adv-x="549" 
d="M295 -67l17 129h-284l14 103l259 429l119 -61l-231 -354h139l23 164l138 18l-26 -182h81l-16 -117h-81l-17 -129h-135z" />
    <glyph glyph-name="five" unicode="5" horiz-adv-x="521" 
d="M237 450l-36 -141q23 17 54 28t74 11q75 0 119 -45t44 -130q0 -55 -17.5 -101.5t-52 -81t-85 -54t-116.5 -19.5q-82 0 -142 26.5t-94 67.5l89 87q24 -26 58 -46.5t85 -20.5q26 0 48.5 7t39.5 22t27 38t10 54q0 25 -7 41t-18.5 25.5t-25.5 13t-28 3.5q-29 0 -54.5 -12
t-45.5 -31l-92 43l70 341h367l-17 -126h-254z" />
    <glyph glyph-name="six" unicode="6" horiz-adv-x="552" 
d="M486 501q-29 25 -56.5 34t-53.5 9q-32 0 -58.5 -14.5t-46 -39t-32.5 -57t-18 -68.5q28 15 65 28t84 13q35 0 65 -10t51.5 -30t34 -51.5t12.5 -73.5q0 -64 -20 -111.5t-54.5 -79t-82 -47t-103.5 -15.5q-60 0 -100.5 20t-65.5 53.5t-36 78.5t-11 94q0 66 15.5 140
t52.5 136.5t98.5 103.5t153.5 41q54 0 100.5 -17t81.5 -52zM211 265q-1 -14 -1 -23v-23q0 -23 3 -45t11.5 -39t23 -27t38.5 -10q29 0 47 13t29 32.5t15 42t4 41.5q0 38 -17.5 54.5t-48.5 16.5t-57.5 -10.5t-46.5 -22.5z" />
    <glyph glyph-name="seven" unicode="7" horiz-adv-x="517" 
d="M113 -67q20 104 54.5 187.5t74 147.5t79 109t67.5 73h-189q-8 0 -10.5 -2.5t-4.5 -10.5l-26 -84l-104 -8l33 231h482l-18 -113q-49 -46 -94 -106.5t-82.5 -129t-65 -143.5t-39.5 -151h-157z" />
    <glyph glyph-name="eight" unicode="8" horiz-adv-x="517" 
d="M423 334q36 -23 57.5 -54.5t21.5 -85.5q0 -51 -20.5 -89.5t-56.5 -64.5t-85.5 -39t-107.5 -13q-96 0 -149.5 37.5t-53.5 111.5q0 70 34 117.5t88 83.5q-24 20 -42 49t-18 77q0 46 17.5 81.5t49.5 60t76.5 37t97.5 12.5q90 0 138.5 -38.5t48.5 -104.5q0 -57 -28.5 -101
t-67.5 -77zM240 281q-42 -32 -63 -61.5t-21 -62.5q0 -31 22 -50t68 -19q51 0 76.5 24.5t25.5 59.5q0 20 -9.5 35.5t-25 28t-34.5 23.5t-39 22zM324 385q32 28 50.5 55t18.5 56q0 30 -19 45t-52 15q-40 0 -64 -20t-24 -52q0 -17 7.5 -31t20 -26t29 -22t33.5 -20z" />
    <glyph glyph-name="nine" unicode="9" horiz-adv-x="552" 
d="M99 83q23 -20 56.5 -37t70.5 -17q36 0 61 12.5t42 35t27.5 53.5t16.5 68q-26 -15 -60.5 -28t-82.5 -13q-36 0 -67 11.5t-53.5 33.5t-35 55t-12.5 75q0 60 18.5 108t53 81.5t82.5 51.5t108 18q59 0 99.5 -18.5t65.5 -51.5t36 -79t11 -100q0 -38 -4.5 -84.5t-17 -93.5
t-34 -91.5t-56.5 -79t-85 -55t-118 -20.5q-27 0 -55 5.5t-54 16t-48 24.5t-38 31zM383 303q3 29 3 54q0 24 -3 46.5t-11 40t-23 28t-38 10.5q-24 0 -42 -11t-30 -29.5t-18 -43t-6 -50.5q0 -39 14.5 -59t51.5 -20q28 0 54 10t48 24z" />
    <glyph glyph-name="colon" unicode=":" horiz-adv-x="276" 
d="M274 456q0 -42 -24.5 -65t-72.5 -23q-76 0 -76 67q0 43 24.5 66t73.5 23q39 0 57 -17t18 -51zM216 76q0 -42 -24.5 -65t-72.5 -23q-76 0 -76 67q0 43 24.5 66t73.5 23q39 0 57 -17t18 -51z" />
    <glyph glyph-name="semicolon" unicode=";" horiz-adv-x="258" 
d="M36 -99l43 107q4 9 -4 12l-39 14l38 108q27 0 50.5 -2.5t41 -9.5t27.5 -20.5t10 -36.5q0 -20 -10.5 -40.5t-20.5 -37.5l-71 -114zM270 456q0 -42 -24.5 -65t-72.5 -23q-76 0 -76 67q0 43 24.5 66t73.5 23q39 0 57 -17t18 -51z" />
    <glyph glyph-name="less" unicode="&#x3c;" horiz-adv-x="570" 
d="M107 221l19 140l408 142l18 -113l-306 -98l280 -98l-49 -110z" />
    <glyph glyph-name="equal" unicode="=" horiz-adv-x="570" 
d="M91 130l16 117h386l-16 -117h-386zM117 316l16 117h386l-17 -117h-385z" />
    <glyph glyph-name="greater" unicode="&#x3e;" horiz-adv-x="570" 
d="M92 84l-14 116l308 98l-278 98l46 107l367 -142l-19 -140z" />
    <glyph glyph-name="question" unicode="?" horiz-adv-x="528" 
d="M148 192l25 186q35 3 75 12t74 27t56.5 47t22.5 72q0 33 -21 49t-55 16q-23 0 -40 -2t-28 -5t-14 -7t-5 -13l-15 -60l-124 -9l24 173q54 20 109.5 33t114.5 13q45 0 85 -8.5t69 -29.5t46 -56.5t17 -89.5q0 -98 -62.5 -165t-190.5 -87l-12 -96h-151zM292 79
q0 -44 -24 -67.5t-74 -23.5q-76 0 -76 64q0 44 24 68t74 24q76 0 76 -65z" />
    <glyph glyph-name="at" unicode="@" horiz-adv-x="841" 
d="M583 -152q-31 -13 -82 -24t-126 -11q-72 0 -130 18.5t-99 55t-63 91t-22 127.5q0 101 34 186t94.5 146.5t143 96t178.5 34.5q143 0 223 -71t80 -202q0 -80 -18.5 -138t-51 -95.5t-76.5 -55.5t-95 -18q-85 0 -100 69q-32 -28 -64.5 -48.5t-67.5 -20.5q-47 0 -71.5 31
t-24.5 91q0 54 19.5 105.5t54 92t82 65t103.5 24.5q42 0 76 -9.5t59 -22.5l-39 -130q-8 -25 -14.5 -49.5t-11.5 -43.5q-3 -11 -5 -21t-2 -18q0 -15 8 -24t28 -9q25 0 45.5 19t35 49.5t22.5 68.5t8 75q0 104 -57.5 150t-161.5 46q-84 0 -146.5 -32t-103.5 -83.5t-61.5 -115.5
t-20.5 -128q0 -110 57.5 -165t169.5 -55q45 0 92 8.5t89 22.5zM529 312q-8 6 -19.5 9t-23.5 3q-24 0 -48.5 -15.5t-44.5 -43t-32.5 -64.5t-12.5 -81q0 -26 9.5 -35.5t23.5 -9.5q20 0 44.5 15t48.5 38z" />
    <glyph glyph-name="A" unicode="A" horiz-adv-x="744" 
d="M419 0l10 73l82 9l-19 109h-246l-49 -109l76 -9l-11 -73h-274l11 73l45 11q20 5 27 20l299 620h174l128 -623q2 -9 7 -12t15 -5l43 -11l-11 -73h-307zM425 572h-7l-127 -273h185z" />
    <glyph glyph-name="B" unicode="B" horiz-adv-x="648" 
d="M18 0l11 73l62 7q11 2 14 5.5t5 14.5l73 522q2 11 -0.5 15t-13.5 5l-61 7l10 75h330q55 0 92 -12.5t59.5 -34t32 -49.5t9.5 -60q0 -43 -13 -74.5t-33.5 -54.5t-46.5 -37.5t-53 -22.5v-3q72 -8 107 -47t35 -102t-22.5 -106.5t-62.5 -70t-94.5 -38.5t-117.5 -12h-322z
M329 108q35 0 63 5.5t48 19.5t31 38t11 62q0 26 -8.5 42.5t-23.5 26.5t-34.5 14t-42.5 4h-83l-29 -212h68zM344 420q29 0 56 4.5t47.5 17.5t33 36.5t12.5 60.5q0 25 -8.5 40t-23 23t-34 10.5t-42.5 2.5h-55l-26 -195h40z" />
    <glyph glyph-name="C" unicode="C" horiz-adv-x="670" 
d="M610 43q-23 -13 -53 -23.5t-63 -17.5t-68 -10.5t-69 -3.5q-78 0 -134.5 22.5t-93 63.5t-53.5 98.5t-17 127.5q0 96 26.5 176t79 138t131 90.5t181.5 32.5q30 0 61.5 -4t60.5 -11t54 -17.5t43 -24.5l-26 -196l-107 9l-3 93q0 11 -3 15.5t-10 6.5q-15 6 -35.5 9.5
t-48.5 3.5q-54 0 -99.5 -19.5t-77.5 -58.5t-50 -97t-18 -135q0 -103 42.5 -156t123.5 -53q30 0 57 2.5t46 10.5q6 3 9.5 7t5.5 12l29 95h105z" />
    <glyph glyph-name="D" unicode="D" horiz-adv-x="739" 
d="M18 0l11 75l63 7q10 1 13 4.5t5 14.5l73 522q2 11 -0.5 14.5t-12.5 5.5l-62 7l10 74h318q81 0 139 -20.5t95.5 -58.5t55.5 -92.5t18 -122.5q0 -92 -25.5 -170.5t-77.5 -136.5t-132 -90.5t-189 -32.5h-302zM318 107q68 0 119 25t84.5 68.5t50.5 101.5t17 124
q0 103 -48.5 146.5t-147.5 43.5h-61l-70 -509h56z" />
    <glyph glyph-name="E" unicode="E" horiz-adv-x="620" 
d="M18 0l10 73l63 7q11 2 14 5.5t5 14.5l73 523q2 11 -0.5 15t-12.5 5l-62 7l10 74h521l-28 -202l-105 5l-3 76q-1 13 -16 13h-155l-27 -197h230l-16 -111h-230l-27 -201h177q8 0 11.5 1.5t5.5 9.5l28 88h105l-28 -206h-543z" />
    <glyph glyph-name="F" unicode="F" horiz-adv-x="595" 
d="M19 0l10 73l62 7q11 2 14 5.5t5 14.5l73 523q2 11 -0.5 15t-12.5 5l-62 7l10 74h518l-28 -202l-106 5l-3 76q-1 13 -16 13h-151l-27 -196h226l-15 -111h-226l-29 -207q-2 -12 0 -15t13 -5l143 -8l-9 -74h-389z" />
    <glyph glyph-name="G" unicode="G" horiz-adv-x="717" 
d="M681 265q-17 -1 -18 -14l-29 -215q-60 -27 -130 -37.5t-132 -10.5q-86 0 -146 24t-97.5 66t-54 99t-16.5 123q0 94 26.5 174t79 138.5t131.5 91.5t183 33q27 0 57 -3.5t59.5 -10.5t56 -18t46.5 -26l-25 -189l-108 8l-3 89q0 9 -2 14t-10 7q-17 5 -41.5 9t-47.5 4
q-56 0 -100.5 -22t-76 -63t-48.5 -98t-17 -128q0 -100 43 -153.5t133 -53.5q23 0 47 2.5t41 7.5q11 3 14 17l19 129h-110l26 90h301l-11 -80z" />
    <glyph glyph-name="H" unicode="H" horiz-adv-x="802" 
d="M439 0l11 73l62 7q11 2 13.5 5.5t4.5 14.5l31 216h-269l-30 -215q-2 -12 -0.5 -15t12.5 -5l65 -8l-10 -73h-310l10 73l63 7q11 2 13.5 5.5t4.5 14.5l73 522q2 11 -0.5 15t-13.5 5l-60 7l10 75h310l-10 -75l-67 -8q-11 -2 -13.5 -5t-4.5 -14l-26 -194h268l27 194
q2 11 0 15t-13 5l-61 7l10 75h310l-10 -75l-66 -8q-11 -2 -13.5 -5t-4.5 -14l-73 -521q-2 -12 0 -15t13 -5l65 -8l-11 -73h-310z" />
    <glyph glyph-name="I" unicode="I" horiz-adv-x="382" 
d="M11 0l8 73l73 7q11 1 13.5 5t4.5 15l74 522q2 11 -0.5 15t-13.5 5l-70 7l10 75h330l-11 -75l-76 -8q-11 -2 -13.5 -5t-4.5 -14l-73 -521q-2 -12 -0.5 -15t12.5 -5l75 -8l-9 -73h-329z" />
    <glyph glyph-name="J" unicode="J" 
d="M318 623q2 11 -1 14.5t-13 4.5l-87 7l10 75h337l-11 -75l-67 -8q-11 -2 -13 -4.5t-4 -13.5l-65 -460q-12 -89 -60 -132t-148 -43q-30 0 -58 3.5t-52 9t-42 12.5t-27 14l25 178l106 -8l1 -71q0 -12 7 -14q6 -2 16.5 -4t25.5 -2q27 0 39 13t17 45z" />
    <glyph glyph-name="K" unicode="K" horiz-adv-x="735" 
d="M506 0l-7 5l-35 84l-102 209l-85 -88l-16 -108q-2 -12 0 -15.5t12 -4.5l66 -8l-10 -74h-310l10 74l62 7q11 1 14 4.5t5 15.5l73 522q2 11 -0.5 14.5t-12.5 5.5l-60 7l9 74h310l-9 -74l-68 -8q-11 -2 -13.5 -5t-4.5 -14l-36 -254l269 272l-59 8l10 75h257l-10 -75l-42 -7
q-14 -2 -19 -5.5t-13 -11.5l-210 -213l153 -309q5 -10 10.5 -13.5t16.5 -5.5l59 -10l-10 -74h-204z" />
    <glyph glyph-name="L" unicode="L" horiz-adv-x="607" 
d="M19 0l10 74l62 7q11 2 14 5.5t5 14.5l73 522q2 11 -0.5 15t-12.5 5l-60 7l8 74h327l-10 -74l-83 -8q-11 -1 -13.5 -4.5t-4.5 -14.5l-72 -516h176q8 0 11.5 1.5t6.5 9.5l29 100h107l-30 -218h-543z" />
    <glyph glyph-name="M" unicode="M" horiz-adv-x="942" 
d="M567 0l10 73l82 7q10 1 13 5t5 15l53 376h-4l-187 -332h-153l-99 331h-5l-52 -374q-2 -12 -0.5 -15.5t12.5 -4.5l84 -8l-9 -73h-298l9 73l63 7q11 2 14 5.5t5 15.5l73 522q2 11 -0.5 14.5t-12.5 5.5l-60 7l8 74h246l128 -439h5l240 439h253l-9 -73l-66 -8
q-12 -2 -14.5 -5.5t-4.5 -15.5l-74 -522q-2 -10 0.5 -13.5t12.5 -5.5l65 -8l-10 -73h-323z" />
    <glyph glyph-name="N" unicode="N" horiz-adv-x="812" 
d="M522 0l-240 525l-59 -424q-2 -12 0 -15t13 -5l65 -8l-9 -73h-273l9 73l63 7q11 2 14 5.5t5 14.5l73 523q2 11 0 15t-13 5l-60 7l8 74h243l236 -526l60 424q2 11 -0.5 15t-12.5 5l-61 7l9 75h272l-10 -75l-67 -8q-11 -2 -13 -5t-4 -14l-88 -622h-160z" />
    <glyph glyph-name="O" unicode="O" horiz-adv-x="757" 
d="M352 -12q-78 0 -134 21.5t-91 60.5t-51.5 94t-16.5 122q0 95 25.5 177t77 143t128 96t178.5 35q78 0 133 -22.5t90 -61.5t51.5 -92.5t16.5 -115.5q0 -107 -27.5 -191.5t-80 -143.5t-128 -90.5t-171.5 -31.5zM375 111q44 0 83 16t69 52t49 93t23 138v29t-2 27
q-9 78 -45.5 113t-101.5 35q-58 0 -101.5 -26.5t-72 -69.5t-42.5 -97.5t-14 -110.5q0 -13 0.5 -28.5t2.5 -25.5q10 -75 47 -110t105 -35z" />
    <glyph glyph-name="P" unicode="P" horiz-adv-x="635" 
d="M18 0l11 74l63 7q11 2 14 5.5t5 14.5l72 521q2 11 -0.5 15t-13.5 5l-60 7l9 75h326q59 0 100.5 -14t67 -39.5t37 -59.5t11.5 -75q0 -69 -21.5 -119.5t-61 -84t-96 -49.5t-126.5 -16h-72l-22 -165q-2 -12 0 -15t12 -5l140 -8l-11 -74h-384zM346 374q28 0 55.5 5t50 20.5
t36.5 44.5t14 77q0 29 -9 47t-24.5 28.5t-36 14.5t-43.5 4h-58l-33 -241h48z" />
    <glyph glyph-name="Q" unicode="Q" horiz-adv-x="757" 
d="M677 -162q-45 -6 -81 -6q-63 0 -107 14.5t-78 31.5t-63.5 31.5t-62.5 14.5q-24 0 -52 -10t-63 -33l-51 90q10 7 23.5 14.5t27.5 14.5t28 12.5t24 8.5v2q-81 39 -122 104t-41 159q0 95 25.5 177t77 143t128 96t178.5 35q78 0 133 -22.5t90 -61.5t51.5 -92.5t16.5 -115.5
q0 -202 -93 -313t-274 -128v-2q19 -9 43 -19.5t52 -19.5t58.5 -15t61.5 -6q34 0 74 6zM375 111q60 0 102.5 26t69.5 69.5t39.5 99.5t12.5 116q0 14 -0.5 24.5t-1.5 19.5q-9 78 -45.5 113t-101.5 35q-58 0 -101.5 -26.5t-72 -69.5t-42.5 -97.5t-14 -110.5q0 -13 0.5 -28.5
t2.5 -25.5q10 -75 47 -110t105 -35z" />
    <glyph glyph-name="R" unicode="R" horiz-adv-x="673" 
d="M447 0l-6 5l-55 246q-5 22 -15 33.5t-36 11.5h-47l-27 -193q-2 -12 0 -15t12 -5l59 -8l-9 -75h-303l9 75l63 7q11 1 13.5 4.5t4.5 15.5l74 521q2 11 -0.5 14.5t-12.5 5.5l-60 7l8 74h328q58 0 98 -14.5t64.5 -39t35.5 -56.5t11 -67q0 -85 -43.5 -135.5t-114.5 -79.5
q20 -11 29.5 -29.5t16.5 -50.5l33 -148q2 -11 8 -15t17 -6l61 -8l-10 -75h-206zM348 400q30 0 57 5.5t47.5 20t33 39t12.5 63.5q0 48 -28.5 67.5t-88.5 19.5h-49l-29 -215h45z" />
    <glyph glyph-name="S" unicode="S" horiz-adv-x="588" 
d="M468 510l-2 86q0 8 -2 13.5t-11 7.5q-11 3 -24 4t-34 1q-26 0 -49.5 -5.5t-41.5 -17t-29 -29t-11 -40.5q0 -21 10 -35.5t27 -25.5t39.5 -19.5t46.5 -17.5q31 -11 62 -25t56.5 -36t41.5 -55t16 -83q0 -64 -24 -110.5t-65 -76.5t-96.5 -44t-118.5 -14q-34 0 -68.5 4
t-64.5 10t-54 13t-37 14l27 195h109l7 -94q1 -10 4 -14.5t14 -7.5q15 -4 33.5 -6t43.5 -2q65 0 101 25.5t36 78.5q0 22 -9 37.5t-24 26.5t-35 19.5t-43 16.5q-32 11 -65.5 24t-60.5 34t-44.5 53.5t-17.5 83.5q0 60 23.5 105t63.5 74.5t93.5 44t114.5 14.5q65 0 115.5 -13.5
t82.5 -27.5l-27 -195z" />
    <glyph glyph-name="T" unicode="T" horiz-adv-x="680" 
d="M131 0l11 74l101 7q10 1 13 5t5 15l71 514h-102q-8 0 -11 -1.5t-5 -9.5l-28 -82l-107 -5l28 207h631l-28 -207l-104 5l-4 82q-1 8 -3.5 9.5t-10.5 1.5h-104l-71 -514q-2 -11 -0.5 -14.5t12.5 -4.5l108 -9l-10 -73h-392z" />
    <glyph glyph-name="U" unicode="U" horiz-adv-x="774" 
d="M602 623q2 11 -0.5 15t-12.5 5l-61 7l10 74h290l-10 -74l-68 -8q-11 -2 -13.5 -5t-3.5 -14l-51 -364q-20 -144 -97 -207.5t-208 -63.5q-130 0 -193 52t-63 161q0 14 1.5 29.5t3.5 32.5l49 360q2 11 -0.5 15t-11.5 5l-61 7l10 74h310l-10 -74l-67 -8q-11 -2 -13.5 -5
t-4.5 -14l-47 -335q-6 -39 -6 -70q0 -55 26 -81t89 -26q79 0 116 41t50 135z" />
    <glyph glyph-name="V" unicode="V" horiz-adv-x="714" 
d="M248 0l-112 623q-2 9 -7.5 12t-13.5 5l-43 11l11 73h306l-11 -73l-81 -9l79 -496h5l211 496l-75 9l11 73h268l-11 -73l-43 -11q-21 -6 -29 -25l-265 -615h-200z" />
    <glyph glyph-name="W" unicode="W" horiz-adv-x="1011" 
d="M585 0l-43 366h-3l-143 -366h-195l-62 615q-2 14 -5 18t-16 7l-47 11l11 73h299l-11 -73l-83 -10l47 -487h5l173 436h150l48 -446h6l168 497l-79 10l11 73h275l-11 -73l-48 -11q-10 -2 -16 -7t-11 -19l-221 -614h-199z" />
    <glyph glyph-name="X" unicode="X" horiz-adv-x="757" 
d="M398 0l11 73l78 9l-110 188l-157 -188l74 -9l-11 -73h-278l10 73l59 11q16 4 28 19l219 253l-159 267q-7 13 -21 17l-49 11l12 73h314l-11 -73l-77 -9l105 -185l158 185l-73 9l12 73h264l-10 -73l-50 -11q-9 -2 -15 -6.5t-13 -12.5l-217 -249l166 -271q5 -8 10.5 -12
t14.5 -6l47 -10l-10 -73h-321z" />
    <glyph glyph-name="Y" unicode="Y" horiz-adv-x="663" 
d="M132 0l9 74l100 7q10 1 12.5 5t4.5 15l24 169l-146 353q-3 8 -8 11t-14 6l-42 11l11 73h302l-11 -73l-78 -9l87 -240h6l152 240l-74 9l11 73h261l-11 -73l-42 -11q-10 -3 -16.5 -7t-11.5 -13l-224 -348l-24 -171q-2 -11 0 -14.5t13 -4.5l103 -8l-10 -74h-384z" />
    <glyph glyph-name="Z" unicode="Z" horiz-adv-x="658" 
d="M26 0l14 97l434 519h-215q-8 0 -11.5 -1.5t-5.5 -9.5l-29 -92l-109 -5l31 216h537l-13 -101l-431 -516h241q8 0 11.5 1.5t6.5 9.5l33 107h104l-30 -225h-568z" />
    <glyph glyph-name="bracketleft" unicode="[" horiz-adv-x="311" 
d="M28 -143l122 867h224l-8 -71l-66 -11q-10 -2 -13.5 -6t-5.5 -14l-93 -662q-2 -11 0.5 -15t12.5 -6l63 -11l-12 -71h-224z" />
    <glyph glyph-name="backslash" unicode="\" horiz-adv-x="437" 
d="M266 -92l-157 823h137l158 -823h-138z" />
    <glyph glyph-name="bracketright" unicode="]" horiz-adv-x="308" 
d="M-19 -143l9 71l65 11q11 2 14 6t5 14l93 662q2 11 -0.5 15t-12.5 6l-63 10l12 72h225l-122 -867h-225z" />
    <glyph glyph-name="asciicircum" unicode="^" horiz-adv-x="609" 
d="M459 299l-100 240l-163 -240h-143l248 365h153l148 -365h-143z" />
    <glyph glyph-name="underscore" unicode="_" 
d="M-25 -181l15 107h499l-14 -107h-500z" />
    <glyph glyph-name="grave" unicode="`" 
d="M394 561l-158 146l93 78l129 -174z" />
    <glyph glyph-name="a" unicode="a" horiz-adv-x="605" 
d="M370 0l12 81l-5 1q-45 -45 -86.5 -69.5t-95.5 -24.5q-74 0 -113 49t-39 151q0 57 13 117.5t42.5 110.5t78 82.5t118.5 32.5q43 0 77 -15.5t60 -41.5l19 47h128q-7 -32 -13.5 -65t-11.5 -66l-40 -290q-2 -11 0 -14t13 -5l47 -7l-11 -74h-193zM410 380q-16 14 -39.5 25.5
t-48.5 11.5q-37 0 -61 -23.5t-38 -57t-20 -71t-6 -65.5q0 -87 57 -87q14 0 31 7t34 18.5t34 25.5t31 28z" />
    <glyph glyph-name="b" unicode="b" horiz-adv-x="601" 
d="M45 0q10 34 19.5 71.5t14.5 74.5l70 495q1 16 -10 21l-51 17l11 76h209l-45 -313l2 -1q46 43 90.5 66.5t90.5 23.5q32 0 58.5 -10.5t45 -33.5t29 -59.5t10.5 -89.5q0 -51 -11 -112t-38 -114t-73 -88.5t-115 -35.5q-40 0 -77.5 15.5t-69.5 47.5l-3 -1l-12 -50h-145z
M225 144q19 -15 43 -27.5t53 -12.5q30 0 51 19t34 49t19 65.5t6 68.5q0 45 -11.5 71.5t-40.5 26.5q-15 0 -31.5 -7t-33 -18.5t-32.5 -24.5t-30 -25z" />
    <glyph glyph-name="c" unicode="c" horiz-adv-x="502" 
d="M452 37q-37 -21 -88 -35t-105 -14q-57 0 -98.5 16t-68 44.5t-39 69t-12.5 88.5q0 83 24 144t65 101.5t97 60t119 19.5q57 0 101.5 -13.5t65.5 -28.5l-22 -157l-102 5l-3 68q0 11 -7 14q-9 4 -22 5.5t-27 1.5q-25 0 -49 -11t-43 -35t-30.5 -63t-11.5 -95q0 -69 28 -95.5
t71 -26.5q38 0 72.5 10t59.5 20z" />
    <glyph glyph-name="d" unicode="d" horiz-adv-x="608" 
d="M370 0l12 80l-5 2q-45 -43 -86 -68.5t-95 -25.5q-73 0 -113 48t-40 150q0 54 12.5 114.5t42 112t77.5 85t119 33.5q44 0 76 -12t57 -31l20 154q1 8 -0.5 13t-9.5 7l-50 17l12 76h206l-91 -655q-2 -11 0 -14t13 -5l47 -7l-10 -74h-194zM411 383q-16 14 -39.5 24t-46.5 10
q-38 0 -63 -23.5t-39.5 -57.5t-20 -72.5t-5.5 -69.5q0 -81 57 -81q15 0 31.5 7t34 18.5t34 25.5t30.5 29z" />
    <glyph glyph-name="e" unicode="e" horiz-adv-x="506" 
d="M461 38q-49 -23 -101 -36.5t-106 -13.5q-59 0 -99.5 16.5t-66 45t-36.5 67.5t-11 84q0 79 23.5 140.5t64 103.5t94.5 64t115 22q83 0 123.5 -35t40.5 -97q0 -54 -26 -89.5t-69 -58.5t-98 -35t-114 -18q1 -19 6 -37t16.5 -31.5t30 -21.5t46.5 -8q27 0 63.5 8.5t81.5 27.5z
M201 295q16 2 44 7.5t55 16t46.5 26.5t19.5 40q0 38 -48 38q-42 0 -74 -34t-43 -94z" />
    <glyph glyph-name="f" unicode="f" horiz-adv-x="424" 
d="M40 -212l89 623q2 10 -7 10h-65l13 100h74l9 64q14 101 67 141.5t135 40.5q48 0 96 -15.5t76 -37.5l-55 -93q-6 4 -16.5 10t-24 12t-29 10t-31.5 4q-32 0 -48.5 -17t-21.5 -50l-8 -59q-1 -5 0 -7.5t7 -2.5h154l-14 -100h-162l-89 -633h-149z" />
    <glyph glyph-name="g" unicode="g" horiz-adv-x="589" 
d="M378 81l-3 2q-41 -36 -83 -62.5t-96 -26.5q-74 0 -113.5 46t-39.5 148q0 56 13 116.5t42 110.5t77.5 83t118.5 33q43 0 78 -15.5t60 -41.5l19 47h129q-8 -35 -14.5 -68t-11.5 -66l-56 -403q-7 -56 -28.5 -95.5t-53 -64t-73 -36t-89.5 -11.5q-38 0 -73 6t-63.5 14.5
t-49.5 18t-32 16.5l47 93q6 -5 21.5 -12t36.5 -14t46.5 -12t51.5 -5q59 0 89 26.5t38 86.5zM411 379q-16 15 -40 26.5t-49 11.5q-37 0 -61 -23.5t-38.5 -57.5t-20 -71.5t-5.5 -65.5q0 -45 14 -62.5t43 -17.5q15 0 32 6.5t34 17t33.5 24t30.5 26.5z" />
    <glyph glyph-name="h" unicode="h" horiz-adv-x="619" 
d="M369 0l-2 4l19 108l30 221q5 31 1.5 49.5t-26.5 18.5q-15 0 -33 -7.5t-36 -18.5t-34.5 -23.5t-27.5 -21.5l-32 -229q-2 -12 0.5 -15t13.5 -5l50 -7l-10 -74h-273l10 75l44 6q10 2 13 5.5t5 14.5l76 540q3 17 -9 21l-50 17l11 76h204l-44 -316l3 -2q23 19 43.5 36t42 30
t45 20.5t52.5 7.5q53 0 84.5 -31t31.5 -91q0 -12 -1 -25t-3 -27l-36 -256q-2 -12 0 -15t13 -5l49 -7l-10 -74h-214z" />
    <glyph glyph-name="i" unicode="i" horiz-adv-x="318" 
d="M210 601q-37 0 -57 20t-20 55q0 48 27 75.5t76 27.5q37 0 57.5 -19t20.5 -55q0 -48 -27.5 -76t-76.5 -28zM64 0l-2 5l24 135l37 267q3 17 -10 21l-49 17l10 76h213l-59 -420q-2 -12 0.5 -15t13.5 -5l48 -7l-10 -74h-216z" />
    <glyph glyph-name="j" unicode="j" horiz-adv-x="315" 
d="M124 407q1 16 -10 21l-51 17l10 76h213l-79 -574q-13 -92 -62 -131t-132 -39q-30 0 -56 6t-46.5 14t-34 16.5t-19.5 14.5l51 83q11 -7 34 -16.5t49 -9.5q30 0 46.5 17t24.5 70zM210 601q-38 0 -58 20t-20 55q0 48 27.5 75.5t75.5 27.5q38 0 58.5 -19t20.5 -55
q0 -48 -28 -76t-76 -28z" />
    <glyph glyph-name="k" unicode="k" horiz-adv-x="608" 
d="M395 0l-3 2l-33 110l-53 144l-63 -60l-14 -95q-2 -12 0 -15t13 -5l50 -7l-10 -74h-273l9 75l46 6q10 2 13 5.5t5 14.5l75 540q3 16 -10 21l-50 17l11 76h213l-59 -425l154 143q41 38 71 48t62 10q15 0 32 -2t26 -4l-11 -87q-29 2 -52 -6.5t-49 -33.5l-60 -56l87 -244
q5 -11 11 -13.5t17 -4.5l44 -7l-11 -73h-188z" />
    <glyph glyph-name="l" unicode="l" horiz-adv-x="318" 
d="M63 0l-3 5l24 135l71 501q3 17 -10 21l-50 17l11 76h213l-92 -654q-2 -12 0 -15t13 -5l48 -7l-9 -74h-216z" />
    <glyph glyph-name="m" unicode="m" horiz-adv-x="879" 
d="M626 0l-2 3l21 118l31 212q5 33 1 49.5t-24 16.5q-23 0 -50.5 -20.5t-59.5 -48.5l-32 -229q-2 -12 -0.5 -15t12.5 -5l50 -7l-10 -74h-216l-2 4l22 127l29 202q5 29 3 46.5t-24 17.5q-14 0 -30 -7t-31 -17.5t-29 -22t-24 -20.5l-31 -229q-2 -12 0 -15t13 -5l50 -7l-10 -74
h-274l10 75l44 6q10 2 13 5.5t5 14.5l42 305q3 17 -9 21l-49 18l11 76h198l-11 -82l3 -1q20 17 40 33.5t42.5 29.5t47.5 21.5t53 8.5q42 0 67.5 -23t28.5 -68l3 -1q18 16 38.5 32.5t43 29.5t46.5 21.5t51 8.5q55 0 79 -27t26 -81q0 -14 -1.5 -30.5t-3.5 -34.5l-36 -257
q-2 -12 0 -15t13 -5l49 -7l-10 -74h-217z" />
    <glyph glyph-name="n" unicode="n" horiz-adv-x="620" 
d="M368 0l-2 3l22 122l29 208q5 32 1 50.5t-27 18.5q-16 0 -33.5 -7t-35 -17.5t-33 -23.5t-28.5 -24l-31 -229q-2 -12 0 -15t13 -5l50 -7l-10 -74h-274l10 75l44 6q10 2 13 5.5t5 14.5l42 305q3 17 -9 21l-49 18l11 76h198l-11 -82l3 -1q21 18 42 35t43.5 29.5t48 20.5
t54.5 8q114 0 118 -119q0 -12 -1 -26.5t-3 -28.5l-36 -256q-2 -12 -0.5 -15t12.5 -5l50 -7l-10 -74h-216z" />
    <glyph glyph-name="o" unicode="o" horiz-adv-x="578" 
d="M269 -12q-59 0 -102 15.5t-71 43.5t-41.5 68t-13.5 88q0 72 20 132.5t58.5 104t95 67.5t129.5 24q63 0 105.5 -17t68.5 -45.5t37.5 -67t11.5 -82.5q0 -73 -18.5 -134t-56 -104.5t-93 -68t-130.5 -24.5zM281 93q26 0 49.5 12t41 38.5t28 69t10.5 104.5q0 57 -21.5 81.5
t-61.5 24.5q-25 0 -49 -11t-42.5 -36.5t-29.5 -68t-11 -104.5q0 -58 22.5 -84t63.5 -26z" />
    <glyph glyph-name="p" unicode="p" horiz-adv-x="604" 
d="M29 -212l-2 4l29 167l62 447q3 17 -9 21l-49 18l11 76h200l-12 -80l3 -1q45 42 90.5 66.5t93.5 24.5q32 0 59 -11t46.5 -35t30 -62t10.5 -92q0 -52 -11.5 -112t-39 -111.5t-73.5 -85.5t-116 -34q-49 0 -79.5 15.5t-58.5 35.5l-22 -150q-1 -8 1.5 -11.5t12.5 -4.5l101 -10
l-11 -75h-267zM229 143q19 -16 43 -27.5t52 -11.5q30 0 51.5 19t34.5 49t19 65.5t6 68.5q0 45 -11.5 71.5t-40.5 26.5q-15 0 -31.5 -7t-33.5 -18.5t-32.5 -24.5t-29.5 -25z" />
    <glyph glyph-name="q" unicode="q" horiz-adv-x="590" 
d="M237 -212l11 76l85 8q11 1 15.5 4.5t6.5 13.5l27 191l-4 2q-19 -17 -40 -34t-44.5 -30.5t-49.5 -22t-56 -8.5q-75 0 -109.5 51.5t-34.5 148.5q0 56 13 116.5t42 111t76 83t114 32.5q40 0 75.5 -13.5t68.5 -43.5l19 47h128q-8 -35 -14 -68t-11 -66l-69 -497
q-2 -11 0 -14.5t13 -5.5l47 -6l-10 -76h-299zM411 379q-16 15 -39.5 26.5t-48.5 11.5q-37 0 -61 -23.5t-38.5 -57.5t-20 -71.5t-5.5 -65.5q0 -86 57 -86q15 0 31.5 7t34 18.5t34 25.5t30.5 29z" />
    <glyph glyph-name="r" unicode="r" horiz-adv-x="470" 
d="M9 0l10 75l46 6q11 2 13.5 5.5t4.5 14.5l42 305q2 17 -10 21l-50 18l11 76h198l-13 -90l3 -2q29 42 70 72t89 30q17 0 40.5 -2.5t36.5 -6.5l-25 -182l-117 4l-3 52q-1 12 -11 12q-14 0 -35.5 -15t-42.5 -37l-35 -254q-2 -12 0.5 -15.5t13.5 -4.5l95 -8l-11 -74h-320z" />
    <glyph glyph-name="s" unicode="s" horiz-adv-x="478" 
d="M353 363l-2 52q0 6 -2 10t-10 6q-20 5 -56 5q-32 0 -53.5 -11t-21.5 -37q0 -24 23 -36t56 -23q27 -9 55.5 -20t52.5 -28.5t39.5 -43.5t15.5 -66q0 -49 -19 -83.5t-51.5 -56.5t-75.5 -32.5t-91 -10.5q-35 0 -67 4t-57.5 9t-43 11.5t-23.5 10.5l19 145l102 -6l3 -58
q0 -12 11 -16t28.5 -6.5t42.5 -2.5q42 0 64 14.5t22 40.5q0 30 -25.5 41.5t-68.5 24.5q-27 8 -54 18.5t-48 28t-34.5 43.5t-13.5 65q0 46 18.5 79.5t50 55t73.5 31.5t88 10q29 0 57 -3t51 -7.5t41 -9.5t28 -9l-20 -145z" />
    <glyph glyph-name="t" unicode="t" horiz-adv-x="422" 
d="M392 27q-33 -16 -79 -27.5t-88 -11.5q-75 0 -108.5 27.5t-33.5 89.5q0 20 3 44l36 262q1 5 0 7.5t-6 2.5h-69l13 92q64 7 99.5 43t54.5 117h93l-20 -142q-1 -5 0 -7.5t7 -2.5h138l-14 -100h-146l-33 -239q-3 -19 -3 -32q0 -26 13 -38t45 -12q21 0 41.5 4.5t38.5 11.5z
" />
    <glyph glyph-name="u" unicode="u" horiz-adv-x="623" 
d="M380 0l10 80l-3 1q-16 -13 -35 -29.5t-42 -30.5t-50 -23.5t-59 -9.5q-65 0 -92 32t-27 93q0 13 1 27.5t3 29.5l33 242q2 12 0 15.5t-13 5.5l-39 7l12 81h195l7 -7l-44 -318q-2 -13 -3 -24t-1 -19q0 -19 7 -27.5t25 -8.5q17 0 34.5 7.5t34.5 19t32 23.5t25 21l31 226
q2 12 0 15t-13 5l-32 5l13 82h189l7 -8l-59 -411q-2 -10 -0.5 -14.5t11.5 -6.5l50 -7l-10 -74h-198z" />
    <glyph glyph-name="v" unicode="v" horiz-adv-x="592" 
d="M190 0l-90 421q-2 9 -5.5 12t-12.5 5l-40 9l10 74h191l9 -9l17 -114l44 -252h3l144 293l-65 9l11 73h196l12 -31l-251 -490h-173z" />
    <glyph glyph-name="w" unicode="w" horiz-adv-x="856" 
d="M503 0l-41 335h-3l-118 -335h-179l-63 421q-2 9 -5.5 12t-11.5 5l-41 9l13 74h185l8 -9l7 -91l31 -270h3l132 361h157l44 -365h3l123 294l-55 6l12 74h166l11 -29l-212 -492h-166z" />
    <glyph glyph-name="x" unicode="x" horiz-adv-x="590" 
d="M390 0l-11 9l-45 83l-54 92l-91 -102l53 -9l-8 -73h-234l8 72l44 8q9 2 14.5 5.5t13.5 11.5l147 161l-101 162q-5 8 -8.5 11.5t-11.5 5.5l-39 9l12 75h159l10 -8l47 -90l44 -74l87 91l-49 7l13 74h227l-10 -74l-44 -10q-9 -2 -14.5 -6t-13.5 -13l-143 -144l109 -175
q5 -8 9.5 -12t12.5 -6l51 -8l-12 -73h-172z" />
    <glyph glyph-name="y" unicode="y" horiz-adv-x="568" 
d="M209 3l-112 418q-3 9 -6.5 12t-11.5 5l-39 9l12 74h176l10 -11l27 -129l45 -209h5l127 266l-61 9l11 74h185l14 -31l-290 -571q-19 -36 -38.5 -62.5t-44 -44t-55 -26.5t-70.5 -9q-27 0 -51 5.5t-43.5 13t-33 16.5t-20.5 15l51 85q15 -9 40.5 -19t50.5 -10q32 0 54 19.5
t40 50.5z" />
    <glyph glyph-name="z" unicode="z" horiz-adv-x="514" 
d="M21 0l12 84l304 343h-137q-7 0 -10 -3t-5 -9l-19 -57l-101 -4l23 167h434l-12 -86l-299 -342h144q11 0 15 13l22 69l103 4l-25 -179h-449z" />
    <glyph glyph-name="braceleft" unicode="{" horiz-adv-x="330" 
d="M260 -149q-54 1 -92 7.5t-61.5 20.5t-34 36.5t-10.5 55.5q0 27 6.5 55t15 56t15 54t6.5 50q0 36 -14.5 48.5t-46.5 14.5l12 79q32 2 51 14t27 45q4 15 6 39t3 50t1 52t-1 45q-2 45 10.5 74.5t41 47.5t72.5 25t104 7l6 -80q-26 -3 -41.5 -7.5t-24 -14t-11.5 -25t-4 -41.5
q-2 -40 -0.5 -75.5t0.5 -52.5q-1 -34 -7.5 -57t-17.5 -39t-26 -27t-33 -20q20 -11 35 -31.5t15 -56.5q0 -27 -6.5 -55.5t-15 -56t-15 -53.5t-6.5 -49q0 -26 13.5 -36.5t48.5 -18.5z" />
    <glyph glyph-name="bar" unicode="|" horiz-adv-x="285" 
d="M35 -143l122 867h137l-122 -867h-137z" />
    <glyph glyph-name="braceright" unicode="}" horiz-adv-x="340" 
d="M122 727q54 -1 92 -7.5t61.5 -20.5t34 -36.5t10.5 -55.5q0 -27 -6.5 -55t-15 -56t-15 -54t-6.5 -50q0 -36 14.5 -48.5t46.5 -14.5l-12 -79q-32 -2 -51 -14t-27 -45q-4 -15 -6 -39t-3 -50t-1 -52t1 -45q2 -45 -10.5 -74.5t-41 -47.5t-72.5 -25t-104 -7l-6 80
q26 3 41.5 7.5t24 14t11.5 25t4 41.5q2 40 0.5 75.5t-0.5 52.5q2 34 8 57t17 39t26 27t33 20q-20 11 -35 31.5t-15 56.5q0 27 6.5 55.5t15 56t15 53.5t6.5 49q0 26 -13.5 36.5t-48.5 18.5z" />
    <glyph glyph-name="asciitilde" unicode="~" horiz-adv-x="524" 
d="M547 431q-23 -72 -54 -106.5t-80 -34.5q-27 0 -55.5 7t-56.5 16t-54 16t-48 7q-24 0 -41 -9.5t-37 -38.5l-68 36q11 28 26 52t34 42t41 28.5t46 10.5q29 0 56 -7t53.5 -16t51.5 -16t49 -7t36.5 10.5t26.5 38.5z" />
    <glyph glyph-name="uni00A0" unicode="&#xa0;" horiz-adv-x="202" 
 />
    <glyph glyph-name="sterling" unicode="&#xa3;" horiz-adv-x="552" 
d="M34 0l-4 90q24 13 40.5 26.5t27.5 32t18 44t12 63.5l3 23h-72l14 110h69l8 53q7 44 21 83t41.5 68t71 45.5t107.5 16.5q61 0 108 -18t78 -47l-73 -86q-24 20 -53 30.5t-57 10.5q-52 0 -71.5 -28.5t-25.5 -74.5l-8 -53h143l-15 -110h-140q-7 -60 -26 -103t-61 -79h199
q7 0 9.5 3.5t4.5 8.5l25 79h104l-25 -188h-473z" />
    <glyph glyph-name="currency" unicode="&#xa4;" horiz-adv-x="570" 
d="M494 -3l-87 86q-25 -14 -54 -22t-63 -8q-73 0 -122 29l-38 -38l-47 -47l-80 80l88 89q-14 26 -19 53.5t-5 59.5q0 59 26 105q-9 9 -20.5 21t-23.5 24.5t-23.5 24t-19.5 18.5l82 83l82 -83q26 17 56.5 25.5t69.5 8.5q38 0 67.5 -8t55.5 -24l80 80l79 -81l-84 -84
q10 -23 17 -51t7 -55q0 -30 -7.5 -60.5t-21.5 -56.5l88 -88zM294 161q49 0 74.5 34.5t25.5 83.5q0 55 -25.5 85.5t-76.5 30.5t-75.5 -32.5t-24.5 -83.5q0 -49 24 -83.5t78 -34.5z" />
    <glyph glyph-name="brokenbar" unicode="&#xa6;" horiz-adv-x="285" 
d="M35 -143l55 388h137l-55 -388h-137zM110 389l47 335h137l-47 -335h-137z" />
    <glyph glyph-name="section" unicode="&#xa7;" horiz-adv-x="569" 
d="M151 -32q0 -8 2.5 -12.5t13.5 -7.5q10 -3 26.5 -5t41.5 -2q45 0 67 15.5t22 44.5q0 17 -9.5 28t-25.5 18.5t-36.5 12.5t-42.5 11q-25 7 -50.5 16t-45.5 24t-32.5 38t-12.5 58q0 54 28 91t65 63q-19 15 -31 41.5t-12 57.5q0 46 19 78.5t51.5 53.5t75 31t89.5 10
q67 0 117.5 -11t70.5 -19l-21 -145l-103 6l-2 54q0 14 -14 18q-22 6 -59 6q-41 0 -63 -16.5t-22 -41.5q0 -14 8.5 -24t23 -17t33.5 -12t40 -11q26 -7 53 -16.5t48.5 -25.5t35 -40.5t13.5 -62.5q0 -51 -25.5 -87t-62.5 -61q17 -18 28.5 -38.5t11.5 -52.5q0 -50 -21 -84
t-56 -55t-79 -30t-91 -9q-34 0 -66 4t-58 10t-44 12t-24 11l19 136l104 -6zM337 171q17 11 31 29.5t14 40.5q0 23 -20 36t-47 21l-73 20q-20 -13 -33.5 -30.5t-13.5 -37.5q0 -23 17.5 -34.5t46.5 -20.5z" />
    <glyph glyph-name="dieresis" unicode="&#xa8;" 
d="M311 674q0 -35 -23 -56.5t-58 -21.5q-29 0 -46 17t-17 45q0 35 23.5 56t58.5 21q30 0 46 -16.5t16 -44.5zM519 674q0 -35 -23 -56.5t-58 -21.5q-29 0 -46 17t-17 45q0 35 23.5 56t58.5 21q30 0 46 -16.5t16 -44.5z" />
    <glyph glyph-name="copyright" unicode="&#xa9;" horiz-adv-x="770" 
d="M740 319q0 -75 -24.5 -137t-69 -106t-106 -68t-136.5 -24q-83 0 -145.5 24.5t-104.5 67.5t-63.5 102t-21.5 127q0 79 26.5 141t72 105t107 65.5t131.5 22.5q78 0 139.5 -22.5t105 -64.5t66.5 -101t23 -132zM406 56q59 0 106.5 18t80.5 51t50.5 80.5t17.5 107.5
q0 62 -19 109.5t-53 79.5t-80.5 48.5t-102.5 16.5q-55 0 -101.5 -17.5t-81 -51t-54 -82t-19.5 -110.5q0 -118 67.5 -184t188.5 -66zM530 144q-20 -12 -52 -18t-62 -6q-51 0 -86.5 14.5t-58 40.5t-33 62t-10.5 78q0 43 12 78.5t36 61t59.5 40t83.5 14.5q31 0 62.5 -6.5
t49.5 -13.5v-111h-54l-9 49q-1 9 -8 11q-8 3 -19.5 5t-26.5 2q-43 0 -69.5 -29t-26.5 -103q0 -27 5 -50.5t17 -41.5t31.5 -28t48.5 -10q24 0 37 4q6 2 7.5 4.5t3.5 8.5l13 50h49v-106z" />
    <glyph glyph-name="guillemotleft" unicode="&#xab;" horiz-adv-x="466" 
d="M301 103l-64 154l110 151h123l-100 -140q-5 -6 -5.5 -9.5t1.5 -9.5l56 -146h-121zM113 103l-64 154l110 151h123l-100 -140q-5 -6 -5.5 -9.5t1.5 -9.5l56 -146h-121z" />
    <glyph glyph-name="logicalnot" unicode="&#xac;" horiz-adv-x="570" 
d="M371 172l14 94h-276l16 117h387l-30 -211h-111z" />
    <glyph glyph-name="uni00AD" unicode="&#xad;" horiz-adv-x="311" 
d="M35 227l18 127h271l-18 -127h-271z" />
    <glyph glyph-name="registered" unicode="&#xae;" horiz-adv-x="453" 
d="M459 480q0 -41 -13.5 -75.5t-38.5 -59t-59 -38t-76 -13.5q-45 0 -80 14t-58 38t-35 56.5t-12 70.5q0 43 14.5 77.5t40 59t59 37.5t72.5 13q87 0 136.5 -49.5t49.5 -130.5zM411 477q0 68 -39 103t-99 35q-28 0 -53 -9.5t-44 -27.5t-29.5 -44.5t-10.5 -59.5q0 -63 37 -99
t100 -36q64 0 101 37t37 101zM309 384l-23 57q-4 9 -7 13t-12 4h-11v-40q0 -6 5 -7l20 -2v-25h-90v25l14 3q5 1 5 7v122q0 5 -5 6l-14 2v26h88q41 0 55.5 -16.5t14.5 -37.5q0 -20 -10 -33t-25 -18q10 -3 17 -19l15 -33q2 -5 8 -6l15 -3v-25h-60zM269 491q14 0 23.5 5t9.5 22
q0 14 -8.5 18.5t-20.5 4.5h-17v-50h13z" />
    <glyph glyph-name="macron" unicode="&#xaf;" 
d="M178 599l14 100h317l-14 -100h-317z" />
    <glyph glyph-name="degree" unicode="&#xb0;" horiz-adv-x="286" 
d="M194 617q23 0 39 17t16 41q0 19 -11 30.5t-30 11.5q-21 0 -37.5 -16t-16.5 -42q0 -18 10 -30t30 -12zM317 684q0 -29 -10 -53t-28 -41.5t-42 -27t-52 -9.5q-46 0 -73.5 27.5t-27.5 71.5q0 31 10.5 55t29 40.5t42.5 25t51 8.5q45 0 72.5 -26t27.5 -71z" />
    <glyph glyph-name="plusminus" unicode="&#xb1;" horiz-adv-x="570" 
d="M76 0l16 116h387l-16 -116h-387zM366 265l-18 -129h-120l18 129h-133l16 116h133l20 140h120l-20 -140h134l-16 -116h-134z" />
    <glyph glyph-name="mu" unicode="&#xb5;" horiz-adv-x="645" 
d="M402 0l9 60l-4 2q-31 -24 -68.5 -45t-80.5 -21q-22 0 -40 6l-14 -178h-156l98 697h151l-47 -331q-3 -18 -3.5 -33.5t4 -26t15 -16.5t31.5 -6q29 0 55 12t49 32l52 369h151l-59 -420q-2 -9 0 -13t11 -5l49 -7l-10 -76h-193z" />
    <glyph glyph-name="paragraph" unicode="&#xb6;" horiz-adv-x="657" 
d="M486 553h-64l-71 -497h-40q-111 0 -173.5 66.5t-62.5 184.5q0 78 24 140.5t69 106.5t110.5 67.5t148.5 23.5h273l-11 -76l-68 -8q-11 -2 -14 -5t-5 -14l-73 -518q-15 -108 -76.5 -155t-152.5 -47q-40 0 -74 6t-60.5 15t-45.5 18.5t-30 16.5l46 88q6 -4 21 -11.5
t35.5 -14.5t45.5 -12t51 -5q54 0 84 27.5t39 87.5z" />
    <glyph glyph-name="periodcentered" unicode="&#xb7;" horiz-adv-x="238" 
d="M243 334q0 -42 -24.5 -65t-72.5 -23q-76 0 -76 67q0 43 24.5 66t73.5 23q39 0 57 -17t18 -51z" />
    <glyph glyph-name="cedilla" unicode="&#xb8;" 
d="M134 -179q5 -2 14 -3t21 -1q23 0 44 10t21 38q0 23 -17 31t-44 9l34 125l70 -8l-18 -67q12 -3 24 -9.5t22.5 -17t17 -25t6.5 -35.5q0 -31 -12.5 -54t-33.5 -38.5t-47.5 -23.5t-55.5 -8q-28 0 -44 3.5t-18 4.5z" />
    <glyph glyph-name="guillemotright" unicode="&#xbb;" horiz-adv-x="466" 
d="M221 103l98 146q4 6 4.5 9.5t-2.5 9.5l-60 140h122l67 -152l-107 -153h-122zM33 103l98 146q4 6 4.5 9.5t-2.5 9.5l-60 140h122l67 -152l-107 -153h-122z" />
    <glyph glyph-name="multiply" unicode="&#xd7;" horiz-adv-x="570" 
d="M385 319l85 -97l-96 -81l-83 96l-111 -97l-68 83l109 95l-83 96l96 81l81 -95l110 96l68 -83z" />
    <glyph glyph-name="divide" unicode="&#xf7;" horiz-adv-x="570" 
d="M365 166q0 -38 -22 -60.5t-67 -22.5q-35 0 -52.5 15.5t-17.5 44.5q0 37 22.5 61.5t67.5 24.5q35 0 52 -17.5t17 -45.5zM109 263l17 116h387l-17 -116h-387zM411 497q0 -38 -22 -60.5t-67 -22.5q-70 0 -70 60q0 37 22.5 61t67.5 24q35 0 52 -17t17 -45z" />
    <glyph glyph-name="florin" unicode="&#x192;" horiz-adv-x="576" 
d="M328 287l-61 -201q-18 -59 -39.5 -97t-49 -60t-61 -30.5t-75.5 -8.5q-24 0 -48.5 4t-46 11t-39 16t-28.5 19l52 92q20 -15 46.5 -26.5t55.5 -11.5q15 0 27.5 3t22.5 12.5t19 26.5t18 45l61 196q3 10 -6 10h-88l29 95h98l30 98q15 50 35.5 83.5t48 53.5t63 29t81.5 9
q49 0 90.5 -11.5t73.5 -31.5l-44 -146l-91 9l8 62q0 5 -1.5 8t-7.5 5q-7 3 -15 4.5t-21 1.5q-32 0 -49 -19.5t-29 -57.5l-27 -87q-3 -10 6 -10h123l-28 -95h-133z" />
    <glyph glyph-name="circumflex" unicode="&#x2c6;" 
d="M446 562l-101 93l-129 -93l-54 52l140 129h104l105 -129z" />
    <glyph glyph-name="caron" unicode="&#x2c7;" 
d="M383 582h-104l-104 129l64 52l102 -93l128 93l55 -52z" />
    <glyph glyph-name="uni02C9" unicode="&#x2c9;" 
d="M176 599l14 100h317l-14 -100h-317z" />
    <glyph glyph-name="breve" unicode="&#x2d8;" 
d="M521 709q-25 -64 -69.5 -100.5t-119.5 -36.5t-111.5 36t-43.5 101l78 28q8 -39 29.5 -57t56.5 -18t60 18t46 57z" />
    <glyph glyph-name="dotaccent" unicode="&#x2d9;" 
d="M334 603q-37 0 -57 20t-20 55q0 48 27 75.5t76 27.5q37 0 57.5 -19t20.5 -55q0 -48 -27.5 -76t-76.5 -28z" />
    <glyph glyph-name="ring" unicode="&#x2da;" 
d="M363 770q37 0 65.5 -20.5t28.5 -63.5q0 -50 -32 -82t-87 -32q-42 0 -69.5 22t-27.5 65q0 51 33.5 81t88.5 30zM345 631q26 0 35.5 15t9.5 35q0 17 -10.5 23.5t-24.5 6.5q-46 0 -46 -50q0 -15 10 -22.5t26 -7.5z" />
    <glyph glyph-name="ogonek" unicode="&#x2db;" 
d="M347 -207q-32 -14 -64 -20.5t-58 -6.5q-49 0 -72 20t-23 54q0 30 13.5 56.5t35.5 49t48.5 41.5t51.5 35l69 -19l-27.5 -22.5t-32 -30t-26.5 -34.5t-11 -35q0 -24 25 -24q10 0 24.5 2.5t29.5 7.5z" />
    <glyph glyph-name="tilde" unicode="&#x2dc;" 
d="M499 643q-20 -29 -36.5 -44.5t-39.5 -15.5q-14 0 -33 4t-43 12q-23 6 -48.5 13.5t-36.5 9.5q-7 1 -17 -7l-35 -32l-54 37l37 51q35 50 73 50q22 0 62 -12q12 -4 26 -8t27.5 -8t24 -6.5t16.5 -3.5q7 0 14 6l32 32l60 -37z" />
    <glyph glyph-name="hungarumlaut" unicode="&#x2dd;" 
d="M192 560l-55 51l153 174l81 -75zM386 560l-56 51l155 173l79 -74z" />
    <glyph glyph-name="uni0394" unicode="&#x394;" horiz-adv-x="715" 
d="M-4 0l360 724h177l160 -724h-697zM414 571h-6l-213 -451h297z" />
    <glyph glyph-name="uni03A9" unicode="&#x3a9;" horiz-adv-x="829" 
d="M434 0l27 190q28 11 59.5 31t58.5 51.5t44.5 76t17.5 104.5q0 85 -43.5 123t-114.5 38q-46 0 -85.5 -15.5t-69 -45.5t-46 -75.5t-16.5 -105.5q0 -66 28 -112t76 -69l-27 -191h-322l25 174h103l6 -57q1 -8 3.5 -9.5t10.5 -1.5h85l5 38q-69 28 -109.5 88.5t-40.5 141.5
q0 78 28 144.5t79 115t123.5 76t161.5 27.5q153 0 225.5 -70.5t72.5 -192.5q0 -66 -20 -119t-53 -94.5t-77 -70.5t-92 -46l-5 -38h81q8 0 11.5 1.5t6.5 9.5l21 57h104l-25 -174h-317z" />
    <glyph glyph-name="uni03BC" unicode="&#x3bc;" horiz-adv-x="629" 
d="M402 0l9 60l-4 2q-31 -24 -68.5 -45t-80.5 -21q-22 0 -40 6l-14 -178h-156l98 697h151l-47 -331q-3 -18 -3.5 -33.5t4 -26t15 -16.5t31.5 -6q29 0 55 12t49 32l52 369h151l-59 -420q-2 -9 0 -13t11 -5l49 -7l-10 -76h-193z" />
    <glyph glyph-name="pi" unicode="&#x3c0;" horiz-adv-x="691" 
d="M400 0l60 425h-152l-59 -425h-213l10 75l47 7q11 1 13.5 3.5t4.5 13.5l45 317q2 11 0 14.5t-13 5.5l-48 7l11 78h585l-11 -78l-51 -7q-11 -2 -14 -5.5t-5 -14.5l-45 -314q-2 -12 0.5 -15t13.5 -5l44 -7l-10 -75h-213z" />
    <glyph glyph-name="afii10023" unicode="&#x401;" horiz-adv-x="620" 
d="M374 859q0 -35 -23 -56.5t-58 -21.5q-29 0 -46 17t-17 45q0 35 23.5 56t58.5 21q30 0 46 -16.5t16 -44.5zM582 859q0 -35 -23 -56.5t-58 -21.5q-29 0 -46 17t-17 45q0 35 23.5 56t58.5 21q30 0 46 -16.5t16 -44.5zM18 0l10 73l63 7q11 2 14 5.5t5 14.5l73 523
q2 11 -0.5 15t-12.5 5l-62 7l10 74h521l-28 -202l-105 5l-3 76q-1 13 -16 13h-155l-27 -197h230l-16 -111h-230l-27 -201h177q8 0 11.5 1.5t5.5 9.5l28 88h105l-28 -206h-543z" />
    <glyph glyph-name="afii10051" unicode="&#x402;" horiz-adv-x="834" 
d="M802 224q0 -48 -15 -91t-43.5 -75t-71 -51t-97.5 -19q-36 0 -68.5 6t-50.5 14l18 119q39 -12 72 -12q46 0 74.5 24t28.5 74q0 56 -31 76.5t-81 20.5q-25 0 -50 -3.5t-51 -8.5l-41 -298h-232l11 76l64 7q11 1 13.5 4.5t4.5 15.5l74 512h-96q-8 0 -11.5 -1.5t-6.5 -9.5
l-27 -83l-110 -4l29 207h676l-29 -207l-108 5l-4 81q0 8 -3.5 10t-11.5 2h-147l-29 -204q25 5 57 10.5t76 5.5q105 0 161 -53t56 -150z" />
    <glyph glyph-name="afii10052" unicode="&#x403;" horiz-adv-x="600" 
d="M340 767l-32 71l212 117l45 -103zM16 0l11 75l65 8q11 1 13.5 5t4.5 15l73 517q2 11 -0.5 15t-13.5 5l-62 7l10 77h538l-29 -212l-108 7l-4 85q0 8 -3.5 9.5t-11.5 1.5h-165l-71 -512q-2 -11 0 -14.5t13 -4.5l141 -9l-11 -75h-390z" />
    <glyph glyph-name="afii10053" unicode="&#x404;" horiz-adv-x="670" 
d="M610 43q-23 -13 -52.5 -23.5t-62 -17.5t-65.5 -10.5t-63 -3.5q-82 0 -140.5 22.5t-95.5 63.5t-54.5 98.5t-17.5 127.5q0 96 26.5 176t79 138t131 90.5t181.5 32.5q30 0 61.5 -4t60.5 -11t54 -17.5t43 -24.5l-26 -196l-106 11l-4 95q0 9 -2.5 13.5t-11.5 7.5
q-13 5 -36.5 7.5t-46.5 2.5q-88 0 -150.5 -52t-84.5 -153h251l-17 -112h-244q0 -37 8.5 -73.5t28 -65t51.5 -46t78 -17.5q24 0 49 1.5t44 6.5q12 3 15.5 7.5t6.5 13.5l32 98h105z" />
    <glyph glyph-name="afii10054" unicode="&#x405;" horiz-adv-x="584" 
d="M468 510l-2 86q0 8 -2 13.5t-11 7.5q-11 3 -24 4t-34 1q-26 0 -49.5 -5.5t-41.5 -17t-29 -29t-11 -40.5q0 -21 10 -35.5t27 -25.5t39.5 -19.5t46.5 -17.5q31 -11 62 -25t56.5 -36t41.5 -55t16 -83q0 -64 -24 -110.5t-65 -76.5t-96.5 -44t-118.5 -14q-34 0 -68.5 4
t-64.5 10t-54 13t-37 14l27 195h109l7 -94q1 -10 4 -14.5t14 -7.5q15 -4 33.5 -6t43.5 -2q65 0 101 25.5t36 78.5q0 22 -9 37.5t-24 26.5t-35 19.5t-43 16.5q-32 11 -65.5 24t-60.5 34t-44.5 53.5t-17.5 83.5q0 60 23.5 105t63.5 74.5t93.5 44t114.5 14.5q65 0 115.5 -13.5
t82.5 -27.5l-27 -195z" />
    <glyph glyph-name="afii10055" unicode="&#x406;" horiz-adv-x="382" 
d="M11 0l8 73l73 7q11 1 13.5 5t4.5 15l74 522q2 11 -0.5 15t-13.5 5l-70 7l10 75h330l-11 -75l-76 -8q-11 -2 -13.5 -5t-4.5 -14l-73 -521q-2 -12 -0.5 -15t12.5 -5l75 -8l-9 -73h-329z" />
    <glyph glyph-name="afii10056" unicode="&#x407;" horiz-adv-x="382" 
d="M256 861q0 -35 -23 -57.5t-59 -22.5q-29 0 -46 16t-17 43q0 36 23.5 58t59.5 22q29 0 45.5 -16t16.5 -43zM464 861q0 -35 -23 -57.5t-59 -22.5q-29 0 -46 16t-17 43q0 36 23.5 58t59.5 22q29 0 45.5 -16t16.5 -43zM11 0l8 73l73 7q11 1 13.5 5t4.5 15l74 522
q2 11 -0.5 15t-13.5 5l-70 7l10 75h330l-11 -75l-76 -8q-11 -2 -13.5 -5t-4.5 -14l-73 -521q-2 -12 -0.5 -15t12.5 -5l75 -8l-9 -73h-329z" />
    <glyph glyph-name="afii10057" unicode="&#x408;" 
d="M318 623q2 11 -1 14.5t-13 4.5l-87 7l10 75h337l-11 -75l-67 -8q-11 -2 -13 -4.5t-4 -13.5l-65 -460q-12 -89 -60 -132t-148 -43q-30 0 -58 3.5t-52 9t-42 12.5t-27 14l25 178l106 -8l1 -71q0 -12 7 -14q6 -2 16.5 -4t25.5 -2q27 0 39 13t17 45z" />
    <glyph glyph-name="afii10058" unicode="&#x409;" horiz-adv-x="1050" 
d="M209 724h649l-11 -76l-96 -9q-11 -1 -14.5 -4.5t-5.5 -14.5l-27 -193h105q118 0 169.5 -49t51.5 -130q0 -64 -21.5 -110.5t-60.5 -77t-93.5 -45.5t-119.5 -15h-322l11 76l65 7q11 1 13.5 5t4.5 15l72 515h-164q-12 -97 -29.5 -197t-40.5 -178q-15 -51 -37.5 -97.5
t-58.5 -82.5t-89 -58.5t-130 -23.5l-10 136q43 4 73.5 15t52.5 31t37.5 50.5t28.5 74.5q17 54 34 140.5t31 188.5q2 14 -1.5 17.5t-14.5 5.5l-62 7zM725 108q29 0 55 6t46 21t31.5 39.5t11.5 60.5q0 51 -28.5 70.5t-77.5 19.5h-73l-30 -217h65z" />
    <glyph glyph-name="afii10059" unicode="&#x40a;" horiz-adv-x="1064" 
d="M717 421h105q118 0 170 -47.5t52 -128.5q0 -64 -21.5 -110t-60.5 -76t-93.5 -44.5t-119.5 -14.5h-315l11 76l65 7q11 1 13.5 5t4.5 15l28 207h-265l-30 -209q-2 -12 0 -15t13 -5l65 -8l-11 -73h-310l10 73l63 7q11 2 14 5.5t5 14.5l72 522q2 11 0 15t-13 5l-60 7l10 75
h310l-10 -75l-67 -8q-11 -2 -13.5 -5t-4.5 -14l-28 -200h265l28 200q2 11 -0.5 15t-12.5 5l-61 7l10 75h326l-10 -76l-86 -8q-11 -1 -14.5 -4.5t-5.5 -14.5zM739 108q29 0 55 5.5t46 20t31.5 38.5t11.5 60q0 51 -29 68.5t-78 17.5h-72l-30 -210h65z" />
    <glyph glyph-name="afii10060" unicode="&#x40b;" horiz-adv-x="858" 
d="M453 416q28 7 66.5 12.5t80.5 5.5q56 0 92 -13.5t56 -38.5t25.5 -61.5t-0.5 -81.5l-18 -137q-2 -11 0 -14.5t13 -5.5l65 -7l-11 -75h-231v0l-2 3l30 215q3 25 3 43.5t-8 31t-24.5 18.5t-46.5 6q-23 0 -51.5 -4.5t-54.5 -10.5l-28 -198q-2 -11 0 -15t13 -6l63 -8l-11 -75
h-313l11 75l66 8q11 2 14 5t5 15l72 512h-96q-8 0 -11.5 -1.5t-5.5 -9.5l-28 -83l-109 -4l29 207h675l-29 -211l-107 6l-5 80q-1 10 -4.5 13t-14.5 3h-142z" />
    <glyph glyph-name="afii10061" unicode="&#x40c;" horiz-adv-x="760" 
d="M419 767l-32 71l212 117l45 -103zM263 105q-2 -12 1 -16t14 -6l64 -8l-11 -75h-313l11 75l62 7q11 2 14 5.5t5 14.5l73 520q2 11 0 14.5t-13 5.5l-62 7l10 75h314l-10 -75l-70 -8q-11 -2 -13 -6t-4 -12l-28 -200h61q18 0 32 3.5t25.5 12.5t22 24t22.5 39l59 119
q14 28 28.5 49.5t33 36.5t43.5 22.5t60 7.5q19 0 41 -2.5t39 -7.5l-20 -105q-8 1 -15 1.5t-13 0.5q-28 -1 -42.5 -15t-34.5 -54l-44 -91q-21 -45 -49 -63t-57 -25v-2q28 -12 43.5 -34.5t34.5 -70.5l61 -159q5 -12 8.5 -15.5t14.5 -5.5l69 -11l-11 -78h-216q-19 72 -41.5 136
t-40.5 111q-14 35 -31.5 49.5t-55.5 14.5h-43z" />
    <glyph glyph-name="afii10062" unicode="&#x40e;" horiz-adv-x="703" 
d="M642 916q-24 -72 -68 -102.5t-113 -30.5q-151 0 -166 131l101 29q3 -75 68 -75q29 0 48.5 16.5t32.5 57.5zM159 617q-3 10 -9 14.5t-14 6.5l-44 11l21 75h288l-11 -74l-73 -10l74 -327h5l173 327l-69 9l21 75h253l-11 -75l-49 -13q-12 -3 -17 -9.5t-12 -18.5l-257 -463
q-25 -46 -50.5 -76t-52 -48t-55.5 -25.5t-62 -7.5q-42 0 -83.5 10.5t-66.5 24.5l42 108q15 -7 43 -15.5t54 -8.5q32 0 50.5 14.5t37.5 47.5z" />
    <glyph glyph-name="afii10145" unicode="&#x40f;" horiz-adv-x="784" 
d="M513 106l71 514q2 12 0 15t-13 5l-58 8l11 76h308l-11 -76l-65 -8q-11 -2 -14 -5t-5 -15l-72 -515q-2 -11 0 -15.5t13 -5.5l64 -7l-11 -77h-273q-9 0 -12 -3.5t-5 -9.5l-38 -149l-99 6l2 143q0 13 -11 13h-281l11 75l67 8q11 2 13.5 5t4.5 14l72 518q2 12 0 15t-13 5
l-65 8l11 76h307l-10 -76l-59 -8q-11 -2 -14 -5t-5 -15l-71 -514h250z" />
    <glyph glyph-name="afii10017" unicode="&#x410;" horiz-adv-x="744" 
d="M419 0l10 73l82 9l-19 109h-246l-49 -109l76 -9l-11 -73h-274l11 73l45 11q20 5 27 20l299 620h174l128 -623q2 -9 7 -12t15 -5l43 -11l-11 -73h-307zM425 572h-7l-127 -273h185z" />
    <glyph glyph-name="afii10018" unicode="&#x411;" horiz-adv-x="667" 
d="M346 108q27 0 52.5 5t45 18t31 35t11.5 56q0 49 -31 65t-81 16h-84l-27 -195h83zM305 406h116q118 0 172 -46.5t54 -129.5q0 -60 -22.5 -103.5t-61.5 -71.5t-92.5 -41.5t-116.5 -13.5h-338l11 75l65 7q11 1 13.5 5t4.5 15l73 518q2 11 -1 14.5t-14 5.5l-61 7l10 77h533
l-29 -210l-108 4l-4 84q0 13 -15 13h-160z" />
    <glyph glyph-name="afii10019" unicode="&#x412;" horiz-adv-x="648" 
d="M18 0l11 73l62 7q11 2 14 5.5t5 14.5l73 522q2 11 -0.5 15t-13.5 5l-61 7l10 75h330q55 0 92 -12.5t59.5 -34t32 -49.5t9.5 -60q0 -43 -13 -74.5t-33.5 -54.5t-46.5 -37.5t-53 -22.5v-3q72 -8 107 -47t35 -102t-22.5 -106.5t-62.5 -70t-94.5 -38.5t-117.5 -12h-322z
M329 108q35 0 63 5.5t48 19.5t31 38t11 62q0 26 -8.5 42.5t-23.5 26.5t-34.5 14t-42.5 4h-83l-29 -212h68zM344 420q29 0 56 4.5t47.5 17.5t33 36.5t12.5 60.5q0 25 -8.5 40t-23 23t-34 10.5t-42.5 2.5h-55l-26 -195h40z" />
    <glyph glyph-name="afii10020" unicode="&#x413;" horiz-adv-x="600" 
d="M16 0l11 75l65 8q11 1 13.5 5t4.5 15l73 517q2 11 -0.5 15t-13.5 5l-62 7l10 77h538l-29 -212l-108 7l-4 85q0 8 -3.5 9.5t-11.5 1.5h-165l-71 -512q-2 -11 0 -14.5t13 -4.5l141 -9l-11 -75h-390z" />
    <glyph glyph-name="afii10021" unicode="&#x414;" horiz-adv-x="803" 
d="M168 0q-14 0 -17 -13l-39 -131l-111 -7l36 259h56q35 36 61.5 75t46.5 87t34 108t25 138l14 104q2 11 0 15t-13 6l-62 7l11 76h639l-11 -76l-68 -8q-11 -2 -14 -5.5t-5 -14.5l-71 -512h76l-36 -259l-109 7l-1 132q0 12 -13 12h-429zM417 618l-14 -108
q-9 -69 -20.5 -126.5t-29 -106.5t-41.5 -90.5t-58 -78.5h271l71 510h-179z" />
    <glyph glyph-name="afii10022" unicode="&#x415;" horiz-adv-x="620" 
d="M18 0l10 73l63 7q11 2 14 5.5t5 14.5l73 523q2 11 -0.5 15t-12.5 5l-62 7l10 74h521l-28 -202l-105 5l-3 76q-1 13 -16 13h-155l-27 -197h230l-16 -111h-230l-27 -201h177q8 0 11.5 1.5t5.5 9.5l28 88h105l-28 -206h-543z" />
    <glyph glyph-name="afii10024" unicode="&#x416;" horiz-adv-x="1097" 
d="M545 622q2 11 0 14.5t-13 5.5l-62 7l10 75h308l-10 -75l-65 -8q-11 -2 -14 -5t-5 -14l-27 -198h36q18 0 31.5 3.5t25 12t22 23.5t22.5 39l58 121q12 25 25.5 46t32.5 36t45.5 23.5t63.5 8.5q19 0 43.5 -3.5t35.5 -6.5l-20 -106q-3 1 -7 1q-3 0 -7 0.5t-9 0.5
q-18 0 -29.5 -4t-20.5 -13.5t-17 -24.5t-19 -37l-39 -82q-20 -40 -47 -59t-54 -25v-3q26 -11 43.5 -34.5t34.5 -71.5l56 -154q4 -11 9.5 -17.5t17.5 -8.5l65 -10l-11 -79h-218q-20 74 -41 140t-38 113q-14 35 -32 47t-48 12h-26l-29 -209q-2 -12 0.5 -15t12.5 -5l56 -8
l-10 -75h-295l10 75l57 7q12 2 15 5.5t5 16.5l28 208h-30q-30 0 -49 -12t-43 -47q-16 -23 -34.5 -53t-38 -63.5t-39.5 -68.5t-38 -68h-224l11 79l67 10q13 2 17.5 6t12.5 16l102 161q15 23 27 39.5t25 28.5t27 20.5t32 14.5v3q-25 8 -44 28.5t-28 58.5l-23 101
q-8 32 -20 44.5t-43 12.5h-10.5t-11.5 -1l9 106q18 5 40.5 7t39.5 2q59 0 86 -24.5t40 -74.5l35 -132q6 -24 12.5 -40t15 -25t20.5 -13t30 -4h43z" />
    <glyph glyph-name="afii10025" unicode="&#x417;" horiz-adv-x="627" 
d="M406 737q113 0 166 -43t53 -122q0 -41 -13.5 -72.5t-36 -55t-51.5 -39.5t-59 -25l-1 -4q26 -6 49.5 -17t41 -29.5t27.5 -45t10 -63.5q0 -54 -21 -97t-61 -73.5t-97.5 -46.5t-130.5 -16q-32 0 -66 4t-65.5 11t-58 17t-43.5 22l24 176h109l7 -88q0 -8 3 -11.5t11 -6.5
q19 -8 43.5 -10.5t45.5 -2.5q30 0 56 7.5t45.5 23t31 38.5t11.5 54q0 48 -30.5 66.5t-78.5 18.5h-111l16 112h64q85 0 129 36t44 90q0 46 -26.5 65t-69.5 19q-21 0 -44.5 -3t-39.5 -9q-11 -4 -15 -17l-28 -87l-111 -7l24 172q42 23 107 41t140 18z" />
    <glyph glyph-name="afii10026" unicode="&#x418;" horiz-adv-x="822" 
d="M459 0l11 74l64 7q11 2 13.5 5.5t4.5 14.5l59 417h-5l-361 -518h-227l10 74l64 7q11 2 13.5 5.5t4.5 14.5l72 520q2 11 0 15t-13 5l-62 7l11 76h312l-11 -76l-68 -8q-12 -2 -14.5 -5t-4.5 -14l-57 -396h5l351 499h241l-11 -76l-68 -8q-12 -2 -14.5 -5t-4.5 -14l-72 -518
q-2 -12 0.5 -15.5t13.5 -5.5l65 -8l-10 -74h-312z" />
    <glyph glyph-name="afii10027" unicode="&#x419;" horiz-adv-x="822" 
d="M705 916q-24 -72 -68 -102.5t-113 -30.5q-151 0 -166 131l101 29q3 -75 68 -75q29 0 48.5 16.5t32.5 57.5zM459 0l11 74l64 7q11 2 13.5 5.5t4.5 14.5l59 417h-5l-361 -518h-227l10 74l64 7q11 2 13.5 5.5t4.5 14.5l72 520q2 11 0 15t-13 5l-62 7l11 76h312l-11 -76
l-68 -8q-12 -2 -14.5 -5t-4.5 -14l-57 -396h5l351 499h241l-11 -76l-68 -8q-12 -2 -14.5 -5t-4.5 -14l-72 -518q-2 -12 0.5 -15.5t13.5 -5.5l65 -8l-10 -74h-312z" />
    <glyph glyph-name="afii10028" unicode="&#x41a;" horiz-adv-x="760" 
d="M263 105q-2 -12 1 -16t14 -6l64 -8l-11 -75h-313l11 75l62 7q11 2 14 5.5t5 14.5l73 520q2 11 0 14.5t-13 5.5l-62 7l10 75h314l-10 -75l-70 -8q-11 -2 -13 -6t-4 -12l-28 -200h61q18 0 32 3.5t25.5 12.5t22 24t22.5 39l59 119q14 28 28.5 49.5t33 36.5t43.5 22.5t60 7.5
q19 0 41 -2.5t39 -7.5l-20 -105q-8 1 -15 1.5t-13 0.5q-28 -1 -42.5 -15t-34.5 -54l-44 -91q-21 -45 -49 -63t-57 -25v-2q28 -12 43.5 -34.5t34.5 -70.5l61 -159q5 -12 8.5 -15.5t14.5 -5.5l69 -11l-11 -78h-216q-19 72 -41.5 136t-40.5 111q-14 35 -31.5 49.5t-55.5 14.5
h-43z" />
    <glyph glyph-name="afii10029" unicode="&#x41b;" horiz-adv-x="805" 
d="M604 618h-189q-11 -97 -29 -197t-41 -178q-15 -51 -37 -97t-58.5 -81.5t-89.5 -57t-130 -23.5l-10 133q43 4 74 14.5t53 30.5t38 50.5t29 73.5q17 54 33.5 141.5t30.5 189.5q2 14 -1 17.5t-14 5.5l-64 7l10 77h645l-11 -77l-68 -8q-11 -2 -14 -5t-5 -15l-71 -517
q-2 -12 0 -15t13 -5l66 -8l-12 -74h-307l11 74l57 7q11 2 13.5 5.5t4.5 14.5z" />
    <glyph glyph-name="afii10030" unicode="&#x41c;" horiz-adv-x="943" 
d="M567 0l10 73l82 7q10 1 13 5t5 15l53 376h-4l-187 -332h-153l-99 331h-5l-52 -374q-2 -12 -0.5 -15.5t12.5 -4.5l84 -8l-9 -73h-298l9 73l63 7q11 2 14 5.5t5 15.5l73 522q2 11 -0.5 14.5t-12.5 5.5l-60 7l8 74h246l128 -439h5l240 439h253l-9 -73l-66 -8
q-12 -2 -14.5 -5.5t-4.5 -15.5l-74 -522q-2 -10 0.5 -13.5t12.5 -5.5l65 -8l-10 -73h-323z" />
    <glyph glyph-name="afii10031" unicode="&#x41d;" horiz-adv-x="802" 
d="M439 0l11 73l62 7q11 2 13.5 5.5t4.5 14.5l31 216h-269l-30 -215q-2 -12 -0.5 -15t12.5 -5l65 -8l-10 -73h-310l10 73l63 7q11 2 13.5 5.5t4.5 14.5l73 522q2 11 -0.5 15t-13.5 5l-60 7l10 75h310l-10 -75l-67 -8q-11 -2 -13.5 -5t-4.5 -14l-26 -194h268l27 194
q2 11 0 15t-13 5l-61 7l10 75h310l-10 -75l-66 -8q-11 -2 -13.5 -5t-4.5 -14l-73 -521q-2 -12 0 -15t13 -5l65 -8l-11 -73h-310z" />
    <glyph glyph-name="afii10032" unicode="&#x41e;" horiz-adv-x="757" 
d="M352 -12q-78 0 -134 21.5t-91 60.5t-51.5 94t-16.5 122q0 95 25.5 177t77 143t128 96t178.5 35q78 0 133 -22.5t90 -61.5t51.5 -92.5t16.5 -115.5q0 -107 -27.5 -191.5t-80 -143.5t-128 -90.5t-171.5 -31.5zM375 111q44 0 83 16t69 52t49 93t23 138v29t-2 27
q-9 78 -45.5 113t-101.5 35q-58 0 -101.5 -26.5t-72 -69.5t-42.5 -97.5t-14 -110.5q0 -13 0.5 -28.5t2.5 -25.5q10 -75 47 -110t105 -35z" />
    <glyph glyph-name="afii10033" unicode="&#x41f;" horiz-adv-x="788" 
d="M335 618l-72 -516q-2 -12 0 -15t13 -5l59 -8l-10 -74h-308l10 74l64 7q11 2 13.5 5.5t4.5 14.5l74 519q2 11 0 15t-13 5l-62 7l10 77h720l-10 -77l-68 -8q-12 -2 -14.5 -5t-4.5 -14l-73 -518q-2 -12 0 -15t13 -5l66 -8l-10 -74h-308l11 74l57 7q11 2 13.5 5.5t4.5 14.5
l73 517h-253z" />
    <glyph glyph-name="afii10034" unicode="&#x420;" horiz-adv-x="641" 
d="M18 0l11 74l63 7q11 2 14 5.5t5 14.5l72 521q2 11 -0.5 15t-13.5 5l-60 7l9 75h326q59 0 100.5 -14t67 -39.5t37 -59.5t11.5 -75q0 -69 -21.5 -119.5t-61 -84t-96 -49.5t-126.5 -16h-72l-22 -165q-2 -12 0 -15t12 -5l140 -8l-11 -74h-384zM346 374q28 0 55.5 5t50 20.5
t36.5 44.5t14 77q0 29 -9 47t-24.5 28.5t-36 14.5t-43.5 4h-58l-33 -241h48z" />
    <glyph glyph-name="afii10035" unicode="&#x421;" horiz-adv-x="670" 
d="M610 43q-23 -13 -53 -23.5t-63 -17.5t-68 -10.5t-69 -3.5q-78 0 -134.5 22.5t-93 63.5t-53.5 98.5t-17 127.5q0 96 26.5 176t79 138t131 90.5t181.5 32.5q30 0 61.5 -4t60.5 -11t54 -17.5t43 -24.5l-26 -196l-107 9l-3 93q0 11 -3 15.5t-10 6.5q-15 6 -35.5 9.5
t-48.5 3.5q-54 0 -99.5 -19.5t-77.5 -58.5t-50 -97t-18 -135q0 -103 42.5 -156t123.5 -53q30 0 57 2.5t46 10.5q6 3 9.5 7t5.5 12l29 95h105z" />
    <glyph glyph-name="afii10036" unicode="&#x422;" horiz-adv-x="680" 
d="M131 0l11 74l101 7q10 1 13 5t5 15l71 514h-102q-8 0 -11 -1.5t-5 -9.5l-28 -82l-107 -5l28 207h631l-28 -207l-104 5l-4 82q-1 8 -3.5 9.5t-10.5 1.5h-104l-71 -514q-2 -11 -0.5 -14.5t12.5 -4.5l108 -9l-10 -73h-392z" />
    <glyph glyph-name="afii10037" unicode="&#x423;" horiz-adv-x="703" 
d="M159 617q-3 10 -9 14.5t-14 6.5l-44 11l21 75h288l-11 -74l-73 -10l74 -327h5l173 327l-69 9l21 75h253l-11 -75l-49 -13q-12 -3 -17 -9.5t-12 -18.5l-257 -463q-25 -46 -50.5 -76t-52 -48t-55.5 -25.5t-62 -7.5q-42 0 -83.5 10.5t-66.5 24.5l42 108q15 -7 43 -15.5
t54 -8.5q32 0 50.5 14.5t37.5 47.5z" />
    <glyph glyph-name="afii10038" unicode="&#x424;" horiz-adv-x="873" 
d="M668 661l-72 -8q-18 -1 -19 -19l-5 -33q154 -4 225.5 -53t71.5 -142q0 -80 -29.5 -131.5t-79 -82t-115 -43.5t-138.5 -15l-5 -36q-2 -9 1 -12.5t13 -4.5l71 -7l-10 -74h-316l11 74l69 6q11 1 14 5t5 15l5 33q-62 2 -116.5 12t-94.5 33.5t-63 62.5t-23 97q0 131 92 194.5
t270 69.5l5 32q2 8 -0.5 12.5t-11.5 5.5l-71 9l11 76h316zM227 348q0 -57 36 -80t120 -25l35 248q-97 -2 -144 -35t-47 -108zM711 389q0 55 -39 78t-120 25l-33 -248q100 4 146 37.5t46 107.5z" />
    <glyph glyph-name="afii10039" unicode="&#x425;" horiz-adv-x="757" 
d="M398 0l11 73l78 9l-110 188l-157 -188l74 -9l-11 -73h-278l10 73l59 11q16 4 28 19l219 253l-159 267q-7 13 -21 17l-49 11l12 73h314l-11 -73l-77 -9l105 -185l158 185l-73 9l12 73h264l-10 -73l-50 -11q-9 -2 -15 -6.5t-13 -12.5l-217 -249l166 -271q5 -8 10.5 -12
t14.5 -6l47 -10l-10 -73h-321z" />
    <glyph glyph-name="afii10040" unicode="&#x426;" horiz-adv-x="779" 
d="M13 0l11 77l68 8q11 2 14 5t5 14l71 517q2 12 0 15t-13 5l-66 8l11 75h308l-11 -75l-57 -7q-11 -2 -14 -5.5t-5 -14.5l-72 -516h242l71 515q2 12 0 15t-13 5l-55 8l10 75h304l-11 -75l-64 -7q-11 -2 -14 -5.5t-5 -14.5l-71 -516h79l-36 -262l-107 7l-3 126
q0 14 -2.5 18.5t-10.5 4.5h-564z" />
    <glyph glyph-name="afii10041" unicode="&#x427;" horiz-adv-x="727" 
d="M294 0l11 76l131 8q11 2 14 5t5 15l23 168q-35 -8 -70.5 -11.5t-67.5 -3.5q-57 0 -94.5 11t-60 30.5t-32 46.5t-9.5 59q0 22 3 43l24 174q2 11 -0.5 14.5t-12.5 5.5l-54 8l10 75h292l-10 -76l-51 -7q-11 -2 -14 -5.5t-5 -14.5l-22 -154q-1 -9 -2 -17t-1 -15
q0 -35 19 -52.5t72 -17.5q22 0 50 3.5t51 10.5l34 242q2 11 -0.5 15t-12.5 6l-40 7l10 75h289l-10 -76l-65 -8q-11 -1 -14 -4.5t-5 -14.5l-72 -518q-2 -12 0 -15t13 -5l63 -8l-11 -75h-378z" />
    <glyph glyph-name="afii10042" unicode="&#x428;" horiz-adv-x="1058" 
d="M448 106l72 515q2 11 -0.5 15t-13.5 6l-45 7l10 75h278l-11 -75l-48 -7q-11 -2 -14 -6t-5 -15l-71 -515h187l71 514q2 12 -0.5 16t-13.5 6l-43 7l11 75h292l-11 -75l-64 -7q-11 -2 -14 -5.5t-5 -14.5l-72 -518q-2 -8 0.5 -12.5t13.5 -6.5l65 -8l-11 -77h-993l11 77l68 8
q11 2 14 5t5 14l71 517q2 12 0 15t-13 5l-66 8l11 75h294l-11 -75l-43 -7q-11 -2 -14 -6t-5 -15l-72 -515h185z" />
    <glyph glyph-name="afii10043" unicode="&#x429;" horiz-adv-x="1058" 
d="M13 0l11 77l68 8q11 2 14 5t5 14l71 517q2 12 0 15t-13 5l-66 8l11 75h294l-11 -75l-43 -7q-11 -2 -14 -6t-5 -15l-72 -515h184l71 514q2 12 -0.5 16t-13.5 6l-45 7l11 75h278l-11 -75l-48 -7q-11 -2 -14 -6.5t-5 -15.5l-72 -514h186l71 513q2 12 -0.5 16t-13.5 6l-43 8
l11 75h292l-11 -75l-64 -7q-11 -2 -14 -5.5t-5 -14.5l-71 -514h75l-35 -264l-108 7l-3 135q0 14 -13 14h-839z" />
    <glyph glyph-name="afii10044" unicode="&#x42a;" horiz-adv-x="806" 
d="M482 107q29 0 55 6.5t46 22t31.5 41t11.5 62.5q0 53 -28.5 73t-77.5 20h-75l-32 -225h69zM248 618q-8 0 -12 -2t-6 -10l-29 -87l-109 -5l29 210h490l-11 -78l-96 -8q-11 -1 -14.5 -4.5t-5.5 -14.5l-25 -185h104q60 0 102.5 -13t69 -36.5t39 -57t12.5 -75.5
q0 -65 -22 -112.5t-61.5 -78.5t-94 -46t-119.5 -15h-323l11 75l65 7q11 2 14 5.5t5 14.5l71 516h-84z" />
    <glyph glyph-name="afii10045" unicode="&#x42b;" horiz-adv-x="993" 
d="M308 434h104q59 0 100.5 -13.5t68 -37.5t39 -58.5t12.5 -76.5q0 -64 -21.5 -110.5t-60.5 -77t-93.5 -45.5t-119.5 -15h-321l11 76l68 8q10 1 12 4.5t3 11.5l72 523q3 16 -13 17l-69 7l11 77h349l-10 -76l-97 -9q-11 -1 -14 -4.5t-5 -14.5zM328 108q29 0 55 6.5t46 21.5
t31.5 40.5t11.5 63.5q0 53 -32.5 72.5t-92.5 19.5h-53l-31 -224h65zM622 0l8 73l73 7q11 1 13.5 5t4.5 15l74 522q2 11 -0.5 15t-13.5 5l-70 7l10 75h330l-11 -75l-76 -8q-11 -2 -13.5 -5t-4.5 -14l-73 -521q-2 -12 -0.5 -15t12.5 -5l75 -8l-9 -73h-329z" />
    <glyph glyph-name="afii10046" unicode="&#x42c;" horiz-adv-x="653" 
d="M328 108q29 0 55 6.5t46 21.5t31.5 40.5t11.5 63.5q0 48 -29 70t-82 22h-67l-31 -224h65zM308 434h104q59 0 100.5 -13.5t68 -37.5t39 -58.5t12.5 -76.5q0 -64 -21.5 -110.5t-60.5 -77t-93.5 -45.5t-119.5 -15h-321l11 76l64 7q11 1 14 5t5 15l72 520q3 16 -13 17l-69 7
l11 77h349l-10 -76l-97 -9q-11 -1 -14 -4.5t-5 -14.5z" />
    <glyph glyph-name="afii10047" unicode="&#x42d;" horiz-adv-x="703" 
d="M145 683q23 12 53.5 22t63.5 17t67.5 11t65.5 4q84 0 142 -24.5t95 -67.5t53.5 -100.5t16.5 -123.5q0 -94 -27.5 -173.5t-80.5 -137.5t-130.5 -90t-177.5 -32q-33 0 -67.5 4t-66 11t-58 17t-44.5 22l26 191l109 -1l4 -95q0 -10 4 -14t15 -8q16 -5 40 -8t41 -3
q95 0 156 56.5t83 148.5h-269l15 112h268q2 100 -43 150.5t-130 50.5q-21 0 -47.5 -1.5t-46.5 -7.5q-14 -3 -17 -9.5t-5 -13.5l-28 -88l-106 -6z" />
    <glyph glyph-name="afii10048" unicode="&#x42e;" horiz-adv-x="1076" 
d="M698 -12q-78 0 -132.5 26.5t-87 71t-44.5 102t-7 120.5h-137l-28 -207q-2 -12 -0.5 -15t12.5 -5l75 -8l-9 -73h-330l8 73l73 7q11 1 13.5 5t4.5 15l74 522q2 11 0 15t-13 5l-70 7l10 75h329l-10 -75l-76 -8q-11 -2 -13.5 -5t-4.5 -14l-29 -202h135q15 70 45.5 128.5
t77 100.5t108.5 65t139 23q74 0 125 -22.5t83 -62t46 -93.5t14 -117q0 -91 -22 -173.5t-68 -144.5t-118 -99t-173 -37zM720 110q56 0 94 31.5t61.5 80.5t34 109t10.5 118q0 31 -5 60.5t-19 53t-38.5 37.5t-63.5 14q-55 0 -95 -29.5t-65 -76.5t-37 -107t-12 -121
q0 -36 6.5 -67.5t22 -54t41.5 -35.5t65 -13z" />
    <glyph glyph-name="afii10049" unicode="&#x42f;" horiz-adv-x="732" 
d="M11 0l11 76l71 12q12 2 16.5 6.5t9.5 13.5l76 133q18 32 40 55.5t60 36.5v1q-27 8 -51 22t-42 35.5t-28.5 50.5t-10.5 65q0 58 22 98.5t58.5 66t83.5 38t96 13.5q12 1 24 1h24h313l-11 -76l-67 -7q-9 -1 -11.5 -6.5t-4.5 -13.5l-72 -518q-2 -12 0.5 -15.5t13.5 -4.5
l62 -7l-11 -76h-302l11 76l59 8q9 2 12 6t5 14l25 188h-55q-32 0 -47 -11t-31 -37q-29 -48 -63 -111t-67 -133h-219zM507 395l31 220h-81q-59 0 -97 -27.5t-38 -89.5q0 -30 10 -50t26.5 -32t39.5 -16.5t48 -4.5h61z" />
    <glyph glyph-name="afii10065" unicode="&#x430;" horiz-adv-x="612" 
d="M377 0l12 81l-5 1q-45 -45 -86.5 -69.5t-95.5 -24.5q-74 0 -113 49t-39 151q0 57 13 117.5t42.5 110.5t78 82.5t118.5 32.5q43 0 77 -15.5t60 -41.5l19 47h128q-7 -32 -13.5 -65t-11.5 -66l-40 -290q-2 -11 0 -14t13 -5l47 -7l-11 -74h-193zM417 380q-16 14 -39.5 25.5
t-48.5 11.5q-37 0 -61 -23.5t-38 -57t-20 -71t-6 -65.5q0 -87 57 -87q14 0 31 7t34 18.5t34 25.5t31 28z" />
    <glyph glyph-name="afii10066" unicode="&#x431;" horiz-adv-x="571" 
d="M266 -12q-62 0 -103.5 19t-66.5 53t-35.5 81t-10.5 102q0 49 6.5 101.5t21.5 100.5q14 47 39 89.5t63.5 77t91.5 60.5t123 39q31 6 49.5 10.5t29 8t14.5 8t6 10.5l104 4q3 -39 -3.5 -66t-23.5 -44.5t-44.5 -27t-66.5 -14.5q-78 -10 -128.5 -23t-82 -34.5t-50.5 -55
t-34 -84.5l5 -2q32 53 83.5 82t116.5 29q95 0 140.5 -53t45.5 -144q0 -62 -16.5 -121t-51.5 -104.5t-90 -73.5t-132 -28zM278 93q36 0 59.5 23.5t37 57.5t19 72.5t5.5 69.5q0 46 -17.5 67t-55.5 21q-37 0 -61 -20.5t-38 -51t-20 -67t-6 -68.5q0 -51 17.5 -77.5t59.5 -26.5z
" />
    <glyph glyph-name="afii10067" unicode="&#x432;" horiz-adv-x="550" 
d="M286 -12q-36 0 -71 3t-66 7.5t-55.5 10t-39.5 10.5l46 339q7 50 26.5 83t50.5 53t72.5 28.5t91.5 8.5q97 0 144.5 -32.5t47.5 -93.5q0 -51 -30.5 -85t-78.5 -46v-3q49 -5 78 -31t29 -76q0 -47 -20.5 -80.5t-54 -54.5t-78 -31t-92.5 -10zM213 101q7 -3 28.5 -6t47.5 -3
q41 0 66 17.5t25 55.5q0 34 -24 42.5t-59 8.5h-67zM313 309q30 0 54 16t24 51q0 29 -16.5 40t-42.5 11q-32 0 -54 -13.5t-27 -48.5l-9 -56h71z" />
    <glyph glyph-name="afii10068" unicode="&#x433;" horiz-adv-x="485" 
d="M277 441q-31 0 -55 -8q-8 -2 -10.5 -6t-4.5 -9l-20 -66h-111l19 138q16 8 39.5 15.5t51 13t57.5 9t59 3.5q39 0 72.5 -8t57.5 -25t38 -43.5t14 -62.5q0 -43 -15 -72.5t-39.5 -49t-54.5 -32t-60 -21.5q-64 -19 -93.5 -32.5t-29.5 -43.5q0 -23 17 -33t43 -10q75 0 151 61
l55 -82q-51 -45 -109.5 -67t-119.5 -22q-92 0 -142 38.5t-50 106.5q0 48 18.5 78t47.5 49.5t63.5 31t67.5 21.5q21 6 39.5 13t32.5 16t22 21.5t8 30.5q0 23 -15.5 35t-43.5 12z" />
    <glyph glyph-name="afii10069" unicode="&#x434;" horiz-adv-x="581" 
d="M203 759q117 -14 189.5 -54.5t112.5 -93t53.5 -110t13.5 -106.5q0 -77 -14.5 -150.5t-49 -130.5t-92.5 -91.5t-146 -34.5q-113 0 -169.5 59.5t-56.5 156.5q0 62 16 117t48 96t80 65t111 24q39 0 71 -12.5t59 -35.5l4 4q-16 47 -45.5 79t-68 53t-83 32t-90.5 16zM419 365
q-17 14 -40.5 26t-52.5 12q-34 0 -58 -17.5t-39 -46.5t-21.5 -65.5t-6.5 -75.5q0 -45 17.5 -75t63.5 -30q64 0 96.5 67.5t40.5 204.5z" />
    <glyph glyph-name="afii10070" unicode="&#x435;" horiz-adv-x="505" 
d="M461 38q-49 -23 -101 -36.5t-106 -13.5q-59 0 -99.5 16.5t-66 45t-36.5 67.5t-11 84q0 79 23.5 140.5t64 103.5t94.5 64t115 22q83 0 123.5 -35t40.5 -97q0 -54 -26 -89.5t-69 -58.5t-98 -35t-114 -18q1 -19 6 -37t16.5 -31.5t30 -21.5t46.5 -8q27 0 63.5 8.5t81.5 27.5z
M201 295q16 2 44 7.5t55 16t46.5 26.5t19.5 40q0 38 -48 38q-42 0 -74 -34t-43 -94z" />
    <glyph glyph-name="afii10072" unicode="&#x436;" horiz-adv-x="878" 
d="M554 310h21q12 0 21 2t17 8t16 17.5t17 30.5l33 67q23 48 51.5 72t82.5 24q21 0 42 -2.5t42 -10.5l-23 -92q-15 3 -26 3q-17 -1 -26.5 -9t-19.5 -27l-32 -62q-13 -24 -28.5 -36.5t-41.5 -20.5v-2q18 -10 31 -25.5t24 -46.5l34 -95q3 -8 6.5 -12.5t13.5 -6.5l61 -9
l-11 -77h-190q-14 63 -27.5 104t-27.5 73q-9 21 -20 31.5t-34 10.5h-19l-29 -219h-151l34 219h-31q-23 0 -36 -11.5t-30 -39.5q-21 -34 -43.5 -72t-51.5 -96h-191l11 78l54 8q11 2 14.5 5.5t8.5 11.5l65 102q19 30 38 45t42 22v2q-21 10 -33.5 22.5t-20.5 38.5l-19 61
q-6 20 -15 27t-23 7q-13 0 -31 -3l8 92q16 5 41 8.5t39 3.5q26 0 43.5 -7t29 -18t18 -25t11.5 -29l25 -77q13 -40 25 -52.5t38 -12.5h27l14 101q3 15 -10 19l-40 14l13 77h196l3 -4z" />
    <glyph glyph-name="afii10073" unicode="&#x437;" horiz-adv-x="502" 
d="M311 531q54 0 90.5 -9.5t58.5 -26.5t31.5 -40t9.5 -49q0 -51 -32 -84t-80 -49v-3q18 -4 34.5 -11.5t29.5 -20.5t21 -32t8 -47q0 -43 -20 -75t-53 -53.5t-77 -32t-92 -10.5q-64 0 -121.5 18t-92.5 50l56 91q10 -7 26.5 -15.5t37.5 -16t45 -12t49 -4.5q16 0 32.5 3t30 10
t22 19t8.5 30q0 29 -18.5 38.5t-44.5 9.5h-103l13 100h59q57 0 85 21t28 52q0 28 -17.5 40t-47.5 12q-15 0 -30 -1.5t-25 -4.5q-9 -1 -12 -14l-20 -57l-109 -3l19 136q33 17 88.5 29t112.5 12z" />
    <glyph glyph-name="afii10074" unicode="&#x438;" horiz-adv-x="618" 
d="M380 0l10 80l-3 1q-16 -13 -35 -29.5t-42 -30.5t-50 -23.5t-59 -9.5q-65 0 -92 32t-27 93q0 13 1 27.5t3 29.5l33 242q2 12 0 15.5t-13 5.5l-39 7l12 81h195l7 -7l-44 -318q-2 -13 -3 -24t-1 -19q0 -19 7 -27.5t25 -8.5q17 0 34.5 7.5t34.5 19t32 23.5t25 21l31 226
q2 12 0 15t-13 5l-32 5l13 82h189l7 -8l-59 -411q-2 -10 -0.5 -14.5t11.5 -6.5l50 -7l-10 -74h-198z" />
    <glyph glyph-name="afii10075" unicode="&#x439;" horiz-adv-x="618" 
d="M380 0l10 80l-3 1q-16 -13 -35 -29.5t-42 -30.5t-50 -23.5t-59 -9.5q-65 0 -92 32t-27 93q0 13 1 27.5t3 29.5l33 242q2 12 0 15.5t-13 5.5l-39 7l12 81h195l7 -7l-44 -318q-2 -13 -3 -24t-1 -19q0 -19 7 -27.5t25 -8.5q17 0 34.5 7.5t34.5 19t32 23.5t25 21l31 226
q2 12 0 15t-13 5l-32 5l13 82h189l7 -8l-59 -411q-2 -10 -0.5 -14.5t11.5 -6.5l50 -7l-10 -74h-198zM539 709q-24 -73 -69.5 -106.5t-118.5 -33.5q-78 0 -119.5 36.5t-47.5 101.5l101 30q2 -40 18.5 -61t52.5 -21q33 0 53 19.5t34 60.5z" />
    <glyph glyph-name="afii10076" unicode="&#x43a;" horiz-adv-x="587" 
d="M256 308h26q24 0 41 8.5t36 44.5l45 88q11 21 21.5 36t24 25t31 15t41.5 6q20 0 40.5 -2.5t39.5 -8.5l-16 -93q-13 3 -23 3q-19 0 -29 -9.5t-20 -28.5l-30 -58q-15 -29 -32.5 -41.5t-45.5 -19.5l-1 -4q17 -5 31 -18.5t25 -43.5l39 -102q4 -8 7.5 -12.5t12.5 -6.5l54 -8
l-10 -78h-185q-12 51 -26 95t-25 71q-12 32 -24 41.5t-36 9.5h-23l-30 -217h-150l59 414q2 8 -0.5 12t-8.5 6l-46 13l11 76h200l5 -8z" />
    <glyph glyph-name="afii10077" unicode="&#x43b;" horiz-adv-x="636" 
d="M395 0l-6 9l57 405h-122q-11 -62 -21 -113.5t-24 -102.5q-12 -44 -28 -81t-40.5 -64.5t-59 -44t-82.5 -18.5q-10 -1 -20 -1.5t-20 1.5l-13 117q44 0 71 13t46 47t32.5 94.5t29.5 154.5q3 16 -11 17l-48 10l12 78h454l6 -9l-57 -415q-2 -8 0 -11t11 -4l50 -9l-11 -73h-206
z" />
    <glyph glyph-name="afii10078" unicode="&#x43c;" horiz-adv-x="825" 
d="M594 0l-6 7l50 329h-3l-136 -238h-137l-46 237h-3q-8 -44 -15.5 -79t-14.5 -58q-13 -46 -28.5 -84.5t-39.5 -66t-61.5 -43t-94.5 -15.5h-13.5t-14.5 1l-13 118q42 0 69.5 13t47 48.5t35 98.5t31.5 163l-55 12l11 78h236l58 -307h3l167 307h167l7 -8l-58 -416
q-3 -13 12 -14l51 -7l-11 -76h-195z" />
    <glyph glyph-name="afii10079" unicode="&#x43d;" horiz-adv-x="645" 
d="M423 215h-177l-31 -215h-142l-6 8l57 404q3 15 -11 20l-48 13l10 76h206l6 -9l-27 -191h178l28 200h140l8 -8l-57 -412q-1 -8 1.5 -12.5t10.5 -6.5l50 -9l-10 -73h-212l-7 9l19 105z" />
    <glyph glyph-name="afii10080" unicode="&#x43e;" horiz-adv-x="578" 
d="M269 -12q-59 0 -102 15.5t-71 43.5t-41.5 68t-13.5 88q0 72 20 132.5t58.5 104t95 67.5t129.5 24q63 0 105.5 -17t68.5 -45.5t37.5 -67t11.5 -82.5q0 -73 -18.5 -134t-56 -104.5t-93 -68t-130.5 -24.5zM281 93q26 0 49.5 12t41 38.5t28 69t10.5 104.5q0 57 -21.5 81.5
t-61.5 24.5q-25 0 -49 -11t-42.5 -36.5t-29.5 -68t-11 -104.5q0 -58 22.5 -84t63.5 -26z" />
    <glyph glyph-name="afii10081" unicode="&#x43f;" horiz-adv-x="620" 
d="M373 0l-2 3l22 122l29 208q5 32 1 50.5t-27 18.5q-16 0 -33.5 -7t-35 -17.5t-33 -23.5t-28.5 -24l-31 -229q-2 -12 0 -15t13 -5l50 -7l-10 -74h-274l10 75l44 6q10 2 13 5.5t5 14.5l42 305q3 17 -9 21l-49 18l11 76h198l-11 -82l3 -1q21 18 42 35t43.5 29.5t48 20.5
t54.5 8q114 0 118 -119q0 -12 -1 -26.5t-3 -28.5l-36 -256q-2 -12 -0.5 -15t12.5 -5l50 -7l-10 -74h-216z" />
    <glyph glyph-name="afii10082" unicode="&#x440;" horiz-adv-x="604" 
d="M29 -212l-2 4l29 167l62 447q3 17 -9 21l-49 18l11 76h200l-12 -80l3 -1q45 42 90.5 66.5t93.5 24.5q32 0 59 -11t46.5 -35t30 -62t10.5 -92q0 -52 -11.5 -112t-39 -111.5t-73.5 -85.5t-116 -34q-49 0 -79.5 15.5t-58.5 35.5l-22 -150q-1 -8 1.5 -11.5t12.5 -4.5l101 -10
l-11 -75h-267zM229 143q19 -16 43 -27.5t52 -11.5q30 0 51.5 19t34.5 49t19 65.5t6 68.5q0 45 -11.5 71.5t-40.5 26.5q-15 0 -31.5 -7t-33.5 -18.5t-32.5 -24.5t-29.5 -25z" />
    <glyph glyph-name="afii10083" unicode="&#x441;" horiz-adv-x="502" 
d="M452 37q-37 -21 -88 -35t-105 -14q-57 0 -98.5 16t-68 44.5t-39 69t-12.5 88.5q0 83 24 144t65 101.5t97 60t119 19.5q57 0 101.5 -13.5t65.5 -28.5l-22 -157l-102 5l-3 68q0 11 -7 14q-9 4 -22 5.5t-27 1.5q-25 0 -49 -11t-43 -35t-30.5 -63t-11.5 -95q0 -69 28 -95.5
t71 -26.5q38 0 72.5 10t59.5 20z" />
    <glyph glyph-name="afii10084" unicode="&#x442;" horiz-adv-x="879" 
d="M631 0l-2 3l21 118l31 212q5 33 1 49.5t-24 16.5q-23 0 -50.5 -20.5t-59.5 -48.5l-32 -229q-2 -12 -0.5 -15t12.5 -5l50 -7l-10 -74h-216l-2 4l22 127l29 202q5 29 3 46.5t-24 17.5q-14 0 -30 -7t-31 -17.5t-29 -22t-24 -20.5l-31 -229q-2 -12 0 -15t13 -5l50 -7l-10 -74
h-274l10 75l44 6q10 2 13 5.5t5 14.5l42 305q3 17 -9 21l-49 18l11 76h198l-11 -82l3 -1q20 17 40 33.5t42.5 29.5t47.5 21.5t53 8.5q42 0 67.5 -23t28.5 -68l3 -1q18 16 38.5 32.5t43 29.5t46.5 21.5t51 8.5q55 0 79 -27t26 -81q0 -14 -1.5 -30.5t-3.5 -34.5l-36 -257
q-2 -12 0 -15t13 -5l49 -7l-10 -74h-217z" />
    <glyph glyph-name="afii10085" unicode="&#x443;" horiz-adv-x="575" 
d="M209 3l-112 418q-3 9 -6.5 12t-11.5 5l-39 9l12 74h176l10 -11l27 -129l45 -209h5l127 266l-61 9l11 74h185l14 -31l-290 -571q-19 -36 -38.5 -62.5t-44 -44t-55 -26.5t-70.5 -9q-27 0 -51 5.5t-43.5 13t-33 16.5t-20.5 15l51 85q15 -9 40.5 -19t50.5 -10q32 0 54 19.5
t40 50.5z" />
    <glyph glyph-name="afii10086" unicode="&#x444;" horiz-adv-x="812" 
d="M536 526q260 -8 260 -214q0 -88 -25 -149t-70 -100t-106.5 -56.5t-134.5 -18.5l-13 -96q-2 -11 0.5 -15t13.5 -5l49 -7l-11 -78h-282l11 79l50 6q13 2 15 5.5t4 13.5l14 98q-140 10 -201.5 68t-61.5 156q0 92 30 152.5t78 96.5t108.5 51t121.5 15l14 108q3 17 -10 21
l-51 19l22 79h207zM476 104q26 0 55 6t54.5 26.5t42 59.5t16.5 105q0 34 -9.5 55.5t-26 34.5t-39.5 18t-49 5zM368 413q-27 0 -56.5 -6t-54 -26.5t-40.5 -59t-16 -104.5q0 -34 10 -56t27 -35.5t39.5 -19t46.5 -5.5z" />
    <glyph glyph-name="afii10087" unicode="&#x445;" horiz-adv-x="590" 
d="M390 0l-11 9l-45 83l-54 92l-91 -102l53 -9l-8 -73h-234l8 72l44 8q9 2 14.5 5.5t13.5 11.5l147 161l-101 162q-5 8 -8.5 11.5t-11.5 5.5l-39 9l12 75h159l10 -8l47 -90l44 -74l87 91l-49 7l13 74h227l-10 -74l-44 -10q-9 -2 -14.5 -6t-13.5 -13l-143 -144l109 -175
q5 -8 9.5 -12t12.5 -6l51 -8l-12 -73h-172z" />
    <glyph glyph-name="afii10088" unicode="&#x446;" horiz-adv-x="623" 
d="M528 111q-3 -20 3 -28t28 -8h40l-28 -216l-105 10l2 121q-42 4 -61.5 25t-11.5 66l1 6l-2 1q-16 -13 -36.5 -30.5t-44.5 -33t-52 -26t-60 -10.5q-65 0 -92 32t-27 93q0 13 1 27.5t3 29.5l33 242q2 12 0 15.5t-13 5.5l-39 7l12 81h195l7 -7l-44 -318q-2 -13 -3 -24t-1 -19
q0 -19 7 -27.5t25 -8.5q17 0 34.5 7.5t34.5 19t32 23.5t25 21l31 226q2 12 0 15t-13 5l-32 5l13 82h189l7 -8z" />
    <glyph glyph-name="afii10089" unicode="&#x447;" horiz-adv-x="585" 
d="M193 163q-61 0 -87.5 28t-26.5 81q0 20 3 42l16 107q3 14 -9 17l-41 8l11 75h194l6 -7l-25 -184q-5 -30 2.5 -42.5t30.5 -12.5t50.5 11.5t62.5 37.5l14 95q3 15 -9 18l-37 8l11 76h188l6 -7l-58 -414q-1 -8 1 -11t10 -4l48 -7l-11 -78h-205l-4 9l33 209l-2 2
q-46 -26 -86.5 -41.5t-85.5 -15.5z" />
    <glyph glyph-name="afii10090" unicode="&#x448;" horiz-adv-x="879" 
d="M275 521l6 -7l-45 -327q-1 -9 -2.5 -20.5t0 -21.5t8 -17t21.5 -7q21 0 47.5 18.5t61.5 50.5l33 226q2 12 0 15.5t-13 5.5l-39 10l11 74h197l5 -8l-47 -326q-2 -8 -2.5 -18.5t-0.5 -16.5q0 -12 6 -21t20 -9q26 0 55.5 22t57.5 46l31 225q2 12 0 15.5t-13 6.5l-39 10l11 74
h195l7 -7l-57 -410q-2 -8 -0.5 -13.5t9.5 -7.5l51 -10l-10 -73h-199l11 81l-2 1q-21 -18 -42.5 -34.5t-44.5 -29.5t-49.5 -21t-56.5 -8q-41 2 -62 26.5t-23 65.5l-3 1q-18 -16 -38.5 -32.5t-43 -30t-47.5 -22t-52 -8.5q-60 0 -84 28t-24 83q0 14 1.5 29.5t3.5 32.5l36 254
q2 12 0 15.5t-13 5.5l-49 10l10 74h206z" />
    <glyph glyph-name="afii10091" unicode="&#x449;" horiz-adv-x="881" 
d="M657 88q-21 -18 -43.5 -35.5t-47.5 -31.5t-52 -23t-57 -9q-41 2 -62 26.5t-23 65.5l-3 1q-18 -16 -38.5 -32.5t-43 -30t-47.5 -22t-52 -8.5q-60 0 -84 28t-24 83q0 14 1.5 29.5t3.5 32.5l36 254q2 12 0 15.5t-13 5.5l-49 10l10 74h206l6 -7l-45 -327q-1 -9 -2.5 -20.5
t0 -21.5t8 -17t21.5 -7q21 0 47.5 18.5t61.5 50.5l33 226q2 12 0 15.5t-13 5.5l-39 10l11 74h197l5 -8l-47 -326q-2 -8 -2.5 -18.5t-0.5 -16.5q0 -12 6 -21t20 -9q26 0 55.5 22t57.5 46l31 225q2 12 0 15.5t-13 6.5l-39 10l11 74h195l7 -7l-56 -403l-1 -7q-2 -17 5 -23
t27 -6h40l-28 -216l-105 10l2 121q-42 4 -61.5 25t-11.5 66l1 6z" />
    <glyph glyph-name="afii10092" unicode="&#x44a;" horiz-adv-x="629" 
d="M456 331q78 0 120 -38t42 -107q0 -54 -22 -92t-58 -61.5t-82 -34t-95 -10.5q-58 0 -108.5 9t-76.5 17l55 400h-49q-11 0 -15 -11l-19 -62l-107 -6l26 186h324l5 -9l-28 -192q16 4 39.5 7.5t48.5 3.5zM337 95q8 -2 22 -4t27 -2q36 0 60 21t24 66q0 35 -20.5 48t-48.5 13
q-27 0 -45 -5z" />
    <glyph glyph-name="afii10093" unicode="&#x44b;" horiz-adv-x="805" 
d="M346 331q78 0 120 -38.5t42 -107.5q0 -54 -21 -91.5t-56.5 -61t-80.5 -34t-93 -10.5q-63 0 -113.5 9t-76.5 17l54 394q2 10 -1 14t-9 6l-48 16l10 77h211l4 -5l-29 -196q16 3 39 7t48 4zM228 95q8 -2 21.5 -4t26.5 -2q36 0 60 20.5t24 64.5q0 32 -18.5 47t-41.5 15
q-14 0 -26 -1.5t-27 -5.5zM554 0l-2 5l24 135l37 267q3 17 -10 21l-49 17l10 76h213l-59 -420q-2 -12 0.5 -15t13.5 -5l48 -7l-10 -74h-216z" />
    <glyph glyph-name="afii10094" unicode="&#x44c;" horiz-adv-x="524" 
d="M350 331q78 0 120.5 -38t42.5 -107q0 -54 -20.5 -92t-55 -61.5t-80.5 -34t-97 -10.5q-29 0 -58 2.5t-54.5 6.5t-46.5 8.5t-34 8.5l54 394q2 10 -1 14t-9 6l-48 16l10 77h211l4 -5l-29 -196q16 3 41.5 7t49.5 4zM228 95q8 -2 24 -4t29 -2q36 0 59.5 21t23.5 66
q0 35 -20.5 48t-47.5 13q-14 0 -27 -1.5t-21 -3.5z" />
    <glyph glyph-name="afii10095" unicode="&#x44d;" horiz-adv-x="559" 
d="M399 311q1 60 -31 89t-84 29q-20 0 -37 -2.5t-29 -7.5q-8 -2 -9.5 -5.5t-3.5 -8.5l-20 -64l-105 -6l21 158q17 7 40 14t50.5 12t57 8.5t59.5 3.5q122 0 180.5 -63t58.5 -169q0 -67 -21.5 -124t-61.5 -98.5t-97 -65t-129 -23.5q-65 0 -119 17t-88 41l47 98q9 -6 25 -14
t35.5 -14.5t42 -11t46.5 -4.5q57 0 96.5 28t58.5 81h-170l14 102h173z" />
    <glyph glyph-name="afii10096" unicode="&#x44e;" horiz-adv-x="827" 
d="M63 0q-1 1 -1 2t-1 2l61 403q3 17 -10 22l-50 16l10 76h213l-31 -211h76q23 103 91.5 162t181.5 59q58 0 98 -16.5t65 -46t36 -69t11 -84.5q0 -72 -18 -132.5t-52.5 -103.5t-86 -67t-117.5 -24q-108 0 -163.5 55.5t-56.5 164.5h-80l-31 -208h-145zM545 93q33 0 55 21
t35 54t18.5 72t5.5 75q0 18 -2 37t-9 34.5t-20.5 26t-36.5 10.5q-35 0 -57.5 -22t-36 -55t-18.5 -71t-5 -69q0 -18 2 -37.5t9 -36.5t21.5 -28t38.5 -11z" />
    <glyph glyph-name="afii10097" unicode="&#x44f;" horiz-adv-x="606" 
d="M421 419q-13 5 -31 7.5t-35 2.5q-36 0 -60.5 -15.5t-24.5 -53.5q0 -33 22.5 -47.5t57.5 -14.5h54zM19 75l47 8q11 2 16 5t11 14l47 75q16 26 31 41t44 23v3q-18 5 -35.5 14.5t-30.5 23.5t-21 34.5t-8 47.5q0 47 19 78.5t52 51.5t78.5 28.5t97.5 8.5q23 0 52.5 -2.5t59 -7
t56 -11.5t43.5 -16l-54 -399q-2 -8 0 -10.5t10 -3.5l47 -5l-10 -76h-201l-6 8l28 196h-56q-18 0 -29.5 -10t-22.5 -29q-21 -36 -43 -78t-42 -87h-190z" />
    <glyph glyph-name="afii10071" unicode="&#x451;" horiz-adv-x="505" 
d="M461 38q-49 -23 -101 -36.5t-106 -13.5q-59 0 -99.5 16.5t-66 45t-36.5 67.5t-11 84q0 79 23.5 140.5t64 103.5t94.5 64t115 22q83 0 123.5 -35t40.5 -97q0 -54 -26 -89.5t-69 -58.5t-98 -35t-114 -18q1 -19 6 -37t16.5 -31.5t30 -21.5t46.5 -8q27 0 63.5 8.5t81.5 27.5z
M201 295q16 2 44 7.5t55 16t46.5 26.5t19.5 40q0 38 -48 38q-42 0 -74 -34t-43 -94zM311 674q0 -35 -23 -56.5t-58 -21.5q-29 0 -46 17t-17 45q0 35 23.5 56t58.5 21q30 0 46 -16.5t16 -44.5zM519 674q0 -35 -23 -56.5t-58 -21.5q-29 0 -46 17t-17 45q0 35 23.5 56t58.5 21
q30 0 46 -16.5t16 -44.5z" />
    <glyph glyph-name="afii10099" unicode="&#x452;" horiz-adv-x="604" 
d="M266 -101q37 0 68.5 26t54 75t35.5 120t13 161q0 52 -13 71t-38 19q-17 0 -35 -6t-35 -14.5t-32 -19t-26 -19.5l-29 -210q-2 -11 0 -15t13 -6l45 -7l-10 -74h-269l11 75l44 6q10 2 13 5.5t5 14.5l62 442h-61l11 77h61l3 23q1 15 -10 19l-50 17l12 76h205l-19 -135h164
l-11 -77h-164l-18 -121l3 -2q35 28 78.5 52.5t96.5 24.5q38 0 64 -14.5t42.5 -41.5t24 -64.5t7.5 -83.5q0 -56 -6 -115.5t-20 -117t-37 -108.5t-57 -90t-80.5 -61.5t-106.5 -22.5q-29 0 -61.5 6.5t-50.5 16.5l40 110q12 -5 27.5 -8.5t35.5 -3.5z" />
    <glyph glyph-name="afii10100" unicode="&#x453;" horiz-adv-x="485" 
d="M455 697l-77 85l-164 -163l55 -58zM277 441q-31 0 -55 -8q-8 -2 -10.5 -6t-4.5 -9l-20 -66h-111l19 138q16 8 39.5 15.5t51 13t57.5 9t59 3.5q39 0 72.5 -8t57.5 -25t38 -43.5t14 -62.5q0 -43 -15 -72.5t-39.5 -49t-54.5 -32t-60 -21.5q-64 -19 -93.5 -32.5t-29.5 -43.5
q0 -23 17 -33t43 -10q75 0 151 61l55 -82q-51 -45 -109.5 -67t-119.5 -22q-92 0 -142 38.5t-50 106.5q0 48 18.5 78t47.5 49.5t63.5 31t67.5 21.5q21 6 39.5 13t32.5 16t22 21.5t8 30.5q0 23 -15.5 35t-43.5 12z" />
    <glyph glyph-name="afii10101" unicode="&#x454;" horiz-adv-x="541" 
d="M497 41q-46 -28 -103 -40.5t-111 -12.5q-64 0 -110 16.5t-75.5 47t-43 72.5t-13.5 93q0 75 23 133.5t65.5 98.5t103 61t135.5 21q54 0 104.5 -12t77.5 -26l-22 -160l-104 9l-2 64q0 6 -1.5 10t-7.5 6q-8 3 -22.5 4t-32.5 1q-53 0 -94.5 -28t-56.5 -86h165l-14 -102h-165
q4 -60 36 -85.5t87 -25.5q50 0 89 13t62 26z" />
    <glyph glyph-name="afii10102" unicode="&#x455;" horiz-adv-x="478" 
d="M353 363l-2 52q0 6 -2 10t-10 6q-20 5 -56 5q-32 0 -53.5 -11t-21.5 -37q0 -24 23 -36t56 -23q27 -9 55.5 -20t52.5 -28.5t39.5 -43.5t15.5 -66q0 -49 -19 -83.5t-51.5 -56.5t-75.5 -32.5t-91 -10.5q-35 0 -67 4t-57.5 9t-43 11.5t-23.5 10.5l19 145l102 -6l3 -58
q0 -12 11 -16t28.5 -6.5t42.5 -2.5q42 0 64 14.5t22 40.5q0 30 -25.5 41.5t-68.5 24.5q-27 8 -54 18.5t-48 28t-34.5 43.5t-13.5 65q0 46 18.5 79.5t50 55t73.5 31.5t88 10q29 0 57 -3t51 -7.5t41 -9.5t28 -9l-20 -145z" />
    <glyph glyph-name="afii10103" unicode="&#x456;" horiz-adv-x="318" 
d="M210 601q-37 0 -57 20t-20 55q0 48 27 75.5t76 27.5q37 0 57.5 -19t20.5 -55q0 -48 -27.5 -76t-76.5 -28zM64 0l-2 5l24 135l37 267q3 17 -10 21l-49 17l10 76h213l-59 -420q-2 -12 0.5 -15t13.5 -5l48 -7l-10 -74h-216z" />
    <glyph glyph-name="afii10104" unicode="&#x457;" horiz-adv-x="324" 
d="M66 0l-3 5l24 135l38 267q3 17 -11 21l-49 17l11 76h213l-59 -420q-2 -12 0 -15t13 -5l48 -7l-9 -74h-216zM287 596q-29 0 -46 16.5t-17 43.5q0 35 23 57t59 22q29 0 45.5 -15.5t16.5 -43.5q0 -35 -22.5 -57.5t-58.5 -22.5zM107 596q-29 0 -46 16.5t-17 43.5q0 35 23 57
t59 22q29 0 45.5 -15.5t16.5 -43.5q0 -35 -22.5 -57.5t-58.5 -22.5z" />
    <glyph glyph-name="afii10105" unicode="&#x458;" horiz-adv-x="315" 
d="M124 407q1 16 -10 21l-51 17l10 76h213l-79 -574q-13 -92 -62 -131t-132 -39q-30 0 -56 6t-46.5 14t-34 16.5t-19.5 14.5l51 83q11 -7 34 -16.5t49 -9.5q30 0 46.5 17t24.5 70zM210 601q-38 0 -58 20t-20 55q0 48 27.5 75.5t75.5 27.5q38 0 58.5 -19t20.5 -55
q0 -48 -28 -76t-76 -28z" />
    <glyph glyph-name="afii10106" unicode="&#x459;" horiz-adv-x="830" 
d="M592 521l3 -6l-29 -200q15 3 40.5 5t42.5 2q85 0 126 -38.5t41 -103.5q0 -51 -20 -87.5t-53.5 -60t-77.5 -34t-92 -10.5q-49 0 -101 7t-97 22l55 397h-109q-11 -62 -21 -113.5t-24 -102.5q-12 -46 -29.5 -84.5t-43 -66.5t-61 -43t-85.5 -15h-13.5t-14.5 1l-13 118
q42 0 69 12.5t45 46.5t32 94t30 155q3 16 -11 17l-48 10l12 78h447zM536 98q8 -2 22 -4t28 -2q36 0 59 20t23 56q0 30 -18.5 45.5t-53.5 15.5q-19 0 -42 -5z" />
    <glyph glyph-name="afii10107" unicode="&#x45a;" horiz-adv-x="841" 
d="M576 -12q-29 0 -57.5 2.5t-53.5 7t-45.5 9.5t-33.5 10l27 198h-166l-30 -215h-142l-7 8l57 402q3 15 -11 20l-48 15l11 76h205l6 -9l-27 -191h167l29 200h144l4 -6l-28 -199q15 3 39.5 5.5t47.5 2.5q81 0 122 -39.5t41 -104.5q0 -52 -20 -88.5t-54 -59.5t-80 -33.5
t-97 -10.5zM547 97q8 -2 22.5 -4t28.5 -2q36 0 58.5 21.5t22.5 58.5q0 32 -18 45.5t-44 13.5q-16 0 -30 -2t-22 -4z" />
    <glyph glyph-name="afii10108" unicode="&#x45b;" horiz-adv-x="621" 
d="M228 101q-2 -12 0 -15t13 -5l48 -7l-10 -74h-270l10 75l44 6q10 2 13 5.5t5 14.5l61 436h-61l12 83h61l3 21q3 17 -9 21l-50 17l11 76h204l-19 -135h165l-12 -83h-164l-18 -132l3 -2q23 19 43.5 36t42.5 30t45.5 20.5t51.5 7.5q65 0 90.5 -36.5t25.5 -95.5q0 -21 -3 -42
l-33 -222q-2 -12 0 -15t13 -5l49 -7l-10 -74h-214l-2 6l46 293q2 12 2.5 24t-2 22t-9 16t-20.5 6q-16 0 -33 -7t-33.5 -17t-32 -22.5t-28.5 -24.5z" />
    <glyph glyph-name="afii10109" unicode="&#x45c;" horiz-adv-x="587" 
d="M332 561l-55 58l164 163l77 -85zM256 308h26q24 0 41 8.5t36 44.5l45 88q11 21 21.5 36t24 25t31 15t41.5 6q20 0 40.5 -2.5t39.5 -8.5l-16 -93q-13 3 -23 3q-19 0 -29 -9.5t-20 -28.5l-30 -58q-15 -29 -32.5 -41.5t-45.5 -19.5l-1 -4q17 -5 31 -18.5t25 -43.5l39 -102
q4 -8 7.5 -12.5t12.5 -6.5l54 -8l-10 -78h-185q-12 51 -26 95t-25 71q-12 32 -24 41.5t-36 9.5h-23l-30 -217h-150l59 414q2 8 -0.5 12t-8.5 6l-46 13l11 76h200l5 -8z" />
    <glyph glyph-name="afii10110" unicode="&#x45e;" horiz-adv-x="575" 
d="M209 3l-112 418q-3 9 -6.5 12t-11.5 5l-39 9l12 74h176l10 -11l27 -129l45 -209h5l127 266l-61 9l11 74h185l14 -31l-290 -571q-19 -36 -38.5 -62.5t-44 -44t-55 -26.5t-70.5 -9q-27 0 -51 5.5t-43.5 13t-33 16.5t-20.5 15l51 85q15 -9 40.5 -19t50.5 -10q32 0 54 19.5
t40 50.5zM528 709q-24 -73 -69.5 -106.5t-118.5 -33.5q-78 0 -119.5 36.5t-47.5 101.5l101 30q2 -40 18.5 -61t52.5 -21q33 0 53 19.5t34 60.5z" />
    <glyph glyph-name="afii10193" unicode="&#x45f;" horiz-adv-x="618" 
d="M340 -39l-41 -157l-106 -8l27 152zM380 0l10 80l-3 1q-16 -13 -35 -29.5t-42 -30.5t-50 -23.5t-59 -9.5q-65 0 -92 32t-27 93q0 13 1 27.5t3 29.5l33 242q2 12 0 15.5t-13 5.5l-39 7l12 81h195l7 -7l-44 -318q-2 -13 -3 -24t-1 -19q0 -19 7 -27.5t25 -8.5q17 0 34.5 7.5
t34.5 19t32 23.5t25 21l31 226q2 12 0 15t-13 5l-32 5l13 82h189l7 -8l-59 -411q-2 -10 -0.5 -14.5t11.5 -6.5l50 -7l-10 -74h-198z" />
    <glyph glyph-name="afii10050" unicode="&#x490;" horiz-adv-x="581" 
d="M343 615l-71 -512q-2 -11 0 -14.5t13 -4.5l141 -9l-11 -75h-389l11 75l64 7q11 2 13.5 5.5t4.5 14.5l73 517q2 11 -0.5 14.5t-13.5 5.5l-62 7l11 78h382q14 0 17 12l29 89l110 8l-31 -218h-291z" />
    <glyph glyph-name="afii10098" unicode="&#x491;" horiz-adv-x="475" 
d="M10 0l10 75l47 5q8 1 10 3.5t4 10.5l46 331q1 13 -10 14l-46 5l11 77h280q12 0 15 9l24 72l111 9l-27 -195h-210l-45 -321q-2 -8 -0.5 -10.5t9.5 -2.5l101 -7l-11 -75h-319z" />
    <glyph glyph-name="thinspace" unicode="&#x2009;" horiz-adv-x="125" 
 />
    <glyph glyph-name="endash" unicode="&#x2013;" horiz-adv-x="499" 
d="M11 227l15 107h499l-15 -107h-499z" />
    <glyph glyph-name="emdash" unicode="&#x2014;" horiz-adv-x="1000" 
d="M11 227l15 107h1000l-15 -107h-1000z" />
    <glyph glyph-name="quoteleft" unicode="&#x2018;" horiz-adv-x="216" 
d="M230 537q-25 0 -47 3t-38.5 10.5t-26.5 20t-10 33.5q0 19 8.5 35.5t20.5 36.5l62 100l60 -21l-36 -98q-3 -8 5 -11l35 -14z" />
    <glyph glyph-name="quoteright" unicode="&#x2019;" horiz-adv-x="218" 
d="M114 557l36 97q3 9 -5 12l-34 14l33 94q24 0 46 -2.5t38.5 -9t26.5 -19t10 -32.5q0 -19 -8.5 -37t-20.5 -38l-62 -100z" />
    <glyph glyph-name="quotesinglbase" unicode="&#x201a;" horiz-adv-x="214" 
d="M26 -115l36 98q3 8 -5 11l-35 14l34 95q24 0 46 -2.5t38.5 -9t26.5 -19t10 -33.5q0 -19 -8.5 -36.5t-20.5 -37.5l-62 -101z" />
    <glyph glyph-name="quotedblleft" unicode="&#x201c;" horiz-adv-x="394" 
d="M408 537q-25 0 -47 3t-38.5 10.5t-26.5 20t-10 33.5q0 19 8.5 35.5t20.5 36.5l62 100l60 -21l-36 -98q-3 -8 5 -11l35 -14zM230 537q-25 0 -47 3t-38.5 10.5t-26.5 20t-10 33.5q0 19 8.5 35.5t20.5 36.5l62 100l60 -21l-36 -98q-3 -8 5 -11l35 -14z" />
    <glyph glyph-name="quotedblright" unicode="&#x201d;" horiz-adv-x="396" 
d="M292 557l36 97q3 9 -5 12l-34 14l33 94q24 0 46 -2.5t38.5 -9t26.5 -19t10 -32.5q0 -19 -8.5 -37t-20.5 -38l-62 -100zM114 557l36 97q3 9 -5 12l-34 14l33 94q24 0 46 -2.5t38.5 -9t26.5 -19t10 -32.5q0 -19 -8.5 -37t-20.5 -38l-62 -100z" />
    <glyph glyph-name="quotedblbase" unicode="&#x201e;" horiz-adv-x="392" 
d="M204 -115l36 98q3 8 -5 11l-35 14l34 95q24 0 46 -2.5t38.5 -9t26.5 -19t10 -33.5q0 -19 -8.5 -36.5t-20.5 -37.5l-62 -101zM26 -115l36 98q3 8 -5 11l-35 14l34 95q24 0 46 -2.5t38.5 -9t26.5 -19t10 -33.5q0 -19 -8.5 -36.5t-20.5 -37.5l-62 -101z" />
    <glyph glyph-name="dagger" unicode="&#x2020;" horiz-adv-x="402" 
d="M118 -83l27 189l10 214l67 112h34l38 -112l-49 -214l-27 -189h-100zM134 396h-74l15 104h74l78 -35l-5 -33zM227 465l-23 96l12 84h105l-12 -84l-49 -96h-33zM335 396l-79 36l4 33l90 35h73l-15 -104h-73z" />
    <glyph glyph-name="daggerdbl" unicode="&#x2021;" horiz-adv-x="420" 
d="M131 -83l12 84l50 96l-89 -36h-74l15 104h74l78 -35l-34 116l10 75l67 111l-89 -36h-74l16 104h74l77 -35l-22 96l12 84h105l-12 -84l-49 -96l90 35h73l-15 -104h-74l-78 36l38 -111l-10 -75l-71 -116l89 35h73l-14 -104h-74l-78 36l21 -96l-12 -84h-105zM278 465h-34
l-4 -33h34zM231 130h-34l-4 -33h34z" />
    <glyph glyph-name="bullet" unicode="&#x2022;" horiz-adv-x="412" 
d="M375 279q0 -73 -39 -109.5t-113 -36.5q-73 0 -111.5 36.5t-38.5 109.5t38.5 109.5t111.5 36.5q74 0 113 -36.5t39 -109.5z" />
    <glyph glyph-name="ellipsis" unicode="&#x2026;" horiz-adv-x="712" 
d="M434 76q0 -42 -24.5 -65t-72.5 -23q-76 0 -76 67q0 43 24.5 66t73.5 23q39 0 57 -17t18 -51zM652 76q0 -42 -24.5 -65t-72.5 -23q-76 0 -76 67q0 43 24.5 66t73.5 23q39 0 57 -17t18 -51zM216 76q0 -42 -24.5 -65t-72.5 -23q-76 0 -76 67q0 43 24.5 66t73.5 23
q39 0 57 -17t18 -51z" />
    <glyph glyph-name="perthousand" unicode="&#x2030;" horiz-adv-x="1138" 
d="M207 295q-71 0 -101.5 35.5t-30.5 92.5q0 93 47.5 145t136.5 52q69 0 100.5 -33.5t31.5 -93.5q0 -91 -48 -144.5t-136 -53.5zM117 -17l466 638h138l-465 -638h-139zM221 370q19 0 31.5 9t19.5 25t10 37.5t3 45.5q0 29 -9 43t-30 14q-32 0 -48.5 -30t-16.5 -84
q0 -60 40 -60zM583 -12q-72 0 -101.5 35t-29.5 92q0 94 47.5 146t136.5 52q69 0 100.5 -34t31.5 -94q0 -91 -48.5 -144t-136.5 -53zM597 63q19 0 31.5 9t19.5 25t10 37.5t3 45.5q0 57 -38 57q-33 0 -49 -30t-16 -84q0 -60 39 -60zM924 -12q-72 0 -102 35t-30 92
q0 94 47.5 146t135.5 52q69 0 101 -34t32 -94q0 -91 -48 -144t-136 -53zM937 63q19 0 31.5 9t20 25t10.5 37.5t3 45.5q0 57 -39 57q-33 0 -49 -30t-16 -84q0 -60 39 -60z" />
    <glyph glyph-name="guilsinglleft" unicode="&#x2039;" horiz-adv-x="278" 
d="M113 103l-64 154l110 151h123l-100 -140q-5 -6 -5.5 -9.5t1.5 -9.5l56 -146h-121z" />
    <glyph glyph-name="guilsinglright" unicode="&#x203a;" horiz-adv-x="278" 
d="M33 103l98 146q4 6 4.5 9.5t-2.5 9.5l-60 140h122l67 -152l-107 -153h-122z" />
    <glyph glyph-name="fraction" unicode="&#x2044;" horiz-adv-x="224" 
d="M-157 -17l462 741h138l-461 -741h-139z" />
    <glyph glyph-name="Euro" unicode="&#x20ac;" horiz-adv-x="558" 
d="M253 265v-13q0 -79 23 -116.5t72 -37.5q29 0 49 7q10 4 13 16l25 79l102 5l-24 -174q-12 -7 -34 -15t-48.5 -14t-56 -10t-58.5 -4q-112 0 -166.5 67.5t-54.5 195.5v14h-69l37 117h44q15 72 46.5 123.5t72.5 85t90.5 49t100.5 15.5q28 0 55 -4t50.5 -10t42 -13.5
t29.5 -15.5l-24 -170l-101 5l-4 78q0 6 -1.5 10t-7.5 6q-9 3 -20.5 5t-30.5 2q-21 0 -42.5 -9t-40.5 -28.5t-34 -51t-24 -77.5h158l-35 -117h-134z" />
    <glyph glyph-name="afii61352" unicode="&#x2116;" horiz-adv-x="1120" 
d="M451 0l-178 434l-46 -328q-2 -12 0 -15t13 -5l66 -8l-11 -78h-277l10 78l64 7q11 2 14 5.5t5 14.5l59 426q2 11 0 15t-13 5l-62 7l11 78h248l173 -435l46 328q2 11 0 15t-13 5l-62 7l11 80h278l-11 -80l-68 -8q-11 -2 -14 -5t-5 -14l-74 -529h-164zM721 184h329l-14 -96
h-329zM881 213q-82 0 -117.5 41t-35.5 106q0 47 14 85.5t41 66t68 43t95 15.5q39 0 67.5 -11.5t47 -31t27 -46.5t8.5 -58q0 -46 -13 -85t-39.5 -66.5t-67 -43t-95.5 -15.5zM896 290q36 0 58 31t22 103q0 68 -48 68q-33 0 -57 -28.5t-24 -102.5q0 -38 13 -54.5t36 -16.5z" />
    <glyph glyph-name="trademark" unicode="&#x2122;" horiz-adv-x="847" 
d="M177 348v46l53 5v270h-70l-7 -51h-45v106h322v-106h-46l-6 51h-71v-270l57 -5v-46h-187zM744 348v45l41 5v189l-80 -158h-60l-78 159v-190l44 -5v-45h-150v45l36 5v273l-36 4v49h110l106 -218l109 218h106v-49l-38 -4v-273l40 -5v-45h-150z" />
    <glyph glyph-name="partialdiff" unicode="&#x2202;" horiz-adv-x="591" 
d="M422 368q4 23 6 44.5t2 38.5q0 52 -21 82.5t-70 30.5q-39 0 -79.5 -16.5t-69.5 -36.5l-48 91q46 31 108.5 52t128.5 21q54 0 91.5 -19.5t61.5 -53.5t34.5 -78.5t10.5 -94.5q0 -40 -5.5 -88.5t-19 -97.5t-37 -95t-60 -81.5t-87.5 -57t-119 -21.5q-95 0 -147.5 45
t-52.5 130q0 57 18 103t50 79t75.5 50.5t95.5 17.5q48 0 80.5 -15t53.5 -30zM403 277q-18 12 -41.5 23.5t-52.5 11.5q-27 0 -46.5 -12t-32.5 -31.5t-19.5 -43.5t-6.5 -49q0 -30 14 -54t51 -24q30 0 52.5 15.5t38.5 41t26.5 57.5t16.5 65z" />
    <glyph glyph-name="product" unicode="&#x220f;" horiz-adv-x="800" 
d="M414 -176l10 74l64 7q11 2 14 5.5t5 14.5l97 690h-274l-97 -689q-2 -12 0 -15t13 -5l66 -8l-10 -74h-317l10 74l64 7q11 2 14 5.5t5 14.5l99 696q2 11 -0.5 15t-13.5 5l-62 7l11 76h745l-11 -76l-68 -8q-11 -2 -13.5 -5t-4.5 -14l-99 -695q-2 -12 0 -15t13 -5l66 -8
l-10 -74h-316z" />
    <glyph glyph-name="summation" unicode="&#x2211;" horiz-adv-x="627" 
d="M-40 -176l12 90l277 356l-163 375l11 79h549l-29 -202l-109 5l-3 76q-1 13 -16 13h-222l136 -330l-259 -334h274q8 0 11.5 1.5t6.5 9.5l28 88h109l-31 -227h-582z" />
    <glyph glyph-name="minus" unicode="&#x2212;" horiz-adv-x="570" 
d="M106 265l16 116h387l-16 -116h-387z" />
    <glyph glyph-name="radical" unicode="&#x221a;" horiz-adv-x="589" 
d="M251 0l-90 208q-4 10 -16 7l-64 -14l-27 86l177 80l89 -227l246 606l118 -30l-293 -716h-140z" />
    <glyph glyph-name="infinity" unicode="&#x221e;" horiz-adv-x="653" 
d="M210 466q55 0 90 -22t61 -54q28 29 65.5 52.5t85.5 23.5q26 0 49.5 -8.5t41 -25t28 -41.5t10.5 -58q0 -31 -10 -60t-29.5 -51t-47.5 -35t-64 -13q-54 0 -90.5 25t-62.5 56q-27 -30 -63.5 -55.5t-82.5 -25.5q-28 0 -52.5 8t-42.5 24.5t-28.5 42t-10.5 61.5q0 31 10.5 59
t30 49.5t48 34.5t64.5 13zM195 248q28 0 51.5 18.5t45.5 44.5q-23 32 -46.5 51t-52.5 19q-27 0 -43 -18t-16 -47q0 -25 12 -46.5t49 -21.5zM506 397q-29 0 -52.5 -17t-47.5 -44q22 -26 47.5 -47t54.5 -21q26 0 42 16.5t16 48.5q0 25 -14 44.5t-46 19.5z" />
    <glyph glyph-name="integral" unicode="&#x222b;" horiz-adv-x="454" 
d="M111 -69q18 -9 35 -12.5t31 -3.5q20 0 32 13t8 56l-51 587q-4 44 7.5 74t32.5 48t48.5 26t55.5 8q32 0 62 -6t62 -17l-26 -98q-19 9 -34.5 12.5t-29.5 3.5q-21 0 -33.5 -12.5t-9.5 -45.5l52 -598q4 -45 -7 -75t-31.5 -47.5t-47 -25t-53.5 -7.5q-37 0 -70 7t-59 18z" />
    <glyph glyph-name="approxequal" unicode="&#x2248;" horiz-adv-x="530" 
d="M525 496q-8 -25 -18 -47.5t-23.5 -40t-32 -28t-44.5 -10.5q-27 0 -56 6t-57 12.5t-54.5 12.5t-48.5 6q-19 0 -31.5 -9t-29.5 -32l-67 32q29 53 58.5 84t75.5 31q29 0 56.5 -6t54 -13t52 -13t49.5 -6q17 0 25.5 11t18.5 31zM513 303q-8 -25 -18 -47.5t-23.5 -40t-32 -28
t-43.5 -10.5q-27 0 -56 6t-57.5 12.5t-55 12.5t-48.5 6q-20 0 -31.5 -9t-28.5 -32l-68 32q29 53 58.5 84t75.5 31q29 0 56.5 -6t54 -13t52 -13t49.5 -6q17 0 25.5 10.5t19.5 31.5z" />
    <glyph glyph-name="notequal" unicode="&#x2260;" horiz-adv-x="570" 
d="M276 130l-45 -88h-106q2 4 4.5 7.5t4.5 8.5l37 72h-82l17 117h126l35 69h-152l17 117h196l46 90h106l-46 -90h84l-17 -117h-129l-35 -69h155l-17 -117h-199z" />
    <glyph glyph-name="lessequal" unicode="&#x2264;" horiz-adv-x="570" 
d="M119 263l19 140l405 142l-10 -117l-281 -91l257 -94l-23 -117zM82 0l16 116h387l-16 -116h-387z" />
    <glyph glyph-name="greaterequal" unicode="&#x2265;" horiz-adv-x="570" 
d="M88 126l12 118l283 94l-256 88l23 119l365 -142l-20 -140zM71 0l16 116h387l-16 -116h-387z" />
    <glyph glyph-name="lozenge" unicode="&#x25ca;" horiz-adv-x="558" 
d="M201 -17l-110 324l201 324h110l109 -324l-200 -324h-110zM398 307l-69 199l-124 -199l67 -206z" />
    <glyph glyph-name="breve.cyr" 
d="M436 709q-24 -73 -69.5 -106.5t-118.5 -33.5q-78 0 -119.5 36.5t-47.5 101.5l101 30q2 -40 18.5 -61t52.5 -21q33 0 53 19.5t34 60.5z" />
    <glyph glyph-name="breve_cyr.cap.smcp" horiz-adv-x="403" 
d="M251 691q34 0 53.5 20.5t33.5 60.5l94 -26q-40 -140 -189 -140q-75 0 -114.5 36.5t-43.5 102.5l101 29q0 -38 15 -60.5t50 -22.5z" />
    <glyph glyph-name="hyphen.case" horiz-adv-x="311" 
d="M38 287l18 127h271l-18 -127h-271z" />
    </font>
</defs>
</svg>
