<?xml version="1.0" standalone="no"?>
<!DOCTYPE svg PUBLIC "-//W3C//DTD SVG 1.1//EN" "http://www.w3.org/Graphics/SVG/1.1/DTD/svg11.dtd" >
<svg xmlns="http://www.w3.org/2000/svg" xmlns:xlink="http://www.w3.org/1999/xlink" version="1.1">
<metadata>
Created by FontForge 20170731 at Wed May 14 19:54:22 2014
 By ,,,
Copyright (c) 2010 by TypeTogether. All rights reserved.This font is ONLY licensed for use when accessed from the Extensis WebINK font service. Any other use of this font file is illegal under United States and international copyright laws. Please respect the rights of the people who design and license fonts.
</metadata>
<defs>
<font id="AdelleCyrillic-Extrabold" horiz-adv-x="500" >
  <font-face 
    font-family="Adelle Cyrillic"
    font-weight="800"
    font-stretch="normal"
    units-per-em="1000"
    panose-1="2 0 5 3 0 0 0 2 0 4"
    ascent="755"
    descent="-245"
    x-height="525"
    cap-height="724"
    bbox="-166 -268 1131 964"
    underline-thickness="50"
    underline-position="-200"
    unicode-range="U+000D-25CA"
  />
<missing-glyph 
 />
    <glyph glyph-name=".notdef" 
 />
    <glyph glyph-name=".null" horiz-adv-x="0" 
 />
    <glyph glyph-name="nonmarkingreturn" unicode="&#xd;" 
 />
    <glyph glyph-name="NULL" horiz-adv-x="0" 
 />
    <glyph glyph-name="NULL" horiz-adv-x="0" 
 />
    <glyph glyph-name="space" unicode=" " horiz-adv-x="190" 
 />
    <glyph glyph-name="exclam" unicode="!" horiz-adv-x="287" 
d="M65 202l-20 339v183h197v-183l-20 -339h-157zM241 75q0 -42 -23.5 -64.5t-73.5 -22.5q-98 0 -98 87q0 42 23.5 64.5t74.5 22.5q49 0 73 -22.5t24 -64.5z" />
    <glyph glyph-name="quotedbl" unicode="&#x22;" horiz-adv-x="435" 
d="M243 447v259h162v-259h-162zM30 447v259h162v-259h-162z" />
    <glyph glyph-name="numbersign" unicode="#" horiz-adv-x="607" 
d="M291 0l16 110h-66l-16 -110h-123l16 110h-90l25 123h84l14 92h-91l25 123h84l15 95h123l-15 -95h66l15 95h123l-15 -95h93l-24 -123h-87l-14 -92h93l-24 -123h-88l-16 -110h-123zM340 325h-66l-14 -92h66z" />
    <glyph glyph-name="dollar" unicode="$" horiz-adv-x="532" 
d="M187 712h170v-75q42 -5 74.5 -13t55.5 -14v-174l-135 7l-13 70q-1 5 -2.5 8t-8.5 5q-11 3 -24 4t-26 1q-34 0 -56.5 -13.5t-22.5 -42.5q0 -16 9.5 -27.5t26 -20t37.5 -15.5t45 -14q32 -10 65 -23t59.5 -34t43.5 -53.5t17 -81.5q0 -81 -41.5 -129.5t-114.5 -66.5v-90h-170
v83q-55 6 -95 16t-50 18v169l135 -8l12 -69q1 -5 3 -8t9 -6q9 -4 24.5 -6.5t36.5 -2.5q38 0 60 17t22 47q0 18 -10 30t-26.5 21t-39 15.5t-46.5 13.5q-31 9 -63.5 21t-58.5 33t-42.5 52.5t-16.5 79.5q0 82 43 129t114 64v83z" />
    <glyph glyph-name="percent" unicode="%" horiz-adv-x="902" 
d="M198 257q-49 0 -82 13.5t-53.5 37.5t-29 56t-8.5 69q0 86 43 136.5t138 50.5q93 0 132.5 -47t39.5 -127q0 -87 -44.5 -138t-135.5 -51zM177 -12l375 632h170l-374 -632h-171zM203 352q20 0 30.5 19.5t10.5 70.5q0 46 -10 64t-31 18q-20 0 -31 -17.5t-11 -65.5
q0 -50 10.5 -69.5t31.5 -19.5zM697 -12q-49 0 -82 13.5t-53.5 37.5t-29 56t-8.5 69q0 86 43 136.5t138 50.5q93 0 132.5 -47t39.5 -127q0 -87 -44.5 -138t-135.5 -51zM702 83q20 0 30.5 19.5t10.5 70.5q0 46 -10 64t-31 18q-20 0 -31 -17.5t-11 -65.5q0 -50 10.5 -69.5
t31.5 -19.5z" />
    <glyph glyph-name="ampersand" unicode="&#x26;" horiz-adv-x="712" 
d="M493 0l-42 47q-37 -27 -84.5 -43t-107.5 -16q-110 0 -172 52.5t-62 153.5q0 67 31 118t96 85q-20 35 -25 60.5t-5 48.5q0 42 15.5 75t43.5 55.5t66 34t84 11.5q59 0 112 -15t82 -34v-171l-131 5l-13 67q-2 7 -4 9t-8 4q-12 3 -24 3q-23 0 -34 -13.5t-11 -34.5
q0 -20 11 -39.5t28 -39.5l97 -112q9 36 12.5 50.5t5.5 25.5h195v-91l-46 -9q-9 -2 -12 -4.5t-5 -12.5q-5 -24 -13 -47.5t-19 -46.5l57 -65q3 -3 6.5 -6t8.5 -4l61 -8v-93h-194zM237 285q-16 -14 -26.5 -32.5t-10.5 -42.5q0 -30 17.5 -53.5t59.5 -23.5q37 0 72 23z" />
    <glyph glyph-name="quotesingle" unicode="'" horiz-adv-x="222" 
d="M30 447v259h162v-259h-162z" />
    <glyph glyph-name="parenleft" unicode="(" horiz-adv-x="390" 
d="M207 -182q-34 42 -65 94t-55 111t-38 124.5t-14 132.5q0 71 14 135t38 123t57 112.5t72 102.5l139 -82q-62 -88 -91 -181.5t-29 -209.5q0 -61 7.5 -112.5t22 -96.5t35.5 -87t48 -85z" />
    <glyph glyph-name="parenright" unicode=")" horiz-adv-x="390" 
d="M174 -182l-139 82q62 88 91 182t29 209q0 62 -7.5 113t-22 96t-35.5 87t-48 85l141 81q34 -42 65 -94t55 -111t38 -124t14 -133q0 -70 -14 -134.5t-38 -123.5t-57 -112.5t-72 -102.5z" />
    <glyph glyph-name="asterisk" unicode="*" horiz-adv-x="480" 
d="M82 448l44 59l91 50l-103 -15l-70 23l38 117l70 -23l75 -71l-45 94v73h123v-73l-44 -94h-34l-10 -31l27 -19l-18 -103l-43 -60zM305 375l-43 60l-18 103l27 19l-10 31l75 71l70 23l38 -117l-70 -23l-103 15l91 -50l44 -59z" />
    <glyph glyph-name="plus" unicode="+" horiz-adv-x="570" 
d="M213 117v138h-125v138h125v134h142v-134h126v-138h-126v-138h-142z" />
    <glyph glyph-name="comma" unicode="," horiz-adv-x="260" 
d="M69 -98l26 109q3 10 -6 13l-44 13l22 124q32 0 60.5 -2.5t50 -11.5t34.5 -26t13 -46q0 -18 -7.5 -40t-15.5 -39l-53 -116z" />
    <glyph glyph-name="hyphen" unicode="-" horiz-adv-x="311" 
d="M20 215v150h271v-150h-271z" />
    <glyph glyph-name="period" unicode="." horiz-adv-x="285" 
d="M240 75q0 -42 -23.5 -64.5t-73.5 -22.5q-98 0 -98 87q0 42 23.5 64.5t74.5 22.5q49 0 73 -22.5t24 -64.5z" />
    <glyph glyph-name="slash" unicode="/" horiz-adv-x="481" 
d="M10 -92l281 847h170l-280 -847h-171z" />
    <glyph glyph-name="zero" unicode="0" horiz-adv-x="609" 
d="M298 -12q-75 0 -126.5 20.5t-83 59.5t-45 96t-13.5 130q0 72 15.5 128t49.5 95t87.5 59t128.5 20q76 0 127.5 -20.5t82.5 -58.5t44.5 -93.5t13.5 -124.5q0 -75 -15.5 -133t-49 -97.5t-87 -60t-129.5 -20.5zM305 116q19 0 33 8t23.5 28t14 54.5t4.5 87.5q0 51 -4 84
t-13 52.5t-22.5 27t-32.5 7.5t-33.5 -7.5t-24.5 -27t-15 -53t-5 -84.5q0 -52 4 -86t13 -54t23.5 -28.5t34.5 -8.5z" />
    <glyph glyph-name="one" unicode="1" horiz-adv-x="441" 
d="M42 0v95l77 6q11 1 13.5 5t2.5 15v322q0 17 -13 21l-82 19l13 97h269v-459q0 -12 2.5 -15t13.5 -5l78 -7v-94h-374z" />
    <glyph glyph-name="two" unicode="2" horiz-adv-x="548" 
d="M249 114h115q7 0 8.5 4t2.5 9l13 75h130v-202h-487v112l131 130l64 64t42 45.5t22.5 35.5t6.5 33t-9.5 31.5t-37.5 14.5q-32 0 -45 -16.5t-13 -64.5l-167 14q0 63 23 102t58 60t78 28t85 7q60 0 101.5 -12t66.5 -33.5t36 -51t11 -65.5q0 -33 -10 -60.5t-27 -52.5t-40 -49
t-49 -50z" />
    <glyph glyph-name="three" unicode="3" horiz-adv-x="538" 
d="M378 267q63 -8 97.5 -46.5t34.5 -107.5q0 -52 -19.5 -89.5t-53.5 -61t-81 -34.5t-101 -11q-79 0 -147.5 25.5t-110.5 70.5l96 106q27 -26 59.5 -45.5t83.5 -19.5q38 0 63.5 15.5t25.5 59.5q0 38 -20.5 53.5t-56.5 15.5q-20 0 -36.5 -1.5t-39.5 -6.5v119l43 5
q47 5 72.5 28.5t25.5 70.5q0 21 -10.5 37t-42.5 16t-46 -16.5t-14 -64.5l-169 14q0 63 21.5 102t56 60t76.5 28t84 7q121 0 172.5 -42t51.5 -129q0 -33 -10 -58.5t-26 -45t-37 -32t-42 -18.5v-4z" />
    <glyph glyph-name="four" unicode="4" horiz-adv-x="590" 
d="M322 -67v126h-292v118l191 428l150 -67l-165 -344h116v138l169 29v-167h79v-135h-79v-126h-169z" />
    <glyph glyph-name="five" unicode="5" horiz-adv-x="548" 
d="M206 434l-11 -113q17 11 47.5 21.5t76.5 10.5q89 0 141 -50t52 -155q0 -47 -16.5 -89t-48.5 -73.5t-80.5 -50t-112.5 -18.5q-89 0 -157 25.5t-110 70.5l96 107q28 -26 64 -46t88 -20q42 0 67 23.5t25 65.5q0 26 -8 41.5t-19 23.5t-24 10.5t-24 2.5q-23 0 -44 -10.5
t-36 -29.5l-120 48l23 351h259q6 0 8 4t3 9l13 55l109 8v-222h-261z" />
    <glyph glyph-name="six" unicode="6" horiz-adv-x="582" 
d="M366 462q0 43 -11 59t-46 16q-45 0 -64 -40t-22 -116q25 11 56.5 18t69.5 7q42 0 79 -10t64.5 -33t43.5 -59.5t16 -89.5q0 -63 -20.5 -106.5t-55.5 -70t-81.5 -38t-98.5 -11.5q-75 0 -126 24t-81.5 67.5t-43.5 104t-13 133.5q0 55 12.5 115.5t44 111t85 83.5t135.5 33
q39 0 80 -6.5t74.5 -25.5t55 -54t21.5 -91zM222 270q1 -32 4.5 -59t12 -47t23 -31t38.5 -11q19 0 31 7.5t19 19.5t9.5 27.5t2.5 30.5q0 43 -14 62.5t-52 19.5q-17 0 -36 -5.5t-38 -13.5z" />
    <glyph glyph-name="seven" unicode="7" horiz-adv-x="542" 
d="M128 -67q9 102 35.5 184.5t59.5 145.5t66.5 106t54.5 65h-163q-7 0 -8.5 -4t-2.5 -9l-15 -80l-130 -10v249h507v-130q-45 -49 -82 -107t-64 -124t-43 -138t-18 -148h-197z" />
    <glyph glyph-name="eight" unicode="8" horiz-adv-x="538" 
d="M421 342q44 -26 71.5 -63t27.5 -94q0 -51 -20 -88.5t-55 -61.5t-83 -35.5t-104 -11.5q-117 0 -177.5 44t-60.5 133q0 57 25.5 97t62.5 68q-32 24 -51 55.5t-19 82.5q0 46 17.5 82t48.5 60.5t74 37t94 12.5q103 0 161 -43t58 -124q0 -47 -20.5 -84.5t-49.5 -66.5zM214 267
q-26 -24 -36.5 -47.5t-10.5 -44.5q0 -32 21.5 -50.5t68.5 -18.5q43 0 60.5 17.5t17.5 42.5q0 19 -11 33t-28.5 25.5t-39 22t-42.5 20.5zM302 399q40 44 40 86q0 27 -17 42t-50 15q-34 0 -48.5 -16t-14.5 -38q0 -32 25.5 -51t64.5 -38z" />
    <glyph glyph-name="nine" unicode="9" horiz-adv-x="580" 
d="M120 105q26 -21 62.5 -37.5t74.5 -16.5q54 0 76 30t26 106q-22 -11 -52 -17.5t-74 -6.5q-39 0 -75.5 11.5t-65 36.5t-45.5 64t-17 94q0 57 18 99.5t51 71t79 42.5t102 14q75 0 127 -24t83.5 -66.5t45.5 -101t14 -127.5q0 -70 -12.5 -135t-44.5 -114.5t-87 -79.5t-139 -30
q-31 0 -63.5 5.5t-61.5 16t-54 25t-43 31.5zM359 307q-1 33 -5.5 61.5t-13.5 49.5t-23 33t-36 12q-20 0 -32 -8t-18.5 -21t-8.5 -27.5t-2 -28.5q0 -45 14 -67t52 -22q17 0 35 5t38 13z" />
    <glyph glyph-name="colon" unicode=":" horiz-adv-x="285" 
d="M240 75q0 -42 -23.5 -64.5t-73.5 -22.5q-98 0 -98 87q0 42 23.5 64.5t74.5 22.5q49 0 73 -22.5t24 -64.5zM240 449q0 -42 -23.5 -64.5t-73.5 -22.5q-98 0 -98 87q0 42 23.5 64.5t74.5 22.5q49 0 73 -22.5t24 -64.5z" />
    <glyph glyph-name="semicolon" unicode=";" horiz-adv-x="260" 
d="M69 -98l26 109q3 10 -6 13l-44 13l22 124q32 0 60.5 -2.5t50 -11.5t34.5 -26t13 -46q0 -18 -7.5 -40t-15.5 -39l-53 -116zM241 449q0 -42 -23.5 -64.5t-73.5 -22.5q-98 0 -98 87q0 42 23.5 64.5t74.5 22.5q49 0 73 -22.5t24 -64.5z" />
    <glyph glyph-name="less" unicode="&#x3c;" horiz-adv-x="570" 
d="M61 211v164l397 134l38 -134l-277 -82l279 -84l-40 -131z" />
    <glyph glyph-name="equal" unicode="=" horiz-adv-x="570" 
d="M88 112v138h393v-138h-393zM88 313v138h393v-138h-393z" />
    <glyph glyph-name="greater" unicode="&#x3e;" horiz-adv-x="570" 
d="M101 78l-40 131l279 84l-277 82l38 134l397 -134v-164z" />
    <glyph glyph-name="question" unicode="?" horiz-adv-x="548" 
d="M132 202v185q34 3 70.5 7t67 16t50 35.5t19.5 64.5q0 38 -17.5 50.5t-45.5 12.5q-16 0 -29 -2t-27 -7q-9 -3 -11 -6t-4 -13l-8 -68l-152 -12v207q66 26 123 39t116 13q51 0 97 -9.5t81 -34t55.5 -65.5t20.5 -104q0 -45 -12.5 -85t-39 -70.5t-68 -50.5t-99.5 -26v-77h-187
zM323 75q0 -42 -23.5 -64.5t-73.5 -22.5q-98 0 -98 87q0 42 23.5 64.5t74.5 22.5q49 0 73 -22.5t24 -64.5z" />
    <glyph glyph-name="at" unicode="@" horiz-adv-x="848" 
d="M624 -157q-32 -14 -81.5 -24.5t-123.5 -10.5q-82 0 -148.5 22.5t-113 67.5t-72 111t-25.5 153q0 93 28.5 168t79.5 128t122.5 81.5t157.5 28.5q78 0 142 -21t110.5 -61.5t72 -100t25.5 -136.5q0 -135 -56 -198t-150 -63q-38 0 -67.5 15.5t-46.5 50.5q-26 -30 -53.5 -48
t-65.5 -18q-48 0 -80.5 35.5t-32.5 107.5q0 53 15 101t43.5 85t69.5 58.5t94 21.5q45 0 80 -9.5t63 -22.5l-21 -135q-4 -25 -8.5 -56t-4.5 -50q0 -18 7 -29.5t29 -11.5q24 0 38 18.5t21 44t9 53.5t2 46q0 49 -13 89t-41.5 68.5t-73.5 44.5t-108 16q-74 0 -125.5 -26t-84 -69
t-47.5 -96.5t-15 -109.5q0 -122 66.5 -189t191.5 -67q45 0 85.5 8.5t79.5 22.5zM495 307q-6 5 -15.5 7t-18.5 2q-18 0 -36 -11t-32.5 -32.5t-23 -52.5t-8.5 -71q0 -39 12 -51t25 -12q16 0 32 9.5t36 31.5z" />
    <glyph glyph-name="A" unicode="A" horiz-adv-x="787" 
d="M429 0v93l81 9l-25 71h-229l-24 -71l78 -9v-93h-310v93l45 11q9 2 15.5 6t9.5 13l218 601h214l214 -603q3 -9 9 -12t15 -5l47 -11v-93h-358zM379 529h-10l-77 -227h159z" />
    <glyph glyph-name="B" unicode="B" horiz-adv-x="668" 
d="M25 0v93l63 7q11 2 13.5 5.5t2.5 14.5v482q0 11 -2.5 15t-13.5 5l-63 7v95h359q64 0 106.5 -13.5t68 -37.5t36 -56.5t10.5 -69.5q0 -36 -10.5 -63.5t-27.5 -48.5t-39 -34.5t-45 -21.5v-3q86 -10 125.5 -55t39.5 -120q0 -55 -21 -93.5t-58 -62.5t-87.5 -34.5t-109.5 -10.5
h-347zM337 129q54 0 83.5 19.5t29.5 74.5q0 28 -8 45t-22 26.5t-32.5 13t-38.5 3.5h-54v-182h42zM307 429q25 0 46.5 3t37.5 12.5t25 26t9 43.5q0 29 -9 44.5t-23.5 23.5t-33 9.5t-37.5 1.5h-27v-164h12z" />
    <glyph glyph-name="C" unicode="C" horiz-adv-x="678" 
d="M633 45q-23 -13 -53 -24t-63.5 -18t-69.5 -11t-70 -4q-94 0 -161.5 25.5t-111 74t-64 118.5t-20.5 158q0 80 24 148.5t71.5 118.5t119 78t166.5 28q60 0 123.5 -15t107.5 -43v-218l-136 11l-16 100q-3 14 -16 17q-16 3 -32.5 5t-34.5 2q-82 0 -130 -56.5t-48 -175.5
q0 -123 46 -180.5t125 -57.5q19 0 40.5 2.5t35.5 5.5q11 2 14.5 5.5t5.5 16.5l15 95h132v-206z" />
    <glyph glyph-name="D" unicode="D" horiz-adv-x="743" 
d="M25 0v95l63 7q11 1 13.5 5t2.5 15v481q0 11 -2.5 14.5t-13.5 5.5l-63 7v94h339q94 0 162 -24.5t111.5 -70t64.5 -110.5t21 -146q0 -83 -22.5 -152t-68.5 -118t-117 -76t-168 -27h-322zM322 129q63 0 103 18t63 50t31.5 75.5t8.5 94.5q0 60 -10.5 103t-34 70.5t-61.5 40.5
t-94 13h-32v-465h26z" />
    <glyph glyph-name="E" unicode="E" horiz-adv-x="627" 
d="M25 0v93l63 7q11 2 13.5 5.5t2.5 14.5v483q0 11 -2.5 15t-13.5 5l-63 7v94h550v-224l-136 5l-14 76q-3 13 -17 13h-112v-164h215v-135h-215v-166h134q8 0 11 1.5t5 9.5l16 88h135v-228h-572z" />
    <glyph glyph-name="F" unicode="F" horiz-adv-x="606" 
d="M25 0v93l63 7q11 2 13.5 5.5t2.5 14.5v483q0 11 -2.5 15t-13.5 5l-63 7v94h546v-224l-136 5l-14 76q-3 13 -17 13h-108v-164h211v-135h-211v-173q0 -12 2.5 -15t13.5 -5l147 -8v-94h-434z" />
    <glyph glyph-name="G" unicode="G" horiz-adv-x="726" 
d="M671 258q-16 -1 -16 -14v-204q-64 -30 -136 -41t-135 -11q-103 0 -173 28.5t-112.5 78.5t-61 118.5t-18.5 148.5q0 81 23.5 149.5t71.5 118.5t120 78.5t169 28.5q24 0 53.5 -3t60 -10.5t60.5 -18.5t55 -28v-208l-137 11l-15 88q-2 12 -6 15.5t-10 5.5q-15 3 -34.5 5
t-35.5 2q-42 0 -74.5 -16.5t-55 -46.5t-34 -72.5t-11.5 -94.5q0 -109 41.5 -174t132.5 -65q13 0 27 0.5t27 2.5q10 2 13.5 5t3.5 13v104h-96l16 105h327v-95z" />
    <glyph glyph-name="H" unicode="H" horiz-adv-x="824" 
d="M449 0v93l63 7q11 2 13.5 5.5t2.5 14.5v183h-232v-182q0 -12 2.5 -15t13.5 -5l67 -8v-93h-354v93l63 7q11 2 13.5 5.5t2.5 14.5v482q0 11 -2.5 15t-13.5 5l-63 7v95h354v-95l-67 -8q-11 -2 -13.5 -5t-2.5 -14v-163h232v163q0 11 -2.5 15t-13.5 5l-63 7v95h354v-95l-67 -8
q-11 -2 -13.5 -5t-2.5 -14v-481q0 -12 2.5 -15t13.5 -5l67 -8v-93h-354z" />
    <glyph glyph-name="I" unicode="I" horiz-adv-x="412" 
d="M21 0v93l73 7q11 1 13.5 5t2.5 15v482q0 11 -2.5 15t-13.5 5l-73 7v95h374v-95l-77 -8q-11 -2 -13.5 -5t-2.5 -14v-481q0 -12 2.5 -15t13.5 -5l77 -8v-93h-374z" />
    <glyph glyph-name="J" unicode="J" horiz-adv-x="529" 
d="M242 603q0 10 -3 13.5t-13 4.5l-93 8v95h384v-95l-67 -8q-11 -2 -13.5 -5t-2.5 -14v-430q0 -94 -47.5 -139t-154.5 -45q-31 0 -63 3.5t-60 9.5t-50 13.5t-34 14.5v202l137 -10l11 -73q1 -11 10 -12q3 -1 11.5 -2t16.5 -1q17 0 24 7.5t7 29.5v433z" />
    <glyph glyph-name="K" unicode="K" horiz-adv-x="763" 
d="M500 0l-150 263l-54 -66v-75q0 -12 2.5 -15t13.5 -5l72 -8v-94h-359v94l63 7q11 1 13.5 5t2.5 15v482q0 11 -2.5 14.5t-13.5 5.5l-63 7v94h354v-94l-67 -8q-11 -2 -13.5 -5t-2.5 -14v-228l211 246l-62 8v95h284v-95l-37 -6q-14 -2 -19 -5.5t-12 -11.5l-164 -193l172 -289
q6 -11 13 -14.5t18 -5.5l63 -10v-94h-263z" />
    <glyph glyph-name="L" unicode="L" horiz-adv-x="627" 
d="M25 0v94l63 7q11 2 13.5 5.5t2.5 14.5v482q0 11 -2.5 15t-13.5 5l-63 7v94h370v-94l-83 -8q-11 -1 -13.5 -4.5t-2.5 -14.5v-474h133q8 0 11 1.5t5 9.5l16 106h136v-246h-572z" />
    <glyph glyph-name="M" unicode="M" horiz-adv-x="974" 
d="M589 0v93l82 7q11 1 13.5 5t2.5 15v308h-6l-113 -300h-199l-112 302h-6v-309q0 -12 2.5 -15.5t13.5 -4.5l85 -8v-93h-327v93l63 7q11 1 13.5 5t2.5 15v483q0 11 -2.5 14.5t-13.5 5.5l-63 7v94h305l158 -443h7l161 443h297v-93l-67 -8q-11 -2 -13.5 -5t-2.5 -14v-484
q0 -10 3 -14t13 -5l67 -8v-93h-364z" />
    <glyph glyph-name="N" unicode="N" horiz-adv-x="827" 
d="M532 0l-291 473v-352q0 -12 2.5 -15t13.5 -5l67 -8v-93h-299v93l63 7q11 2 13.5 5.5t2.5 14.5v484q0 11 -2.5 15t-13.5 5l-63 7v93h278l290 -476v354q0 11 -2.5 15t-13.5 5l-63 7v95h298v-95l-67 -8q-11 -2 -13.5 -5t-2.5 -14v-602h-197z" />
    <glyph glyph-name="O" unicode="O" horiz-adv-x="750" 
d="M370 -12q-93 0 -159 27.5t-108.5 76.5t-62 116.5t-19.5 148.5t22.5 150.5t68 120.5t113.5 80t159 29q92 0 157.5 -29t107.5 -78.5t61.5 -116.5t19.5 -142q0 -88 -22 -158.5t-66.5 -120.5t-112 -77t-159.5 -27zM378 138q34 0 62.5 11t49 37t32 69t11.5 107
q0 122 -40 173.5t-110 51.5q-36 0 -66 -12.5t-52 -40t-34 -70.5t-12 -103q0 -63 11.5 -105.5t32 -68.5t50 -37.5t65.5 -11.5z" />
    <glyph glyph-name="P" unicode="P" horiz-adv-x="643" 
d="M25 0v94l63 7q11 2 13.5 5.5t2.5 14.5v481q0 11 -2.5 15t-13.5 5l-63 7v95h357q69 0 115.5 -17t74.5 -46.5t39.5 -68t11.5 -81.5q0 -66 -19 -113t-54.5 -77t-86.5 -44t-114 -14h-54v-141q0 -12 2.5 -15t13.5 -5l143 -8v-94h-429zM316 391q17 0 36.5 3t36 14t27 32.5
t10.5 58.5q0 34 -10 53t-25 28t-33 11t-35 2h-28v-202h21z" />
    <glyph glyph-name="Q" unicode="Q" horiz-adv-x="749" 
d="M621 -176q-38 -20 -81 -33t-86 -13q-49 0 -82 12.5t-52.5 34.5t-28 50.5t-8.5 61.5q0 13 1 27.5t3 29.5q-72 11 -123.5 42t-84.5 78t-48.5 109t-15.5 134q0 81 22.5 150.5t68 120.5t113.5 80t159 29q92 0 157.5 -29t107.5 -78.5t61.5 -116.5t19.5 -142q0 -151 -66 -250
t-201 -124q-2 -8 -2 -15v-13q0 -30 12 -44t45 -14q30 0 75 16zM372 138q34 0 62.5 11t49 37t32 69t11.5 107q0 122 -40 173.5t-110 51.5q-36 0 -66 -12.5t-52 -40t-34 -70.5t-12 -103q0 -63 11.5 -105.5t32 -68.5t50 -37.5t65.5 -11.5z" />
    <glyph glyph-name="R" unicode="R" horiz-adv-x="695" 
d="M444 0l-83 242q-9 27 -20.5 37t-35.5 10h-10v-166q0 -12 2.5 -15t13.5 -5l57 -8v-95h-343v95l63 7q11 1 13.5 5t2.5 15v481q0 11 -2.5 14.5t-13.5 5.5l-63 7v94h362q68 0 113 -16t72.5 -43t39 -62.5t11.5 -74.5q0 -40 -9 -70.5t-26 -54t-40 -41t-52 -31.5q20 -10 34 -31
t25 -50l45 -120q5 -12 11 -17.5t21 -7.5l62 -10v-95h-250zM314 412q21 0 41.5 3t36 13t25 29t9.5 52q0 47 -23 65.5t-74 18.5h-34v-181h19z" />
    <glyph glyph-name="S" unicode="S" horiz-adv-x="598" 
d="M406 496l-10 79q-2 11 -4.5 14t-9.5 5q-15 3 -28.5 4.5t-29.5 1.5q-44 0 -66 -18.5t-22 -47.5q0 -32 24.5 -48.5t61.5 -28t80.5 -24t80.5 -36t61.5 -64t24.5 -107.5q0 -63 -23 -108.5t-62.5 -74t-92 -42t-112.5 -13.5q-34 0 -69.5 4t-68.5 10t-60 14t-43 15v213h139
l21 -99q2 -8 5 -11t12 -5q8 -2 26.5 -4t38.5 -2q52 0 78 19t26 54q0 33 -24.5 50t-61.5 28.5t-80.5 23t-80.5 34.5t-61.5 62t-24.5 106q0 60 21 104.5t58.5 74t88 44t110.5 14.5q66 0 122 -13t95 -30v-210z" />
    <glyph glyph-name="T" unicode="T" horiz-adv-x="720" 
d="M146 0v94l103 7q11 1 13.5 5t2.5 15v472h-72q-8 0 -11 -1.5t-5 -9.5l-16 -87h-136v229h670v-229h-134l-16 87q-2 8 -5 9.5t-11 1.5h-72v-472q0 -11 2.5 -14.5t13.5 -4.5l110 -8v-94h-437z" />
    <glyph glyph-name="U" unicode="U" horiz-adv-x="784" 
d="M527 603q0 11 -2.5 15t-13.5 5l-63 7v94h324v-94l-67 -8q-11 -2 -13.5 -5t-2.5 -14v-333q0 -75 -21 -128.5t-59.5 -87.5t-93 -50t-121.5 -16q-156 0 -227.5 69t-71.5 218v328q0 11 -2.5 15t-13.5 5l-63 7v94h354v-94l-67 -8q-11 -2 -13.5 -5.5t-2.5 -14.5v-301
q0 -39 3 -70t14 -53.5t33.5 -34.5t62.5 -12q38 0 62.5 9t38.5 29t20 51.5t6 75.5v307z" />
    <glyph glyph-name="V" unicode="V" horiz-adv-x="761" 
d="M265 0l-191 603q-3 9 -9 12t-15 5l-45 11l10 93h343v-93l-80 -9l126 -438h11l125 438l-79 9l10 93h285v-93l-42 -11q-9 -2 -16 -6t-9 -13l-171 -601h-253z" />
    <glyph glyph-name="W" unicode="W" horiz-adv-x="1073" 
d="M617 0l-79 312h-8l-68 -312h-246l-142 603q-3 9 -9 12t-15 5l-45 11l10 93h338v-93l-80 -9l82 -446h11l102 421h183l101 -421h11l82 446l-80 9l10 93h293v-93l-45 -11q-9 -2 -15 -5t-9 -12l-130 -603h-252z" />
    <glyph glyph-name="X" unicode="X" horiz-adv-x="817" 
d="M426 0v93l80 9l-119 150l-118 -150l79 -9v-93h-317v93l62 11q9 2 15 6.5t12 12.5l186 225l-206 255q-8 13 -24 17l-55 11l10 93h363v-93l-80 -9l119 -153l126 153l-79 9l10 93h292v-93l-52 -11q-9 -2 -14 -7t-11 -12l-190 -226l205 -252q6 -7 12 -12t15 -7l55 -11v-93
h-376z" />
    <glyph glyph-name="Y" unicode="Y" horiz-adv-x="711" 
d="M152 0v94l103 7q11 1 13.5 5t2.5 15v143l-197 339q-8 13 -24 17l-45 11l10 93h343v-93l-80 -9l100 -197h11l101 197l-79 9l10 93h285v-93l-42 -11q-9 -2 -15.5 -6t-9.5 -13l-176 -336v-144q0 -11 2.5 -14.5t13.5 -4.5l110 -8v-94h-437z" />
    <glyph glyph-name="Z" unicode="Z" horiz-adv-x="689" 
d="M51 0v119l349 475h-174q-8 0 -11 -1.5t-5 -9.5l-19 -93l-133 -4v238h569v-123l-342 -472h198q8 0 11 1.5t5 9.5l19 107h132v-247h-599z" />
    <glyph glyph-name="bracketleft" unicode="[" horiz-adv-x="346" 
d="M50 -143v867h261v-90l-63 -12q-10 -2 -13 -6.5t-3 -14.5v-621q0 -10 3 -14.5t13 -6.5l63 -12v-90h-261z" />
    <glyph glyph-name="backslash" unicode="\" horiz-adv-x="486" 
d="M305 -92l-280 847h170l281 -847h-171z" />
    <glyph glyph-name="bracketright" unicode="]" horiz-adv-x="346" 
d="M35 -143v90l63 12q10 2 13 6.5t3 14.5v621q0 10 -3 14.5t-13 6.5l-63 12v90h261v-867h-261z" />
    <glyph glyph-name="asciicircum" unicode="^" horiz-adv-x="645" 
d="M438 299l-118 213l-115 -213h-175l197 365h189l199 -365h-177z" />
    <glyph glyph-name="underscore" unicode="_" 
d="M0 -181v130h500v-130h-500z" />
    <glyph glyph-name="grave" unicode="`" 
d="M313 557l-180 150l95 88l152 -179z" />
    <glyph glyph-name="a" unicode="a" horiz-adv-x="567" 
d="M352 0l-11 56l-7 2q-12 -12 -27 -24.5t-34 -22.5t-43.5 -16.5t-54.5 -6.5q-48 0 -77 14.5t-45.5 37t-22 50t-5.5 53.5q0 75 47 110t143 40l103 6v58q0 12 -0.5 23t-5 19.5t-14 13.5t-27.5 5q-29 0 -41 -11t-12 -49l-174 13q0 53 21.5 85.5t55.5 50t74.5 23.5t77.5 6
q59 0 102 -9t71 -30t41 -56.5t13 -88.5v-230q0 -12 2.5 -15t13.5 -5l46 -8v-94h-210zM318 213l-41 -2q-32 -2 -46.5 -13.5t-14.5 -37.5q0 -23 14 -33t33 -10q14 0 29 3t26 10v83z" />
    <glyph glyph-name="b" unicode="b" horiz-adv-x="616" 
d="M49 0q6 38 11 74.5t5 73.5v470q0 16 -13 21l-52 19l13 97h236v-271l7 -2q29 26 62.5 40t76.5 14q39 0 74.5 -14t62.5 -45t42.5 -81t15.5 -122q0 -77 -15.5 -131.5t-44 -89t-68.5 -50t-88 -15.5q-47 0 -82.5 21t-52.5 44l-7 -2l-7 -51h-176zM251 145q14 -8 30 -11t30 -3
q42 0 62 36t20 100q0 18 -2.5 39.5t-11 40.5t-23 32t-38.5 13q-17 0 -35.5 -7t-31.5 -15v-225z" />
    <glyph glyph-name="c" unicode="c" horiz-adv-x="524" 
d="M493 42q-38 -23 -90.5 -38.5t-110.5 -15.5q-70 0 -121.5 20.5t-85 56t-49.5 84t-16 105.5q0 69 20.5 122t58 88.5t89 53.5t112.5 18t114 -15t80 -34v-171l-131 5l-12 66q-2 13 -12 17q-16 6 -40 6q-16 0 -31 -7t-26.5 -23t-18.5 -42t-7 -64q0 -46 9.5 -75.5t24.5 -46
t35 -22.5t41 -6q38 0 69.5 8t53.5 16z" />
    <glyph glyph-name="d" unicode="d" horiz-adv-x="621" 
d="M399 0l-11 56l-8 2q-29 -32 -66.5 -51t-90.5 -19q-45 0 -81.5 15t-62 47.5t-39.5 84t-14 124.5q0 77 18.5 129.5t48.5 85.5t68.5 47.5t77.5 14.5q43 0 74.5 -13.5t59.5 -34.5v130q0 16 -13 21l-52 19l13 97h230v-635q0 -11 2.5 -14t13.5 -5l46 -7v-94h-214zM365 379
q-17 8 -31 11.5t-25 3.5q-23 0 -39.5 -10.5t-27 -28.5t-15 -42t-4.5 -51t4.5 -51t14.5 -41.5t25.5 -28t37.5 -10.5q14 0 30 3t30 11v234z" />
    <glyph glyph-name="e" unicode="e" horiz-adv-x="537" 
d="M509 43q-53 -24 -107.5 -39.5t-112.5 -15.5q-75 0 -126.5 21t-83 58.5t-45.5 88.5t-14 110q0 69 20.5 119.5t55.5 84t82.5 50t101.5 16.5q51 0 93 -13.5t72 -43.5t46.5 -77.5t16.5 -114.5q0 -8 -0.5 -22.5t-2.5 -31.5h-286q3 -57 25.5 -81.5t69.5 -24.5q22 0 58.5 6.5
t94.5 25.5zM325 323q0 27 -4 43.5t-10.5 25.5t-16 12t-20.5 3q-21 0 -36.5 -16t-18.5 -68h106z" />
    <glyph glyph-name="f" unicode="f" horiz-adv-x="456" 
d="M19 0v95l52 6q11 2 13.5 6t2.5 15v274q0 5 -1 7.5t-7 2.5h-64v119h72v42q0 55 15.5 93t45.5 62t73 34.5t98 10.5q38 0 73 -6t62.5 -23t44.5 -48t17 -81l-173 -20q1 37 -6 50t-27 13q-26 0 -31 -16.5t-5 -40.5v-60q0 -5 1 -7.5t7 -2.5h154v-119h-162v-280q0 -12 3.5 -15.5
t14.5 -4.5l125 -12v-94h-398z" />
    <glyph glyph-name="g" unicode="g" horiz-adv-x="584" 
d="M474 423q13 -17 25.5 -42t12.5 -59q0 -40 -16 -71.5t-44.5 -53t-68.5 -32.5t-87 -11q-27 0 -43.5 2.5t-28.5 4.5l-30 -38l96 -4q64 -3 114 -8t85 -20.5t53.5 -45.5t18.5 -83q0 -47 -20.5 -82.5t-58 -58.5t-90.5 -34.5t-118 -11.5q-70 0 -118.5 8t-78.5 23t-43.5 37
t-13.5 51q0 35 18 58.5t41 46.5q-26 11 -38.5 30.5t-12.5 40.5q0 28 24 52q15 15 35 31t41 33q-40 18 -67.5 56t-27.5 97q0 40 14.5 76t44 63t75 42.5t106.5 15.5q30 0 58 -3t44 -8h194v-96zM356 342q0 38 -20.5 56.5t-52.5 18.5t-54 -18t-22 -56q0 -35 17.5 -53.5
t55.5 -18.5q32 0 54 19.5t22 51.5zM178 -32q-8 -10 -14 -20.5t-6 -22.5q0 -15 11.5 -23.5t29.5 -13t39.5 -5.5t41.5 -1q12 0 29.5 1t33.5 5t27.5 13t11.5 24q0 22 -19.5 28t-48.5 8z" />
    <glyph glyph-name="h" unicode="h" horiz-adv-x="621" 
d="M261 121q0 -12 2.5 -15t13.5 -5l43 -7v-94h-304v95l42 6q11 2 13.5 5.5t2.5 14.5v497q0 17 -13 21l-52 19l13 97h237v-275l7 -2q25 23 57 40.5t85 17.5q77 0 111.5 -42t34.5 -130v-243q0 -12 2.5 -15t13.5 -5l46 -7v-94h-249v328q0 34 -7.5 49t-30.5 15q-22 0 -39.5 -7
t-28.5 -15v-249z" />
    <glyph glyph-name="i" unicode="i" horiz-adv-x="328" 
d="M262 692q0 -51 -28 -78.5t-79 -27.5t-78.5 27.5t-27.5 78.5t27.5 77.5t78.5 26.5t79 -26.5t28 -77.5zM16 0v95l42 6q11 2 13.5 5.5t2.5 14.5v267q0 17 -13 21l-52 19l13 97h239v-404q0 -12 2.5 -15t13.5 -5l43 -7v-94h-304z" />
    <glyph glyph-name="j" unicode="j" horiz-adv-x="323" 
d="M72 388q0 16 -13 21l-52 19l13 97h239v-570q0 -97 -51 -137.5t-141 -40.5q-35 0 -65 6.5t-54 15.5t-40.5 18.5t-23.5 15.5l47 98q12 -6 35.5 -15t50.5 -9q12 0 22.5 2.5t17.5 10.5t11 23t4 41v404zM260 692q0 -51 -28 -78.5t-79 -27.5t-78.5 27.5t-27.5 78.5t27.5 77.5
t78.5 26.5t79 -26.5t28 -77.5z" />
    <glyph glyph-name="k" unicode="k" horiz-adv-x="637" 
d="M410 0l-113 246l-36 -38v-87q0 -12 2.5 -15t13.5 -5l43 -7v-94h-304v95l42 6q11 2 13.5 5.5t2.5 14.5v497q0 16 -13 21l-52 19l13 97h239v-394l166 164h154v-94l-49 -8q-10 -2 -14 -4.5t-11 -10.5l-59 -59l114 -232q5 -11 12 -14t18 -5l40 -6v-92h-222z" />
    <glyph glyph-name="l" unicode="l" horiz-adv-x="328" 
d="M16 0v95l42 6q11 2 13.5 5.5t2.5 14.5v497q0 16 -13 21l-52 19l13 97h239v-634q0 -12 2.5 -15t13.5 -5l43 -7v-94h-304z" />
    <glyph glyph-name="m" unicode="m" horiz-adv-x="875" 
d="M261 121q0 -12 2.5 -15t13.5 -5l33 -7v-94h-294v95l42 6q11 2 13.5 5.5t2.5 14.5v267q0 17 -13 21l-52 19l13 97h202l8 -47h7q11 10 24.5 20t31.5 18.5t40.5 14t52.5 5.5q88 0 122 -58q10 8 25.5 18t35 19t42.5 15t49 6q77 0 111.5 -42t34.5 -130v-243q0 -12 2.5 -15
t13.5 -5l46 -7v-94h-249v328q0 34 -6.5 49t-29.5 15q-11 0 -25.5 -5.5t-25.5 -12.5v-253q0 -12 2.5 -15.5t13.5 -5.5l36 -6v-94h-239v328q0 34 -7 49t-29 15q-14 0 -26.5 -5.5t-23.5 -13.5v-252z" />
    <glyph glyph-name="n" unicode="n" horiz-adv-x="621" 
d="M261 121q0 -12 2.5 -15t13.5 -5l43 -7v-94h-304v95l42 6q11 2 13.5 5.5t2.5 14.5v267q0 17 -13 21l-51 19l13 97h201l8 -47h7q29 20 68 39t101 19q77 0 111.5 -42t34.5 -130v-243q0 -12 2.5 -15t13.5 -5l46 -7v-94h-249v328q0 34 -7.5 49t-30.5 15q-22 0 -39.5 -7
t-28.5 -15v-249z" />
    <glyph glyph-name="o" unicode="o" horiz-adv-x="589" 
d="M291 -12q-72 0 -123 20t-84 57t-48.5 88t-15.5 112t17 111t52 85.5t87.5 55t124.5 19.5t123 -20t83.5 -55t47 -84t14.5 -107q0 -64 -16.5 -116t-50.5 -89t-86.5 -57t-124.5 -20zM295 114q17 0 31.5 7t25 24.5t16.5 46.5t6 73q0 42 -5.5 69t-15.5 43.5t-24 23t-31 6.5
t-32 -6.5t-26 -22.5t-17.5 -43.5t-6.5 -70.5q0 -85 21.5 -117.5t57.5 -32.5z" />
    <glyph glyph-name="p" unicode="p" horiz-adv-x="620" 
d="M228 478l7 -2q42 32 84 46t80 14q42 0 77.5 -14t62 -45t41 -81t14.5 -122q0 -77 -16 -131.5t-43 -89t-63 -50t-77 -15.5q-54 0 -87 13.5t-57 33.5v-123q0 -12 3 -15.5t14 -4.5l110 -10v-94h-367v95l39 6q11 2 15 6t4 16v477q0 16 -13 21l-51 19l13 97h201zM397 267
q0 63 -19.5 94t-55.5 31q-17 0 -35.5 -7t-31.5 -15v-220q12 -8 30 -13.5t36 -5.5q40 0 58 37t18 99z" />
    <glyph glyph-name="q" unicode="q" horiz-adv-x="603" 
d="M245 536q43 0 76.5 -16.5t61.5 -42.5l17 48h159q-3 -45 -5.5 -89.5t-2.5 -86.5v-441q0 -11 2.5 -14t13.5 -5l46 -7v-94h-340v95l93 8q22 1 22 17v142l-7 2q-29 -29 -63.5 -46.5t-87.5 -17.5q-45 0 -82.5 15t-64.5 47.5t-42 84t-15 124.5q0 77 19.5 129.5t50.5 85.5
t70.5 47.5t78.5 14.5zM223 262q0 -27 4 -51t13 -41.5t25 -28t40 -10.5q14 0 30 3t30 11v234q-17 8 -31 11.5t-28 3.5q-22 0 -38 -10.5t-26 -28.5t-14.5 -42t-4.5 -51z" />
    <glyph glyph-name="r" unicode="r" horiz-adv-x="497" 
d="M16 0v96l42 6q11 2 13.5 5.5t2.5 14.5v266q0 16 -13 21l-52 19l13 97h202l14 -87h8q25 45 56.5 71.5t78.5 26.5q9 0 22.5 -1t27.5 -2.5t26.5 -3t19.5 -3.5v-200l-149 5l-9 42q-4 13 -13 13q-11 0 -24 -6.5t-21 -12.5v-243q0 -12 3 -15.5t14 -4.5l102 -9v-95h-364z" />
    <glyph glyph-name="s" unicode="s" horiz-adv-x="504" 
d="M336 358l-9 48q-1 12 -10 14q-9 3 -23.5 5t-31.5 2q-27 0 -44.5 -8.5t-17.5 -28.5t25 -28.5t61 -16.5q31 -6 65.5 -15.5t63.5 -28t48 -49.5t19 -82q0 -47 -18 -81.5t-49.5 -57t-75.5 -33t-97 -10.5q-36 0 -71 4t-64 9.5t-49 12t-27 11.5v144l131 -8l9 -49q2 -8 4 -11
t9 -5q8 -2 25.5 -4.5t40.5 -2.5q67 0 67 41q0 14 -8 22.5t-22.5 14t-33 9.5t-39.5 7q-30 5 -62 13.5t-58.5 27t-43.5 49t-17 79.5t19.5 83.5t52 57t75 33t88.5 10.5q31 0 61.5 -3t57 -7.5t47.5 -10t33 -10.5v-154z" />
    <glyph glyph-name="t" unicode="t" horiz-adv-x="453" 
d="M433 33q-34 -18 -82.5 -31.5t-94.5 -13.5q-49 0 -83.5 10t-55.5 31t-30.5 54.5t-9.5 81.5v231q0 5 -1 7.5t-7 2.5h-69v107q66 13 100.5 52t47.5 124h116v-154q0 -5 1 -7.5t7 -2.5h138v-119h-146v-205q0 -43 12.5 -60.5t52.5 -17.5q20 0 39 4t35 9z" />
    <glyph glyph-name="u" unicode="u" horiz-adv-x="621" 
d="M400 0l-8 47l-6 2q-14 -10 -31 -21t-37.5 -20t-45.5 -14.5t-56 -5.5q-77 0 -111.5 42t-34.5 130v239q0 12 -2.5 15t-13.5 5l-46 7l12 99h237v-329q0 -34 7.5 -49t30.5 -15q22 0 39.5 7t28.5 15v245q0 12 -2.5 15t-13.5 5l-38 7l12 99h229v-405q0 -8 2 -12t12 -6l48 -7
v-95h-212z" />
    <glyph glyph-name="v" unicode="v" horiz-adv-x="649" 
d="M215 0l-153 402q-4 9 -8 12t-13 5l-41 9l18 97h307v-97l-61 -8l82 -237h10l87 237l-63 8l14 97h255v-97l-37 -6q-9 -2 -15 -4.5t-10 -12.5l-154 -405h-218z" />
    <glyph glyph-name="w" unicode="w" horiz-adv-x="902" 
d="M180 0l-118 402q-3 9 -7.5 12t-13.5 5l-41 9l18 97h285v-99l-50 -6l60 -234h10l75 327h180l74 -327h9l56 234l-52 6l14 99h223v-97l-36 -7q-18 -3 -23 -20l-116 -401h-191l-64 298h-8l-62 -298h-222z" />
    <glyph glyph-name="x" unicode="x" horiz-adv-x="620" 
d="M298 0v93l39 9l-55 73l-69 -72l50 -9v-94h-248v93l40 8q9 2 14 6t13 11l126 128l-136 155q-7 7 -11 10.5t-13 6.5l-38 11l10 96h296v-96l-41 -8l58 -70l69 70l-51 8l10 96h234v-96l-45 -10q-9 -3 -13 -8t-12 -11l-117 -119l138 -162q8 -8 12.5 -12t13.5 -6l38 -7v-94
h-312z" />
    <glyph glyph-name="y" unicode="y" horiz-adv-x="642" 
d="M118 -212v97l81 9q10 1 16 6t11 16l33 72l-197 414q-3 9 -7.5 12t-13.5 5l-41 9l18 97h298v-97l-61 -8l97 -219h10l88 219l-63 8l14 97h241v-97l-32 -6q-9 -2 -15 -4.5t-10 -12.5l-205 -509l108 -12v-96h-370z" />
    <glyph glyph-name="z" unicode="z" horiz-adv-x="535" 
d="M33 0v102l256 313h-101q-7 0 -9 -2.5t-4 -10.5l-12 -51l-129 -8v182h460v-104l-249 -312h106q11 0 14 13l12 66l133 6v-194h-477z" />
    <glyph glyph-name="braceleft" unicode="{" horiz-adv-x="356" 
d="M311 -150q-69 0 -115.5 7t-75.5 23.5t-41.5 45t-12.5 70.5q0 21 2.5 41.5t5 42t5 45.5t2.5 53q0 35 -13.5 48.5t-47.5 16.5v91q34 3 47.5 16.5t13.5 48.5q0 29 -2.5 53t-5 45.5t-5 42t-2.5 41.5q0 42 12.5 70.5t41.5 45t75.5 23.5t115.5 7l10 -93q-34 -8 -48 -21.5
t-14 -50.5q0 -39 8.5 -78.5t8.5 -83.5q0 -46 -15 -72.5t-45 -39.5q30 -13 45 -39t15 -72q0 -44 -8.5 -83.5t-8.5 -78.5q0 -37 14 -50.5t48 -21.5z" />
    <glyph glyph-name="bar" unicode="|" horiz-adv-x="280" 
d="M55 -143v898h170v-898h-170z" />
    <glyph glyph-name="braceright" unicode="}" horiz-adv-x="356" 
d="M140 288q-30 13 -45 39.5t-15 72.5q0 44 8.5 83.5t8.5 78.5q0 37 -14 50.5t-48 21.5l10 93q69 0 115.5 -7t75.5 -23.5t41.5 -45t12.5 -70.5q0 -21 -2.5 -41.5t-5 -42t-5 -45.5t-2.5 -53q0 -35 13.5 -48.5t47.5 -16.5v-91q-34 -3 -47.5 -16.5t-13.5 -48.5q0 -29 2.5 -53
t5 -45.5t5 -42t2.5 -41.5q0 -42 -12.5 -70.5t-41.5 -45t-75.5 -23.5t-115.5 -7l-10 93q34 8 48 21.5t14 50.5q0 39 -8.5 78.5t-8.5 83.5q0 46 15 72t45 39z" />
    <glyph glyph-name="asciitilde" unicode="~" horiz-adv-x="549" 
d="M524 445q-13 -84 -42.5 -121t-79.5 -37q-27 0 -56.5 7t-58 16t-55 16t-48.5 7q-24 0 -40 -8t-31 -37l-88 44q6 30 19 57.5t30.5 47.5t40 32t47.5 12q29 0 57 -7t55 -16t52.5 -16t49.5 -7q23 0 34.5 9t20.5 37z" />
    <glyph glyph-name="uni00A0" unicode="&#xa0;" horiz-adv-x="190" 
 />
    <glyph glyph-name="sterling" unicode="&#xa3;" horiz-adv-x="570" 
d="M20 402h64v28q0 41 9 82t36 74t75.5 53.5t127.5 20.5q39 0 78 -6.5t70 -25.5t50.5 -54t19.5 -91l-169 -21q0 37 -10.5 53.5t-42.5 16.5q-39 0 -49 -28t-10 -76v-26h124v-133h-124q-1 -48 -14 -86.5t-43 -68.5h175q7 0 9 2.5t4 10.5l15 75h130v-202h-513l-18 109
q20 8 33 16.5t21.5 24t12 42.5t3.5 72v5h-64v133z" />
    <glyph glyph-name="currency" unicode="&#xa4;" horiz-adv-x="570" 
d="M459 -9l-85 85q-47 -26 -111 -26q-33 0 -61.5 7.5t-51.5 19.5l-46 -46t-39 -40l-94 95l89 89q-20 49 -20 104q0 25 5 50t16 48l-87 87l97 96l82 -82q50 29 116 29q69 0 115 -26l79 78l93 -94l-83 -83q19 -44 19 -99q0 -28 -6.5 -56t-17.5 -53l88 -87zM267 178
q42 0 62.5 29.5t20.5 71.5q0 46 -21 72t-64 26q-42 0 -62.5 -27.5t-20.5 -70.5q0 -42 20 -71.5t65 -29.5z" />
    <glyph glyph-name="brokenbar" unicode="&#xa6;" horiz-adv-x="280" 
d="M55 -143v388h170v-388h-170zM55 420v335h170v-335h-170z" />
    <glyph glyph-name="section" unicode="&#xa7;" horiz-adv-x="581" 
d="M61 39l131 -8l9 -55q1 -5 3 -8t9 -6q9 -4 23.5 -7t40.5 -3q67 0 67 44q0 14 -8.5 22.5t-23.5 14.5t-34.5 10.5t-41.5 9.5q-30 7 -61 16.5t-56.5 27.5t-42 47t-16.5 74q0 44 21.5 76.5t50.5 56.5q-23 18 -36.5 45.5t-13.5 66.5q0 44 18 76.5t48.5 54t71.5 32t87 10.5
q31 0 61.5 -3t57 -7.5t47.5 -10t33 -10.5v-154l-131 7l-9 51q-1 5 -2.5 8t-8.5 5q-11 4 -22.5 6t-31.5 2q-27 0 -44.5 -11t-17.5 -31q0 -12 8.5 -20t22.5 -14t33 -11t40 -10q30 -7 61.5 -17.5t57.5 -28t42.5 -45.5t16.5 -72q0 -45 -17.5 -79t-46.5 -55q19 -17 30.5 -40
t11.5 -56q0 -95 -62.5 -138.5t-167.5 -43.5q-36 0 -70.5 4t-63 9.5t-48 12t-26.5 11.5v144zM232 303q-11 -9 -18.5 -21t-7.5 -27q0 -22 23.5 -33t58.5 -20l54 -14q32 19 32 48q0 19 -22 29.5t-55 19.5z" />
    <glyph glyph-name="dieresis" unicode="&#xa8;" 
d="M61 660q0 36 22.5 57t58.5 21t58 -21t22 -57t-22 -57.5t-58 -21.5t-58.5 21.5t-22.5 57.5zM273 660q0 36 22.5 57t58.5 21t58 -21t22 -57t-22 -57.5t-58 -21.5t-58.5 21.5t-22.5 57.5z" />
    <glyph glyph-name="copyright" unicode="&#xa9;" horiz-adv-x="775" 
d="M725 325q0 -76 -24.5 -138t-69.5 -106t-107 -68.5t-137 -24.5q-83 0 -146 24.5t-105.5 68t-64 102.5t-21.5 128q0 79 26.5 141.5t72.5 105.5t108 66t132 23q78 0 140.5 -22.5t106 -64.5t66.5 -101.5t23 -133.5zM633 319q0 59 -18 104.5t-50.5 76.5t-77.5 46.5t-98 15.5
q-52 0 -97 -16.5t-78 -48.5t-51.5 -78.5t-18.5 -106.5q0 -112 64.5 -175.5t180.5 -63.5q115 0 179.5 65.5t64.5 180.5zM513 492q-18 7 -49.5 13.5t-62.5 6.5q-95 0 -143 -54t-48 -140q0 -42 10.5 -78t33 -62t58 -40.5t86.5 -14.5q30 0 62 6t52 18v110h-56l-11 -54
q-18 -9 -41 -9q-27 0 -45 9.5t-28.5 26t-14.5 39t-4 47.5q0 70 22 97t64 27q15 0 25.5 -2t21.5 -7l7 -54h61v115z" />
    <glyph glyph-name="guillemotleft" unicode="&#xab;" horiz-adv-x="481" 
d="M110 103l-85 153l89 152h146l-83 -140q-4 -6 -4 -9.5t3 -9.5l78 -146h-144zM311 103l-85 153l89 152h146l-83 -140q-4 -6 -4 -9.5t3 -9.5l78 -146h-144z" />
    <glyph glyph-name="logicalnot" unicode="&#xac;" horiz-adv-x="570" 
d="M344 160v95h-264v138h393v-233h-129z" />
    <glyph glyph-name="uni00AD" unicode="&#xad;" horiz-adv-x="311" 
d="M20 215v150h271v-150h-271z" />
    <glyph glyph-name="registered" unicode="&#xae;" horiz-adv-x="455" 
d="M415 480q0 -42 -14 -76t-38.5 -59t-59 -38.5t-76.5 -13.5q-46 0 -81 14t-58.5 38t-35.5 57t-12 71q0 44 15 78.5t40.5 59t59.5 37.5t73 13q87 0 137 -49.5t50 -131.5zM363 477q0 66 -38.5 100.5t-96.5 34.5q-28 0 -52.5 -9.5t-43 -27t-29 -43t-10.5 -58.5q0 -62 36 -97
t99 -35t99 36t36 99zM145 412l13 1q5 0 5 5v121q0 5 -5 5l-13 1v30h89q42 0 57 -16.5t15 -37.5q0 -20 -10 -32.5t-24 -17.5q5 -2 10 -6t8 -13l12 -32q2 -5 8 -6l14 -2v-28h-66l-22 63q-2 6 -4 8t-9 2h-10v-38q0 -5 5 -6l15 -1v-28h-88v28zM213 492h14q13 0 20.5 4.5
t7.5 20.5q0 14 -8 18t-18 4h-16v-47z" />
    <glyph glyph-name="macron" unicode="&#xaf;" 
d="M88 707h323v-118h-323v118z" />
    <glyph glyph-name="degree" unicode="&#xb0;" horiz-adv-x="303" 
d="M152 621q19 0 32 14t13 34t-13.5 33.5t-31.5 13.5q-17 0 -31.5 -14t-14.5 -35q0 -19 13 -32.5t33 -13.5zM273 669q0 -54 -34 -87.5t-87 -33.5q-54 0 -88 33t-34 85q0 28 10 51t26.5 39t38.5 24.5t47 8.5t47 -8.5t38.5 -24t26 -38t9.5 -49.5z" />
    <glyph glyph-name="plusminus" unicode="&#xb1;" horiz-adv-x="570" 
d="M481 138v-138h-393v138h125v117h-125v138h125v134h142v-134h126v-138h-126v-117h126z" />
    <glyph glyph-name="mu" unicode="&#xb5;" horiz-adv-x="629" 
d="M363 525h187v-405q0 -8 2 -12t12 -6l48 -7v-95h-212l-8 47h-7q-24 -17 -55.5 -34t-78.5 -23l13 -166h-194v701h187v-329q0 -34 7.5 -49t30.5 -15q22 0 39.5 7t28.5 15v371z" />
    <glyph glyph-name="paragraph" unicode="&#xb6;" horiz-adv-x="697" 
d="M443 -133v671h-56v-671h-201v87l63 7q11 2 14 6.5t3 13.5v181q-117 6 -169 68t-52 165q0 69 22 116.5t60.5 77.5t90.5 43t112 13h317v-94l-67 -8q-11 -2 -13.5 -5t-2.5 -14v-543q0 -12 3 -15t13 -5l67 -8v-86h-204z" />
    <glyph glyph-name="periodcentered" unicode="&#xb7;" horiz-adv-x="265" 
d="M230 312q0 -42 -23.5 -64.5t-73.5 -22.5q-98 0 -98 87q0 42 23.5 64.5t74.5 22.5q49 0 73 -22.5t24 -64.5z" />
    <glyph glyph-name="cedilla" unicode="&#xb8;" 
d="M141 -188q5 -1 10.5 -1h10.5q38 0 52 14t14 34q0 23 -18.5 30.5t-44.5 8.5l17 132l80 -8l-9 -68q14 -3 28.5 -9.5t26.5 -17.5t19.5 -27.5t7.5 -39.5q0 -24 -9.5 -47t-29 -41t-50 -29t-72.5 -11q-7 0 -14 0.5t-13 0.5q-7 1 -13 2z" />
    <glyph glyph-name="guillemotright" unicode="&#xbb;" horiz-adv-x="481" 
d="M26 103l78 146q3 6 3 9.5t-4 9.5l-83 140h146l89 -152l-85 -153h-144zM227 103l78 146q3 6 3 9.5t-4 9.5l-83 140h146l89 -152l-85 -153h-144z" />
    <glyph glyph-name="multiply" unicode="&#xd7;" horiz-adv-x="570" 
d="M285 222l-95 -95l-100 100l95 95l-95 95l100 100l95 -95l95 95l100 -100l-95 -95l95 -95l-100 -100z" />
    <glyph glyph-name="divide" unicode="&#xf7;" horiz-adv-x="570" 
d="M371 149q0 -37 -21 -58t-66 -21t-66.5 20.5t-21.5 58.5q0 34 21.5 57t66.5 23t66 -23t21 -57zM88 252v138h393v-138h-393zM371 492q0 -37 -21 -58t-66 -21t-66.5 20.5t-21.5 58.5q0 34 21.5 57t66.5 23t66 -23t21 -57z" />
    <glyph glyph-name="florin" unicode="&#x192;" horiz-adv-x="612" 
d="M193 460q10 54 26 92t41 62t61 35t86 11q51 0 101 -11.5t95 -37.5l-25 -157l-115 11l-1 59q-1 5 -2.5 8t-8.5 5q-8 2 -15.5 3.5t-18.5 1.5q-24 0 -37 -14.5t-19 -48.5l-14 -85q-1 -10 8 -10h115l-18 -111h-126l-29 -170q-11 -68 -31.5 -111.5t-50.5 -68.5t-70 -34.5
t-90 -9.5q-51 0 -100 16.5t-78 39.5l49 111q26 -18 56.5 -30t56.5 -12q18 0 32 2t24.5 11t18.5 27t14 49l31 170q2 10 -7 10h-89l18 111h99z" />
    <glyph glyph-name="circumflex" unicode="&#x2c6;" 
d="M359 556l-109 88l-109 -88l-69 60l120 133h116l120 -133z" />
    <glyph glyph-name="caron" unicode="&#x2c7;" 
d="M192 576l-120 133l69 60l109 -88l109 88l69 -60l-120 -133h-116z" />
    <glyph glyph-name="uni02C9" unicode="&#x2c9;" 
d="M88 707h323v-118h-323v118z" />
    <glyph glyph-name="breve" unicode="&#x2d8;" 
d="M250 673q30 0 51 15.5t36 50.5l88 -32q-18 -67 -58 -103t-117 -36t-117.5 36t-57.5 103l88 32q12 -35 34.5 -50.5t52.5 -15.5z" />
    <glyph glyph-name="dotaccent" unicode="&#x2d9;" 
d="M144 692q0 51 27.5 77.5t78.5 26.5t79 -26.5t28 -77.5t-28 -78.5t-79 -27.5t-78.5 27.5t-27.5 78.5z" />
    <glyph glyph-name="ring" unicode="&#x2da;" 
d="M368 671q0 -53 -32.5 -80t-83.5 -27t-84 26.5t-33 77.5q0 55 35 83t82 28q48 0 82 -27.5t34 -80.5zM251 630q17 0 29 9.5t12 31.5q0 20 -11.5 30t-28.5 10q-18 0 -30 -10t-12 -30q0 -22 11.5 -31.5t29.5 -9.5z" />
    <glyph glyph-name="ogonek" unicode="&#x2db;" 
d="M376 -213q-35 -17 -70.5 -23.5t-62.5 -6.5q-63 0 -89.5 27t-26.5 68q0 31 14.5 58t34.5 48.5t43 38t39 26.5l80 -20q-10 -9 -23.5 -22.5t-24.5 -29t-19 -31.5t-8 -30q0 -13 5.5 -20.5t21.5 -7.5q9 0 24 2.5t31 7.5z" />
    <glyph glyph-name="tilde" unicode="&#x2dc;" 
d="M242 710q11 -3 23 -6.5l24 -7t21.5 -5.5t14.5 -2t11 7l23 29l78 -41l-23 -46q-15 -30 -30 -48t-41 -18q-18 0 -42.5 6t-56.5 15q-19 5 -38.5 11.5t-28.5 6.5q-7 0 -16 -9l-26 -28l-69 41l30 56q13 26 30 40t40 14q25 0 76 -15z" />
    <glyph glyph-name="hungarumlaut" unicode="&#x2dd;" 
d="M116 555l-68 59l144 185l96 -86zM323 555l-68 59l144 185l96 -86z" />
    <glyph glyph-name="uni0394" unicode="&#x394;" horiz-adv-x="742" 
d="M0 0l263 724h214l265 -724h-742zM222 147h249l-114 382h-10z" />
    <glyph glyph-name="uni03A9" unicode="&#x3a9;" horiz-adv-x="830" 
d="M447 0v214q22 9 45 24.5t41.5 39.5t30 57.5t11.5 78.5q0 49 -11 82t-31 53.5t-47.5 29t-60.5 8.5q-63 0 -104.5 -44t-41.5 -137q0 -64 27.5 -114.5t79.5 -76.5v-215h-341v182h127l12 -43q2 -8 5 -9.5t11 -1.5h64v31q-181 65 -181 261q0 69 23.5 127.5t68 100.5
t108.5 65.5t144 23.5q176 0 258 -78.5t82 -220.5q0 -57 -17 -102t-44.5 -79.5t-63.5 -58.5t-74 -39v-31h62q8 0 11 1.5t5 9.5l12 43h127v-182h-338z" />
    <glyph glyph-name="uni03BC" unicode="&#x3bc;" horiz-adv-x="629" 
d="M363 525h187v-405q0 -8 2 -12t12 -6l48 -7v-95h-212l-8 47h-7q-24 -17 -55.5 -34t-78.5 -23l13 -166h-194v701h187v-329q0 -34 7.5 -49t30.5 -15q22 0 39.5 7t28.5 15v371z" />
    <glyph glyph-name="pi" unicode="&#x3c0;" horiz-adv-x="674" 
d="M388 0v409h-102v-409h-246v94l43 7q11 2 13.5 5t2.5 15v280q0 11 -2.5 14.5t-13.5 5.5l-43 7v97h594v-97l-43 -7q-11 -2 -13.5 -5.5t-2.5 -14.5v-280q0 -12 2.5 -15t13.5 -5l43 -7v-94h-246z" />
    <glyph glyph-name="afii10023" unicode="&#x401;" horiz-adv-x="627" 
d="M288 859q0 -36 -22 -57.5t-58 -21.5t-58.5 21.5t-22.5 57.5t22.5 57t58.5 21t58 -21t22 -57zM500 859q0 -36 -22 -57.5t-58 -21.5t-58.5 21.5t-22.5 57.5t22.5 57t58.5 21t58 -21t22 -57zM25 0v93l63 7q11 2 13.5 5.5t2.5 14.5v483q0 11 -2.5 15t-13.5 5l-63 7v94h550
v-224l-136 5l-14 76q-3 13 -17 13h-112v-164h215v-135h-215v-166h134q8 0 11 1.5t5 9.5l16 88h135v-228h-572z" />
    <glyph glyph-name="afii10051" unicode="&#x402;" horiz-adv-x="826" 
d="M806 217q0 -36 -9.5 -76.5t-33 -74.5t-63 -56t-99.5 -22q-30 0 -62.5 6.5t-61.5 17.5v0l13 62l12 62v0q13 -5 29 -7t25 -2q34 0 48 22.5t14 54.5q0 49 -28.5 68t-73.5 19q-29 0 -71 -8v-283h-272v94l64 7q11 1 13.5 5t2.5 15v472h-62q-8 0 -11 -1.5t-5 -9.5l-16 -82
l-134 -5v229h706v-229l-134 5l-16 82q-2 8 -5 9.5t-11 1.5h-120v-174q21 5 52 9.5t70 4.5q53 0 97 -14.5t75.5 -42t49 -68t17.5 -91.5z" />
    <glyph glyph-name="afii10052" unicode="&#x403;" horiz-adv-x="619" 
d="M249 767l-40 79l217 118l56 -115zM24 0v94l64 7q11 1 13.5 5t2.5 15v481q0 11 -3 14.5t-14 5.5l-63 7v95h570v-229h-134l-16 87q-2 8 -5 9.5t-11 1.5h-132v-472q0 -11 2.5 -14.5t13.5 -4.5l140 -8v-94h-428z" />
    <glyph glyph-name="afii10053" unicode="&#x404;" horiz-adv-x="678" 
d="M633 45q-23 -13 -53 -24t-62.5 -18t-66.5 -11t-64 -4q-98 0 -167.5 25.5t-114 74t-65 118.5t-20.5 158q0 80 24 148.5t71 118.5t118 78t165 28q63 0 126.5 -15t107.5 -43v-218l-136 11l-16 100q-3 14 -16 17q-16 3 -32.5 5t-34.5 2q-70 0 -115.5 -41t-58.5 -127h235v-136
h-234q14 -85 59 -125t111 -40q19 0 38.5 2t33.5 5q11 2 14.5 5.5t5.5 16.5l15 95h132v-206z" />
    <glyph glyph-name="afii10054" unicode="&#x405;" horiz-adv-x="598" 
d="M406 496l-10 79q-2 11 -4.5 14t-9.5 5q-15 3 -28.5 4.5t-29.5 1.5q-44 0 -66 -18.5t-22 -47.5q0 -32 24.5 -48.5t61.5 -28t80.5 -24t80.5 -36t61.5 -64t24.5 -107.5q0 -63 -23 -108.5t-62.5 -74t-92 -42t-112.5 -13.5q-34 0 -69.5 4t-68.5 10t-60 14t-43 15v213h139
l21 -99q2 -8 5 -11t12 -5q8 -2 26.5 -4t38.5 -2q52 0 78 19t26 54q0 33 -24.5 50t-61.5 28.5t-80.5 23t-80.5 34.5t-61.5 62t-24.5 106q0 60 21 104.5t58.5 74t88 44t110.5 14.5q66 0 122 -13t95 -30v-210z" />
    <glyph glyph-name="afii10055" unicode="&#x406;" horiz-adv-x="412" 
d="M21 0v93l73 7q11 1 13.5 5t2.5 15v482q0 11 -2.5 15t-13.5 5l-73 7v95h374v-95l-77 -8q-11 -2 -13.5 -5t-2.5 -14v-481q0 -12 2.5 -15t13.5 -5l77 -8v-93h-374z" />
    <glyph glyph-name="afii10056" unicode="&#x407;" horiz-adv-x="412" 
d="M21 0v93l73 7q11 1 13.5 5t2.5 15v482q0 11 -2.5 15t-13.5 5l-73 7v95h374v-95l-77 -8q-11 -2 -13.5 -5t-2.5 -14v-481q0 -12 2.5 -15t13.5 -5l77 -8v-93h-374zM20 859q0 36 22.5 57t58.5 21t58 -21t22 -57t-22 -57.5t-58 -21.5t-58.5 21.5t-22.5 57.5zM232 859
q0 36 22.5 57t58.5 21t58 -21t22 -57t-22 -57.5t-58 -21.5t-58.5 21.5t-22.5 57.5z" />
    <glyph glyph-name="afii10057" unicode="&#x408;" horiz-adv-x="529" 
d="M242 603q0 10 -3 13.5t-13 4.5l-93 8v95h384v-95l-67 -8q-11 -2 -13.5 -5t-2.5 -14v-430q0 -94 -47.5 -139t-154.5 -45q-31 0 -63 3.5t-60 9.5t-50 13.5t-34 14.5v202l137 -10l11 -73q1 -11 10 -12q3 -1 11.5 -2t16.5 -1q17 0 24 7.5t7 29.5v433z" />
    <glyph glyph-name="afii10058" unicode="&#x409;" horiz-adv-x="1046" 
d="M1016 229q0 -59 -21 -102.5t-58 -71.5t-87.5 -41.5t-109.5 -13.5h-328v94l64 7q11 1 13.5 5t2.5 15v472h-147q1 -37 0.5 -84t-2 -95.5t-5.5 -95t-11 -84.5q-7 -42 -23.5 -85.5t-49.5 -79t-86 -59.5t-133 -27l-28 164q39 5 66.5 18t45.5 37.5t28.5 60.5t15.5 85
q5 48 6 108.5t1 136.5q0 18 -3.5 22.5t-14.5 6.5l-63 7v95h705v-95l-93 -8q-17 -3 -17 -19v-163h94q71 0 117 -16t73 -44t37.5 -66.5t10.5 -83.5zM716 129q45 0 73.5 20t28.5 72q0 31 -8 49.5t-22 28.5t-32.5 13.5t-38.5 3.5h-33v-187h32z" />
    <glyph glyph-name="afii10059" unicode="&#x40a;" horiz-adv-x="1073" 
d="M296 423h223v179q0 11 -2.5 15t-13.5 5l-63 7v95h381v-95l-93 -8q-17 -3 -17 -19v-179h97q73 0 120.5 -14t75 -40.5t38.5 -63.5t11 -82q0 -55 -21 -97t-58 -70t-87.5 -42t-109.5 -14h-338v94l64 7q11 1 13.5 5t2.5 15v172h-223v-172q0 -12 2.5 -15t13.5 -5l67 -8v-93
h-354v93l63 7q11 2 13.5 5.5t2.5 14.5v482q0 11 -2.5 15t-13.5 5l-63 7v95h354v-95l-67 -8q-11 -2 -13.5 -5t-2.5 -14v-179zM753 129q45 0 73.5 20.5t28.5 68.5q0 24 -8 38.5t-22 22.5t-32.5 10.5t-38.5 2.5h-43v-163h42z" />
    <glyph glyph-name="afii10060" unicode="&#x40b;" horiz-adv-x="873" 
d="M445 420q21 5 53.5 9t73.5 4q60 0 99.5 -15t62.5 -41t32.5 -62.5t9.5 -80.5v-113q0 -10 2.5 -14t13.5 -6l67 -8v-93h-275v0v71v0v142q0 45 -16.5 61t-51.5 16q-16 0 -33 -2.5t-38 -6.5v-158q0 -10 2.5 -15t13.5 -7l67 -8v-93h-355v94l64 7q11 1 13.5 5t2.5 15v472h-62
q-8 0 -11 -1.5t-5 -9.5l-16 -82l-134 -5v229h706v-229l-134 5l-16 82q-2 8 -5 9.5t-11 1.5h-120v-173z" />
    <glyph glyph-name="afii10061" unicode="&#x40c;" horiz-adv-x="789" 
d="M364 767l-40 79l217 118l56 -115zM296 434h56q32 0 50 12.5t30 50.5l34 103q10 29 21.5 54t29.5 43.5t45.5 29t67.5 10.5q20 0 47.5 -2.5t47.5 -7.5l-7 -129q-40 5 -58 -6t-31 -49l-28 -83q-15 -43 -40 -59.5t-48 -23.5v-3q29 -8 49 -28.5t41 -61.5l79 -152
q6 -12 12 -18.5t19 -8.5l62 -10v-95h-257q-25 72 -54 132.5t-55 111.5q-16 31 -33 42t-45 11h-35v-175q0 -12 2.5 -15t13.5 -5l68 -8v-94h-355v94l63 7q11 1 13.5 5t2.5 15v482q0 11 -2.5 14.5t-13.5 5.5l-63 7v94h354v-94l-67 -8q-11 -2 -13.5 -5t-2.5 -14v-169z" />
    <glyph glyph-name="afii10062" unicode="&#x40e;" horiz-adv-x="729" 
d="M398 881q29 0 44.5 17.5t25.5 55.5l111 -29q-17 -71 -61.5 -107t-121.5 -36t-124 36t-59 104l118 34q4 -35 19.5 -55t47.5 -20zM450 146q-22 -51 -45.5 -82.5t-50.5 -48t-58 -22t-68 -5.5q-18 0 -40.5 3t-45 8.5t-43 12.5t-35.5 15l47 131q16 -9 41 -16t50 -7
q26 0 41.5 9.5t26.5 36.5v0l-177 417q-5 11 -11 15.5t-15 6.5l-45 11l10 93h336v-93l-74 -9l89 -264h9l104 264l-69 9l10 93h275v-93l-42 -11q-14 -4 -19 -9.5t-9 -14.5z" />
    <glyph glyph-name="afii10145" unicode="&#x40f;" horiz-adv-x="804" 
d="M21 0v95l67 8q11 2 13.5 5t2.5 14v481q0 12 -2.5 15t-13.5 5l-67 8v93h344v-93l-53 -7q-11 -2 -13.5 -5.5t-2.5 -14.5v-473h212v472q0 12 -2.5 15t-13.5 5l-57 8v93h344v-93l-63 -7q-11 -2 -13.5 -5.5t-2.5 -14.5v-482q0 -11 2.5 -15t13.5 -5l63 -7v-95h-281
q-10 0 -12.5 -3.5t-3.5 -9.5l-19 -150l-122 5l-20 145q-1 13 -13 13h-287z" />
    <glyph glyph-name="afii10017" unicode="&#x410;" horiz-adv-x="787" 
d="M429 0v93l81 9l-25 71h-229l-24 -71l78 -9v-93h-310v93l45 11q9 2 15.5 6t9.5 13l218 601h214l214 -603q3 -9 9 -12t15 -5l47 -11v-93h-358zM379 529h-10l-77 -227h159z" />
    <glyph glyph-name="afii10018" unicode="&#x411;" horiz-adv-x="671" 
d="M24 94l64 7q11 1 13.5 5t2.5 15v481q0 11 -3 14.5t-14 5.5l-63 7v95h560v-229l-134 5l-16 82q-2 8 -5 9.5t-11 1.5h-122v-184h120q66 0 110.5 -14.5t71.5 -40t39 -59.5t12 -73q0 -58 -20.5 -100t-57 -69t-87.5 -40t-111 -13h-349v94zM349 129q45 0 73.5 18.5t28.5 66.5
q0 25 -8 39.5t-22 22t-32.5 9.5t-38.5 2h-54v-158h53z" />
    <glyph glyph-name="afii10019" unicode="&#x412;" horiz-adv-x="668" 
d="M25 0v93l63 7q11 2 13.5 5.5t2.5 14.5v482q0 11 -2.5 15t-13.5 5l-63 7v95h359q64 0 106.5 -13.5t68 -37.5t36 -56.5t10.5 -69.5q0 -36 -10.5 -63.5t-27.5 -48.5t-39 -34.5t-45 -21.5v-3q86 -10 125.5 -55t39.5 -120q0 -55 -21 -93.5t-58 -62.5t-87.5 -34.5t-109.5 -10.5
h-347zM337 129q54 0 83.5 19.5t29.5 74.5q0 28 -8 45t-22 26.5t-32.5 13t-38.5 3.5h-54v-182h42zM307 429q25 0 46.5 3t37.5 12.5t25 26t9 43.5q0 29 -9 44.5t-23.5 23.5t-33 9.5t-37.5 1.5h-27v-164h12z" />
    <glyph glyph-name="afii10020" unicode="&#x413;" horiz-adv-x="619" 
d="M24 0v94l64 7q11 1 13.5 5t2.5 15v481q0 11 -3 14.5t-14 5.5l-63 7v95h570v-229h-134l-16 87q-2 8 -5 9.5t-11 1.5h-132v-472q0 -11 2.5 -14.5t13.5 -4.5l140 -8v-94h-428z" />
    <glyph glyph-name="afii10021" unicode="&#x414;" horiz-adv-x="804" 
d="M198 0q-12 0 -14 -13l-22 -131l-137 -9v284h54q30 33 50 68.5t32.5 78.5t17.5 96t5 120v108q0 11 -2.5 15t-13.5 5l-63 7v95h678v-95l-67 -8q-11 -2 -13.5 -5t-2.5 -14v-471h78v-284l-137 9l-20 132q-1 12 -14 12h-409zM360 477q0 -50 -2.5 -95.5t-11.5 -88t-25 -83
t-43 -79.5h230v462h-148v-116z" />
    <glyph glyph-name="afii10022" unicode="&#x415;" horiz-adv-x="627" 
d="M25 0v93l63 7q11 2 13.5 5.5t2.5 14.5v483q0 11 -2.5 15t-13.5 5l-63 7v94h550v-224l-136 5l-14 76q-3 13 -17 13h-112v-164h215v-135h-215v-166h134q8 0 11 1.5t5 9.5l16 88h135v-228h-572z" />
    <glyph glyph-name="afii10024" unicode="&#x416;" horiz-adv-x="1123" 
d="M656 434h31q32 0 46.5 13t28.5 50l38 103q11 29 23 54t30 43.5t45 29t67 10.5q20 0 47.5 -2.5t47.5 -7.5l-7 -129q-40 5 -58 -6t-31 -49l-27 -77q-15 -44 -36.5 -63t-49.5 -27v-3q29 -8 48.5 -30t38.5 -60l75 -151q6 -12 12 -18.5t19 -8.5l66 -10v-95h-258
q-25 72 -53.5 132.5t-54.5 111.5q-16 31 -34.5 42t-43.5 11h-10v-175q0 -12 2.5 -15t13.5 -5l49 -8v-94h-323v94l53 7q11 2 13.5 5.5t2.5 14.5v176h-16q-25 0 -42.5 -11.5t-33.5 -42.5q-26 -51 -53.5 -111t-52.5 -132h-256v95l66 10q13 2 19.5 8.5t12.5 18.5l76 147
q21 41 41.5 62.5t49.5 29.5v3q-22 7 -49 25t-42 61l-28 83q-13 38 -31 49t-58 6l-7 129q20 5 47.5 7.5t47.5 2.5q42 0 69.5 -10.5t45 -28.5t29 -42.5t21.5 -53.5l38 -105q14 -37 28.5 -50t46.5 -13h31v169q0 11 -2.5 14.5t-13.5 5.5l-58 7v94h337v-94l-58 -8
q-11 -2 -13.5 -5t-2.5 -14v-169z" />
    <glyph glyph-name="afii10025" unicode="&#x417;" horiz-adv-x="626" 
d="M321 737q139 0 198.5 -48t59.5 -134q0 -36 -11 -65t-29 -50.5t-41 -36t-47 -22.5v-4q26 -7 51.5 -19t46.5 -32t34 -50t13 -72q0 -107 -81.5 -161.5t-228.5 -54.5q-30 0 -64 3.5t-66.5 9.5t-60.5 14t-45 17v196h137l21 -82q2 -8 5 -11t12 -5q14 -4 32.5 -5.5t31.5 -1.5
q49 0 79.5 23t30.5 68q0 25 -8.5 40.5t-22.5 24t-31.5 11.5t-35.5 3h-111v136h58q75 0 107 29t32 69q0 45 -24 62.5t-60 17.5q-17 0 -33.5 -2t-31.5 -5q-13 -3 -16 -17l-16 -80l-136 -11v182q20 11 48 22.5t60.5 20.5t69 14.5t73.5 5.5z" />
    <glyph glyph-name="afii10026" unicode="&#x418;" horiz-adv-x="838" 
d="M463 0v93l63 7q11 2 13.5 5.5t2.5 14.5v340l-6 -1l-249 -459h-262v93l63 7q11 2 13.5 5.5t2.5 14.5v482q0 11 -2.5 15t-13.5 5l-63 7v95h354v-95l-67 -8q-11 -2 -13.5 -5t-2.5 -14v-313l6 1l236 434h279v-95l-67 -8q-11 -2 -13.5 -5t-2.5 -14v-481q0 -12 2.5 -15t13.5 -5
l67 -8v-93h-354z" />
    <glyph glyph-name="afii10027" unicode="&#x419;" horiz-adv-x="838" 
d="M445 881q29 0 44.5 17.5t25.5 55.5l111 -29q-17 -71 -61.5 -107t-121.5 -36t-124 36t-59 104l118 34q4 -35 19.5 -55t47.5 -20zM463 0v93l63 7q11 2 13.5 5.5t2.5 14.5v340l-6 -1l-249 -459h-262v93l63 7q11 2 13.5 5.5t2.5 14.5v482q0 11 -2.5 15t-13.5 5l-63 7v95h354
v-95l-67 -8q-11 -2 -13.5 -5t-2.5 -14v-313l6 1l236 434h279v-95l-67 -8q-11 -2 -13.5 -5t-2.5 -14v-481q0 -12 2.5 -15t13.5 -5l67 -8v-93h-354z" />
    <glyph glyph-name="afii10028" unicode="&#x41a;" horiz-adv-x="789" 
d="M296 434h56q32 0 50 12.5t30 50.5l34 103q10 29 21.5 54t29.5 43.5t45.5 29t67.5 10.5q20 0 47.5 -2.5t47.5 -7.5l-7 -129q-40 5 -58 -6t-31 -49l-28 -83q-15 -43 -40 -59.5t-48 -23.5v-3q29 -8 49 -28.5t41 -61.5l79 -152q6 -12 12 -18.5t19 -8.5l62 -10v-95h-257
q-25 72 -54 132.5t-55 111.5q-16 31 -33 42t-45 11h-35v-175q0 -12 2.5 -15t13.5 -5l68 -8v-94h-355v94l63 7q11 1 13.5 5t2.5 15v482q0 11 -2.5 14.5t-13.5 5.5l-63 7v94h354v-94l-67 -8q-11 -2 -13.5 -5t-2.5 -14v-169z" />
    <glyph glyph-name="afii10029" unicode="&#x41b;" horiz-adv-x="808" 
d="M443 0v93l53 7q11 2 13.5 5.5t2.5 14.5v473h-164q1 -37 0.5 -84t-2 -95.5t-5.5 -95t-11 -84.5q-7 -42 -24.5 -86.5t-51 -80.5t-86 -59t-130.5 -24l-29 163q38 5 65 17.5t45 35t28.5 56t16.5 79.5q6 49 7.5 112.5t1.5 144.5q0 18 -3.5 22.5t-14.5 6.5l-66 8v95h698v-95
l-67 -8q-11 -2 -13.5 -5t-2.5 -14v-481q0 -12 2.5 -15t13.5 -5l67 -8v-93h-344z" />
    <glyph glyph-name="afii10030" unicode="&#x41c;" horiz-adv-x="974" 
d="M589 0v93l82 7q11 1 13.5 5t2.5 15v308h-6l-113 -300h-199l-112 302h-6v-309q0 -12 2.5 -15.5t13.5 -4.5l85 -8v-93h-327v93l63 7q11 1 13.5 5t2.5 15v483q0 11 -2.5 14.5t-13.5 5.5l-63 7v94h305l158 -443h7l161 443h297v-93l-67 -8q-11 -2 -13.5 -5t-2.5 -14v-484
q0 -10 3 -14t13 -5l67 -8v-93h-364z" />
    <glyph glyph-name="afii10031" unicode="&#x41d;" horiz-adv-x="824" 
d="M449 0v93l63 7q11 2 13.5 5.5t2.5 14.5v183h-232v-182q0 -12 2.5 -15t13.5 -5l67 -8v-93h-354v93l63 7q11 2 13.5 5.5t2.5 14.5v482q0 11 -2.5 15t-13.5 5l-63 7v95h354v-95l-67 -8q-11 -2 -13.5 -5t-2.5 -14v-163h232v163q0 11 -2.5 15t-13.5 5l-63 7v95h354v-95l-67 -8
q-11 -2 -13.5 -5t-2.5 -14v-481q0 -12 2.5 -15t13.5 -5l67 -8v-93h-354z" />
    <glyph glyph-name="afii10032" unicode="&#x41e;" horiz-adv-x="749" 
d="M369 -12q-93 0 -159 27.5t-108.5 76.5t-62 116.5t-19.5 148.5t22.5 150.5t68 120.5t113.5 80t159 29q92 0 157.5 -29t107.5 -78.5t61.5 -116.5t19.5 -142q0 -88 -22 -158.5t-66.5 -120.5t-112 -77t-159.5 -27zM377 138q34 0 62.5 11t49 37t32 69t11.5 107
q0 122 -40 173.5t-110 51.5q-36 0 -66 -12.5t-52 -40t-34 -70.5t-12 -103q0 -63 11.5 -105.5t32 -68.5t50 -37.5t65.5 -11.5z" />
    <glyph glyph-name="afii10033" unicode="&#x41f;" horiz-adv-x="804" 
d="M439 0v93l53 7q11 2 13.5 5.5t2.5 14.5v473h-212v-472q0 -12 2.5 -15t13.5 -5l57 -8v-93h-344v93l63 7q11 2 13.5 5.5t2.5 14.5v482q0 11 -2.5 15t-13.5 5l-63 7v95h758v-95l-67 -8q-11 -2 -13.5 -5t-2.5 -14v-481q0 -12 2.5 -15t13.5 -5l67 -8v-93h-344z" />
    <glyph glyph-name="afii10034" unicode="&#x420;" horiz-adv-x="643" 
d="M25 0v94l63 7q11 2 13.5 5.5t2.5 14.5v481q0 11 -2.5 15t-13.5 5l-63 7v95h357q69 0 115.5 -17t74.5 -46.5t39.5 -68t11.5 -81.5q0 -66 -19 -113t-54.5 -77t-86.5 -44t-114 -14h-54v-141q0 -12 2.5 -15t13.5 -5l143 -8v-94h-429zM316 391q17 0 36.5 3t36 14t27 32.5
t10.5 58.5q0 34 -10 53t-25 28t-33 11t-35 2h-28v-202h21z" />
    <glyph glyph-name="afii10035" unicode="&#x421;" horiz-adv-x="678" 
d="M633 45q-23 -13 -53 -24t-63.5 -18t-69.5 -11t-70 -4q-94 0 -161.5 25.5t-111 74t-64 118.5t-20.5 158q0 80 24 148.5t71.5 118.5t119 78t166.5 28q60 0 123.5 -15t107.5 -43v-218l-136 11l-16 100q-3 14 -16 17q-16 3 -32.5 5t-34.5 2q-82 0 -130 -56.5t-48 -175.5
q0 -123 46 -180.5t125 -57.5q19 0 40.5 2.5t35.5 5.5q11 2 14.5 5.5t5.5 16.5l15 95h132v-206z" />
    <glyph glyph-name="afii10036" unicode="&#x422;" horiz-adv-x="722" 
d="M146 0v94l103 7q11 1 13.5 5t2.5 15v472h-72q-8 0 -11 -1.5t-5 -9.5l-16 -87h-136v229h670v-229h-134l-16 87q-2 8 -5 9.5t-11 1.5h-72v-472q0 -11 2.5 -14.5t13.5 -4.5l110 -8v-94h-437z" />
    <glyph glyph-name="afii10037" unicode="&#x423;" horiz-adv-x="729" 
d="M450 146q-22 -51 -45.5 -82.5t-50.5 -48t-58 -22t-68 -5.5q-18 0 -40.5 3t-45 8.5t-43 12.5t-35.5 15l47 131q16 -9 41 -16t50 -7q26 0 41.5 9.5t26.5 36.5v0l-177 417q-5 11 -11 15.5t-15 6.5l-45 11l10 93h336v-93l-74 -9l89 -264h9l104 264l-69 9l10 93h275v-93
l-42 -11q-14 -4 -19 -9.5t-9 -14.5z" />
    <glyph glyph-name="afii10038" unicode="&#x424;" horiz-adv-x="885" 
d="M864 375q0 -72 -27.5 -118t-74 -72t-106 -37.5t-124.5 -14.5v-15q0 -12 2.5 -15t13.5 -5l70 -4v-94h-352v94l67 3q11 2 13.5 5.5t2.5 14.5v15q-66 3 -126 11t-105.5 32t-73 68t-27.5 119q0 52 15.5 95t53.5 74t102 49t161 21v14q0 11 -2.5 15t-13.5 5l-67 7v95h352v-95
l-70 -7q-16 -1 -16 -19v-15q105 -2 170 -19t101 -46t48.5 -70t12.5 -91zM664 369q0 56 -32 76t-107 21v-199q78 1 108.5 28t30.5 74zM217 361q0 -49 32 -71.5t107 -23.5v201q-80 -2 -109.5 -29.5t-29.5 -76.5z" />
    <glyph glyph-name="afii10039" unicode="&#x425;" horiz-adv-x="817" 
d="M426 0v93l80 9l-119 150l-118 -150l79 -9v-93h-317v93l62 11q9 2 15 6.5t12 12.5l186 225l-206 255q-8 13 -24 17l-55 11l10 93h363v-93l-80 -9l119 -153l126 153l-79 9l10 93h292v-93l-52 -11q-9 -2 -14 -7t-11 -12l-190 -226l205 -252q6 -7 12 -12t15 -7l55 -11v-93
h-376z" />
    <glyph glyph-name="afii10040" unicode="&#x426;" horiz-adv-x="794" 
d="M635 -147l-22 135q-1 12 -14 12h-578v95l67 8q11 2 13.5 5t2.5 14v481q0 12 -2.5 15t-13.5 5l-67 8v93h344v-93l-53 -7q-11 -2 -13.5 -5.5t-2.5 -14.5v-473h202v472q0 12 -2.5 15t-13.5 5l-52 8v93h339v-93l-63 -7q-11 -2 -13.5 -5.5t-2.5 -14.5v-473h79v-287z" />
    <glyph glyph-name="afii10041" unicode="&#x427;" horiz-adv-x="728" 
d="M274 94l143 8q11 2 13.5 5t2.5 15v135q-33 -5 -61.5 -7.5t-54.5 -2.5q-75 0 -120 18t-68.5 46t-31 62t-7.5 67v162q0 18 -16 21l-52 8v93h319v-95l-43 -7q-11 -1 -13.5 -5t-2.5 -15v-142q0 -20 3.5 -35t13 -25.5t26.5 -16t45 -5.5t63 7v217q0 18 -16 21l-32 8v93h318v-95
l-63 -7q-11 -1 -13.5 -5t-2.5 -15v-481q0 -11 2.5 -14.5t13.5 -5.5l63 -7v-94h-429v94z" />
    <glyph glyph-name="afii10042" unicode="&#x428;" horiz-adv-x="1069" 
d="M21 95l67 8q11 2 13.5 5t2.5 14v481q0 12 -2.5 15t-13.5 5l-67 8v93h325v-93l-34 -7q-11 -2 -13.5 -6t-2.5 -15v-472h143v471q0 12 -3 16t-14 6l-37 7v93h296v-93l-34 -7q-11 -2 -13.5 -6.5t-2.5 -15.5v-471h142v470q0 12 -3.5 16.5t-14.5 6.5l-31 7v93h320v-93l-63 -7
q-11 -2 -13.5 -5.5t-2.5 -14.5v-489q0 -7 3.5 -9t12.5 -3l67 -8v-95h-1027v95z" />
    <glyph glyph-name="afii10043" unicode="&#x429;" horiz-adv-x="1061" 
d="M765 131v470q0 12 -3.5 16.5t-14.5 6.5l-31 7v93h320v-93l-63 -7q-11 -2 -13.5 -5.5t-2.5 -14.5v-473h79v-287l-134 9l-23 135q-1 12 -14 12h-844v95l67 8q11 2 13.5 5t2.5 14v481q0 12 -2.5 15t-13.5 5l-67 8v93h325v-93l-34 -7q-11 -2 -13.5 -6t-2.5 -15v-472h139v471
q0 12 -3 16t-14 6l-37 7v93h296v-93l-34 -7q-11 -2 -13.5 -6.5t-2.5 -15.5v-471h138z" />
    <glyph glyph-name="afii10044" unicode="&#x42a;" horiz-adv-x="819" 
d="M185 94l64 7q11 1 13.5 5t2.5 15v472h-62q-8 0 -11 -1.5t-5 -9.5l-16 -82l-134 -5v229h530v-95l-93 -8q-11 -2 -14 -5t-3 -14v-163h112q65 0 109 -14.5t71 -41.5t38.5 -65.5t11.5 -86.5q0 -61 -21 -104.5t-58 -71.5t-87.5 -41.5t-109.5 -13.5h-338v94zM499 129
q45 0 73.5 20.5t28.5 73.5q0 28 -8 46.5t-22 29t-32.5 14.5t-38.5 4h-43v-188h42z" />
    <glyph glyph-name="afii10045" unicode="&#x42b;" horiz-adv-x="1015" 
d="M334 129q45 0 70.5 21t25.5 76q0 29 -8 46.5t-22 27.5t-32.5 13.5t-38.5 3.5h-33v-188h38zM15 724h391v-95l-93 -8q-11 -2 -14 -5t-3 -14v-163h93q68 0 114 -15t74 -42t39.5 -65t11.5 -85q0 -62 -20 -106t-55.5 -72t-85 -41t-108.5 -13h-335v94l64 7q11 1 13.5 5t2.5 15
v487q-1 8 -4 10.5t-12 3.5l-73 7v95zM630 0v93l73 7q11 1 13.5 5t2.5 15v482q0 11 -2.5 15t-13.5 5l-73 7v95h374v-95l-77 -8q-11 -2 -13.5 -5t-2.5 -14v-481q0 -12 2.5 -15t13.5 -5l77 -8v-93h-374z" />
    <glyph glyph-name="afii10046" unicode="&#x42c;" horiz-adv-x="658" 
d="M15 724h391v-95l-93 -8q-11 -2 -14 -5t-3 -14v-163h93q68 0 114 -15t74 -42t39.5 -65t11.5 -85q0 -62 -20 -106t-55.5 -72t-85 -41t-108.5 -13h-335v94l64 7q11 1 13.5 5t2.5 15v487q-1 8 -4 10.5t-12 3.5l-73 7v95zM334 129q45 0 70.5 21t25.5 76q0 29 -8 46.5t-22 27.5
t-32.5 13.5t-38.5 3.5h-33v-188h38z" />
    <glyph glyph-name="afii10047" unicode="&#x42d;" horiz-adv-x="678" 
d="M45 680q22 12 53.5 22.5t66.5 18t72 12t71 4.5q183 0 266.5 -93t83.5 -270q0 -80 -22.5 -150.5t-69.5 -123t-118.5 -82.5t-170.5 -30q-31 0 -64.5 3.5t-65.5 10t-60.5 17t-50.5 24.5v210h136l16 -100q3 -14 16 -17q16 -3 32.5 -5t34.5 -2q69 0 118.5 41.5t63.5 126.5
h-223v136h224q-14 86 -56.5 125.5t-100.5 39.5q-29 0 -50 -2t-35 -5q-11 -2 -14.5 -5.5t-5.5 -16.5l-15 -95h-132v206z" />
    <glyph glyph-name="afii10048" unicode="&#x42e;" horiz-adv-x="1054" 
d="M15 0v93l73 7q11 1 13.5 5t2.5 15v482q0 11 -2.5 15t-13.5 5l-73 7v95h374v-95l-77 -8q-11 -2 -13.5 -5t-2.5 -14v-174h93q8 67 31 123.5t63.5 98t98.5 64.5t136 23q88 0 148 -29t97.5 -78.5t54 -116.5t16.5 -142q0 -88 -19 -158.5t-59 -120.5t-101 -77t-145 -27
q-80 0 -138 22t-97 62t-60.5 96t-27.5 124h-91v-171q0 -12 2.5 -15t13.5 -5l77 -8v-93h-374zM712 138q30 0 53.5 11t39.5 37t24 69t8 107q0 122 -29 173.5t-91 51.5q-64 0 -99 -52.5t-35 -173.5q0 -63 8 -105.5t24 -68.5t40.5 -37.5t56.5 -11.5z" />
    <glyph glyph-name="afii10049" unicode="&#x42f;" horiz-adv-x="733" 
d="M8 95l62 10q15 2 21 7.5t11 17.5l53 114q14 32 33.5 54.5t56.5 34.5v4q-30 6 -57.5 20t-48.5 36t-33.5 52.5t-12.5 70.5q0 39 11.5 76t40 66.5t76 47.5t119.5 18h368v-94l-63 -7q-11 -2 -13.5 -5.5t-2.5 -14.5v-481q0 -11 2.5 -15t13.5 -5l63 -7v-95h-336v95l50 8
q11 2 13.5 5t2.5 15v161h-27q-24 0 -37 -12.5t-25 -38.5q-26 -56 -47 -112t-44 -121h-250v95zM438 593h-51q-42 0 -69.5 -20t-27.5 -71q0 -31 9.5 -49.5t25 -28.5t36 -13.5t41.5 -3.5h36v186z" />
    <glyph glyph-name="afii10065" unicode="&#x430;" horiz-adv-x="567" 
d="M352 0l-11 56l-7 2q-12 -12 -27 -24.5t-34 -22.5t-43.5 -16.5t-54.5 -6.5q-48 0 -77 14.5t-45.5 37t-22 50t-5.5 53.5q0 75 47 110t143 40l103 6v58q0 12 -0.5 23t-5 19.5t-14 13.5t-27.5 5q-29 0 -41 -11t-12 -49l-174 13q0 53 21.5 85.5t55.5 50t74.5 23.5t77.5 6
q59 0 102 -9t71 -30t41 -56.5t13 -88.5v-230q0 -12 2.5 -15t13.5 -5l46 -8v-94h-210zM318 213l-41 -2q-32 -2 -46.5 -13.5t-14.5 -37.5q0 -23 14 -33t33 -10q14 0 29 3t26 10v83z" />
    <glyph glyph-name="afii10066" unicode="&#x431;" horiz-adv-x="572" 
d="M284 -12q-76 0 -126.5 23.5t-80.5 66.5t-42 103.5t-12 134.5q0 79 13 146t46 119t89 87.5t143 50.5q32 6 50 8t28 4.5t13.5 6.5t6.5 13l122 3q11 -82 -19.5 -121.5t-96.5 -47.5q-75 -9 -125 -18t-82.5 -25t-50 -42.5t-27.5 -70.5l5 -2q27 43 75 66t116 23q59 0 101.5 -18
t69.5 -50.5t39.5 -79t12.5 -103.5q0 -62 -15 -113t-47 -87.5t-83 -56.5t-123 -20zM288 114q17 0 30 7t21.5 24.5t13 46.5t4.5 73q0 69 -15.5 95.5t-50.5 26.5t-53.5 -26.5t-18.5 -96.5q0 -85 16.5 -117.5t52.5 -32.5z" />
    <glyph glyph-name="afii10067" unicode="&#x432;" horiz-adv-x="577" 
d="M15 0v94l48 5q8 1 10 4t2 11v296q0 8 -2 11t-10 4l-48 5v95h338q49 0 81.5 -10t52 -27.5t27.5 -41.5t8 -51q0 -26 -8 -45.5t-21 -34t-29.5 -24t-34.5 -14.5v-3q66 -7 95 -38.5t29 -86.5q0 -40 -16.5 -68.5t-45.5 -46.5t-67.5 -26t-83.5 -8h-325zM310 120q30 0 42 12
t12 34q0 18 -5 28t-13 15t-17.5 6t-19.5 1h-48v-96h49zM305 324q23 0 35 9t12 32q0 26 -14.5 31.5t-28.5 5.5h-48v-78h44z" />
    <glyph glyph-name="afii10068" unicode="&#x433;" horiz-adv-x="502" 
d="M14 0v94l49 5q8 1 10 4t2 11v296q0 8 -2.5 11t-10.5 4l-48 5v95h466v-212h-130l-12 81q-1 5 -3 6t-8 1h-65v-288q0 -7 2 -10t10 -3l104 -6v-94h-364z" />
    <glyph glyph-name="afii10069" unicode="&#x434;" horiz-adv-x="666" 
d="M182 0q-8 0 -10 -9l-17 -116l-130 -9v264h39q23 20 37 41t22.5 45.5t11.5 53.5t3 65v75q0 8 -2 10.5t-10 3.5l-48 5v96h568v-96l-51 -5q-9 -2 -10.5 -3.5t-1.5 -9.5v-281h61v-264l-130 9l-17 117q-1 4 -2.5 6t-6.5 2h-306zM305 309q0 -38 -8.5 -84t-42.5 -95h142v264h-91
v-85z" />
    <glyph glyph-name="afii10070" unicode="&#x435;" horiz-adv-x="537" 
d="M509 43q-53 -24 -107.5 -39.5t-112.5 -15.5q-75 0 -126.5 21t-83 58.5t-45.5 88.5t-14 110q0 69 20.5 119.5t55.5 84t82.5 50t101.5 16.5q51 0 93 -13.5t72 -43.5t46.5 -77.5t16.5 -114.5q0 -8 -0.5 -22.5t-2.5 -31.5h-286q3 -57 25.5 -81.5t69.5 -24.5q22 0 58.5 6.5
t94.5 25.5zM325 323q0 27 -4 43.5t-10.5 25.5t-16 12t-20.5 3q-21 0 -36.5 -16t-18.5 -68h106z" />
    <glyph glyph-name="afii10072" unicode="&#x436;" horiz-adv-x="924" 
d="M554 319h16q10 0 18 2t15 8.5t14 19.5t14 35l17 52q7 21 17.5 39.5t27 32t40.5 21t57 7.5q20 0 46.5 -4.5t46.5 -12.5l-15 -110q-27 5 -41.5 -1t-22.5 -31l-15 -43q-11 -31 -24.5 -43.5t-29.5 -17.5v-2q17 -5 32 -18.5t29 -43.5l42 -88q5 -8 9 -12.5t14 -6.5l53 -8v-94
h-229q-18 52 -33.5 92t-29.5 68q-15 31 -25.5 40.5t-25.5 9.5h-17v-96q0 -8 2 -11t10 -4l35 -5v-94h-279v94l37 5q8 1 10 4.5t2 10.5v96h-18q-20 0 -31 -9.5t-26 -40.5q-14 -28 -29.5 -68t-33.5 -92h-223v94l53 8q10 2 14 6.5t9 12.5l42 88q14 29 29 42.5t32 19.5v2
q-16 5 -29.5 17.5t-24.5 43.5l-15 43q-8 25 -24.5 31t-43.5 1l-6 112q20 8 47.5 11.5t47.5 3.5q33 0 55.5 -7.5t37.5 -21t23.5 -31.5t14.5 -40l14 -52q6 -22 12.5 -35t14 -20t16.5 -8.5t21 -1.5h21v77q0 15 -12 19l-44 16l14 94h225v-206z" />
    <glyph glyph-name="afii10073" unicode="&#x437;" horiz-adv-x="497" 
d="M270 536q105 0 151.5 -35.5t46.5 -97.5q0 -28 -9 -49.5t-22.5 -36.5t-29 -25t-28.5 -16v-2q18 -5 36.5 -13t33 -21.5t24 -34.5t9.5 -53q0 -43 -21 -74.5t-55 -51t-76.5 -29t-85.5 -9.5q-66 0 -127.5 18t-100.5 49l58 112q9 -6 26.5 -14t39 -15.5t46.5 -13t50 -5.5
q31 0 49.5 11.5t18.5 31.5q0 26 -16.5 32t-32.5 6h-105v119h54q53 0 72 18t19 37q0 46 -56 46q-8 0 -18 -1t-19 -4q-5 -2 -7.5 -3.5t-4.5 -9.5l-12 -51l-132 -11v146q16 8 40.5 17t53.5 16.5t62.5 12t67.5 4.5z" />
    <glyph glyph-name="afii10074" unicode="&#x438;" horiz-adv-x="666" 
d="M359 0v93l43 5q8 1 10.5 4t2.5 11v167h-4l-159 -280h-237v93l48 5q8 1 10 4t2 11v297q0 8 -2 10.5t-10 3.5l-48 5v96h297v-96l-48 -5q-8 -2 -10 -4t-2 -10v-196h4l170 311h229v-96l-51 -5q-9 -2 -11 -4t-2 -10v-297q0 -8 2 -10.5t11 -3.5l51 -6v-93h-296z" />
    <glyph glyph-name="afii10075" unicode="&#x439;" horiz-adv-x="666" 
d="M359 0v93l43 5q8 1 10.5 4t2.5 11v167h-4l-159 -280h-237v93l48 5q8 1 10 4t2 11v297q0 8 -2 10.5t-10 3.5l-48 5v96h297v-96l-48 -5q-8 -2 -10 -4t-2 -10v-196h4l170 311h229v-96l-51 -5q-9 -2 -11 -4t-2 -10v-297q0 -8 2 -10.5t11 -3.5l51 -6v-93h-296zM355 667
q29 0 44.5 17.5t25.5 55.5l111 -29q-17 -71 -61.5 -107t-121.5 -36t-124 36t-59 104l118 34q4 -35 19.5 -55t47.5 -20z" />
    <glyph glyph-name="afii10076" unicode="&#x43a;" horiz-adv-x="634" 
d="M286 319q10 0 19 2t17 8.5t16 19.5t15 35l17 52q14 43 45 71.5t91 28.5q20 0 46.5 -4.5t46.5 -12.5l-15 -110q-30 8 -46.5 0t-24.5 -33l-14 -42q-11 -31 -24.5 -43t-29.5 -17v-3q17 -5 32 -18.5t29 -43.5l42 -88q5 -8 9 -12.5t14 -6.5l53 -8v-94h-216q-18 52 -33.5 92
t-29.5 68q-15 31 -27.5 40.5t-39.5 9.5h-16v-96q0 -8 2 -11t10 -4l35 -5v-94h-294v94l48 5q8 1 10 4.5t2 10.5v297q0 8 -2 10.5t-10 3.5l-48 6v94h302v-94l-43 -6q-8 -2 -10 -4t-2 -10v-92h24z" />
    <glyph glyph-name="afii10077" unicode="&#x43b;" horiz-adv-x="651" 
d="M340 0v93l37 5q8 1 10.5 4t2.5 11v281h-92q-3 -54 -6.5 -102t-11.5 -99q-6 -41 -17 -79t-36 -66.5t-69.5 -46t-118.5 -18.5l-29 145q57 0 81 32.5t34 94.5q5 31 8 68.5t6 82.5q2 17 -15 18l-48 5v96h563v-96l-50 -5q-10 -2 -11.5 -3.5t-1.5 -9.5v-298q0 -8 2 -10.5
t11 -3.5l50 -6v-93h-299z" />
    <glyph glyph-name="afii10078" unicode="&#x43c;" horiz-adv-x="771" 
d="M450 0v93l62 5q12 2 12 14v187h-3l-68 -179h-163l-72 179h-2v-186q1 -8 2.5 -10.5t9.5 -3.5l64 -6v-93h-277v93l48 5q12 2 12 15v298q0 8 -2 11t-10 4l-48 5v94h274l97 -261h2l100 261h272v-93l-51 -6q-13 -1 -13 -16v-297q0 -8 2.5 -10.5t10.5 -3.5l51 -6v-93h-310z" />
    <glyph glyph-name="afii10079" unicode="&#x43d;" horiz-adv-x="674" 
d="M362 0v93l38 5q8 1 10 4t2 11v92h-150v-92q0 -8 2 -10.5t10 -3.5l41 -6v-93h-300v93l48 5q8 1 10 4t2 11v297q0 8 -2 10.5t-10 3.5l-48 5v96h300v-96l-41 -5q-8 -2 -10 -4t-2 -10v-76h150v76q0 8 -2 10.5t-10 3.5l-38 5v96h300v-96l-51 -5q-8 -2 -10 -4t-2 -10v-297
q0 -8 2 -10.5t10 -3.5l51 -6v-93h-300z" />
    <glyph glyph-name="afii10080" unicode="&#x43e;" horiz-adv-x="589" 
d="M291 -12q-72 0 -123 20t-84 57t-48.5 88t-15.5 112t17 111t52 85.5t87.5 55t124.5 19.5t123 -20t83.5 -55t47 -84t14.5 -107q0 -64 -16.5 -116t-50.5 -89t-86.5 -57t-124.5 -20zM295 114q17 0 31.5 7t25 24.5t16.5 46.5t6 73q0 42 -5.5 69t-15.5 43.5t-24 23t-31 6.5
t-32 -6.5t-26 -22.5t-17.5 -43.5t-6.5 -70.5q0 -85 21.5 -117.5t57.5 -32.5z" />
    <glyph glyph-name="afii10081" unicode="&#x43f;" horiz-adv-x="655" 
d="M354 0v93l26 5q8 2 10.5 5.5t2.5 11.5v279h-131v-281q0 -8 2 -10.5t10 -3.5l30 -6v-93h-289v93l48 5q8 1 10 4t2 11v297q0 8 -2 10.5t-10 3.5l-48 5v96h628v-96l-51 -5q-8 -2 -10 -4t-2 -10v-297q0 -8 2 -10.5t10 -3.5l51 -6v-93h-289z" />
    <glyph glyph-name="afii10082" unicode="&#x440;" horiz-adv-x="620" 
d="M219 525l9 -47l7 -2q42 32 84 46t80 14q42 0 77.5 -14t62 -45t41 -81t14.5 -122q0 -77 -16 -131.5t-43 -89t-63 -50t-77 -15.5q-54 0 -87 13.5t-57 33.5v-123q0 -12 3 -15.5t14 -4.5l110 -10v-94h-367v95l39 6q11 2 15 6t4 16v477q0 16 -13 21l-51 19l13 97h201zM397 267
q0 63 -19.5 94t-55.5 31q-17 0 -35.5 -7t-31.5 -15v-220q12 -8 30 -13.5t36 -5.5q40 0 58 37t18 99z" />
    <glyph glyph-name="afii10083" unicode="&#x441;" horiz-adv-x="524" 
d="M493 42q-38 -23 -90.5 -38.5t-110.5 -15.5q-70 0 -121.5 20.5t-85 56t-49.5 84t-16 105.5q0 69 20.5 122t58 88.5t89 53.5t112.5 18t114 -15t80 -34v-171l-131 5l-12 66q-2 13 -12 17q-16 6 -40 6q-16 0 -31 -7t-26.5 -23t-18.5 -42t-7 -64q0 -46 9.5 -75.5t24.5 -46
t35 -22.5t41 -6q38 0 69.5 8t53.5 16z" />
    <glyph glyph-name="afii10084" unicode="&#x442;" horiz-adv-x="611" 
d="M124 0v94l79 5q8 0 10 3t2 11v281h-35q-12 0 -15 -12l-17 -69h-128v212h571v-212h-126l-15 70q-1 11 -13 11h-35v-281q0 -8 1.5 -10.5t10.5 -3.5l83 -5v-94h-373z" />
    <glyph glyph-name="afii10085" unicode="&#x443;" horiz-adv-x="642" 
d="M64 -68q16 -8 45 -16t59 -8q33 0 50 12.5t32 50.5l8 20l-196 411q-3 9 -7.5 12t-13.5 5l-41 9l18 97h298v-97l-61 -8l97 -219h10l88 219l-63 8l14 97h241v-97l-32 -6q-9 -2 -15 -4.5t-10 -12.5l-181 -450q-20 -50 -40.5 -84t-45.5 -55t-57 -30t-74 -9q-30 0 -57 4.5
t-48 11t-36 13.5t-21 12z" />
    <glyph glyph-name="afii10086" unicode="&#x444;" horiz-adv-x="844" 
d="M819 270q0 -80 -23 -133.5t-64 -86t-96 -47t-120 -16.5v-79q0 -12 3 -15t14 -5l43 -7v-94h-304v95l42 6q11 2 13.5 5.5t2.5 14.5v80q-87 0 -146 18.5t-94 52.5t-50 82.5t-15 106.5q0 80 23.5 134t64.5 86.5t96.5 47t120.5 15.5v87q0 16 -13 21l-52 19l13 97h238v-225
q87 0 145 -19t93 -53t50 -82t15 -106zM625 269q0 39 -8 63.5t-22.5 37.5t-34.5 17t-44 4v-261q22 -1 42 3.5t35 19.5t23.5 42.5t8.5 73.5zM219 249q0 -39 8 -63.5t22.5 -37.5t34.5 -17t44 -4v261q-22 1 -42 -3.5t-35 -19.5t-23.5 -42.5t-8.5 -73.5z" />
    <glyph glyph-name="afii10087" unicode="&#x445;" horiz-adv-x="620" 
d="M298 0v93l39 9l-55 73l-69 -72l50 -9v-94h-248v93l40 8q9 2 14 6t13 11l126 128l-136 155q-7 7 -11 10.5t-13 6.5l-38 11l10 96h296v-96l-41 -8l58 -70l69 70l-51 8l10 96h234v-96l-45 -10q-9 -3 -13 -8t-12 -11l-117 -119l138 -162q8 -8 12.5 -12t13.5 -6l38 -7v-94
h-312z" />
    <glyph glyph-name="afii10088" unicode="&#x446;" horiz-adv-x="634" 
d="M490 -125l-16 112q-2 7 -4.5 10t-11.5 3h-446v95l51 6q8 1 10 3.5t2 10.5v296q0 9 -2 11t-10 4l-51 6v93h291v-93l-27 -5q-14 -3 -14 -17v-280h110v279q0 9 -3 13t-12 6l-21 4v93h283v-93l-48 -5q-8 -2 -10 -4.5t-2 -10.5v-282h60v-264z" />
    <glyph glyph-name="afii10089" unicode="&#x447;" horiz-adv-x="615" 
d="M210 95l133 6q8 0 10 3t2 11v61q-21 -6 -51.5 -9t-53.5 -3q-63 0 -100 14t-56.5 35.5t-25 47.5t-5.5 51v98q0 12 -12 15l-36 7v93h270v-93l-22 -3q-8 -2 -10.5 -5t-2.5 -11v-83q0 -21 9 -35t42 -14q16 0 29 2t25 6v122q0 6 -2 10.5t-10 6.5l-20 4v93h273v-96l-43 -4
q-8 -1 -10.5 -4t-2.5 -11v-295q0 -8 2.5 -10.5t10.5 -3.5l46 -5v-96h-389v95z" />
    <glyph glyph-name="afii10090" unicode="&#x448;" horiz-adv-x="846" 
d="M12 95l51 6q8 1 10 3.5t2 10.5v296q0 9 -2 11.5t-10 3.5l-51 6v93h272v-93l-20 -5q-8 -2 -10 -5t-2 -11v-281h82v282q0 13 -14 16l-17 4v93h237v-93l-17 -5q-8 -2 -10 -5t-2 -11v-281h83v279q0 9 -3 12.5t-11 5.5l-22 5v93h273v-93l-48 -5q-8 -1 -10 -4t-2 -11v-296
q0 -10 3 -12t9 -3l52 -6v-95h-823v95z" />
    <glyph glyph-name="afii10091" unicode="&#x449;" horiz-adv-x="846" 
d="M12 95l51 6q8 1 10 3.5t2 10.5v296q0 9 -2 11.5t-10 3.5l-51 6v93h272v-93l-20 -5q-8 -2 -10 -5t-2 -11v-281h82v282q0 13 -14 16l-17 4v93h237v-93l-17 -5q-8 -2 -10 -5t-2 -11v-281h83v279q0 9 -3 12.5t-11 5.5l-22 5v93h273v-93l-48 -5q-8 -1 -10 -4t-2 -11v-282h60
v-264l-129 9l-18 117q-2 8 -10 8h-662v95z" />
    <glyph glyph-name="afii10092" unicode="&#x44a;" horiz-adv-x="675" 
d="M147 94l49 5q8 1 10 4t2 9v282h-35q-10 0 -13 -10l-10 -65l-130 -5v211h457v-94l-68 -6q-8 -1 -11 -3t-3 -10v-77h81q51 0 86 -11.5t57 -32t31.5 -49t9.5 -63.5q0 -48 -17 -82t-46 -55.5t-69 -31.5t-85 -10h-296v94zM425 120q52 0 52 54q0 30 -15 42t-38 12h-29v-108h30z
" />
    <glyph glyph-name="afii10093" unicode="&#x44b;" horiz-adv-x="860" 
d="M75 408q0 10 -3.5 13t-10.5 4l-57 6v94h340v-94l-68 -6q-14 -1 -14 -15v-75h81q51 0 86 -11.5t57 -32t31.5 -49t9.5 -63.5q0 -48 -17 -82t-46 -55.5t-69 -31.5t-85 -10h-296v94l49 5q8 1 10 4t2 9v296zM539 0v93l46 5q14 1 14 16v294q0 9 -2.5 12t-10.5 4l-50 5v96h315
v-96l-53 -6q-9 -1 -11 -3.5t-2 -11.5v-293q0 -9 2 -12t11 -4l53 -6v-93h-312zM292 120q52 0 52 54q0 30 -15 42t-38 12h-29v-108h30z" />
    <glyph glyph-name="afii10094" unicode="&#x44c;" horiz-adv-x="542" 
d="M75 408q0 10 -3.5 13t-10.5 4l-57 6v94h340v-94l-68 -6q-14 -1 -14 -15v-75h81q51 0 86 -11.5t57 -32t31.5 -49t9.5 -63.5q0 -48 -17 -82t-46 -55.5t-69 -31.5t-85 -10h-296v94l49 5q8 1 10 4t2 9v296zM292 120q52 0 52 54q0 30 -15 42t-38 12h-29v-108h30z" />
    <glyph glyph-name="afii10095" unicode="&#x44d;" horiz-adv-x="561" 
d="M202 322h139q-9 48 -36 69t-68 21q-34 0 -47 -5q-8 -3 -10 -7.5t-4 -16.5l-8 -55h-130v166q16 7 41 14.5t55.5 13.5t63 10t63.5 4q147 0 213.5 -69t66.5 -197q0 -61 -19 -112.5t-57.5 -89t-95 -59t-131.5 -21.5q-59 0 -115.5 14.5t-102.5 44.5l50 117q10 -6 26 -13
t36 -13t43.5 -10t47.5 -4q46 0 72.5 16.5t40.5 58.5h-134v123z" />
    <glyph glyph-name="afii10096" unicode="&#x44e;" horiz-adv-x="861" 
d="M583 -12q-58 0 -101.5 15t-73.5 42.5t-47.5 66.5t-24.5 87h-75v-84q0 -9 2 -12t11 -4l48 -6v-93h-310v93l50 6q8 1 10.5 4t2.5 11v294q0 9 -2.5 12t-10.5 4l-50 5v96h310v-96l-48 -6q-9 -1 -11 -3.5t-2 -11.5v-86h75q13 98 75.5 156t181.5 58q69 0 116 -20t76.5 -55
t42.5 -84t13 -107q0 -64 -14.5 -116t-46 -89t-80.5 -57t-117 -20zM587 114q15 0 26.5 7t18.5 24.5t10.5 46.5t3.5 73q0 42 -3.5 69t-10 43.5t-17 23t-25.5 6.5t-27 -6.5t-19.5 -22.5t-11.5 -43.5t-4 -70.5q0 -85 13.5 -117.5t45.5 -32.5z" />
    <glyph glyph-name="afii10097" unicode="&#x44f;" horiz-adv-x="622" 
d="M361 402h-54q-20 0 -34.5 -10t-14.5 -35q0 -23 13 -34.5t33 -11.5h57v91zM15 88l47 7q11 2 16.5 5t9.5 13l25 67q10 26 25 40.5t44 22.5v2q-19 6 -38.5 16t-35.5 25.5t-26 36.5t-10 48q0 30 9.5 58t31.5 49.5t58 34t89 12.5h347v-94l-48 -5q-12 -1 -12 -16v-296
q0 -9 2 -11.5t10 -3.5l48 -5v-94h-286v94l29 5q11 3 11 16v83h-29q-23 0 -32 -10.5t-17 -30.5q-15 -42 -25.5 -77t-23.5 -80h-219v88z" />
    <glyph glyph-name="afii10071" unicode="&#x451;" horiz-adv-x="537" 
d="M509 43q-53 -24 -107.5 -39.5t-112.5 -15.5q-75 0 -126.5 21t-83 58.5t-45.5 88.5t-14 110q0 69 20.5 119.5t55.5 84t82.5 50t101.5 16.5q51 0 93 -13.5t72 -43.5t46.5 -77.5t16.5 -114.5q0 -8 -0.5 -22.5t-2.5 -31.5h-286q3 -57 25.5 -81.5t69.5 -24.5q22 0 58.5 6.5
t94.5 25.5zM325 323q0 27 -4 43.5t-10.5 25.5t-16 12t-20.5 3q-21 0 -36.5 -16t-18.5 -68h106zM82 660q0 36 22.5 57t58.5 21t58 -21t22 -57t-22 -57.5t-58 -21.5t-58.5 21.5t-22.5 57.5zM294 660q0 36 22.5 57t58.5 21t58 -21t22 -57t-22 -57.5t-58 -21.5t-58.5 21.5
t-22.5 57.5z" />
    <glyph glyph-name="afii10099" unicode="&#x452;" horiz-adv-x="605" 
d="M237 -67q14 -2 26 -3.5t23 -1.5q30 0 50 11.5t33 40.5t18.5 80t5.5 129q0 37 -2 67t-8.5 51.5t-19 33t-34.5 11.5t-39.5 -7t-28.5 -15v-209q0 -12 2.5 -15t13.5 -5l43 -7v-94h-304v95l42 6q11 2 13.5 5.5t2.5 14.5v408h-59v86h59v3q0 17 -13 21l-52 19l13 97h237v-140
h137v-86h-137v-89l7 -2q25 23 61 40.5t81 17.5q53 0 85.5 -24.5t50.5 -66.5t24.5 -97.5t6.5 -118.5q0 -212 -60 -311.5t-196 -99.5q-23 0 -51 4t-54 14z" />
    <glyph glyph-name="afii10100" unicode="&#x453;" horiz-adv-x="502" 
d="M193 557l-67 59l152 179l95 -88zM14 0v94l49 5q8 1 10 4t2 11v296q0 8 -2.5 11t-10.5 4l-48 5v95h466v-212h-130l-12 81q-1 5 -3 6t-8 1h-65v-288q0 -7 2 -10t10 -3l104 -6v-94h-364z" />
    <glyph glyph-name="afii10101" unicode="&#x454;" horiz-adv-x="561" 
d="M356 202h-136q17 -47 47.5 -62.5t73.5 -15.5q49 0 87 14.5t58 25.5l50 -117q-50 -32 -112 -45.5t-116 -13.5q-76 0 -131 18.5t-89.5 53t-51 84.5t-16.5 114q0 61 18 112t55.5 88t95 57.5t137.5 20.5q24 0 51.5 -3t53.5 -8.5t50 -13.5t41 -19v-173l-130 9l-8 63
q-1 13 -11 16q-8 2 -18 3t-25 1q-42 0 -70 -19.5t-39 -66.5h135v-123z" />
    <glyph glyph-name="afii10102" unicode="&#x455;" horiz-adv-x="504" 
d="M336 358l-9 48q-1 12 -10 14q-9 3 -23.5 5t-31.5 2q-27 0 -44.5 -8.5t-17.5 -28.5t25 -28.5t61 -16.5q31 -6 65.5 -15.5t63.5 -28t48 -49.5t19 -82q0 -47 -18 -81.5t-49.5 -57t-75.5 -33t-97 -10.5q-36 0 -71 4t-64 9.5t-49 12t-27 11.5v144l131 -8l9 -49q2 -8 4 -11
t9 -5q8 -2 25.5 -4.5t40.5 -2.5q67 0 67 41q0 14 -8 22.5t-22.5 14t-33 9.5t-39.5 7q-30 5 -62 13.5t-58.5 27t-43.5 49t-17 79.5t19.5 83.5t52 57t75 33t88.5 10.5q31 0 61.5 -3t57 -7.5t47.5 -10t33 -10.5v-154z" />
    <glyph glyph-name="afii10103" unicode="&#x456;" horiz-adv-x="328" 
d="M262 692q0 -51 -28 -78.5t-79 -27.5t-78.5 27.5t-27.5 78.5t27.5 77.5t78.5 26.5t79 -26.5t28 -77.5zM16 0v95l42 6q11 2 13.5 5.5t2.5 14.5v267q0 17 -13 21l-52 19l13 97h239v-404q0 -12 2.5 -15t13.5 -5l43 -7v-94h-304z" />
    <glyph glyph-name="afii10104" unicode="&#x457;" horiz-adv-x="349" 
d="M-19 682q0 36 22.5 57t58.5 21t58 -21t22 -57t-22 -57.5t-58 -21.5t-58.5 21.5t-22.5 57.5zM165 682q0 36 22.5 57t58.5 21t58 -21t22 -57t-22 -57.5t-58 -21.5t-58.5 21.5t-22.5 57.5zM27 0v95l42 6q11 2 13.5 5.5t2.5 14.5v267q0 17 -13 21l-52 19l13 97h239v-404
q0 -12 2.5 -15t13.5 -5l43 -7v-94h-304z" />
    <glyph glyph-name="afii10105" unicode="&#x458;" horiz-adv-x="323" 
d="M72 388q0 16 -13 21l-52 19l13 97h239v-570q0 -97 -51 -137.5t-141 -40.5q-35 0 -65 6.5t-54 15.5t-40.5 18.5t-23.5 15.5l47 98q12 -6 35.5 -15t50.5 -9q12 0 22.5 2.5t17.5 10.5t11 23t4 41v404zM260 692q0 -51 -28 -78.5t-79 -27.5t-78.5 27.5t-27.5 78.5t27.5 77.5
t78.5 26.5t79 -26.5t28 -77.5z" />
    <glyph glyph-name="afii10106" unicode="&#x459;" horiz-adv-x="858" 
d="M80 525h580v-94l-68 -6q-8 -1 -11 -3t-3 -10v-77h81q51 0 86 -11.5t57 -32t31.5 -49t9.5 -63.5q0 -48 -17 -82t-46 -55.5t-69 -31.5t-85 -10h-296v94l49 5q8 1 10 4t2 9v282h-89q-3 -54 -6.5 -102t-11.5 -99q-6 -41 -17 -78.5t-36 -66t-69.5 -46.5t-119.5 -19l-28 145
q56 0 80 28.5t34 88.5q5 32 8 71.5t7 89.5q2 17 -15 18l-48 5v96zM608 120q52 0 52 54q0 30 -15 42t-38 12h-29v-108h30z" />
    <glyph glyph-name="afii10107" unicode="&#x45a;" horiz-adv-x="834" 
d="M337 0v93l33 5q6 1 8.5 2.5t3.5 6.5v98h-120v-92q0 -8 2 -10.5t10 -3.5l36 -6v-93h-295v93l48 5q8 1 10 4t2 11v297q0 8 -2 10.5t-10 3.5l-48 5v96h295v-96l-36 -5q-8 -2 -10 -4t-2 -10v-86h120v86q0 8 -2 10.5t-10 3.5l-33 5v96h314v-94l-68 -6q-8 -1 -11 -3.5t-3 -11.5
v-86h70q52 0 86.5 -11.5t55.5 -31.5t29.5 -48t8.5 -60q0 -85 -54 -129t-163 -44h-265zM603 120q23 0 31.5 12.5t8.5 31.5q0 20 -11.5 30.5t-31.5 10.5h-31v-85h34z" />
    <glyph glyph-name="afii10108" unicode="&#x45b;" horiz-adv-x="632" 
d="M261 121q0 -12 2.5 -15t13.5 -5l43 -7v-94h-304v95l42 6q11 2 13.5 5.5t2.5 14.5v408h-59v86h59v3q0 17 -13 21l-52 19l13 97h237v-140h137v-86h-137v-89l7 -2q25 23 57 40.5t85 17.5q77 0 111.5 -42t34.5 -130v-203q0 -12 2.5 -15t13.5 -5l46 -7v-94h-249v288
q0 34 -7.5 49t-30.5 15q-22 0 -39.5 -7t-28.5 -15v-209z" />
    <glyph glyph-name="afii10109" unicode="&#x45c;" horiz-adv-x="640" 
d="M322 557l-67 59l152 179l95 -88zM286 319q10 0 19 2t17 8.5t16 19.5t15 35l17 52q14 43 45 71.5t91 28.5q20 0 46.5 -4.5t46.5 -12.5l-15 -110q-30 8 -46.5 0t-24.5 -33l-14 -42q-11 -31 -24.5 -43t-29.5 -17v-3q17 -5 32 -18.5t29 -43.5l42 -88q5 -8 9 -12.5t14 -6.5
l53 -8v-94h-216q-18 52 -33.5 92t-29.5 68q-15 31 -27.5 40.5t-39.5 9.5h-16v-96q0 -8 2 -11t10 -4l35 -5v-94h-294v94l48 5q8 1 10 4.5t2 10.5v297q0 8 -2 10.5t-10 3.5l-48 6v94h302v-94l-43 -6q-8 -2 -10 -4t-2 -10v-92h24z" />
    <glyph glyph-name="afii10110" unicode="&#x45e;" horiz-adv-x="642" 
d="M64 -68q16 -8 45 -16t59 -8q33 0 50 12.5t32 50.5l8 20l-196 411q-3 9 -7.5 12t-13.5 5l-41 9l18 97h298v-97l-61 -8l97 -219h10l88 219l-63 8l14 97h241v-97l-32 -6q-9 -2 -15 -4.5t-10 -12.5l-181 -450q-20 -50 -40.5 -84t-45.5 -55t-57 -30t-74 -9q-30 0 -57 4.5
t-48 11t-36 13.5t-21 12zM349 667q29 0 44.5 17.5t25.5 55.5l111 -29q-17 -71 -61.5 -107t-121.5 -36t-124 36t-59 104l118 34q4 -35 19.5 -55t47.5 -20z" />
    <glyph glyph-name="afii10193" unicode="&#x45f;" horiz-adv-x="634" 
d="M13 0v95l48 6q14 3 14 16v290q0 9 -2.5 12.5t-10.5 4.5l-49 6v95h283v-95l-21 -4q-7 -2 -10 -4.5t-3 -10.5v-279h110v277q0 9 -2 11.5t-11 4.5l-28 5v95h284v-95l-44 -5q-8 -1 -10 -3.5t-2 -10.5v-296q0 -8 2 -11t10 -4l44 -5v-95h-210q-8 0 -10 -2.5t-3 -6.5l-14 -133
l-128 5l-18 128q-1 9 -10 9h-209z" />
    <glyph glyph-name="afii10050" unicode="&#x490;" horiz-adv-x="609" 
d="M24 0v94l64 7q11 1 13.5 5t2.5 15v481q0 11 -3 14.5t-14 5.5l-63 7v95h395q14 0 15 11l16 87l134 10v-239h-288v-472q0 -11 2.5 -14.5t13.5 -4.5l140 -8v-94h-428z" />
    <glyph glyph-name="afii10098" unicode="&#x491;" horiz-adv-x="488" 
d="M17 0v95l47 5q8 1 9.5 3.5t1.5 10.5v297q0 8 -2 10t-10 4l-46 5v95h288q14 0 15 10l14 74l137 11v-223h-209v-283q0 -7 1.5 -10t9.5 -3l100 -6v-95h-356z" />
    <glyph glyph-name="thinspace" unicode="&#x2009;" horiz-adv-x="125" 
 />
    <glyph glyph-name="endash" unicode="&#x2013;" 
d="M0 215v130h499v-130h-499z" />
    <glyph glyph-name="emdash" unicode="&#x2014;" horiz-adv-x="1000" 
d="M0 215v130h1000v-130h-1000z" />
    <glyph glyph-name="quoteleft" unicode="&#x2018;" horiz-adv-x="235" 
d="M180 763l-20 -101q-3 -10 5 -13l42 -12l-20 -109q-30 0 -57 2.5t-47.5 10.5t-32.5 24.5t-12 43.5q0 17 6 35.5t15 38.5l46 101z" />
    <glyph glyph-name="quoteright" unicode="&#x2019;" horiz-adv-x="242" 
d="M65 549l20 101q3 10 -5 13l-42 12l20 109q30 0 57 -2.5t47.5 -10.5t32.5 -24.5t12 -43.5q0 -17 -6 -35.5t-15 -38.5l-46 -101z" />
    <glyph glyph-name="quotesinglbase" unicode="&#x201a;" horiz-adv-x="254" 
d="M72 -122l20 101q3 10 -5 13l-42 12l20 109q30 0 57 -2.5t47.5 -10.5t32.5 -24.5t12 -43.5q0 -17 -6 -35.5t-15 -38.5l-46 -101z" />
    <glyph glyph-name="quotedblleft" unicode="&#x201c;" horiz-adv-x="428" 
d="M373 763l-20 -101q-3 -10 5 -13l42 -12l-20 -109q-30 0 -57 2.5t-47.5 10.5t-32.5 24.5t-12 43.5q0 17 6 35.5t15 38.5l46 101zM180 763l-20 -101q-3 -10 5 -13l42 -12l-20 -109q-30 0 -57 2.5t-47.5 10.5t-32.5 24.5t-12 43.5q0 17 6 35.5t15 38.5l46 101z" />
    <glyph glyph-name="quotedblright" unicode="&#x201d;" horiz-adv-x="435" 
d="M258 549l20 101q3 10 -5 13l-42 12l20 109q30 0 57 -2.5t47.5 -10.5t32.5 -24.5t12 -43.5q0 -17 -6 -35.5t-15 -38.5l-46 -101zM65 549l20 101q3 10 -5 13l-42 12l20 109q30 0 57 -2.5t47.5 -10.5t32.5 -24.5t12 -43.5q0 -17 -6 -35.5t-15 -38.5l-46 -101z" />
    <glyph glyph-name="quotedblbase" unicode="&#x201e;" horiz-adv-x="447" 
d="M265 -122l20 101q3 10 -5 13l-42 12l20 109q30 0 57 -2.5t47.5 -10.5t32.5 -24.5t12 -43.5q0 -17 -6 -35.5t-15 -38.5l-46 -101zM72 -122l20 101q3 10 -5 13l-42 12l20 109q30 0 57 -2.5t47.5 -10.5t32.5 -24.5t12 -43.5q0 -17 -6 -35.5t-15 -38.5l-46 -101z" />
    <glyph glyph-name="dagger" unicode="&#x2020;" horiz-adv-x="408" 
d="M144 -83v188l-22 215l65 112h34l64 -112l-22 -215v-188h-119zM187 432l-83 -45h-74v122h74l83 -44v-33zM142 561v84h123v-84l-44 -96h-34zM305 387l-84 45v33l84 44h73v-122h-73z" />
    <glyph glyph-name="daggerdbl" unicode="&#x2021;" horiz-adv-x="448" 
d="M241 432l64 -112v-74l-64 -116h-34v-33h34l44 -96v-84h-123v84l45 96l-83 -45h-74v122h74l83 -44l-65 116v74l65 112l-83 -45h-74v122h74l83 -44l-45 96v84h123v-84l-44 -96l84 44h73v-122h-73l-84 45v33h-34v-33h34zM325 52l-84 45v33l84 44h73v-122h-73z" />
    <glyph glyph-name="bullet" unicode="&#x2022;" horiz-adv-x="439" 
d="M379 279q0 -77 -41 -115t-119 -38t-118.5 38t-40.5 115t40.5 115t118.5 38t119 -38t41 -115z" />
    <glyph glyph-name="ellipsis" unicode="&#x2026;" horiz-adv-x="791" 
d="M493 75q0 -42 -23.5 -64.5t-73.5 -22.5q-98 0 -98 87q0 42 23.5 64.5t74.5 22.5q49 0 73 -22.5t24 -64.5zM756 75q0 -42 -23.5 -64.5t-73.5 -22.5q-98 0 -98 87q0 42 23.5 64.5t74.5 22.5q49 0 73 -22.5t24 -64.5zM230 75q0 -42 -23.5 -64.5t-73.5 -22.5q-98 0 -98 87
q0 42 23.5 64.5t74.5 22.5q49 0 73 -22.5t24 -64.5z" />
    <glyph glyph-name="perthousand" unicode="&#x2030;" horiz-adv-x="1156" 
d="M182 295q-85 0 -121 42.5t-36 115.5q0 85 42.5 126t121.5 41q81 0 119 -40.5t38 -117.5q0 -81 -42.5 -124t-121.5 -43zM133 -12l375 632h170l-374 -632h-171zM186 381q17 0 26.5 16t9.5 64q0 42 -9.5 57t-26.5 15q-16 0 -26.5 -14.5t-10.5 -58.5q0 -46 10 -62.5t27 -16.5
zM624 -12q-85 0 -121 42.5t-36 115.5q0 85 42.5 126t121.5 41q81 0 119 -40.5t38 -117.5q0 -81 -42.5 -124t-121.5 -43zM628 74q17 0 26.5 16t9.5 64q0 42 -9.5 57t-26.5 15q-16 0 -26.5 -14.5t-10.5 -58.5q0 -46 10 -62.5t27 -16.5zM967 -12q-85 0 -121 42.5t-36 115.5
q0 85 42.5 126t121.5 41q81 0 119 -40.5t38 -117.5q0 -81 -42.5 -124t-121.5 -43zM971 74q17 0 26.5 16t9.5 64q0 42 -9.5 57t-26.5 15q-16 0 -26.5 -14.5t-10.5 -58.5q0 -46 10 -62.5t27 -16.5z" />
    <glyph glyph-name="guilsinglleft" unicode="&#x2039;" horiz-adv-x="280" 
d="M110 103l-85 153l89 152h146l-83 -140q-4 -6 -4 -9.5t3 -9.5l78 -146h-144z" />
    <glyph glyph-name="guilsinglright" unicode="&#x203a;" horiz-adv-x="280" 
d="M26 103l78 146q3 6 3 9.5t-4 9.5l-83 140h146l89 -152l-85 -153h-144z" />
    <glyph glyph-name="fraction" unicode="&#x2044;" horiz-adv-x="206" 
d="M-166 -12l354 736h170l-353 -736h-171z" />
    <glyph glyph-name="Euro" unicode="&#x20ac;" horiz-adv-x="582" 
d="M19 392h48q8 66 31.5 116t59.5 83.5t83 50.5t102 17q30 0 60.5 -4t58 -11t50 -16t35.5 -18v-185l-128 5l-15 78q-2 6 -4 10.5t-8 6.5q-8 3 -17 4.5t-26 1.5q-30 0 -53 -31.5t-30 -107.5h132l-24 -143h-106q4 -39 12.5 -64t20 -39.5t26.5 -19.5t32 -5q10 0 17.5 1t15.5 4
q6 2 8 6.5t4 10.5l16 80l127 5v-191q-13 -9 -37 -18t-52.5 -16t-60.5 -11t-62 -4q-124 0 -189 68t-79 193h-72z" />
    <glyph glyph-name="afii61352" unicode="&#x2116;" horiz-adv-x="1145" 
d="M452 0l-211 385v-264q0 -12 2.5 -15t13.5 -5l67 -8v-93h-299v93l63 7q11 2 13.5 5.5t2.5 14.5v396q0 11 -2.5 15t-13.5 5l-63 7v93h278l210 -388v266q0 11 -2.5 15t-13.5 5l-63 7v95h298v-95l-67 -8q-11 -2 -13.5 -5t-2.5 -14v-514h-197zM897 205q-52 0 -89 13.5t-60 37
t-34 56.5t-11 72q0 85 49 134.5t152 49.5q52 0 88 -13t59 -36.5t33.5 -55.5t10.5 -71q0 -85 -47.5 -136t-150.5 -51zM900 296q20 0 33 18.5t13 74.5q0 53 -12.5 70t-31.5 17q-10 0 -18.5 -3.5t-15.5 -13t-11 -27t-4 -44.5q0 -55 13.5 -73.5t33.5 -18.5zM726 174h350v-106
h-350v106z" />
    <glyph glyph-name="trademark" unicode="&#x2122;" horiz-adv-x="870" 
d="M113 348v52l48 5v249h-61l-5 -49h-55v119h336v-119h-55l-4 49h-63v-249l53 -5v-52h-194zM693 348v51l37 5v168l-68 -143h-73l-66 144v-169l41 -5v-51h-158v51l34 5v262l-34 3v55h129l93 -203l96 203h124v-55l-35 -3v-262l37 -5v-51h-157z" />
    <glyph glyph-name="partialdiff" unicode="&#x2202;" horiz-adv-x="590" 
d="M266 543q-38 0 -74.5 -16.5t-62.5 -37.5l-72 109q43 33 107 55.5t136 22.5q74 0 122 -25.5t76.5 -68.5t40 -99t11.5 -118q0 -76 -13 -144.5t-44.5 -120t-85.5 -82t-135 -30.5q-54 0 -99 13.5t-76.5 40t-49 66t-17.5 92.5t15.5 93t43 67t65.5 40.5t83 13.5q44 0 72 -9
t50 -20l4 2q1 78 -21.5 117t-75.5 39zM285 295q-38 0 -52 -22t-14 -67q0 -13 2 -28t8.5 -28t18.5 -21t32 -8q22 0 36 12t23 33t13.5 49.5t5.5 61.5q-20 8 -38 13t-35 5z" />
    <glyph glyph-name="product" unicode="&#x220f;" horiz-adv-x="798" 
d="M434 -176v93l63 7q11 2 13.5 5.5t2.5 14.5v644h-232v-643q0 -12 2.5 -15t13.5 -5l67 -8v-93h-354v93l63 7q11 2 13.5 5.5t2.5 14.5v658q0 11 -2.5 15t-13.5 5l-63 7v95h778v-95l-67 -8q-11 -2 -13.5 -5t-2.5 -14v-657q0 -12 2.5 -15t13.5 -5l67 -8v-93h-354z" />
    <glyph glyph-name="summation" unicode="&#x2211;" horiz-adv-x="627" 
d="M2 -176v99l222 342l-217 366v93h562v-224l-136 5l-14 76q-3 13 -17 13h-163l169 -305l-203 -316h229q8 0 11 1.5t5 9.5l16 88h135v-248h-599z" />
    <glyph glyph-name="minus" unicode="&#x2212;" horiz-adv-x="570" 
d="M89 255v138h393v-138h-393z" />
    <glyph glyph-name="radical" unicode="&#x221a;" horiz-adv-x="570" 
d="M229 0l-113 196q-4 6 -8 7t-9 0l-62 -12l-47 104l184 89l113 -216l153 580l148 -37l-191 -711h-168z" />
    <glyph glyph-name="infinity" unicode="&#x221e;" horiz-adv-x="673" 
d="M335 242q-23 -26 -59 -45.5t-84 -19.5q-31 0 -59 8.5t-48.5 26t-32.5 45t-12 66.5q0 35 12.5 62t34 45.5t50 28t60.5 9.5q48 0 81.5 -19.5t58.5 -45.5q28 25 63 45t83 20q32 0 59 -8.5t47.5 -26.5t32 -45.5t11.5 -66.5q0 -35 -12 -62.5t-32.5 -46t-48.5 -28.5t-60 -10
q-48 0 -84.5 21t-60.5 47zM277 324q-20 21 -36.5 33t-40.5 12q-23 0 -37.5 -12.5t-14.5 -34.5q0 -17 13.5 -32t36.5 -15q21 0 41 14.5t38 34.5zM400 324q17 -18 34.5 -32t42.5 -14t36.5 14.5t11.5 32.5q0 24 -13 34.5t-34 10.5q-23 0 -42.5 -15t-35.5 -31z" />
    <glyph glyph-name="integral" unicode="&#x222b;" horiz-adv-x="433" 
d="M73 -50q18 -8 34 -12t28 -4q17 0 25 12t4 56l-51 577q-4 47 10.5 76t37.5 45t49.5 21.5t45.5 5.5q41 0 74 -6t70 -19l-29 -114q-18 8 -34 12t-28 4q-17 0 -25 -13t-4 -55l51 -577q4 -48 -10.5 -77t-37.5 -44.5t-49 -21t-46 -5.5q-41 0 -74 6t-70 19z" />
    <glyph glyph-name="approxequal" unicode="&#x2248;" horiz-adv-x="570" 
d="M62 364q22 57 47.5 90t73.5 33q29 0 57 -5.5t55 -11.5t52.5 -11.5t49.5 -5.5q14 0 19.5 9t12.5 27l87 -24q-4 -27 -11 -51.5t-18.5 -44t-29.5 -31t-44 -11.5q-27 0 -56.5 5t-58 11.5t-55 11.5t-48.5 5q-17 0 -27 -7.5t-21 -27.5zM62 166q22 57 47.5 90t73.5 33
q29 0 57 -5.5t55 -11.5t52.5 -11.5t49.5 -5.5q14 0 19.5 9t12.5 27l87 -24q-4 -27 -11 -51.5t-18.5 -44t-29.5 -31t-44 -11.5q-27 0 -56.5 5t-58 11.5t-55 11.5t-48.5 5q-17 0 -27 -7.5t-21 -27.5z" />
    <glyph glyph-name="notequal" unicode="&#x2260;" horiz-adv-x="570" 
d="M287 112l-27 -79h-124l27 79h-75v138h122l21 63h-143v138h190l28 83h124l-28 -83h79v-138h-126l-21 -63h147v-138h-194z" />
    <glyph glyph-name="lessequal" unicode="&#x2264;" horiz-adv-x="570" 
d="M89 271v164l393 134v-139l-245 -73l245 -78v-141zM89 0v138h393v-138h-393z" />
    <glyph glyph-name="greaterequal" unicode="&#x2265;" horiz-adv-x="570" 
d="M88 138v141l245 78l-245 68v144l393 -134v-164zM88 0v138h393v-138h-393z" />
    <glyph glyph-name="lozenge" unicode="&#x25ca;" horiz-adv-x="570" 
d="M219 -17l-154 324l154 324h132l154 -324l-154 -324h-132zM371 307l-86 177l-86 -177l86 -186z" />
    <glyph glyph-name="breve.cyr" 
d="M252 667q29 0 44.5 17.5t25.5 55.5l111 -29q-17 -71 -61.5 -107t-121.5 -36t-124 36t-59 104l118 34q4 -35 19.5 -55t47.5 -20z" />
    <glyph glyph-name="hyphen.case" horiz-adv-x="311" 
d="M20 275v150h271v-150h-271z" />
    </font>
</defs>
</svg>
