<?xml version="1.0" standalone="no"?>
<!DOCTYPE svg PUBLIC "-//W3C//DTD SVG 1.1//EN" "http://www.w3.org/Graphics/SVG/1.1/DTD/svg11.dtd" >
<svg xmlns="http://www.w3.org/2000/svg" xmlns:xlink="http://www.w3.org/1999/xlink" version="1.1">
<metadata>
Created by FontForge 20170731 at Wed May 14 19:55:22 2014
 By ,,,
Copyright (c) 2010 by TypeTogether. All rights reserved.This font is ONLY licensed for use when accessed from the Extensis WebINK font service. Any other use of this font file is illegal under United States and international copyright laws. Please respect the rights of the people who design and license fonts.
</metadata>
<defs>
<font id="AdelleCyrillic-ExtraboldItalic" horiz-adv-x="500" >
  <font-face 
    font-family="Adelle Cyrillic"
    font-weight="800"
    font-style="italic"
    font-stretch="normal"
    units-per-em="1000"
    panose-1="2 0 5 3 0 0 0 9 0 4"
    ascent="755"
    descent="-245"
    x-height="525"
    cap-height="724"
    bbox="-161 -268 1162 964"
    underline-thickness="50"
    underline-position="-200"
    unicode-range="U+000D-25CA"
  />
<missing-glyph 
 />
    <glyph glyph-name=".notdef" 
 />
    <glyph glyph-name=".null" horiz-adv-x="0" 
 />
    <glyph glyph-name="nonmarkingreturn" unicode="&#xd;" 
 />
    <glyph glyph-name="NULL" horiz-adv-x="0" 
 />
    <glyph glyph-name="NULL" horiz-adv-x="0" 
 />
    <glyph glyph-name="space" unicode=" " horiz-adv-x="190" 
 />
    <glyph glyph-name="exclam" unicode="!" horiz-adv-x="300" 
d="M84 202l28 339l26 183h197l-26 -183l-68 -339h-157zM244 89q0 -48 -27 -74.5t-84 -26.5q-87 0 -87 72q0 48 27 75t85 27q86 0 86 -73z" />
    <glyph glyph-name="quotedbl" unicode="&#x22;" horiz-adv-x="440" 
d="M289 447l36 259h162l-36 -259h-162zM71 447l36 259h162l-36 -259h-162z" />
    <glyph glyph-name="numbersign" unicode="#" horiz-adv-x="607" 
d="M436 110l-31 -110h-123l31 110h-66l-31 -110h-123l31 110h-90l43 123h84l27 92h-91l42 123h84l28 95h123l-28 -95h66l28 95h123l-28 -95h93l-41 -123h-87l-27 -92h93l-42 -123h-88zM377 325h-66l-27 -92h66z" />
    <glyph glyph-name="dollar" unicode="$" horiz-adv-x="521" 
d="M508 218q0 -44 -13.5 -79t-38 -61t-58 -43t-72.5 -26l-12 -89h-166l11 84q-38 3 -74 11t-64 22l24 169l130 -8l3 -62q1 -10 2 -14.5t8 -7.5q10 -4 23.5 -6t38.5 -2q42 0 64 19t22 51q0 17 -9.5 28t-26 20t-37 16.5t-43.5 15.5q-26 10 -52.5 22.5t-47.5 32t-34 48.5
t-13 71q0 45 13.5 79.5t38 59.5t58 41t73.5 23l11 79h167l-11 -76q34 -4 65 -10t60 -16l-25 -174l-131 7l-2 65q0 8 -2.5 11.5t-7.5 5.5q-9 4 -20 5t-28 1q-36 0 -61 -14.5t-25 -42.5q0 -16 9.5 -28t25 -21t36 -16.5t42.5 -16.5q27 -10 53.5 -23t47.5 -33t34.5 -48.5
t13.5 -69.5z" />
    <glyph glyph-name="percent" unicode="%" horiz-adv-x="916" 
d="M215 257q-42 0 -71 11t-46.5 30t-25.5 45.5t-8 56.5q0 48 12 88t37.5 69.5t65 46t95.5 16.5q81 0 116 -37.5t35 -102.5q0 -49 -13.5 -90t-39.5 -70.5t-65.5 -46t-91.5 -16.5zM162 -17l466 638h170l-465 -638h-171zM233 352q18 0 29 9.5t17 26t8.5 38t2.5 46.5
q0 29 -8 40.5t-24 11.5q-28 0 -42.5 -27.5t-14.5 -88.5q0 -30 8 -43t24 -13zM691 -12q-42 0 -71 11t-46.5 30t-25.5 45.5t-8 56.5q0 48 12 88t37.5 69.5t65 46t95.5 16.5q81 0 116 -37.5t35 -102.5q0 -49 -13 -90t-39.5 -70.5t-65.5 -46t-92 -16.5zM710 83q17 0 28 9.5
t17 26t8.5 38t2.5 46.5q0 29 -8 40.5t-24 11.5q-28 0 -42.5 -27.5t-14.5 -88.5q0 -30 8 -43t25 -13z" />
    <glyph glyph-name="ampersand" unicode="&#x26;" horiz-adv-x="702" 
d="M654 315q-9 -1 -12 -3.5t-4 -10.5l-36 -261q-67 -30 -138.5 -41t-130.5 -11q-74 0 -125 12.5t-82.5 35t-45.5 55.5t-14 73t12.5 71.5t33.5 54.5t48.5 37.5t56.5 20.5v4q-16 5 -32.5 16t-30 27t-22 37.5t-8.5 48.5q0 52 19.5 91t55 64.5t84 38t106.5 12.5q75 0 141.5 -16
t104.5 -42l-27 -168l-132 11l-4 60q-2 15 -14 19q-11 4 -26 5.5t-34 1.5q-39 0 -66.5 -16.5t-27.5 -60.5q0 -32 20.5 -52.5t62.5 -20.5h31l-17 -126q-28 0 -55.5 -3t-49 -12.5t-35 -27.5t-13.5 -47q0 -35 25 -53.5t70 -18.5q52 0 71 6q13 4 16 19l37 256l22 13h220l-13 -95z
" />
    <glyph glyph-name="quotesingle" unicode="'" horiz-adv-x="222" 
d="M71 447l36 259h162l-36 -259h-162z" />
    <glyph glyph-name="parenleft" unicode="(" horiz-adv-x="390" 
d="M174 -182q-24 35 -44.5 79.5t-35.5 94.5t-24 105t-9 111q0 82 19.5 156t54 141.5t81 129t99.5 118.5l127 -82q-51 -60 -86 -118t-56.5 -116t-31 -119t-9.5 -127q0 -85 18 -155.5t50 -136.5z" />
    <glyph glyph-name="parenright" unicode=")" horiz-adv-x="390" 
d="M-9 -100q51 60 86 118t56.5 116t31 119t9.5 127q0 85 -18 155.5t-50 136.5l153 81q24 -35 44.5 -79.5t35.5 -94.5t24 -105t9 -111q0 -82 -19.5 -156t-54 -141.5t-81 -129t-99.5 -118.5z" />
    <glyph glyph-name="asterisk" unicode="*" horiz-adv-x="480" 
d="M127 448l52 59l98 50l-105 -15l-67 23l55 117l67 -23l65 -71l-32 94l10 73h123l-10 -73l-57 -94h-34l-15 -31l25 -19l-33 -103l-51 -60zM340 375l-35 60l-3 103l29 19l-5 31l85 71l73 23l21 -117l-73 -23l-101 15l84 -50l36 -59z" />
    <glyph glyph-name="plus" unicode="+" horiz-adv-x="570" 
d="M213 117l19 138h-125l19 138h125l19 134h142l-19 -134h126l-19 -138h-126l-19 -138h-142z" />
    <glyph glyph-name="comma" unicode="," horiz-adv-x="276" 
d="M47 -98l42 109q4 10 -5 13l-42 13l40 124q29 0 56 -2t47 -9.5t32 -22.5t12 -40q0 -23 -12.5 -48t-23.5 -43l-69 -116z" />
    <glyph glyph-name="hyphen" unicode="-" horiz-adv-x="311" 
d="M37 215l21 150h271l-21 -150h-271z" />
    <glyph glyph-name="period" unicode="." horiz-adv-x="295" 
d="M242 89q0 -48 -27 -74.5t-84 -26.5q-87 0 -87 72q0 48 27 75t85 27q86 0 86 -73z" />
    <glyph glyph-name="slash" unicode="/" horiz-adv-x="495" 
d="M-15 -92l389 823h180l-388 -823h-181z" />
    <glyph glyph-name="zero" unicode="0" horiz-adv-x="595" 
d="M593 289q-10 -75 -33 -131.5t-60.5 -94t-92 -56.5t-128.5 -19q-62 0 -106 15.5t-71.5 45t-40.5 71.5t-13 94q0 20 2 42t4 45q10 72 32.5 127t60.5 92.5t92.5 56.5t128.5 19q63 0 107 -16t71.5 -45.5t40 -71t12.5 -92.5q0 -38 -6 -82zM299 116q18 0 33 7t27 26t21.5 52.5
t16.5 86.5q4 27 6 49.5t2 39.5q0 48 -13.5 68t-41.5 20q-19 0 -34 -7t-27.5 -25.5t-22 -51t-16.5 -83.5q-4 -29 -5.5 -52t-1.5 -41q0 -48 13.5 -68.5t42.5 -20.5z" />
    <glyph glyph-name="one" unicode="1" horiz-adv-x="409" 
d="M16 0l12 90l77 6q11 1 13.5 5t4.5 15l47 332q3 17 -10 21l-80 19l13 92h278l-64 -464q-2 -12 0 -15.5t13 -4.5l75 -7l-13 -89h-366z" />
    <glyph glyph-name="two" unicode="2" horiz-adv-x="531" 
d="M24 0l16 112l146 130q48 42 79 70t48.5 48t24.5 35.5t7 32.5q0 15 -9.5 26t-32.5 11q-31 0 -44.5 -16.5t-20.5 -64.5l-166 15q9 63 34.5 102t60.5 60t77.5 28t85.5 7q53 0 90 -12t60.5 -32t34.5 -47.5t11 -57.5q0 -39 -10.5 -68.5t-30 -55t-47 -49.5t-60.5 -53l-124 -107
h110q10 0 14 11l24 77h127l-27 -202h-478z" />
    <glyph glyph-name="three" unicode="3" horiz-adv-x="537" 
d="M411 267q44 -12 72 -43t28 -92q0 -57 -21 -97.5t-57 -66.5t-85 -38.5t-106 -12.5q-81 0 -146 27t-100 72l106 103q11 -10 24 -22t30 -21.5t37.5 -16t45.5 -6.5q42 0 67 17.5t25 61.5q0 35 -19.5 50t-51.5 15q-20 0 -34 -1t-37 -6l16 119l40 5q51 6 82 32t31 75
q0 18 -11 31.5t-36 13.5q-31 0 -46 -16.5t-22 -64.5l-169 15q8 61 34 99.5t62.5 60t79 29t83.5 7.5q205 0 205 -162q0 -35 -10.5 -62.5t-28.5 -47.5t-41 -33t-47 -20v-4z" />
    <glyph glyph-name="four" unicode="4" horiz-adv-x="583" 
d="M305 -67l16 126h-286l17 118l246 428l138 -67l-210 -344h114l20 140l169 27l-23 -167h77l-19 -135h-77l-17 -126h-165z" />
    <glyph glyph-name="five" unicode="5" horiz-adv-x="537" 
d="M250 434l-34 -122l3 -2q21 17 54.5 30t78.5 13q76 0 119.5 -44.5t43.5 -129.5q0 -57 -18 -105t-53 -83t-88 -54.5t-122 -19.5q-88 0 -152.5 28t-99.5 71l106 104q22 -22 55.5 -44t84.5 -22q46 0 74.5 24t28.5 73q0 21 -6 34.5t-15 21.5t-20.5 11t-22.5 3q-23 0 -45 -10.5
t-39 -29.5l-111 48l72 351h383l-23 -146h-254z" />
    <glyph glyph-name="six" unicode="6" horiz-adv-x="563" 
d="M493 485q-29 25 -56.5 33.5t-50.5 8.5q-22 0 -43 -9t-39 -27.5t-30.5 -46.5t-17.5 -66q26 11 59 20t75 9q33 0 63.5 -9t53.5 -28.5t37 -51t14 -76.5q0 -68 -22 -116t-59.5 -79t-87 -45t-105.5 -14q-63 0 -106 20.5t-70 54.5t-39 78.5t-12 92.5q0 72 16.5 147.5
t55.5 137.5t103 101.5t159 39.5q60 0 108 -19t85 -55zM245 275q-1 -14 -2 -27t-1 -27q0 -41 11.5 -70t46.5 -29q26 0 40 13t20.5 31t8 36.5t1.5 28.5q0 60 -52 60q-33 0 -73 -16z" />
    <glyph glyph-name="seven" unicode="7" horiz-adv-x="546" 
d="M121 -67q18 105 53 188t74 145t77 104t62 64h-160q-7 0 -9 -4t-4 -9l-25 -80l-129 -10l37 249h509l-21 -130q-50 -49 -94 -107t-79.5 -124t-60.5 -138t-37 -148h-193z" />
    <glyph glyph-name="eight" unicode="8" horiz-adv-x="536" 
d="M449 338q35 -23 58 -54t23 -85q0 -52 -21.5 -92t-59.5 -66t-90 -39.5t-114 -13.5q-104 0 -159 38t-55 114q0 34 9 62t25 51.5t36.5 42t42.5 34.5q-23 22 -39.5 54.5t-16.5 75.5q0 96 68.5 148t189.5 52q92 0 144 -39.5t52 -110.5q0 -28 -8 -53t-21 -47t-29.5 -40
t-34.5 -32zM240 267q-32 -27 -46.5 -51.5t-14.5 -47.5q0 -28 18.5 -45t60.5 -17q45 0 63 19.5t18 46.5q0 16 -9 29t-23.5 24.5t-32 21.5t-34.5 20zM339 396q55 51 55 94q0 23 -15 37.5t-44 14.5q-36 0 -54 -17.5t-18 -41.5q0 -29 23.5 -49.5t52.5 -37.5z" />
    <glyph glyph-name="nine" unicode="9" horiz-adv-x="568" 
d="M113 105q22 -19 56 -36.5t71 -17.5q53 0 80.5 35t41.5 111q-23 -11 -53 -20t-73 -9q-35 0 -66.5 9t-55.5 29t-38 51.5t-14 76.5q0 63 20 112t56.5 82t87.5 50.5t112 17.5q62 0 105 -18.5t70 -51.5t39 -79t12 -101q0 -40 -4.5 -87.5t-17 -95.5t-35.5 -92t-60 -78
t-89.5 -54.5t-124.5 -20.5q-31 0 -61.5 6.5t-57.5 18t-50 26t-38 31.5zM376 311q2 16 2.5 28t0.5 26q0 43 -12.5 70.5t-44.5 27.5q-20 0 -33.5 -10t-22 -25.5t-12 -35t-3.5 -37.5q0 -32 11.5 -48t41.5 -16q17 0 35.5 5.5t36.5 14.5z" />
    <glyph glyph-name="colon" unicode=":" horiz-adv-x="295" 
d="M302 463q0 -48 -27 -74.5t-84 -26.5q-87 0 -87 72q0 48 27 75t85 27q86 0 86 -73zM242 89q0 -48 -27 -74.5t-84 -26.5q-87 0 -87 72q0 48 27 75t85 27q86 0 86 -73z" />
    <glyph glyph-name="semicolon" unicode=";" horiz-adv-x="276" 
d="M47 -98l42 109q4 10 -5 13l-42 13l40 124q29 0 56 -2t47 -9.5t32 -22.5t12 -40q0 -23 -12.5 -48t-23.5 -43l-69 -116zM299 463q0 -48 -27 -74.5t-84 -26.5q-87 0 -87 72q0 48 27 75t85 27q86 0 86 -73z" />
    <glyph glyph-name="less" unicode="&#x3c;" horiz-adv-x="570" 
d="M105 211l23 164l416 134l19 -134l-289 -82l267 -84l-58 -131z" />
    <glyph glyph-name="equal" unicode="=" horiz-adv-x="570" 
d="M89 112l19 138h393l-19 -138h-393zM117 313l19 138h393l-19 -138h-393z" />
    <glyph glyph-name="greater" unicode="&#x3e;" horiz-adv-x="570" 
d="M98 78l-17 138l291 84l-265 82l52 127l378 -134l-23 -164z" />
    <glyph glyph-name="question" unicode="?" horiz-adv-x="561" 
d="M148 202l26 185q32 2 71 7t73.5 19t58 40t23.5 70q0 29 -15.5 39.5t-39.5 10.5q-21 0 -35 -1.5t-25 -4.5q-9 -3 -12.5 -7.5t-5.5 -12.5l-13 -58l-154 -12l27 195q70 26 129 39t118 13q46 0 87.5 -8.5t72.5 -30t49 -59t18 -94.5q0 -45 -14 -86.5t-44.5 -75t-79 -57.5
t-117.5 -34l-11 -77h-187zM323 89q0 -48 -27 -74.5t-84 -26.5q-87 0 -87 72q0 48 27 75t85 27q86 0 86 -73z" />
    <glyph glyph-name="at" unicode="@" horiz-adv-x="848" 
d="M593 -157q-34 -14 -85 -24.5t-125 -10.5q-147 0 -230.5 75.5t-83.5 220.5q0 104 34 189t94.5 146.5t143 95t178.5 33.5q70 0 127 -18t97.5 -52.5t62.5 -85.5t22 -117q0 -76 -18 -133.5t-50 -96t-77.5 -58t-101.5 -19.5q-38 0 -65.5 15.5t-38.5 50.5q-31 -27 -61.5 -46.5
t-62.5 -19.5q-45 0 -72.5 29.5t-27.5 86.5q0 54 18.5 106.5t53 94t83 67t107.5 25.5q45 0 78.5 -9.5t59.5 -22.5l-40 -135q-5 -19 -10.5 -35t-10.5 -33q-4 -13 -6.5 -25t-2.5 -23q0 -14 7 -22.5t26 -8.5q24 0 42 19.5t30 49t18 64.5t6 66q0 41 -11.5 74t-37 57t-65 37
t-95.5 13q-84 0 -144.5 -32t-99 -81.5t-56.5 -110.5t-18 -120q0 -101 57.5 -157t168.5 -56q45 0 86 8.5t83 22.5zM529 307q-5 5 -14.5 7t-18.5 2q-21 0 -43 -13.5t-40.5 -38t-30 -58t-11.5 -74.5q0 -28 9.5 -37t20.5 -9q16 0 33.5 9.5t40.5 31.5z" />
    <glyph glyph-name="A" unicode="A" horiz-adv-x="771" 
d="M410 0l13 88l79 9l-13 76h-225l-33 -76l76 -9l-13 -88h-304l13 88l46 11q9 2 15 6t11 13l297 606h210l126 -608q2 -9 7.5 -12t14.5 -5l44 -11l-13 -88h-351zM434 529h-10l-107 -227h156z" />
    <glyph glyph-name="B" unicode="B" horiz-adv-x="649" 
d="M8 0l13 88l63 7q11 2 14 5.5t5 14.5l68 492q2 11 -0.5 15t-13.5 5l-61 7l12 90h352q55 0 92.5 -13t60 -34.5t32 -50t9.5 -59.5q0 -43 -13 -74.5t-33.5 -54t-46.5 -37t-52 -22.5v-3q72 -8 106 -46t34 -100q0 -63 -23 -107t-63.5 -71.5t-95.5 -39.5t-118 -12h-341zM332 129
q60 0 92.5 23.5t32.5 86.5q0 21 -7 35t-19 21.5t-28 10.5t-34 3h-53l-25 -180h41zM344 431q27 0 51 3.5t41 14t27 29.5t10 51q0 23 -8 36t-21 19t-29.5 7.5t-33.5 1.5h-27l-22 -162h12z" />
    <glyph glyph-name="C" unicode="C" horiz-adv-x="675" 
d="M619 44q-24 -13 -55 -23.5t-65 -18t-69.5 -11t-69.5 -3.5q-79 0 -136.5 22.5t-95 63.5t-55 98.5t-17.5 128.5q0 96 27 176t80 138t132.5 90t184.5 32q29 0 61 -4t62 -11.5t56.5 -18t45.5 -24.5l-29 -218l-132 11l-2 93q0 13 -3.5 17.5t-10.5 6.5q-20 7 -64 7
q-94 0 -152.5 -70t-58.5 -213q0 -94 37 -140.5t103 -46.5q27 0 47.5 1.5t32.5 6.5t16 20l29 97h130z" />
    <glyph glyph-name="D" unicode="D" horiz-adv-x="732" 
d="M8 0l13 90l63 7q11 1 14 5t5 15l68 491q2 11 -0.5 14.5t-12.5 5.5l-62 7l12 89h333q81 0 139 -20t95.5 -58t55.5 -92.5t18 -122.5q0 -91 -25.5 -170t-78 -137t-132.5 -91t-189 -33h-316zM317 129q62 0 107 25t74.5 66.5t44 95t14.5 110.5q0 88 -39.5 128t-130.5 40h-32
l-63 -465h25z" />
    <glyph glyph-name="E" unicode="E" horiz-adv-x="622" 
d="M8 0l12 88l63 7q11 2 14 5.5t5 14.5l69 493q2 11 -0.5 15t-12.5 5l-62 7l12 89h539l-31 -224l-132 5l-3 76q-1 13 -16 13h-110l-22 -164h211l-19 -135h-211l-22 -166h131q8 0 11.5 1.5t6.5 9.5l27 88h132l-31 -228h-561z" />
    <glyph glyph-name="F" unicode="F" horiz-adv-x="598" 
d="M8 0l12 88l63 7q11 2 14 5.5t5 14.5l69 493q2 11 -0.5 15t-12.5 5l-62 7l12 89h536l-32 -224l-132 5l-3 76q-1 13 -16 13h-106l-22 -164h207l-19 -135h-207l-24 -178q-2 -12 0 -15t12 -5l144 -8l-12 -89h-426z" />
    <glyph glyph-name="G" unicode="G" horiz-adv-x="719" 
d="M687 258q-15 -1 -18 -14l-27 -204q-67 -30 -139 -41t-135 -11q-87 0 -146.5 24.5t-96 66.5t-53 98.5t-16.5 121.5q0 95 26.5 175.5t80 139t133.5 91t187 32.5q24 0 53.5 -3t60 -10.5t59 -18.5t50.5 -28l-28 -208l-133 11l-2 87q0 10 -2.5 15t-10.5 7q-12 3 -31.5 5
t-36.5 2q-49 0 -88 -21t-65.5 -58.5t-40.5 -90.5t-14 -116q0 -85 34 -134t109 -49q16 0 32 1t27 5t14 18l16 101h-97l30 105h321l-13 -95z" />
    <glyph glyph-name="H" unicode="H" horiz-adv-x="808" 
d="M425 0l12 88l62 7q11 2 14 5.5t5 14.5l27 188h-228l-26 -187q-2 -12 -0.5 -15t12.5 -5l65 -8l-12 -88h-347l12 88l63 7q11 2 14 5.5t5 14.5l68 492q2 11 -0.5 15t-13.5 5l-60 7l12 90h347l-12 -90l-67 -8q-11 -2 -13.5 -5t-4.5 -14l-23 -168h227l24 168q2 11 -0.5 15
t-13.5 5l-61 7l13 90h347l-13 -90l-66 -8q-11 -2 -13.5 -5t-4.5 -14l-69 -491q-2 -12 0 -15t13 -5l65 -8l-12 -88h-347z" />
    <glyph glyph-name="I" unicode="I" horiz-adv-x="393" 
d="M1 0l10 88l73 7q11 1 13.5 5t4.5 15l70 492q2 11 -0.5 15t-13.5 5l-70 7l13 90h366l-13 -90l-76 -8q-11 -2 -13.5 -5t-4.5 -14l-69 -491q-2 -12 -0.5 -15t12.5 -5l75 -8l-11 -88h-366z" />
    <glyph glyph-name="J" unicode="J" horiz-adv-x="510" 
d="M303 608q2 10 -1 13.5t-13 4.5l-90 8l12 90h377l-13 -90l-67 -8q-11 -2 -13 -5t-4 -14l-61 -435q-13 -94 -65.5 -139t-158.5 -45q-30 0 -60 3.5t-56 9.5t-45.5 13.5t-30.5 14.5l28 202l133 -10v-71q0 -12 7 -14q9 -3 24 -3q17 0 25 7.5t11 29.5z" />
    <glyph glyph-name="K" unicode="K" horiz-adv-x="746" 
d="M488 0l-3 2l-36 99l-70 169l-79 -86l-10 -67q-2 -12 0 -15.5t12 -4.5l65 -8l-12 -89h-347l12 89l63 7q11 1 14 4.5t5 15.5l69 492q2 11 -0.5 14.5t-12.5 5.5l-60 7l10 89h347l-10 -89l-68 -8q-11 -2 -13.5 -5t-4.5 -14l-33 -233l242 251l-60 8l12 90h278l-11 -90l-37 -6
q-14 -2 -19.5 -5.5t-13.5 -11.5l-189 -198l128 -294q5 -11 11 -14.5t17 -5.5l59 -10l-11 -89h-244z" />
    <glyph glyph-name="L" unicode="L" horiz-adv-x="611" 
d="M8 0l12 89l63 7q11 2 14 5.5t5 14.5l69 492q2 11 -0.5 15t-12.5 5l-60 7l10 89h363l-11 -89l-83 -8q-11 -1 -13.5 -4.5t-4.5 -14.5l-67 -479h130q8 0 11.5 1.5t6.5 9.5l30 106h133l-34 -246h-561z" />
    <glyph glyph-name="M" unicode="M" horiz-adv-x="954" 
d="M561 0l12 88l81 7q11 1 14 5t5 15l42 303h-6l-149 -290h-192l-75 286h-6l-41 -298q-2 -12 -0.5 -15.5t12.5 -4.5l83 -8l-12 -88h-321l12 88l63 7q11 1 14 4.5t5 15.5l69 493q2 11 -0.5 14.5t-12.5 5.5l-60 7l10 89h283l109 -433h7l216 433h295l-11 -88l-66 -8
q-12 -2 -14.5 -5t-4.5 -14l-70 -494q-2 -11 0.5 -14.5t12.5 -4.5l65 -8l-12 -88h-357z" />
    <glyph glyph-name="N" unicode="N" horiz-adv-x="810" 
d="M505 0l-220 473l-49 -357q-2 -12 0 -15t13 -5l64 -8l-11 -88h-294l12 88l63 7q11 2 14 5.5t5 14.5l69 494q2 11 0 15t-13 5l-60 7l10 88h273l218 -476l51 359q2 11 -0.5 15t-12.5 5l-61 7l12 90h292l-12 -90l-67 -8q-11 -2 -13 -5t-4 -14l-86 -607h-193z" />
    <glyph glyph-name="O" unicode="O" horiz-adv-x="760" 
d="M355 -12q-81 0 -137.5 21t-92 58.5t-51.5 90t-16 116.5q0 98 26 182.5t77.5 146.5t129.5 98t183 36q80 0 136.5 -22.5t92.5 -61.5t52.5 -92.5t16.5 -115.5q0 -107 -28 -191.5t-81.5 -143.5t-131 -90.5t-176.5 -31.5zM384 138q36 0 67.5 12.5t56 43t41.5 81t23 125.5
q1 9 1.5 18t0.5 17q0 81 -32 116.5t-90 35.5q-39 0 -71.5 -14.5t-57.5 -46t-42 -81.5t-23 -120q-1 -8 -1 -16.5v-16.5q0 -85 33 -119.5t94 -34.5z" />
    <glyph glyph-name="P" unicode="P" horiz-adv-x="633" 
d="M8 0l13 89l63 7q11 2 14 5.5t5 14.5l68 491q2 11 -0.5 15t-13.5 5l-60 7l11 90h343q59 0 100.5 -14t67.5 -39.5t37.5 -60.5t11.5 -77q0 -68 -21.5 -118.5t-61.5 -84.5t-96.5 -50.5t-126.5 -16.5h-53l-19 -146q-2 -12 0 -15t12 -5l140 -8l-13 -89h-421zM348 391q19 0 41 4
t40.5 16.5t30.5 37t12 65.5q0 27 -8.5 42.5t-22 24t-29 10.5t-30.5 2h-28l-27 -202h21z" />
    <glyph glyph-name="Q" unicode="Q" horiz-adv-x="760" 
d="M691 -175q-26 -5 -48.5 -6.5t-42.5 -1.5q-62 0 -107 14t-80 30.5t-64 30.5t-59 14q-32 0 -61 -10t-64 -33l-63 111q23 17 56 30.5t57 19.5v3q-80 32 -118.5 97t-38.5 150q0 98 26 182.5t77.5 146.5t129.5 98t183 36q80 0 136.5 -22.5t92.5 -61.5t52.5 -92.5t16.5 -115.5
q0 -95 -23 -173.5t-69 -136t-115 -91.5t-162 -40v-2q18 -8 42.5 -17.5t52.5 -17.5t57.5 -13t59.5 -5q18 0 38 1.5t42 5.5zM384 138q36 0 67.5 12.5t56 43t41.5 81t23 125.5q1 9 1.5 18t0.5 17q0 81 -32 116.5t-90 35.5q-39 0 -71.5 -14.5t-57.5 -46t-42 -81.5t-23 -120
q-1 -8 -1 -16.5v-16.5q0 -85 33 -119.5t94 -34.5z" />
    <glyph glyph-name="R" unicode="R" horiz-adv-x="681" 
d="M426 0l-6 6l-48 236q-5 22 -13.5 34.5t-34.5 12.5h-10l-24 -171q-2 -12 0 -15t12 -5l55 -8l-11 -90h-337l12 90l63 7q11 1 14 4.5t5 15.5l69 491q2 11 -0.5 14.5t-12.5 5.5l-60 7l10 89h347q58 0 99 -14.5t66.5 -39.5t37 -57.5t11.5 -67.5q0 -45 -12.5 -78.5t-33.5 -59
t-48.5 -44t-58.5 -32.5q18 -10 29 -32t17 -49l28 -131q2 -11 7.5 -15.5t16.5 -6.5l62 -7l-12 -90h-239zM350 412q23 0 45.5 3.5t40 15t28 32.5t10.5 57q0 37 -20 55t-65 18h-34l-24 -181h19z" />
    <glyph glyph-name="S" unicode="S" horiz-adv-x="586" 
d="M444 494v81q0 14 -5 17.5t-14 5.5q-11 2 -25.5 2h-22.5q-47 0 -71.5 -20t-24.5 -52q0 -17 9 -29t24 -21t35.5 -16t42.5 -15q31 -10 63.5 -24t58.5 -36.5t43 -57.5t17 -88q0 -65 -25 -112.5t-68 -79t-100.5 -46.5t-122.5 -15q-35 0 -70.5 4t-67 10t-57 14t-40.5 15l30 213
h136l7 -96q1 -8 4.5 -13.5t16.5 -7.5q10 -2 23.5 -3t32.5 -1q54 0 83.5 21.5t29.5 58.5q0 18 -8.5 30.5t-22.5 22t-33.5 17t-40.5 14.5q-31 11 -64.5 24t-61 35t-45 56t-17.5 86q0 63 24 110t65 77.5t96 46t117 15.5q69 0 123.5 -14t90.5 -31l-28 -210z" />
    <glyph glyph-name="T" unicode="T" horiz-adv-x="706" 
d="M130 0l12 89l102 7q10 1 13 5t5 15l66 477h-71q-8 0 -11 -1.5t-5 -9.5l-27 -82l-136 -5l31 229h659l-31 -229l-130 5l-5 82q-1 8 -3.5 9.5t-10.5 1.5h-72l-65 -477q-2 -11 -0.5 -14.5t12.5 -4.5l107 -8l-12 -89h-428z" />
    <glyph glyph-name="U" unicode="U" horiz-adv-x="776" 
d="M590 608q2 11 -0.5 15t-12.5 5l-61 7l12 89h318l-12 -89l-68 -8q-11 -2 -13.5 -5t-3.5 -14l-48 -338q-22 -151 -102 -216.5t-212 -65.5q-136 0 -204 53t-68 169q0 15 1.5 31.5t3.5 33.5l46 333q2 11 -0.5 15t-11.5 5l-61 7l12 89h347l-12 -89l-68 -8q-11 -2 -13 -5
t-4 -14l-43 -300q-6 -43 -6 -77q0 -43 19 -68t75 -25q37 0 62.5 10t42.5 31t27 53t16 76z" />
    <glyph glyph-name="V" unicode="V" horiz-adv-x="737" 
d="M240 0l-104 608q-2 9 -7.5 12t-14.5 5l-42 11l13 88h346l-13 -88l-80 -9l64 -443h11l179 443l-73 9l12 88h294l-13 -88l-43 -11q-21 -5 -28 -23l-253 -602h-248z" />
    <glyph glyph-name="W" unicode="W" horiz-adv-x="1043" 
d="M585 0l-31 312h-8l-109 -312h-245l-55 597q-2 17 -5.5 20.5t-17.5 7.5l-42 11l13 88h335l-13 -88l-80 -9l32 -447h7l159 417h179l37 -421h11l141 451l-76 9l13 88h297l-13 -88l-46 -11q-10 -2 -16.5 -7.5t-11.5 -19.5l-208 -598h-247z" />
    <glyph glyph-name="X" unicode="X" horiz-adv-x="801" 
d="M401 0l13 88l76 9l-95 148l-134 -148l77 -9l-13 -88h-315l13 88l63 11q9 2 15 6.5t13 12.5l214 230l-167 260q-7 13 -21 17l-52 11l14 88h364l-13 -88l-79 -9l97 -151l136 151l-75 9l14 88h300l-12 -88l-53 -11q-9 -2 -15 -6.5t-13 -12.5l-216 -234l168 -256
q11 -16 27 -19l47 -9l-13 -88h-365z" />
    <glyph glyph-name="Y" unicode="Y" horiz-adv-x="697" 
d="M131 0l12 89l102 7q10 1 13 5t5 15l21 148l-146 344q-5 13 -22 17l-42 11l13 88h346l-13 -88l-80 -9l71 -202h11l125 202l-75 9l13 88h289l-13 -88l-43 -11q-9 -2 -16 -6t-11 -13l-219 -341l-21 -149q-2 -11 0 -14.5t13 -4.5l107 -8l-12 -89h-428z" />
    <glyph glyph-name="Z" unicode="Z" horiz-adv-x="675" 
d="M27 0l17 119l404 475h-168q-8 0 -11.5 -1.5t-5.5 -9.5l-29 -92l-134 -5l34 238h557l-17 -123l-398 -472h192q8 0 11.5 1.5t6.5 9.5l33 107h129l-34 -247h-587z" />
    <glyph glyph-name="bracketleft" unicode="[" horiz-adv-x="336" 
d="M20 -143l122 867h258l-9 -85l-65 -12q-10 -2 -13.5 -6.5t-5.5 -14.5l-89 -631q-3 -18 13 -21l62 -12l-15 -85h-258z" />
    <glyph glyph-name="backslash" unicode="\" horiz-adv-x="473" 
d="M270 -92l-156 823h170l157 -823h-171z" />
    <glyph glyph-name="bracketright" unicode="]" horiz-adv-x="336" 
d="M-11 -143l10 85l64 12q11 2 14 6.5t5 14.5l88 631q2 10 -0.5 14.5t-12.5 6.5l-61 12l15 85h258l-122 -867h-258z" />
    <glyph glyph-name="asciicircum" unicode="^" horiz-adv-x="645" 
d="M466 299l-88 213l-145 -213h-175l248 365h189l148 -365h-177z" />
    <glyph glyph-name="underscore" unicode="_" 
d="M-25 -181l18 130h500l-18 -130h-500z" />
    <glyph glyph-name="grave" unicode="`" 
d="M391 557l-159 150l108 88l127 -179z" />
    <glyph glyph-name="a" unicode="a" horiz-adv-x="620" 
d="M367 0l11 75l-5 2q-48 -45 -87 -67t-90 -22q-75 0 -114.5 50.5t-39.5 155.5q0 56 13 116t43 110.5t78.5 83t118.5 32.5q42 0 75 -15t59 -43l21 47h155q-7 -34 -13.5 -68t-11.5 -68l-38 -274q-2 -11 0 -14t13 -5l45 -7l-12 -89h-221zM402 370q-14 11 -31.5 19t-34.5 8
q-31 0 -50.5 -21.5t-30.5 -52t-15.5 -62.5t-4.5 -53q0 -31 8 -49t31 -18q19 0 49 17.5t55 40.5z" />
    <glyph glyph-name="b" unicode="b" horiz-adv-x="613" 
d="M38 0q11 38 21 74.5t15 73.5l67 475q1 16 -10 21l-49 19l14 92h240l-43 -301l4 -3q45 44 86.5 64.5t83.5 20.5q65 0 104.5 -44t39.5 -149q0 -58 -10.5 -121t-38 -115t-74 -85.5t-118.5 -33.5q-38 0 -74 15t-62 46l-5 -1l-12 -48h-179zM257 155q16 -10 34.5 -17.5
t36.5 -7.5q24 0 40.5 15.5t27 40.5t15 55t4.5 59q0 14 -1 28t-5 25.5t-11.5 19t-19.5 7.5q-20 0 -45.5 -16.5t-51.5 -36.5z" />
    <glyph glyph-name="c" unicode="c" horiz-adv-x="510" 
d="M469 42q-40 -23 -93.5 -38.5t-110.5 -15.5q-59 0 -101.5 16.5t-70 46t-40.5 71t-13 90.5q0 80 23.5 141t65.5 101.5t98.5 61t122.5 20.5q58 0 107.5 -15t72.5 -34l-24 -171l-124 5l-3 67q0 15 -10 17q-8 2 -16 3.5t-20 1.5q-19 0 -37 -9.5t-32.5 -30.5t-23.5 -55.5
t-9 -84.5q0 -32 6.5 -52.5t18 -32.5t27 -16.5t32.5 -4.5q36 0 69.5 9.5t56.5 17.5z" />
    <glyph glyph-name="d" unicode="d" horiz-adv-x="622" 
d="M367 0l11 75l-5 2q-48 -45 -87 -67t-90 -22q-74 0 -114 49.5t-40 153.5q0 53 13 113.5t42.5 112t78 85.5t119.5 34q42 0 72 -10.5t55 -27.5l16 125q2 10 0 14t-10 7l-48 19l15 92h236l-89 -640q-2 -11 0 -14t13 -5l45 -7l-12 -89h-221zM403 376q-14 9 -31.5 15t-31.5 6
q-32 0 -52.5 -21t-32 -51.5t-16 -64.5t-4.5 -59q0 -26 8 -43t31 -17q19 0 49 17.5t55 40.5z" />
    <glyph glyph-name="e" unicode="e" horiz-adv-x="520" 
d="M486 43q-55 -24 -111 -39.5t-113 -15.5q-61 0 -103.5 17t-69 46t-38 69t-11.5 85q0 85 25 147.5t67.5 103t98 60.5t116.5 20q86 0 132 -35.5t46 -104.5q0 -50 -25 -84.5t-66 -56.5t-94 -34.5t-109 -18.5q2 -35 20 -57t63 -22q22 0 59 8t87 28zM234 309q19 3 40.5 7.5
t40 12.5t31 19.5t12.5 27.5t-10 23.5t-27 7.5q-27 0 -52 -23.5t-35 -74.5z" />
    <glyph glyph-name="f" unicode="f" horiz-adv-x="447" 
d="M37 -212l86 608q2 10 -7 10h-62l16 119h71l7 48q8 55 26.5 92t47 59.5t65 32.5t80.5 10q22 0 47.5 -4t50.5 -11t48 -17t40 -23l-65 -113q-6 4 -17 10t-24.5 12t-28 10t-29.5 4q-48 0 -56 -48l-8 -52q-1 -5 0 -7.5t7 -2.5h151l-17 -119h-159l-86 -618h-184z" />
    <glyph glyph-name="g" unicode="g" horiz-adv-x="600" 
d="M373 75l-6 3q-43 -36 -81.5 -58.5t-89.5 -22.5q-75 0 -114.5 46t-39.5 151q0 56 13 116t43 110.5t78.5 83t118.5 32.5q42 0 75 -15t59 -43l21 47h155q-7 -34 -13.5 -68t-11.5 -68l-55 -394q-8 -60 -31 -101.5t-57 -67.5t-77.5 -37.5t-93.5 -11.5q-40 0 -77.5 7t-69 16.5
t-54 20t-32.5 18.5l56 109q7 -5 23 -12.5t37.5 -14.5t47 -12.5t51.5 -5.5q56 0 83 24.5t34 81.5zM402 370q-14 11 -31.5 19t-34.5 8q-31 0 -50.5 -21.5t-30.5 -52t-15.5 -62.5t-4.5 -53q0 -31 8 -44.5t31 -13.5q19 0 50 14.5t54 34.5z" />
    <glyph glyph-name="h" unicode="h" horiz-adv-x="621" 
d="M259 116q-2 -12 0 -15t13 -5l39 -7l-12 -89h-293l12 90l41 6q10 2 13 5.5t5 14.5l71 507q3 17 -9 21l-47 19l13 92h234l-42 -302l4 -3q20 17 38 32.5t37.5 27.5t42 19t50.5 7q65 0 95.5 -42t18.5 -130l-35 -248q-2 -12 -0.5 -15t12.5 -5l46 -7l-12 -89h-244l-2 7l18 110
l31 221q6 41 -22 41q-17 0 -41.5 -16.5t-44.5 -33.5z" />
    <glyph glyph-name="i" unicode="i" horiz-adv-x="332" 
d="M219 586q-44 0 -67 23.5t-23 65.5q0 57 31.5 89t88.5 32q44 0 68 -22.5t24 -64.5q0 -57 -32.5 -90t-89.5 -33zM57 0l-3 6l26 147l33 240q3 17 -10 21l-47 19l13 92h246l-57 -409q-2 -12 0 -15t13 -5l41 -7l-11 -89h-244z" />
    <glyph glyph-name="j" unicode="j" horiz-adv-x="332" 
d="M117 393q1 16 -10 21l-48 19l13 92h244l-78 -570q-13 -97 -68.5 -137.5t-144.5 -40.5q-34 0 -63 6.5t-51 15.5t-36.5 18.5t-20.5 15.5l59 98q11 -6 33 -15t48 -9q12 0 22.5 2.5t18.5 10.5t14 23t10 41zM220 586q-44 0 -67 23.5t-23 65.5q0 57 31.5 89t88.5 32
q44 0 68 -22.5t24 -64.5q0 -57 -32.5 -90t-89.5 -33z" />
    <glyph glyph-name="k" unicode="k" horiz-adv-x="624" 
d="M392 0l-3 2l-31 116l-43 128l-41 -38l-13 -92q-2 -12 0 -15t13 -5l41 -7l-11 -89h-298l11 90l43 6q10 2 13 5.5t5 14.5l71 507q1 16 -10 21l-49 19l14 92h246l-54 -394l124 111q24 22 44 34.5t37.5 19t33 8.5t31.5 2q17 0 33 -1.5t33 -6.5l-13 -103q-29 2 -51.5 -6
t-46.5 -30l-44 -40l78 -237q4 -11 10.5 -14t17.5 -5l38 -6l-12 -87h-217z" />
    <glyph glyph-name="l" unicode="l" horiz-adv-x="333" 
d="M59 0l-3 6l26 147l66 470q3 17 -10 21l-47 19l13 92h246l-90 -639q-2 -12 0 -15t13 -5l41 -7l-11 -89h-244z" />
    <glyph glyph-name="m" unicode="m" horiz-adv-x="870" 
d="M260 116q-2 -12 0 -15t13 -5l31 -7l-12 -89h-286l12 90l41 6q10 2 13 5.5t5 14.5l38 277q3 17 -9 21l-47 19l13 92h227l-10 -72l4 -2q20 17 38.5 32.5t38.5 27t43 18.5t50 7q45 0 68.5 -21t27.5 -59l5 -3q17 15 35.5 29.5t39.5 26.5t44 19.5t49 7.5q65 0 88.5 -42
t11.5 -130l-35 -248q-2 -12 -0.5 -15t12.5 -5l46 -7l-12 -89h-244l-2 5l20 123l29 210q3 22 -1.5 29t-14.5 7q-14 0 -33 -13.5t-39 -31.5l-30 -213q-2 -12 -0.5 -15t12.5 -5l34 -7l-12 -89h-232l-1 5l20 128l28 205q3 20 -1 27.5t-15 7.5q-14 0 -32.5 -13.5t-39.5 -30.5z
" />
    <glyph glyph-name="n" unicode="n" horiz-adv-x="621" 
d="M260 116q-2 -12 0 -15t13 -5l39 -7l-12 -89h-294l12 90l41 6q10 2 13 5.5t5 14.5l38 277q3 17 -9 21l-47 19l13 92h227l-10 -72l4 -2q20 17 39 32.5t40 27t44.5 18.5t52.5 7q65 0 95.5 -42t18.5 -130l-35 -248q-2 -12 -0.5 -15t12.5 -5l46 -7l-12 -89h-244l-2 5l20 126
l29 207q6 41 -22 41q-17 0 -41.5 -16.5t-44.5 -33.5z" />
    <glyph glyph-name="o" unicode="o" horiz-adv-x="589" 
d="M280 -12q-124 0 -182 58.5t-58 160.5q0 14 1 29.5t3 31.5q9 61 32.5 110.5t62.5 84.5t93 54t122 19q66 0 111 -17.5t72.5 -46.5t39 -68t11.5 -83q0 -14 -1 -26.5t-4 -35.5q-9 -60 -30 -110t-58 -85.5t-90 -55.5t-125 -20zM294 114q35 0 59 29.5t36 111.5q3 23 3.5 37
t0.5 26q0 49 -16 69t-45 20q-15 0 -30 -6.5t-28.5 -22.5t-23.5 -44t-15 -71q-2 -17 -3 -31t-1 -27q0 -51 17 -71t46 -20z" />
    <glyph glyph-name="p" unicode="p" horiz-adv-x="616" 
d="M111 393q3 15 -10 21l-46 19l13 92h228l-11 -72l5 -2q45 44 88.5 64.5t85.5 20.5q33 0 61 -11t47.5 -35.5t30.5 -63t11 -94.5q0 -89 -18 -154t-50 -107t-76.5 -62.5t-97.5 -20.5q-42 0 -75.5 16t-48.5 30l-6 -1l-20 -131q-1 -7 2 -10.5t13 -4.5l106 -10l-13 -89h-309
l-1 4l29 166zM260 153q16 -10 34.5 -16.5t36.5 -6.5q24 0 40.5 15.5t27 40.5t15 55t4.5 59q0 14 -1 28t-5 25.5t-11.5 19t-19.5 7.5q-20 0 -45 -16.5t-51 -36.5z" />
    <glyph glyph-name="q" unicode="q" horiz-adv-x="601" 
d="M226 -212l13 90l92 8q21 1 24 17l24 172l-6 3q-35 -34 -65.5 -55t-63.5 -29q-22 -6 -47 -6q-75 0 -114.5 50.5t-39.5 155.5q0 56 13 116t43 110.5t78.5 83t118.5 32.5q14 0 27 -2t25 -5q47 -13 82 -51l21 47h155q-7 -34 -13.5 -68t-11.5 -68l-67 -486q-2 -11 0 -14t13 -5
l45 -7l-12 -89h-334zM403 370q-14 11 -31.5 19t-34.5 8q-31 0 -50.5 -21.5t-30.5 -52t-15.5 -62.5t-4.5 -53q0 -31 8 -49t31 -18q19 0 49 17.5t55 40.5z" />
    <glyph glyph-name="r" unicode="r" horiz-adv-x="490" 
d="M6 0l12 90l43 6q11 2 13.5 5.5t4.5 14.5l38 277q1 16 -10 21l-48 19l13 92h228l-13 -83l5 -3q30 45 69 71t85 26q8 0 20 -1t24 -2.5t23 -3t17 -3.5l-27 -200l-146 5l-3 42q-1 13 -11 13q-11 0 -24.5 -6.5t-21.5 -12.5l-35 -249q-2 -12 1 -15.5t14 -4.5l98 -9l-13 -89
h-356z" />
    <glyph glyph-name="s" unicode="s" horiz-adv-x="494" 
d="M352 358l-2 45q0 8 -2 11.5t-10 6.5t-21 4.5t-27 1.5q-56 0 -56 -40q0 -20 26 -29t62 -18q27 -7 55 -16.5t51.5 -26.5t38.5 -44.5t15 -69.5q0 -51 -19 -88t-53.5 -61t-82.5 -35t-107 -11q-36 0 -67.5 3.5t-57.5 9t-45 12t-28 12.5l20 144l126 -8l2 -52q0 -13 13 -17
q9 -3 23.5 -5t35.5 -2q36 0 53.5 13.5t17.5 35.5q0 12 -7.5 20t-21 13.5t-30.5 10t-37 9.5q-27 7 -54.5 16.5t-50 26.5t-36.5 44t-14 69q0 51 20 87.5t53.5 60t78.5 34.5t96 11q30 0 60 -3t55.5 -7.5t45 -10t30.5 -10.5l-21 -154z" />
    <glyph glyph-name="t" unicode="t" horiz-adv-x="438" 
d="M415 32q-36 -18 -86.5 -31t-95.5 -13q-83 0 -119 29t-36 96q0 12 1 25t3 27l32 231q0 5 -0.5 7.5t-6.5 2.5h-67l16 112q70 7 109 46.5t59 124.5h114l-22 -154q-1 -5 0 -7.5t7 -2.5h135l-16 -119h-143l-29 -205q-3 -18 -3 -30q0 -26 12.5 -37t43.5 -11q20 0 38 4t35 9z
" />
    <glyph glyph-name="u" unicode="u" horiz-adv-x="619" 
d="M401 409q2 12 0 15t-13 5l-43 7l12 89h245l-57 -407q-2 -8 -0.5 -13.5t9.5 -7.5l48 -8l-13 -89h-227l10 72l-4 3q-19 -17 -38.5 -32.5t-40.5 -27.5t-44.5 -19t-52.5 -7q-56 0 -86.5 31.5t-30.5 96.5q0 20 3 44l35 248q2 12 0.5 15t-12.5 5l-46 7l12 89h244l-47 -338
q-6 -41 22 -41q17 0 41.5 16.5t44.5 33.5z" />
    <glyph glyph-name="v" unicode="v" horiz-adv-x="619" 
d="M187 0l-85 410q-2 9 -6 12t-12 5l-39 9l12 89h221l11 -11l21 -120l31 -215h9l119 250l-66 8l13 88h218l15 -41l-249 -484h-213z" />
    <glyph glyph-name="w" unicode="w" horiz-adv-x="882" 
d="M511 0l-32 296h-8l-85 -296h-224l-61 411q-2 9 -6 12t-12 5l-39 9l15 88h217l10 -11l6 -101l24 -227h10l99 327h196l37 -329h9l95 247l-50 6l14 88h177l15 -39l-204 -486h-203z" />
    <glyph glyph-name="x" unicode="x" horiz-adv-x="608" 
d="M394 0l-13 11l-98 155l-69 -70l51 -9l-10 -87h-254l10 86l35 7q8 2 14.5 5.5t14.5 11.5l146 140l-107 158q-5 7 -8.5 10.5t-11.5 6.5l-39 11l14 89h181l13 -10l93 -150l66 65l-44 7l15 88h249l-13 -88l-45 -10q-8 -2 -13.5 -6t-14.5 -13l-137 -130l111 -166
q10 -15 24 -18l44 -6l-14 -88h-190z" />
    <glyph glyph-name="y" unicode="y" horiz-adv-x="605" 
d="M213 -5l-116 415q-3 9 -6.5 12t-11.5 5l-39 9l14 89h203l13 -14l28 -127l40 -181h10l117 225l-61 8l14 89h202l17 -41l-302 -568q-18 -35 -39 -61t-47 -43.5t-59 -26t-76 -8.5q-30 0 -55.5 6t-46 14.5t-35.5 17.5t-22 16l59 101q17 -11 42 -20.5t51 -9.5q30 0 48.5 14
t35.5 42z" />
    <glyph glyph-name="z" unicode="z" horiz-adv-x="530" 
d="M22 0l14 102l280 313h-102q-7 0 -10 -2t-6 -10l-19 -52l-123 -5l25 179h459l-15 -104l-274 -312h107q12 0 16 13l21 66l126 4l-26 -192h-473z" />
    <glyph glyph-name="braceleft" unicode="{" horiz-adv-x="356" 
d="M297 -150q-123 0 -178.5 25.5t-55.5 93.5q0 33 7 61t15.5 54t15.5 52.5t7 57.5q0 26 -12.5 36.5t-41.5 12.5l13 91q35 3 49.5 16.5t20.5 48.5q9 57 7 103t3 89q5 42 20 69t45.5 42.5t78 21t116.5 3.5l3 -93q-25 -3 -40 -8.5t-22.5 -17t-10 -31t-2.5 -52.5q0 -15 0.5 -39
t0.5 -38q0 -71 -19.5 -107t-60.5 -53q47 -21 47 -86q0 -29 -6.5 -55.5t-15 -51.5t-15 -48.5t-6.5 -47.5q0 -27 12.5 -38t47.5 -18z" />
    <glyph glyph-name="bar" unicode="|" horiz-adv-x="287" 
d="M21 -143l122 867h170l-122 -867h-170z" />
    <glyph glyph-name="braceright" unicode="}" horiz-adv-x="356" 
d="M113 727q123 0 178.5 -25.5t55.5 -93.5q0 -33 -7 -60.5t-15.5 -54t-15.5 -53t-7 -57.5q0 -26 12.5 -36.5t41.5 -12.5l-13 -91q-35 -3 -49.5 -16.5t-20.5 -48.5q-9 -57 -7 -103t-3 -89q-4 -42 -19.5 -69t-46 -42.5t-78 -21t-116.5 -3.5l-3 93q25 3 40 8.5t22.5 17t10 31
t2.5 52.5q0 15 -0.5 39t-0.5 38q0 71 19.5 107t60.5 53q-47 21 -47 86q0 29 6.5 55.5t15 51.5t15 48.5t6.5 47.5q0 27 -12.5 38t-47.5 18z" />
    <glyph glyph-name="asciitilde" unicode="~" horiz-adv-x="549" 
d="M573 445q-25 -84 -60 -121t-85 -37q-27 0 -55.5 7t-55.5 16t-52.5 16t-47.5 7q-24 0 -41 -8t-37 -37l-81 44q11 30 27 57.5t37 47.5t45 32t49 12q29 0 55.5 -7t52.5 -16t50.5 -16t48.5 -7q23 0 35.5 9t26.5 37z" />
    <glyph glyph-name="uni00A0" unicode="&#xa0;" horiz-adv-x="190" 
 />
    <glyph glyph-name="sterling" unicode="&#xa3;" horiz-adv-x="559" 
d="M31 0l-3 109q20 8 35 16t26 23t18.5 39.5t13.5 65.5l2 16h-66l17 133h63l7 46q6 43 21 81.5t43.5 67.5t74 46t113.5 17q124 0 201 -74l-91 -101q-29 26 -56.5 34t-50.5 8q-22 0 -35.5 -7t-21.5 -19t-11.5 -28t-6.5 -33l-6 -38h122l-18 -133h-118q-6 -45 -26.5 -85.5
t-54.5 -69.5h164q7 0 9 4t4 9l24 75h128l-28 -202h-493z" />
    <glyph glyph-name="currency" unicode="&#xa4;" horiz-adv-x="570" 
d="M489 -9l-85 85q-47 -26 -111 -26q-33 0 -61.5 7.5t-51.5 19.5l-46 -46t-39 -40l-94 95l89 89q-20 49 -20 104q0 25 5 50t16 48l-87 87l97 96l82 -82q50 29 116 29q69 0 115 -26l79 78l93 -94l-83 -83q19 -44 19 -99q0 -28 -6.5 -56t-17.5 -53l88 -87zM297 178
q42 0 62.5 29.5t20.5 71.5q0 46 -21 72t-64 26q-42 0 -62.5 -27.5t-20.5 -70.5q0 -42 20 -71.5t65 -29.5z" />
    <glyph glyph-name="brokenbar" unicode="&#xa6;" horiz-adv-x="287" 
d="M21 -143l54 388h170l-54 -388h-170zM96 389l47 335h170l-47 -335h-170z" />
    <glyph glyph-name="section" unicode="&#xa7;" horiz-adv-x="581" 
d="M42 39l127 -8l2 -52q0 -7 1.5 -11t8.5 -7q8 -3 23.5 -6t41.5 -3q38 0 56 12.5t18 32.5q0 14 -8.5 22.5t-22.5 15t-32.5 11t-38.5 9.5q-27 6 -54 15t-49 24t-36 39.5t-14 61.5q0 55 27.5 92t64.5 64q-20 16 -32.5 44.5t-12.5 58.5q0 49 20 83.5t54 56.5t79 32t95 10
q72 0 128 -10.5t79 -20.5l-22 -154l-126 7l-2 49q0 6 -1.5 9.5t-8.5 5.5q-10 4 -23 6t-33 2q-29 0 -48.5 -12.5t-19.5 -32.5q0 -22 29 -31.5t69 -19.5q27 -7 54.5 -16.5t50 -26t36.5 -42.5t14 -65q0 -53 -23 -88t-61 -60q17 -14 27.5 -36.5t10.5 -48.5q0 -50 -18.5 -86.5
t-53 -60t-83.5 -35t-110 -11.5q-36 0 -70 4t-61.5 9.5t-46.5 12t-25 11.5zM251 303q-14 -11 -24 -23.5t-10 -28.5q0 -20 21 -30.5t52 -18.5l58 -15q35 24 35 52q0 17 -16.5 26.5t-42.5 17.5z" />
    <glyph glyph-name="dieresis" unicode="&#xa8;" 
d="M318 672q0 -41 -25.5 -65.5t-66.5 -24.5q-32 0 -51.5 18.5t-19.5 49.5q0 41 26.5 65t66.5 24q33 0 51.5 -18t18.5 -49zM530 672q0 -41 -25.5 -65.5t-66.5 -24.5q-32 0 -51.5 18.5t-19.5 49.5q0 41 26.5 65t66.5 24q33 0 51.5 -18t18.5 -49z" />
    <glyph glyph-name="copyright" unicode="&#xa9;" horiz-adv-x="775" 
d="M751 319q0 -76 -24.5 -138t-69.5 -106t-107 -68.5t-137 -24.5q-83 0 -146 24.5t-105.5 68t-64 102.5t-21.5 128q0 79 26.5 141.5t72.5 105.5t108 66t132 23q78 0 140.5 -22.5t106 -64.5t66.5 -101.5t23 -133.5zM659 313q0 59 -18 104.5t-50.5 76.5t-77.5 46.5t-98 15.5
q-52 0 -97 -16.5t-78 -48.5t-51.5 -78.5t-18.5 -106.5q0 -112 64.5 -175.5t180.5 -63.5q115 0 179.5 65.5t64.5 180.5zM540 489q-18 7 -49.5 13.5t-62.5 6.5q-95 0 -143 -54t-48 -140q0 -42 10.5 -78t33 -62t58 -40.5t86.5 -14.5q30 0 62 6t52 18v110h-56l-11 -54
q-18 -9 -41 -9q-27 0 -45 9.5t-28.5 26t-14.5 39t-4 47.5q0 70 22 97t64 27q25 0 47 -9l7 -54h61v115z" />
    <glyph glyph-name="guillemotleft" unicode="&#xab;" horiz-adv-x="484" 
d="M310 103l-63 153l110 152h146l-102 -140q-5 -6 -5.5 -9.5t1.5 -9.5l57 -146h-144zM104 103l-63 153l110 152h146l-102 -140q-5 -6 -5.5 -9.5t1.5 -9.5l57 -146h-144z" />
    <glyph glyph-name="logicalnot" unicode="&#xac;" horiz-adv-x="570" 
d="M361 160l14 95h-264l19 138h393l-33 -233h-129z" />
    <glyph glyph-name="uni00AD" unicode="&#xad;" horiz-adv-x="311" 
d="M37 215l21 150h271l-21 -150h-271z" />
    <glyph glyph-name="registered" unicode="&#xae;" horiz-adv-x="460" 
d="M480 480q0 -42 -14 -76t-38.5 -59t-59 -38.5t-76.5 -13.5q-46 0 -81 14t-58.5 38t-35.5 57t-12 71q0 44 15 78.5t40.5 59t59.5 37.5t73 13q87 0 137 -49.5t50 -131.5zM428 477q0 66 -38.5 100.5t-96.5 34.5q-28 0 -52.5 -9.5t-43 -27t-29 -43t-10.5 -58.5q0 -62 36 -97
t99 -35t99 36t36 99zM210 412l13 1q5 0 5 5v121q0 5 -5 5l-13 1v30h89q42 0 57 -16.5t15 -37.5q0 -20 -10 -32.5t-24 -17.5q5 -2 10 -6t8 -13l12 -32q2 -5 8 -6l14 -2v-28h-66l-22 63q-2 6 -4 8t-9 2h-10v-38q0 -5 5 -6l15 -1v-28h-88v28zM278 492h14q13 0 20.5 4.5
t7.5 20.5q0 14 -8 18t-18 4h-16v-47z" />
    <glyph glyph-name="macron" unicode="&#xaf;" 
d="M175 584l17 118h323l-17 -118h-323z" />
    <glyph glyph-name="degree" unicode="&#xb0;" horiz-adv-x="285" 
d="M190 621q21 0 36.5 16t15.5 37q0 18 -10.5 30t-27.5 12q-19 0 -35.5 -15.5t-16.5 -38.5q0 -17 10.5 -29t27.5 -12zM319 685q0 -30 -11 -55t-29.5 -43t-44 -28.5t-54.5 -10.5q-48 0 -77.5 30t-29.5 76q0 31 11.5 56t30.5 42.5t45 27t54 9.5q46 0 75.5 -28t29.5 -76z" />
    <glyph glyph-name="plusminus" unicode="&#xb1;" horiz-adv-x="570" 
d="M378 255l-17 -117h126l-19 -138h-393l19 138h125l17 117h-125l19 138h125l19 134h142l-19 -134h126l-19 -138h-126z" />
    <glyph glyph-name="mu" unicode="&#xb5;" horiz-adv-x="644" 
d="M392 0l9 56l-4 2q-23 -17 -46 -31.5t-49 -23.5q-23 -8 -52 -13l-11 -166h-194l99 701h187l-47 -336q-3 -21 2 -39t28 -18q32 0 71 22l52 371h187l-58 -410q-2 -8 0 -12t11 -6l47 -7l-12 -90h-220z" />
    <glyph glyph-name="paragraph" unicode="&#xb6;" horiz-adv-x="683" 
d="M490 538h-56l-69 -482h-41q-113 0 -175.5 65t-62.5 186q0 78 24 140.5t69.5 106.5t111 67.5t148.5 23.5h289l-14 -89l-68 -8q-11 -2 -13.5 -5t-4.5 -14l-72 -510q-8 -58 -29 -98t-52 -65.5t-70.5 -37t-86.5 -11.5q-43 0 -79.5 7t-65 16.5t-48 20t-29.5 18.5l55 103
q7 -5 22 -12.5t36 -14.5t46 -12.5t51 -5.5q49 0 75.5 26t34.5 83z" />
    <glyph glyph-name="periodcentered" unicode="&#xb7;" horiz-adv-x="265" 
d="M263 347q0 -48 -27 -74.5t-84 -26.5q-87 0 -87 72q0 48 27 75t85 27q86 0 86 -73z" />
    <glyph glyph-name="cedilla" unicode="&#xb8;" 
d="M132 -183q5 -2 13.5 -3t19.5 -1q22 0 41 10t19 36q0 24 -17.5 31t-40.5 8l35 132l79 -8l-18 -68q11 -3 23.5 -9.5t23.5 -17t18.5 -27t7.5 -39.5q0 -32 -13 -56t-35 -40t-50 -24.5t-58 -8.5q-16 0 -28.5 1.5t-20.5 2.5q-10 2 -17 5z" />
    <glyph glyph-name="guillemotright" unicode="&#xbb;" horiz-adv-x="484" 
d="M231 103l99 146q4 6 4.5 9.5t-2.5 9.5l-64 140h146l68 -152l-107 -153h-144zM25 103l99 146q4 6 4.5 9.5t-2.5 9.5l-64 140h146l68 -152l-107 -153h-144z" />
    <glyph glyph-name="multiply" unicode="&#xd7;" horiz-adv-x="570" 
d="M300 222l-108 -95l-86 100l109 95l-82 95l114 100l82 -95l108 95l86 -100l-108 -95l81 -95l-114 -100z" />
    <glyph glyph-name="divide" unicode="&#xf7;" horiz-adv-x="570" 
d="M371 160q0 -40 -24 -65t-75 -25q-40 0 -59 17t-19 49q0 38 24.5 65.5t75.5 27.5q40 0 58.5 -20t18.5 -49zM101 252l20 138h393l-20 -138h-393zM419 503q0 -40 -24 -65t-75 -25q-40 0 -59 17t-19 49q0 38 24.5 65.5t75.5 27.5q40 0 58.5 -20t18.5 -49z" />
    <glyph glyph-name="florin" unicode="&#x192;" horiz-adv-x="614" 
d="M357 273l-54 -179q-21 -68 -47 -110.5t-58 -65.5t-70 -31t-82 -8q-56 0 -102.5 16.5t-72.5 39.5l63 111q23 -18 52.5 -30t53.5 -12q15 0 27.5 2t23 11t19.5 27t19 49l53 170q3 10 -5 10h-88l34 111h97l28 91q17 54 38.5 89.5t50.5 57t66.5 30t86.5 8.5q50 0 97.5 -11.5
t88.5 -37.5l-46 -157l-112 11l8 59q-1 5 -2 8t-8 5q-15 5 -32 5q-24 0 -38.5 -14.5t-25.5 -48.5l-26 -85q-3 -10 7 -10h113l-33 -111h-124z" />
    <glyph glyph-name="circumflex" unicode="&#x2c6;" 
d="M441 556l-96 88l-122 -88l-64 60l138 133h116l102 -133z" />
    <glyph glyph-name="caron" unicode="&#x2c7;" 
d="M389 576h-116l-101 133l73 60l97 -88l121 88l65 -60z" />
    <glyph glyph-name="uni02C9" unicode="&#x2c9;" 
d="M172 584l17 118h323l-17 -118h-323z" />
    <glyph glyph-name="breve" unicode="&#x2d8;" 
d="M524 702q-25 -66 -69.5 -102.5t-121.5 -36.5t-114.5 36t-44.5 103l90 31q8 -35 28 -50t50 -15t53 15.5t43 50.5z" />
    <glyph glyph-name="dotaccent" unicode="&#x2d9;" 
d="M456 709q0 -57 -33 -90t-91 -33q-45 0 -68.5 23.5t-23.5 65.5q0 57 32.5 89t89.5 32q45 0 69.5 -22.5t24.5 -64.5z" />
    <glyph glyph-name="ring" unicode="&#x2da;" 
d="M459 686q0 -28 -10.5 -51t-28.5 -38.5t-42 -24t-51 -8.5q-46 0 -74.5 25t-28.5 66q0 30 11.5 52.5t30 38.5t42 24t48.5 8q45 0 74 -25t29 -67zM336 631q19 0 34 10.5t15 36.5q0 20 -11 27t-25 7q-20 0 -34 -10.5t-14 -36.5q0 -20 10 -27t25 -7z" />
    <glyph glyph-name="ogonek" unicode="&#x2db;" 
d="M361 -213q-38 -17 -74 -23.5t-63 -6.5q-56 0 -80 22t-24 57q0 32 14.5 59.5t37.5 51t50.5 42.5t53.5 34l77 -20q-11 -9 -26.5 -22.5t-30 -29.5t-24.5 -33t-10 -33q0 -11 5 -17t19 -6q9 0 24 2.5t32 7.5z" />
    <glyph glyph-name="tilde" unicode="&#x2dc;" 
d="M503 633q-20 -30 -37 -48t-43 -18q-18 0 -41.5 6t-54.5 15q-18 5 -37 11.5t-28 6.5q-6 0 -17 -9l-30 -28l-63 41l38 56q16 26 35 40t42 14q25 0 74 -15l45 -13.5t35 -7.5q5 0 12 7l27 29l72 -41z" />
    <glyph glyph-name="hungarumlaut" unicode="&#x2dd;" 
d="M194 555l-66 62l152 171l93 -86zM401 555l-66 62l153 171l92 -86z" />
    <glyph glyph-name="uni0394" unicode="&#x394;" horiz-adv-x="742" 
d="M0 0l365 724h214l163 -724h-742zM431 529h-10l-178 -382h249z" />
    <glyph glyph-name="uni03A9" unicode="&#x3a9;" horiz-adv-x="819" 
d="M415 0l30 214q26 10 54.5 28t52 46.5t38.5 69t15 94.5q0 76 -36 105.5t-94 29.5q-36 0 -68 -13.5t-55.5 -40t-37 -66t-13.5 -92.5t21 -95.5t62 -64.5l-30 -215h-341l26 182h127l6 -43q0 -8 3 -9.5t11 -1.5h64l4 31q-66 25 -107 82.5t-41 137.5q0 77 28 142.5t79.5 113.5
t124 75t161.5 27q155 0 228.5 -66.5t73.5 -190.5q0 -67 -20.5 -120t-54 -93t-77.5 -67t-91 -41l-4 -31h62q8 0 11.5 1.5t6.5 9.5l18 43h127l-26 -182h-338z" />
    <glyph glyph-name="uni03BC" unicode="&#x3bc;" horiz-adv-x="629" 
d="M392 0l9 56l-4 2q-23 -17 -46 -31.5t-49 -23.5q-23 -8 -52 -13l-11 -166h-194l99 701h187l-47 -336q-3 -21 2 -39t28 -18q32 0 71 22l52 371h187l-58 -410q-2 -8 0 -12t11 -6l47 -7l-12 -90h-220z" />
    <glyph glyph-name="pi" unicode="&#x3c0;" horiz-adv-x="689" 
d="M374 0l58 414h-102l-58 -414h-246l12 88l44 7q11 2 14 5t5 15l41 291q2 11 0 14.5t-13 5.5l-42 7l13 92h594l-13 -92l-44 -7q-11 -2 -14 -5.5t-5 -14.5l-41 -291q-2 -12 0 -15t13 -5l42 -7l-12 -88h-246z" />
    <glyph glyph-name="afii10023" unicode="&#x401;" horiz-adv-x="622" 
d="M375 870q0 -41 -26 -65.5t-66 -24.5q-33 0 -52 18.5t-19 49.5q0 41 26.5 65t66.5 24q32 0 51 -18t19 -49zM587 870q0 -41 -26 -65.5t-66 -24.5q-33 0 -52 18.5t-19 49.5q0 41 26.5 65t66.5 24q32 0 51 -18t19 -49zM8 0l12 88l63 7q11 2 14 5.5t5 14.5l69 493
q2 11 -0.5 15t-12.5 5l-62 7l12 89h539l-31 -224l-132 5l-3 76q-1 13 -16 13h-110l-22 -164h211l-19 -135h-211l-22 -166h131q8 0 11.5 1.5t6.5 9.5l27 88h132l-31 -228h-561z" />
    <glyph glyph-name="afii10051" unicode="&#x402;" horiz-adv-x="848" 
d="M823 227q0 -47 -15 -90.5t-44.5 -76.5t-72 -52.5t-96.5 -19.5q-30 0 -67 6.5t-64 17.5l43 124q12 -5 27.5 -7t24.5 -2q32 0 54 20.5t22 62.5q0 47 -25 64t-68 17q-29 0 -72 -8l-40 -283h-269l13 90l65 7q11 1 13.5 5t4.5 15l69 476h-66q-8 0 -11.5 -1.5t-6.5 -9.5
l-27 -82l-135 -5l32 229h706l-32 -229l-133 5l-5 82q0 8 -3 9.5t-11 1.5h-120l-25 -174q22 5 51 9.5t68 4.5q102 0 158.5 -52t56.5 -154z" />
    <glyph glyph-name="afii10052" unicode="&#x403;" horiz-adv-x="612" 
d="M299 767l-36 86l217 111l49 -120zM6 0l13 90l65 7q11 1 14 5t5 15l68 488q2 11 -0.5 14.5t-13.5 5.5l-62 7l12 92h567l-32 -234l-134 5l-4 87q0 8 -3 9.5t-11 1.5h-132l-66 -476q-2 -11 0 -14.5t13 -4.5l139 -8l-13 -90h-425z" />
    <glyph glyph-name="afii10053" unicode="&#x404;" horiz-adv-x="675" 
d="M619 44q-24 -13 -55 -23.5t-65 -18t-69.5 -11t-69.5 -3.5q-79 0 -136.5 22.5t-95 63.5t-55 98.5t-17.5 128.5q0 96 27 176t80 138t132.5 90t184.5 32q29 0 61 -4t62 -11.5t56.5 -18t45.5 -24.5l-29 -218l-132 11l-2 93q0 13 -3.5 17.5t-10.5 6.5q-20 7 -64 7
q-73 0 -125 -41.5t-73 -126.5h216l-20 -136h-209q5 -83 41 -124.5t99 -41.5q27 0 47.5 1.5t32.5 6.5t16 20l29 97h130z" />
    <glyph glyph-name="afii10054" unicode="&#x405;" horiz-adv-x="586" 
d="M444 494v81q0 14 -5 17.5t-14 5.5q-11 2 -25.5 2h-22.5q-47 0 -71.5 -20t-24.5 -52q0 -17 9 -29t24 -21t35.5 -16t42.5 -15q31 -10 63.5 -24t58.5 -36.5t43 -57.5t17 -88q0 -65 -25 -112.5t-68 -79t-100.5 -46.5t-122.5 -15q-35 0 -70.5 4t-67 10t-57 14t-40.5 15l30 213
h136l7 -96q1 -8 4.5 -13.5t16.5 -7.5q10 -2 23.5 -3t32.5 -1q54 0 83.5 21.5t29.5 58.5q0 18 -8.5 30.5t-22.5 22t-33.5 17t-40.5 14.5q-31 11 -64.5 24t-61 35t-45 56t-17.5 86q0 63 24 110t65 77.5t96 46t117 15.5q69 0 123.5 -14t90.5 -31l-28 -210z" />
    <glyph glyph-name="afii10055" unicode="&#x406;" horiz-adv-x="393" 
d="M1 0l10 88l73 7q11 1 13.5 5t4.5 15l70 492q2 11 -0.5 15t-13.5 5l-70 7l13 90h366l-13 -90l-76 -8q-11 -2 -13.5 -5t-4.5 -14l-69 -491q-2 -12 -0.5 -15t12.5 -5l75 -8l-11 -88h-366z" />
    <glyph glyph-name="afii10056" unicode="&#x407;" horiz-adv-x="393" 
d="M272 870q0 -41 -26 -65.5t-66 -24.5q-33 0 -52 18.5t-19 49.5q0 41 26.5 65t66.5 24q32 0 51 -18t19 -49zM484 870q0 -41 -26 -65.5t-66 -24.5q-33 0 -52 18.5t-19 49.5q0 41 26.5 65t66.5 24q32 0 51 -18t19 -49zM1 0l10 88l73 7q11 1 13.5 5t4.5 15l70 492
q2 11 -0.5 15t-13.5 5l-70 7l13 90h366l-13 -90l-76 -8q-11 -2 -13.5 -5t-4.5 -14l-69 -491q-2 -12 -0.5 -15t12.5 -5l75 -8l-11 -88h-366z" />
    <glyph glyph-name="afii10057" unicode="&#x408;" horiz-adv-x="510" 
d="M303 608q2 10 -1 13.5t-13 4.5l-90 8l12 90h377l-13 -90l-67 -8q-11 -2 -13 -5t-4 -14l-61 -435q-13 -94 -65.5 -139t-158.5 -45q-30 0 -60 3.5t-56 9.5t-45.5 13.5t-30.5 14.5l28 202l133 -10v-71q0 -12 7 -14q9 -3 24 -3q17 0 25 7.5t11 29.5z" />
    <glyph glyph-name="afii10058" unicode="&#x409;" horiz-adv-x="1065" 
d="M879 632l-94 -8q-11 -1 -14.5 -4.5t-5.5 -14.5l-25 -176h89q121 0 173.5 -49t52.5 -132q0 -65 -22.5 -112t-63 -77t-95.5 -44.5t-121 -14.5h-341l13 90l65 7q11 1 14 5t5 15l66 479h-139q-5 -43 -12 -90.5t-16 -95.5t-19.5 -93t-22.5 -83q-13 -42 -34.5 -87t-59 -81.5
t-94.5 -61t-142 -26.5l-12 168q44 5 74 16t51 30.5t35.5 48.5t26.5 71q15 52 29 125t27 164q2 14 -1.5 18t-14.5 6l-62 7l12 92h691zM741 129q24 0 44.5 5t36.5 17t25 32t9 49q0 46 -25.5 60.5t-63.5 14.5h-43l-25 -178h42z" />
    <glyph glyph-name="afii10059" unicode="&#x40a;" horiz-adv-x="1068" 
d="M503 97q11 1 13.5 5t4.5 15l24 178h-229l-25 -179q-2 -12 -0.5 -15t12.5 -5l65 -8l-12 -88h-347l12 88l63 7q11 2 14 5.5t5 14.5l68 492q2 11 -0.5 15t-13.5 5l-60 7l12 90h347l-12 -90l-67 -8q-11 -2 -13.5 -5t-4.5 -14l-24 -176h227l25 176q2 11 -0.5 15t-13.5 5l-61 7
l13 90h370l-13 -92l-94 -8q-11 -1 -14.5 -4.5t-5.5 -14.5l-25 -176h89q121 0 173.5 -49t52.5 -132q0 -65 -22.5 -112t-63 -77t-95.5 -44.5t-121 -14.5h-331l13 90zM744 129q24 0 44.5 5t36.5 17t25 32t9 49q0 46 -25.5 60.5t-63.5 14.5h-43l-25 -178h42z" />
    <glyph glyph-name="afii10060" unicode="&#x40b;" horiz-adv-x="863" 
d="M603 213q6 45 -10 61t-51 16q-16 0 -33 -2.5t-39 -6.5l-22 -162q-2 -10 0 -15t13 -7l62 -8l-13 -89h-348l13 90l65 7q11 1 14 5t5 15l66 476h-65q-8 0 -11.5 -1.5t-6.5 -9.5l-27 -82l-135 -5l32 229h706l-32 -229l-133 5l-5 82q0 8 -3 9.5t-11 1.5h-120l-24 -173
q21 5 54 9t74 4q60 0 97 -15t56.5 -41t24 -62.5t-1.5 -80.5l-15 -117q-2 -10 0 -14t13 -6l66 -8l-13 -89h-271z" />
    <glyph glyph-name="afii10061" unicode="&#x40c;" horiz-adv-x="784" 
d="M427 767l-36 86l217 111l49 -120zM336 434h53q32 0 49.5 12.5t34.5 50.5l50 104q15 32 31 57t37 42.5t50 27t72 9.5q18 0 44.5 -3.5t46.5 -8.5l-25 -127q-7 1 -13.5 1.5t-11.5 0.5q-26 0 -42 -12.5t-30 -44.5l-27 -62q-19 -44 -44 -67t-73 -37v-3q29 -14 46 -38t33 -66
l52 -138q5 -12 10 -18.5t17 -8.5l69 -10l-13 -95h-250q-17 65 -36 126t-38 112q-11 31 -29.5 45t-53.5 14h-28l-25 -176q-2 -12 1.5 -16t14.5 -6l64 -8l-13 -91h-352l13 91l64 7q11 1 14 5t5 15l68 488q2 11 0 14.5t-13 5.5l-62 7l12 91h351l-12 -91l-68 -8q-11 -2 -14 -5
t-5 -14z" />
    <glyph glyph-name="afii10062" unicode="&#x40e;" horiz-adv-x="729" 
d="M456 146q-27 -47 -54 -77.5t-56 -48.5t-60 -25t-65 -7q-44 0 -90 11.5t-74 25.5l49 133q15 -6 45 -14.5t55 -8.5q26 0 43 9.5t32 36.5l-119 420q-3 11 -9 15.5t-14 6.5l-44 11l23 90h329l-13 -89l-73 -10l53 -267h9l141 267l-68 9l23 90h280l-13 -90l-43 -11
q-14 -4 -20.5 -9.5t-11.5 -14.5zM484 882q29 0 44.5 18t25.5 55l116 -29q-23 -77 -68.5 -110t-120.5 -33q-83 0 -127 37t-50 103l121 34q-2 -35 12.5 -55t46.5 -20z" />
    <glyph glyph-name="afii10145" unicode="&#x40f;" horiz-adv-x="793" 
d="M3 0l13 89l68 8q11 2 14 5t5 14l67 490q2 12 0 15t-13 5l-66 8l13 90h341l-13 -90l-54 -7q-11 -2 -14 -5.5t-5 -14.5l-66 -479h212l66 478q2 12 0 15t-13 5l-56 8l13 90h341l-13 -90l-64 -7q-11 -2 -14 -5.5t-5 -14.5l-67 -488q-2 -11 0 -15.5t13 -5.5l62 -7l-13 -91
h-278q-10 0 -13 -3.5t-5 -9.5l-40 -153l-122 8l1 145q0 13 -11 13h-284z" />
    <glyph glyph-name="afii10017" unicode="&#x410;" horiz-adv-x="771" 
d="M410 0l13 88l79 9l-13 76h-225l-33 -76l76 -9l-13 -88h-304l13 88l46 11q9 2 15 6t11 13l297 606h210l126 -608q2 -9 7.5 -12t14.5 -5l44 -11l-13 -88h-351zM434 529h-10l-107 -227h156z" />
    <glyph glyph-name="afii10018" unicode="&#x411;" horiz-adv-x="667" 
d="M19 90l65 7q11 1 14 5t5 15l68 488q2 11 -0.5 14.5t-13.5 5.5l-62 7l12 92h557l-32 -230l-133 6l-5 82q0 8 -3 9.5t-11 1.5h-122l-26 -184h102q117 0 171 -47.5t54 -130.5q0 -59 -22.5 -102.5t-62 -72t-94 -42.5t-118.5 -14h-356zM352 129q20 0 39.5 4.5t34.5 15t24.5 28
t9.5 42.5q0 42 -25.5 55t-65.5 13h-54l-22 -158h59z" />
    <glyph glyph-name="afii10019" unicode="&#x412;" horiz-adv-x="649" 
d="M8 0l13 88l63 7q11 2 14 5.5t5 14.5l68 492q2 11 -0.5 15t-13.5 5l-61 7l12 90h352q55 0 92.5 -13t60 -34.5t32 -50t9.5 -59.5q0 -43 -13 -74.5t-33.5 -54t-46.5 -37t-52 -22.5v-3q72 -8 106 -46t34 -100q0 -63 -23 -107t-63.5 -71.5t-95.5 -39.5t-118 -12h-341zM332 129
q60 0 92.5 23.5t32.5 86.5q0 21 -7 35t-19 21.5t-28 10.5t-34 3h-53l-25 -180h41zM344 431q27 0 51 3.5t41 14t27 29.5t10 51q0 23 -8 36t-21 19t-29.5 7.5t-33.5 1.5h-27l-22 -162h12z" />
    <glyph glyph-name="afii10020" unicode="&#x413;" horiz-adv-x="612" 
d="M6 0l13 90l65 7q11 1 14 5t5 15l68 488q2 11 -0.5 14.5t-13.5 5.5l-62 7l12 92h567l-32 -234l-134 5l-4 87q0 8 -3 9.5t-11 1.5h-132l-66 -476q-2 -11 0 -14.5t13 -4.5l139 -8l-13 -90h-425z" />
    <glyph glyph-name="afii10021" unicode="&#x414;" horiz-adv-x="821" 
d="M195 0q-13 0 -16 -13l-41 -131l-138 -9l40 284h54q35 33 60 68.5t43 78.5t31 96t22 120l15 111q2 11 0 15t-13 5l-62 7l13 92h678l-13 -92l-68 -8q-12 -2 -14.5 -5t-4.5 -14l-66 -474h78l-40 -284l-136 9l-1 132q0 6 -2 9t-10 3h-409zM425 477q-7 -50 -16 -95.5t-24 -88
t-36.5 -83t-54.5 -79.5h229l65 465h-147z" />
    <glyph glyph-name="afii10022" unicode="&#x415;" horiz-adv-x="622" 
d="M8 0l12 88l63 7q11 2 14 5.5t5 14.5l69 493q2 11 -0.5 15t-12.5 5l-62 7l12 89h539l-31 -224l-132 5l-3 76q-1 13 -16 13h-110l-22 -164h211l-19 -135h-211l-22 -166h131q8 0 11.5 1.5t6.5 9.5l27 88h132l-31 -228h-561z" />
    <glyph glyph-name="afii10024" unicode="&#x416;" horiz-adv-x="1142" 
d="M716 434h23q32 0 51.5 13t37.5 50l52 108q14 29 28.5 53t35 41.5t50.5 27.5t74 10q20 0 47 -3.5t47 -8.5l-25 -127q-16 3 -28 3q-26 0 -39 -13.5t-28 -44.5l-35 -74q-37 -76 -111 -92v-3q50 -22 80 -104l49 -138q5 -12 10.5 -18.5t17.5 -8.5l65 -10l-13 -95h-250
q-17 69 -37 131t-39 113q-11 31 -27 42t-41 11h-14l-25 -179q-2 -12 0 -15t13 -5l52 -8l-12 -90h-324l12 90l54 7q11 1 14 5t5 15l25 180h-19q-25 0 -43 -11t-38 -42q-34 -51 -68.5 -112t-71.5 -132h-261l13 95l67 10q14 2 20.5 8.5t14.5 18.5l87 142q26 42 49.5 64.5
t62.5 35.5v3q-28 11 -47 31.5t-30 57.5l-23 77q-10 32 -22.5 44.5t-39.5 12.5h-9.5t-9.5 -1l11 128q21 5 48.5 7.5t47.5 2.5q38 0 62.5 -11t41 -29.5t26.5 -43.5t19 -53l29 -97q11 -37 24 -53t49 -16h29l24 172q2 11 0 14.5t-13 5.5l-62 7l13 91h343l-13 -91l-63 -8
q-11 -2 -14 -5t-5 -14z" />
    <glyph glyph-name="afii10025" unicode="&#x417;" horiz-adv-x="637" 
d="M418 737q121 0 175 -44t54 -122q0 -41 -14 -72.5t-35.5 -54.5t-49 -38.5t-54.5 -24.5l-1 -4q23 -6 45 -16.5t39 -28t27.5 -43.5t10.5 -64q0 -58 -23.5 -102.5t-66 -74.5t-103 -45t-134.5 -15q-30 0 -65.5 3.5t-68.5 10.5t-60.5 16.5t-43.5 20.5l26 189h134l9 -82
q1 -8 4.5 -11.5t11.5 -5.5q14 -5 33.5 -6t32.5 -1q51 0 86.5 25.5t35.5 76.5q0 22 -7.5 35.5t-19.5 21t-28 10t-33 2.5h-111l19 135h58q80 0 117 32t37 75q0 39 -21.5 56t-56.5 17q-16 0 -32.5 -1.5t-31.5 -5.5q-11 -3 -16 -18l-27 -80l-137 -11l25 184q44 23 112 42t148 19
z" />
    <glyph glyph-name="afii10026" unicode="&#x418;" horiz-adv-x="829" 
d="M443 0l13 89l64 7q11 2 13.5 5.5t4.5 14.5l50 349h-6l-317 -465h-257l13 89l64 7q11 2 13.5 5.5t4.5 14.5l68 489q2 11 0 15t-13 5l-62 7l13 92h351l-13 -92l-68 -8q-12 -2 -14.5 -5t-4.5 -14l-47 -319h6l303 438h273l-13 -92l-68 -8q-12 -2 -14.5 -5t-4.5 -14l-67 -487
q-2 -12 0.5 -16t13.5 -6l65 -7l-13 -89h-351z" />
    <glyph glyph-name="afii10027" unicode="&#x419;" horiz-adv-x="829" 
d="M443 0l13 89l64 7q11 2 13.5 5.5t4.5 14.5l50 349h-6l-317 -465h-257l13 89l64 7q11 2 13.5 5.5t4.5 14.5l68 489q2 11 0 15t-13 5l-62 7l13 92h351l-13 -92l-68 -8q-12 -2 -14.5 -5t-4.5 -14l-47 -319h6l303 438h273l-13 -92l-68 -8q-12 -2 -14.5 -5t-4.5 -14l-67 -487
q-2 -12 0.5 -16t13.5 -6l65 -7l-13 -89h-351zM540 882q29 0 44.5 18t25.5 55l116 -29q-23 -77 -68.5 -110t-120.5 -33q-83 0 -127 37t-50 103l121 34q-2 -35 12.5 -55t46.5 -20z" />
    <glyph glyph-name="afii10028" unicode="&#x41a;" horiz-adv-x="784" 
d="M336 434h53q32 0 49.5 12.5t34.5 50.5l50 104q15 32 31 57t37 42.5t50 27t72 9.5q18 0 44.5 -3.5t46.5 -8.5l-25 -127q-7 1 -13.5 1.5t-11.5 0.5q-26 0 -42 -12.5t-30 -44.5l-27 -62q-19 -44 -44 -67t-73 -37v-3q29 -14 46 -38t33 -66l52 -138q5 -12 10 -18.5t17 -8.5
l69 -10l-13 -95h-250q-17 65 -36 126t-38 112q-11 31 -29.5 45t-53.5 14h-28l-25 -176q-2 -12 1.5 -16t14.5 -6l64 -8l-13 -91h-352l13 91l64 7q11 1 14 5t5 15l68 488q2 11 0 14.5t-13 5.5l-62 7l12 91h351l-12 -91l-68 -8q-11 -2 -14 -5t-5 -14z" />
    <glyph glyph-name="afii10029" unicode="&#x41b;" horiz-adv-x="831" 
d="M454 0l13 89l54 7q11 2 13.5 5.5t4.5 14.5l68 480h-170q-5 -43 -12 -90.5t-16 -95.5t-19.5 -93t-22.5 -83q-13 -42 -35 -86t-59.5 -80t-94.5 -59.5t-142 -25.5l-12 163q44 5 74.5 16t51.5 30t35.5 47.5t26.5 70.5q15 52 29.5 126t27.5 165q2 14 -1.5 18t-14.5 6l-64 7
l12 92h695l-12 -92l-68 -8q-12 -2 -14.5 -5t-4.5 -14l-68 -488q-2 -12 0 -15t13 -5l66 -8l-13 -89h-341z" />
    <glyph glyph-name="afii10030" unicode="&#x41c;" horiz-adv-x="955" 
d="M561 0l12 88l81 7q11 1 14 5t5 15l42 303h-6l-149 -290h-192l-75 286h-6l-41 -298q-2 -12 -0.5 -15.5t12.5 -4.5l83 -8l-12 -88h-321l12 88l63 7q11 1 14 4.5t5 15.5l69 493q2 11 -0.5 14.5t-12.5 5.5l-60 7l10 89h283l109 -433h7l216 433h295l-11 -88l-66 -8
q-12 -2 -14.5 -5t-4.5 -14l-70 -494q-2 -11 0.5 -14.5t12.5 -4.5l65 -8l-12 -88h-357z" />
    <glyph glyph-name="afii10031" unicode="&#x41d;" horiz-adv-x="808" 
d="M425 0l12 88l62 7q11 2 14 5.5t5 14.5l27 188h-228l-26 -187q-2 -12 -0.5 -15t12.5 -5l65 -8l-12 -88h-347l12 88l63 7q11 2 14 5.5t5 14.5l68 492q2 11 -0.5 15t-13.5 5l-60 7l12 90h347l-12 -90l-67 -8q-11 -2 -13.5 -5t-4.5 -14l-23 -168h227l24 168q2 11 -0.5 15
t-13.5 5l-61 7l13 90h347l-13 -90l-66 -8q-11 -2 -13.5 -5t-4.5 -14l-69 -491q-2 -12 0 -15t13 -5l65 -8l-12 -88h-347z" />
    <glyph glyph-name="afii10032" unicode="&#x41e;" horiz-adv-x="760" 
d="M355 -12q-81 0 -137.5 21t-92 58.5t-51.5 90t-16 116.5q0 98 26 182.5t77.5 146.5t129.5 98t183 36q80 0 136.5 -22.5t92.5 -61.5t52.5 -92.5t16.5 -115.5q0 -107 -28 -191.5t-81.5 -143.5t-131 -90.5t-176.5 -31.5zM384 138q36 0 67.5 12.5t56 43t41.5 81t23 125.5
q1 9 1.5 18t0.5 17q0 81 -32 116.5t-90 35.5q-39 0 -71.5 -14.5t-57.5 -46t-42 -81.5t-23 -120q-1 -8 -1 -16.5v-16.5q0 -85 33 -119.5t94 -34.5z" />
    <glyph glyph-name="afii10033" unicode="&#x41f;" horiz-adv-x="795" 
d="M419 0l12 89l54 7q11 2 13.5 5.5t4.5 14.5l69 480h-212l-68 -479q-2 -12 0 -15t13 -5l56 -8l-12 -89h-341l12 89l64 7q11 2 13.5 5.5t4.5 14.5l70 489q2 11 0 15t-13 5l-62 7l12 92h752l-12 -92l-68 -8q-12 -2 -14.5 -5t-4.5 -14l-69 -488q-2 -12 0 -15t13 -5l66 -8
l-12 -89h-341z" />
    <glyph glyph-name="afii10034" unicode="&#x420;" horiz-adv-x="641" 
d="M8 0l13 89l63 7q11 2 14 5.5t5 14.5l68 491q2 11 -0.5 15t-13.5 5l-60 7l11 90h343q59 0 100.5 -14t67.5 -39.5t37.5 -60.5t11.5 -77q0 -68 -21.5 -118.5t-61.5 -84.5t-96.5 -50.5t-126.5 -16.5h-53l-19 -146q-2 -12 0 -15t12 -5l140 -8l-13 -89h-421zM348 391q19 0 41 4
t40.5 16.5t30.5 37t12 65.5q0 27 -8.5 42.5t-22 24t-29 10.5t-30.5 2h-28l-27 -202h21z" />
    <glyph glyph-name="afii10035" unicode="&#x421;" horiz-adv-x="675" 
d="M619 44q-24 -13 -55 -23.5t-65 -18t-69.5 -11t-69.5 -3.5q-79 0 -136.5 22.5t-95 63.5t-55 98.5t-17.5 128.5q0 96 27 176t80 138t132.5 90t184.5 32q29 0 61 -4t62 -11.5t56.5 -18t45.5 -24.5l-29 -218l-132 11l-2 93q0 13 -3.5 17.5t-10.5 6.5q-20 7 -64 7
q-94 0 -152.5 -70t-58.5 -213q0 -94 37 -140.5t103 -46.5q27 0 47.5 1.5t32.5 6.5t16 20l29 97h130z" />
    <glyph glyph-name="afii10036" unicode="&#x422;" horiz-adv-x="706" 
d="M130 0l12 89l102 7q10 1 13 5t5 15l66 477h-71q-8 0 -11 -1.5t-5 -9.5l-27 -82l-136 -5l31 229h659l-31 -229l-130 5l-5 82q-1 8 -3.5 9.5t-10.5 1.5h-72l-65 -477q-2 -11 -0.5 -14.5t12.5 -4.5l107 -8l-12 -89h-428z" />
    <glyph glyph-name="afii10037" unicode="&#x423;" horiz-adv-x="729" 
d="M456 146q-27 -47 -54 -77.5t-56 -48.5t-60 -25t-65 -7q-44 0 -90 11.5t-74 25.5l49 133q15 -6 45 -14.5t55 -8.5q26 0 43 9.5t32 36.5l-119 420q-3 11 -9 15.5t-14 6.5l-44 11l23 90h329l-13 -89l-73 -10l53 -267h9l141 267l-68 9l23 90h280l-13 -90l-43 -11
q-14 -4 -20.5 -9.5t-11.5 -14.5z" />
    <glyph glyph-name="afii10038" unicode="&#x424;" horiz-adv-x="911" 
d="M612 599q158 -5 230.5 -53.5t72.5 -140.5q0 -82 -32 -134t-84.5 -82t-118 -41.5t-133.5 -14.5l-2 -18q-2 -11 0 -15t13 -5l70 -6l-13 -89h-346l13 89l67 5q11 1 14 5t5 15l3 18q-57 2 -111.5 12t-96.5 33t-67.5 62.5t-25.5 100.5q0 248 366 260l3 18q1 9 -1 13.5t-14 6.5
l-65 7l13 92h346l-13 -92l-71 -7q-17 -1 -19 -19zM716 382q0 45 -32.5 63.5t-96.5 20.5l-27 -198q87 5 121.5 33.5t34.5 80.5zM268 351q0 -44 29 -62.5t97 -21.5l28 198q-84 -2 -119 -31t-35 -83z" />
    <glyph glyph-name="afii10039" unicode="&#x425;" horiz-adv-x="801" 
d="M401 0l13 88l76 9l-95 148l-134 -148l77 -9l-13 -88h-315l13 88l63 11q9 2 15 6.5t13 12.5l214 230l-167 260q-7 13 -21 17l-52 11l14 88h364l-13 -88l-79 -9l97 -151l136 151l-75 9l14 88h300l-12 -88l-53 -11q-9 -2 -15 -6.5t-13 -12.5l-216 -234l168 -256
q11 -16 27 -19l47 -9l-13 -88h-365z" />
    <glyph glyph-name="afii10040" unicode="&#x426;" horiz-adv-x="788" 
d="M591 -147l-3 135q0 6 -2 9t-10 3h-572l13 92l68 8q11 2 14 5t5 14l67 487q2 12 0 15t-13 5l-66 8l13 90h341l-13 -90l-54 -7q-11 -2 -14 -5.5t-5 -14.5l-66 -479h202l66 478q2 12 0 15t-13 5l-51 8l13 90h336l-13 -90l-64 -7q-11 -2 -14 -5.5t-5 -14.5l-66 -479h79
l-40 -284z" />
    <glyph glyph-name="afii10041" unicode="&#x427;" horiz-adv-x="729" 
d="M276 90l144 8q11 2 14 5t5 15l19 139q-34 -5 -63 -7.5t-55 -2.5q-63 0 -102 12.5t-61.5 33.5t-30.5 48t-8 55q0 23 3 44l23 165q3 18 -13 21l-51 8l12 90h319l-12 -92l-44 -6q-11 -2 -14 -6t-5 -15l-21 -145q-1 -7 -1.5 -13.5t-0.5 -11.5q0 -28 16 -42.5t63 -14.5
q28 0 64 7l31 220q3 18 -13 22l-31 7l12 90h315l-12 -92l-64 -7q-11 -1 -14 -5t-5 -15l-68 -488q-2 -11 0 -14.5t13 -5.5l62 -7l-13 -90h-426z" />
    <glyph glyph-name="afii10042" unicode="&#x428;" horiz-adv-x="1060" 
d="M17 92l68 8q11 2 14 5t5 14l67 487q2 12 0 15t-13 5l-66 8l13 90h322l-13 -90l-35 -7q-11 -2 -14 -6t-5 -15l-66 -478h145l66 477q2 12 -0.5 16t-13.5 6l-34 7l13 90h290l-13 -90l-35 -6q-11 -2 -14 -7t-5 -16l-66 -477h144l66 476q2 12 -1 16.5t-14 6.5l-32 7l13 90h319
l-13 -90l-64 -7q-11 -2 -14 -5.5t-5 -14.5l-68 -495q-2 -7 1.5 -9t12.5 -3l66 -8l-13 -92h-1021z" />
    <glyph glyph-name="afii10043" unicode="&#x429;" horiz-adv-x="1063" 
d="M17 92l68 8q11 2 14 5t5 14l67 487q2 12 0 15t-13 5l-66 8l13 90h322l-13 -90l-35 -7q-11 -2 -14 -6t-5 -15l-66 -478h145l66 477q2 12 -0.5 16t-13.5 6l-34 7l13 90h290l-13 -90l-35 -6q-11 -2 -14 -7t-5 -16l-66 -477h144l66 476q2 12 -1 16.5t-14 6.5l-32 7l13 90h319
l-13 -90l-64 -7q-11 -2 -14 -5.5t-5 -14.5l-66 -476h74l-40 -287l-133 9l-4 132q0 8 -2 11.5t-10 3.5h-841z" />
    <glyph glyph-name="afii10044" unicode="&#x42a;" horiz-adv-x="826" 
d="M186 90l65 7q11 1 14 4.5t5 15.5l66 479h-65q-8 0 -11.5 -1.5t-6.5 -9.5l-27 -90h-135l32 229h530l-13 -92l-94 -8q-11 -1 -14.5 -4.5t-5.5 -14.5l-22 -166h85q62 0 105 -13t70 -37t39.5 -58.5t12.5 -77.5q0 -67 -22.5 -115t-63 -78.5t-95.5 -45t-121 -14.5h-341z
M502 129q24 0 44.5 5t36.5 18t25 34t9 53q0 45 -24.5 61.5t-62.5 16.5h-43l-27 -188h42z" />
    <glyph glyph-name="afii10045" unicode="&#x42b;" horiz-adv-x="1015" 
d="M335 439h89q60 0 103 -13.5t70 -38t39.5 -60t12.5 -79.5q0 -65 -22.5 -112t-63 -77t-95.5 -44.5t-121 -14.5h-341l13 90l65 7q11 1 14 5t5 15l68 492q1 15 -14 16l-72 7l13 92h388l-13 -92l-94 -8q-11 -1 -14.5 -4.5t-5.5 -14.5zM335 129q24 0 44.5 5t36.5 18t25 34t9 53
q0 42 -25.5 60t-69.5 18h-36l-26 -188h42zM623 0l10 88l73 7q11 1 13.5 5t4.5 15l70 492q2 11 -0.5 15t-13.5 5l-70 7l13 90h366l-13 -90l-76 -8q-11 -2 -13.5 -5t-4.5 -14l-69 -491q-2 -12 -0.5 -15t12.5 -5l75 -8l-11 -88h-366z" />
    <glyph glyph-name="afii10046" unicode="&#x42c;" horiz-adv-x="659" 
d="M335 439h89q60 0 103 -13.5t70 -38t39.5 -60t12.5 -79.5q0 -65 -22.5 -112t-63 -77t-95.5 -44.5t-121 -14.5h-341l13 90l65 7q11 1 14 5t5 15l68 492q1 15 -14 16l-72 7l13 92h388l-13 -92l-94 -8q-11 -1 -14.5 -4.5t-5.5 -14.5zM335 129q24 0 44.5 5t36.5 18t25 34t9 53
q0 42 -25.5 60t-69.5 18h-36l-26 -188h42z" />
    <glyph glyph-name="afii10047" unicode="&#x42d;" horiz-adv-x="713" 
d="M148 682q24 12 56 22t66 17.5t68.5 11.5t64.5 4q87 0 147.5 -25t98 -68.5t54.5 -101.5t17 -124q0 -94 -28.5 -173t-83 -136t-133 -89t-179.5 -32q-33 0 -69 4t-69 11.5t-61.5 17.5t-46.5 22l29 210h135l3 -98q0 -8 2.5 -12.5t11.5 -6.5q28 -7 66 -7q42 0 75 13t58.5 35.5
t44 53t29.5 66.5h-225l19 136h224q-2 86 -41.5 125.5t-108.5 39.5q-16 0 -35.5 -1.5t-33.5 -4.5q-11 -2 -15 -5.5t-9 -16.5l-28 -96h-132z" />
    <glyph glyph-name="afii10048" unicode="&#x42e;" horiz-adv-x="1086" 
d="M1 0l10 88l73 7q11 1 13.5 5t4.5 15l70 492q2 11 -0.5 15t-13.5 5l-70 7l13 90h366l-13 -90l-76 -8q-11 -2 -13.5 -5t-4.5 -14l-26 -179h117q16 68 47.5 124.5t78 97.5t108.5 64t140 23q75 0 127 -22.5t84.5 -62t47 -93.5t14.5 -117q0 -80 -21 -161t-66.5 -146
t-117.5 -106t-174 -41q-76 0 -130 21.5t-88.5 60t-50.5 91t-16 114.5v17h-119l-24 -176q-2 -12 -0.5 -15t12.5 -5l75 -8l-11 -88h-366zM737 138q53 0 85 34t49.5 83.5t23.5 104t6 96.5q0 70 -24 100.5t-72 30.5q-53 0 -87 -31.5t-53 -78.5t-26 -102t-7 -102q0 -75 26.5 -105
t78.5 -30z" />
    <glyph glyph-name="afii10049" unicode="&#x42f;" horiz-adv-x="746" 
d="M12 0l13 91l63 10q16 2 22.5 7.5t13.5 17.5l68 119q17 29 39 51.5t60 34.5v2q-26 8 -49.5 22.5t-41 36.5t-27.5 50.5t-10 63.5q0 62 24.5 103.5t64.5 67t89.5 36.5t99.5 11h375l-13 -91l-64 -7q-11 -2 -14 -5.5t-5 -14.5l-67 -488q-2 -11 0 -15t13 -5l62 -7l-13 -91h-333
l13 91l51 8q11 2 14 5t5 15l22 163h-27q-29 0 -44 -10.5t-30 -36.5q-32 -54 -61 -110.5t-60 -124.5h-253zM504 405l27 188h-61q-51 0 -80.5 -26t-29.5 -75q0 -50 29 -68.5t69 -18.5h46z" />
    <glyph glyph-name="afii10065" unicode="&#x430;" horiz-adv-x="620" 
d="M367 0l11 75l-5 2q-48 -45 -87 -67t-90 -22q-75 0 -114.5 50.5t-39.5 155.5q0 56 13 116t43 110.5t78.5 83t118.5 32.5q42 0 75 -15t59 -43l21 47h155q-7 -34 -13.5 -68t-11.5 -68l-38 -274q-2 -11 0 -14t13 -5l45 -7l-12 -89h-221zM402 370q-14 11 -31.5 19t-34.5 8
q-31 0 -50.5 -21.5t-30.5 -52t-15.5 -62.5t-4.5 -53q0 -31 8 -49t31 -18q19 0 49 17.5t55 40.5z" />
    <glyph glyph-name="afii10066" unicode="&#x431;" horiz-adv-x="582" 
d="M276 -12q-67 0 -111.5 20t-70.5 56t-36.5 85t-10.5 106q0 74 14 148t53 137t108 110t178 68q30 6 49 10t29.5 8t15 7.5t5.5 8.5l125 3q0 -82 -33.5 -123.5t-99.5 -46.5q-86 -7 -139 -16t-85 -27.5t-50 -50t-34 -82.5l5 -2q30 50 80 79.5t118 29.5q98 0 145 -52.5
t47 -148.5q0 -63 -17.5 -121.5t-54.5 -104.5t-94 -73.5t-136 -27.5zM289 114q30 0 48.5 23t28.5 55.5t13.5 67t3.5 58.5q0 38 -13 53.5t-40 15.5q-32 0 -51 -21t-28.5 -51.5t-12.5 -64t-3 -58.5q0 -44 13.5 -61t40.5 -17z" />
    <glyph glyph-name="afii10067" unicode="&#x432;" horiz-adv-x="561" 
d="M299 -12q-40 0 -78 3t-70.5 7.5t-58.5 10t-42 10.5l45 336q13 98 73.5 139.5t178.5 41.5q100 0 154.5 -31t54.5 -98q0 -53 -32 -86.5t-77 -42.5l-1 -4q48 -5 78 -30.5t30 -76.5q0 -48 -21.5 -82t-57.5 -55.5t-82 -31.5t-94 -10zM246 118q4 -2 21 -3.5t33 -1.5
q32 0 49.5 14t17.5 42q0 25 -17 32.5t-40 7.5h-51zM328 319q23 0 39 12.5t16 38.5q0 24 -14 32.5t-31 8.5q-49 0 -56 -45l-8 -47h54z" />
    <glyph glyph-name="afii10068" unicode="&#x433;" horiz-adv-x="502" 
d="M279 429q-18 0 -38 -5q-9 -2 -11.5 -6t-4.5 -9l-20 -65h-136l20 149q17 8 42 15.5t55 13.5t62 10t63 4q42 0 78.5 -8.5t63 -26.5t42 -46t15.5 -67q0 -43 -14 -73t-37 -50t-51.5 -32.5t-57.5 -20.5q-36 -10 -59.5 -17t-37.5 -13t-20 -13.5t-6 -19.5q0 -16 13 -22t32 -6
q32 0 70.5 13.5t79.5 44.5l64 -99q-59 -50 -120 -71t-125 -21q-102 0 -154.5 40.5t-52.5 109.5q0 54 21.5 86t54 51.5t70.5 30t70.5 21t54 24.5t21.5 41q0 37 -47 37z" />
    <glyph glyph-name="afii10069" unicode="&#x434;" horiz-adv-x="601" 
d="M210 767q123 -15 199.5 -57t118.5 -96t56.5 -112.5t14.5 -106.5q0 -94 -18 -169.5t-57 -128t-99.5 -81t-144.5 -28.5q-116 0 -177.5 60t-61.5 159q0 60 16 115t48.5 96t81 65.5t113.5 24.5q71 0 122 -44l6 6q-20 43 -54 71t-74 44.5t-82.5 24t-79.5 10.5zM404 362
q-16 11 -31.5 17.5t-34.5 6.5q-29 0 -48.5 -17.5t-31 -45t-16.5 -60.5t-5 -64q0 -40 14 -62.5t46 -22.5q19 0 36.5 11t32 39t25 76t13.5 122z" />
    <glyph glyph-name="afii10070" unicode="&#x435;" horiz-adv-x="520" 
d="M486 43q-55 -24 -111 -39.5t-113 -15.5q-61 0 -103.5 17t-69 46t-38 69t-11.5 85q0 85 25 147.5t67.5 103t98 60.5t116.5 20q86 0 132 -35.5t46 -104.5q0 -50 -25 -84.5t-66 -56.5t-94 -34.5t-109 -18.5q2 -35 20 -57t63 -22q22 0 59 8t87 28zM234 309q19 3 40.5 7.5
t40 12.5t31 19.5t12.5 27.5t-10 23.5t-27 7.5q-27 0 -52 -23.5t-35 -74.5z" />
    <glyph glyph-name="afii10072" unicode="&#x436;" horiz-adv-x="932" 
d="M598 319h13q10 0 18 2t16.5 8.5t17 19.5t18.5 35l25 52q10 21 23 39.5t31.5 32t43.5 21t58 7.5q20 0 46 -4.5t44 -12.5l-30 -110q-12 3 -22 3q-30 0 -47 -35l-15 -32q-14 -31 -32.5 -47t-49.5 -24v-2q20 -10 34 -26t24 -46l26 -78q3 -8 6.5 -12.5t13.5 -6.5l64 -9
l-13 -94h-219q-12 49 -22.5 90.5t-20.5 69.5q-11 31 -23 40.5t-32 9.5h-11l-27 -210h-190l34 210h-12q-20 0 -35 -9.5t-35 -40.5q-17 -28 -38.5 -68t-46.5 -92h-223l13 94l54 8q10 2 15 6.5t11 12.5l54 88q18 29 37.5 44t43.5 22v2q-16 8 -31.5 22.5t-24.5 37.5l-17 45
q-7 17 -16 24.5t-25 7.5q-7 0 -14.5 -1.5l-17.5 -3.5l13 112q20 8 48 11.5t42 3.5q29 0 48.5 -8t33 -21.5t22.5 -31.5t18 -38l23 -55q14 -34 25.5 -48.5t40.5 -14.5h9l11 79q3 15 -9 19l-39 14l14 94h235z" />
    <glyph glyph-name="afii10073" unicode="&#x437;" horiz-adv-x="515" 
d="M321 536q61 0 100.5 -10.5t63 -28t32.5 -41t9 -49.5q0 -49 -31 -81t-76 -50v-2q15 -5 31 -12t28.5 -19.5t20.5 -31.5t8 -47q0 -44 -21 -77t-56.5 -55t-81.5 -33t-96 -11q-66 0 -126.5 18.5t-100.5 51.5l64 111q9 -6 26.5 -14t39 -15.5t46.5 -12.5t50 -5q26 0 49 9t23 36
q0 23 -15 28t-29 5h-104l16 119h54q54 0 76 18t22 41q0 42 -51 42q-11 0 -21.5 -0.5t-18.5 -2.5q-8 -1 -12 -14l-19 -52l-134 -5l21 148q17 8 41.5 15.5t53 13.5t59 9.5t59.5 3.5z" />
    <glyph glyph-name="afii10074" unicode="&#x438;" horiz-adv-x="619" 
d="M401 409q2 12 0 15t-13 5l-43 7l12 89h245l-57 -407q-2 -8 -0.5 -13.5t9.5 -7.5l48 -8l-13 -89h-227l10 72l-4 3q-19 -17 -38.5 -32.5t-40.5 -27.5t-44.5 -19t-52.5 -7q-56 0 -86.5 31.5t-30.5 96.5q0 20 3 44l35 248q2 12 0.5 15t-12.5 5l-46 7l12 89h244l-47 -338
q-6 -41 22 -41q17 0 41.5 16.5t44.5 33.5z" />
    <glyph glyph-name="afii10075" unicode="&#x439;" horiz-adv-x="619" 
d="M401 409q2 12 0 15t-13 5l-43 7l12 89h245l-57 -407q-2 -8 -0.5 -13.5t9.5 -7.5l48 -8l-13 -89h-227l10 72l-4 3q-19 -17 -38.5 -32.5t-40.5 -27.5t-44.5 -19t-52.5 -7q-56 0 -86.5 31.5t-30.5 96.5q0 20 3 44l35 248q2 12 0.5 15t-12.5 5l-46 7l12 89h244l-47 -338
q-6 -41 22 -41q17 0 41.5 16.5t44.5 33.5zM360 667q29 0 44.5 18t25.5 55l116 -29q-23 -77 -68.5 -110t-120.5 -33q-83 0 -127 37t-50 103l121 34q-2 -35 12.5 -55t46.5 -20z" />
    <glyph glyph-name="afii10076" unicode="&#x43a;" horiz-adv-x="612" 
d="M287 319h15q10 0 19 2t18.5 8.5t19 19.5t19.5 35l24 52q12 27 25.5 46t30.5 31t38.5 17.5t51.5 5.5q23 0 46 -4.5t38 -10.5l-20 -112q-12 3 -22 3q-29 0 -46 -35l-16 -33q-12 -25 -29.5 -41.5t-51.5 -27.5l-1 -4q22 -11 34.5 -26t23.5 -45l27 -79q3 -8 6.5 -12.5
t13.5 -6.5l58 -8l-13 -94h-217q-11 49 -21.5 88t-20.5 67q-11 31 -22 43t-33 12h-8l-29 -210h-186l56 399q3 15 -9 19l-47 15l14 92h236l5 -9z" />
    <glyph glyph-name="afii10077" unicode="&#x43b;" horiz-adv-x="660" 
d="M399 0l-8 11l55 383h-105q-11 -54 -21 -102t-24 -99q-11 -39 -27 -75.5t-42.5 -65t-66 -46.5t-96.5 -19h-16t-16 1l-15 145q45 0 71.5 14.5t43 46.5t27.5 83t25 125q3 15 -12 18l-48 12l14 93h502l6 -10l-56 -404q-2 -8 0 -10.5t11 -3.5l49 -9l-13 -88h-238z" />
    <glyph glyph-name="afii10078" unicode="&#x43c;" horiz-adv-x="855" 
d="M609 0l-8 9l48 294h-4l-114 -214h-167l-29 210h-5q-5 -26 -10.5 -53t-13.5 -53q-11 -39 -25 -76.5t-39 -66t-66.5 -46t-108.5 -17.5h-15.5t-15.5 1l-15 146q45 0 72 14t43.5 47t28 87.5t24.5 135.5l-54 14l13 93h282l44 -294h3l149 294h205l8 -8l-56 -404q-2 -8 1 -10.5
t11 -3.5l50 -6l-13 -93h-223z" />
    <glyph glyph-name="afii10079" unicode="&#x43d;" horiz-adv-x="658" 
d="M394 0l-9 10l28 195h-140l-29 -205h-176l-8 10l55 389q3 15 -11 20l-46 13l13 93h236l8 -11l-25 -180h142l26 191h173l11 -10l-55 -400q-1 -8 1.5 -12.5t10.5 -5.5l49 -9l-13 -88h-241z" />
    <glyph glyph-name="afii10080" unicode="&#x43e;" horiz-adv-x="589" 
d="M280 -12q-124 0 -182 58.5t-58 160.5q0 14 1 29.5t3 31.5q9 61 32.5 110.5t62.5 84.5t93 54t122 19q66 0 111 -17.5t72.5 -46.5t39 -68t11.5 -83q0 -14 -1 -26.5t-4 -35.5q-9 -60 -30 -110t-58 -85.5t-90 -55.5t-125 -20zM294 114q35 0 59 29.5t36 111.5q3 23 3.5 37
t0.5 26q0 49 -16 69t-45 20q-15 0 -30 -6.5t-28.5 -22.5t-23.5 -44t-15 -71q-2 -17 -3 -31t-1 -27q0 -51 17 -71t46 -20z" />
    <glyph glyph-name="afii10081" unicode="&#x43f;" horiz-adv-x="621" 
d="M260 116q-2 -12 0 -15t13 -5l39 -7l-12 -89h-294l12 90l41 6q10 2 13 5.5t5 14.5l38 277q3 17 -9 21l-47 19l13 92h227l-10 -72l4 -2q20 17 39 32.5t40 27t44.5 18.5t52.5 7q65 0 95.5 -42t18.5 -130l-35 -248q-2 -12 -0.5 -15t12.5 -5l46 -7l-12 -89h-244l-2 5l20 126
l29 207q6 41 -22 41q-17 0 -41.5 -16.5t-44.5 -33.5z" />
    <glyph glyph-name="afii10082" unicode="&#x440;" horiz-adv-x="616" 
d="M111 393q3 15 -10 21l-46 19l13 92h228l-11 -72l5 -2q45 44 88.5 64.5t85.5 20.5q33 0 61 -11t47.5 -35.5t30.5 -63t11 -94.5q0 -89 -18 -154t-50 -107t-76.5 -62.5t-97.5 -20.5q-42 0 -75.5 16t-48.5 30l-6 -1l-20 -131q-1 -7 2 -10.5t13 -4.5l106 -10l-13 -89h-309
l-1 4l29 166zM260 153q16 -10 34.5 -16.5t36.5 -6.5q24 0 40.5 15.5t27 40.5t15 55t4.5 59q0 14 -1 28t-5 25.5t-11.5 19t-19.5 7.5q-20 0 -45 -16.5t-51 -36.5z" />
    <glyph glyph-name="afii10083" unicode="&#x441;" horiz-adv-x="510" 
d="M469 42q-40 -23 -93.5 -38.5t-110.5 -15.5q-59 0 -101.5 16.5t-70 46t-40.5 71t-13 90.5q0 80 23.5 141t65.5 101.5t98.5 61t122.5 20.5q58 0 107.5 -15t72.5 -34l-24 -171l-124 5l-3 67q0 15 -10 17q-8 2 -16 3.5t-20 1.5q-19 0 -37 -9.5t-32.5 -30.5t-23.5 -55.5
t-9 -84.5q0 -32 6.5 -52.5t18 -32.5t27 -16.5t32.5 -4.5q36 0 69.5 9.5t56.5 17.5z" />
    <glyph glyph-name="afii10084" unicode="&#x442;" horiz-adv-x="870" 
d="M260 116q-2 -12 0 -15t13 -5l31 -7l-12 -89h-286l12 90l41 6q10 2 13 5.5t5 14.5l38 277q3 17 -9 21l-47 19l13 92h227l-10 -72l4 -2q20 17 38.5 32.5t38.5 27t43 18.5t50 7q45 0 68.5 -21t27.5 -59l5 -3q17 15 35.5 29.5t39.5 26.5t44 19.5t49 7.5q65 0 88.5 -42
t11.5 -130l-35 -248q-2 -12 -0.5 -15t12.5 -5l46 -7l-12 -89h-244l-2 5l20 123l29 210q3 22 -1.5 29t-14.5 7q-14 0 -33 -13.5t-39 -31.5l-30 -213q-2 -12 -0.5 -15t12.5 -5l34 -7l-12 -89h-232l-1 5l20 128l28 205q3 20 -1 27.5t-15 7.5q-14 0 -32.5 -13.5t-39.5 -30.5z
" />
    <glyph glyph-name="afii10085" unicode="&#x443;" horiz-adv-x="605" 
d="M213 -5l-116 415q-3 9 -6.5 12t-11.5 5l-39 9l14 89h203l13 -14l28 -127l40 -181h10l117 225l-61 8l14 89h202l17 -41l-302 -568q-18 -35 -39 -61t-47 -43.5t-59 -26t-76 -8.5q-30 0 -55.5 6t-46 14.5t-35.5 17.5t-22 16l59 101q17 -11 42 -20.5t51 -9.5q30 0 48.5 14
t35.5 42z" />
    <glyph glyph-name="afii10086" unicode="&#x444;" horiz-adv-x="844" 
d="M488 -94q-1 -4 -1 -9q0 -6 3 -8t12 -3l42 -7l-14 -92h-304l14 93l43 6q11 2 13.5 5.5t4.5 14.5l13 84q-142 10 -205 68t-63 157q0 92 30.5 153t79 97t110 50.5t123.5 15.5l12 89q0 2 0.5 3.5t0.5 3.5q0 10 -11 14l-49 19l27 95h238l-32 -227q137 -4 200.5 -60.5
t63.5 -153.5q0 -93 -28 -156t-75 -100.5t-108.5 -54t-128.5 -16.5zM519 130h7q20 0 42 6.5t40.5 25t30.5 51.5t12 87q0 27 -7.5 45t-20 28t-30 14t-38.5 4zM367 390h-8q-21 0 -42.5 -6.5t-39.5 -25t-29.5 -51.5t-11.5 -87q0 -52 26 -72.5t68 -20.5z" />
    <glyph glyph-name="afii10087" unicode="&#x445;" horiz-adv-x="608" 
d="M394 0l-13 11l-98 155l-69 -70l51 -9l-10 -87h-254l10 86l35 7q8 2 14.5 5.5t14.5 11.5l146 140l-107 158q-5 7 -8.5 10.5t-11.5 6.5l-39 11l14 89h181l13 -10l93 -150l66 65l-44 7l15 88h249l-13 -88l-45 -10q-8 -2 -13.5 -6t-14.5 -13l-137 -130l111 -166
q10 -15 24 -18l44 -6l-14 -88h-190z" />
    <glyph glyph-name="afii10088" unicode="&#x446;" horiz-adv-x="627" 
d="M404 404q2 12 0 16t-13 6l-43 10l12 89h245l-55 -396q-3 -21 3 -30.5t30 -9.5h42l-31 -237l-128 13v122q-43 7 -64 33t-24 55l-4 3q-19 -17 -39 -33t-41.5 -28.5t-45.5 -20t-53 -7.5q-56 0 -86.5 31.5t-30.5 96.5q0 20 3 44l35 243q2 12 0.5 16t-12.5 6l-46 10l12 89h244
l-47 -338q-6 -41 22 -41q17 0 41.5 16.5t44.5 33.5z" />
    <glyph glyph-name="afii10089" unicode="&#x447;" horiz-adv-x="594" 
d="M324 10l31 193l-3 3q-52 -28 -88 -38t-74 -10q-69 0 -97 41t-17 113l15 98q3 14 -8 17l-38 9l13 89h225l6 -7l-23 -173q-5 -32 2.5 -41.5t24.5 -9.5q14 0 35.5 8.5t41.5 22.5l12 82q3 15 -9 18l-30 8l13 92h214l7 -9l-57 -401q-1 -8 1 -10.5t10 -3.5l45 -5l-13 -96h-235z
" />
    <glyph glyph-name="afii10090" unicode="&#x448;" horiz-adv-x="871" 
d="M655 403q2 12 0 15.5t-13 7.5l-27 10l13 89h218l7 -8l-56 -399q-3 -17 9 -21l50 -8l-13 -89h-227l10 71l-4 2q-19 -17 -38 -32.5t-39 -27t-43 -18.5t-50 -7q-45 0 -68.5 21t-27.5 59l-5 3q-17 -15 -35.5 -29.5t-39.5 -26.5t-44 -19.5t-49 -7.5q-72 0 -94.5 42t-10.5 130
l35 244q2 12 0.5 16t-12.5 6l-46 10l12 89h241l2 -5l-46 -334q-3 -22 4 -29t17 -7q14 0 33 13.5t39 31.5l30 209q2 12 0 15.5t-12 6.5l-30 10l12 89h227l1 -5l-47 -334q-3 -20 1 -27.5t15 -7.5q14 0 32.5 13.5t39.5 30.5z" />
    <glyph glyph-name="afii10091" unicode="&#x449;" horiz-adv-x="880" 
d="M657 400q2 12 0 16t-13 9l-27 11l13 89h218l7 -8l-55 -388q-3 -21 4 -30.5t31 -9.5h43l-33 -237l-128 13l1 122q-41 8 -63.5 32.5t-25.5 51.5l-5 2q-19 -17 -38 -32.5t-39 -27t-43 -18.5t-50 -7q-45 0 -68.5 21t-27.5 59l-5 3q-17 -15 -35.5 -29.5t-39.5 -26.5t-44 -19.5
t-49 -7.5q-129 0 -105 172l35 242q2 12 0.5 16.5t-12.5 6.5l-46 11l12 89h241l2 -5l-46 -334q-3 -22 4 -29t17 -7q14 0 33 13.5t39 31.5l30 205q2 12 0 16.5t-12 8.5l-30 11l12 89h227l1 -5l-47 -334q-3 -20 1 -27.5t15 -7.5q14 0 32.5 13.5t39.5 30.5z" />
    <glyph glyph-name="afii10092" unicode="&#x44a;" horiz-adv-x="663" 
d="M239 394h-35q-10 0 -14 -10l-20 -65l-130 -5l29 211h368l6 -11l-27 -184q13 3 34.5 7t44.5 4q79 0 121 -39.5t42 -108.5q0 -56 -23.5 -95t-62 -63.5t-88 -35.5t-102.5 -11q-63 0 -116.5 9t-79.5 16zM386 112q6 -2 15 -2.5t16 -0.5q59 0 59 70q0 27 -14.5 39t-38.5 12h-10
t-10 -2z" />
    <glyph glyph-name="afii10093" unicode="&#x44b;" horiz-adv-x="830" 
d="M113 391q2 11 -1 15.5t-9 7.5l-47 19l13 92h246l4 -6l-28 -189q13 3 34.5 7t44.5 4q79 0 121 -39.5t42 -108.5q0 -56 -23.5 -95t-62 -63.5t-88 -35.5t-102.5 -11q-63 0 -116.5 9t-79.5 16zM558 0l-3 6l26 147l33 240q3 17 -10 21l-47 19l13 92h246l-57 -409q-2 -12 0 -15
t13 -5l41 -7l-11 -89h-244zM261 112q6 -2 15 -2.5t16 -0.5q59 0 59 70q0 27 -14.5 39t-38.5 12h-10t-10 -2z" />
    <glyph glyph-name="afii10094" unicode="&#x44c;" horiz-adv-x="538" 
d="M113 391q2 11 -1 15.5t-9 7.5l-47 19l13 92h246l4 -6l-28 -189q13 3 34.5 7t44.5 4q79 0 121 -39.5t42 -108.5q0 -56 -23.5 -95t-62 -63.5t-88 -35.5t-102.5 -11q-63 0 -116.5 9t-79.5 16zM261 112q6 -2 15 -2.5t16 -0.5q59 0 59 70q0 27 -14.5 39t-38.5 12h-10t-10 -2z
" />
    <glyph glyph-name="afii10095" unicode="&#x44d;" horiz-adv-x="570" 
d="M238 322h146q-2 48 -29.5 69.5t-68.5 21.5q-33 0 -48 -6q-8 -3 -10.5 -7.5t-6.5 -16.5l-16 -55h-130l23 170q17 7 41.5 13.5t53 12t60 9t62.5 3.5q128 0 190 -65t62 -175q0 -69 -23 -125.5t-64.5 -97t-100 -63t-130.5 -22.5q-63 0 -119.5 15.5t-98.5 42.5l53 118
q9 -6 25 -13t36 -13t43 -10t45 -4q49 0 80.5 20t48.5 55h-141z" />
    <glyph glyph-name="afii10096" unicode="&#x44e;" horiz-adv-x="850" 
d="M58 0l-3 6l60 387q2 10 0 14.5t-10 7.5l-48 18l13 92h246l-31 -203h57q25 100 95 157t185 57q62 0 104.5 -17t69 -46.5t38.5 -69.5t12 -87q0 -73 -18.5 -133.5t-55.5 -103.5t-91.5 -67t-126.5 -24q-60 0 -102.5 15t-69.5 43t-40 66.5t-13 86.5h-62l-30 -199h-179z
M567 114q15 0 27 7t22 24.5t17.5 46.5t13.5 73q3 23 5 42t2 33q0 38 -11 52.5t-32 14.5q-15 0 -27.5 -6.5t-22.5 -22.5t-18 -43.5t-14 -70.5q-4 -25 -5.5 -44.5t-1.5 -35.5q0 -39 11 -54.5t34 -15.5z" />
    <glyph glyph-name="afii10097" unicode="&#x44f;" horiz-adv-x="623" 
d="M414 405q-21 7 -46 7q-26 0 -45 -12.5t-19 -41.5q0 -47 59 -47h38zM20 88l45 7q11 2 17 5t11 13l43 69q16 25 31.5 39t45.5 22v3q-36 11 -64 39t-28 81q0 50 21 82.5t56 52t82.5 27.5t99.5 8q25 0 56 -2.5t62.5 -7.5t60.5 -12.5t49 -17.5l-52 -386q-2 -9 0 -11.5t10 -3.5
l47 -5l-12 -90h-233l-8 10l26 188h-28q-18 0 -29 -11t-22 -30q-22 -38 -40.5 -76.5t-35.5 -80.5h-223z" />
    <glyph glyph-name="afii10071" unicode="&#x451;" horiz-adv-x="520" 
d="M486 43q-55 -24 -111 -39.5t-113 -15.5q-61 0 -103.5 17t-69 46t-38 69t-11.5 85q0 85 25 147.5t67.5 103t98 60.5t116.5 20q86 0 132 -35.5t46 -104.5q0 -50 -25 -84.5t-66 -56.5t-94 -34.5t-109 -18.5q2 -35 20 -57t63 -22q22 0 59 8t87 28zM234 309q19 3 40.5 7.5
t40 12.5t31 19.5t12.5 27.5t-10 23.5t-27 7.5q-27 0 -52 -23.5t-35 -74.5zM328 672q0 -41 -25.5 -65.5t-66.5 -24.5q-32 0 -51.5 18.5t-19.5 49.5q0 41 26.5 65t66.5 24q33 0 51.5 -18t18.5 -49zM540 672q0 -41 -25.5 -65.5t-66.5 -24.5q-32 0 -51.5 18.5t-19.5 49.5
q0 41 26.5 65t66.5 24q33 0 51.5 -18t18.5 -49z" />
    <glyph glyph-name="afii10099" unicode="&#x452;" horiz-adv-x="613" 
d="M270 -72q30 0 57.5 20t48.5 62t34 107t13 156q0 68 -38 68q-11 0 -24.5 -5t-27 -12.5t-26 -17t-22.5 -17.5l-26 -173q-2 -12 0 -15t13 -5l39 -7l-12 -89h-293l12 90l41 6q10 2 13 5.5t5 14.5l58 413h-57l12 86h57l1 8q3 17 -9 21l-47 19l13 92h234l-19 -140h151l-12 -86
h-151l-18 -116l4 -3q19 17 38.5 32.5t40.5 27.5t45 19t51 7q38 0 64 -17t41.5 -46t22 -67t6.5 -80q0 -51 -5.5 -108.5t-20 -114t-38 -108t-59 -91t-85 -63t-114.5 -23.5q-14 0 -30.5 2t-32.5 5t-29.5 7.5t-22.5 9.5l48 135q8 -3 21.5 -6t34.5 -3z" />
    <glyph glyph-name="afii10100" unicode="&#x453;" horiz-adv-x="502" 
d="M467 695l-89 98l-163 -167l65 -69zM279 429q-18 0 -38 -5q-9 -2 -11.5 -6t-4.5 -9l-20 -65h-136l20 149q17 8 42 15.5t55 13.5t62 10t63 4q42 0 78.5 -8.5t63 -26.5t42 -46t15.5 -67q0 -43 -14 -73t-37 -50t-51.5 -32.5t-57.5 -20.5q-36 -10 -59.5 -17t-37.5 -13
t-20 -13.5t-6 -19.5q0 -16 13 -22t32 -6q32 0 70.5 13.5t79.5 44.5l64 -99q-59 -50 -120 -71t-125 -21q-102 0 -154.5 40.5t-52.5 109.5q0 54 21.5 86t54 51.5t70.5 30t70.5 21t54 24.5t21.5 41q0 37 -47 37z" />
    <glyph glyph-name="afii10101" unicode="&#x454;" horiz-adv-x="555" 
d="M363 202h-136q5 -45 36 -61.5t74 -16.5q49 0 88.5 14.5t60.5 25.5l35 -117q-54 -32 -115 -45.5t-115 -13.5q-68 0 -115.5 17.5t-77.5 49t-44 75.5t-14 96q0 70 21.5 127t64 97.5t104.5 63t143 22.5q24 0 52 -3t55 -9t50.5 -14t39.5 -18l-24 -173l-129 9l1 63q0 13 -9 16
q-8 2 -18 3t-25 1q-42 0 -75 -22t-46 -64h135z" />
    <glyph glyph-name="afii10102" unicode="&#x455;" horiz-adv-x="494" 
d="M352 358l-2 45q0 8 -2 11.5t-10 6.5t-21 4.5t-27 1.5q-56 0 -56 -40q0 -20 26 -29t62 -18q27 -7 55 -16.5t51.5 -26.5t38.5 -44.5t15 -69.5q0 -51 -19 -88t-53.5 -61t-82.5 -35t-107 -11q-36 0 -67.5 3.5t-57.5 9t-45 12t-28 12.5l20 144l126 -8l2 -52q0 -13 13 -17
q9 -3 23.5 -5t35.5 -2q36 0 53.5 13.5t17.5 35.5q0 12 -7.5 20t-21 13.5t-30.5 10t-37 9.5q-27 7 -54.5 16.5t-50 26.5t-36.5 44t-14 69q0 51 20 87.5t53.5 60t78.5 34.5t96 11q30 0 60 -3t55.5 -7.5t45 -10t30.5 -10.5l-21 -154z" />
    <glyph glyph-name="afii10103" unicode="&#x456;" horiz-adv-x="332" 
d="M219 586q-44 0 -67 23.5t-23 65.5q0 57 31.5 89t88.5 32q44 0 68 -22.5t24 -64.5q0 -57 -32.5 -90t-89.5 -33zM57 0l-3 6l26 147l33 240q3 17 -10 21l-47 19l13 92h246l-57 -409q-2 -12 0 -15t13 -5l41 -7l-11 -89h-244z" />
    <glyph glyph-name="afii10104" unicode="&#x457;" horiz-adv-x="332" 
d="M57 0l-3 6l26 147l33 240q3 17 -10 21l-47 19l13 92h246l-57 -409q-2 -12 0 -15t13 -5l41 -7l-11 -89h-244zM199 693q0 -41 -25.5 -65.5t-66.5 -24.5q-32 0 -51.5 18.5t-19.5 49.5q0 41 26.5 65t66.5 24q33 0 51.5 -18t18.5 -49zM388 693q0 -41 -25.5 -65.5t-66.5 -24.5
q-32 0 -51.5 18.5t-19.5 49.5q0 41 26.5 65t66.5 24q33 0 51.5 -18t18.5 -49z" />
    <glyph glyph-name="afii10105" unicode="&#x458;" horiz-adv-x="332" 
d="M117 393q1 16 -10 21l-48 19l13 92h244l-78 -570q-13 -97 -68.5 -137.5t-144.5 -40.5q-34 0 -63 6.5t-51 15.5t-36.5 18.5t-20.5 15.5l59 98q11 -6 33 -15t48 -9q12 0 22.5 2.5t18.5 10.5t14 23t10 41zM220 586q-44 0 -67 23.5t-23 65.5q0 57 31.5 89t88.5 32
q44 0 68 -22.5t24 -64.5q0 -57 -32.5 -90t-89.5 -33z" />
    <glyph glyph-name="afii10106" unicode="&#x459;" horiz-adv-x="852" 
d="M433 394h-92q-11 -54 -20.5 -102t-24.5 -99q-11 -39 -27.5 -76t-43.5 -66t-66 -46.5t-95 -17.5h-16t-16 1l-15 145q45 0 71.5 14.5t43 46.5t27.5 83t25 125q3 15 -12 18l-48 12l14 93h495l4 -6l-29 -195q12 2 36 4t45 2q81 0 119.5 -40t38.5 -103q0 -54 -22 -92
t-59 -61.5t-85.5 -34.5t-101.5 -11q-75 0 -125 10t-75 20zM579 116q12 -3 30 -3q29 0 42.5 18t13.5 44q0 21 -12.5 33t-34.5 12h-12t-12 -2z" />
    <glyph glyph-name="afii10107" unicode="&#x45a;" horiz-adv-x="848" 
d="M631 519l-27 -195q12 2 33 4.5t42 2.5q84 0 124 -41t40 -103q0 -54 -22 -92t-59 -61.5t-85.5 -34.5t-101.5 -11q-31 0 -61.5 3t-57 7.5t-48 9.5t-33.5 10l26 187h-128l-29 -205h-176l-8 10l54 386q3 15 -11 20l-45 16l13 93h236l8 -11l-25 -180h130l27 191h180zM575 114
q12 -3 31 -3q29 0 42 19.5t13 44.5q0 21 -10 34t-32 13q-8 0 -16 -1t-13 -3z" />
    <glyph glyph-name="afii10108" unicode="&#x45b;" horiz-adv-x="621" 
d="M259 116q-2 -12 0 -15t13 -5l39 -7l-12 -89h-293l12 90l41 6q10 2 13 5.5t5 14.5l58 413h-57l12 86h57l1 8q3 17 -9 21l-47 19l13 92h234l-19 -140h151l-12 -86h-151l-15 -116l4 -3q20 17 38 32.5t37.5 27.5t42 19t50.5 7q65 0 95.5 -42t18.5 -130l-31 -208
q-2 -12 -0.5 -15t12.5 -5l46 -7l-12 -89h-244l-2 7l18 110l27 181q6 41 -22 41q-17 0 -41.5 -16.5t-44.5 -33.5z" />
    <glyph glyph-name="afii10109" unicode="&#x45c;" horiz-adv-x="612" 
d="M365 557l-65 69l163 167l89 -98zM287 319h15q10 0 19 2t18.5 8.5t19 19.5t19.5 35l24 52q12 27 25.5 46t30.5 31t38.5 17.5t51.5 5.5q23 0 46 -4.5t38 -10.5l-20 -112q-12 3 -22 3q-29 0 -46 -35l-16 -33q-12 -25 -29.5 -41.5t-51.5 -27.5l-1 -4q22 -11 34.5 -26
t23.5 -45l27 -79q3 -8 6.5 -12.5t13.5 -6.5l58 -8l-13 -94h-217q-11 49 -21.5 88t-20.5 67q-11 31 -22 43t-33 12h-8l-29 -210h-186l56 399q3 15 -9 19l-47 15l14 92h236l5 -9z" />
    <glyph glyph-name="afii10110" unicode="&#x45e;" horiz-adv-x="605" 
d="M213 -5l-116 415q-3 9 -6.5 12t-11.5 5l-39 9l14 89h203l13 -14l28 -127l40 -181h10l117 225l-61 8l14 89h202l17 -41l-302 -568q-18 -35 -39 -61t-47 -43.5t-59 -26t-76 -8.5q-30 0 -55.5 6t-46 14.5t-35.5 17.5t-22 16l59 101q17 -11 42 -20.5t51 -9.5q30 0 48.5 14
t35.5 42zM369 667q29 0 44.5 18t25.5 55l116 -29q-23 -77 -68.5 -110t-120.5 -33q-83 0 -127 37t-50 103l121 34q-2 -35 12.5 -55t46.5 -20z" />
    <glyph glyph-name="afii10193" unicode="&#x45f;" horiz-adv-x="619" 
d="M402 406q2 12 0 15t-13 5l-44 10l12 89h245l-57 -407q-2 -8 -0.5 -13.5t9.5 -7.5l48 -8l-13 -89h-227l10 72l-4 3q-19 -17 -38.5 -32.5t-40.5 -27.5t-44.5 -19t-52.5 -7q-56 0 -86.5 31.5t-30.5 96.5q0 20 3 44l36 245q2 12 0.5 15t-12.5 5l-47 10l12 89h244l-47 -338
q-6 -41 22 -41q17 0 41.5 16.5t44.5 33.5zM360 -39l-44 -164l-127 -9l30 158z" />
    <glyph glyph-name="afii10050" unicode="&#x490;" horiz-adv-x="602" 
d="M7 0l13 90l64 7q11 1 14 5t5 15l69 488q2 11 -1 14.5t-14 5.5l-62 7l13 92h392q13 0 16 11l29 87l135 10l-34 -239h-288l-66 -476q-2 -11 0 -14.5t13 -4.5l139 -8l-13 -90h-424z" />
    <glyph glyph-name="afii10098" unicode="&#x491;" horiz-adv-x="498" 
d="M1 0l13 92l47 5q8 1 9.5 3.5t3.5 10.5l43 303q1 8 -1 10t-9 4l-46 5l13 92h285q14 0 16 10l25 74l138 11l-31 -223h-209l-40 -286q-1 -7 0 -10t9 -3l99 -6l-13 -92h-352z" />
    <glyph glyph-name="thinspace" unicode="&#x2009;" horiz-adv-x="125" 
 />
    <glyph glyph-name="endash" unicode="&#x2013;" 
d="M13 215l18 130h499l-18 -130h-499z" />
    <glyph glyph-name="emdash" unicode="&#x2014;" horiz-adv-x="1000" 
d="M13 215l18 130h1000l-18 -130h-1000z" />
    <glyph glyph-name="quoteleft" unicode="&#x2018;" horiz-adv-x="240" 
d="M253 528q-28 0 -53 2.5t-44 10.5t-30.5 22.5t-11.5 38.5q0 21 9.5 40.5t23.5 42.5l60 99l71 -23l-33 -99q-3 -10 5 -13l38 -14z" />
    <glyph glyph-name="quoteright" unicode="&#x2019;" horiz-adv-x="235" 
d="M124 550l33 99q3 10 -5 13l-38 14l35 107q28 0 53 -2t44 -9.5t30.5 -21t11.5 -37.5q0 -21 -9.5 -42t-23.5 -44l-60 -100z" />
    <glyph glyph-name="quotesinglbase" unicode="&#x201a;" horiz-adv-x="241" 
d="M37 -120l33 99q3 10 -5 13l-38 14l35 107q28 0 53 -2t44 -9.5t30.5 -21t11.5 -37.5q0 -21 -9.5 -42t-23.5 -44l-60 -100z" />
    <glyph glyph-name="quotedblleft" unicode="&#x201c;" horiz-adv-x="433" 
d="M446 528q-28 0 -53 2.5t-44 10.5t-30.5 22.5t-11.5 38.5q0 21 9.5 40.5t23.5 42.5l60 99l71 -23l-33 -99q-3 -10 5 -13l38 -14zM253 528q-28 0 -53 2.5t-44 10.5t-30.5 22.5t-11.5 38.5q0 21 9.5 40.5t23.5 42.5l60 99l71 -23l-33 -99q-3 -10 5 -13l38 -14z" />
    <glyph glyph-name="quotedblright" unicode="&#x201d;" horiz-adv-x="428" 
d="M317 550l33 99q3 10 -5 13l-38 14l35 107q28 0 53 -2t44 -9.5t30.5 -21t11.5 -37.5q0 -21 -9.5 -42t-23.5 -44l-60 -100zM124 550l33 99q3 10 -5 13l-38 14l35 107q28 0 53 -2t44 -9.5t30.5 -21t11.5 -37.5q0 -21 -9.5 -42t-23.5 -44l-60 -100z" />
    <glyph glyph-name="quotedblbase" unicode="&#x201e;" horiz-adv-x="434" 
d="M230 -120l33 99q3 10 -5 13l-38 14l35 107q28 0 53 -2t44 -9.5t30.5 -21t11.5 -37.5q0 -21 -9.5 -42t-23.5 -44l-60 -100zM37 -120l33 99q3 10 -5 13l-38 14l35 107q28 0 53 -2t44 -9.5t30.5 -21t11.5 -37.5q0 -21 -9.5 -42t-23.5 -44l-60 -100z" />
    <glyph glyph-name="dagger" unicode="&#x2020;" horiz-adv-x="408" 
d="M116 -83l27 188l8 215l78 112h34l51 -112l-52 -215l-27 -188h-119zM139 387h-74l18 122h74l76 -44l-4 -33zM233 465l-31 96l12 84h123l-12 -84l-58 -96h-34zM340 387l-77 45l4 33l91 44h73l-18 -122h-73z" />
    <glyph glyph-name="daggerdbl" unicode="&#x2021;" horiz-adv-x="420" 
d="M282 432l50 -112l-10 -74l-83 -116h-34l-4 -33h34l30 -96l-12 -84h-123l12 84l59 96l-90 -45h-74l17 122h74l77 -44l-46 116l10 74l79 112l-90 -45h-74l18 122h74l76 -44l-31 96l12 84h123l-12 -84l-58 -96l91 44h73l-18 -122h-73l-77 45l4 33h-34l-4 -33h34zM312 52
l-77 45l4 33l90 44h73l-17 -122h-73z" />
    <glyph glyph-name="bullet" unicode="&#x2022;" horiz-adv-x="395" 
d="M381 279q0 -77 -41 -115t-119 -38t-118.5 38t-40.5 115t40.5 115t118.5 38t119 -38t41 -115z" />
    <glyph glyph-name="ellipsis" unicode="&#x2026;" horiz-adv-x="761" 
d="M475 89q0 -48 -27 -74.5t-84 -26.5q-87 0 -87 72q0 48 27 75t85 27q86 0 86 -73zM708 89q0 -48 -27 -74.5t-84 -26.5q-87 0 -87 72q0 48 27 75t85 27q86 0 86 -73zM242 89q0 -48 -27 -74.5t-84 -26.5q-87 0 -87 72q0 48 27 75t85 27q86 0 86 -73z" />
    <glyph glyph-name="perthousand" unicode="&#x2030;" horiz-adv-x="1160" 
d="M202 295q-74 0 -105.5 33.5t-31.5 93.5q0 97 49.5 147.5t140.5 50.5q71 0 104.5 -33t33.5 -95q0 -93 -50 -145t-141 -52zM110 -17l466 638h170l-465 -638h-171zM219 381q49 0 49 106q0 26 -7 36t-21 10q-22 0 -36 -22t-14 -80q0 -28 7.5 -39t21.5 -11zM606 -12
q-74 0 -105.5 33.5t-31.5 93.5q0 97 49.5 147.5t140.5 50.5q71 0 104.5 -33t33.5 -95q0 -93 -50 -145t-141 -52zM622 74q50 0 50 106q0 26 -7 36t-21 10q-22 0 -36 -22t-14 -80q0 -28 7.5 -39t20.5 -11zM954 -12q-74 0 -105.5 33.5t-31.5 93.5q0 97 49.5 147.5t140.5 50.5
q71 0 104.5 -33t33.5 -95q0 -93 -50 -145t-141 -52zM970 74q50 0 50 106q0 26 -7 36t-21 10q-22 0 -36 -22t-14 -80q0 -28 7.5 -39t20.5 -11z" />
    <glyph glyph-name="guilsinglleft" unicode="&#x2039;" horiz-adv-x="278" 
d="M104 103l-63 153l110 152h146l-102 -140q-5 -6 -5.5 -9.5t1.5 -9.5l57 -146h-144z" />
    <glyph glyph-name="guilsinglright" unicode="&#x203a;" horiz-adv-x="278" 
d="M25 103l99 146q4 6 4.5 9.5t-2.5 9.5l-64 140h146l68 -152l-107 -153h-144z" />
    <glyph glyph-name="fraction" unicode="&#x2044;" horiz-adv-x="247" 
d="M-161 -12l458 736h170l-457 -736h-171z" />
    <glyph glyph-name="Euro" unicode="&#x20ac;" horiz-adv-x="580" 
d="M297 249q0 -68 16.5 -98t54.5 -30q10 0 17.5 1t16.5 4q6 2 9 6.5t5 10.5l26 80l125 5l-26 -191q-14 -9 -38.5 -18t-53.5 -16t-61 -11t-62 -4q-114 0 -169.5 66.5t-56.5 194.5h-71l44 143h41q17 71 48.5 122t73.5 83.5t91 47.5t100 15q30 0 59 -4t55 -11t46.5 -16
t32.5 -18l-25 -185l-126 5l-4 78q0 14 -8 17t-16.5 4.5t-24.5 1.5q-15 0 -30.5 -7t-30 -23.5t-26.5 -43t-20 -66.5h135l-43 -143h-104z" />
    <glyph glyph-name="afii61352" unicode="&#x2116;" horiz-adv-x="1145" 
d="M444 0l-157 385l-39 -272q-2 -12 0 -15t13 -5l66 -8l-11 -85h-298l11 85l63 7q11 2 14 5.5t5 14.5l57 410q2 11 0 15t-13 5l-62 7l13 87h278l156 -388l37 272q2 11 0 15t-13 5l-62 7l13 89h298l-13 -89l-68 -8q-12 -2 -14.5 -5t-4.5 -14l-72 -520h-197zM742 174h350
l-15 -106h-350zM908 206q-85 0 -123 39.5t-38 104.5q0 106 61.5 162.5t169.5 56.5q80 0 119 -41.5t39 -103.5q0 -106 -59.5 -162t-168.5 -56zM928 297q21 0 33.5 13t18.5 32t8 39.5t2 35.5q0 34 -9 47t-26 13q-21 0 -33 -13t-19 -32t-9 -40.5t-2 -38.5q0 -32 10 -44t26 -12z
" />
    <glyph glyph-name="trademark" unicode="&#x2122;" horiz-adv-x="857" 
d="M184 348v52l48 5v259h-61l-5 -49h-51v109h323v-109h-51l-4 49h-63v-259l53 -5v-52h-189zM750 348v51l37 5v168l-70 -143h-68l-69 144v-169l41 -5v-51h-153v51l34 5v262l-34 3v55h117l100 -209l103 209h112v-55l-35 -3v-262l37 -5v-51h-152z" />
    <glyph glyph-name="partialdiff" unicode="&#x2202;" horiz-adv-x="600" 
d="M410 380q3 14 4 33t1 28q0 102 -82 102q-38 0 -76.5 -16.5t-67.5 -37.5l-57 109q48 33 115 55.5t139 22.5q51 0 87.5 -13.5t61 -37.5t39 -57t20.5 -71q2 -15 3.5 -30.5t1.5 -32.5q0 -44 -5 -94t-19 -99.5t-38 -95t-61.5 -80.5t-90 -56t-124.5 -21q-99 0 -157 45t-58 136
q0 59 18.5 104.5t50.5 76.5t76 47.5t95 16.5q44 0 74 -11.5t50 -22.5zM386 269q-17 12 -34.5 19t-34.5 7q-38 0 -59 -33t-21 -78q0 -22 10 -42.5t41 -20.5q44 0 65 41t33 107z" />
    <glyph glyph-name="product" unicode="&#x220f;" horiz-adv-x="815" 
d="M404 -176l12 88l64 7q11 2 14 5.5t5 14.5l93 654h-232l-93 -653q-2 -12 0 -15t13 -5l66 -8l-12 -88h-354l12 88l64 7q11 2 14 5.5t5 14.5l95 668q2 11 -0.5 15t-13.5 5l-62 7l13 90h778l-13 -90l-68 -8q-11 -2 -13.5 -5t-4.5 -14l-95 -667q-2 -12 0 -15t13 -5l66 -8
l-12 -88h-354z" />
    <glyph glyph-name="summation" unicode="&#x2211;" horiz-adv-x="627" 
d="M-48 -176l14 109l270 332l-165 366l13 93h562l-32 -224l-135 5l-3 76q-1 13 -16 13h-163l127 -305l-248 -306h229q8 0 11.5 1.5t6.5 9.5l28 88h135l-35 -258h-599z" />
    <glyph glyph-name="minus" unicode="&#x2212;" horiz-adv-x="570" 
d="M103 255l19 138h393l-19 -138h-393z" />
    <glyph glyph-name="radical" unicode="&#x221a;" horiz-adv-x="605" 
d="M255 0l-85 196q-3 6 -7 7t-9 0l-64 -12l-33 104l197 89l83 -216l234 580l143 -37l-291 -711h-168z" />
    <glyph glyph-name="infinity" unicode="&#x221e;" horiz-adv-x="643" 
d="M209 472q56 0 92 -22t62 -53q28 29 65 52t85 23q26 0 49 -8.5t40.5 -25t28 -42t10.5 -58.5t-10 -63.5t-29.5 -54t-49 -38t-68.5 -14.5q-27 0 -50 7t-42 19t-34.5 26.5t-28.5 29.5q-29 -31 -65 -56.5t-81 -25.5q-56 0 -93.5 32.5t-37.5 106.5q0 31 10 60.5t30 53t49 37.5
t68 14zM189 250q25 0 47.5 17t43.5 41q-22 31 -45 48t-47 17q-25 0 -40 -15.5t-15 -44.5q0 -23 10.5 -43t45.5 -20zM508 396q-26 0 -48 -14t-46 -39q20 -23 44 -43.5t52 -20.5q23 0 37.5 14t14.5 46q0 23 -13.5 40t-40.5 17z" />
    <glyph glyph-name="integral" unicode="&#x222b;" horiz-adv-x="422" 
d="M100 -51q18 -8 33.5 -11t27.5 -3q17 0 25.5 11.5t4.5 55.5l-49 560q-4 47 7.5 78.5t33.5 51t50.5 27.5t57.5 8q35 0 67 -6t70 -19l-29 -114q-19 8 -33 11.5t-26 3.5q-17 0 -27 -11t-7 -41l52 -577q4 -48 -7.5 -79t-32.5 -50t-48.5 -26.5t-54.5 -7.5q-41 0 -78 8t-66 19z
" />
    <glyph glyph-name="approxequal" unicode="&#x2248;" horiz-adv-x="530" 
d="M550 505q-8 -27 -18.5 -51.5t-24.5 -44t-33.5 -31t-45.5 -11.5q-27 0 -55.5 5t-56.5 11.5t-54 11.5t-48 5q-17 0 -28 -7.5t-25 -27.5l-79 39q29 57 59.5 90t78.5 33q29 0 56 -5.5t53 -11.5t51 -11.5t49 -5.5q14 0 21 9t16 27zM522 307q-8 -27 -18.5 -51.5t-24.5 -44
t-33.5 -31t-45.5 -11.5q-27 0 -55.5 5t-56.5 11.5t-54 11.5t-48 5q-17 0 -28 -7.5t-25 -27.5l-79 39q30 57 60 90t78 33q29 0 56 -5.5t53 -11.5t51 -11.5t49 -5.5q14 0 21 9t17 27z" />
    <glyph glyph-name="notequal" unicode="&#x2260;" horiz-adv-x="570" 
d="M282 112l-38 -79h-124l38 79h-75l20 138h122l30 63h-143l19 138h190l40 83h124l-40 -83h79l-19 -138h-126l-30 -63h147l-20 -138h-194z" />
    <glyph glyph-name="lessequal" unicode="&#x2264;" horiz-adv-x="570" 
d="M125 271l23 164l412 134l-20 -139l-255 -73l234 -78l-20 -141zM87 0l19 138h393l-19 -138h-393z" />
    <glyph glyph-name="greaterequal" unicode="&#x2265;" horiz-adv-x="570" 
d="M91 138l20 141l256 78l-235 68l20 144l374 -134l-23 -164zM72 0l19 138h393l-19 -138h-393z" />
    <glyph glyph-name="lozenge" unicode="&#x25ca;" horiz-adv-x="570" 
d="M199 -17l-109 324l200 324h132l108 -324l-199 -324h-132zM396 307l-61 177l-111 -177l60 -186z" />
    <glyph glyph-name="breve.cyr" 
d="M254 667q29 0 44.5 18t25.5 55l116 -29q-23 -77 -68.5 -110t-120.5 -33q-83 0 -127 37t-50 103l121 34q-2 -35 12.5 -55t46.5 -20z" />
    <glyph glyph-name="breve_cyr.cap" 
d="M248 882q29 0 44.5 18t25.5 55l116 -29q-23 -77 -68.5 -110t-120.5 -33q-83 0 -127 37t-50 103l121 34q-2 -35 12.5 -55t46.5 -20z" />
    <glyph glyph-name="hyphen.case" horiz-adv-x="311" 
d="M42 275l21 150h271l-21 -150h-271z" />
    </font>
</defs>
</svg>
