<?xml version="1.0" standalone="no"?>
<!DOCTYPE svg PUBLIC "-//W3C//DTD SVG 1.1//EN" "http://www.w3.org/Graphics/SVG/1.1/DTD/svg11.dtd" >
<svg xmlns="http://www.w3.org/2000/svg" xmlns:xlink="http://www.w3.org/1999/xlink" version="1.1">
<metadata>
Created by FontForge 20170731 at Wed May 14 19:53:42 2014
 By ,,,
Copyright (c) 2010 by TypeTogether. All rights reserved.This font is ONLY licensed for use when accessed from the Extensis WebINK font service. Any other use of this font file is illegal under United States and international copyright laws. Please respect the rights of the people who design and license fonts.
</metadata>
<defs>
<font id="AdelleCyrillic-HeavyItalic" horiz-adv-x="500" >
  <font-face 
    font-family="Adelle Cyrillic"
    font-weight="900"
    font-style="italic"
    font-stretch="normal"
    units-per-em="1000"
    panose-1="2 0 5 3 0 0 0 9 0 4"
    ascent="755"
    descent="-245"
    x-height="528"
    cap-height="724"
    bbox="-174 -276 1192 970"
    underline-thickness="50"
    underline-position="-200"
    unicode-range="U+000D-25CA"
  />
<missing-glyph 
 />
    <glyph glyph-name=".notdef" 
 />
    <glyph glyph-name=".null" horiz-adv-x="0" 
 />
    <glyph glyph-name="nonmarkingreturn" unicode="&#xd;" 
 />
    <glyph glyph-name="NULL" horiz-adv-x="0" 
 />
    <glyph glyph-name="NULL" horiz-adv-x="0" 
 />
    <glyph glyph-name="space" unicode=" " horiz-adv-x="182" 
 />
    <glyph glyph-name="exclam" unicode="!" horiz-adv-x="323" 
d="M85 206l26 331l26 187h221l-26 -187l-69 -331h-178zM264 96q0 -51 -28.5 -79.5t-91.5 -28.5q-94 0 -94 77q0 51 29 80t92 29q48 0 70.5 -20t22.5 -58z" />
    <glyph glyph-name="quotedbl" unicode="&#x22;" horiz-adv-x="457" 
d="M298 447l36 259h180l-36 -259h-180zM68 447l36 259h180l-36 -259h-180z" />
    <glyph glyph-name="numbersign" unicode="#" horiz-adv-x="607" 
d="M433 103l-29 -103h-136l29 103h-52l-29 -103h-136l29 103h-83l47 137h78l22 78h-85l47 137h77l26 88h136l-26 -88h53l26 88h135l-26 -88h88l-46 -137h-80l-24 -78h88l-47 -137h-82zM362 318h-53l-23 -78h53z" />
    <glyph glyph-name="dollar" unicode="$" horiz-adv-x="537" 
d="M444 637q31 -3 60 -8.5t60 -15.5l-26 -179l-148 7v56q0 17 -13 21q-7 2 -16 3t-20 1q-29 0 -51 -10.5t-22 -33.5q0 -26 26.5 -40t64.5 -28q28 -10 57.5 -23.5t54 -34t40 -51t15.5 -76.5q0 -45 -14 -80.5t-38 -62t-57 -44.5t-72 -27l-12 -91h-188l11 84q-35 3 -68.5 10.5
t-60.5 22.5l25 176l144 -10l4 -58q1 -21 15 -25q16 -4 46 -4q32 0 52 16t20 40q0 29 -28.5 44.5t-66.5 29.5q-28 10 -57 22.5t-53 33t-39 50.5t-15 76q0 45 13.5 80t37.5 60.5t57 42t73 24.5l11 80h190z" />
    <glyph glyph-name="percent" unicode="%" horiz-adv-x="938" 
d="M718 -12q-43 0 -72.5 11.5t-47.5 31t-26 45.5t-8 56q0 19 3 40q12 85 62.5 132t147.5 47q83 0 118.5 -37t35.5 -100q0 -20 -3 -41q-12 -88 -64 -136.5t-146 -48.5zM738 92q13 0 24 15t18 65q3 21 3 36q0 23 -6.5 30.5t-17.5 7.5q-6 0 -12 -2t-11.5 -9.5t-10 -21.5
t-8.5 -38q-2 -13 -2.5 -24.5t-0.5 -19.5q0 -23 6.5 -31t17.5 -8zM217 257q-43 0 -72.5 11.5t-47.5 31t-26 45.5t-8 56q0 19 3 40q12 85 62.5 132t147.5 47q83 0 118.5 -37t35.5 -100q0 -20 -3 -41q-12 -88 -64 -136.5t-146 -48.5zM167 -12l463 632h191l-462 -632h-192z
M237 361q13 0 24 15t18 65q3 21 3 36q0 23 -6.5 30.5t-17.5 7.5q-6 0 -12 -2t-11.5 -9.5t-10 -21.5t-8.5 -38q-2 -13 -2.5 -24.5t-0.5 -19.5q0 -23 6.5 -31t17.5 -8z" />
    <glyph glyph-name="ampersand" unicode="&#x26;" horiz-adv-x="730" 
d="M681 314q-9 -1 -12 -3.5t-4 -10.5l-36 -261q-37 -16 -76 -26t-77 -15.5t-72.5 -7.5t-63.5 -2q-76 0 -128 13t-84.5 36.5t-46.5 57t-14 73.5t12.5 71t33.5 53.5t48 36.5t56 19v5q-16 5 -32.5 15.5t-30 27t-22 38t-8.5 47.5q0 54 20.5 93.5t56.5 65t86 38t109 12.5
q78 0 147.5 -15t111.5 -46l-29 -176l-148 13l-4 57q-1 14 -14 18q-10 3 -24 4t-30 1q-38 0 -59 -15.5t-21 -51.5q0 -29 19.5 -46.5t65.5 -17.5h14l-19 -140q-24 0 -48 -2.5t-43.5 -10.5t-32 -23.5t-12.5 -41.5t22 -44t68 -18q17 0 33 1t28 5q11 3 14 8t5 15l34 243l25 16
h238l-14 -105z" />
    <glyph glyph-name="quotesingle" unicode="'" horiz-adv-x="227" 
d="M68 447l36 259h180l-36 -259h-180z" />
    <glyph glyph-name="parenleft" unicode="(" horiz-adv-x="418" 
d="M177 -188q-25 35 -46.5 80t-37.5 96.5t-25 107.5t-9 113q0 82 19.5 156t54.5 142t83 130.5t104 121.5l143 -92q-51 -59 -85.5 -116.5t-55.5 -116t-30 -119t-9 -126.5q0 -83 17 -152t49 -134z" />
    <glyph glyph-name="parenright" unicode=")" horiz-adv-x="417" 
d="M0 -96q51 59 85.5 116.5t55.5 116t30 119t9 126.5q0 83 -17 152t-49 134l172 91q25 -35 46.5 -80t37.5 -96.5t25 -107.5t9 -113q0 -82 -19.5 -156t-54.5 -142t-83 -130.5t-104 -121.5z" />
    <glyph glyph-name="asterisk" unicode="*" horiz-adv-x="482" 
d="M129 449l53 62l100 46l-105 -22l-69 23l60 129l69 -24l61 -75l-39 92l11 75h135l-11 -75l-62 -92h-34l-16 -31l25 -19l-26 -106l-51 -62zM342 370l-35 62v106l30 19l-5 31l82 75l75 24l23 -129l-75 -23l-100 22l92 -46l37 -61z" />
    <glyph glyph-name="plus" unicode="+" horiz-adv-x="570" 
d="M222 114l18 134h-120l22 153h120l18 130h156l-18 -130h121l-22 -153h-121l-18 -134h-156z" />
    <glyph glyph-name="comma" unicode="," horiz-adv-x="294" 
d="M54 -97l41 110q2 6 1.5 8.5t-6.5 4.5l-44 13l41 134q31 0 59.5 -2t50.5 -10t35.5 -23.5t13.5 -41.5q0 -24 -13.5 -52t-25.5 -48l-68 -117z" />
    <glyph glyph-name="hyphen" unicode="-" horiz-adv-x="311" 
d="M39 207l23 165h271l-23 -165h-271z" />
    <glyph glyph-name="period" unicode="." horiz-adv-x="316" 
d="M263 98q0 -51 -28.5 -80.5t-91.5 -29.5q-94 0 -94 75q0 52 28.5 81.5t92.5 29.5q93 0 93 -76z" />
    <glyph glyph-name="slash" unicode="/" horiz-adv-x="523" 
d="M-10 -92l399 847h203l-397 -847h-205z" />
    <glyph glyph-name="zero" unicode="0" horiz-adv-x="606" 
d="M610 289q-11 -78 -35 -135t-63 -94t-94.5 -54.5t-130.5 -17.5q-127 0 -183 60t-56 169q0 20 2 42t5 45q20 148 95.5 221.5t225.5 73.5q65 0 110.5 -16t74.5 -46t42 -72t13 -94q0 -38 -6 -82zM310 130q12 0 23.5 5t21 21.5t18 48t15.5 84.5q4 28 6.5 50.5t2.5 39.5
q0 45 -11 60t-29 15q-13 0 -24.5 -5t-21.5 -21t-18.5 -46t-15.5 -80q-5 -31 -6.5 -55t-1.5 -43q0 -44 10.5 -59t30.5 -15z" />
    <glyph glyph-name="one" unicode="1" horiz-adv-x="431" 
d="M20 0l13 100l72 6q11 1 13.5 5t4.5 15l45 314q3 17 -10 21l-78 20l15 102h299l-63 -457q-2 -12 0 -15.5t13 -4.5l72 -7l-14 -99h-382z" />
    <glyph glyph-name="two" unicode="2" horiz-adv-x="551" 
d="M26 0l18 124l136 126q48 44 79 72t48.5 46.5t24.5 31t7 26.5q0 10 -6.5 19t-24.5 9q-22 0 -32.5 -14t-17.5 -57l-187 16q10 66 36.5 105.5t63.5 60.5t81 28t89 7q54 0 92.5 -12.5t62.5 -33.5t35.5 -48.5t11.5 -57.5q0 -34 -10.5 -61t-29 -52t-45 -49.5t-58.5 -53.5
l-117 -106h86q9 0 13 11l19 58h142l-23 -195h-494z" />
    <glyph glyph-name="three" unicode="3" horiz-adv-x="551" 
d="M429 268q44 -12 71.5 -42.5t27.5 -91.5q0 -59 -22 -100.5t-60 -67.5t-88 -37.5t-107 -11.5q-83 0 -151.5 27t-105.5 75l118 114q10 -9 23 -20.5t29.5 -21.5t37 -16.5t44.5 -6.5q39 0 59 15.5t20 50.5q0 32 -16 44t-42 12q-20 0 -34 -1t-38 -6l18 131l36 5q45 6 74 29
t29 71q0 14 -8.5 24.5t-26.5 10.5q-24 0 -36.5 -13t-19.5 -58l-190 17q9 63 36.5 102t65.5 60.5t82.5 29t86.5 7.5q106 0 159.5 -40.5t53.5 -126.5q0 -36 -11 -63t-29 -46.5t-40.5 -32t-45.5 -18.5v-4z" />
    <glyph glyph-name="four" unicode="4" horiz-adv-x="605" 
d="M313 -67l14 111h-288l20 141l238 427l156 -74l-205 -334h101l17 117l191 40l-22 -157h75l-23 -160h-74l-15 -111h-185z" />
    <glyph glyph-name="five" unicode="5" horiz-adv-x="547" 
d="M268 420l-32 -104l3 -3q20 17 51.5 30.5t79.5 13.5q76 0 119 -44.5t43 -129.5q0 -58 -18 -107t-54 -84t-90 -55t-126 -20q-91 0 -158 29t-104 73l118 116q10 -10 23 -21.5t29.5 -21.5t37.5 -16.5t47 -6.5q88 0 88 82q0 35 -18 47t-36 12q-17 0 -37 -9.5t-36 -28.5
l-123 53l73 358h393l-26 -163h-247z" />
    <glyph glyph-name="six" unicode="6" horiz-adv-x="571" 
d="M497 475q-30 25 -58 32.5t-48 7.5q-15 0 -32.5 -5.5t-34 -19.5t-29.5 -39.5t-20 -65.5q26 9 57.5 16t69.5 7q32 0 63 -8.5t55 -27.5t39 -50.5t15 -78.5q0 -70 -23.5 -119t-63 -79t-90.5 -43.5t-107 -13.5q-64 0 -109 20.5t-73.5 55t-41 78.5t-12.5 92q0 76 17.5 152.5
t57.5 138t105.5 100t162.5 38.5q65 0 114 -20t87 -57zM263 269q-1 -15 -1 -24.5v-22.5q0 -38 9.5 -61t36.5 -23q20 0 31 11.5t16 26.5t6 30.5t1 24.5q0 51 -43 51q-13 0 -28 -3.5t-28 -9.5z" />
    <glyph glyph-name="seven" unicode="7" horiz-adv-x="557" 
d="M112 -67q18 106 53 188t74 142.5t76 99t59 57.5h-145q-7 0 -9 -4.5t-4 -8.5l-24 -73l-145 -11l38 260h532l-22 -145q-103 -101 -172 -226.5t-93 -278.5h-218z" />
    <glyph glyph-name="eight" unicode="8" horiz-adv-x="549" 
d="M472 340q34 -23 56.5 -53.5t22.5 -84.5t-22 -94t-61.5 -66.5t-93.5 -40t-118 -13.5q-110 0 -166 38t-56 116q0 34 9 62t24 51t34 42.5t39 35.5q-17 17 -34.5 46.5t-17.5 74.5q0 100 69.5 154.5t199.5 54.5q94 0 148.5 -40t54.5 -115q0 -56 -26 -95.5t-62 -72.5zM249 258
q-23 -21 -36.5 -44t-13.5 -41q0 -24 15.5 -39.5t53.5 -15.5q39 0 52.5 16.5t13.5 38.5q0 14 -7.5 25t-20 21t-27.5 19.5t-30 19.5zM350 404q22 23 33.5 44.5t11.5 37.5q0 19 -12 33t-37 14q-34 0 -48 -16t-14 -35q0 -24 20 -43t46 -35z" />
    <glyph glyph-name="nine" unicode="9" horiz-adv-x="579" 
d="M119 120q21 -18 55.5 -36t71.5 -18q20 0 36.5 5t29.5 19.5t23 39t17 63.5q-21 -8 -48 -14.5t-67 -6.5q-34 0 -66 8t-57 27.5t-40 51t-15 77.5q0 65 21 114t59 82t90 50t115 17q64 0 108.5 -18.5t72.5 -52t41 -79.5t13 -101q0 -42 -4.5 -90t-17.5 -95.5t-36 -92t-61 -78
t-92.5 -54t-129.5 -20.5q-33 0 -65 7t-60.5 19t-51.5 27.5t-38 31.5zM367 312q2 17 3 30.5t1 27.5q0 80 -44 80q-17 0 -27.5 -9.5t-16.5 -24t-8.5 -30.5t-2.5 -29q0 -28 8 -42.5t34 -14.5q10 0 24 3t29 9z" />
    <glyph glyph-name="colon" unicode=":" horiz-adv-x="316" 
d="M324 463q0 -51 -28.5 -80.5t-91.5 -29.5q-94 0 -94 75q0 52 28.5 81.5t92.5 29.5q93 0 93 -76zM263 98q0 -51 -28.5 -80.5t-91.5 -29.5q-94 0 -94 75q0 52 28.5 81.5t92.5 29.5q93 0 93 -76z" />
    <glyph glyph-name="semicolon" unicode=";" horiz-adv-x="294" 
d="M54 -97l41 110q2 6 1.5 8.5t-6.5 4.5l-44 13l41 134q31 0 59.5 -2t50.5 -10t35.5 -23.5t13.5 -41.5q0 -24 -13.5 -52t-25.5 -48l-68 -117zM318 463q0 -51 -28.5 -80.5t-91.5 -29.5q-94 0 -94 75q0 52 28.5 81.5t92.5 29.5q93 0 93 -76z" />
    <glyph glyph-name="less" unicode="&#x3c;" horiz-adv-x="570" 
d="M104 204l25 180l422 129l20 -148l-278 -71l258 -75l-64 -145z" />
    <glyph glyph-name="equal" unicode="=" horiz-adv-x="570" 
d="M88 100l21 152h398l-21 -152h-398zM117 311l21 152h398l-21 -152h-398z" />
    <glyph glyph-name="greater" unicode="&#x3e;" horiz-adv-x="570" 
d="M102 74l-19 153l280 74l-257 72l56 140l385 -129l-25 -180z" />
    <glyph glyph-name="question" unicode="?" horiz-adv-x="579" 
d="M145 206l27 187q29 2 68 6.5t74 17t59 35t24 59.5q0 29 -13 41.5t-37 12.5q-16 0 -27 -1.5t-19 -3.5q-9 -2 -12 -5.5t-5 -11.5l-15 -67l-172 -13l29 209q81 29 142.5 40.5t119.5 11.5q47 0 89.5 -8.5t74.5 -30.5t51 -60t19 -98q0 -42 -13 -83.5t-43 -76t-79 -59.5
t-121 -35l-10 -67h-211zM341 96q0 -51 -29 -79.5t-91 -28.5q-49 0 -71.5 19.5t-22.5 57.5q0 51 29 80t92 29q48 0 70.5 -20t22.5 -58z" />
    <glyph glyph-name="at" unicode="@" horiz-adv-x="867" 
d="M600 -161q-36 -15 -87 -25t-125 -10q-150 0 -232 77.5t-82 226.5q0 103 34 188t94.5 145.5t143 93.5t179.5 33q69 0 126.5 -17.5t98.5 -52.5t64 -88t23 -124q0 -70 -17 -125t-49.5 -93.5t-79 -59t-105.5 -20.5q-35 0 -63.5 14.5t-42.5 49.5q-30 -27 -61 -45.5t-63 -18.5
q-43 0 -70.5 28t-27.5 84q0 61 18 115t51.5 94.5t80 64t103.5 23.5q56 0 90.5 -9.5t60.5 -22.5l-40 -139q-8 -29 -17.5 -58.5t-9.5 -49.5q0 -14 6 -21.5t23 -7.5q22 0 39.5 15t29.5 40t18.5 58.5t6.5 69.5q0 42 -11.5 76.5t-37 59.5t-65.5 39t-96 14q-84 0 -143.5 -33
t-96.5 -83t-54 -109t-17 -112q0 -99 51.5 -156t169.5 -57q45 0 85.5 8.5t82.5 22.5zM529 303q-4 4 -11.5 6t-14.5 2q-19 0 -40 -13t-37.5 -36t-27.5 -55.5t-11 -70.5q0 -25 6.5 -34t18.5 -9q13 0 27.5 6.5t36.5 26.5z" />
    <glyph glyph-name="A" unicode="A" horiz-adv-x="798" 
d="M406 0l14 98l78 9l-9 54h-213l-22 -54l76 -9l-15 -98h-324l14 98l47 11q8 2 14 5.5t11 12.5l296 597h234l125 -598q2 -9 7.5 -12t14.5 -5l44 -11l-14 -98h-378zM438 512h-5l-99 -208h138z" />
    <glyph glyph-name="B" unicode="B" horiz-adv-x="658" 
d="M1 0l15 98l63 7q11 2 14 5.5t5 14.5l65 472q2 11 -0.5 15t-13.5 5l-61 7l13 100h367q55 0 92.5 -13t60 -35t32.5 -50.5t10 -59.5q0 -43 -13 -74.5t-33.5 -53.5t-46.5 -36.5t-52 -22.5v-3q73 -8 106 -45.5t33 -98.5q0 -64 -23.5 -108t-64.5 -71.5t-96 -40t-118 -12.5h-354
zM334 143q53 0 79.5 22.5t26.5 77.5q0 21 -6 33t-16.5 18.5t-23.5 8.5t-28 2h-33l-22 -162h23zM356 435q19 0 37.5 3t33.5 12.5t24 26.5t9 45q0 20 -7.5 31.5t-19 17t-25.5 6.5t-27 1h-11l-19 -143h5z" />
    <glyph glyph-name="C" unicode="C" horiz-adv-x="678" 
d="M625 45q-25 -13 -56.5 -24t-66 -18t-70.5 -11t-70 -4q-80 0 -138.5 22t-96 63t-55.5 99t-18 130q0 96 27 176t81 137.5t134 89.5t186 32q29 0 60.5 -4t62.5 -11.5t58.5 -18.5t47.5 -25l-31 -232l-148 12l-2 93q0 14 -4 18.5t-11 6.5q-13 4 -50 4q-85 0 -136.5 -65
t-51.5 -200q0 -88 32.5 -130.5t89.5 -42.5q25 0 41 1t24 4q12 5 16 20l29 99h147z" />
    <glyph glyph-name="D" unicode="D" horiz-adv-x="738" 
d="M1 0l15 100l63 7q11 1 14 5t5 15l65 471q2 11 -0.5 14.5t-12.5 5.5l-62 7l13 99h343q81 0 139 -20t95.5 -58t55.5 -92t18 -123q0 -91 -25.5 -170t-78 -137t-133 -91t-189.5 -33h-325zM316 143q57 0 98.5 25t68.5 65.5t40 91t13 101.5q0 77 -33.5 115t-119.5 38h-12
l-59 -436h4z" />
    <glyph glyph-name="E" unicode="E" horiz-adv-x="624" 
d="M1 0l14 98l63 7q11 2 14 5.5t5 14.5l66 473q2 11 -0.5 15t-12.5 5l-62 7l13 99h551l-33 -239l-149 6l-3 75q-1 13 -17 13h-79l-19 -142h198l-21 -151h-199l-18 -142h101q8 0 11.5 1.5t6.5 9.5l27 88h149l-33 -243h-573z" />
    <glyph glyph-name="F" unicode="F" horiz-adv-x="600" 
d="M1 0l13 98l63 7q11 2 14.5 5.5t5.5 14.5l66 473q2 11 -0.5 15t-12.5 5l-62 7l13 99h548l-34 -239l-150 6l-3 75q-1 13 -16 13h-76l-19 -142h195l-21 -151h-195l-21 -159q-2 -12 0 -15t12 -5l144 -8l-13 -99h-451z" />
    <glyph glyph-name="G" unicode="G" horiz-adv-x="720" 
d="M691 253q-17 -1 -18 -15l-26 -195q-71 -32 -145 -43.5t-137 -11.5q-87 0 -146 24.5t-96 66.5t-53 99t-16 121q0 96 27 176t80.5 138.5t133.5 91t187 32.5q25 0 56 -3.5t62.5 -11t60.5 -19t51 -27.5l-30 -221l-149 13l-2 85q0 11 -2.5 16t-11.5 7t-24.5 3t-28.5 1
q-45 0 -80 -20t-58.5 -56t-35.5 -85.5t-12 -108.5q0 -74 28 -120.5t93 -46.5q11 0 21.5 0.5t18.5 3.5q7 2 9 6t4 12l14 82h-87l32 115h334l-14 -105z" />
    <glyph glyph-name="H" unicode="H" horiz-adv-x="812" 
d="M415 0l14 98l62 7q11 2 14 5.5t5 14.5l24 169h-200l-24 -168q-2 -12 -0.5 -15t12.5 -5l65 -8l-13 -98h-372l14 98l63 7q11 2 14 5.5t5 14.5l65 472q2 11 -0.5 15t-13.5 5l-60 7l13 100h372l-14 -100l-67 -8q-11 -2 -13.5 -5t-4.5 -14l-20 -151h199l22 151q2 11 -0.5 15
t-13.5 5l-61 7l14 100h372l-15 -100l-66 -8q-11 -2 -13.5 -5t-4.5 -14l-66 -471q-2 -12 0 -15t13 -5l65 -8l-13 -98h-372z" />
    <glyph glyph-name="I" unicode="I" horiz-adv-x="400" 
d="M-5 0l11 98l73 7q11 1 13.5 5t4.5 15l67 472q2 11 -0.5 15t-13.5 5l-70 7l15 100h390l-15 -100l-75 -8q-12 -2 -14 -5t-4 -14l-67 -471q-1 -12 0 -15t12 -5l75 -8l-12 -98h-390z" />
    <glyph glyph-name="J" unicode="J" horiz-adv-x="524" 
d="M301 598q2 10 -1 13.5t-13 4.5l-92 8l14 100h403l-15 -100l-67 -8q-11 -2 -12.5 -5t-3.5 -14l-59 -419q-14 -97 -69.5 -143.5t-164.5 -46.5q-31 0 -62 3.5t-58 9.5t-48.5 13.5t-32.5 15.5l30 218l151 -11v-71q0 -12 6 -14q5 -1 13 -1q9 0 14.5 4t7.5 19z" />
    <glyph glyph-name="K" unicode="K" horiz-adv-x="763" 
d="M476 0l-5 5l-35 108l-50 136l-74 -77l-6 -45q-2 -12 0 -15.5t12 -4.5l67 -8l-13 -99h-371l13 99l64 7q11 1 14 4.5t5 15.5l66 472q2 11 -0.5 14.5t-12.5 5.5l-60 7l11 99h371l-10 -99l-69 -8q-11 -2 -13.5 -5t-4.5 -14l-30 -219l224 237l-61 8l13 100h292l-12 -100
l-33 -5q-14 -2 -19.5 -5.5t-13.5 -12.5l-175 -187l111 -284q5 -12 11 -15.5t17 -5.5l59 -10l-12 -99h-270z" />
    <glyph glyph-name="L" unicode="L" horiz-adv-x="614" 
d="M1 0l13 99l64 7q11 2 14 5.5t5 14.5l66 472q2 11 -0.5 15t-12.5 5l-60 7l11 99h388l-13 -99l-83 -8q-11 -1 -13.5 -4.5t-4.5 -14.5l-63 -454h99q8 0 11.5 1.5t6.5 9.5l31 109h150l-36 -264h-573z" />
    <glyph glyph-name="M" unicode="M" horiz-adv-x="962" 
d="M557 0l13 98l81 7q11 1 14 5t5 15l37 267l-6 1l-127 -266h-218l-57 260h-6l-36 -261q-2 -12 -1 -15.5t12 -4.5l83 -8l-14 -98h-336l13 98l63 7q11 1 14.5 4t5.5 16l66 473q2 11 -0.5 14.5t-12.5 5.5l-60 7l11 99h319l86 -427h5l201 427h325l-13 -98l-65 -8
q-13 -2 -15.5 -4.5t-3.5 -13.5l-68 -475q-2 -11 0.5 -14.5t12.5 -4.5l65 -8l-14 -98h-379z" />
    <glyph glyph-name="N" unicode="N" horiz-adv-x="809" 
d="M493 0l-206 438l-43 -312q-2 -12 0 -15t13 -5l64 -8l-12 -98h-308l14 98l63 7q11 2 14 5.5t5 14.5l66 474q2 11 0 15t-13 5l-60 7l11 98h294l205 -445l46 318q2 11 -1 15t-12 5l-61 7l13 100h306l-14 -100l-67 -8q-11 -2 -12.5 -5t-3.5 -14l-85 -597h-216z" />
    <glyph glyph-name="O" unicode="O" horiz-adv-x="762" 
d="M373 -12q-88 0 -149 21t-99 59t-55 91.5t-17 119.5q0 93 25 176.5t76 146t128 99t182 36.5q83 0 142.5 -22.5t97 -62t55 -94t17.5 -118.5q0 -105 -27.5 -188.5t-79 -142t-126.5 -90t-170 -31.5zM392 156q49 0 79.5 24t47.5 59t24.5 76t10.5 75q2 21 2 30.5v17.5
q0 72 -31.5 101.5t-80.5 29.5q-67 0 -107.5 -54t-57.5 -174q-2 -19 -2.5 -31t-0.5 -23q0 -28 6 -52t19.5 -41.5t36 -27.5t54.5 -10z" />
    <glyph glyph-name="P" unicode="P" horiz-adv-x="631" 
d="M1 0l15 99l63 7q11 2 14 5.5t5 14.5l65 471q2 11 -0.5 15t-13.5 5l-60 7l12 100h354q60 0 101.5 -14.5t67.5 -40t37.5 -61t11.5 -77.5q0 -67 -21.5 -118t-61.5 -85t-96.5 -51t-126.5 -17h-41l-17 -133q-2 -12 0 -15t12 -5l140 -8l-14 -99h-446zM354 403q13 0 30 3
t32 13.5t25.5 32t10.5 57.5q0 26 -8.5 40t-20 20.5t-24.5 7.5t-22 1h-7l-24 -175h8z" />
    <glyph glyph-name="Q" unicode="Q" horiz-adv-x="762" 
d="M696 -192q-23 -5 -46 -7t-43 -2q-45 0 -90 13.5t-87.5 29t-79.5 29t-65 13.5q-32 0 -71 -12.5t-74 -26.5l-54 128q23 14 59.5 27t66.5 19v4q-81 36 -120 97.5t-39 158.5q0 93 25 176.5t76 146t128 99t182 36.5q83 0 142.5 -22.5t97 -62t55 -94t17.5 -118.5
q0 -85 -21.5 -162.5t-66.5 -137t-114 -95t-164 -35.5h-4v-4q18 -8 42.5 -17t52.5 -16.5t57.5 -12.5t57.5 -5q19 0 40 1.5t44 5.5zM392 156q49 0 79.5 24t47.5 59t24.5 76t10.5 75q2 21 2 30.5v17.5q0 72 -31.5 101.5t-80.5 29.5q-67 0 -107.5 -54t-57.5 -174
q-2 -19 -2.5 -31t-0.5 -23q0 -28 6 -52t19.5 -41.5t36 -27.5t54.5 -10z" />
    <glyph glyph-name="R" unicode="R" horiz-adv-x="705" 
d="M425 0l-6 5l-43 231q-5 27 -15.5 37.5t-30.5 10.5l-22 -157q-2 -12 0 -15t12 -5l42 -7l-12 -100h-349l13 100l64 7q11 1 14 4.5t5 15.5l66 471q2 11 -0.5 14.5t-12.5 5.5l-60 7l11 99h365q59 0 100 -15t67 -40t38 -57.5t12 -67.5q0 -47 -13 -81t-34 -58.5t-47.5 -42
t-54.5 -31.5q23 -11 35 -27.5t19 -48.5l26 -123q2 -11 7 -15.5t16 -6.5l63 -10l-13 -100h-262zM357 420q19 0 37.5 3.5t33.5 13.5t24.5 29t9.5 49q0 29 -15 46t-49 17h-28l-21 -158h8z" />
    <glyph glyph-name="S" unicode="S" horiz-adv-x="612" 
d="M456 483l-2 75q0 16 -14 21q-18 7 -45 7q-36 0 -57 -12.5t-21 -40.5q0 -17 9 -28.5t24 -20.5t35.5 -15.5t42.5 -14.5q30 -10 62 -24t57.5 -37t42 -58.5t16.5 -88.5q0 -65 -25.5 -113.5t-69.5 -80.5t-103 -48t-126 -16q-35 0 -71 4t-68.5 10t-59.5 14t-43 16l32 226h154
l7 -98q1 -9 4.5 -13t14.5 -6q17 -3 46 -3q47 0 72 18t25 47q0 17 -9.5 28.5t-25.5 20.5t-37.5 16t-44.5 15q-30 10 -60.5 23.5t-55.5 36t-40.5 56t-15.5 82.5q0 65 24.5 113t66.5 79.5t97.5 47.5t118.5 16q72 0 128.5 -14.5t95.5 -32.5l-29 -220z" />
    <glyph glyph-name="T" unicode="T" horiz-adv-x="728" 
d="M129 0l13 99l103 8q10 1 13 5t5 15l62 451h-50q-8 0 -11 -1.5t-5 -9.5l-28 -87h-151l34 244h674l-33 -244h-150l-4 87q-1 8 -3 9.5t-11 1.5h-49l-62 -451q-2 -11 -0.5 -14.5t12.5 -4.5l107 -9l-13 -99h-453z" />
    <glyph glyph-name="U" unicode="U" horiz-adv-x="783" 
d="M582 598q2 11 -0.5 15t-12.5 5l-61 7l13 99h337l-13 -99l-69 -8q-11 -2 -13 -5t-3 -14l-46 -321q-22 -154 -104.5 -221.5t-216.5 -67.5q-140 0 -211 53.5t-71 174.5q0 16 1.5 32.5t3.5 34.5l44 315q2 11 -0.5 15t-11.5 5l-61 7l13 99h372l-13 -99l-69 -8q-11 -2 -12.5 -5
t-3.5 -14l-41 -276q-6 -46 -6 -82q0 -18 3 -33.5t11.5 -26.5t24 -17.5t41.5 -6.5q35 0 58.5 10t39 30.5t24 52t14.5 73.5z" />
    <glyph glyph-name="V" unicode="V" horiz-adv-x="767" 
d="M241 0l-99 598q-2 9 -7.5 12t-14.5 5l-42 11l14 98h369l-15 -98l-79 -9l60 -430h5l166 430l-72 9l13 98h312l-15 -98l-43 -11q-8 -2 -16 -8t-11 -14l-246 -593h-279z" />
    <glyph glyph-name="W" unicode="W" horiz-adv-x="1073" 
d="M590 0l-17 300h-5l-99 -300h-278l-50 585q-2 18 -6.5 22t-18.5 8l-38 11l14 98h352l-14 -98l-78 -9l22 -446l5 -1l159 432h199l29 -431l4 -1l134 447l-74 9l14 98h312l-15 -98l-44 -11q-10 -2 -17 -7.5t-12 -20.5l-199 -587h-279z" />
    <glyph glyph-name="X" unicode="X" horiz-adv-x="830" 
d="M402 0l15 98l75 9l-88 126l-122 -126l78 -9l-14 -98h-333l14 98l66 11q9 2 15 6.5t13 12.5l212 215l-173 255q-7 13 -21 17l-54 11l16 98h397l-14 -98l-80 -9l91 -136l131 136l-76 9l16 98h313l-13 -98l-55 -11q-9 -2 -15 -6.5t-13 -12.5l-216 -224l170 -246
q7 -9 13 -13.5t15 -6.5l47 -8l-14 -98h-396z" />
    <glyph glyph-name="Y" unicode="Y" horiz-adv-x="720" 
d="M135 0l13 99l104 7q10 1 13 5t5 15l19 134l-146 338q-4 12 -22 17l-42 11l15 98h362l-15 -98l-70 -9l66 -185h4l117 185l-71 9l15 98h299l-14 -98l-43 -11q-9 -2 -16.5 -5.5t-10.5 -12.5l-215 -336l-20 -135q-2 -11 0 -14.5t13 -4.5l110 -8l-13 -99h-457z" />
    <glyph glyph-name="Z" unicode="Z" horiz-adv-x="686" 
d="M32 0l19 134l384 445h-137q-8 0 -11.5 -1.5t-5.5 -9.5l-29 -92l-151 -5l36 253h570l-19 -138l-376 -442h160q8 0 11 1.5t7 9.5l33 107h145l-36 -262h-600z" />
    <glyph glyph-name="bracketleft" unicode="[" horiz-adv-x="352" 
d="M15 -143l122 867h277l-10 -94l-61 -13q-10 -2 -13.5 -7t-5.5 -14l-86 -611q-3 -18 13 -21l64 -13l-17 -94h-283z" />
    <glyph glyph-name="backslash" unicode="\" horiz-adv-x="504" 
d="M280 -92l-160 847h192l161 -847h-193z" />
    <glyph glyph-name="bracketright" unicode="]" horiz-adv-x="355" 
d="M-6 -143l11 94l63 13q11 2 14 7t5 14l85 611q2 9 -0.5 14t-12.5 7l-60 13l17 94h281l-122 -867h-281z" />
    <glyph glyph-name="asciicircum" unicode="^" horiz-adv-x="669" 
d="M471 299l-81 195l-132 -195h-196l248 365h213l147 -365h-199z" />
    <glyph glyph-name="underscore" unicode="_" 
d="M-25 -181l20 146h500l-20 -146h-500z" />
    <glyph glyph-name="grave" unicode="`" 
d="M389 555l-160 152l118 95l126 -183z" />
    <glyph glyph-name="a" unicode="a" horiz-adv-x="630" 
d="M365 0l10 71l-5 2q-48 -45 -86 -65t-88 -20q-76 0 -115.5 51.5t-39.5 158.5q0 55 13.5 115t43.5 110.5t78.5 83t118.5 32.5q42 0 74 -14.5t58 -43.5l22 47h173q-7 -35 -13.5 -70t-11.5 -70l-36 -263q-2 -11 0 -14t13 -5l44 -7l-14 -99h-239zM396 364q-12 9 -25.5 14.5
t-25.5 5.5q-27 0 -43.5 -20.5t-25.5 -48.5t-12.5 -56.5t-3.5 -45.5q0 -21 4 -37t23 -16q17 0 41 12t46 31z" />
    <glyph glyph-name="b" unicode="b" horiz-adv-x="624" 
d="M34 0q12 37 20.5 73t16.5 76l65 462q1 16 -10 21l-48 20l16 103h261l-42 -293l5 -4q45 45 84 63t79 18q66 0 105.5 -44t39.5 -149q0 -60 -10.5 -123.5t-38 -115.5t-74 -85.5t-118.5 -33.5q-39 0 -74 13.5t-59 46.5l-5 -1l-12 -47h-201zM278 162q14 -6 29 -10.5t29 -4.5
q19 0 32 13.5t21 35t11.5 48.5t3.5 53q0 28 -4.5 47.5t-22.5 19.5q-14 0 -33 -10.5t-43 -28.5z" />
    <glyph glyph-name="c" unicode="c" horiz-adv-x="516" 
d="M481 45q-43 -25 -98 -41t-114 -16q-60 0 -103.5 17t-71.5 47t-41.5 72t-13.5 92q0 78 23.5 138.5t65.5 101.5t99.5 62t125.5 21q29 0 57.5 -4.5t53.5 -11.5t45 -16.5t33 -20.5l-26 -181l-139 5l-3 66q-1 9 -2.5 13.5t-8.5 6.5q-13 3 -26 3q-16 0 -30.5 -8.5t-26 -27.5
t-18.5 -50.5t-7 -77.5q0 -30 6 -48.5t16 -29t23.5 -14t27.5 -3.5q35 0 69 9.5t54 15.5z" />
    <glyph glyph-name="d" unicode="d" horiz-adv-x="632" 
d="M365 0l10 72l-5 2q-24 -23 -45 -39.5t-41.5 -27t-41.5 -15t-46 -4.5q-75 0 -115 50t-40 156q0 53 13.5 113.5t43.5 112t78.5 85.5t119.5 34q42 0 69.5 -8.5t52.5 -25.5l14 106q1 8 -0.5 12.5t-9.5 8.5l-47 20l17 103h256l-87 -630q-2 -11 0 -14t13 -5l44 -7l-14 -99h-239
zM397 371q-12 6 -25.5 9.5t-21.5 3.5q-28 0 -45.5 -20t-27.5 -48t-13.5 -58.5t-3.5 -52.5q0 -15 3.5 -30t23.5 -15q15 0 39.5 11.5t47.5 31.5z" />
    <glyph glyph-name="e" unicode="e" horiz-adv-x="529" 
d="M502 46q-58 -25 -116 -41.5t-118 -16.5q-63 0 -107 17t-71 47t-39 70t-12 86q0 89 26.5 152t70 103t100.5 58t117 18q88 0 137.5 -36t49.5 -109q0 -47 -23.5 -81t-63 -56.5t-91 -36t-107.5 -19.5q4 -28 19.5 -45.5t53.5 -17.5q18 0 57.5 9.5t88.5 26.5zM253 315
q19 4 37.5 9t33.5 13t24 19t9 26q0 22 -29 22q-21 0 -44 -19.5t-31 -69.5z" />
    <glyph glyph-name="f" unicode="f" horiz-adv-x="457" 
d="M30 -212l84 598q2 10 -7 10h-60l18 132h69l6 37q9 58 29 96.5t49.5 62t67.5 33.5t84 10q21 0 47 -3.5t52.5 -10.5t51.5 -17.5t44 -24.5l-71 -126q-7 4 -18 10t-24.5 11.5t-27.5 9.5t-28 4q-41 0 -47 -35l-8 -47q-1 -5 0 -7.5t7 -2.5h149l-19 -132h-156l-85 -608h-207z
" />
    <glyph glyph-name="g" unicode="g" horiz-adv-x="607" 
d="M370 71l-6 3q-44 -35 -81 -55t-87 -20q-76 0 -115.5 46.5t-39.5 152.5q0 56 13.5 116t43.5 110t79 82.5t119 32.5q79 0 131 -58l22 47h173q-6 -33 -13 -68t-12 -69l-54 -389q-9 -63 -33 -106t-59.5 -69.5t-80.5 -38.5t-96 -12q-42 0 -81.5 7.5t-72 18t-56 22t-33.5 19.5
l62 119q7 -5 23.5 -12.5t38.5 -15t48 -13t51 -5.5q54 0 79 24t31 78zM396 364q-12 9 -25.5 14.5t-25.5 5.5q-26 0 -42.5 -20.5t-26 -48t-13 -56t-3.5 -45.5q0 -22 5 -32.5t25 -10.5q16 0 40 8.5t44 23.5z" />
    <glyph glyph-name="h" unicode="h" horiz-adv-x="622" 
d="M341 0l-4 6l18 112l28 210q3 20 -1.5 28t-15.5 8t-28.5 -11.5t-29.5 -24.5l-29 -202q-2 -12 0 -15t13 -5l30 -7l-13 -99h-305l13 100l40 6q9 2 12 5.5t5 14.5l68 485q3 17 -9 21l-45 20l15 103h253l-40 -293l5 -3q17 15 34.5 29.5t36.5 25.5t40 18t46 7q139 0 115 -170
l-34 -243q-2 -12 -0.5 -15t12.5 -5l43 -7l-13 -99h-260z" />
    <glyph glyph-name="i" unicode="i" horiz-adv-x="341" 
d="M223 576q-48 0 -73 25.5t-25 72.5q0 63 34.5 98t96.5 35q48 0 74.5 -24.5t26.5 -71.5q0 -63 -35.5 -99t-98.5 -36zM50 0l-3 6l27 156l31 222q3 17 -10 21l-46 20l15 103h268l-56 -402q-2 -12 0 -15t13 -5l36 -7l-12 -99h-263z" />
    <glyph glyph-name="j" unicode="j" horiz-adv-x="341" 
d="M109 384q1 15 -10 21l-45 20l14 103h265l-77 -568q-7 -50 -25.5 -85t-48 -57t-68 -31.5t-84.5 -9.5q-37 0 -67.5 7t-54 16.5t-38.5 19.5t-21 16l64 108q11 -5 32.5 -13.5t47.5 -8.5q10 0 19 1t17.5 8t14.5 21t10 40zM224 576q-48 0 -73.5 25.5t-25.5 72.5q0 63 35 98
t97 35q48 0 74.5 -24.5t26.5 -71.5q0 -63 -35.5 -99t-98.5 -36z" />
    <glyph glyph-name="k" unicode="k" horiz-adv-x="635" 
d="M392 0l-5 4l-30 118l-36 118l-26 -24l-13 -90q-2 -12 0 -15t13 -5l35 -7l-12 -99h-314l12 100l42 6q9 2 12.5 5.5t5.5 14.5l67 485q1 16 -10 21l-47 20l15 103h268l-50 -373l104 89q27 24 49 37.5t40 20t34 8.5t31 2q19 0 36 -2t36 -7l-14 -117q-29 2 -52.5 -5t-46.5 -26
l-33 -27l74 -234q3 -11 10 -14t18 -5l34 -5l-13 -97h-234z" />
    <glyph glyph-name="l" unicode="l" horiz-adv-x="341" 
d="M48 0l-3 6l27 156l63 449q3 17 -9 21l-46 20l15 103h268l-89 -629q-2 -12 0 -15t13 -5l36 -7l-12 -99h-263z" />
    <glyph glyph-name="m" unicode="m" horiz-adv-x="864" 
d="M584 0l-4 5l44 320q3 20 0 26t-9 6q-7 0 -20.5 -8.5t-26.5 -20.5l-30 -206q-2 -10 0 -14t10 -6l20 -3l-14 -99h-230l-5 5l44 324q4 29 -10 29q-8 0 -19.5 -7.5t-25.5 -21.5l-28 -205q-2 -12 -0.5 -15.5t8.5 -5.5l17 -4l-13 -99h-288l13 100l39 6q10 2 13 5.5t5 14.5
l35 258q2 8 0.5 13t-9.5 8l-45 20l15 103h245l-9 -66l5 -2q16 13 34.5 27t39 25.5t43 19t47.5 7.5q82 0 93 -73l6 -3q17 14 34.5 27.5t37 24t41.5 17.5t48 7q38 0 60.5 -14t33 -37t11 -54t-4.5 -66l-34 -242q-2 -12 -0.5 -15t12.5 -5l43 -7l-13 -99h-259z" />
    <glyph glyph-name="n" unicode="n" horiz-adv-x="621" 
d="M344 0l-7 7l19 127l26 194q3 20 -1.5 28t-15.5 8t-27.5 -12t-29.5 -24l-28 -202q-2 -12 0 -15.5t13 -5.5l26 -6l-13 -99h-302l13 100l39 6q10 2 13 5.5t5 14.5l35 258q2 8 0.5 13t-9.5 8l-45 20l15 103h245l-9 -66l5 -2q18 16 36 30.5t38 25t43 17t51 6.5
q70 0 97.5 -44.5t16.5 -125.5l-34 -243q-2 -12 -0.5 -15t11.5 -5l44 -7l-13 -99h-257z" />
    <glyph glyph-name="o" unicode="o" horiz-adv-x="599" 
d="M283 -12q-64 0 -110.5 16.5t-76.5 45.5t-44 69.5t-14 89.5q0 15 1.5 30t3.5 32q8 61 32.5 110.5t65 84.5t97.5 54t130 19q66 0 110.5 -17t72.5 -47t40 -71t12 -88q0 -13 -1 -26t-3 -27q-8 -63 -30.5 -114t-61.5 -86.5t-94.5 -55t-129.5 -19.5zM301 128q12 0 24.5 5
t23 19.5t18.5 40t13 66.5q2 18 3 33.5t1 27.5q0 43 -12.5 59.5t-32.5 16.5q-12 0 -24 -5t-22.5 -19t-19 -39t-14.5 -64q-3 -19 -4 -36t-1 -30q0 -44 13 -59.5t34 -15.5z" />
    <glyph glyph-name="p" unicode="p" horiz-adv-x="626" 
d="M16 -212l-1 4l30 165l61 427q3 15 -10 21l-44 20l14 103h247l-11 -67l6 -2q46 45 87.5 62.5t80.5 17.5q34 0 62 -11t48 -35.5t31 -64t11 -95.5q0 -98 -20 -164t-53 -106.5t-75 -57.5t-86 -17q-46 0 -79 15.5t-50 27.5l-4 -2l-19 -118q-3 -13 15 -14l110 -11l-14 -98h-337
zM280 160q31 -13 58 -13q19 0 32 14t21.5 36.5t12 50t3.5 53.5q0 28 -5.5 45.5t-21.5 17.5q-14 0 -32.5 -10.5t-43.5 -28.5z" />
    <glyph glyph-name="q" unicode="q" horiz-adv-x="609" 
d="M219 -212l14 99l97 8q22 1 25 17l22 159l-4 3q-35 -34 -76.5 -60t-95.5 -26q-80 0 -119 50t-39 160q0 56 13.5 116t43.5 110t78.5 82.5t118.5 32.5q43 0 74.5 -14.5t56.5 -43.5l22 47h173q-6 -33 -12.5 -68t-11.5 -69l-67 -479q-2 -11 0 -14t13 -5l44 -7l-13 -98h-357z
M397 364q-12 9 -25 14.5t-25 5.5q-27 0 -43.5 -20.5t-26 -48t-13 -56t-3.5 -45.5q0 -22 4 -38t24 -16q11 0 37.5 11.5t48.5 31.5z" />
    <glyph glyph-name="r" unicode="r" horiz-adv-x="515" 
d="M4 0l13 100l41 6q11 2 13.5 5.5t4.5 14.5l36 258q1 16 -10 21l-47 20l15 103h247l-13 -79l6 -3q62 93 151 93q8 0 20.5 -1t25.5 -2.5t25 -3t18 -3.5l-28 -212l-166 6l-3 35q-1 13 -9 13q-13 0 -27 -7l-34 -236q-2 -12 1 -15.5t14 -4.5l100 -9l-14 -99h-380z" />
    <glyph glyph-name="s" unicode="s" horiz-adv-x="508" 
d="M357 363l-2 37q-1 13 -14 16q-9 2 -16.5 3t-19.5 1q-48 0 -48 -28q0 -20 23.5 -31.5t59.5 -19.5q29 -6 58 -16t52 -28t38 -45.5t15 -68.5q0 -56 -24 -93.5t-63.5 -60t-89.5 -32t-101 -9.5q-36 0 -70 4t-61.5 10t-46.5 12.5t-25 11.5l20 144l141 -9l3 -46q1 -8 4.5 -12
t13.5 -6q17 -3 47 -3q32 0 46.5 9.5t14.5 26.5q0 24 -26 33.5t-66 17.5q-27 6 -55 15.5t-50.5 28t-37 47.5t-14.5 74q0 51 22.5 87.5t59 60t83 34.5t95.5 11q31 0 61.5 -3t57.5 -7.5t48 -10.5t33 -11l-22 -152z" />
    <glyph glyph-name="t" unicode="t" horiz-adv-x="455" 
d="M435 35q-38 -19 -91 -33t-101 -14q-88 0 -125.5 30t-37.5 101q0 13 1 27t3 30l29 210q1 10 -10 10h-63l18 125q75 7 116.5 49t61.5 130h128l-24 -162q-1 -10 8 -10h132l-17 -132h-141l-26 -182q-3 -18 -3 -29q0 -25 12.5 -36t42.5 -11q18 0 35 3.5t33 8.5z" />
    <glyph glyph-name="u" unicode="u" horiz-adv-x="620" 
d="M351 0l9 66l-5 3q-16 -15 -34.5 -29.5t-38.5 -26t-43 -18.5t-50 -7q-54 0 -86 31t-32 100q0 10 0.5 19.5t1.5 20.5l35 243q2 12 0.5 15t-12.5 5l-45 7l14 99h259l4 -9l-44 -319q-3 -21 1 -28.5t18 -7.5q12 0 27.5 10.5t28.5 22.5l27 205q2 12 -0.5 16t-13.5 7l-17 4
l13 99h235l8 -10l-55 -389q-2 -8 -0.5 -14t9.5 -8l46 -8l-14 -99h-246z" />
    <glyph glyph-name="v" unicode="v" horiz-adv-x="621" 
d="M176 0l-79 403q-3 9 -6.5 12t-12.5 5l-38 9l13 99h244l12 -12l14 -122l23 -216h5l105 244l-66 8l14 98h232l18 -48l-238 -480h-240z" />
    <glyph glyph-name="w" unicode="w" horiz-adv-x="901" 
d="M511 0l-25 291h-3l-78 -291h-249l-60 404q-2 10 -6 12.5t-12 4.5l-38 9l17 98h238l11 -12l6 -97l19 -229h4l96 326h213l32 -328h3l87 237l-47 5l16 98h184l17 -46l-198 -482h-227z" />
    <glyph glyph-name="x" unicode="x" horiz-adv-x="620" 
d="M391 0l-12 8l-96 152l-54 -54l44 -9l-11 -97h-254l11 95l34 7q8 2 15 5.5t15 11.5l135 133l-98 148q-5 7 -8 10t-11 7l-47 12l15 99h201l15 -11l88 -144l55 50l-42 7l17 98h262l-14 -98l-40 -9q-8 -2 -16 -7t-18 -13l-139 -124l103 -152q5 -8 10 -12t13 -6l57 -9l-16 -98
h-214z" />
    <glyph glyph-name="y" unicode="y" horiz-adv-x="612" 
d="M220 -10l-120 413q-3 9 -6.5 12t-11.5 5l-39 8l15 100h222l15 -16l29 -133l37 -175h5l92 217l-61 7l16 100h213l19 -48l-283 -566q-34 -70 -87 -103.5t-142 -33.5q-31 0 -58.5 6t-49 15t-36.5 19t-23 17l64 111q20 -13 44.5 -22t51.5 -9q29 0 46 11t31 34z" />
    <glyph glyph-name="z" unicode="z" horiz-adv-x="548" 
d="M20 0l16 114l274 293h-81q-7 0 -10 -2t-7 -10l-18 -49l-138 -5l26 187h476l-17 -116l-267 -292h84q6 0 10 2.5t7 10.5l20 62l142 6l-28 -201h-489z" />
    <glyph glyph-name="braceleft" unicode="{" horiz-adv-x="379" 
d="M321 -151q-133 -2 -195 23.5t-62 95.5q0 35 7 65t15.5 57t16 53.5t7.5 55.5q0 19 -11.5 28.5t-37.5 11.5l14 99q36 4 49.5 18t18.5 51q5 42 3.5 77.5t-1.5 63.5q0 68 19.5 104.5t55.5 53.5t87.5 20t115.5 3l6 -104q-21 -3 -34 -7.5t-20.5 -14.5t-10.5 -25.5t-3 -39.5
q0 -20 1.5 -43t1.5 -58q0 -63 -19.5 -97.5t-59.5 -51.5q23 -11 35 -34t12 -52q0 -30 -7.5 -55t-15.5 -48.5t-15 -46.5t-7 -48t14.5 -36.5t43.5 -16.5z" />
    <glyph glyph-name="bar" unicode="|" horiz-adv-x="288" 
d="M11 -143l126 899h192l-126 -899h-192z" />
    <glyph glyph-name="braceright" unicode="}" horiz-adv-x="383" 
d="M118 727q133 2 195 -23.5t62 -95.5q0 -35 -7 -65t-15.5 -57t-16 -53.5t-7.5 -55.5q0 -19 11.5 -28.5t37.5 -11.5l-14 -99q-36 -4 -49.5 -18t-18.5 -51q-5 -42 -3.5 -77.5t1.5 -63.5q0 -68 -19.5 -104.5t-55.5 -53.5t-87.5 -20t-115.5 -3l-6 104q21 3 34 7.5t20.5 14.5
t10.5 25.5t3 39.5q0 20 -1.5 43t-1.5 58q0 63 19.5 97.5t59.5 51.5q-23 11 -35 34t-12 52q0 30 7.5 55t15.5 48.5t15 46.5t7 48t-14.5 36.5t-43.5 16.5z" />
    <glyph glyph-name="asciitilde" unicode="~" horiz-adv-x="566" 
d="M594 455q-26 -93 -63.5 -131.5t-88.5 -38.5q-27 0 -55 7t-55 16t-52 16t-47 7q-24 0 -40.5 -8.5t-37.5 -34.5l-89 49q10 32 27 61t38.5 51t47 35t51.5 13q29 0 55.5 -7t51.5 -16t49.5 -16t48.5 -7q23 0 35.5 8t26.5 36z" />
    <glyph glyph-name="uni00A0" unicode="&#xa0;" horiz-adv-x="182" 
 />
    <glyph glyph-name="sterling" unicode="&#xa3;" horiz-adv-x="568" 
d="M29 0l-8 121q18 5 32.5 10t26.5 17.5t21.5 35.5t15.5 65l1 13h-62l18 148h60l6 42q6 42 20.5 80t43.5 67t74.5 46.5t114.5 17.5t121.5 -18.5t95.5 -60.5l-103 -112q-33 29 -59 36t-45 7q-18 0 -28.5 -4.5t-16.5 -14t-9.5 -24t-6.5 -33.5l-5 -29h109l-20 -148h-104
q-5 -37 -23 -72t-54 -64h141q6 0 8 4.5t4 8.5l23 73h144l-30 -212h-506z" />
    <glyph glyph-name="currency" unicode="&#xa4;" horiz-adv-x="570" 
d="M482 -13l-83 83q-22 -10 -49 -16t-57 -6q-32 0 -59 6t-49 17l-83 -84l-104 105l83 88q-9 23 -13 48.5t-4 49.5q0 23 4 47.5t14 45.5l-81 86l107 106l80 -80q48 25 111 25q30 0 58.5 -5.5t51.5 -16.5l77 76l103 -104l-77 -82q9 -21 12.5 -45t3.5 -49t-5 -52.5t-16 -50.5
l82 -86zM297 191q35 0 52.5 25.5t17.5 61.5q0 40 -18 62.5t-54 22.5q-35 0 -52.5 -23.5t-17.5 -61.5q0 -36 17 -61.5t55 -25.5z" />
    <glyph glyph-name="brokenbar" unicode="&#xa6;" horiz-adv-x="288" 
d="M11 -143l54 388h192l-54 -388h-192zM90 420l47 335h192l-47 -335h-192z" />
    <glyph glyph-name="section" unicode="&#xa7;" horiz-adv-x="595" 
d="M190 -14q1 -8 4.5 -13.5t14.5 -8.5q13 -4 50 -4q34 0 49 10t15 25q0 13 -8 22t-22 15t-32.5 10.5t-38.5 9.5q-27 6 -54 14.5t-49 23.5t-36 38t-14 59q0 57 26.5 93.5t64.5 63.5q-22 17 -34.5 47t-12.5 59q0 51 21 86.5t56 58t81.5 33t98.5 10.5q37 0 71.5 -3t63.5 -8
t51 -10.5t34 -10.5l-23 -152l-141 8l-2 35q0 16 -12 20q-8 3 -21 4t-28 1q-25 0 -41.5 -9.5t-16.5 -29.5q0 -11 8 -19t21 -14t30.5 -10.5t36.5 -9.5q27 -7 54.5 -16.5t50 -25.5t37 -41.5t14.5 -63.5q0 -48 -23 -82t-58 -59q17 -14 29 -37t12 -49q0 -55 -23 -93t-62 -61.5
t-90 -33.5t-107 -10q-38 0 -72 4t-62 10t-47.5 12.5t-28.5 10.5l21 143l142 -9zM361 197q8 6 16.5 15.5t8.5 21.5q0 17 -16.5 24.5t-44.5 15.5l-62 19q-11 -9 -18 -18t-7 -23q0 -16 18 -24t47 -16z" />
    <glyph glyph-name="dieresis" unicode="&#xa8;" 
d="M438 587q-35 0 -53.5 19t-18.5 53q0 46 25 71t70 25q35 0 54.5 -18t19.5 -52q0 -46 -25.5 -72t-71.5 -26zM224 587q-35 0 -53.5 19t-18.5 53q0 46 25 71t70 25q35 0 54.5 -18t19.5 -52q0 -46 -25.5 -72t-71.5 -26z" />
    <glyph glyph-name="copyright" unicode="&#xa9;" horiz-adv-x="778" 
d="M748 326q0 -76 -25 -138.5t-69.5 -106.5t-107 -68.5t-137.5 -24.5q-84 0 -147 25t-106 68.5t-64.5 102.5t-21.5 128q0 80 26.5 142.5t73 105.5t108.5 66t133 23q78 0 140.5 -23t106 -65t67 -101.5t23.5 -133.5zM411 76q111 0 173.5 63.5t62.5 180.5q0 63 -17.5 108.5
t-49 75t-75 44t-94.5 14.5t-94.5 -17t-75.5 -49.5t-50 -78.5t-18 -104q0 -116 62.5 -176.5t175.5 -60.5zM535 156q-20 -12 -53.5 -18t-63.5 -6q-51 0 -86.5 13.5t-57 37.5t-31.5 57.5t-10 73.5q0 91 47 140.5t140 49.5q34 0 66 -6.5t50 -13.5v-117h-62l-8 52q-20 8 -44 8
q-40 0 -59.5 -24.5t-19.5 -85.5q0 -21 3.5 -40.5t12.5 -34.5t25 -24t41 -9t41 8l8 51h61v-112z" />
    <glyph glyph-name="guillemotleft" unicode="&#xab;" horiz-adv-x="496" 
d="M316 103l-62 152l110 153h161l-103 -140q-5 -6 -5.5 -9.5t1.5 -9.5l58 -146h-160zM98 103l-62 152l110 153h161l-103 -140q-5 -6 -5.5 -9.5t1.5 -9.5l58 -146h-160z" />
    <glyph glyph-name="logicalnot" unicode="&#xac;" horiz-adv-x="570" 
d="M354 152l14 95h-256l21 153h397l-35 -248h-141z" />
    <glyph glyph-name="uni00AD" unicode="&#xad;" horiz-adv-x="311" 
d="M39 207l23 165h271l-23 -165h-271z" />
    <glyph glyph-name="registered" unicode="&#xae;" horiz-adv-x="457" 
d="M478 480q0 -43 -14.5 -79t-41 -61.5t-62.5 -40t-79 -14.5q-48 0 -84.5 14.5t-61 40t-37.5 59.5t-13 74q0 45 15.5 81.5t42 62t62.5 39t77 13.5q45 0 81.5 -13.5t62 -38.5t39 -60t13.5 -77zM420 477q0 68 -39 103t-99 35q-29 0 -54 -9.5t-44 -27.5t-29.5 -44.5
t-10.5 -59.5q0 -63 37 -99t101 -36t101 37t37 101zM310 384l-17 59q-2 8 -5.5 10.5t-10.5 2.5h-8v-33q0 -6 6 -7l13 -2v-30h-90v30l13 2q5 1 5 7v111q0 6 -5 7l-13 2v32h90q42 0 57.5 -16.5t15.5 -37.5q0 -20 -10 -32.5t-23 -16.5q5 -2 10 -6t9 -14l10 -30q2 -5 8 -6l13 -2
v-30h-68zM283 493q12 0 18.5 4.5t6.5 18.5t-8 17.5t-16 3.5h-15v-44h14z" />
    <glyph glyph-name="macron" unicode="&#xaf;" 
d="M173 587l19 130h327l-19 -130h-327z" />
    <glyph glyph-name="degree" unicode="&#xb0;" horiz-adv-x="285" 
d="M197 623q22 0 35.5 14.5t13.5 36.5q0 20 -10 30.5t-25 10.5q-17 0 -33 -12.5t-16 -38.5q0 -17 9 -29t26 -12zM332 686q0 -32 -11.5 -58.5t-31.5 -45t-46.5 -28.5t-55.5 -10q-50 0 -80.5 31.5t-30.5 79.5q0 32 11.5 57.5t31.5 43.5t46.5 28t56.5 10q48 0 79 -29.5
t31 -78.5z" />
    <glyph glyph-name="plusminus" unicode="&#xb1;" horiz-adv-x="570" 
d="M402 248l-14 -96h121l-21 -152h-397l21 152h120l14 96h-120l21 153h120l18 130h157l-19 -130h121l-21 -153h-121z" />
    <glyph glyph-name="mu" unicode="&#xb5;" horiz-adv-x="657" 
d="M386 0l8 53l-4 2q-26 -25 -55 -41t-66 -27l-6 -163h-220l100 704h211l-46 -328q-5 -32 1 -42.5t23 -10.5q11 0 21 2.5t21 5.5l52 373h211l-57 -401q-2 -10 0 -14t11 -6l46 -7l-13 -100h-238z" />
    <glyph glyph-name="paragraph" unicode="&#xb6;" horiz-adv-x="700" 
d="M492 528h-50l-68 -472h-41q-115 0 -177.5 64.5t-62.5 186.5q0 78 24 140.5t69.5 106.5t111 67.5t149.5 23.5h299l-15 -98l-68 -8q-11 -2 -13.5 -5t-4.5 -14l-71 -504q-9 -60 -30.5 -102t-53 -68t-72.5 -37.5t-88 -11.5q-46 0 -84 7.5t-67 18t-49 21.5t-30 19l61 113
q7 -5 23 -12.5t37 -15t46 -13t50 -5.5q46 0 70 25t32 79z" />
    <glyph glyph-name="periodcentered" unicode="&#xb7;" horiz-adv-x="283" 
d="M292 356q0 -51 -28.5 -80.5t-91.5 -29.5q-94 0 -94 75q0 52 28.5 81.5t92.5 29.5q93 0 93 -76z" />
    <glyph glyph-name="cedilla" unicode="&#xb8;" 
d="M130 -184q4 -2 13.5 -3t20.5 -1q20 0 37.5 9t17.5 34t-18 31t-38 7l36 137l84 -8l-17 -68q11 -3 24 -9.5t24 -17.5t19 -28t8 -42q0 -32 -13.5 -57t-36 -42t-51.5 -25.5t-60 -8.5q-35 0 -52.5 5t-15.5 4z" />
    <glyph glyph-name="guillemotright" unicode="&#xbb;" horiz-adv-x="496" 
d="M238 103l99 146q4 6 4.5 9.5t-2.5 9.5l-66 140h162l68 -152l-107 -153h-158zM20 103l99 146q4 6 4.5 9.5t-2.5 9.5l-66 140h162l68 -152l-107 -153h-158z" />
    <glyph glyph-name="multiply" unicode="&#xd7;" horiz-adv-x="570" 
d="M314 212l-105 -92l-95 110l106 92l-80 92l126 111l79 -92l106 92l95 -111l-105 -92l79 -92l-126 -110z" />
    <glyph glyph-name="divide" unicode="&#xf7;" horiz-adv-x="570" 
d="M393 149q0 -42 -25.5 -68.5t-79.5 -26.5q-43 0 -63.5 18.5t-20.5 51.5q0 39 26.5 68.5t80.5 29.5q43 0 62.5 -21.5t19.5 -51.5zM114 245l22 152h397l-22 -152h-397zM442 514q0 -42 -25.5 -68.5t-79.5 -26.5q-43 0 -63.5 18.5t-20.5 51.5q0 40 26.5 69t80.5 29
q43 0 62.5 -21t19.5 -52z" />
    <glyph glyph-name="florin" unicode="&#x192;" horiz-adv-x="639" 
d="M376 263l-49 -164q-22 -74 -51 -119t-63.5 -69t-75 -32t-85.5 -8q-60 0 -109.5 17.5t-77.5 43.5l70 123q24 -20 51 -32t57 -12q15 0 28 3t23.5 12t20.5 27t19 48l48 152q3 10 -5 10h-87l37 122h96l27 87q17 57 39.5 94t51.5 58.5t66.5 30t85.5 8.5q57 0 111.5 -14.5
t97.5 -38.5l-48 -164l-125 12l8 57q-2 5 -2.5 8t-8.5 5q-15 5 -29 5q-20 0 -32.5 -11.5t-22.5 -42.5l-25 -84q-3 -10 7 -10h107l-36 -122h-119z" />
    <glyph glyph-name="circumflex" unicode="&#x2c6;" 
d="M437 556l-92 85l-118 -85l-70 65l137 136h124l100 -136z" />
    <glyph glyph-name="caron" unicode="&#x2c7;" 
d="M394 574h-124l-100 136l80 65l94 -85l116 85l71 -65z" />
    <glyph glyph-name="uni02C9" unicode="&#x2c9;" 
d="M170 587l18 130h327l-18 -130h-327z" />
    <glyph glyph-name="breve" unicode="&#x2d8;" 
d="M526 703q-25 -66 -69.5 -103t-122.5 -37t-116.5 36t-45.5 104l98 34q7 -32 26.5 -45.5t46.5 -13.5t48.5 14t40.5 46z" />
    <glyph glyph-name="dotaccent" unicode="&#x2d9;" 
d="M331 581q-48 0 -73 25.5t-25 72.5q0 63 34.5 98t96.5 35q48 0 74.5 -24.5t26.5 -71.5q0 -63 -35.5 -99t-98.5 -36z" />
    <glyph glyph-name="ring" unicode="&#x2da;" 
d="M348 779q42 0 73.5 -25t31.5 -72q0 -58 -38.5 -93.5t-98.5 -35.5q-48 0 -78 28t-30 74q0 57 38.5 90.5t101.5 33.5zM326 624q32 0 41 16.5t9 33.5q0 21 -12 28.5t-26 7.5q-22 0 -36.5 -11.5t-14.5 -37.5q0 -18 12 -27.5t27 -9.5z" />
    <glyph glyph-name="ogonek" unicode="&#x2db;" 
d="M370 -217q-41 -18 -79.5 -25t-67.5 -7q-60 0 -85 24t-25 59q0 33 15.5 61t39 52t52 43t54.5 34l82 -21l-25 -22.5t-29 -29t-23.5 -32t-9.5 -31.5q0 -10 4.5 -16.5t18.5 -6.5q9 0 25 2.5t33 7.5z" />
    <glyph glyph-name="tilde" unicode="&#x2dc;" 
d="M506 642q-19 -31 -37 -50.5t-45 -19.5q-21 0 -46.5 7.5t-60.5 18.5q-17 5 -32.5 9.5t-20.5 4.5q-8 0 -19 -11l-26 -26l-69 44l38 59q17 26 36.5 41.5t43.5 15.5q14 0 33 -4.5t50 -13.5q17 -5 38.5 -11t29.5 -6q5 0 12 7l24 28l80 -44z" />
    <glyph glyph-name="hungarumlaut" unicode="&#x2dd;" 
d="M195 552l-73 69l151 169l101 -94zM411 552l-73 69l152 169l100 -94z" />
    <glyph glyph-name="uni0394" unicode="&#x394;" horiz-adv-x="760" 
d="M-3 0l369 724h238l165 -724h-772zM434 497h-6l-156 -328h214z" />
    <glyph glyph-name="uni03A9" unicode="&#x3a9;" horiz-adv-x="813" 
d="M402 0l33 230q25 10 51 26.5t47 43t34.5 63.5t13.5 88q0 63 -31 90.5t-81 27.5q-30 0 -56 -12t-46 -35.5t-31.5 -57.5t-11.5 -79q0 -51 17 -92t53 -62l-33 -231h-353l27 188h142l7 -35q2 -8 4.5 -9.5t10.5 -1.5h54l8 39q-71 23 -114 79.5t-43 147.5q0 70 27 130t77 104.5
t121.5 69.5t160.5 25q78 0 136.5 -19t97.5 -53.5t58.5 -82.5t19.5 -107q0 -64 -20.5 -114t-54.5 -86.5t-77.5 -60.5t-89.5 -36l-5 -36h49q8 0 11.5 1.5t7.5 9.5l15 35h143l-27 -188h-352z" />
    <glyph glyph-name="uni03BC" unicode="&#x3bc;" horiz-adv-x="657" 
d="M386 0l8 53l-4 2q-26 -25 -55 -41t-66 -27l-6 -163h-220l100 704h211l-46 -328q-5 -32 1 -42.5t23 -10.5q11 0 21 2.5t21 5.5l52 373h211l-57 -401q-2 -10 0 -14t11 -6l46 -7l-13 -100h-238z" />
    <glyph glyph-name="pi" unicode="&#x3c0;" horiz-adv-x="688" 
d="M358 0l56 401h-68l-56 -401h-269l13 97l43 7q11 2 14 5t5 16l39 274q2 11 0 14.5t-13 5.5l-38 7l14 102h600l-14 -102l-39 -7q-11 -2 -14 -5.5t-5 -14.5l-39 -275q-2 -12 0 -15t13 -5l40 -7l-13 -97h-269z" />
    <glyph glyph-name="afii10023" unicode="&#x401;" horiz-adv-x="624" 
d="M499 780q-35 0 -53.5 19t-18.5 53q0 46 25 71t70 25q35 0 54.5 -18t19.5 -52q0 -46 -25.5 -72t-71.5 -26zM285 780q-35 0 -53.5 19t-18.5 53q0 46 25 71t70 25q35 0 54.5 -18t19.5 -52q0 -46 -25.5 -72t-71.5 -26zM1 0l14 98l63 7q11 2 14 5.5t5 14.5l66 473
q2 11 -0.5 15t-12.5 5l-62 7l13 99h551l-33 -239l-149 6l-3 75q-1 13 -17 13h-79l-19 -142h198l-21 -151h-199l-18 -142h101q8 0 11.5 1.5t6.5 9.5l27 88h149l-33 -243h-573z" />
    <glyph glyph-name="afii10051" unicode="&#x402;" horiz-adv-x="857" 
d="M514 415q23 7 54 12t66 5q56 0 95 -17t63.5 -45.5t35.5 -66t11 -77.5q0 -50 -14.5 -93.5t-44.5 -75.5t-76.5 -50.5t-111.5 -18.5q-54 0 -109 23l40 133q8 -3 19 -4.5t20 -1.5q32 0 53.5 18.5t21.5 62.5q0 68 -79 68q-9 0 -27.5 -1t-35.5 -5l-38 -281h-300l13 99l73 8
q10 1 13 5t5 15l62 451h-50q-8 0 -11 -1.5t-5 -9.5l-28 -87h-151l34 244h729l-33 -244h-150l-4 87q-1 8 -3 9.5t-11 1.5h-104z" />
    <glyph glyph-name="afii10052" unicode="&#x403;" horiz-adv-x="621" 
d="M289 767l-39 96l221 107l52 -132zM3 0l13 98l63 7q11 2 14.5 5.5t5.5 14.5l66 473q2 11 -0.5 15t-12.5 5l-62 7l13 99h584l-34 -262l-150 7l-3 97q0 13 -16 13h-112l-61 -452q-2 -12 0 -15t12 -5l144 -8l-13 -99h-451z" />
    <glyph glyph-name="afii10053" unicode="&#x404;" horiz-adv-x="678" 
d="M484 437l-22 -151h-185q6 -70 38.5 -107t83.5 -37q25 0 41 1t24 4q12 5 16 20l29 99h147l-31 -221q-25 -13 -56.5 -24t-66 -18t-70.5 -11t-70 -4q-80 0 -138.5 22t-96 63t-55.5 99t-18 130q0 96 27 176t81 137.5t134 89.5t186 32q29 0 60.5 -4t62.5 -11.5t58.5 -18.5
t47.5 -25l-31 -232l-148 12l-2 93q0 14 -4 18.5t-11 6.5q-13 4 -50 4q-63 0 -108.5 -35.5t-65.5 -107.5h193z" />
    <glyph glyph-name="afii10054" unicode="&#x405;" horiz-adv-x="612" 
d="M456 483l-2 75q0 16 -14 21q-18 7 -45 7q-36 0 -57 -12.5t-21 -40.5q0 -17 9 -28.5t24 -20.5t35.5 -15.5t42.5 -14.5q30 -10 62 -24t57.5 -37t42 -58.5t16.5 -88.5q0 -65 -25.5 -113.5t-69.5 -80.5t-103 -48t-126 -16q-35 0 -71 4t-68.5 10t-59.5 14t-43 16l32 226h154
l7 -98q1 -9 4.5 -13t14.5 -6q17 -3 46 -3q47 0 72 18t25 47q0 17 -9.5 28.5t-25.5 20.5t-37.5 16t-44.5 15q-30 10 -60.5 23.5t-55.5 36t-40.5 56t-15.5 82.5q0 65 24.5 113t66.5 79.5t97.5 47.5t118.5 16q72 0 128.5 -14.5t95.5 -32.5l-29 -220z" />
    <glyph glyph-name="afii10055" unicode="&#x406;" horiz-adv-x="400" 
d="M-5 0l11 98l73 7q11 1 13.5 5t4.5 15l67 472q2 11 -0.5 15t-13.5 5l-70 7l15 100h390l-15 -100l-75 -8q-12 -2 -14 -5t-4 -14l-67 -471q-1 -12 0 -15t12 -5l75 -8l-12 -98h-390z" />
    <glyph glyph-name="afii10056" unicode="&#x407;" horiz-adv-x="400" 
d="M398 780q-35 0 -53.5 19t-18.5 53q0 46 25 71t70 25q35 0 54.5 -18t19.5 -52q0 -46 -25.5 -72t-71.5 -26zM184 780q-35 0 -53.5 19t-18.5 53q0 46 25 71t70 25q35 0 54.5 -18t19.5 -52q0 -46 -25.5 -72t-71.5 -26zM-5 0l11 98l73 7q11 1 13.5 5t4.5 15l67 472
q2 11 -0.5 15t-13.5 5l-70 7l15 100h390l-15 -100l-75 -8q-12 -2 -14 -5t-4 -14l-67 -471q-1 -12 0 -15t12 -5l75 -8l-12 -98h-390z" />
    <glyph glyph-name="afii10057" unicode="&#x408;" horiz-adv-x="524" 
d="M301 598q2 10 -1 13.5t-13 4.5l-92 8l14 100h403l-15 -100l-67 -8q-11 -2 -12.5 -5t-3.5 -14l-59 -419q-14 -97 -69.5 -143.5t-164.5 -46.5q-31 0 -62 3.5t-58 9.5t-48.5 13.5t-32.5 15.5l30 218l151 -11v-71q0 -12 6 -14q5 -1 13 -1q9 0 14.5 4t7.5 19z" />
    <glyph glyph-name="afii10058" unicode="&#x409;" horiz-adv-x="1065" 
d="M740 143q40 0 67.5 20t27.5 75q0 38 -23 53.5t-61 15.5h-15l-23 -164h27zM891 624l-95 -8q-12 -1 -14 -4.5t-4 -14.5l-22 -155h76q62 0 105 -13.5t70.5 -38.5t40 -61t12.5 -81q0 -66 -23 -113t-64.5 -77t-97.5 -44t-122 -14h-348l14 98l62 7q11 2 14 5.5t5 14.5l64 454
h-113q-4 -32 -11 -77t-15.5 -93.5t-19 -96t-23.5 -84.5q-12 -36 -33.5 -78.5t-60 -79t-98.5 -61.5t-150 -27l-13 183q44 6 74 17t50.5 29.5t34 46.5t25.5 68q7 25 15 59t15 71t13 74t9 67q2 11 -0.5 15t-13.5 5l-67 7l13 100h711z" />
    <glyph glyph-name="afii10059" unicode="&#x40a;" horiz-adv-x="1075" 
d="M901 624l-95 -8q-12 -1 -14 -4.5t-4 -14.5l-22 -155h76q62 0 105 -13.5t70.5 -38.5t40 -61t12.5 -81q0 -66 -23 -113t-64.5 -77t-97.5 -44t-122 -14h-348l14 98l62 7q11 2 14 5.5t5 14.5l26 182h-200l-26 -181q-2 -12 -0.5 -15t12.5 -5l65 -8l-13 -98h-372l14 98l63 7
q11 2 14 5.5t5 14.5l65 472q2 11 -0.5 15t-13.5 5l-60 7l13 100h372l-14 -100l-67 -8q-11 -2 -13.5 -5t-4.5 -14l-21 -155h199l23 155q2 11 -0.5 15t-13.5 5l-61 7l14 100h401zM750 143q40 0 67.5 20t27.5 75q0 38 -23 53.5t-61 15.5h-15l-23 -164h27z" />
    <glyph glyph-name="afii10060" unicode="&#x40b;" horiz-adv-x="893" 
d="M474 127q-2 -11 -0.5 -14t12.5 -5l57 -9l-13 -99h-373l13 99l73 8q10 1 13 5t5 15l62 451h-50q-8 0 -11 -1.5t-5 -9.5l-28 -87h-151l34 244h729l-33 -244h-150l-4 87q-1 8 -3 9.5t-11 1.5h-104l-21 -157q26 6 54 8.5t50 2.5q77 0 119.5 -17t62 -44.5t21 -62t-3.5 -70.5
l-16 -111q-2 -11 -0.5 -14t12.5 -5l67 -9l-13 -99h-298l32 218q5 32 -9 50.5t-49 18.5q-27 0 -49 -5z" />
    <glyph glyph-name="afii10061" unicode="&#x40c;" horiz-adv-x="800" 
d="M423 767l-39 96l221 107l52 -132zM310 126q-2 -12 -0.5 -15t12.5 -5l75 -8l-12 -98h-390l11 98l73 7q11 1 13.5 5t4.5 15l67 472q2 11 -0.5 15t-13.5 5l-70 7l15 100h390l-15 -100l-75 -8q-12 -2 -14 -5t-4 -14l-22 -156h39q31 0 49 12.5t34 49.5l46 109q29 68 74 96.5
t111 28.5q25 0 54 -4.5t50 -10.5l-25 -131q-34 6 -54 0t-34 -39l-40 -94q-17 -39 -41.5 -56t-56.5 -25l-1 -4q27 -10 44.5 -34.5t31.5 -61.5l54 -148q4 -11 8.5 -16t16.5 -7l68 -8l-14 -98h-265q-17 71 -35 123t-37 104q-12 33 -28.5 47t-41.5 14h-29z" />
    <glyph glyph-name="afii10062" unicode="&#x40e;" horiz-adv-x="747" 
d="M689 932q-23 -80 -70 -115t-126 -35q-88 0 -133 39.5t-50 107.5l134 37q-3 -33 9.5 -53.5t44.5 -20.5q28 0 41 18.5t21 53.5zM475 147q-27 -48 -56 -79t-60 -49t-63 -24.5t-66 -6.5q-48 0 -96 12.5t-76 28.5l52 150q8 -3 20.5 -7.5t26.5 -8.5t28.5 -7t26.5 -3
q21 0 37.5 6.5t28.5 29.5l-116 409q-2 9 -7.5 12t-14.5 5l-42 11l14 98h361l-15 -98l-71 -9l41 -250h5l128 250l-62 9l13 98h301l-15 -98l-43 -11q-8 -2 -15 -8t-12 -14z" />
    <glyph glyph-name="afii10145" unicode="&#x40f;" horiz-adv-x="801" 
d="M-4 0l11 98l73 7q11 1 13.5 5t4.5 15l67 472q2 11 -0.5 15t-13.5 5l-70 7l15 100h370l-15 -100l-55 -8q-12 -2 -14 -5t-4 -14l-65 -452h188l63 452q2 11 -0.5 15t-13.5 5l-50 7l15 100h360l-15 -100l-65 -8q-12 -2 -14 -5t-4 -14l-67 -471q-2 -12 -0.5 -15t12.5 -5l65 -8
l-12 -98h-285q-11 0 -14 -3.5t-5 -9.5l-41 -155l-138 9l1 146q0 13 -11 13h-286z" />
    <glyph glyph-name="afii10017" unicode="&#x410;" horiz-adv-x="789" 
d="M406 0l14 98l78 9l-9 54h-213l-22 -54l76 -9l-15 -98h-324l14 98l47 11q8 2 14 5.5t11 12.5l296 597h234l125 -598q2 -9 7.5 -12t14.5 -5l44 -11l-14 -98h-378zM438 512h-5l-99 -208h138z" />
    <glyph glyph-name="afii10018" unicode="&#x411;" horiz-adv-x="677" 
d="M347 143q40 0 67.5 17.5t27.5 59.5t-24 54.5t-62 12.5h-22l-21 -144h34zM673 724l-34 -241l-150 8l-3 75q0 13 -16 13h-95l-21 -157h83q116 0 173 -45t57 -144q0 -60 -23 -104t-64.5 -72.5t-97.5 -42.5t-122 -14h-364l11 98l73 7q11 1 13.5 5t4.5 15l67 472q2 11 -0.5 15
t-13.5 5l-70 7l15 100h577z" />
    <glyph glyph-name="afii10019" unicode="&#x412;" horiz-adv-x="658" 
d="M1 0l15 98l63 7q11 2 14 5.5t5 14.5l65 472q2 11 -0.5 15t-13.5 5l-61 7l13 100h367q55 0 92.5 -13t60 -35t32.5 -50.5t10 -59.5q0 -43 -13 -74.5t-33.5 -53.5t-46.5 -36.5t-52 -22.5v-3q73 -8 106 -45.5t33 -98.5q0 -64 -23.5 -108t-64.5 -71.5t-96 -40t-118 -12.5h-354
zM334 143q53 0 79.5 22.5t26.5 77.5q0 21 -6 33t-16.5 18.5t-23.5 8.5t-28 2h-33l-22 -162h23zM356 435q19 0 37.5 3t33.5 12.5t24 26.5t9 45q0 20 -7.5 31.5t-19 17t-25.5 6.5t-27 1h-11l-19 -143h5z" />
    <glyph glyph-name="afii10020" unicode="&#x413;" horiz-adv-x="621" 
d="M3 0l13 98l63 7q11 2 14.5 5.5t5.5 14.5l66 473q2 11 -0.5 15t-12.5 5l-62 7l13 99h584l-34 -262l-150 7l-3 97q0 13 -16 13h-112l-61 -452q-2 -12 0 -15t12 -5l144 -8l-13 -99h-451z" />
    <glyph glyph-name="afii10021" unicode="&#x414;" horiz-adv-x="833" 
d="M527 145l62 434h-128l-17 -124q-6 -40 -13.5 -79t-21 -77t-35 -76t-53.5 -78h206zM95 145q34 31 59.5 64.5t44 74t31 89t20.5 108.5l16 116q2 11 -0.5 15t-13.5 5l-67 7l13 100h703l-15 -100l-66 -8q-11 -2 -13.5 -5t-4.5 -14l-63 -452h80l-43 -301l-150 10l-4 133
q0 13 -11 13h-400q-11 0 -14 -3.5t-5 -9.5l-38 -133l-155 -10l43 301h53z" />
    <glyph glyph-name="afii10022" unicode="&#x415;" horiz-adv-x="624" 
d="M1 0l14 98l63 7q11 2 14 5.5t5 14.5l66 473q2 11 -0.5 15t-12.5 5l-62 7l13 99h551l-33 -239l-149 6l-3 75q-1 13 -17 13h-79l-19 -142h198l-21 -151h-199l-18 -142h101q8 0 11.5 1.5t6.5 9.5l27 88h149l-33 -243h-573z" />
    <glyph glyph-name="afii10024" unicode="&#x416;" horiz-adv-x="1165" 
d="M555 597q2 11 -0.5 15t-13.5 5l-60 7l15 100h362l-15 -100l-61 -8q-12 -2 -14 -5t-4 -14l-22 -156h19q31 0 54 12.5t39 49.5l47 111q29 66 71.5 94t114.5 28q23 0 52 -4.5t51 -9.5l-26 -131q-18 3 -32 3q-20 0 -32.5 -9t-23.5 -33l-37 -84q-19 -43 -46 -62.5t-75 -31.5
l-1 -4q31 -14 48 -37t31 -60l52 -145q4 -11 8 -16t14 -6l70 -8l-14 -98h-258q-36 135 -75 239q-10 28 -22.5 38.5t-35.5 10.5h-15l-23 -162q-2 -12 -0.5 -15t12.5 -5l65 -8l-12 -98h-362l11 98l59 7q11 1 13.5 5t4.5 15l23 163h-19q-19 0 -32 -8.5t-30 -36.5
q-35 -55 -66 -112t-72 -131h-275l12 98l67 8q12 2 16.5 5.5t11.5 14.5l103 160q23 37 46 57t56 30l1 4q-30 10 -54 33.5t-32 67.5l-13 74q-5 24 -15 33t-29 9q-12 0 -32 -3l11 135q29 6 54 9.5t47 3.5q69 0 104 -32.5t51 -110.5l19 -94q8 -37 25.5 -49t48.5 -12h18z" />
    <glyph glyph-name="afii10025" unicode="&#x417;" horiz-adv-x="630" 
d="M415 737q127 0 181 -45t54 -122q0 -74 -41.5 -121.5t-105.5 -71.5l-1 -4q23 -6 44 -16.5t37 -27.5t26 -42t10 -60q0 -61 -25 -106.5t-69.5 -74.5t-106.5 -43.5t-137 -14.5q-30 0 -62.5 3t-65 9.5t-61.5 15.5t-52 21l27 198h151l10 -78q1 -9 5 -12t12 -5q12 -3 27.5 -3.5
t23.5 -0.5q45 0 76 22t31 67q0 20 -7 32t-17.5 18.5t-24 8.5t-25.5 2h-111l21 151h54q77 0 109 27.5t32 66.5q0 32 -18 48t-48 16q-12 0 -26 -0.5t-28 -4.5q-13 -3 -17 -18l-20 -70l-156 -13l26 191q44 21 114 39t154 18z" />
    <glyph glyph-name="afii10026" unicode="&#x418;" horiz-adv-x="834" 
d="M908 724l-15 -100l-65 -8q-12 -2 -14 -5t-4 -14l-67 -471q-1 -12 0 -15t12 -5l65 -8l-12 -98h-370l11 98l63 7q11 1 13.5 5t4.5 15l47 321h-7l-292 -446h-273l11 98l63 7q11 1 13.5 5t4.5 15l67 472q2 11 -0.5 15t-13.5 5l-60 7l15 100h370l-15 -100l-65 -8
q-12 -2 -14 -5t-4 -14l-45 -286h7l277 413h292z" />
    <glyph glyph-name="afii10027" unicode="&#x419;" horiz-adv-x="834" 
d="M730 932q-23 -80 -70 -115t-126 -35q-88 0 -133 39.5t-50 107.5l134 37q-3 -33 9.5 -53.5t44.5 -20.5q28 0 41 18.5t21 53.5zM908 724l-15 -100l-65 -8q-12 -2 -14 -5t-4 -14l-67 -471q-1 -12 0 -15t12 -5l65 -8l-12 -98h-370l11 98l63 7q11 1 13.5 5t4.5 15l47 321h-7
l-292 -446h-273l11 98l63 7q11 1 13.5 5t4.5 15l67 472q2 11 -0.5 15t-13.5 5l-60 7l15 100h370l-15 -100l-65 -8q-12 -2 -14 -5t-4 -14l-45 -286h7l277 413h292z" />
    <glyph glyph-name="afii10028" unicode="&#x41a;" horiz-adv-x="800" 
d="M310 126q-2 -12 -0.5 -15t12.5 -5l75 -8l-12 -98h-390l11 98l73 7q11 1 13.5 5t4.5 15l67 472q2 11 -0.5 15t-13.5 5l-70 7l15 100h390l-15 -100l-75 -8q-12 -2 -14 -5t-4 -14l-22 -156h39q31 0 49 12.5t34 49.5l46 109q29 68 74 96.5t111 28.5q25 0 54 -4.5t50 -10.5
l-25 -131q-34 6 -54 0t-34 -39l-40 -94q-17 -39 -41.5 -56t-56.5 -25l-1 -4q27 -10 44.5 -34.5t31.5 -61.5l54 -148q4 -11 8.5 -16t16.5 -7l68 -8l-14 -98h-265q-17 71 -35 123t-37 104q-12 33 -28.5 47t-41.5 14h-29z" />
    <glyph glyph-name="afii10029" unicode="&#x41b;" horiz-adv-x="829" 
d="M263 597q2 11 -0.5 15t-13.5 5l-67 7l13 100h706l-15 -100l-66 -8q-11 -2 -13.5 -5t-4.5 -14l-66 -471q-2 -12 0 -15t13 -5l65 -8l-13 -98h-362l14 98l52 7q11 2 14 5.5t5 14.5l65 454h-138q-4 -32 -11 -77t-15.5 -93.5t-19 -96t-23.5 -84.5q-12 -36 -33.5 -78.5t-60 -79
t-98.5 -61.5t-150 -27l-13 183q44 6 74 17t50.5 29.5t34 46.5t25.5 68q7 25 15 59t15 71t13 74t9 67z" />
    <glyph glyph-name="afii10030" unicode="&#x41c;" horiz-adv-x="963" 
d="M557 0l13 98l81 7q11 1 14 5t5 15l37 267l-6 1l-127 -266h-218l-57 260h-6l-36 -261q-2 -12 -1 -15.5t12 -4.5l83 -8l-14 -98h-336l13 98l63 7q11 1 14.5 4t5.5 16l66 473q2 11 -0.5 14.5t-12.5 5.5l-60 7l11 99h319l86 -427h5l201 427h325l-13 -98l-65 -8
q-13 -2 -15.5 -4.5t-3.5 -13.5l-68 -475q-2 -11 0.5 -14.5t12.5 -4.5l65 -8l-14 -98h-379z" />
    <glyph glyph-name="afii10031" unicode="&#x41d;" horiz-adv-x="812" 
d="M415 0l14 98l62 7q11 2 14 5.5t5 14.5l24 169h-200l-24 -168q-2 -12 -0.5 -15t12.5 -5l65 -8l-13 -98h-372l14 98l63 7q11 2 14 5.5t5 14.5l65 472q2 11 -0.5 15t-13.5 5l-60 7l13 100h372l-14 -100l-67 -8q-11 -2 -13.5 -5t-4.5 -14l-20 -151h199l22 151q2 11 -0.5 15
t-13.5 5l-61 7l14 100h372l-15 -100l-66 -8q-11 -2 -13.5 -5t-4.5 -14l-66 -471q-2 -12 0 -15t13 -5l65 -8l-13 -98h-372z" />
    <glyph glyph-name="afii10032" unicode="&#x41e;" horiz-adv-x="762" 
d="M373 -12q-88 0 -149 21t-99 59t-55 91.5t-17 119.5q0 93 25 176.5t76 146t128 99t182 36.5q83 0 142.5 -22.5t97 -62t55 -94t17.5 -118.5q0 -105 -27.5 -188.5t-79 -142t-126.5 -90t-170 -31.5zM392 156q49 0 79.5 24t47.5 59t24.5 76t10.5 75q2 21 2 30.5v17.5
q0 72 -31.5 101.5t-80.5 29.5q-67 0 -107.5 -54t-57.5 -174q-2 -19 -2.5 -31t-0.5 -23q0 -28 6 -52t19.5 -41.5t36 -27.5t54.5 -10z" />
    <glyph glyph-name="afii10033" unicode="&#x41f;" horiz-adv-x="800" 
d="M413 0l14 98l52 7q11 2 14 5.5t5 14.5l65 454h-188l-65 -453q-2 -12 -0.5 -15t12.5 -5l55 -8l-13 -98h-362l14 98l63 7q11 2 14 5.5t5 14.5l65 472q2 11 -0.5 15t-13.5 5l-60 7l13 100h773l-15 -100l-66 -8q-11 -2 -13.5 -5t-4.5 -14l-66 -471q-2 -12 0 -15t13 -5l65 -8
l-13 -98h-362z" />
    <glyph glyph-name="afii10034" unicode="&#x420;" horiz-adv-x="637" 
d="M1 0l15 99l63 7q11 2 14 5.5t5 14.5l65 471q2 11 -0.5 15t-13.5 5l-60 7l12 100h354q60 0 101.5 -14.5t67.5 -40t37.5 -61t11.5 -77.5q0 -67 -21.5 -118t-61.5 -85t-96.5 -51t-126.5 -17h-41l-17 -133q-2 -12 0 -15t12 -5l140 -8l-14 -99h-446zM354 403q13 0 30 3
t32 13.5t25.5 32t10.5 57.5q0 26 -8.5 40t-20 20.5t-24.5 7.5t-22 1h-7l-24 -175h8z" />
    <glyph glyph-name="afii10035" unicode="&#x421;" horiz-adv-x="678" 
d="M625 45q-25 -13 -56.5 -24t-66 -18t-70.5 -11t-70 -4q-80 0 -138.5 22t-96 63t-55.5 99t-18 130q0 96 27 176t81 137.5t134 89.5t186 32q29 0 60.5 -4t62.5 -11.5t58.5 -18.5t47.5 -25l-31 -232l-148 12l-2 93q0 14 -4 18.5t-11 6.5q-13 4 -50 4q-85 0 -136.5 -65
t-51.5 -200q0 -88 32.5 -130.5t89.5 -42.5q25 0 41 1t24 4q12 5 16 20l29 99h147z" />
    <glyph glyph-name="afii10036" unicode="&#x422;" horiz-adv-x="728" 
d="M129 0l13 99l103 8q10 1 13 5t5 15l62 451h-50q-8 0 -11 -1.5t-5 -9.5l-28 -87h-151l34 244h674l-33 -244h-150l-4 87q-1 8 -3 9.5t-11 1.5h-49l-62 -451q-2 -11 -0.5 -14.5t12.5 -4.5l107 -9l-13 -99h-453z" />
    <glyph glyph-name="afii10037" unicode="&#x423;" horiz-adv-x="747" 
d="M475 147q-27 -48 -56 -79t-60 -49t-63 -24.5t-66 -6.5q-48 0 -96 12.5t-76 28.5l52 150q8 -3 20.5 -7.5t26.5 -8.5t28.5 -7t26.5 -3q21 0 37.5 6.5t28.5 29.5l-116 409q-2 9 -7.5 12t-14.5 5l-42 11l14 98h361l-15 -98l-71 -9l41 -250h5l128 250l-62 9l13 98h301l-15 -98
l-43 -11q-8 -2 -15 -8t-12 -14z" />
    <glyph glyph-name="afii10038" unicode="&#x424;" horiz-adv-x="916" 
d="M621 599q54 -2 109 -11.5t99 -32.5t71.5 -62.5t27.5 -102.5q0 -120 -89.5 -187t-283.5 -71l-1 -6q-2 -12 -0.5 -15t12.5 -5l75 -8l-12 -98h-363l11 98l73 7q11 1 13.5 5t4.5 15l1 7q-57 2 -112 11.5t-98.5 34t-70 67t-26.5 110.5q0 110 93 175t280 69l2 11q2 11 -0.5 15
t-13.5 5l-70 7l15 100h363l-15 -100l-75 -8q-12 -2 -14 -5t-4 -14zM414 448q-75 -2 -107 -23.5t-32 -65.5q0 -39 29 -56.5t87 -19.5zM576 283q40 1 67 8.5t43 20t22.5 29.5t6.5 37q0 35 -27 51t-88 19z" />
    <glyph glyph-name="afii10039" unicode="&#x425;" horiz-adv-x="830" 
d="M402 0l15 98l75 9l-88 126l-122 -126l78 -9l-14 -98h-333l14 98l66 11q9 2 15 6.5t13 12.5l212 215l-173 255q-7 13 -21 17l-54 11l16 98h397l-14 -98l-80 -9l91 -136l131 136l-76 9l16 98h313l-13 -98l-55 -11q-9 -2 -15 -6.5t-13 -12.5l-216 -224l170 -246
q7 -9 13 -13.5t15 -6.5l47 -8l-14 -98h-396z" />
    <glyph glyph-name="afii10040" unicode="&#x426;" horiz-adv-x="795" 
d="M586 -13q0 13 -11 13h-579l11 98l73 7q11 1 13.5 5t4.5 15l67 472q2 11 -0.5 15t-13.5 5l-70 7l15 100h365l-15 -100l-50 -8q-12 -2 -14 -5t-4 -14l-65 -452h178l63 452q2 11 -0.5 14.5t-13.5 5.5l-45 7l15 100h355l-15 -100l-65 -8q-12 -2 -14 -5t-4 -14l-64 -452h80
l-43 -301l-150 10z" />
    <glyph glyph-name="afii10041" unicode="&#x427;" horiz-adv-x="730" 
d="M155 597q2 11 -0.5 14.5t-13.5 5.5l-50 7l15 100h321l-15 -100l-25 -6q-12 -3 -14 -6.5t-4 -14.5l-21 -142q-2 -16 -2.5 -29.5t5.5 -23t19.5 -14.5t38.5 -5q11 0 26 1.5t28 4.5l29 206q2 11 -0.5 15.5t-13.5 6.5l-23 5l15 102h328l-15 -100l-59 -8q-12 -2 -14 -5t-4 -14
l-67 -471q-2 -12 -0.5 -15t12.5 -5l65 -8l-12 -98h-460l11 98l153 7q11 1 13.5 5t4.5 15l17 126q-26 -5 -54.5 -7.5t-50.5 -2.5q-76 0 -120 18t-64.5 47t-23.5 64.5t2 71.5z" />
    <glyph glyph-name="afii10042" unicode="&#x428;" horiz-adv-x="1061" 
d="M494 597q2 11 -0.5 15.5t-13.5 6.5l-20 5l15 100h292l-15 -100l-25 -6q-12 -3 -14 -6.5t-4 -14.5l-65 -452h117l63 452q2 11 -0.5 15.5t-13.5 6.5l-20 5l15 100h330l-15 -100l-65 -8q-12 -2 -14 -5t-4 -14l-67 -471q-2 -12 -0.5 -15t12.5 -5l65 -8l-12 -98h-1039l11 98
l73 7q11 1 13.5 5t4.5 15l67 472q2 11 -0.5 15t-13.5 5l-70 7l15 100h340l-15 -100l-25 -6q-12 -3 -14 -6.5t-4 -14.5l-65 -452h118z" />
    <glyph glyph-name="afii10043" unicode="&#x429;" horiz-adv-x="1065" 
d="M-4 0l11 98l73 7q11 1 13.5 5t4.5 15l67 472q2 11 -0.5 15t-13.5 5l-70 7l15 100h340l-15 -100l-25 -6q-12 -3 -14 -6.5t-4 -14.5l-65 -452h118l63 452q2 11 -0.5 15.5t-13.5 6.5l-20 5l15 100h292l-15 -100l-25 -6q-12 -3 -14 -6.5t-4 -14.5l-65 -452h117l63 452
q2 11 -0.5 15.5t-13.5 6.5l-20 5l15 100h330l-15 -100l-65 -8q-12 -2 -14 -5t-4 -14l-64 -452h76l-43 -301l-150 10l-4 133q0 13 -11 13h-845z" />
    <glyph glyph-name="afii10044" unicode="&#x42a;" horiz-adv-x="831" 
d="M509 143q40 0 66 20t26 75q0 38 -21 53.5t-53 15.5h-12l-23 -164h17zM685 724l-15 -100l-95 -8q-12 -2 -14 -5t-4 -14l-22 -155h45q67 0 114 -13.5t76 -39t42.5 -62t13.5 -83.5q0 -64 -23 -110.5t-64.5 -76t-97.5 -43.5t-122 -14h-344l11 98l73 7q11 1 13.5 5t4.5 15
l65 454h-57q-8 0 -11 -1.5t-5 -9.5l-29 -98h-151l35 254h561z" />
    <glyph glyph-name="afii10045" unicode="&#x42b;" horiz-adv-x="1030" 
d="M330 143q44 0 69.5 20t25.5 75q0 38 -22.5 53.5t-54.5 15.5h-12l-23 -164h17zM422 442q62 0 105 -13.5t70.5 -38.5t40 -61t12.5 -81q0 -66 -23 -113t-64.5 -77t-97.5 -44t-122 -14h-347l11 98l73 7q11 1 13.5 5t4.5 15l67 472q2 11 -0.5 15t-13.5 5l-70 7l15 100h410
l-15 -100l-95 -8q-12 -1 -14 -4.5t-4 -14.5l-22 -155h66zM625 0l11 98l73 7q11 1 13.5 5t4.5 15l67 472q2 11 -0.5 15t-13.5 5l-70 7l15 100h390l-15 -100l-75 -8q-12 -2 -14 -5t-4 -14l-67 -471q-1 -12 0 -15t12 -5l75 -8l-12 -98h-390z" />
    <glyph glyph-name="afii10046" unicode="&#x42c;" horiz-adv-x="655" 
d="M330 143q44 0 69.5 20t25.5 75q0 38 -22.5 53.5t-54.5 15.5h-12l-23 -164h17zM422 442q112 0 170 -52t58 -145q0 -65 -23 -111.5t-64.5 -76t-97.5 -43.5t-122 -14h-347l11 98l73 7q11 1 13.5 5t4.5 15l67 472q2 11 -0.5 15t-13.5 5l-70 7l15 100h410l-15 -100l-95 -8
q-12 -1 -14 -4.5t-4 -14.5l-22 -155h66z" />
    <glyph glyph-name="afii10047" unicode="&#x42d;" horiz-adv-x="719" 
d="M288 288l22 151h197q-2 66 -35 105t-99 39q-25 0 -41.5 -2.5t-24.5 -6.5q-12 -5 -16 -20l-28 -95h-147l31 221q25 14 58 24.5t69.5 17.5t74 11t71.5 4q80 0 138.5 -25t96 -68.5t55.5 -101t18 -123.5q0 -93 -26.5 -171.5t-81 -136.5t-137.5 -90.5t-197 -32.5q-31 0 -64 4
t-64.5 11.5t-59 18.5t-47.5 25l31 220h148l2 -93q0 -14 4 -18.5t11 -6.5q13 -4 50 -4q154 0 194 143h-203z" />
    <glyph glyph-name="afii10048" unicode="&#x42e;" horiz-adv-x="1072" 
d="M442 446q18 66 51 119.5t79 92t104.5 59t128.5 20.5q77 0 131 -23t87.5 -62.5t48.5 -93t15 -115.5q0 -88 -22.5 -170.5t-69 -145.5t-118.5 -101t-170 -38q-81 0 -135.5 24t-88 65.5t-47.5 97t-13 119.5h-91l-24 -168q-2 -12 0 -15t13 -5l66 -8l-13 -98h-371l13 98l63 7
q11 2 14 5.5t5 14.5l66 472q2 11 -0.5 15t-12.5 5l-62 7l14 100h372l-14 -100l-69 -8q-11 -2 -13.5 -5t-4.5 -14l-21 -151h89zM725 156q25 0 46 9.5t37.5 32.5t28.5 62.5t20 100.5q4 27 5.5 50.5t1.5 43.5q0 61 -19 87.5t-59 26.5q-27 0 -49.5 -10.5t-40 -35t-29.5 -64
t-20 -96.5q-3 -25 -5 -46t-2 -39q0 -66 21 -94t64 -28z" />
    <glyph glyph-name="afii10049" unicode="&#x42f;" horiz-adv-x="753" 
d="M513 579h-39q-48 0 -71 -23t-23 -64q0 -44 23 -62t62 -18h24zM461 276q-17 0 -34.5 -10.5t-34.5 -38.5q-23 -38 -53 -97t-64 -130h-267l12 98l62 8q14 2 21.5 11.5t14.5 20.5l57 101q21 38 48.5 59t58.5 29l1 4q-25 8 -48 23t-40.5 37t-27.5 51t-10 63q0 65 26.5 107
t68 67t93 35t101.5 10h391l-15 -100l-75 -8q-12 -2 -14 -5t-4 -14l-67 -471q-2 -12 -0.5 -15t12.5 -5l75 -8l-12 -98h-360l11 98l43 7q11 2 13.5 5.5t4.5 14.5l21 151h-9z" />
    <glyph glyph-name="afii10065" unicode="&#x430;" horiz-adv-x="630" 
d="M365 0l10 71l-5 2q-48 -45 -86 -65t-88 -20q-76 0 -115.5 51.5t-39.5 158.5q0 55 13.5 115t43.5 110.5t78.5 83t118.5 32.5q42 0 74 -14.5t58 -43.5l22 47h173q-7 -35 -13.5 -70t-11.5 -70l-36 -263q-2 -11 0 -14t13 -5l44 -7l-14 -99h-239zM396 364q-12 9 -25.5 14.5
t-25.5 5.5q-27 0 -43.5 -20.5t-25.5 -48.5t-12.5 -56.5t-3.5 -45.5q0 -21 4 -37t23 -16q17 0 41 12t46 31z" />
    <glyph glyph-name="afii10066" unicode="&#x431;" horiz-adv-x="593" 
d="M288 -12q-71 0 -117.5 21t-73.5 58t-38 87.5t-11 108.5q0 84 23 167q14 51 37.5 97.5t62.5 85t97.5 67t140.5 43.5q59 11 78.5 17.5t20.5 14.5l140 3q0 -87 -32 -133t-98 -50q-91 -6 -146.5 -13t-88.5 -23.5t-50 -45.5t-32 -80l5 -2q29 48 78.5 78t121.5 30q97 0 144 -52
t47 -152q0 -63 -18 -122t-56 -104.5t-96 -73t-139 -27.5zM303 128q21 0 35.5 13t23 36.5t12.5 56t4 71.5q0 38 -10.5 54.5t-28.5 16.5q-21 0 -35.5 -13t-23 -36.5t-12.5 -56t-4 -71.5q0 -38 10.5 -54.5t28.5 -16.5z" />
    <glyph glyph-name="afii10067" unicode="&#x432;" horiz-adv-x="585" 
d="M305 -12q-43 0 -82.5 3t-73.5 7.5t-60.5 10t-43.5 10.5l45 334q6 48 23 83t48 58t77.5 34t110.5 11q51 0 93 -7t71 -23t45 -40.5t16 -60.5q0 -27 -9.5 -48.5t-25.5 -38t-36.5 -27t-42.5 -14.5l-1 -4q24 -2 45 -9t37.5 -20.5t26 -32.5t9.5 -45q0 -49 -24 -83.5t-63 -56
t-87.5 -31.5t-97.5 -10zM255 125l16 -2q7 -1 15 -1.5t16 -0.5q31 0 42.5 15t11.5 36q0 19 -11.5 25.5t-28.5 6.5h-50zM336 326q17 0 28.5 11t11.5 31q0 21 -13.5 28.5t-27.5 7.5q-17 0 -30.5 -9t-15.5 -24l-6 -45h53z" />
    <glyph glyph-name="afii10068" unicode="&#x433;" horiz-adv-x="513" 
d="M288 420q-5 0 -12 -0.5t-15 -2.5q-10 -3 -12 -6.5t-4 -8.5l-20 -64h-153l21 157q18 8 44.5 16t57.5 14t64.5 10t65.5 4q44 0 80.5 -8.5t63 -26.5t41.5 -46t15 -67q0 -36 -13.5 -64t-35 -49t-49 -36t-55.5 -24q-37 -12 -61.5 -19.5t-38 -13.5t-19 -12t-5.5 -15
q0 -11 10.5 -14.5t24.5 -3.5q29 0 73 17t87 49l69 -124q-63 -53 -126 -73.5t-129 -20.5q-109 0 -163 42t-54 112q0 58 24 91t59 51.5t74.5 28t70.5 19.5q31 11 47.5 24t16.5 35q0 14 -9.5 21.5t-34.5 7.5z" />
    <glyph glyph-name="afii10069" unicode="&#x434;" horiz-adv-x="617" 
d="M404 352q-13 10 -30.5 16t-30.5 6q-26 0 -42.5 -16.5t-25.5 -41t-12 -54t-3 -56.5q0 -46 15 -62t35 -16q12 0 27 6t29 28.5t24.5 67t13.5 122.5zM625 395q0 -199 -85 -303t-259 -104q-119 0 -181 60.5t-62 166.5q0 54 16 107t48.5 94.5t80.5 67t112 25.5q71 0 142 -53
l4 5q-27 45 -66.5 72.5t-82 43.5t-84 21.5t-72.5 6.5l82 167q128 -15 207.5 -54t123.5 -91t60 -112.5t16 -119.5z" />
    <glyph glyph-name="afii10070" unicode="&#x435;" horiz-adv-x="530" 
d="M502 46q-58 -25 -116 -41.5t-118 -16.5q-63 0 -107 17t-71 47t-39 70t-12 86q0 89 26.5 152t70 103t100.5 58t117 18q88 0 137.5 -36t49.5 -109q0 -47 -23.5 -81t-63 -56.5t-91 -36t-107.5 -19.5q4 -28 19.5 -45.5t53.5 -17.5q18 0 57.5 9.5t88.5 26.5zM253 315
q19 4 37.5 9t33.5 13t24 19t9 26q0 22 -29 22q-21 0 -44 -19.5t-31 -69.5z" />
    <glyph glyph-name="afii10072" unicode="&#x436;" horiz-adv-x="952" 
d="M432 384q3 15 -10 21l-46 20l15 103h259l4 -9l-27 -189h21q23 0 36 15.5t25 41.5l24 52q23 51 55.5 75.5t86.5 24.5q21 0 46 -4t55 -12l-24 -120q-5 2 -13 3t-14 1q-24 0 -39 -32l-19 -40q-11 -24 -30 -39.5t-55 -21.5v-4q16 -5 34.5 -21t31.5 -53l24 -71q3 -8 6.5 -12.5
t14.5 -6.5l59 -7l-14 -99h-226q-11 50 -20 88.5t-19 67.5q-9 26 -17 37.5t-25 11.5h-17l-27 -205h-207l29 205h-14q-17 0 -28 -11.5t-28 -37.5q-17 -29 -36.5 -66.5t-43.5 -89.5h-239l14 99l61 7q11 2 15.5 5.5t9.5 11.5l46 77q22 36 47 50.5t42 19.5l1 4q-32 9 -49.5 23.5
t-27.5 37.5l-17 39q-8 18 -17 24.5t-25 6.5h-8.5t-9.5 -1l7 122q29 7 53.5 9.5t43.5 2.5q26 0 44.5 -5.5t32 -16.5t23.5 -28t20 -40l28 -65q11 -24 20 -38.5t32 -14.5h17z" />
    <glyph glyph-name="afii10073" unicode="&#x437;" horiz-adv-x="531" 
d="M328 539q63 0 104 -10.5t66 -28.5t35 -42t10 -50q0 -48 -31 -80t-83 -49v-4q16 -4 32.5 -11.5t30.5 -19.5t23 -31t9 -48q0 -45 -21.5 -78.5t-58 -55.5t-83.5 -32.5t-98 -10.5q-66 0 -130.5 18.5t-107.5 52.5l69 124q9 -6 26.5 -14.5t40 -16t47.5 -13t50 -5.5
q11 0 23.5 1.5t22.5 6t16.5 11.5t6.5 17q0 9 -3.5 14t-9 7.5t-11 2.5h-8.5h-114l17 132h61q51 0 69.5 16t18.5 34q0 17 -10 26.5t-37 9.5q-11 0 -23 -1t-17 -3t-7.5 -4t-4.5 -10l-11 -36l-151 -6l20 144q18 8 43.5 16t55.5 14t61.5 9.5t61.5 3.5z" />
    <glyph glyph-name="afii10074" unicode="&#x438;" horiz-adv-x="620" 
d="M351 0l9 66l-5 3q-16 -15 -34.5 -29.5t-38.5 -26t-43 -18.5t-50 -7q-54 0 -86 31t-32 100q0 10 0.5 19.5t1.5 20.5l35 243q2 12 0.5 15t-12.5 5l-45 7l14 99h259l4 -9l-44 -319q-3 -21 1 -28.5t18 -7.5q12 0 27.5 10.5t28.5 22.5l27 205q2 12 -0.5 16t-13.5 7l-17 4
l13 99h235l8 -10l-55 -389q-2 -8 -0.5 -14t9.5 -8l46 -8l-14 -99h-246z" />
    <glyph glyph-name="afii10075" unicode="&#x439;" horiz-adv-x="620" 
d="M351 0l9 66l-5 3q-16 -15 -34.5 -29.5t-38.5 -26t-43 -18.5t-50 -7q-54 0 -86 31t-32 100q0 10 0.5 19.5t1.5 20.5l35 243q2 12 0.5 15t-12.5 5l-45 7l14 99h259l4 -9l-44 -319q-3 -21 1 -28.5t18 -7.5q12 0 27.5 10.5t28.5 22.5l27 205q2 12 -0.5 16t-13.5 7l-17 4
l13 99h235l8 -10l-55 -389q-2 -8 -0.5 -14t9.5 -8l46 -8l-14 -99h-246zM364 671q29 0 45.5 16t27.5 64l117 -26q-24 -82 -68.5 -120t-125.5 -38q-88 0 -128 41.5t-41 116.5l120 31q-2 -43 9.5 -64t43.5 -21z" />
    <glyph glyph-name="afii10076" unicode="&#x43a;" horiz-adv-x="629" 
d="M551 125q3 -8 6.5 -12.5t14.5 -6.5l59 -7l-14 -99h-235q-10 50 -20 90t-20 69q-9 26 -18 36.5t-26 10.5h-7l-30 -206h-206l53 387q3 15 -10 21l-46 17l15 103h263l4 -9l-26 -191h12q24 0 36 11t23 36l31 67q25 54 57 75.5t86 21.5q20 0 49 -4.5t49 -11.5l-24 -122
q-26 7 -42 3t-26 -29l-15 -39q-10 -25 -32 -41t-51 -21v-4q20 -7 37.5 -22t28.5 -52z" />
    <glyph glyph-name="afii10077" unicode="&#x43b;" horiz-adv-x="672" 
d="M17 150q53 0 80.5 20.5t40.5 58.5q10 29 17.5 68t15.5 87q3 15 -10 21l-46 20l15 103h529l4 -9l-55 -393q-2 -12 0 -15t13 -5l36 -7l-12 -99h-258l-3 6l54 390h-84q-3 -24 -7.5 -53t-10.5 -59t-13 -59.5t-15 -54.5q-11 -34 -30.5 -70t-51.5 -63.5t-79 -42.5t-113 -7z" />
    <glyph glyph-name="afii10078" unicode="&#x43c;" horiz-adv-x="865" 
d="M309 190q-15 -58 -37 -99t-54 -65.5t-76.5 -34t-104.5 -4.5l-17 165q32 0 53 6.5t36 19t24.5 32.5t17.5 47q8 29 14.5 65.5t11.5 83.5l-52 19l15 103h302l33 -275h4l137 275h236l4 -9l-55 -393q-2 -12 0 -15t13 -5l36 -7l-12 -99h-238l-3 6l49 275h-4l-103 -198h-186
l-25 200q-2 -23 -7.5 -46.5t-11.5 -46.5z" />
    <glyph glyph-name="afii10079" unicode="&#x43d;" horiz-adv-x="664" 
d="M261 0h-208l-3 6l27 156l31 222q3 17 -10 21l-46 20l15 103h263l4 -9l-25 -183h113l27 192h202l4 -9l-55 -392q-2 -12 0 -15.5t13 -5.5l36 -7l-12 -99h-263l-3 6l27 156l6 42h-114z" />
    <glyph glyph-name="afii10080" unicode="&#x43e;" horiz-adv-x="599" 
d="M283 -12q-64 0 -110.5 16.5t-76.5 45.5t-44 69.5t-14 89.5q0 15 1.5 30t3.5 32q8 61 32.5 110.5t65 84.5t97.5 54t130 19q66 0 110.5 -17t72.5 -47t40 -71t12 -88q0 -13 -1 -26t-3 -27q-8 -63 -30.5 -114t-61.5 -86.5t-94.5 -55t-129.5 -19.5zM301 128q12 0 24.5 5
t23 19.5t18.5 40t13 66.5q2 18 3 33.5t1 27.5q0 43 -12.5 59.5t-32.5 16.5q-12 0 -24 -5t-22.5 -19t-19 -39t-14.5 -64q-3 -19 -4 -36t-1 -30q0 -44 13 -59.5t34 -15.5z" />
    <glyph glyph-name="afii10081" unicode="&#x43f;" horiz-adv-x="624" 
d="M347 0l-7 7l19 127l26 194q3 20 -1.5 28t-15.5 8t-27.5 -12t-29.5 -24l-28 -202q-2 -12 0 -15.5t13 -5.5l26 -6l-13 -99h-302l13 100l39 6q10 2 13 5.5t5 14.5l35 258q2 8 0.5 13t-9.5 8l-45 20l15 103h245l-9 -66l5 -2q18 16 36 30.5t38 25t43 17t51 6.5
q70 0 97.5 -44.5t16.5 -125.5l-34 -243q-2 -12 -0.5 -15t11.5 -5l44 -7l-13 -99h-257z" />
    <glyph glyph-name="afii10082" unicode="&#x440;" horiz-adv-x="631" 
d="M19 -212l-1 4l30 165l61 427q3 15 -10 21l-44 20l14 103h247l-11 -67l6 -2q46 45 87.5 62.5t80.5 17.5q34 0 62 -11t48 -35.5t31 -64t11 -95.5q0 -98 -20 -164t-53 -106.5t-75 -57.5t-86 -17q-46 0 -79 15.5t-50 27.5l-4 -2l-19 -118q-3 -13 15 -14l110 -11l-14 -98h-337
zM283 160q31 -13 58 -13q19 0 32 14t21.5 36.5t12 50t3.5 53.5q0 28 -5.5 45.5t-21.5 17.5q-14 0 -32.5 -10.5t-43.5 -28.5z" />
    <glyph glyph-name="afii10083" unicode="&#x441;" horiz-adv-x="516" 
d="M481 45q-43 -25 -98 -41t-114 -16q-60 0 -103.5 17t-71.5 47t-41.5 72t-13.5 92q0 78 23.5 138.5t65.5 101.5t99.5 62t125.5 21q29 0 57.5 -4.5t53.5 -11.5t45 -16.5t33 -20.5l-26 -181l-139 5l-3 66q-1 9 -2.5 13.5t-8.5 6.5q-13 3 -26 3q-16 0 -30.5 -8.5t-26 -27.5
t-18.5 -50.5t-7 -77.5q0 -30 6 -48.5t16 -29t23.5 -14t27.5 -3.5q35 0 69 9.5t54 15.5z" />
    <glyph glyph-name="afii10084" unicode="&#x442;" horiz-adv-x="867" 
d="M587 0l-4 5l44 320q3 20 0 26t-9 6q-7 0 -20.5 -8.5t-26.5 -20.5l-30 -206q-2 -10 0 -14t10 -6l20 -3l-14 -99h-230l-5 5l44 324q4 29 -10 29q-8 0 -19.5 -7.5t-25.5 -21.5l-28 -205q-2 -12 -0.5 -15.5t8.5 -5.5l17 -4l-13 -99h-288l13 100l39 6q10 2 13 5.5t5 14.5
l35 258q2 8 0.5 13t-9.5 8l-45 20l15 103h245l-9 -66l5 -2q16 13 34.5 27t39 25.5t43 19t47.5 7.5q82 0 93 -73l6 -3q17 14 34.5 27.5t37 24t41.5 17.5t48 7q38 0 60.5 -14t33 -37t11 -54t-4.5 -66l-34 -242q-2 -12 -0.5 -15t12.5 -5l43 -7l-13 -99h-259z" />
    <glyph glyph-name="afii10085" unicode="&#x443;" horiz-adv-x="619" 
d="M214 -10l-120 413q-3 9 -6.5 12t-11.5 5l-39 8l15 100h222l15 -16l29 -133l37 -175h5l92 217l-61 7l16 100h213l19 -48l-283 -566q-34 -70 -87 -103.5t-142 -33.5q-31 0 -58.5 6t-49 15t-36.5 19t-23 17l64 111q20 -13 44.5 -22t51.5 -9q29 0 46 11t31 34z" />
    <glyph glyph-name="afii10086" unicode="&#x444;" horiz-adv-x="872" 
d="M408 611q3 15 -11 21l-44 20l15 103h260l-30 -222q145 -11 211.5 -68.5t66.5 -157.5q0 -92 -32 -153t-83 -97t-114 -51t-125 -16l-10 -76q-2 -12 0 -15t13 -5l40 -7l-13 -99h-322l13 100l50 6q9 1 12 5t5 15l10 76q-144 11 -210.5 69t-66.5 157q0 92 32 153t83 97t114 51
t125 16zM375 374q-18 1 -38.5 -5t-38 -22.5t-28.5 -46.5t-11 -78q0 -42 20.5 -60.5t62.5 -17.5zM544 149q18 -1 38.5 5t38 22.5t28.5 46.5t11 78q0 42 -21 60.5t-63 17.5z" />
    <glyph glyph-name="afii10087" unicode="&#x445;" horiz-adv-x="620" 
d="M391 0l-12 8l-96 152l-54 -54l44 -9l-11 -97h-254l11 95l34 7q8 2 15 5.5t15 11.5l135 133l-98 148q-5 7 -8 10t-11 7l-47 12l15 99h201l15 -11l88 -144l55 50l-42 7l17 98h262l-14 -98l-40 -9q-8 -2 -16 -7t-18 -13l-139 -124l103 -152q5 -8 10 -12t13 -6l57 -9l-16 -98
h-214z" />
    <glyph glyph-name="afii10088" unicode="&#x446;" horiz-adv-x="625" 
d="M558 139q-3 -21 3 -30.5t31 -9.5h44l-33 -252l-144 15l-1 123q-35 6 -62 26.5t-36 54.5l-5 3q-16 -15 -34.5 -29.5t-38.5 -26t-43 -18.5t-50 -7q-54 0 -86 31t-32 100v19.5t2 20.5l35 243q2 12 0.5 15t-12.5 5l-45 7l14 99h265l-46 -328q-3 -21 1 -28.5t18 -7.5
q12 0 27.5 10.5t28.5 22.5l27 205q2 12 -0.5 16t-13.5 7l-17 4l13 99h245z" />
    <glyph glyph-name="afii10089" unicode="&#x447;" horiz-adv-x="610" 
d="M381 396q3 15 -11 20l-26 9l15 103h238l4 -9l-55 -393q-2 -12 0 -15t13 -5l36 -7l-12 -99h-253l-3 6l26 187l-4 3q-43 -24 -81.5 -32.5t-71.5 -8.5q-36 0 -60 12t-37.5 33t-17 49.5t0.5 61.5l12 85q3 15 -11 20l-31 9l15 103h243l4 -9l-23 -164q-5 -32 4 -40t23 -8
q11 0 27 5.5t26 11.5z" />
    <glyph glyph-name="afii10090" unicode="&#x448;" horiz-adv-x="861" 
d="M335 69q-16 -15 -32.5 -29.5t-35 -26t-40 -18.5t-48.5 -7q-54 0 -81 31t-27 100v19.5t2 20.5l35 243q2 12 0.5 15t-12.5 5l-45 7l14 99h264l-46 -334q-2 -14 -0.5 -22t15.5 -8q12 0 21.5 5.5t17.5 13.5l31 219q2 12 -0.5 16t-13.5 7l-17 4l13 99h239l-46 -334
q-2 -14 -0.5 -22t15.5 -8q12 0 21.5 5.5t17.5 13.5l29 219q2 12 -0.5 16t-13.5 7l-17 4l13 99h244l-56 -399q-2 -8 -0.5 -14t9.5 -8l46 -8l-14 -99h-246l9 66l-5 3q-16 -15 -32.5 -29.5t-35 -26t-40 -18.5t-48.5 -7q-80 0 -99 78z" />
    <glyph glyph-name="afii10091" unicode="&#x449;" horiz-adv-x="865" 
d="M798 139q-3 -21 3 -30.5t31 -9.5h44l-33 -252l-144 15l-1 123q-35 6 -62 26.5t-36 54.5l-5 3q-16 -15 -32.5 -29.5t-35 -26t-40 -18.5t-48.5 -7q-80 0 -99 78l-5 3q-16 -15 -32.5 -29.5t-35 -26t-40 -18.5t-48.5 -7q-54 0 -81 31t-27 100v19.5t2 20.5l35 243q2 12 0.5 15
t-12.5 5l-45 7l14 99h264l-46 -334q-2 -14 -0.5 -22t15.5 -8q12 0 21.5 5.5t17.5 13.5l31 219q2 12 -0.5 16t-13.5 7l-17 4l13 99h239l-46 -334q-2 -14 -0.5 -22t15.5 -8q12 0 21.5 5.5t17.5 13.5l29 219q2 12 -0.5 16t-13.5 7l-17 4l13 99h244z" />
    <glyph glyph-name="afii10092" unicode="&#x44a;" horiz-adv-x="684" 
d="M418 118q3 -1 7 -1q8 -1 13 -1q28 0 42.5 17t14.5 48q0 50 -48 50h-9q-2 -1 -4 -1zM470 528l4 -9l-25 -183q11 2 32 7t42 5q80 0 122 -40t42 -110q0 -58 -24.5 -98t-64.5 -65t-92 -36t-108 -11q-67 0 -121 9.5t-80 15.5l53 383h-30q-10 0 -13 -9l-22 -82l-142 -5l31 228
h396z" />
    <glyph glyph-name="afii10093" unicode="&#x44b;" horiz-adv-x="847" 
d="M306 336q11 2 32 7t42 5q80 0 122 -40t42 -110q0 -58 -24.5 -98t-64.5 -65t-92 -36t-108 -11q-67 0 -121 9.5t-80 15.5l51 371q3 15 -10 21l-46 20l15 103h263l4 -9zM275 118q3 -1 7 -1q8 -1 13 -1q28 0 42.5 17t14.5 48q0 50 -48 50h-9q-2 -1 -4 -1zM558 0l-3 6l27 156
l31 222q3 17 -10 21l-46 20l15 103h268l-56 -402q-2 -12 0 -15t13 -5l36 -7l-12 -99h-263z" />
    <glyph glyph-name="afii10094" unicode="&#x44c;" horiz-adv-x="541" 
d="M309 336q11 2 32 7t42 5q80 0 122 -40t42 -110q0 -58 -24.5 -98t-64.5 -65t-92 -36t-108 -11q-67 0 -121 9.5t-80 15.5l51 371q3 15 -10 21l-46 20l15 103h263l4 -9zM278 118q3 -1 7 -1q8 -1 13 -1q28 0 42.5 17t14.5 48q0 50 -48 50h-9q-2 -1 -4 -1z" />
    <glyph glyph-name="afii10095" unicode="&#x44d;" horiz-adv-x="577" 
d="M384 333q-2 20 -11 33t-22.5 21t-30 11t-32.5 3q-14 0 -23 -1t-14 -3q-9 -3 -12.5 -9t-7.5 -20l-13 -48h-146l24 181q17 6 42.5 13t55 12.5t62 9t63.5 3.5q133 0 197 -66.5t64 -178.5q0 -70 -23.5 -126.5t-66.5 -96.5t-102.5 -61.5t-130.5 -21.5q-63 0 -121.5 14.5
t-104.5 43.5l57 132q9 -5 25 -11.5t36.5 -12.5t43 -10t44.5 -4q43 0 75.5 16.5t49.5 39.5h-129l19 137h132z" />
    <glyph glyph-name="afii10096" unicode="&#x44e;" horiz-adv-x="857" 
d="M352 336q28 92 100 147.5t193 55.5q66 0 107.5 -17t65.5 -47t33 -71t9 -88q0 -70 -17.5 -130t-54 -104t-93.5 -69t-135 -25q-64 0 -107 16t-69 45t-37.5 68.5t-11.5 86.5h-48l-29 -204h-202l-3 6l52 378q3 17 -10 21l-46 20l15 103h269l-27 -192h46zM578 128
q24 0 39.5 22t24 52.5t11.5 63t3 54.5q0 43 -10 59.5t-30 16.5q-24 0 -39.5 -22t-24.5 -52.5t-12.5 -63.5t-3.5 -55q0 -44 10.5 -59.5t31.5 -15.5z" />
    <glyph glyph-name="afii10097" unicode="&#x44f;" horiz-adv-x="640" 
d="M367 194q-17 0 -30.5 -11.5t-24.5 -30.5q-22 -41 -38 -76t-31 -76h-235l14 99l51 7q11 2 16.5 6.5t10.5 12.5l38 60q16 25 29 38.5t44 20.5l1 4q-35 11 -63 39.5t-28 80.5q0 51 22 84.5t59 52.5t85.5 26.5t100.5 7.5q27 0 59.5 -2.5t65.5 -8t63.5 -13t51.5 -18.5
l-51 -371q-2 -12 0 -15t13 -5l36 -7l-12 -99h-257l-3 6l26 188h-13zM409 400q-10 3 -18 3.5t-16 0.5q-20 0 -36.5 -12t-16.5 -34q0 -17 10 -28t34 -11h31z" />
    <glyph glyph-name="afii10071" unicode="&#x451;" horiz-adv-x="529" 
d="M502 46q-58 -25 -116 -41.5t-118 -16.5q-63 0 -107 17t-71 47t-39 70t-12 86q0 89 26.5 152t70 103t100.5 58t117 18q88 0 137.5 -36t49.5 -109q0 -47 -23.5 -81t-63 -56.5t-91 -36t-107.5 -19.5q4 -28 19.5 -45.5t53.5 -17.5q18 0 57.5 9.5t88.5 26.5zM253 315
q19 4 37.5 9t33.5 13t24 19t9 26q0 22 -29 22q-21 0 -44 -19.5t-31 -69.5zM444 587q-35 0 -53.5 19t-18.5 53q0 46 25 71t70 25q35 0 54.5 -18t19.5 -52q0 -46 -25.5 -72t-71.5 -26zM230 587q-35 0 -53.5 19t-18.5 53q0 46 25 71t70 25q35 0 54.5 -18t19.5 -52
q0 -46 -25.5 -72t-71.5 -26z" />
    <glyph glyph-name="afii10099" unicode="&#x452;" horiz-adv-x="619" 
d="M312 384q20 17 39 33.5t39 29.5t43 20.5t50 7.5q39 0 65 -15t41.5 -40t21.5 -56t6 -63q0 -53 -5.5 -112.5t-19.5 -118t-38 -112t-61 -94t-88 -65t-120 -24.5q-14 0 -31 2t-33.5 5t-30.5 7.5t-22 10.5l33 158q11 -5 30.5 -8.5t41.5 -3.5q28 0 53.5 24t45 65.5t31 97.5
t11.5 121q0 22 -6 34.5t-23 12.5q-7 0 -18 -4.5t-22.5 -11.5t-23.5 -15.5t-21 -16.5l-20 -127q-2 -13 0 -15.5t13 -4.5l33 -7l-14 -99h-308l13 100l40 6q9 2 12 5.5t5 14.5l52 376h-62l16 108h62v1q3 17 -9 21l-45 20l15 103h253l-19 -145h144l-16 -108h-143l-15 -117z" />
    <glyph glyph-name="afii10100" unicode="&#x453;" horiz-adv-x="513" 
d="M478 694l-98 106l-162 -170l72 -75zM288 420q-5 0 -12 -0.5t-15 -2.5q-10 -3 -12 -6.5t-4 -8.5l-20 -64h-153l21 157q18 8 44.5 16t57.5 14t64.5 10t65.5 4q44 0 80.5 -8.5t63 -26.5t41.5 -46t15 -67q0 -36 -13.5 -64t-35 -49t-49 -36t-55.5 -24q-37 -12 -61.5 -19.5
t-38 -13.5t-19 -12t-5.5 -15q0 -11 10.5 -14.5t24.5 -3.5q29 0 73 17t87 49l69 -124q-63 -53 -126 -73.5t-129 -20.5q-109 0 -163 42t-54 112q0 58 24 91t59 51.5t74.5 28t70.5 19.5q31 11 47.5 24t16.5 35q0 14 -9.5 21.5t-34.5 7.5z" />
    <glyph glyph-name="afii10101" unicode="&#x454;" horiz-adv-x="564" 
d="M415 378q0 16 -11 20q-7 2 -14 2.5t-15 0.5q-42 0 -73 -18t-42 -50h125l-19 -137h-126q3 -17 14.5 -28t27 -17t34 -8.5t35.5 -2.5q48 0 88 15t60 26l38 -130q-60 -35 -123 -49t-117 -14q-70 0 -119 18t-80 50.5t-45 77t-14 98.5q0 66 21 122.5t63 97.5t105 64t148 23
q24 0 53 -3.5t57.5 -9.5t54 -14.5t43.5 -19.5l-26 -183l-145 10z" />
    <glyph glyph-name="afii10102" unicode="&#x455;" horiz-adv-x="505" 
d="M357 363l-2 37q-1 13 -14 16q-9 2 -16.5 3t-19.5 1q-48 0 -48 -28q0 -20 23.5 -31.5t59.5 -19.5q29 -6 58 -16t52 -28t38 -45.5t15 -68.5q0 -56 -24 -93.5t-63.5 -60t-89.5 -32t-101 -9.5q-36 0 -70 4t-61.5 10t-46.5 12.5t-25 11.5l20 144l141 -9l3 -46q1 -8 4.5 -12
t13.5 -6q17 -3 47 -3q32 0 46.5 9.5t14.5 26.5q0 24 -26 33.5t-66 17.5q-27 6 -55 15.5t-50.5 28t-37 47.5t-14.5 74q0 51 22.5 87.5t59 60t83 34.5t95.5 11q31 0 61.5 -3t57.5 -7.5t48 -10.5t33 -11l-22 -152z" />
    <glyph glyph-name="afii10103" unicode="&#x456;" horiz-adv-x="341" 
d="M223 576q-48 0 -73 25.5t-25 72.5q0 63 34.5 98t96.5 35q48 0 74.5 -24.5t26.5 -71.5q0 -63 -35.5 -99t-98.5 -36zM50 0l-3 6l27 156l31 222q3 17 -10 21l-46 20l15 103h268l-56 -402q-2 -12 0 -15t13 -5l36 -7l-12 -99h-263z" />
    <glyph glyph-name="afii10104" unicode="&#x457;" horiz-adv-x="341" 
d="M311 583q-35 0 -53.5 19t-18.5 53q0 46 25 71t70 25q35 0 54.5 -18t19.5 -52q0 -46 -25.5 -72t-71.5 -26zM109 583q-35 0 -53.5 19t-18.5 53q0 46 25 71t70 25q35 0 54.5 -18t19.5 -52q0 -46 -25.5 -72t-71.5 -26zM50 0l-3 6l27 156l31 222q3 17 -10 21l-46 20l15 103
h268l-56 -402q-2 -12 0 -15t13 -5l36 -7l-12 -99h-263z" />
    <glyph glyph-name="afii10105" unicode="&#x458;" horiz-adv-x="338" 
d="M109 384q1 15 -10 21l-45 20l14 103h265l-77 -568q-7 -50 -25.5 -85t-48 -57t-68 -31.5t-84.5 -9.5q-37 0 -67.5 7t-54 16.5t-38.5 19.5t-21 16l64 108q11 -5 32.5 -13.5t47.5 -8.5q10 0 19 1t17.5 8t14.5 21t10 40zM224 576q-48 0 -73.5 25.5t-25.5 72.5q0 63 35 98
t97 35q48 0 74.5 -24.5t26.5 -71.5q0 -63 -35.5 -99t-98.5 -36z" />
    <glyph glyph-name="afii10106" unicode="&#x459;" horiz-adv-x="869" 
d="M606 118q3 -1 7 -1q8 -1 13 -1q28 0 42.5 17t14.5 48q0 50 -48 50h-9q-2 -1 -4 -1zM658 528l4 -9l-25 -183q11 2 32 7t42 5q80 0 122 -40t42 -110q0 -58 -24.5 -98t-64.5 -65t-92 -36t-108 -11q-67 0 -120.5 10t-79.5 18l51 380h-83q-3 -24 -7.5 -53t-10.5 -59t-13 -59.5
t-15 -54.5q-11 -34 -30.5 -70t-51.5 -63.5t-79 -42.5t-113 -7l-17 163q53 0 80.5 20.5t40.5 58.5q10 29 17.5 68t15.5 87q3 15 -10 21l-46 20l15 103h528z" />
    <glyph glyph-name="afii10107" unicode="&#x45a;" horiz-adv-x="855" 
d="M623 336q11 2 32 7t42 5q80 0 122 -40t42 -110q0 -58 -24.5 -98t-64.5 -65t-92 -36t-108 -11q-67 0 -120.5 10t-79.5 18l25 188h-107l-29 -204h-208l-3 6l27 156l31 222q3 17 -10 21l-46 20l15 103h263l4 -9l-25 -183h106l27 192h202l4 -9zM592 118q3 -1 7 -1q8 -1 13 -1
q28 0 42.5 17t14.5 48q0 50 -48 50h-9q-2 -1 -4 -1z" />
    <glyph glyph-name="afii10108" unicode="&#x45b;" horiz-adv-x="623" 
d="M284 126q-2 -13 0 -15.5t13 -4.5l33 -7l-14 -99h-308l13 100l40 6q9 2 12 5.5t5 14.5l52 376h-62l16 108h62v1q3 17 -9 21l-45 20l15 103h253l-19 -145h144l-16 -108h-143l-15 -117l5 -1q18 15 35 29.5t36 25.5t41 18t50 7q61 0 88 -32.5t27 -88.5q0 -11 -1 -23.5
t-3 -25.5l-26 -168q-2 -12 -0.5 -15t12.5 -5l43 -7l-13 -99h-264l-2 8l39 246q2 11 0.5 23.5t-17.5 12.5q-12 0 -26.5 -11.5t-30.5 -25.5z" />
    <glyph glyph-name="afii10109" unicode="&#x45c;" horiz-adv-x="629" 
d="M372 555l-72 75l162 170l98 -106zM551 125q3 -8 6.5 -12.5t14.5 -6.5l59 -7l-14 -99h-235q-10 50 -20 90t-20 69q-9 26 -18 36.5t-26 10.5h-7l-30 -206h-206l53 387q3 15 -10 21l-46 17l15 103h263l4 -9l-26 -191h12q24 0 36 11t23 36l31 67q25 54 57 75.5t86 21.5
q20 0 49 -4.5t49 -11.5l-24 -122q-26 7 -42 3t-26 -29l-15 -39q-10 -25 -32 -41t-51 -21v-4q20 -7 37.5 -22t28.5 -52z" />
    <glyph glyph-name="afii10110" unicode="&#x45e;" horiz-adv-x="619" 
d="M214 -10l-120 413q-3 9 -6.5 12t-11.5 5l-39 8l15 100h222l15 -16l29 -133l37 -175h5l92 217l-61 7l16 100h213l19 -48l-283 -566q-34 -70 -87 -103.5t-142 -33.5q-31 0 -58.5 6t-49 15t-36.5 19t-23 17l64 111q20 -13 44.5 -22t51.5 -9q29 0 46 11t31 34zM361 671
q29 0 45.5 16t27.5 64l117 -26q-24 -82 -68.5 -120t-125.5 -38q-88 0 -128 41.5t-41 116.5l120 31q-2 -43 9.5 -64t43.5 -21z" />
    <glyph glyph-name="afii10193" unicode="&#x45f;" horiz-adv-x="620" 
d="M373 -39l-46 -169l-141 -10l32 163zM351 0l9 66l-5 3q-16 -15 -34.5 -29.5t-38.5 -26t-43 -18.5t-50 -7q-54 0 -86 31t-32 100q0 10 0.5 19.5t1.5 20.5l35 243q2 12 0.5 15t-12.5 5l-45 7l14 99h259l4 -9l-44 -319q-3 -21 1 -28.5t18 -7.5q12 0 27.5 10.5t28.5 22.5
l27 205q2 12 -0.5 16t-13.5 7l-17 4l13 99h235l8 -10l-55 -389q-2 -8 -0.5 -14t9.5 -8l46 -8l-14 -99h-246z" />
    <glyph glyph-name="afii10050" unicode="&#x490;" horiz-adv-x="617" 
d="M499 724q13 0 16 11l28 85l152 11l-36 -252h-288l-61 -452q-2 -12 0 -15t12 -5l144 -8l-13 -99h-451l13 98l63 7q11 2 14.5 5.5t5.5 14.5l66 473q2 11 -0.5 15t-12.5 5l-62 7l13 99h397z" />
    <glyph glyph-name="afii10098" unicode="&#x491;" horiz-adv-x="517" 
d="M71 528h300q15 0 17 10l25 76l146 12l-33 -230h-208l-37 -270q-2 -12 0 -16t13 -5l86 -6l-13 -99h-362l13 100l39 6q10 2 13 5.5t5 14.5l35 258q2 8 0.5 13t-9.5 8l-45 20z" />
    <glyph glyph-name="thinspace" unicode="&#x2009;" horiz-adv-x="125" 
 />
    <glyph glyph-name="endash" unicode="&#x2013;" horiz-adv-x="499" 
d="M21 207l20 145h499l-20 -145h-499z" />
    <glyph glyph-name="emdash" unicode="&#x2014;" horiz-adv-x="1000" 
d="M23 207l20 145h1000l-20 -145h-1000z" />
    <glyph glyph-name="quoteleft" unicode="&#x2018;" horiz-adv-x="260" 
d="M269 522q-30 0 -57.5 2.5t-48 11t-33 24t-12.5 41.5q0 23 10.5 44t25.5 46l58 99l78 -25l-31 -100q-3 -11 6 -14l40 -14z" />
    <glyph glyph-name="quoteright" unicode="&#x2019;" horiz-adv-x="247" 
d="M131 546l31 100q3 10 -6 13l-40 15l36 115q30 0 57.5 -2t48 -9.5t33 -22t12.5 -40.5q0 -23 -10.5 -46t-25.5 -48l-58 -100z" />
    <glyph glyph-name="quotesinglbase" unicode="&#x201a;" horiz-adv-x="267" 
d="M49 -123l31 100q3 10 -5 13l-40 15l36 115q30 0 57.5 -2t48 -9.5t33 -22t12.5 -40.5q0 -23 -10.5 -46t-25.5 -48l-58 -100z" />
    <glyph glyph-name="quotedblleft" unicode="&#x201c;" horiz-adv-x="463" 
d="M472 522q-30 0 -57.5 2.5t-48 11t-33 24t-12.5 41.5q0 23 10.5 44t25.5 46l58 99l78 -25l-31 -100q-3 -11 6 -14l40 -14zM269 522q-30 0 -57.5 2.5t-48 11t-33 24t-12.5 41.5q0 23 10.5 44t25.5 46l58 99l78 -25l-31 -100q-3 -11 6 -14l40 -14z" />
    <glyph glyph-name="quotedblright" unicode="&#x201d;" horiz-adv-x="450" 
d="M334 546l31 100q3 10 -6 13l-40 15l36 115q30 0 57.5 -2t48 -9.5t33 -22t12.5 -40.5q0 -23 -10.5 -46t-25.5 -48l-58 -100zM131 546l31 100q3 10 -6 13l-40 15l36 115q30 0 57.5 -2t48 -9.5t33 -22t12.5 -40.5q0 -23 -10.5 -46t-25.5 -48l-58 -100z" />
    <glyph glyph-name="quotedblbase" unicode="&#x201e;" horiz-adv-x="470" 
d="M252 -123l31 100q3 10 -5 13l-40 15l36 115q30 0 57.5 -2t48 -9.5t33 -22t12.5 -40.5q0 -23 -10.5 -46t-25.5 -48l-58 -100zM49 -123l31 100q3 10 -5 13l-40 15l36 115q30 0 57.5 -2t48 -9.5t33 -22t12.5 -40.5q0 -23 -10.5 -46t-25.5 -48l-58 -100z" />
    <glyph glyph-name="dagger" unicode="&#x2020;" horiz-adv-x="412" 
d="M115 -83l27 187l6 216l85 112h35l59 -112l-54 -216l-27 -187h-131zM143 381h-74l19 134h74l75 -50l-4 -33zM237 465l-37 96l12 84h135l-12 -84l-64 -96h-34zM344 381l-76 51l3 33l92 50h73l-20 -134h-72z" />
    <glyph glyph-name="daggerdbl" unicode="&#x2021;" horiz-adv-x="420" 
d="M120 -83l12 84l65 96l-91 -51h-74l19 134h74l76 -50l-53 116l9 73l87 113l-91 -51h-74l20 134h74l75 -50l-37 96l12 84h135l-12 -84l-64 -96l92 50h73l-20 -134h-73l-76 51l58 -113l-9 -73l-92 -116l91 50h73l-19 -134h-73l-76 51l36 -96l-12 -84h-135zM282 465h-34
l-4 -33h34zM235 130h-34l-4 -33h34z" />
    <glyph glyph-name="bullet" unicode="&#x2022;" horiz-adv-x="401" 
d="M393 289q0 -79 -42.5 -118.5t-123.5 -39.5t-123 39.5t-42 118.5t42 118.5t123 39.5t123.5 -39.5t42.5 -118.5z" />
    <glyph glyph-name="ellipsis" unicode="&#x2026;" horiz-adv-x="802" 
d="M506 98q0 -51 -28.5 -80.5t-91.5 -29.5q-94 0 -94 75q0 52 28.5 81.5t92.5 29.5q93 0 93 -76zM749 98q0 -51 -28.5 -80.5t-91.5 -29.5q-94 0 -94 75q0 52 28.5 81.5t92.5 29.5q93 0 93 -76zM263 98q0 -51 -28.5 -80.5t-91.5 -29.5q-94 0 -94 75q0 52 28.5 81.5t92.5 29.5
q93 0 93 -76z" />
    <glyph glyph-name="perthousand" unicode="&#x2030;" horiz-adv-x="1199" 
d="M998 -12q-76 0 -109 33.5t-33 91.5v18.5t2 19.5q12 87 62 124.5t131 37.5q72 0 106.5 -32t34.5 -92q0 -17 -3 -37q-11 -81 -60.5 -122.5t-130.5 -41.5zM1015 81q11 0 21 11.5t16 54.5q2 14 2.5 23.5t0.5 15.5q0 21 -6 27t-15 6q-5 0 -10.5 -1.5t-10.5 -8t-10 -19
t-8 -34.5q-2 -11 -2 -20v-16q0 -24 6.5 -31.5t15.5 -7.5zM642 -12q-76 0 -109 33.5t-33 91.5v18.5t2 19.5q12 87 62 124.5t131 37.5q72 0 106.5 -32t34.5 -92q0 -17 -3 -37q-11 -81 -60.5 -122.5t-130.5 -41.5zM659 81q11 0 21 11.5t16 54.5q2 14 2.5 23.5t0.5 15.5
q0 21 -6 27t-15 6q-5 0 -10.5 -1.5t-10.5 -8t-10 -19t-8 -34.5q-2 -11 -2 -20v-16q0 -24 6.5 -31.5t15.5 -7.5zM205 295q-76 0 -109 33.5t-33 91.5v18.5t2 19.5q12 87 62 124.5t131 37.5q72 0 106.5 -32t34.5 -92q0 -17 -3 -37q-11 -81 -60.5 -122.5t-130.5 -41.5zM121 -12
l462 632h191l-461 -632h-192zM222 388q11 0 21 11.5t16 54.5q2 14 2.5 23.5t0.5 15.5q0 21 -6 27t-15 6q-5 0 -10.5 -1.5t-10.5 -8t-10 -19t-8 -34.5q-2 -11 -2 -20v-16q0 -24 6.5 -31.5t15.5 -7.5z" />
    <glyph glyph-name="guilsinglleft" unicode="&#x2039;" horiz-adv-x="278" 
d="M98 103l-62 152l110 153h161l-103 -140q-5 -6 -5.5 -9.5t1.5 -9.5l58 -146h-160z" />
    <glyph glyph-name="guilsinglright" unicode="&#x203a;" horiz-adv-x="278" 
d="M20 103l99 146q4 6 4.5 9.5t-2.5 9.5l-66 140h162l68 -152l-107 -153h-158z" />
    <glyph glyph-name="fraction" unicode="&#x2044;" horiz-adv-x="239" 
d="M-174 -17l462 741h191l-461 -741h-192z" />
    <glyph glyph-name="Euro" unicode="&#x20ac;" horiz-adv-x="595" 
d="M326 247q0 -64 12.5 -87.5t42.5 -23.5q15 0 28 4q6 2 8.5 5.5t5.5 12.5l24 70l140 5l-27 -192q-16 -10 -42 -20t-57 -17t-64.5 -11.5t-63.5 -4.5q-115 0 -171.5 65.5t-57.5 193.5h-80l47 151h49q17 71 49.5 121t74.5 82t91 47t99 15q30 0 61 -4.5t58.5 -11.5t49.5 -16.5
t35 -20.5l-27 -187l-142 5l-4 70q0 14 -8 18q-8 3 -16 4t-18 1t-22 -5.5t-23.5 -19t-22 -37.5t-17.5 -61h111l-45 -151h-78z" />
    <glyph glyph-name="afii61352" unicode="&#x2116;" horiz-adv-x="1145" 
d="M436 0l-157 385l-37 -264q-2 -12 0 -15t13 -5l66 -8l-13 -93h-299l13 93l64 7q11 2 13.5 5.5t4.5 14.5l56 396q2 11 0 15t-13 5l-62 7l13 93h278l155 -388l38 266q2 11 -0.5 15t-12.5 5l-62 7l13 95h298l-13 -95l-69 -8q-11 -2 -13.5 -5t-4.5 -14l-72 -514h-197zM734 174
h350l-15 -106h-350zM910 202q-93 0 -134.5 40.5t-41.5 107.5q0 19 3 38q11 81 68.5 131t161.5 50q43 0 75 -11.5t53.5 -31t32 -46t10.5 -57.5q0 -11 -1 -22.5t-4 -27.5q-7 -36 -22.5 -67t-42.5 -54t-66 -36.5t-92 -13.5zM924 302q14 0 26.5 14.5t19.5 61.5q2 18 3 28.5
t1 20.5q0 25 -7.5 33t-17.5 8q-7 0 -14 -2.5t-13.5 -11t-12 -24.5t-9.5 -43q-2 -12 -2.5 -22t-0.5 -21q0 -25 7 -33.5t20 -8.5z" />
    <glyph glyph-name="trademark" unicode="&#x2122;" horiz-adv-x="864" 
d="M186 348v56l48 5v246h-55l-6 -48h-53v117h324v-117h-53l-5 48h-57v-246l50 -5v-56h-193zM754 348v55l35 5v154l-64 -133h-77l-63 134v-155l39 -5v-55h-151v55l32 5v254l-32 3v59h121l96 -203l99 203h117v-59l-34 -3v-254l36 -5v-55h-154z" />
    <glyph glyph-name="partialdiff" unicode="&#x2202;" horiz-adv-x="606" 
d="M402 379q1 6 1.5 15t1 17t0.5 15v8q0 50 -19 72.5t-57 22.5q-36 0 -73.5 -15t-69.5 -34l-61 115q24 16 54 30.5t64.5 26t72 18.5t75.5 7q57 0 99 -18t69 -51t40.5 -79t13.5 -102q0 -46 -5.5 -96t-19.5 -99t-38.5 -93t-62.5 -77.5t-92 -53.5t-126 -20q-51 0 -92.5 11.5
t-71 34.5t-45.5 57.5t-16 81.5q0 59 17 104.5t48 76t73 46t93 15.5q41 0 75 -11t52 -25zM379 267q-14 7 -28 11.5t-28 4.5q-31 0 -47.5 -26t-16.5 -68q0 -8 1.5 -17t6 -17t12.5 -13.5t21 -5.5q32 0 49.5 32.5t29.5 98.5z" />
    <glyph glyph-name="product" unicode="&#x220f;" horiz-adv-x="825" 
d="M398 -176l13 97l64 7q11 2 14 5.5t5 14.5l89 624h-204l-89 -623q-2 -12 0 -15t13 -5l66 -8l-13 -97h-379l13 97l64 7q11 2 14 5.5t5 14.5l93 650q2 11 -1 15t-14 5l-62 7l15 99h800l-15 -99l-68 -8q-11 -2 -13 -5t-4 -14l-93 -649q-2 -12 0 -15t13 -5l66 -8l-13 -97h-379
z" />
    <glyph glyph-name="summation" unicode="&#x2211;" horiz-adv-x="627" 
d="M-54 -176l16 122l265 315l-166 361l15 102h576l-34 -239l-152 6l-3 75q-1 13 -16 13h-130l119 -291l-242 -296h199q8 0 13 3t8 14l26 82h152l-35 -267h-611z" />
    <glyph glyph-name="minus" unicode="&#x2212;" horiz-adv-x="570" 
d="M101 248l21 153h397l-21 -153h-397z" />
    <glyph glyph-name="radical" unicode="&#x221a;" horiz-adv-x="616" 
d="M258 0l-82 188q-4 9 -8 11t-14 0l-59 -9l-36 110l207 90l81 -209l227 568l160 -41l-290 -708h-186z" />
    <glyph glyph-name="infinity" unicode="&#x221e;" horiz-adv-x="636" 
d="M208 476q56 0 92.5 -22t62.5 -53q29 29 65.5 52t84.5 23q26 0 49.5 -8.5t41 -25.5t27.5 -42.5t10 -58.5t-10 -65t-30 -56.5t-50 -40t-71 -15.5q-27 0 -50.5 7.5t-43 19t-35 26.5t-28.5 30q-29 -32 -64.5 -57.5t-80.5 -25.5q-56 0 -93 32.5t-37 108.5q0 31 10 61.5t30 55
t50 39.5t70 15zM185 252q23 0 44.5 16t41.5 39q-42 61 -87 61q-23 0 -37 -14t-14 -43q0 -22 9 -40.5t43 -18.5zM509 395q-25 0 -46 -13t-44 -36q19 -22 42.5 -40.5t49.5 -18.5q22 0 35 11.5t13 44.5q0 23 -12.5 37.5t-37.5 14.5z" />
    <glyph glyph-name="integral" unicode="&#x222b;" horiz-adv-x="400" 
d="M93 -39q17 -8 31.5 -10.5t25.5 -2.5q15 0 21.5 11t2.5 55l-48 542q-4 49 8 81.5t34 52.5t51 28.5t59 8.5q36 0 70 -6t76 -20l-31 -125q-19 8 -31.5 11t-23.5 3q-15 0 -23 -9.5t-5 -38.5l51 -562q4 -50 -8 -82.5t-33.5 -51.5t-49 -27t-54.5 -8q-44 0 -83.5 8.5t-71.5 20.5
z" />
    <glyph glyph-name="approxequal" unicode="&#x2248;" horiz-adv-x="530" 
d="M546 512q-8 -28 -18.5 -54t-25 -46.5t-34.5 -33t-47 -12.5t-55.5 5t-56 10.5t-53 10.5t-47.5 5q-16 0 -25.5 -6t-22.5 -25l-87 43q30 60 61.5 94.5t79.5 34.5q29 0 55.5 -5t52.5 -11t50.5 -11t48.5 -5q11 0 17.5 8t14.5 24zM520 299q-8 -28 -18.5 -54t-25.5 -46
t-34.5 -32.5t-46.5 -12.5t-55.5 4.5t-56 10.5t-53.5 10.5t-48 4.5q-16 0 -25.5 -6t-22.5 -25l-87 43q31 60 62 94.5t79 34.5q29 0 55.5 -5t52.5 -11t50.5 -11t48.5 -5q11 0 17.5 8t15.5 24z" />
    <glyph glyph-name="notequal" unicode="&#x2260;" horiz-adv-x="570" 
d="M307 100l-34 -75h-143l35 75h-66l21 152h116l27 59h-135l22 152h185l35 76h137l-34 -76h75l-22 -152h-123l-27 -59h142l-21 -152h-190z" />
    <glyph glyph-name="lessequal" unicode="&#x2264;" horiz-adv-x="570" 
d="M90 0l21 152h379l-361 124l25 180l417 129l-27 -154l-237 -60l219 -68l-39 -303h-397z" />
    <glyph glyph-name="greaterequal" unicode="&#x2265;" horiz-adv-x="570" 
d="M73 0l46 302l237 68l-220 54l17 161l381 -129l-26 -180l-396 -124h379l-21 -152h-397z" />
    <glyph glyph-name="lozenge" unicode="&#x25ca;" horiz-adv-x="578" 
d="M198 -17l-109 324l200 324h146l107 -324l-198 -324h-146zM395 307l-56 162l-102 -162l55 -173z" />
    <glyph glyph-name="breve.cyr" 
d="M259 671q29 0 45.5 16t27.5 64l117 -26q-24 -82 -68.5 -120t-125.5 -38q-88 0 -128 41.5t-41 116.5l120 31q-2 -43 9.5 -64t43.5 -21z" />
    <glyph glyph-name="breve_cyr.cap.smcp" horiz-adv-x="413" 
d="M200 713q29 0 45.5 16t27.5 64l117 -26q-24 -82 -68.5 -120t-125.5 -38q-88 0 -128 41.5t-41 116.5l120 31q-2 -43 9.5 -64t43.5 -21z" />
    <glyph glyph-name="hyphen.case" horiz-adv-x="311" 
d="M47 267l23 165h271l-23 -165h-271z" />
    </font>
</defs>
</svg>
