<?xml version="1.0" standalone="no"?>
<!DOCTYPE svg PUBLIC "-//W3C//DTD SVG 1.1//EN" "http://www.w3.org/Graphics/SVG/1.1/DTD/svg11.dtd" >
<svg xmlns="http://www.w3.org/2000/svg" xmlns:xlink="http://www.w3.org/1999/xlink" version="1.1">
<metadata>
Created by FontForge 20170731 at Wed May 14 19:51:38 2014
 By ,,,
Copyright (c) 2010 by TypeTogether. All rights reserved.This font is ONLY licensed for use when accessed from the Extensis WebINK font service. Any other use of this font file is illegal under United States and international copyright laws. Please respect the rights of the people who design and license fonts.
</metadata>
<defs>
<font id="AdelleCyrillic-Italic" horiz-adv-x="500" >
  <font-face 
    font-family="Adelle Cyrillic"
    font-weight="400"
    font-style="italic"
    font-stretch="normal"
    units-per-em="1000"
    panose-1="2 0 5 3 0 0 0 9 0 4"
    ascent="755"
    descent="-245"
    x-height="514"
    cap-height="724"
    bbox="-143 -236 1075 941"
    underline-thickness="50"
    underline-position="-200"
    unicode-range="U+000D-25CA"
  />
<missing-glyph 
 />
    <glyph glyph-name=".notdef" 
 />
    <glyph glyph-name=".null" horiz-adv-x="0" 
 />
    <glyph glyph-name="nonmarkingreturn" unicode="&#xd;" 
 />
    <glyph glyph-name="NULL" horiz-adv-x="0" 
 />
    <glyph glyph-name="NULL" horiz-adv-x="0" 
 />
    <glyph glyph-name="space" unicode=" " horiz-adv-x="222" 
 />
    <glyph glyph-name="exclam" unicode="!" horiz-adv-x="264" 
d="M98 187l39 371l23 166h101l-23 -166l-64 -371h-76zM184 62q0 -74 -76 -74q-58 0 -58 52q0 74 76 74q58 0 58 -52z" />
    <glyph glyph-name="quotedbl" unicode="&#x22;" horiz-adv-x="373" 
d="M253 447l37 259h90l-37 -259h-90zM83 447l37 259h90l-37 -259h-90z" />
    <glyph glyph-name="numbersign" unicode="#" horiz-adv-x="607" 
d="M408 139l-40 -139h-72l40 139h-121l-40 -139h-72l39 139h-114l24 66h111l43 148h-115l25 67h110l35 123h73l-36 -123h120l35 123h72l-36 -123h116l-24 -67h-111l-43 -148h114l-23 -66h-110zM398 353h-120l-44 -148h122z" />
    <glyph glyph-name="dollar" unicode="$" horiz-adv-x="513" 
d="M351 627q48 -2 89.5 -12.5t62.5 -18.5l-20 -152l-65 5l-3 73q-1 12 -3 17.5t-11 9.5q-22 9 -59 11l-30 -216q26 -9 51.5 -21t46 -29.5t33 -42t12.5 -59.5q0 -82 -52.5 -130t-140.5 -59l-11 -83h-69l10 80q-56 2 -104.5 14t-71.5 25l20 138h65l7 -72q2 -15 4.5 -20
t13.5 -8q30 -10 75 -11l30 219q-27 9 -52.5 21t-45.5 29t-32 42.5t-12 61.5q0 44 15 76.5t40.5 55t60.5 36t74 18.5l11 75h71zM177 458q0 -34 16.5 -54t50.5 -36l25 188q-44 -9 -68 -34.5t-24 -63.5zM368 173q0 32 -16.5 52.5t-54.5 34.5l-26 -193q51 9 74 38.5t23 67.5z
" />
    <glyph glyph-name="percent" unicode="%" horiz-adv-x="879" 
d="M221 257q-39 0 -66 12t-43.5 32t-23.5 46.5t-7 55.5q0 47 12 86.5t36.5 68.5t60.5 45.5t84 16.5q73 0 106 -39.5t33 -105.5q0 -48 -12.5 -88t-37 -69t-60 -45t-82.5 -16zM175 -17l466 638h86l-465 -638h-87zM230 318q37 0 57.5 17.5t30.5 42t12.5 50.5t2.5 44
q0 38 -15 62t-53 24q-30 0 -50.5 -13t-32.5 -34t-17 -47.5t-5 -53.5q0 -37 15 -64.5t55 -27.5zM634 -12q-39 0 -66 12t-43.5 32t-24 46.5t-7.5 55.5q0 47 12.5 86.5t36.5 68.5t60.5 45.5t84.5 16.5q73 0 106 -39.5t33 -105.5q0 -48 -12.5 -88t-37 -69t-60 -45t-82.5 -16z
M643 49q37 0 57.5 17.5t30.5 42t12.5 50.5t2.5 44q0 38 -15 62t-53 24q-30 0 -50.5 -13t-32.5 -34t-17 -47.5t-5 -53.5q0 -37 15 -64.5t55 -27.5z" />
    <glyph glyph-name="ampersand" unicode="&#x26;" horiz-adv-x="692" 
d="M602 321q-17 -1 -18 -14l-37 -268q-17 -12 -42.5 -21.5t-56 -16t-64 -10t-66.5 -3.5q-127 0 -184 46t-57 124q0 41 12.5 72.5t33.5 54.5t49 38.5t58 23.5q-40 15 -65.5 50t-25.5 83q0 44 17 80t48 61.5t74.5 39.5t97.5 14q31 0 61 -4t56 -10.5t46.5 -14.5t32.5 -16
l-23 -137l-66 5l-4 71q-1 9 -2.5 13.5t-9.5 7.5q-19 7 -43 9t-44 2q-23 0 -49 -4.5t-48 -17.5t-36.5 -36t-14.5 -61q0 -48 31 -74.5t86 -26.5h56l-10 -72q-46 0 -86.5 -5.5t-70.5 -20.5t-47.5 -41.5t-17.5 -67.5q0 -34 11.5 -56t32 -34.5t48 -17.5t58.5 -5q43 0 71.5 4.5
t45.5 11.5q15 6 20 13t7 21l37 257l23 12h124l-8 -55z" />
    <glyph glyph-name="quotesingle" unicode="'" horiz-adv-x="203" 
d="M83 447l37 259h90l-37 -259h-90z" />
    <glyph glyph-name="parenleft" unicode="(" horiz-adv-x="315" 
d="M155 -158q-37 69 -65 161.5t-28 200.5q0 82 19.5 155.5t52 139.5t73 123.5t82.5 106.5l62 -42q-49 -64 -85.5 -122.5t-61 -116t-36.5 -118t-12 -129.5q0 -97 22.5 -173.5t52.5 -146.5z" />
    <glyph glyph-name="parenright" unicode=")" horiz-adv-x="311" 
d="M-19 -116q49 64 85.5 122.5t61 116t36.5 118t12 129.5q0 97 -22.5 173.5t-52.5 146.5l76 39q37 -69 65 -161.5t28 -200.5q0 -82 -19.5 -155.5t-52 -139.5t-73 -123.5t-82.5 -106.5z" />
    <glyph glyph-name="asterisk" unicode="*" horiz-adv-x="471" 
d="M117 443l48 50l90 65l-101 13l-59 22l35 71l59 -22l80 -54l-7 102l10 65h75l-10 -65l-35 -102h-33l-14 -30l27 -20l-62 -92l-48 -51zM350 397l-34 49l-34 92l26 19l-6 31l96 54l64 22l16 -71l-65 -22l-105 -14l70 -66l35 -50z" />
    <glyph glyph-name="plus" unicode="+" horiz-adv-x="570" 
d="M225 128l22 153h-147l11 81h147l21 150h83l-21 -150h147l-11 -81h-147l-22 -153h-83z" />
    <glyph glyph-name="comma" unicode="," horiz-adv-x="205" 
d="M13 -101l45 105q3 8 -4 10l-32 14l33 83q44 -1 72.5 -10.5t28.5 -42.5q0 -17 -6.5 -32t-17.5 -32l-74 -112z" />
    <glyph glyph-name="hyphen" unicode="-" horiz-adv-x="311" 
d="M33 247l13 89h271l-13 -89h-271z" />
    <glyph glyph-name="period" unicode="." horiz-adv-x="232" 
d="M172 64q0 -32 -18.5 -54t-57.5 -22q-58 0 -58 49q0 33 18 55t58 22q58 0 58 -50z" />
    <glyph glyph-name="slash" unicode="/" horiz-adv-x="387" 
d="M-31 -92l398 847h86l-397 -847h-87z" />
    <glyph glyph-name="zero" unicode="0" horiz-adv-x="552" 
d="M526 288q-8 -62 -25.5 -117t-50 -95.5t-81.5 -64t-120 -23.5q-58 0 -97 16.5t-62.5 45.5t-33.5 68t-10 84q0 43 6 86q8 61 27 115t52.5 94t83.5 63.5t119 23.5q56 0 93.5 -17t60.5 -46t33 -67.5t10 -82.5q0 -20 -1 -41t-4 -42zM256 58q41 0 71.5 16t51.5 45t34 71.5
t20 94.5q6 45 6 82q0 65 -25.5 104.5t-89.5 39.5q-83 0 -124 -59t-56 -169q-3 -21 -4 -40t-1 -36q0 -33 6 -60.5t19.5 -47t36 -30.5t55.5 -11z" />
    <glyph glyph-name="one" unicode="1" horiz-adv-x="347" 
d="M0 0l7 51l98 6q9 1 11.5 5t4.5 15l56 402q2 11 -1 15t-11 6l-89 18l9 51h193l-68 -492q-2 -12 0.5 -15.5t13.5 -4.5l83 -7l-7 -50h-300z" />
    <glyph glyph-name="two" unicode="2" horiz-adv-x="490" 
d="M13 0l9 62l196 174q38 34 66 59.5t46.5 48t27.5 44.5t9 47q0 38 -23.5 57.5t-83.5 19.5q-54 0 -80 -21t-34 -83l-84 10q6 54 27 86.5t50 50t63 23.5t68 6q52 0 87.5 -10t57 -28t31 -43.5t9.5 -57.5q0 -44 -16 -79.5t-43 -67t-62 -61.5t-73 -62l-126 -107h205q8 0 11 1.5
t5 9.5l28 85h64l-23 -164h-412z" />
    <glyph glyph-name="three" unicode="3" horiz-adv-x="487" 
d="M322 262q46 -11 77 -44t31 -94q0 -46 -16 -84.5t-46 -65.5t-74 -42t-101 -15q-72 0 -126 26.5t-79 61.5l59 56q23 -28 59 -48t90 -20q27 0 52.5 6t45.5 21t32 40t12 62q0 52 -31.5 77.5t-89.5 25.5q-17 0 -33 -1.5t-36 -4.5l9 69l58 6q74 8 112 44t38 93q0 36 -21 58.5
t-72 22.5q-30 0 -51.5 -4.5t-36 -16t-23 -31.5t-12.5 -52l-85 10q5 53 26 85.5t51.5 50.5t67 24t72.5 6q95 0 135.5 -39.5t40.5 -104.5q0 -63 -35.5 -107.5t-99.5 -66.5v-4z" />
    <glyph glyph-name="four" unicode="4" horiz-adv-x="501" 
d="M285 -67l20 146h-282l10 66l281 432l66 -39l-251 -385h187l27 197l86 11l-29 -208h87l-11 -74h-88l-18 -146h-85z" />
    <glyph glyph-name="five" unicode="5" horiz-adv-x="495" 
d="M198 491l-42 -194q26 17 60.5 28.5t73.5 11.5q75 0 119.5 -44t44.5 -130q0 -51 -17.5 -96t-50 -78.5t-79.5 -52.5t-107 -19q-73 0 -126 24.5t-84 62.5l60 58q28 -32 64 -51t86 -19q30 0 58.5 9t51.5 28.5t37 50t14 73.5q0 32 -8.5 53t-22.5 33.5t-31.5 18t-36.5 5.5
q-41 0 -74 -14t-58 -32l-60 29l65 323h342l-10 -78h-269z" />
    <glyph glyph-name="six" unicode="6" horiz-adv-x="533" 
d="M476 527q-26 25 -54 35.5t-60 10.5q-49 0 -84 -23.5t-58.5 -59t-36 -76t-17.5 -74.5q29 23 73 43t99 20q77 0 116.5 -44t39.5 -119q0 -58 -16 -104.5t-47 -79.5t-75 -50.5t-100 -17.5q-54 0 -90.5 19t-58.5 52.5t-31.5 78.5t-9.5 97q0 37 6 82t19.5 90.5t36 89t55.5 77
t77.5 54t102.5 20.5q45 0 88 -14.5t76 -48.5zM161 269q-1 -12 -2 -24.5t-1 -26.5q0 -27 4 -55t15.5 -51.5t32.5 -38t55 -14.5q67 0 101.5 47.5t34.5 123.5q0 51 -21 76.5t-68 25.5q-23 0 -45 -6t-42 -15.5t-36.5 -20.5t-27.5 -21z" />
    <glyph glyph-name="seven" unicode="7" horiz-adv-x="494" 
d="M115 -67q21 103 56.5 189.5t76.5 156t83.5 123t77.5 89.5h-239q-8 0 -11.5 -2t-5.5 -9l-29 -91l-61 -4l23 184h437l-9 -68q-47 -43 -95.5 -109t-90.5 -142.5t-73.5 -158.5t-43.5 -158h-96z" />
    <glyph glyph-name="eight" unicode="8" horiz-adv-x="485" 
d="M362 329q38 -24 65.5 -56t27.5 -88q0 -48 -18.5 -85t-51.5 -61.5t-77.5 -37.5t-96.5 -13q-83 0 -133.5 36.5t-50.5 108.5q0 36 12 66t31.5 56t46 48.5t54.5 41.5q-32 20 -53 49.5t-21 75.5q0 43 17 76.5t46.5 56t68 34t80.5 11.5q85 0 128 -37.5t43 -94.5
q0 -29 -10.5 -56t-27.5 -51t-38 -44.5t-42 -35.5zM232 309q-59 -39 -89.5 -78.5t-30.5 -83.5q0 -43 30.5 -66.5t84.5 -23.5q60 0 97.5 33t37.5 83q0 47 -35.5 77t-94.5 59zM299 362q40 32 68 67.5t28 77.5q0 40 -28 56t-66 16q-48 0 -81 -24.5t-33 -69.5q0 -22 9.5 -39.5
t25 -32t35.5 -27t42 -24.5z" />
    <glyph glyph-name="nine" unicode="9" horiz-adv-x="526" 
d="M77 47q26 -24 57.5 -39.5t68.5 -15.5q51 0 85.5 24t55.5 59t32 75.5t16 73.5q-29 -23 -72.5 -42.5t-100.5 -19.5q-77 0 -116.5 44.5t-39.5 117.5q0 58 16 106t46 82t74.5 53t101.5 19q54 0 90.5 -19t58 -52t31 -78.5t9.5 -98.5q0 -35 -4.5 -80t-16.5 -91.5t-32.5 -91
t-52.5 -79.5t-77 -56t-105 -21q-45 0 -94 17t-81 53zM396 297q1 11 1.5 24.5t0.5 34.5q0 27 -4 55t-15.5 50.5t-32.5 37t-54 14.5q-64 0 -100 -47.5t-36 -126.5q0 -51 20 -78.5t68 -27.5q23 0 45 6.5t42 16t36.5 20.5t28.5 21z" />
    <glyph glyph-name="colon" unicode=":" horiz-adv-x="232" 
d="M228 454q0 -32 -18.5 -54t-57.5 -22q-58 0 -58 49q0 33 18 55t58 22q58 0 58 -50zM172 64q0 -32 -18.5 -54t-57.5 -22q-58 0 -58 49q0 33 18 55t58 22q58 0 58 -50z" />
    <glyph glyph-name="semicolon" unicode=";" horiz-adv-x="205" 
d="M13 -101l45 105q3 8 -4 10l-32 14l33 83q44 -1 72.5 -10.5t28.5 -42.5q0 -17 -6.5 -32t-17.5 -32l-74 -112zM219 454q0 -32 -18.5 -54t-57.5 -22q-58 0 -58 49q0 33 18 55t58 22q58 0 58 -50z" />
    <glyph glyph-name="less" unicode="&#x3c;" horiz-adv-x="570" 
d="M110 239l14 100l393 154l16 -78l-333 -125l302 -121l-35 -75z" />
    <glyph glyph-name="equal" unicode="=" horiz-adv-x="570" 
d="M94 159l11 83h374l-11 -83h-374zM116 321l12 83h374l-12 -83h-374z" />
    <glyph glyph-name="greater" unicode="&#x3e;" horiz-adv-x="570" 
d="M83 94l-10 80l336 120l-298 126l34 73l350 -154l-14 -100z" />
    <glyph glyph-name="question" unicode="?" horiz-adv-x="477" 
d="M149 186l25 177q45 5 87.5 15.5t75 32.5t52.5 56.5t20 86.5q0 95 -113 95q-29 0 -48 -2t-32 -5q-11 -3 -15 -7.5t-6 -12.5l-21 -67l-72 -4l19 137q26 10 76 23t109 13q44 0 80.5 -8.5t63 -28.5t41.5 -52.5t15 -80.5q0 -56 -18.5 -98.5t-51.5 -73.5t-79 -50.5t-101 -28.5
l-16 -117h-91zM243 62q0 -74 -76 -74q-58 0 -58 52q0 74 76 74q58 0 58 -52z" />
    <glyph glyph-name="at" unicode="@" horiz-adv-x="829" 
d="M567 -143q-26 -11 -77.5 -23t-126.5 -12q-72 0 -130 18t-99.5 54.5t-63.5 92.5t-22 131q0 98 35.5 180.5t96.5 142.5t143 93.5t174 33.5q68 0 123 -17.5t94 -51t60 -82.5t21 -112q0 -51 -12 -107t-39.5 -102.5t-72.5 -77t-112 -30.5q-50 0 -71 20.5t-22 53.5
q-34 -29 -70 -51.5t-75 -22.5q-91 0 -91 104q0 50 17.5 103.5t50.5 98.5t80.5 74t107.5 29q38 0 72 -9.5t57 -22.5l-36 -121q-12 -38 -23 -76.5t-16 -61.5q-1 -5 -1.5 -9.5t-0.5 -9.5q0 -17 9.5 -27.5t34.5 -10.5q29 0 53.5 20t43.5 53.5t29.5 77t10.5 89.5
q0 106 -59.5 159.5t-177.5 53.5q-80 0 -145.5 -30.5t-112.5 -82.5t-72.5 -121t-25.5 -147q0 -112 64.5 -172.5t190.5 -60.5q45 0 89.5 8.5t85.5 22.5zM529 321q-11 8 -26.5 12.5t-32.5 4.5q-27 0 -55.5 -18t-52.5 -48t-39 -70.5t-15 -85.5q0 -24 6.5 -41t32.5 -17
q14 0 30.5 6.5t33 16.5t32.5 22.5t29 25.5z" />
    <glyph glyph-name="A" unicode="A" horiz-adv-x="699" 
d="M428 0l7 47l85 9l-31 165h-274l-75 -165l77 -9l-8 -47h-223l7 47l43 11q11 3 18 9t11 14l302 643h113l132 -649q3 -13 21 -17l43 -11l-7 -47h-241zM409 643l-162 -349h230z" />
    <glyph glyph-name="B" unicode="B" horiz-adv-x="646" 
d="M35 0l7 48l62 7q11 2 14 5.5t5 14.5l79 572q2 11 -0.5 15t-12.5 5l-61 8l7 49h292q55 0 91.5 -12t59 -32.5t32 -48.5t9.5 -60q0 -43 -12.5 -75.5t-33.5 -56t-47 -38t-53 -22.5l-1 -4q72 -8 108 -48.5t36 -103.5t-21.5 -105.5t-60.5 -69t-92.5 -37.5t-117.5 -11h-289z
M323 73q43 0 79.5 5.5t63.5 21t42 45t15 77.5q0 31 -11 52.5t-30.5 35t-45.5 19.5t-57 6h-132l-35 -262h111zM344 405q32 0 64.5 6t59 23t43 46.5t16.5 76.5q0 56 -34.5 75t-100.5 19h-101l-33 -246h86z" />
    <glyph glyph-name="C" unicode="C" horiz-adv-x="662" 
d="M595 41q-44 -27 -109.5 -40t-133.5 -13q-77 0 -131.5 23t-89.5 64.5t-51.5 98.5t-16.5 125q0 95 26.5 175.5t78 139t128 91t176.5 32.5q65 0 120.5 -14.5t89.5 -39.5l-22 -160l-66 4l-4 96q0 8 -1.5 12t-9.5 7q-23 9 -52.5 14.5t-64.5 5.5q-66 0 -121.5 -23.5t-96 -69
t-63 -111.5t-22.5 -151q0 -120 52 -182.5t158 -62.5q35 0 73.5 4.5t67.5 17.5q10 4 14 17l29 91h63z" />
    <glyph glyph-name="D" unicode="D" horiz-adv-x="752" 
d="M35 0l8 50l62 7q9 1 12 4t5 14l80 573q2 11 -0.5 15t-12.5 5l-61 7l7 49h293q81 0 139 -21t96 -59.5t56 -93t18 -121.5q0 -93 -25 -171.5t-77 -136t-132 -89.5t-189 -32h-279zM320 71q79 0 139 25t101 71t62 112t21 147q0 64 -16.5 107.5t-48 70t-76 38t-100.5 11.5h-109
l-80 -582h107z" />
    <glyph glyph-name="E" unicode="E" horiz-adv-x="616" 
d="M36 0l6 49l63 7q11 2 13.5 5.5t4.5 14.5l79 571q2 11 0 15t-13 5l-60 7l6 50h492l-23 -165l-62 4l-3 77q-1 13 -16 13h-230l-34 -252h261l-10 -72h-262l-35 -258h252q8 0 11.5 1.5t5.5 9.5l28 87h62l-23 -169h-513z" />
    <glyph glyph-name="F" unicode="F" horiz-adv-x="591" 
d="M37 0l6 49l62 7q11 2 14 5.5t5 14.5l78 571q2 11 0 15t-13 5l-60 7l7 50h488l-23 -165l-63 4l-3 77q-1 13 -15 13h-227l-34 -249h258l-10 -72h-258l-35 -255q-2 -12 0 -15.5t13 -4.5l143 -8l-6 -49h-327z" />
    <glyph glyph-name="G" unicode="G" horiz-adv-x="715" 
d="M670 278q-17 -1 -18 -14l-32 -235q-24 -11 -54 -19t-61.5 -13t-64 -7t-62.5 -2q-85 0 -145.5 23.5t-98 65.5t-55 99.5t-17.5 124.5q0 93 26 172.5t78 138t128.5 92t176.5 33.5q63 0 120 -14t91 -40l-21 -159l-66 5l-4 92q0 7 -1.5 11.5t-9.5 7.5q-23 9 -56 15.5t-68 6.5
q-66 0 -121 -24t-94.5 -69.5t-61.5 -111t-22 -147.5q0 -124 59 -185.5t172 -61.5q37 0 75 4.5t62 11.5q5 2 9 5t6 12l24 176h-133l20 65h268l-8 -55z" />
    <glyph glyph-name="H" unicode="H" horiz-adv-x="792" 
d="M463 0l8 49l62 7q11 2 13.5 5.5t4.5 14.5l36 261h-336l-38 -260q-2 -12 0 -15t13 -5l65 -8l-7 -49h-249l7 49l63 7q11 2 13.5 5.5t4.5 14.5l80 572q2 11 0 15t-13 5l-60 7l6 49h249l-7 -49l-67 -8q-11 -2 -13.5 -5t-4.5 -14l-32 -239h336l34 239q2 11 0 15t-12 5l-61 7
l5 49h249l-6 -49l-66 -8q-11 -2 -14 -5t-5 -14l-79 -571q-2 -12 0 -15t12 -5l65 -8l-7 -49h-249z" />
    <glyph glyph-name="I" unicode="I" horiz-adv-x="364" 
d="M27 0l5 49l73 7q11 1 13.5 5t4.5 15l80 572q2 11 0 15t-13 5l-70 7l6 49h268l-6 -49l-76 -8q-11 -2 -13.5 -5t-4.5 -14l-81 -571q-2 -12 0 -15t13 -5l74 -8l-5 -49h-268z" />
    <glyph glyph-name="J" unicode="J" horiz-adv-x="484" 
d="M342 649q2 11 -0.5 14.5t-12.5 4.5l-83 7l7 49h271l-7 -49l-67 -8q-11 -2 -13 -4.5t-4 -13.5l-71 -502q-11 -81 -52.5 -120t-130.5 -39q-57 0 -99.5 12.5t-56.5 22.5l18 138l64 -4v-72q0 -5 1.5 -8t7.5 -6q7 -3 25.5 -7t44.5 -4q46 0 64 23t25 70z" />
    <glyph glyph-name="K" unicode="K" horiz-adv-x="716" 
d="M530 0l-4 4l-54 99l-142 239l-91 -88l-26 -177q-2 -12 0 -15t13 -5l67 -8l-7 -49h-248l6 49l61 7q10 2 13 5t5 16l80 571q2 11 0 15t-13 5l-60 7l7 49h248l-6 -49l-68 -8q-11 -2 -13.5 -5t-4.5 -14l-41 -289l314 307l-57 8l7 50h220l-7 -49l-50 -9q-14 -2 -19 -5.5
t-13 -11.5l-245 -239l195 -334q5 -8 10 -11.5t16 -5.5l58 -10l-7 -49h-144z" />
    <glyph glyph-name="L" unicode="L" horiz-adv-x="600" 
d="M37 0l6 49l62 7q11 2 13.5 5.5t4.5 14.5l80 571q2 11 0 15t-13 5l-60 7l6 50h265l-7 -50l-83 -8q-11 -1 -13.5 -4.5t-4.5 -14.5l-81 -576h253q8 0 11.5 1.5t5.5 9.5l29 90h62l-23 -172h-513z" />
    <glyph glyph-name="M" unicode="M" horiz-adv-x="923" 
d="M578 0l5 49l85 7q9 1 12 5t5 15l69 498l-250 -404h-89l-141 406l-70 -499q-2 -12 -0.5 -15.5t12.5 -4.5l86 -8l-6 -49h-259l5 49l63 7q11 2 14 5.5t5 15.5l79 570q2 11 0 15t-13 5l-60 7l6 50h179l158 -469l282 469h189l-7 -49l-66 -8q-11 -2 -14 -5.5t-5 -17.5l-80 -568
q-2 -10 1 -13.5t13 -5.5l65 -8l-7 -49h-266z" />
    <glyph glyph-name="N" unicode="N" horiz-adv-x="815" 
d="M551 0l-274 611l-75 -534q-2 -12 0 -15t13 -5l65 -8l-5 -49h-238l5 49l63 7q11 2 13.5 5.5t4.5 14.5l80 571q2 11 0 14.5t-13 5.5l-60 7l6 50h191l268 -608l73 532q2 11 -0.5 15t-12.5 5l-61 7l6 49h238l-7 -49l-67 -8q-11 -2 -13.5 -5t-4.5 -14l-90 -648h-105z" />
    <glyph glyph-name="O" unicode="O" horiz-adv-x="752" 
d="M348 -12q-75 0 -129 22t-89.5 61.5t-52 94.5t-16.5 120q0 97 25.5 179.5t75.5 143t124 94.5t171 34q74 0 127 -22.5t87.5 -62.5t50.5 -94.5t16 -118.5q0 -105 -27 -188.5t-77.5 -142t-122.5 -89.5t-163 -31zM360 65q59 0 110 22t89 67t60.5 113t23.5 159q0 49 -11 91
q-18 70 -64 106.5t-122 36.5q-60 0 -112 -22.5t-91 -67t-61.5 -111.5t-24.5 -156q0 -50 11 -92q35 -146 192 -146z" />
    <glyph glyph-name="P" unicode="P" horiz-adv-x="639" 
d="M35 0l7 49l63 7q11 2 14 5.5t5 14.5l79 572q2 11 -0.5 15t-13.5 5l-60 7l6 49h298q59 0 100 -14t66.5 -39t36.5 -58t11 -72q0 -70 -21 -121t-60.5 -83.5t-95.5 -48t-126 -15.5h-105l-27 -196q-1 -12 1 -15.5t12 -4.5l139 -8l-6 -49h-323zM342 345q42 0 80.5 7t67.5 27.5
t46 57t17 96.5q0 64 -39 92t-114 28h-108l-43 -308h93z" />
    <glyph glyph-name="Q" unicode="Q" horiz-adv-x="752" 
d="M654 -140q-17 -2 -33 -3t-31 -1q-66 0 -112.5 15t-81 33t-61 33t-52.5 15q-24 0 -48.5 -8.5t-56.5 -25.5l-32 57q19 13 39.5 21.5t38.5 13.5v3q-85 33 -124 105.5t-39 167.5q0 97 25.5 179.5t75.5 143t124 94.5t171 34q74 0 127 -22.5t87.5 -62.5t50.5 -94.5t16 -117.5
q0 -100 -24 -180.5t-70.5 -137t-114 -88t-154.5 -34.5v-3q54 -29 108 -48.5t111 -19.5q15 0 31 1.5t33 3.5zM356 65q59 0 110.5 22t90.5 66.5t62 111t24 154.5q0 31 -3 54.5t-8 43.5q-18 70 -64 106.5t-122 36.5q-60 0 -112 -22.5t-91 -67t-61.5 -111.5t-24.5 -156
q0 -50 11 -92q17 -73 63 -109.5t125 -36.5z" />
    <glyph glyph-name="R" unicode="R" horiz-adv-x="660" 
d="M486 0l-6 7l-69 260q-5 21 -17.5 31.5t-38.5 10.5h-109l-34 -232q-2 -12 0 -15t13 -5l66 -8l-7 -49h-247l6 49l62 7q11 2 13.5 5.5t4.5 15.5l80 570q2 11 0 15t-13 5l-60 7l6 50h295q58 0 96.5 -14t62 -38t33.5 -55.5t10 -66.5q0 -75 -40 -131t-126 -86
q20 -10 29.5 -32.5t21.5 -72.5l37 -150q3 -11 9 -14t17 -5l60 -10l-7 -49h-148zM344 381q41 0 76 8.5t61.5 28t41.5 50t15 73.5q0 66 -42 88t-127 22h-76l-37 -270h88z" />
    <glyph glyph-name="S" unicode="S" horiz-adv-x="567" 
d="M481 538l-3 86q0 7 -3.5 13.5t-13.5 12t-28 8.5t-48 3q-33 0 -64.5 -7.5t-55.5 -23t-38.5 -40t-14.5 -58.5q0 -27 10.5 -46t28.5 -33t41.5 -24t49.5 -20q32 -12 64 -25t57.5 -34t42 -52.5t16.5 -78.5q0 -62 -22.5 -106t-61 -71.5t-90.5 -40.5t-111 -13q-34 0 -66.5 4
t-60 9.5t-48.5 12t-32 12.5l22 164h66l6 -90q2 -18 31.5 -28t92.5 -10q84 0 131.5 35t47.5 108q0 30 -11.5 50.5t-31 35t-44 25t-51.5 19.5q-31 11 -62 23.5t-55.5 32.5t-39.5 50.5t-15 76.5q0 56 22 97.5t59.5 68.5t87 40t104.5 13q66 0 111.5 -12.5t69.5 -22.5l-24 -170z
" />
    <glyph glyph-name="T" unicode="T" horiz-adv-x="636" 
d="M134 0l7 51l100 7q10 1 13 5t5 15l80 575h-154q-8 0 -11.5 -1.5t-5.5 -9.5l-27 -87h-63l23 169h588l-23 -169h-63l-4 87q-1 8 -3.5 9.5t-10.5 1.5h-155l-81 -575q-2 -11 0 -14.5t13 -4.5l109 -8l-7 -51h-330z" />
    <glyph glyph-name="U" unicode="U" horiz-adv-x="770" 
d="M622 648q1 11 -0.5 15t-12.5 5l-61 7l7 49h243l-7 -49l-67 -8q-11 -2 -13.5 -5t-4.5 -14l-56 -408q-18 -133 -89 -192.5t-200 -59.5q-120 0 -174.5 49.5t-54.5 147.5q0 14 1 28.5t3 30.5l54 404q2 11 0 15t-12 5l-61 7l7 49h249l-7 -49l-67 -8q-11 -2 -13.5 -5t-4.5 -14
l-55 -394q-2 -16 -3 -31t-1 -27q0 -73 38.5 -102t110.5 -29q87 0 135 41.5t62 145.5z" />
    <glyph glyph-name="V" unicode="V" horiz-adv-x="677" 
d="M261 0l-124 647q-2 9 -7.5 12t-13.5 5l-43 11l8 49h238l-7 -49l-82 -9l104 -584l258 584l-77 9l8 49h224l-8 -49l-42 -11q-11 -3 -18.5 -9t-12.5 -18l-284 -637h-121z" />
    <glyph glyph-name="W" unicode="W" horiz-adv-x="958" 
d="M586 0l-65 457l-193 -457h-111l-74 644q-2 11 -5 15t-13 6l-56 10l9 49h252l-7 -49l-88 -10l57 -563l199 476h100l67 -486l212 573l-85 10l7 49h240l-8 -49l-52 -9q-9 -2 -15 -6.5t-11 -18.5l-242 -641h-118z" />
    <glyph glyph-name="X" unicode="X" horiz-adv-x="685" 
d="M399 0l8 49l75 9l-131 248l-193 -248l70 -9l-7 -49h-225l5 47l52 11q16 4 28 19l228 293l-146 277q-4 8 -8.5 11.5t-12.5 5.5l-42 11l8 49h229l-7 -49l-74 -9l118 -236l185 236l-70 9l9 49h214l-7 -49l-44 -11q-17 -4 -28 -19l-218 -274l161 -294q8 -14 22 -18l49 -10
l-7 -49h-241z" />
    <glyph glyph-name="Y" unicode="Y" horiz-adv-x="607" 
d="M133 0l6 49l95 7q10 1 12.5 5t4.5 16l28 203l-146 367q-4 8 -8.5 11t-12.5 6l-43 11l8 49h229l-8 -49l-74 -9l113 -303l194 303l-72 9l8 49h214l-7 -49l-42 -11q-11 -3 -17 -7t-11 -13l-234 -361l-28 -206q-2 -12 0 -15.5t13 -4.5l96 -8l-6 -49h-312z" />
    <glyph glyph-name="Z" unicode="Z" horiz-adv-x="631" 
d="M25 0l8 61l485 592h-293q-8 0 -11.5 -1.5t-5.5 -9.5l-31 -93l-66 -3l25 178h505l-8 -63l-484 -590h321q8 0 11.5 1.5t6.5 9.5l33 107h64l-25 -189h-535z" />
    <glyph glyph-name="bracketleft" unicode="[" horiz-adv-x="270" 
d="M42 -143l122 867h167l-6 -48l-67 -9q-11 -2 -14 -5t-5 -14l-100 -713q-2 -11 0 -14.5t13 -5.5l65 -9l-8 -49h-167z" />
    <glyph glyph-name="backslash" unicode="\" horiz-adv-x="377" 
d="M259 -92l-161 847h82l162 -847h-83z" />
    <glyph glyph-name="bracketright" unicode="]" horiz-adv-x="262" 
d="M-31 -143l6 48l67 9q11 2 14 5t5 14l100 713q2 11 0 14.5t-13 5.5l-65 9l8 49h168l-122 -867h-168z" />
    <glyph glyph-name="asciicircum" unicode="^" horiz-adv-x="550" 
d="M447 299l-119 285l-194 -285h-90l248 365h93l148 -365h-86z" />
    <glyph glyph-name="underscore" unicode="_" 
d="M-43 -181l9 68h499l-9 -68h-499z" />
    <glyph glyph-name="grave" unicode="`" 
d="M398 567l-156 141l69 60l132 -164z" />
    <glyph glyph-name="a" unicode="a" horiz-adv-x="580" 
d="M376 0l12 90l-3 1q-43 -43 -88.5 -73t-102.5 -30q-72 0 -111 46.5t-39 144.5q0 58 13 119t42.5 111.5t77.5 82.5t118 32q44 0 80.5 -17t61.5 -39l16 46h84q-8 -30 -14.5 -60.5t-11.5 -62.5l-44 -315q-2 -12 0.5 -15t13.5 -5l49 -7l-8 -49h-146zM424 396q-20 20 -54 37
t-72 17q-47 0 -78.5 -26.5t-50 -66t-26.5 -85.5t-8 -85q0 -68 23.5 -94.5t62.5 -26.5q23 0 46 11t45.5 27.5t43 37t38.5 39.5z" />
    <glyph glyph-name="b" unicode="b" horiz-adv-x="580" 
d="M56 0q8 28 17 67.5t14 75.5l75 528q3 17 -10 21l-54 15l7 48h156l-47 -334q46 42 95.5 72.5t102.5 30.5q30 0 56 -10.5t44.5 -34t29 -60t10.5 -88.5q0 -54 -12 -114t-40.5 -110.5t-75 -83.5t-115.5 -33q-46 0 -82 16t-68 48l-3 -1l-12 -53h-88zM173 127q23 -26 55.5 -46
t69.5 -20q45 0 75.5 25t49.5 62.5t27.5 83t8.5 85.5q0 71 -21 98.5t-56 27.5q-23 0 -48 -11.5t-49 -28.5t-45.5 -36t-36.5 -34z" />
    <glyph glyph-name="c" unicode="c" horiz-adv-x="488" 
d="M431 32q-15 -9 -36.5 -17t-45.5 -14t-49.5 -9.5t-49.5 -3.5q-55 0 -94 15t-64 42.5t-36.5 66t-11.5 85.5q0 87 24 148.5t64.5 101.5t94 58.5t113.5 18.5q55 0 91.5 -11.5t52.5 -19.5l-19 -133l-63 3l-3 66q0 11 -12 15q-22 8 -62 8q-35 0 -68.5 -13t-60 -42t-43 -75.5
t-16.5 -113.5q0 -77 32.5 -112.5t93.5 -35.5q41 0 80.5 11t65.5 25z" />
    <glyph glyph-name="d" unicode="d" horiz-adv-x="584" 
d="M376 0l12 89l-3 2q-20 -19 -41 -38t-44.5 -33t-49 -23t-54.5 -9q-72 0 -112 46t-40 144q0 55 12.5 116t41.5 112t76.5 84.5t118.5 33.5q45 0 81.5 -16t61.5 -36l27 201q1 16 -10 20l-54 14l7 48h156l-95 -679q-2 -12 0.5 -15t13.5 -5l49 -7l-7 -49h-147zM425 396
q-20 20 -54 37t-72 17q-48 0 -79.5 -26.5t-50 -66.5t-26.5 -87t-8 -87q0 -66 23.5 -91.5t61.5 -25.5q24 0 47.5 11t46 27.5t43 37.5t38.5 40z" />
    <glyph glyph-name="e" unicode="e" horiz-adv-x="482" 
d="M420 30q-40 -20 -86 -31t-94 -11q-54 0 -91.5 15.5t-61 42.5t-33.5 65t-10 83q0 68 20.5 128t57.5 105t88.5 71t113.5 26q39 0 65.5 -9.5t43.5 -25.5t24.5 -38t7.5 -47q0 -57 -36 -93.5t-87 -58.5t-107.5 -32.5t-98.5 -15.5q0 -33 5.5 -59.5t19 -45t38 -28.5t61.5 -10
t71 10t72 27zM142 272q25 3 65 10t78.5 21.5t66 37.5t27.5 58q0 23 -15.5 37.5t-50.5 14.5q-34 0 -62 -14.5t-49.5 -39t-36.5 -57t-23 -68.5z" />
    <glyph glyph-name="f" unicode="f" horiz-adv-x="387" 
d="M46 -212l92 647q2 10 -7 10h-70l10 69h78l13 91q12 86 56.5 123.5t117.5 37.5q52 0 91.5 -16.5t56.5 -31.5l-38 -61q-6 4 -16 10t-23.5 12t-30.5 10.5t-35 4.5q-45 0 -65 -25t-27 -74l-10 -71q-1 -5 0 -7.5t7 -2.5h161l-10 -69h-168l-94 -657h-89z" />
    <glyph glyph-name="g" unicode="g" horiz-adv-x="570" 
d="M387 94q-19 -18 -40 -36.5t-45 -33.5t-50.5 -24.5t-55.5 -9.5q-72 0 -112 45.5t-40 143.5q0 55 12.5 116t41.5 112t76.5 84t118.5 33q45 0 82.5 -17t62.5 -39l16 46h84q-9 -36 -16 -67.5t-12 -63.5l-56 -417q-14 -98 -72 -143.5t-147 -45.5q-69 0 -120.5 15t-74.5 29
l33 65q6 -4 20.5 -10.5t34.5 -13t45 -11t52 -4.5q63 0 98.5 29.5t45.5 95.5zM425 395q-20 21 -54.5 38t-72.5 17q-47 0 -78.5 -27t-50 -66.5t-26.5 -86t-8 -85.5q0 -67 24 -92t61 -25q24 0 47.5 10.5t46 27t43 37t38.5 39.5z" />
    <glyph glyph-name="h" unicode="h" horiz-adv-x="618" 
d="M402 0l-2 3l18 99l31 222q2 14 3.5 29.5t1.5 29.5q0 11 -1.5 22t-7 20t-14.5 15t-24 6q-21 0 -45 -10t-49 -26t-50.5 -36.5t-50.5 -42.5l-35 -254q-2 -12 0.5 -15t13.5 -5l62 -8l-7 -49h-233l7 50l49 7q11 2 14 5t5 15l83 594q3 18 -9 21l-54 15l7 48h155l-48 -338
q23 19 47 38t50 34.5t54 25t58 9.5q58 0 86 -30t29 -87q0 -13 -1.5 -30t-3.5 -32l-38 -268q-2 -12 0.5 -15t13.5 -5l55 -8l-7 -49h-163z" />
    <glyph glyph-name="i" unicode="i" horiz-adv-x="295" 
d="M192 625q-26 0 -41 14t-15 39q0 32 19.5 53t54.5 21q27 0 41.5 -14t14.5 -39q0 -32 -19.5 -53t-54.5 -21zM73 0l-2 4l21 115l45 312q3 17 -11 21l-53 14l7 48h157l-61 -437q-2 -12 0.5 -15t13.5 -5l59 -8l-7 -49h-169z" />
    <glyph glyph-name="j" unicode="j" horiz-adv-x="286" 
d="M135 430q3 17 -9 21l-57 15l7 48h160l-80 -579q-12 -84 -50.5 -121t-111.5 -37q-24 0 -45 5t-38.5 11.5t-29.5 14t-18 13.5l37 57q11 -8 35 -18.5t50 -10.5q42 0 58.5 25t24.5 79zM193 625q-27 0 -42 14t-15 39q0 32 20 53t55 21q26 0 41 -14t15 -39q0 -32 -20 -53
t-54 -21z" />
    <glyph glyph-name="k" unicode="k" horiz-adv-x="581" 
d="M399 0l-3 3l-35 100l-70 169l-100 -95l-14 -100q-2 -12 0 -15t13 -5l63 -8l-7 -49h-233l7 50l50 7q10 2 13 5.5t5 14.5l83 595q3 16 -10 20l-53 15l6 48h158l-67 -476l204 195q29 27 53.5 38.5t59.5 11.5q10 0 21 -1t23 -3l-8 -60q-29 1 -52 -7.5t-55 -38.5l-86 -83
l102 -257q4 -9 9 -11.5t18 -4.5l54 -9l-7 -49h-142z" />
    <glyph glyph-name="l" unicode="l" horiz-adv-x="294" 
d="M69 0l-2 4l21 115l78 553q3 17 -10 21l-53 14l7 48h158l-96 -678q-2 -12 0.5 -15t13.5 -5l59 -8l-7 -49h-169z" />
    <glyph glyph-name="m" unicode="m" horiz-adv-x="895" 
d="M682 0l-2 2l21 132l26 190q2 16 4.5 35.5t2.5 36.5q0 24 -9 35t-32 11q-37 0 -80 -31.5t-95 -79.5l-36 -254q-2 -12 0.5 -15t13.5 -5l56 -8l-8 -49h-162l-1 2l20 128l27 194q3 23 5.5 41t2.5 30q0 17 -6.5 32.5t-32.5 15.5q-42 0 -85 -32t-98 -80l-35 -254
q-2 -12 0.5 -15t13.5 -5l62 -8l-7 -49h-233l7 50l48 7q11 2 14 5.5t5 14.5l48 352q3 17 -9 21l-53 16l7 48h151l-14 -99q32 27 58 47.5t49 34t46 20t50 6.5q53 0 78.5 -26.5t21.5 -83.5q20 18 43 38t48 36t51.5 26.5t54.5 10.5q60 0 82.5 -27.5t23.5 -77.5q0 -16 -2 -34
t-5 -38l-37 -270q-2 -12 0.5 -15t13.5 -5l55 -8l-7 -49h-161z" />
    <glyph glyph-name="n" unicode="n" horiz-adv-x="619" 
d="M406 0l-2 2l19 121l28 201q2 17 4 32.5t2 29.5q0 26 -10 42.5t-41 16.5q-44 0 -89.5 -31.5t-102.5 -82.5l-35 -254q-2 -12 0.5 -15t13.5 -5l62 -8l-7 -49h-233l7 50l48 7q11 2 14 5.5t5 14.5l48 352q3 18 -9 21l-53 16l7 48h151l-14 -99q23 20 48 39t51 35t54 25.5
t58 9.5q61 0 89 -30t29 -90q0 -12 -1.5 -28.5t-3.5 -30.5l-38 -268q-2 -12 0 -15t13 -5l56 -8l-7 -49h-161z" />
    <glyph glyph-name="o" unicode="o" horiz-adv-x="559" 
d="M253 -12q-54 0 -93 15t-64.5 42.5t-38 66t-12.5 85.5q0 71 18.5 131t54.5 103.5t89 68t122 24.5q56 0 94.5 -16t62.5 -44.5t35 -66.5t11 -82q0 -75 -18.5 -135.5t-53.5 -103t-87 -65.5t-120 -23zM261 57q78 0 128 64t50 195q0 69 -30.5 102t-89.5 33q-40 0 -73.5 -15.5
t-57.5 -46.5t-37.5 -78t-13.5 -110q0 -71 31 -107.5t93 -36.5z" />
    <glyph glyph-name="p" unicode="p" horiz-adv-x="585" 
d="M42 -212l-4 4l29 169l64 468q3 18 -9 21l-53 16l6 48h154l-14 -93q21 19 44.5 37.5t49 33t53 23.5t56.5 9q30 0 55 -11t43.5 -34.5t29 -60.5t10.5 -90q0 -58 -14 -118.5t-43 -110t-74.5 -80.5t-108.5 -31q-42 0 -81 16t-68 45l-24 -181q-2 -11 0 -14.5t12 -4.5l92 -8
l-7 -53h-198zM178 127q23 -26 55 -46t72 -20q44 0 74 25t49 63.5t27.5 84t8.5 85.5q0 68 -21 96t-54 28q-24 0 -49.5 -11.5t-49.5 -28.5t-45.5 -36t-37.5 -34z" />
    <glyph glyph-name="q" unicode="q" horiz-adv-x="571" 
d="M255 -212l7 53l75 7q11 1 14 5t5 15l32 224q-19 -18 -40.5 -36.5t-45.5 -33t-50 -24t-55 -9.5q-43 0 -72 14.5t-47 40t-25.5 60.5t-7.5 75q0 33 4 68t13 69t23.5 65.5t34.5 57.5q32 41 75 62.5t105 21.5q44 0 79.5 -17.5t58.5 -37.5l16 46h84q-9 -36 -15.5 -67.5
t-11.5 -63.5l-71 -515q-2 -11 0 -14.5t13 -5.5l49 -6l-7 -54h-240zM425 395q-20 21 -54 38t-72 17q-48 0 -79.5 -27t-50 -66.5t-26.5 -86t-8 -85.5q0 -67 22.5 -93t60.5 -26q23 0 47 11t47 27.5t44 37.5t39 40z" />
    <glyph glyph-name="r" unicode="r" horiz-adv-x="437" 
d="M15 0l7 50l50 6q10 1 12.5 5t4.5 15l49 353q3 18 -9 21l-54 16l7 48h148l-13 -101q13 18 31.5 37.5t40 36t46.5 27t50 10.5q17 0 34 -2.5t30 -6.5l-20 -151l-70 3l-2 68q0 6 -1.5 8t-8.5 2q-20 0 -55 -29.5t-77 -77.5l-36 -262q-2 -12 0.5 -15.5t13.5 -4.5l89 -7l-7 -49
h-260z" />
    <glyph glyph-name="s" unicode="s" horiz-adv-x="451" 
d="M355 372l-3 62q-1 8 -3.5 12t-10.5 7q-21 7 -66 7q-43 0 -75.5 -18t-32.5 -59q0 -35 26.5 -53t69.5 -33q24 -8 49 -18.5t46 -27t34 -40.5t13 -60q0 -40 -15.5 -70.5t-42.5 -51t-63.5 -31t-79.5 -10.5q-34 0 -64.5 3.5t-54 9t-39.5 11t-22 9.5l19 127l62 -4l3 -65
q0 -11 10 -15q12 -5 33.5 -9.5t57.5 -4.5q50 0 80 22t30 64q0 41 -27 58.5t-75 33.5q-24 8 -48.5 18t-43.5 25.5t-31 38.5t-12 57q0 41 15.5 70.5t42.5 48.5t64.5 28.5t81.5 9.5q56 0 97 -10t56 -17l-18 -129z" />
    <glyph glyph-name="t" unicode="t" horiz-adv-x="400" 
d="M353 19q-28 -13 -66.5 -22t-73.5 -9q-63 0 -92.5 25.5t-29.5 77.5q0 7 0.5 15.5t1.5 16.5l43 312q1 5 0 7.5t-6 2.5h-72l9 59q27 4 47 12.5t35.5 25t27 42t20.5 62.5h59l-18 -122q-1 -5 0 -7.5t7 -2.5h143l-9 -69h-152l-40 -295q-3 -21 -3 -36q0 -27 13 -40t48 -13
q23 0 47.5 6.5t45.5 14.5z" />
    <glyph glyph-name="u" unicode="u" horiz-adv-x="617" 
d="M405 0l15 99q-20 -17 -44 -36.5t-50.5 -36t-53.5 -27t-54 -10.5q-63 0 -94.5 27t-31.5 94q0 11 1 27t3 30l39 270q2 12 -0.5 15t-13.5 5l-52 8l8 49h154l3 -4l-45 -321q-2 -14 -3.5 -28.5t-1.5 -32.5q0 -30 11 -43.5t42 -13.5q23 0 46 9t46.5 24.5t47.5 35.5t49 42
l34 255q2 12 -0.5 15t-13.5 5l-58 8l7 49h163l3 -4l-61 -434q-3 -17 9 -19l55 -9l-6 -48h-153z" />
    <glyph glyph-name="v" unicode="v" horiz-adv-x="544" 
d="M191 0l-95 439q-2 9 -6 12t-12 5l-41 9l7 49h135l5 -6l16 -102l61 -319l182 368l-64 11l6 48h161l7 -14l-256 -500h-106z" />
    <glyph glyph-name="w" unicode="w" horiz-adv-x="812" 
d="M489 0l-54 400l-164 -400h-108l-68 439q-1 14 -15 17l-43 9l8 49h132l5 -6l8 -85l43 -331l171 419h100l56 -425l161 371l-61 8l8 49h146l6 -12l-225 -502h-106z" />
    <glyph glyph-name="x" unicode="x" horiz-adv-x="560" 
d="M387 0l-7 7l-38 74l-68 126l-125 -149l62 -9l-5 -49h-215l6 48l53 11q9 2 13.5 5t11.5 11l161 189l-96 177q-5 8 -8.5 11.5t-11.5 5.5l-39 6l7 50h115l6 -5l39 -82l55 -104l119 134l-56 8l8 49h196l-7 -49l-42 -10q-10 -2 -15.5 -6.5t-11.5 -12.5l-153 -169l104 -190
q8 -15 23 -18l60 -10l-8 -49h-133z" />
    <glyph glyph-name="y" unicode="y" horiz-adv-x="528" 
d="M199 15l-108 425q-2 9 -5.5 12t-11.5 5l-41 9l9 48h130l5 -6l23 -126l60 -259l166 333l-62 10l6 48h159l7 -14l-296 -577q-19 -37 -37.5 -64.5t-39.5 -45.5t-47.5 -27t-62.5 -9q-23 0 -43.5 4.5t-37.5 11.5t-29.5 14.5t-18.5 13.5l37 57q17 -12 39.5 -20.5t50.5 -8.5
q21 0 36.5 7t28 20t23.5 30t22 38z" />
    <glyph glyph-name="z" unicode="z" horiz-adv-x="498" 
d="M20 0l7 54l344 393h-194q-7 0 -9 -4t-4 -9l-20 -63l-64 -3l19 146h394l-8 -56l-341 -391h207q6 0 8.5 4t4.5 9l22 74l65 3l-22 -157h-409z" />
    <glyph glyph-name="braceleft" unicode="{" horiz-adv-x="287" 
d="M210 -147q-78 6 -114.5 27t-36.5 73q0 29 8 63.5t17 70.5q6 24 12 53t6 53q0 41 -21 53t-53 13l9 59q29 2 51.5 11.5t35.5 38.5q14 31 17.5 82t3.5 120q0 42 7.5 70t27 46t54 27.5t89.5 13.5l5 -58q-35 -4 -54 -11.5t-28 -21t-11 -34.5t-2 -53q0 -15 -0.5 -33l-1 -36
t-1.5 -35.5t-3 -30.5q-6 -54 -29 -80.5t-58 -45.5q22 -9 38 -29t16 -58q0 -27 -6 -58t-14 -62q-7 -26 -15 -59t-8 -56q0 -26 18 -36t59 -19z" />
    <glyph glyph-name="bar" unicode="|" horiz-adv-x="281" 
d="M59 -143l127 899h82l-127 -899h-82z" />
    <glyph glyph-name="braceright" unicode="}" horiz-adv-x="298" 
d="M110 727q78 -6 114.5 -27t36.5 -73q0 -29 -8 -63.5t-17 -70.5q-6 -24 -12 -53t-6 -53q0 -40 21.5 -52t52.5 -14l-9 -59q-29 -2 -51.5 -11.5t-35.5 -38.5q-14 -31 -17.5 -82t-3.5 -120q0 -42 -7.5 -70t-27 -46t-54 -27.5t-89.5 -13.5l-5 58q35 4 54 11.5t28 21t11 34.5
t2 53q0 15 0.5 33l1 36t2 35.5t2.5 30.5q6 54 29 80.5t58 45.5q-22 9 -38 29t-16 58q0 27 6 58t14 62q7 26 15 59t8 56q0 26 -18 36t-59 19z" />
    <glyph glyph-name="asciitilde" unicode="~" horiz-adv-x="482" 
d="M503 407q-17 -51 -42 -81.5t-72 -30.5q-27 0 -56.5 7t-58 16t-55.5 16t-49 7q-24 0 -41 -12.5t-38 -40.5l-47 23q24 46 54.5 76t75.5 30q29 0 57 -7t55 -16t53 -16t50 -7q25 0 37 13t26 41z" />
    <glyph glyph-name="uni00A0" unicode="&#xa0;" horiz-adv-x="222" 
 />
    <glyph glyph-name="sterling" unicode="&#xa3;" horiz-adv-x="541" 
d="M39 0l-5 59q30 21 48 41.5t29 44.5t16.5 53t10.5 67l4 32h-79l9 71h79l8 63q6 48 20 88t40 68.5t65.5 44.5t97.5 16q59 0 101.5 -17.5t60.5 -34.5l-44 -59q-14 11 -45.5 25t-69.5 14q-65 0 -95.5 -33t-38.5 -97l-11 -78h178l-10 -71h-177q-6 -43 -11.5 -75.5t-15.5 -59
t-26 -48.5t-42 -46h256q13 0 17 11l26 85h65l-22 -164h-439z" />
    <glyph glyph-name="currency" unicode="&#xa4;" horiz-adv-x="570" 
d="M504 7l-90 88q-26 -18 -57.5 -27t-72.5 -9q-42 0 -75 10t-59 28l-90 -90l-57 59l93 93q-14 27 -22 59.5t-8 64.5q0 30 8.5 59.5t23.5 57.5l-92 91l61 61l88 -87q26 20 60.5 30.5t74.5 10.5t74.5 -10.5t60.5 -28.5l84 84l58 -59l-88 -88q14 -25 21.5 -55t7.5 -62
q0 -35 -9 -68t-26 -61l93 -92zM289 136q31 0 55 11.5t40 31.5t24 46.5t8 57.5q0 68 -32.5 106t-97.5 38q-63 0 -95 -40.5t-32 -103.5q0 -31 7.5 -57.5t23 -46.5t40.5 -31.5t59 -11.5z" />
    <glyph glyph-name="brokenbar" unicode="&#xa6;" horiz-adv-x="281" 
d="M59 -143l55 388h82l-55 -388h-82zM137 408l48 348h82l-48 -348h-82z" />
    <glyph glyph-name="section" unicode="&#xa7;" horiz-adv-x="548" 
d="M117 -48q0 -11 9 -15q16 -7 39.5 -11t52.5 -4q54 0 83 21.5t29 63.5q0 21 -9.5 35t-25.5 23.5t-37 16t-43 12.5q-25 7 -50.5 16t-45 23.5t-32 36.5t-12.5 56q0 26 8.5 47.5t22 39.5t30.5 34t35 30q-17 14 -29 37.5t-12 55.5q0 41 17.5 71t47 49.5t68 28.5t80.5 9
q60 0 100.5 -10.5t56.5 -17.5l-18 -129l-65 4l-3 62q0 8 -2.5 11t-10.5 6q-22 8 -72 8q-60 0 -86 -23.5t-26 -55.5q0 -19 8.5 -32.5t23 -23t33.5 -16t40 -12.5q27 -8 54 -17t49 -24t36 -38.5t14 -59.5q0 -24 -8 -45.5t-21.5 -40.5t-30.5 -34t-35 -27q20 -20 29.5 -42.5
t9.5 -53.5q0 -43 -17.5 -73t-47 -49t-68 -28t-79.5 -9q-29 0 -58 4t-53 10t-41 12t-23 10l17 125l66 -4zM320 145q24 16 46.5 42t22.5 58q0 31 -22.5 48t-73.5 31l-67 19q-25 -17 -46 -43.5t-21 -52.5q0 -34 24 -50t59 -27z" />
    <glyph glyph-name="dieresis" unicode="&#xa8;" 
d="M297 668q0 -27 -17 -45t-47 -18q-23 0 -36 12.5t-13 33.5q0 26 17 44.5t47 18.5q23 0 36 -12.5t13 -33.5zM499 668q0 -27 -17 -45t-47 -18q-23 0 -36 12.5t-13 33.5q0 26 17 44.5t47 18.5q23 0 36 -12.5t13 -33.5z" />
    <glyph glyph-name="copyright" unicode="&#xa9;" horiz-adv-x="762" 
d="M722 319q0 -75 -24 -136t-68 -104.5t-105 -67.5t-135 -24q-82 0 -144.5 24.5t-103.5 67t-62 101t-21 125.5q0 78 26 139.5t71 104t106 65t130 22.5q77 0 138 -22.5t104 -63.5t65.5 -100t22.5 -131zM392 38q63 0 114 19t86 54.5t54 86.5t19 115q0 66 -20.5 117t-56.5 85.5
t-86 52t-110 17.5q-59 0 -109 -18.5t-87 -54.5t-57.5 -88t-20.5 -118q0 -126 72.5 -197t201.5 -71zM516 144q-20 -12 -52 -18t-62 -6q-51 0 -86.5 14.5t-58 41t-33 62t-10.5 77.5t12 78t36 61.5t59.5 40t83.5 14.5q31 0 62.5 -6.5t49.5 -13.5v-105l-43 2l-9 49q-1 4 -2 6.5
t-6 5.5q-11 5 -25.5 8t-34.5 3q-23 0 -44 -7.5t-36.5 -25t-24.5 -45t-9 -67.5q0 -30 6.5 -56t21 -45.5t37.5 -30.5t56 -11q17 0 30 2.5t20 5.5q6 2 10 15l14 51h38v-100z" />
    <glyph glyph-name="guillemotleft" unicode="&#xab;" horiz-adv-x="436" 
d="M286 103l-65 156l110 149h83l-96 -139q-5 -7 -5.5 -10t1.5 -9l54 -147h-82zM128 103l-65 156l110 149h83l-96 -139q-5 -7 -5.5 -10t1.5 -9l54 -147h-82z" />
    <glyph glyph-name="logicalnot" unicode="&#xac;" horiz-adv-x="570" 
d="M387 191l14 94h-296l11 81h377l-25 -175h-81z" />
    <glyph glyph-name="uni00AD" unicode="&#xad;" horiz-adv-x="311" 
d="M33 247l13 89h271l-13 -89h-271z" />
    <glyph glyph-name="registered" unicode="&#xae;" horiz-adv-x="449" 
d="M456 480q0 -41 -13.5 -75t-38 -58t-58.5 -37.5t-75 -13.5q-45 0 -79.5 13.5t-57.5 37.5t-34.5 56.5t-11.5 69.5q0 43 14.5 77t39.5 58t58.5 37t71.5 13q86 0 135 -48.5t49 -129.5zM415 477q0 70 -40.5 106t-102.5 36q-30 0 -55.5 -9.5t-45 -28.5t-30.5 -45.5t-11 -61.5
q0 -66 38 -102.5t104 -36.5t104.5 38t38.5 104zM288 384v21l18 2l-24 42q-6 10 -17 10h-15v-46q0 -4 6 -6l15 -2v-21h-80v21l14 2q6 1 6 7v131q0 6 -7 7l-13 2v21h87q40 0 53 -16.5t13 -37.5q0 -39 -37 -52q8 -2 17 -19l19 -36q2 -5 8 -6l17 -3v-21h-80zM263 489
q16 0 28.5 5.5t12.5 24.5q0 17 -9.5 21.5t-25.5 4.5h-19v-56h13z" />
    <glyph glyph-name="macron" unicode="&#xaf;" 
d="M182 611l10 69h307l-10 -69h-307z" />
    <glyph glyph-name="degree" unicode="&#xb0;" horiz-adv-x="287" 
d="M201 612q28 0 43.5 18t15.5 47q0 44 -44 44q-26 0 -42 -17t-16 -48q0 -20 10 -32t33 -12zM314 683q0 -54 -33.5 -87t-86.5 -33q-43 0 -67.5 23t-24.5 64q0 30 10 52.5t26.5 37.5t38.5 22.5t46 7.5q41 0 66 -22.5t25 -64.5z" />
    <glyph glyph-name="plusminus" unicode="&#xb1;" horiz-adv-x="570" 
d="M61 0l11 80h377l-11 -80h-377zM330 281l-21 -149h-83l21 149h-147l11 81h147l21 150h84l-22 -150h147l-11 -81h-147z" />
    <glyph glyph-name="mu" unicode="&#xb5;" horiz-adv-x="632" 
d="M418 0l9 68h-4q-38 -30 -84.5 -53.5t-89.5 -23.5q-56 0 -82 40l-3 -1l-19 -206h-93l97 690h91l-48 -340q-3 -20 -3.5 -40t5.5 -35.5t21.5 -25t45.5 -9.5q42 0 83.5 22.5t83.5 62.5l51 365h91l-60 -435q-3 -19 10 -20l53 -7l-7 -52h-148z" />
    <glyph glyph-name="paragraph" unicode="&#xb6;" horiz-adv-x="613" 
d="M480 579h-77l-74 -523h-39q-54 0 -97 18t-73 51t-46.5 79.5t-16.5 102.5q0 78 24 140.5t69 106.5t110 67.5t147 23.5h247l-7 -53l-68 -8q-11 -2 -14 -5t-5 -14l-75 -532q-14 -96 -70.5 -140.5t-143.5 -44.5q-70 0 -119.5 15.5t-72.5 29.5l32 63q6 -4 20 -10.5t34.5 -13
t45 -11t51.5 -4.5q61 0 97 29.5t46 95.5z" />
    <glyph glyph-name="periodcentered" unicode="&#xb7;" horiz-adv-x="194" 
d="M196 321q0 -32 -18.5 -54t-57.5 -22q-58 0 -58 49q0 33 18 55t58 22q58 0 58 -50z" />
    <glyph glyph-name="cedilla" unicode="&#xb8;" 
d="M136 -177q5 -2 14.5 -3t23.5 -1q12 0 25.5 3t24 9.5t17.5 17t7 25.5q0 42 -65 42l32 114l56 -8l-18 -66q25 -7 44.5 -25t19.5 -52q0 -29 -11.5 -50.5t-30.5 -36t-44 -21.5t-51 -7q-21 0 -36 2.5t-20 4.5z" />
    <glyph glyph-name="guillemotright" unicode="&#xbb;" horiz-adv-x="436" 
d="M205 103l96 145q5 7 5 10t-2 9l-55 141h82l66 -153l-107 -152h-85zM47 103l96 145q5 7 5 10t-2 9l-55 141h82l66 -153l-107 -152h-85z" />
    <glyph glyph-name="multiply" unicode="&#xd7;" horiz-adv-x="570" 
d="M294 262l-119 -106l-50 58l120 106l-90 107l67 59l89 -106l121 106l50 -59l-121 -107l91 -106l-67 -58z" />
    <glyph glyph-name="divide" unicode="&#xf7;" horiz-adv-x="570" 
d="M337 177q0 -35 -19 -53.5t-54 -18.5q-57 0 -57 51q0 34 19.5 53t54.5 19q28 0 42 -13.5t14 -37.5zM105 281l12 80h377l-12 -80h-377zM380 487q0 -35 -18.5 -53.5t-54.5 -18.5q-56 0 -56 51q0 35 19 53.5t54 18.5q56 0 56 -51z" />
    <glyph glyph-name="florin" unicode="&#x192;" horiz-adv-x="514" 
d="M280 311l-73 -238q-14 -45 -30 -76t-37 -50.5t-49.5 -28.5t-66.5 -9q-19 0 -38.5 3.5t-36.5 9.5t-31.5 13t-22.5 14l35 60q15 -11 42.5 -21t55.5 -10q32 0 53.5 18.5t35.5 65.5l75 239q2 10 -7 10h-89l20 67h101l34 110q13 42 29.5 72.5t39 50t53.5 28.5t73 9
q48 0 78.5 -11.5t46.5 -21.5l-39 -128l-57 5l9 68q1 10 -7 13t-17 5t-26 2q-45 0 -66 -27.5t-36 -74.5l-28 -90q-2 -5 -1.5 -7.5t6.5 -2.5h138l-20 -67h-147z" />
    <glyph glyph-name="circumflex" unicode="&#x2c6;" 
d="M455 572l-110 101l-140 -101l-39 38l145 123h84l110 -123z" />
    <glyph glyph-name="caron" unicode="&#x2c7;" 
d="M370 579h-84l-108 122l49 39l109 -101l141 101l39 -38z" />
    <glyph glyph-name="uni02C9" unicode="&#x2c9;" 
d="M182 611l9 69h307l-9 -69h-307z" />
    <glyph glyph-name="breve" unicode="&#x2d8;" 
d="M516 706q-26 -62 -70 -97.5t-115 -35.5t-106 35.5t-43 97.5l58 22q9 -47 33 -68.5t66 -21.5t71 21.5t52 68.5z" />
    <glyph glyph-name="dotaccent" unicode="&#x2d9;" 
d="M412 702q0 -31 -18.5 -53.5t-55.5 -22.5q-56 0 -56 51q0 32 17.5 54t56.5 22q56 0 56 -51z" />
    <glyph glyph-name="ring" unicode="&#x2da;" 
d="M356 764q37 0 60.5 -20t23.5 -57q0 -47 -30 -80t-82 -33q-37 0 -61 20t-24 61q0 48 32 78.5t81 30.5zM336 623q24 0 36.5 16.5t12.5 39.5q0 18 -10 27t-27 9q-24 0 -36.5 -16.5t-12.5 -39.5q0 -36 37 -36z" />
    <glyph glyph-name="ogonek" unicode="&#x2db;" 
d="M323 -196q-49 -22 -96 -22q-38 0 -59 16t-21 48q0 28 12.5 52t32 45.5t44 40.5t48.5 36l56 -16q-12 -9 -30 -23t-35 -31.5t-29 -37t-12 -38.5q0 -26 26 -26q11 0 24 3.5t27 8.5z" />
    <glyph glyph-name="tilde" unicode="&#x2dc;" 
d="M491 638q-22 -27 -37.5 -38.5t-32.5 -11.5t-43 8q-16 4 -34 9t-34 9.5t-29 8t-21 5.5q-9 3 -17 -4l-44 -39l-38 30l35 44q19 23 34 32.5t32 9.5t41 -7q15 -4 33 -9t34.5 -9.5t30.5 -8t21 -5.5q8 -3 16 4l40 37l41 -30z" />
    <glyph glyph-name="hungarumlaut" unicode="&#x2dd;" 
d="M189 568l-38 34l157 177l59 -55zM360 568l-39 34l158 176l59 -54z" />
    <glyph glyph-name="uni0394" unicode="&#x394;" horiz-adv-x="670" 
d="M10 0l352 724h116l154 -724h-622zM408 641l-271 -565h377z" />
    <glyph glyph-name="uni03A9" unicode="&#x3a9;" horiz-adv-x="845" 
d="M465 0l22 150q31 12 68.5 35.5t70 60.5t54.5 89t22 120q0 101 -55.5 153t-149.5 52q-63 0 -116 -18.5t-91 -55.5t-59.5 -91.5t-21.5 -126.5q0 -87 38.5 -140.5t98.5 -77.5l-22 -150h-290l23 160h65l4 -79q0 -8 3 -9.5t11 -1.5h120l8 50q-75 33 -114.5 99t-39.5 148
q0 80 27.5 148t78.5 117.5t123.5 77t161.5 27.5q75 0 130 -20.5t91 -56.5t53.5 -86t17.5 -110q0 -64 -19 -118t-52 -97.5t-77 -76t-94 -53.5l-7 -49h114q8 0 11.5 1.5t6.5 9.5l26 79h66l-23 -160h-284z" />
    <glyph glyph-name="uni03BC" unicode="&#x3bc;" horiz-adv-x="629" 
d="M418 0l9 68h-4q-38 -30 -84.5 -53.5t-89.5 -23.5q-56 0 -82 40l-3 -1l-19 -206h-93l97 690h91l-48 -340q-3 -20 -3.5 -40t5.5 -35.5t21.5 -25t45.5 -9.5q42 0 83.5 22.5t83.5 62.5l51 365h91l-60 -435q-3 -19 10 -20l53 -7l-7 -52h-148z" />
    <glyph glyph-name="pi" unicode="&#x3c0;" horiz-adv-x="695" 
d="M436 0l62 443h-234l-62 -443h-157l7 53l51 7q9 1 12.5 3t4.5 10l51 360q2 11 -0.5 14.5t-12.5 5.5l-58 7l7 54h570l-7 -54l-63 -8q-11 -2 -14 -5t-5 -14l-50 -353q-2 -12 0.5 -15t13.5 -5l48 -7l-7 -53h-157z" />
    <glyph glyph-name="afii10023" unicode="&#x401;" horiz-adv-x="616" 
d="M364 845q0 -27 -17 -45t-47 -18q-23 0 -36 12.5t-13 33.5q0 26 17 44.5t47 18.5q23 0 36 -12.5t13 -33.5zM566 845q0 -27 -17 -45t-47 -18q-23 0 -36 12.5t-13 33.5q0 26 17 44.5t47 18.5q23 0 36 -12.5t13 -33.5zM36 0l6 49l63 7q11 2 13.5 5.5t4.5 14.5l79 571
q2 11 0 15t-13 5l-60 7l6 50h492l-23 -165l-62 4l-3 77q-1 13 -16 13h-230l-34 -252h261l-10 -72h-262l-35 -258h252q8 0 11.5 1.5t5.5 9.5l28 87h62l-23 -169h-513z" />
    <glyph glyph-name="afii10051" unicode="&#x402;" horiz-adv-x="811" 
d="M766 219q0 -49 -15 -91.5t-44 -73.5t-71.5 -48.5t-98.5 -17.5q-45 0 -83.5 8t-55.5 16l17 134h55l9 -67q1 -8 4 -10.5t8 -4.5q10 -3 22 -4t31 -1q55 0 92 41.5t37 116.5q0 36 -11 60t-30.5 38.5t-45.5 20.5t-56 6q-42 0 -78.5 -5.5t-71.5 -12.5l-44 -324h-170l7 52l64 7
q11 1 13.5 4.5t4.5 15.5l81 574h-145q-8 0 -12 -1.5t-6 -9.5l-28 -86l-67 -1l24 169h626l-24 -170l-66 1l-4 84q0 14 -15 14h-192l-36 -255q29 6 67 12t89 6q109 0 164 -54t55 -143z" />
    <glyph glyph-name="afii10052" unicode="&#x403;" horiz-adv-x="586" 
d="M320 766l-25 48l204 127l37 -75zM33 0l8 51l64 8q11 1 13.5 5t4.5 15l79 567q2 11 0 15t-13 5l-62 7l7 51h490l-25 -179l-65 3l-4 92q0 13 -15 13h-220l-80 -574q-2 -11 0 -14.5t13 -4.5l145 -9l-8 -51h-332z" />
    <glyph glyph-name="afii10053" unicode="&#x404;" horiz-adv-x="662" 
d="M595 38q-45 -29 -110 -39.5t-133 -10.5q-77 0 -131.5 23t-89.5 64.5t-51.5 98.5t-16.5 125q0 95 26.5 175.5t78 139t128 91t176.5 32.5q65 0 120.5 -14.5t89.5 -39.5l-22 -160l-66 4l-4 94q0 8 -2.5 12t-12.5 9q-20 9 -52.5 14.5t-60.5 5.5q-57 0 -106.5 -17.5t-88 -51
t-64.5 -83t-37 -113.5h307l-10 -72h-304v-23q1 -117 53 -178.5t157 -61.5q14 0 33 1t38.5 3.5t37.5 6t30 8.5q8 3 10.5 7.5t5.5 12.5l29 91h63z" />
    <glyph glyph-name="afii10054" unicode="&#x405;" horiz-adv-x="567" 
d="M481 538l-3 86q0 7 -3.5 13.5t-13.5 12t-28 8.5t-48 3q-33 0 -64.5 -7.5t-55.5 -23t-38.5 -40t-14.5 -58.5q0 -27 10.5 -46t28.5 -33t41.5 -24t49.5 -20q32 -12 64 -25t57.5 -34t42 -52.5t16.5 -78.5q0 -62 -22.5 -106t-61 -71.5t-90.5 -40.5t-111 -13q-34 0 -66.5 4
t-60 9.5t-48.5 12t-32 12.5l22 164h66l6 -90q2 -18 31.5 -28t92.5 -10q84 0 131.5 35t47.5 108q0 30 -11.5 50.5t-31 35t-44 25t-51.5 19.5q-31 11 -62 23.5t-55.5 32.5t-39.5 50.5t-15 76.5q0 56 22 97.5t59.5 68.5t87 40t104.5 13q66 0 111.5 -12.5t69.5 -22.5l-24 -170z
" />
    <glyph glyph-name="afii10055" unicode="&#x406;" horiz-adv-x="364" 
d="M27 0l5 49l73 7q11 1 13.5 5t4.5 15l80 572q2 11 0 15t-13 5l-70 7l6 49h268l-6 -49l-76 -8q-11 -2 -13.5 -5t-4.5 -14l-81 -571q-2 -12 0 -15t13 -5l74 -8l-5 -49h-268z" />
    <glyph glyph-name="afii10056" unicode="&#x407;" horiz-adv-x="364" 
d="M229 845q0 -27 -17 -45t-47 -18q-23 0 -36 12.5t-13 33.5q0 26 17 44.5t47 18.5q23 0 36 -12.5t13 -33.5zM431 845q0 -27 -17 -45t-47 -18q-23 0 -36 12.5t-13 33.5q0 26 17 44.5t47 18.5q23 0 36 -12.5t13 -33.5zM27 0l5 49l73 7q11 1 13.5 5t4.5 15l80 572q2 11 0 15
t-13 5l-70 7l6 49h268l-6 -49l-76 -8q-11 -2 -13.5 -5t-4.5 -14l-81 -571q-2 -12 0 -15t13 -5l74 -8l-5 -49h-268z" />
    <glyph glyph-name="afii10057" unicode="&#x408;" horiz-adv-x="484" 
d="M342 649q2 11 -0.5 14.5t-12.5 4.5l-83 7l7 49h271l-7 -49l-67 -8q-11 -2 -13 -4.5t-4 -13.5l-71 -502q-11 -81 -52.5 -120t-130.5 -39q-57 0 -99.5 12.5t-56.5 22.5l18 138l64 -4v-72q0 -5 1.5 -8t7.5 -6q7 -3 25.5 -7t44.5 -4q46 0 64 23t25 70z" />
    <glyph glyph-name="afii10058" unicode="&#x409;" horiz-adv-x="1026" 
d="M223 724h578l-8 -50l-99 -10q-11 -1 -14 -4.5t-5 -15.5l-30 -219h130q56 0 96.5 -13.5t66.5 -37t38 -56t12 -70.5q0 -61 -20 -107.5t-57 -78t-89.5 -47t-117.5 -15.5h-289l8 52l64 7q11 1 13.5 5t4.5 15l80 575h-206q-29 -231 -71 -397q-16 -65 -39.5 -115t-58 -84.5
t-81.5 -52.5t-110 -19l-6 82q42 2 73.5 12.5t55.5 32t42 54.5t33 80q9 29 19 72t20.5 95.5t20 111t16.5 117.5q2 12 -0.5 16.5t-13.5 6.5l-64 7zM699 72q38 0 72.5 8.5t61 28t42.5 52t16 80.5q0 59 -34.5 86t-100.5 27h-122l-39 -282h104z" />
    <glyph glyph-name="afii10059" unicode="&#x40a;" horiz-adv-x="1058" 
d="M675 408h131q112 0 163 -45.5t51 -122.5q0 -61 -20 -106.5t-57 -75t-89 -44t-117 -14.5h-287l7 52l64 7q11 1 13.5 5t4.5 15l36 257h-326l-37 -259q-2 -12 0 -15t13 -5l65 -8l-8 -49h-248l6 49l63 7q11 2 13.5 5.5t4.5 14.5l80 572q2 11 0 15t-13 5l-60 7l7 49h248
l-6 -49l-67 -8q-11 -2 -13.5 -5t-4.5 -14l-33 -240h326l34 240q2 11 0 15t-12 5l-61 7l5 49h254l-6 -50l-72 -8q-11 -1 -14 -4.5t-5 -14.5zM731 72q38 0 73 7t61.5 25t42.5 49.5t16 79.5q0 59 -36 81.5t-102 22.5h-121l-37 -265h103z" />
    <glyph glyph-name="afii10060" unicode="&#x40b;" horiz-adv-x="849" 
d="M392 410q39 11 86.5 18t92.5 7q99 0 140.5 -45.5t27.5 -142.5l-24 -169q-2 -12 0.5 -15t13.5 -5l63 -7l-8 -51h-237v0l6 51l53 7q9 2 12 5t5 14l22 150q5 34 3.5 59.5t-12 42t-33 24.5t-59.5 8q-36 0 -82 -7t-81 -17l-36 -259q-2 -12 0.5 -15t13.5 -5l62 -7l-8 -51h-253
l8 51l67 8q11 2 14.5 5t5.5 16l80 573h-146q-8 0 -11.5 -1.5t-5.5 -9.5l-28 -86l-66 -1l24 169h623l-25 -179l-64 4l-3 86q0 10 -3.5 14t-14.5 4h-190z" />
    <glyph glyph-name="afii10061" unicode="&#x40c;" horiz-adv-x="721" 
d="M413 766l-25 48l204 127l37 -75zM214 78q-2 -12 0 -15.5t13 -5.5l66 -8l-8 -49h-249l7 49l61 7q11 2 14 5.5t5 14.5l80 572q2 11 -0.5 14.5t-13.5 5.5l-62 7l7 49h252l-6 -49l-68 -8q-17 -2 -19 -17t-4 -32l-30 -213h74q23 0 40 4.5t31.5 15.5t28 29.5t27.5 45.5l71 135
q12 22 24 40.5t27.5 32t37 21.5t51.5 8q15 0 28 -2t26 -5l-13 -68q-8 2 -14 2h-12q-18 0 -30.5 -5t-21 -13t-14.5 -19.5t-13 -25.5l-69 -134q-23 -44 -53 -64.5t-55 -27.5v0q26 -11 42.5 -33t33.5 -67l74 -189q5 -12 9.5 -17t14.5 -7l67 -11l-8 -51h-158q-10 34 -23 72
t-26.5 73.5t-26 66t-20.5 49.5q-9 22 -17.5 36t-18.5 22.5t-23.5 11.5t-33.5 3h-67z" />
    <glyph glyph-name="afii10062" unicode="&#x40e;" horiz-adv-x="659" 
d="M594 900q-25 -64 -66.5 -91t-100.5 -27q-60 0 -98.5 27.5t-48.5 90.5l69 20q7 -44 27.5 -61t51.5 -17q29 0 54.5 15.5t43.5 63.5zM155 637q-3 11 -7.5 17t-17.5 9l-42 11l17 50h220l-8 -50l-74 -9l109 -427h3l226 426l-71 9l17 51h205l-7 -51l-44 -11q-14 -4 -20 -10
t-15 -23l-264 -485q-24 -44 -45 -74t-43.5 -48t-48.5 -26t-59 -8q-35 0 -70.5 9.5t-55.5 22.5l31 67q14 -8 38 -17t53 -9q22 0 37.5 6t27.5 17t22.5 28t22.5 38z" />
    <glyph glyph-name="afii10145" unicode="&#x40f;" horiz-adv-x="768" 
d="M526 70l80 574q2 11 0 14.5t-13 5.5l-61 7l8 53h251l-7 -53l-67 -8q-11 -2 -14 -5t-5 -15l-79 -562q-2 -11 0 -14.5t13 -5.5l66 -8l-8 -53h-263q-13 0 -16 -13l-34 -143l-60 3l3 140q0 13 -11 13h-276l7 53l65 7q11 1 13.5 5t4.5 15l79 564q2 11 0 14.5t-13 5.5l-63 7
l8 53h251l-7 -53l-66 -8q-11 -2 -14 -5t-5 -15l-80 -573h313z" />
    <glyph glyph-name="afii10017" unicode="&#x410;" horiz-adv-x="699" 
d="M428 0l7 47l85 9l-31 165h-274l-75 -165l77 -9l-8 -47h-223l7 47l43 11q11 3 18 9t11 14l302 643h113l132 -649q3 -13 21 -17l43 -11l-7 -47h-241zM409 643l-162 -349h230z" />
    <glyph glyph-name="afii10018" unicode="&#x411;" horiz-adv-x="668" 
d="M336 73q39 0 74 6t62 23t42.5 47t15.5 78q0 30 -11 50t-30.5 32t-46.5 16.5t-60 4.5h-133l-36 -257h123zM259 401h141q119 0 172.5 -45t53.5 -127q0 -62 -22 -105.5t-60 -71t-90.5 -40t-112.5 -12.5h-308l8 51l64 7q11 1 13.5 5t4.5 15l79 568q2 9 -1 13t-14 6l-60 8
l7 51h494l-25 -179l-66 4l-3 89q0 15 -16 15h-224z" />
    <glyph glyph-name="afii10019" unicode="&#x412;" horiz-adv-x="646" 
d="M35 0l7 48l62 7q11 2 14 5.5t5 14.5l79 572q2 11 -0.5 15t-12.5 5l-61 8l7 49h292q55 0 91.5 -12t59 -32.5t32 -48.5t9.5 -60q0 -43 -12.5 -75.5t-33.5 -56t-47 -38t-53 -22.5l-1 -4q72 -8 108 -48.5t36 -103.5t-21.5 -105.5t-60.5 -69t-92.5 -37.5t-117.5 -11h-289z
M323 73q43 0 79.5 5.5t63.5 21t42 45t15 77.5q0 31 -11 52.5t-30.5 35t-45.5 19.5t-57 6h-132l-35 -262h111zM344 405q32 0 64.5 6t59 23t43 46.5t16.5 76.5q0 56 -34.5 75t-100.5 19h-101l-33 -246h86z" />
    <glyph glyph-name="afii10020" unicode="&#x413;" horiz-adv-x="586" 
d="M33 0l8 51l64 8q11 1 13.5 5t4.5 15l79 567q2 11 0 15t-13 5l-62 7l7 51h490l-25 -179l-65 3l-4 92q0 13 -15 13h-220l-80 -574q-2 -11 0 -14.5t13 -4.5l145 -9l-8 -51h-332z" />
    <glyph glyph-name="afii10021" unicode="&#x414;" horiz-adv-x="773" 
d="M123 0q-15 0 -18 -13l-36 -130l-67 -4l29 218h60q36 40 64.5 84.5t51 101t40 128.5t30.5 168l13 92q2 11 0 15.5t-13 6.5l-62 7l7 50h573l-7 -50l-68 -8q-10 -2 -13.5 -6t-5.5 -16l-80 -573h74l-29 -218l-66 4l-1 130q0 13 -14 13h-462zM380 654l-11 -88
q-22 -179 -66.5 -299t-112.5 -196h339l81 583h-230z" />
    <glyph glyph-name="afii10022" unicode="&#x415;" horiz-adv-x="616" 
d="M36 0l6 49l63 7q11 2 13.5 5.5t4.5 14.5l79 571q2 11 0 15t-13 5l-60 7l6 50h492l-23 -165l-62 4l-3 77q-1 13 -16 13h-230l-34 -252h261l-10 -72h-262l-35 -258h252q8 0 11.5 1.5t5.5 9.5l28 87h62l-23 -169h-513z" />
    <glyph glyph-name="afii10024" unicode="&#x416;" horiz-adv-x="1023" 
d="M529 648q2 11 0 14.5t-13 5.5l-62 7l7 49h250l-7 -49l-67 -8q-11 -2 -14 -5t-5 -14l-33 -240h57q22 0 38 4t29.5 15.5t26 31.5t27.5 52l54 114q11 24 23 44.5t28 35.5t38.5 23.5t53.5 8.5q12 0 23 -1t19 -2q9 -2 17 -4l-13 -70q-8 2 -14.5 2h-16.5q-33 -1 -48.5 -19
t-32.5 -55l-59 -125q-19 -40 -44 -59t-49 -25v-1q12 -5 22 -13t19.5 -21t18.5 -33t20 -49l65 -176q7 -20 24 -23l65 -11l-7 -52h-160q-10 35 -22.5 73.5t-25.5 75t-24.5 68t-19.5 50.5q-9 22 -17 35.5t-17.5 21t-22.5 10t-32 2.5h-53l-37 -258q-2 -12 0 -15.5t13 -5.5l64 -8
l-7 -49h-246l6 49l64 8q11 2 13 5t4 14l36 260h-53q-19 0 -32.5 -3t-25 -10.5t-23 -21t-26.5 -34.5q-13 -19 -33.5 -50t-43.5 -67.5t-46 -75.5t-43 -74h-161l7 52l67 11q11 2 17.5 6.5t14.5 16.5l130 208q23 35 43.5 54.5t52.5 29.5v1q-21 7 -38.5 27.5t-26.5 62.5l-27 129
q-8 38 -20.5 51t-40.5 14q-6 0 -12.5 -0.5t-14.5 -1.5l6 69q14 4 28 5.5t27 1.5q50 0 71.5 -21t32.5 -68l34 -145q7 -29 14 -47.5t17.5 -29t24.5 -14.5t35 -4h56z" />
    <glyph glyph-name="afii10025" unicode="&#x417;" horiz-adv-x="611" 
d="M385 737q100 0 152 -41t52 -122q0 -40 -13 -72.5t-36.5 -56.5t-55 -40.5t-68.5 -25.5l-1 -4q64 -11 101.5 -50.5t37.5 -109.5q0 -46 -17.5 -87.5t-53 -72.5t-88 -49t-122.5 -18q-69 0 -129 16t-97 42l22 156h66l3 -98q0 -16 12 -21q25 -12 58 -17t68 -5q37 0 70.5 10
t58.5 30t39.5 49.5t14.5 69.5q0 111 -144 111h-112l10 73h74q46 0 84 11.5t65 32.5t42 50t15 63q0 58 -35 80.5t-91 22.5q-29 0 -63.5 -4.5t-51.5 -12.5q-7 -3 -10.5 -6.5t-5.5 -11.5l-30 -99h-68l22 152q40 24 100.5 39.5t124.5 15.5z" />
    <glyph glyph-name="afii10026" unicode="&#x418;" horiz-adv-x="810" 
d="M478 0l8 50l64 7q11 2 13.5 5.5t4.5 14.5l74 518l-3 -1l-427 -594h-178l7 50l63 7q11 2 14 5.5t5 14.5l78 570q2 11 0 15t-13 5l-62 7l8 50h253l-7 -50l-68 -8q-11 -2 -14 -5t-5 -14l-73 -515h4l423 592h186l-8 -50l-68 -8q-11 -2 -14 -5t-5 -14l-78 -569q-2 -12 0 -15
t13 -5l66 -8l-7 -50h-254z" />
    <glyph glyph-name="afii10027" unicode="&#x419;" horiz-adv-x="810" 
d="M670 900q-25 -64 -66.5 -91t-100.5 -27q-60 0 -98.5 27.5t-48.5 90.5l69 20q7 -44 27.5 -61t51.5 -17q29 0 54.5 15.5t43.5 63.5zM478 0l8 50l64 7q11 2 13.5 5.5t4.5 14.5l74 518l-3 -1l-427 -594h-178l7 50l63 7q11 2 14 5.5t5 14.5l78 570q2 11 0 15t-13 5l-62 7l8 50
h253l-7 -50l-68 -8q-11 -2 -14 -5t-5 -14l-73 -515h4l423 592h186l-8 -50l-68 -8q-11 -2 -14 -5t-5 -14l-78 -569q-2 -12 0 -15t13 -5l66 -8l-7 -50h-254z" />
    <glyph glyph-name="afii10028" unicode="&#x41a;" horiz-adv-x="721" 
d="M214 78q-2 -12 0 -15.5t13 -5.5l66 -8l-8 -49h-249l7 49l61 7q11 2 14 5.5t5 14.5l80 572q2 11 -0.5 14.5t-13.5 5.5l-62 7l7 49h252l-6 -49l-68 -8q-17 -2 -19 -17t-4 -32l-30 -213h74q23 0 40 4.5t31.5 15.5t28 29.5t27.5 45.5l71 135q12 22 24 40.5t27.5 32t37 21.5
t51.5 8q15 0 28 -2t26 -5l-13 -68q-8 2 -14 2h-12q-18 0 -30.5 -5t-21 -13t-14.5 -19.5t-13 -25.5l-69 -134q-23 -44 -53 -64.5t-55 -27.5v0q26 -11 42.5 -33t33.5 -67l74 -189q5 -12 9.5 -17t14.5 -7l67 -11l-8 -51h-158q-10 34 -23 72t-26.5 73.5t-26 66t-20.5 49.5
q-9 22 -17.5 36t-18.5 22.5t-23.5 11.5t-33.5 3h-67z" />
    <glyph glyph-name="afii10029" unicode="&#x41b;" horiz-adv-x="761" 
d="M599 654h-220q-14 -115 -31.5 -214.5t-38.5 -182.5q-16 -65 -40 -115t-58.5 -84t-81.5 -52t-110 -19l-6 81q42 2 73.5 12.5t56 32t42.5 54.5t33 80q9 29 19 72t20 95.5t19.5 111t16.5 117.5q2 12 -0.5 16.5t-13.5 6.5l-64 7l8 51h560l-7 -51l-68 -8q-10 -2 -13.5 -6
t-5.5 -16l-78 -565q-2 -12 0 -15t13 -5l66 -8l-9 -50h-251l8 50l62 7q11 2 13.5 5.5t4.5 14.5z" />
    <glyph glyph-name="afii10030" unicode="&#x41c;" horiz-adv-x="923" 
d="M578 0l5 49l85 7q9 1 12 5t5 15l69 498l-250 -404h-89l-141 406l-70 -499q-2 -12 -0.5 -15.5t12.5 -4.5l86 -8l-6 -49h-259l5 49l63 7q11 2 14 5.5t5 15.5l79 570q2 11 0 15t-13 5l-60 7l6 50h179l158 -469l282 469h189l-7 -49l-66 -8q-11 -2 -14 -5.5t-5 -17.5l-80 -568
q-2 -10 1 -13.5t13 -5.5l65 -8l-7 -49h-266z" />
    <glyph glyph-name="afii10031" unicode="&#x41d;" horiz-adv-x="792" 
d="M463 0l8 49l62 7q11 2 13.5 5.5t4.5 14.5l36 261h-336l-38 -260q-2 -12 0 -15t13 -5l65 -8l-7 -49h-249l7 49l63 7q11 2 13.5 5.5t4.5 14.5l80 572q2 11 0 15t-13 5l-60 7l6 49h249l-7 -49l-67 -8q-11 -2 -13.5 -5t-4.5 -14l-32 -239h336l34 239q2 11 0 15t-12 5l-61 7
l5 49h249l-6 -49l-66 -8q-11 -2 -14 -5t-5 -14l-79 -571q-2 -12 0 -15t12 -5l65 -8l-7 -49h-249z" />
    <glyph glyph-name="afii10032" unicode="&#x41e;" horiz-adv-x="752" 
d="M348 -12q-75 0 -129 22t-89.5 61.5t-52 94.5t-16.5 120q0 97 25.5 179.5t75.5 143t124 94.5t171 34q74 0 127 -22.5t87.5 -62.5t50.5 -94.5t16 -118.5q0 -105 -27 -188.5t-77.5 -142t-122.5 -89.5t-163 -31zM360 65q59 0 110 22t89 67t60.5 113t23.5 159q0 49 -11 91
q-18 70 -64 106.5t-122 36.5q-60 0 -112 -22.5t-91 -67t-61.5 -111.5t-24.5 -156q0 -50 11 -92q35 -146 192 -146z" />
    <glyph glyph-name="afii10033" unicode="&#x41f;" horiz-adv-x="777" 
d="M294 654l-80 -576q-2 -12 0 -15t13 -5l64 -8l-7 -50h-251l7 50l64 7q11 2 13.5 5.5t4.5 14.5l80 569q2 11 0 15t-13 5l-62 7l7 51h665l-7 -51l-68 -8q-11 -2 -14 -5t-5 -14l-78 -568q-2 -12 0 -15t13 -5l66 -8l-8 -50h-251l7 50l62 7q11 2 13.5 5.5t4.5 14.5l81 577h-321
z" />
    <glyph glyph-name="afii10034" unicode="&#x420;" horiz-adv-x="641" 
d="M35 0l7 49l63 7q11 2 14 5.5t5 14.5l79 572q2 11 -0.5 15t-13.5 5l-60 7l6 49h298q59 0 100 -14t66.5 -39t36.5 -58t11 -72q0 -70 -21 -121t-60.5 -83.5t-95.5 -48t-126 -15.5h-105l-27 -196q-1 -12 1 -15.5t12 -4.5l139 -8l-6 -49h-323zM342 345q42 0 80.5 7t67.5 27.5
t46 57t17 96.5q0 64 -39 92t-114 28h-108l-43 -308h93z" />
    <glyph glyph-name="afii10035" unicode="&#x421;" horiz-adv-x="662" 
d="M595 41q-44 -27 -109.5 -40t-133.5 -13q-77 0 -131.5 23t-89.5 64.5t-51.5 98.5t-16.5 125q0 95 26.5 175.5t78 139t128 91t176.5 32.5q65 0 120.5 -14.5t89.5 -39.5l-22 -160l-66 4l-4 96q0 8 -1.5 12t-9.5 7q-23 9 -52.5 14.5t-64.5 5.5q-66 0 -121.5 -23.5t-96 -69
t-63 -111.5t-22.5 -151q0 -120 52 -182.5t158 -62.5q35 0 73.5 4.5t67.5 17.5q10 4 14 17l29 91h63z" />
    <glyph glyph-name="afii10036" unicode="&#x422;" horiz-adv-x="636" 
d="M134 0l7 51l100 7q10 1 13 5t5 15l80 575h-154q-8 0 -11.5 -1.5t-5.5 -9.5l-27 -87h-63l23 169h588l-23 -169h-63l-4 87q-1 8 -3.5 9.5t-10.5 1.5h-155l-81 -575q-2 -11 0 -14.5t13 -4.5l109 -8l-7 -51h-330z" />
    <glyph glyph-name="afii10037" unicode="&#x423;" horiz-adv-x="659" 
d="M155 637q-3 11 -7.5 17t-17.5 9l-42 11l17 50h220l-8 -50l-74 -9l109 -427h3l226 426l-71 9l17 51h205l-7 -51l-44 -11q-14 -4 -20 -10t-15 -23l-264 -485q-24 -44 -45 -74t-43.5 -48t-48.5 -26t-59 -8q-35 0 -70.5 9.5t-55.5 22.5l31 67q14 -8 38 -17t53 -9q22 0 37.5 6
t27.5 17t22.5 28t22.5 38z" />
    <glyph glyph-name="afii10038" unicode="&#x424;" horiz-adv-x="809" 
d="M606 687l-73 -8q-11 -2 -14.5 -5t-5.5 -14l-7 -55q145 -2 216 -52t71 -144q0 -76 -25 -127.5t-70.5 -83.5t-111 -47t-146.5 -17l-8 -62q-1 -14 13 -15l75 -7l-7 -50h-265l7 50l72 6q11 1 14 5t5 15l9 58q-140 2 -214.5 47.5t-74.5 154.5q0 71 23.5 120.5t69 82t111.5 48
t151 18.5l7 54q3 19 -14 20l-73 8l7 50h265zM158 344q0 -39 11.5 -65.5t36.5 -43t64.5 -23.5t94.5 -8l47 331q-60 -1 -107 -11t-80 -32t-50 -58.5t-17 -89.5zM703 400q0 72 -49 104t-159 32l-46 -332q60 1 107.5 11.5t80 33.5t49.5 60t17 91z" />
    <glyph glyph-name="afii10039" unicode="&#x425;" horiz-adv-x="685" 
d="M399 0l8 49l75 9l-131 248l-193 -248l70 -9l-7 -49h-225l5 47l52 11q16 4 28 19l228 293l-146 277q-4 8 -8.5 11.5t-12.5 5.5l-42 11l8 49h229l-7 -49l-74 -9l118 -236l185 236l-70 9l9 49h214l-7 -49l-44 -11q-17 -4 -28 -19l-218 -274l161 -294q8 -14 22 -18l49 -10
l-7 -49h-241z" />
    <glyph glyph-name="afii10040" unicode="&#x426;" horiz-adv-x="763" 
d="M29 0l7 51l68 8q11 2 13.5 5t4.5 14l79 568q2 12 0 15t-13 5l-66 8l8 50h251l-7 -50l-62 -7q-11 -2 -14 -5.5t-5 -14.5l-81 -577h307l81 576q2 12 0 15t-13 5l-63 8l7 50h250l-7 -50l-64 -7q-11 -2 -14 -5.5t-5 -14.5l-80 -577h79l-29 -225l-65 4l-2 138q0 13 -14 13
h-551z" />
    <glyph glyph-name="afii10041" unicode="&#x427;" horiz-adv-x="723" 
d="M346 0l8 54l109 7q11 1 14 4.5t5 15.5l30 215q-37 -11 -84 -17t-89 -6q-92 0 -138 34.5t-46 110.5q0 19 3 41l25 188q2 12 0 15t-13 5l-60 7l8 50h247l-8 -50l-63 -8q-11 -2 -14 -5t-5 -14l-22 -168q-2 -13 -3 -23.5t-1 -21.5q0 -45 23.5 -67.5t86.5 -22.5q18 0 40.5 2
t45 5t43 7.5t34.5 10.5l39 278q2 12 -0.5 15t-12.5 5l-56 7l7 50h246l-7 -50l-67 -8q-11 -2 -14 -5t-5 -14l-79 -568q-2 -12 0 -15t13 -5l66 -8l-8 -51h-298z" />
    <glyph glyph-name="afii10042" unicode="&#x428;" horiz-adv-x="1056" 
d="M464 70l80 577q2 11 0 15t-13 5l-64 7l7 50h257l-7 -50l-70 -8q-11 -2 -14 -5t-5 -14l-80 -577h258l80 576q2 12 0 15t-13 5l-60 8l8 50h247l-8 -50l-64 -7q-11 -2 -14 -5.5t-5 -14.5l-79 -569q-2 -11 1 -14.5t13 -4.5l63 -7l-7 -52h-946l7 52l68 8q11 2 13.5 5t4.5 14
l79 567q2 12 0 15t-13 5l-66 8l8 50h247l-7 -50l-58 -7q-11 -2 -14 -5.5t-5 -14.5l-81 -577h252z" />
    <glyph glyph-name="afii10043" unicode="&#x429;" horiz-adv-x="1049" 
d="M29 0l7 52l68 8q11 2 13.5 5t4.5 14l79 566q2 12 0 15t-13 5l-66 8l8 51h247l-7 -51l-58 -7q-11 -2 -14 -5.5t-5 -14.5l-81 -576h248l80 576q2 11 0 15t-13 5l-64 7l7 51h257l-7 -51l-70 -7q-11 -2 -14 -5.5t-5 -14.5l-80 -576h254l80 575q2 12 0 15t-13 5l-60 8l8 51
h247l-8 -51l-64 -7q-11 -2 -14 -5.5t-5 -14.5l-80 -575h78l-29 -226l-65 4l-1 137q0 14 -15 14h-835z" />
    <glyph glyph-name="afii10044" unicode="&#x42a;" horiz-adv-x="774" 
d="M448 71q38 0 72.5 9t61 29.5t42.5 52.5t16 78q0 65 -34.5 90.5t-101.5 25.5h-130l-40 -285h114zM209 654q-14 0 -18 -13l-31 -93l-66 -3l25 179h422l-8 -54l-100 -8q-11 -1 -13.5 -4.5t-4.5 -14.5l-30 -216h135q58 0 99 -12.5t67 -35.5t38 -55.5t12 -72.5q0 -63 -21 -110
t-59 -78.5t-91 -47t-117 -15.5h-293l8 51l64 7q11 2 13.5 5.5t4.5 14.5l81 576h-117z" />
    <glyph glyph-name="afii10045" unicode="&#x42b;" horiz-adv-x="956" 
d="M262 427h131q56 0 96.5 -13.5t66 -37.5t37.5 -56.5t12 -71.5q0 -61 -20 -107.5t-57 -78t-89.5 -47t-117.5 -15.5h-9h-280l8 52l64 7q8 1 12.5 7t6.5 14.5t3 18.5t2 19l73 529q2 11 0 14t-13 5l-64 7l8 51h286l-7 -50l-100 -10q-11 -1 -14 -4.5t-5 -15.5zM316 72
q38 0 72.5 8.5t61 28t42.5 52t16 81.5q0 35 -11 57.5t-33 35t-54.5 17t-75.5 4.5h-82l-40 -284h104zM619 0l5 49l73 7q11 1 13.5 5t4.5 15l80 572q2 11 0 15t-13 5l-70 7l6 49h268l-6 -49l-76 -8q-11 -2 -13.5 -5t-4.5 -14l-81 -571q-2 -12 0 -15t13 -5l74 -8l-5 -49h-268z
" />
    <glyph glyph-name="afii10046" unicode="&#x42c;" horiz-adv-x="643" 
d="M316 72q38 0 72.5 8.5t61 28t42.5 52t16 81.5q0 59 -34.5 86.5t-101.5 27.5h-120l-40 -284h104zM262 427h131q56 0 96.5 -13.5t66 -37.5t37.5 -56.5t12 -71.5q0 -61 -20 -107.5t-57 -78t-89.5 -47t-117.5 -15.5h-289l8 52l64 7q11 1 13.5 5t4.5 15l79 568q2 11 0 14
t-13 5l-64 7l8 51h286l-7 -50l-100 -10q-11 -1 -14 -4.5t-5 -15.5z" />
    <glyph glyph-name="afii10047" unicode="&#x42d;" horiz-adv-x="687" 
d="M139 685q44 25 110 38.5t132 13.5q78 0 133.5 -23.5t91 -65.5t51.5 -99t16 -124q0 -95 -25 -175t-75.5 -138.5t-125.5 -91t-175 -32.5q-69 0 -129 14.5t-93 38.5l22 159l67 -3l4 -90q0 -10 2.5 -15t11.5 -9q23 -10 57.5 -15t60.5 -5q116 0 194 69.5t100 195.5h-344l10 72
h341q1 5 1 11v12q0 118 -53.5 179.5t-159.5 61.5q-13 0 -31.5 -0.5t-37 -2.5t-36.5 -5.5t-31 -9.5q-9 -4 -12.5 -9t-5.5 -13l-29 -91h-63z" />
    <glyph glyph-name="afii10048" unicode="&#x42e;" horiz-adv-x="1060" 
d="M685 -12q-63 0 -108.5 17t-76 45.5t-49 65t-27 75t-10 76t1.5 68.5h-167l-36 -258q-2 -12 -0.5 -15t12.5 -5l75 -8l-6 -49h-268l5 49l73 7q11 1 13.5 5t4.5 15l80 572q2 11 0 15t-13 5l-70 7l6 49h268l-5 -49l-77 -8q-11 -2 -13.5 -5t-4.5 -14l-34 -241h166
q13 74 43 134.5t76 104t107 67.5t136 24q73 0 123 -22.5t80.5 -62.5t43.5 -93.5t13 -116.5q0 -102 -23 -185.5t-68 -143.5t-113 -92.5t-158 -32.5zM693 64q61 0 109 26.5t81.5 75.5t51.5 118t18 154q0 45 -7.5 85.5t-27.5 70.5t-54 48t-87 18q-60 0 -109.5 -26t-85 -73.5
t-55 -115.5t-19.5 -152q0 -43 9 -84t30.5 -73.5t57 -52t88.5 -19.5z" />
    <glyph glyph-name="afii10049" unicode="&#x42f;" horiz-adv-x="710" 
d="M10 0l8 52l67 11q11 2 16.5 5t11.5 14l88 152q22 38 43 63t57 39v0q-28 7 -53 20.5t-44 34.5t-30.5 50t-11.5 67q0 59 22.5 100.5t60 67t86.5 37t103 11.5h296l-7 -52l-67 -7q-10 -1 -12.5 -5.5t-4.5 -15.5l-78 -567q-2 -11 0.5 -14.5t13.5 -5.5l62 -7l-8 -50h-249l7 50
l65 8q11 2 14.5 5.5t5.5 15.5l31 229h-101q-35 0 -52 -11t-34 -37q-13 -21 -30.5 -50.5t-36.5 -64t-39 -71.5t-39 -74h-161zM513 379l38 272h-115q-36 0 -68.5 -7t-56.5 -23.5t-38.5 -43.5t-14.5 -68q0 -39 13.5 -64.5t36.5 -40t53 -20t64 -5.5h88z" />
    <glyph glyph-name="afii10065" unicode="&#x430;" horiz-adv-x="580" 
d="M376 0l12 90l-3 1q-43 -43 -88.5 -73t-102.5 -30q-72 0 -111 46.5t-39 144.5q0 58 13 119t42.5 111.5t77.5 82.5t118 32q44 0 80.5 -17t61.5 -39l16 46h84q-8 -30 -14.5 -60.5t-11.5 -62.5l-44 -315q-2 -12 0.5 -15t13.5 -5l49 -7l-8 -49h-146zM424 396q-20 20 -54 37
t-72 17q-47 0 -78.5 -26.5t-50 -66t-26.5 -85.5t-8 -85q0 -68 23.5 -94.5t62.5 -26.5q23 0 46 11t45.5 27.5t43 37t38.5 39.5z" />
    <glyph glyph-name="afii10066" unicode="&#x431;" horiz-adv-x="552" 
d="M250 -12q-52 0 -89.5 17t-61 48t-34.5 74.5t-11 95.5q0 55 9.5 118t28.5 119q30 88 101.5 152t192.5 88q32 6 50.5 10.5t28.5 8.5t14 9.5t7 13.5l68 3q1 -31 -7 -51.5t-26 -33.5t-46 -21t-66 -15q-65 -12 -111 -30.5t-77.5 -46.5t-51 -65.5t-33.5 -87.5l4 -2
q36 57 89.5 85t114.5 28q45 0 78 -14.5t55 -40t32.5 -60t10.5 -74.5q0 -61 -14.5 -119.5t-46.5 -105t-83.5 -75t-125.5 -28.5zM259 57q47 0 79 24t51.5 61t28 82t8.5 88q0 60 -25 90.5t-81 30.5q-45 0 -78.5 -19.5t-55 -51t-32 -72.5t-10.5 -85q0 -32 6 -59t19.5 -47
t35.5 -31t54 -11z" />
    <glyph glyph-name="afii10067" unicode="&#x432;" horiz-adv-x="533" 
d="M266 -12q-30 0 -60.5 2.5t-57.5 7t-49 10t-36 10.5l47 346q7 51 29 82.5t53.5 48.5t68 23t71.5 6q45 0 76 -9.5t50.5 -26t28.5 -38.5t9 -47q0 -50 -29 -84.5t-79 -50.5v-2q51 -7 79 -33.5t28 -73.5q0 -46 -18 -78.5t-49 -53t-73 -30t-89 -9.5zM159 72q11 -5 41 -10t71 -5
q28 0 52 5.5t41.5 17.5t27.5 31.5t10 47.5q0 24 -9.5 38t-26.5 21t-40 8.5t-49 1.5h-95zM288 293q22 0 43 5t37.5 16.5t27 29.5t10.5 43q0 37 -21.5 52.5t-61.5 15.5q-48 0 -81 -18.5t-41 -72.5l-11 -71h98z" />
    <glyph glyph-name="afii10068" unicode="&#x433;" horiz-adv-x="456" 
d="M273 461q-51 0 -83 -12q-7 -2 -9 -6t-4 -9l-21 -68h-67l16 118q29 16 79 28t104 12q67 0 110.5 -31t43.5 -95q0 -43 -17 -71.5t-44 -47t-60 -30.5t-65 -23q-27 -9 -49 -17.5t-38.5 -19.5t-25.5 -25.5t-9 -35.5q0 -36 23.5 -52.5t61.5 -16.5q45 0 81.5 19t68.5 48l43 -55
q-38 -38 -92 -60.5t-111 -22.5q-75 0 -120.5 35t-45.5 101q0 44 18 72t46 46.5t62.5 30l67.5 22.5q23 8 44 16t37 19.5t25 27t9 37.5q0 32 -21 49t-58 17z" />
    <glyph glyph-name="afii10069" unicode="&#x434;" horiz-adv-x="547" 
d="M187 747q107 -13 172.5 -51t101.5 -88t48 -106.5t12 -106.5q0 -33 -3 -76t-12.5 -88t-27.5 -88.5t-48 -78t-74.5 -55.5t-106.5 -21q-54 0 -93 15.5t-63.5 43.5t-36.5 67t-12 86q0 64 16.5 119.5t48 96t77.5 63.5t106 23q45 0 80 -15t64 -39q0 1 1 1q-19 107 -89.5 159.5
t-194.5 71.5zM431 375q-18 20 -50.5 38.5t-82.5 18.5q-41 0 -71 -17.5t-50 -49t-30 -74.5t-10 -94q0 -26 5 -51t18.5 -45t36 -32t56.5 -12q53 0 87 27t54 72t28 102t9 117z" />
    <glyph glyph-name="afii10070" unicode="&#x435;" horiz-adv-x="480" 
d="M420 30q-40 -20 -86 -31t-94 -11q-54 0 -91.5 15.5t-61 42.5t-33.5 65t-10 83q0 68 20.5 128t57.5 105t88.5 71t113.5 26q39 0 65.5 -9.5t43.5 -25.5t24.5 -38t7.5 -47q0 -57 -36 -93.5t-87 -58.5t-107.5 -32.5t-98.5 -15.5q0 -33 5.5 -59.5t19 -45t38 -28.5t61.5 -10
t71 10t72 27zM142 272q25 3 65 10t78.5 21.5t66 37.5t27.5 58q0 23 -15.5 37.5t-50.5 14.5q-34 0 -62 -14.5t-49.5 -39t-36.5 -57t-23 -68.5z" />
    <glyph glyph-name="afii10072" unicode="&#x436;" horiz-adv-x="788" 
d="M471 295h34q15 0 26 2t19.5 8t16.5 18t18 32l42 83q10 20 19.5 36t22.5 27t31 17t45 6q11 0 26.5 -2.5t23.5 -5.5l-12 -61q-15 3 -25 3q-19 0 -30 -8.5t-22 -30.5l-45 -92q-14 -27 -29.5 -40.5t-35.5 -18.5v-1q15 -5 28 -19t24 -45l47 -126q3 -8 6.5 -12.5t13.5 -6.5
l54 -8l-7 -50h-137q-20 63 -38 110.5t-33 81.5q-10 22 -22 32t-35 10h-35l-33 -234h-86l34 234h-51q-23 0 -36.5 -10.5t-33.5 -39.5q-22 -32 -48.5 -76.5t-61.5 -107.5h-141l7 51l54 8q8 1 12.5 3.5t9.5 10.5l86 137q20 31 34.5 43t33.5 17v0q-15 6 -28.5 20.5t-20.5 43.5
l-22 91q-5 17 -12.5 25.5t-24.5 8.5q-11 0 -28 -3l5 60q11 3 29.5 5.5t32.5 2.5q39 0 53 -19.5t22 -48.5l28 -98q6 -20 11 -32.5t12 -19t17 -9t26 -2.5h43l19 137q3 15 -10 19l-43 14l13 49h134l3 -5z" />
    <glyph glyph-name="afii10073" unicode="&#x437;" horiz-adv-x="476" 
d="M287 524q88 0 127 -33.5t39 -85.5q0 -54 -34.5 -89t-87.5 -49v-3q43 -8 72.5 -33t29.5 -79q0 -40 -17.5 -71t-47.5 -51.5t-70.5 -31t-85.5 -10.5q-61 0 -113.5 18t-78.5 46l43 59q23 -20 62.5 -35.5t90.5 -15.5q21 0 43.5 4.5t40.5 15t30 28t12 44.5q0 38 -24 55.5
t-69 17.5h-103l9 67h67q64 0 101.5 26t37.5 70q0 39 -26 54.5t-62 15.5q-24 0 -45.5 -2.5t-36.5 -8.5q-6 -2 -8 -5.5t-4 -8.5l-21 -65l-67 -1l16 117q31 17 79 28.5t101 11.5z" />
    <glyph glyph-name="afii10074" unicode="&#x438;" horiz-adv-x="617" 
d="M405 0l15 99q-20 -17 -44 -36.5t-50.5 -36t-53.5 -27t-54 -10.5q-63 0 -94.5 27t-31.5 94q0 11 1 27t3 30l39 270q2 12 -0.5 15t-13.5 5l-52 8l8 49h154l3 -4l-45 -321q-2 -14 -3.5 -28.5t-1.5 -32.5q0 -30 11 -43.5t42 -13.5q23 0 46 9t46.5 24.5t47.5 35.5t49 42
l34 255q2 12 -0.5 15t-13.5 5l-58 8l7 49h163l3 -4l-61 -434q-3 -17 9 -19l55 -9l-6 -48h-153z" />
    <glyph glyph-name="afii10075" unicode="&#x439;" horiz-adv-x="617" 
d="M405 0l15 99q-20 -17 -44 -36.5t-50.5 -36t-53.5 -27t-54 -10.5q-63 0 -94.5 27t-31.5 94q0 11 1 27t3 30l39 270q2 12 -0.5 15t-13.5 5l-52 8l8 49h154l3 -4l-45 -321q-2 -14 -3.5 -28.5t-1.5 -32.5q0 -30 11 -43.5t42 -13.5q23 0 46 9t46.5 24.5t47.5 35.5t49 42
l34 255q2 12 -0.5 15t-13.5 5l-58 8l7 49h163l3 -4l-61 -434q-3 -17 9 -19l55 -9l-6 -48h-153zM535 706q-45 -134 -186 -134q-72 0 -108.5 35.5t-43.5 98.5l74 22q6 -48 24 -71t61 -23q42 0 66.5 22.5t42.5 69.5z" />
    <glyph glyph-name="afii10076" unicode="&#x43a;" horiz-adv-x="545" 
d="M205 289h47q32 0 49.5 12t36.5 46l58 105q19 34 44 53t68 19q23 0 45 -6l-9 -61q-5 1 -10 1h-10q-23 0 -35 -9.5t-24 -32.5l-45 -86q-27 -50 -79 -64v-1q17 -5 28.5 -18.5t25.5 -43.5l54 -124q4 -8 7.5 -12.5t11.5 -6.5l48 -8l-6 -52h-128q-7 24 -17 50t-19.5 49.5
t-18 43.5t-14.5 33q-14 32 -26.5 42t-40.5 10h-48l-33 -228h-89l62 439q2 8 0 11t-9 5l-44 10l6 49h142l3 -6z" />
    <glyph glyph-name="afii10077" unicode="&#x43b;" horiz-adv-x="597" 
d="M388 0l-3 6l61 441h-150q-11 -76 -22 -132.5t-23 -107.5q-12 -48 -27.5 -88.5t-41 -69.5t-63.5 -44t-94 -12l-10 72q41 0 69 10t50 48t40.5 113t39.5 204q2 8 0.5 11.5t-9.5 4.5l-49 6l8 52h376l4 -6l-59 -435q-1 -8 1 -11t10 -5l52 -10l-8 -47h-152z" />
    <glyph glyph-name="afii10078" unicode="&#x43c;" horiz-adv-x="774" 
d="M569 0l-3 5l55 385h-2l-174 -277h-87l-70 272q-5 -20 -10.5 -44t-11.5 -48l-11.5 -46t-10.5 -40q-12 -41 -26.5 -80t-38.5 -69.5t-61 -48.5t-96 -16l-10 71q36 -1 65 10.5t54 52t46.5 117.5t42.5 208l-55 10l7 52h159l83 -329h1l199 329h103l4 -7l-60 -436q-2 -12 11 -14
l53 -8l-7 -49h-149z" />
    <glyph glyph-name="afii10079" unicode="&#x43d;" horiz-adv-x="623" 
d="M438 231h-238l-33 -231h-85l-4 5l61 428q3 17 -11 21l-52 12l6 48h155l3 -6l-30 -208h238l32 214h84l4 -5l-61 -432q-3 -16 11 -20l53 -10l-6 -47h-157l-3 7l16 102z" />
    <glyph glyph-name="afii10080" unicode="&#x43e;" horiz-adv-x="559" 
d="M253 -12q-54 0 -93 15t-64.5 42.5t-38 66t-12.5 85.5q0 71 18.5 131t54.5 103.5t89 68t122 24.5q56 0 94.5 -16t62.5 -44.5t35 -66.5t11 -82q0 -75 -18.5 -135.5t-53.5 -103t-87 -65.5t-120 -23zM261 57q78 0 128 64t50 195q0 69 -30.5 102t-89.5 33q-40 0 -73.5 -15.5
t-57.5 -46.5t-37.5 -78t-13.5 -110q0 -71 31 -107.5t93 -36.5z" />
    <glyph glyph-name="afii10081" unicode="&#x43f;" horiz-adv-x="619" 
d="M406 0l-2 2l19 121l28 201q2 17 4 32.5t2 29.5q0 26 -10 42.5t-41 16.5q-44 0 -89.5 -31.5t-102.5 -82.5l-35 -254q-2 -12 0.5 -15t13.5 -5l62 -8l-7 -49h-233l7 50l48 7q11 2 14 5.5t5 14.5l48 352q3 18 -9 21l-53 16l7 48h151l-14 -99q23 20 48 39t51 35t54 25.5
t58 9.5q61 0 89 -30t29 -90q0 -12 -1.5 -28.5t-3.5 -30.5l-38 -268q-2 -12 0 -15t13 -5l56 -8l-7 -49h-161z" />
    <glyph glyph-name="afii10082" unicode="&#x440;" horiz-adv-x="585" 
d="M42 -212l-4 4l29 169l64 468q3 18 -9 21l-53 16l6 48h154l-14 -93q21 19 44.5 37.5t49 33t53 23.5t56.5 9q30 0 55 -11t43.5 -34.5t29 -60.5t10.5 -90q0 -58 -14 -118.5t-43 -110t-74.5 -80.5t-108.5 -31q-42 0 -81 16t-68 45l-24 -181q-2 -11 0 -14.5t12 -4.5l92 -8
l-7 -53h-198zM178 127q23 -26 55 -46t72 -20q44 0 74 25t49 63.5t27.5 84t8.5 85.5q0 68 -21 96t-54 28q-24 0 -49.5 -11.5t-49.5 -28.5t-45.5 -36t-37.5 -34z" />
    <glyph glyph-name="afii10083" unicode="&#x441;" horiz-adv-x="488" 
d="M431 32q-15 -9 -36.5 -17t-45.5 -14t-49.5 -9.5t-49.5 -3.5q-55 0 -94 15t-64 42.5t-36.5 66t-11.5 85.5q0 87 24 148.5t64.5 101.5t94 58.5t113.5 18.5q55 0 91.5 -11.5t52.5 -19.5l-19 -133l-63 3l-3 66q0 11 -12 15q-22 8 -62 8q-35 0 -68.5 -13t-60 -42t-43 -75.5
t-16.5 -113.5q0 -77 32.5 -112.5t93.5 -35.5q41 0 80.5 11t65.5 25z" />
    <glyph glyph-name="afii10084" unicode="&#x442;" horiz-adv-x="895" 
d="M682 0l-2 2l21 132l26 190q2 16 4.5 35.5t2.5 36.5q0 24 -9 35t-32 11q-37 0 -80 -31.5t-95 -79.5l-36 -254q-2 -12 0.5 -15t13.5 -5l56 -8l-8 -49h-162l-1 2l20 128l27 194q3 23 5.5 41t2.5 30q0 17 -6.5 32.5t-32.5 15.5q-42 0 -85 -32t-98 -80l-35 -254
q-2 -12 0.5 -15t13.5 -5l62 -8l-7 -49h-233l7 50l48 7q11 2 14 5.5t5 14.5l48 352q3 17 -9 21l-53 16l7 48h151l-14 -99q32 27 58 47.5t49 34t46 20t50 6.5q53 0 78.5 -26.5t21.5 -83.5q20 18 43 38t48 36t51.5 26.5t54.5 10.5q60 0 82.5 -27.5t23.5 -77.5q0 -16 -2 -34
t-5 -38l-37 -270q-2 -12 0.5 -15t13.5 -5l55 -8l-7 -49h-161z" />
    <glyph glyph-name="afii10085" unicode="&#x443;" horiz-adv-x="526" 
d="M199 15l-108 425q-2 9 -5.5 12t-11.5 5l-41 9l9 48h130l5 -6l23 -126l60 -259l166 333l-62 10l6 48h159l7 -14l-296 -577q-19 -37 -37.5 -64.5t-39.5 -45.5t-47.5 -27t-62.5 -9q-23 0 -43.5 4.5t-37.5 11.5t-29.5 14.5t-18.5 13.5l37 57q17 -12 39.5 -20.5t50.5 -8.5
q21 0 36.5 7t28 20t23.5 30t22 38z" />
    <glyph glyph-name="afii10086" unicode="&#x444;" horiz-adv-x="758" 
d="M471 522q57 -1 104 -13t80.5 -37.5t51.5 -66t18 -97.5q0 -157 -80.5 -236t-248.5 -83l-17 -121q-2 -11 0 -15t13 -5l62 -7l-7 -53h-246l8 54l60 6q12 2 15 5.5t5 15.5l16 119q-135 9 -194.5 67t-59.5 155q0 92 28.5 152.5t75 96t105.5 50t120 14.5l20 139q3 17 -11 21
l-56 19l16 53h154zM405 60q34 0 73.5 7.5t74 32t57.5 72.5t23 130q0 45 -13 73.5t-36.5 45.5t-55 24t-67.5 8zM369 452q-36 -1 -76 -9t-73.5 -32.5t-55 -71.5t-21.5 -127q0 -46 15.5 -75.5t40 -46.5t55.5 -23.5t61 -7.5z" />
    <glyph glyph-name="afii10087" unicode="&#x445;" horiz-adv-x="560" 
d="M387 0l-7 7l-38 74l-68 126l-125 -149l62 -9l-5 -49h-215l6 48l53 11q9 2 13.5 5t11.5 11l161 189l-96 177q-5 8 -8.5 11.5t-11.5 5.5l-39 6l7 50h115l6 -5l39 -82l55 -104l119 134l-56 8l8 49h196l-7 -49l-42 -10q-10 -2 -15.5 -6.5t-11.5 -12.5l-153 -169l104 -190
q8 -15 23 -18l60 -10l-8 -49h-133z" />
    <glyph glyph-name="afii10088" unicode="&#x446;" horiz-adv-x="619" 
d="M501 84q-2 -18 4.5 -25.5t24.5 -7.5h36l-24 -181l-67 7l5 117q-37 3 -51.5 22.5t-9.5 50.5l5 33q-20 -17 -45 -36.5t-52 -36t-55 -27.5t-54 -11q-63 0 -94.5 27t-31.5 94q0 11 1 27t3 30l39 270q2 12 -0.5 15t-13.5 5l-52 8l8 49h154l3 -4l-45 -321q-2 -14 -3.5 -28.5
t-1.5 -32.5q0 -30 11 -43.5t42 -13.5q23 0 46 9t46.5 24.5t47.5 35.5t49 42l34 255q2 12 -0.5 15t-13.5 5l-58 8l7 49h163l3 -4z" />
    <glyph glyph-name="afii10089" unicode="&#x447;" horiz-adv-x="570" 
d="M197 171q-40 0 -63.5 11t-34.5 30.5t-11.5 46t4.5 58.5l17 123q3 14 -9 17l-47 7l7 50h144l4 -6l-28 -203q-4 -27 4 -44t41 -17q36 0 74 17.5t98 60.5l17 118q2 8 0.5 11.5t-9.5 4.5l-48 8l7 50h144l5 -4l-59 -434q-2 -9 0.5 -12.5t10.5 -5.5l52 -9l-7 -49h-156l-3 7
l37 237h-1q-17 -12 -38.5 -25t-46 -23.5t-51 -17.5t-54.5 -7z" />
    <glyph glyph-name="afii10090" unicode="&#x448;" horiz-adv-x="893" 
d="M232 514l2 -4l-45 -320q-3 -22 -5.5 -39t-2.5 -31q1 -23 9.5 -35.5t36.5 -12.5q33 0 71.5 27.5t98.5 82.5l37 254q2 12 0 15t-13 5l-54 9l8 49h157l2 -4l-46 -320q-2 -16 -4 -37.5t-2 -33.5q0 -20 8.5 -33t31.5 -13q24 0 47.5 10t46.5 26t45 35t43 38l34 254
q2 12 -0.5 15t-13.5 5l-59 9l8 49h158l5 -4l-58 -428q-2 -8 -0.5 -13.5t9.5 -7.5l54 -14l-7 -47h-152l14 98q-22 -19 -46 -38.5t-49.5 -35t-54 -25t-60.5 -9.5q-51 0 -72 30.5t-19 80.5q-20 -19 -43 -38.5t-48.5 -35.5t-52 -26.5t-54.5 -10.5q-61 0 -84 27.5t-23 78.5
q0 14 2 32.5t4 37.5l39 270q2 12 -0.5 15t-13.5 5l-56 9l7 49h160z" />
    <glyph glyph-name="afii10091" unicode="&#x449;" horiz-adv-x="895" 
d="M232 514l2 -4l-45 -320q-3 -22 -5.5 -39t-2.5 -31q1 -23 9.5 -35.5t36.5 -12.5q33 0 71.5 27.5t98.5 82.5l37 254q2 12 0 15t-13 5l-54 9l8 49h157l2 -4l-46 -320q-2 -16 -4 -37.5t-2 -33.5q0 -20 8.5 -33t31.5 -13q24 0 47.5 10t46.5 26t45 35t43 38l34 254
q2 12 -0.5 15t-13.5 5l-59 9l8 49h158l5 -4l-58 -428q-2 -18 4.5 -24.5t25.5 -6.5h36l-25 -181l-67 8l6 116q-33 4 -50.5 21t-13.5 49l4 35q-23 -19 -47 -38.5t-50 -35t-54.5 -25.5t-60.5 -10q-51 0 -72 30.5t-19 80.5q-20 -19 -43 -38.5t-48.5 -35.5t-52 -26.5t-54.5 -10.5
q-61 0 -84 27.5t-23 78.5q0 14 2 32.5t4 37.5l39 270q2 12 -0.5 15t-13.5 5l-56 9l7 49h160z" />
    <glyph glyph-name="afii10092" unicode="&#x44a;" horiz-adv-x="588" 
d="M400 315q75 0 117.5 -37t42.5 -103q0 -51 -19.5 -87t-51.5 -58t-72 -32t-82 -10q-49 0 -95.5 8.5t-72.5 18.5l59 432h-72q-8 0 -11 -2.5t-6 -10.5l-18 -61l-68 -3l20 144h251l4 -6l-30 -204q20 4 47.5 7.5t56.5 3.5zM263 68q12 -4 35 -8t46 -4q24 0 46.5 6t40 19.5
t28 35.5t10.5 53q0 24 -8.5 39.5t-22.5 24.5t-31 12.5t-34 3.5q-29 0 -51.5 -3.5t-34.5 -6.5z" />
    <glyph glyph-name="afii10093" unicode="&#x44b;" horiz-adv-x="763" 
d="M306 315q75 0 118 -37t43 -107q0 -49 -19.5 -84t-51.5 -57t-72.5 -32t-81.5 -10q-50 0 -94 8.5t-71 18.5l58 422q1 14 -10 15l-51 11l7 51h152l3 -4l-30 -205q21 4 46.5 7t53.5 3zM174 68q12 -4 32.5 -8t43.5 -4q24 0 47 6t40 19.5t27.5 34t10.5 50.5q0 25 -8.5 41
t-21.5 25t-29.5 13t-32.5 4q-45 0 -86 -10zM544 0l-2 4l21 115l45 312q3 17 -11 21l-53 14l7 48h158l-62 -437q-2 -12 0.5 -15t13.5 -5l59 -8l-7 -49h-169z" />
    <glyph glyph-name="afii10094" unicode="&#x44c;" horiz-adv-x="507" 
d="M314 317q81 0 123 -38t42 -104q0 -51 -19.5 -87t-51.5 -58t-72.5 -32t-81.5 -10q-25 0 -50.5 2.5t-49 6t-43.5 8.5t-34 10l58 422q1 14 -10 15l-51 11l7 51h152l3 -4l-30 -204q21 4 50.5 7.5t57.5 3.5zM174 68q12 -4 38.5 -8t49.5 -4q24 0 47 6t40 19.5t27.5 35.5
t10.5 53q0 24 -8.5 39.5t-22.5 24t-30.5 12t-33.5 3.5q-29 0 -56 -3.5t-39 -6.5z" />
    <glyph glyph-name="afii10095" unicode="&#x44d;" horiz-adv-x="540" 
d="M425 292q5 81 -34.5 122t-110.5 41q-26 0 -51 -4t-43 -11q-7 -2 -9.5 -6t-4.5 -12l-19 -62h-64l17 125q32 16 83.5 27.5t107.5 11.5t97 -16t67.5 -45t39 -69.5t12.5 -90.5q0 -64 -19 -121.5t-56 -100.5t-92 -68t-127 -25q-66 0 -116 19t-72 38l38 65q19 -15 57.5 -32
t89.5 -17q72 0 125 40.5t74 123.5h-219l10 67h219z" />
    <glyph glyph-name="afii10096" unicode="&#x44e;" horiz-adv-x="786" 
d="M71 0l62 431q3 17 -10 21l-53 14l6 48h158l-32 -225h108q11 53 32.5 96.5t54.5 74t76.5 47.5t98.5 17q51 0 87 -16.5t58 -45.5t32 -67t10 -82q0 -71 -17.5 -131t-50.5 -103t-81.5 -67t-110.5 -24q-54 0 -91.5 17t-61 45.5t-34 66.5t-10.5 80v12t1 13h-110l-33 -222h-89z
M503 60q34 0 64 15.5t52 46t34.5 77.5t12.5 110q0 29 -5 55t-17 45t-33 30t-53 11q-34 0 -64 -16t-52.5 -46.5t-35.5 -76.5t-13 -106q0 -28 5 -54.5t17.5 -46.5t34 -32t53.5 -12z" />
    <glyph glyph-name="afii10097" unicode="&#x44f;" horiz-adv-x="579" 
d="M432 443q-15 8 -43.5 11t-54.5 3q-53 0 -87 -22.5t-34 -77.5q0 -24 9.5 -39.5t25.5 -24.5t37 -12.5t44 -3.5h81zM17 54l51 8q11 2 14.5 5.5t11.5 15.5l52 86q16 26 31 43.5t42 26.5v1q-19 5 -37 13.5t-32 22.5t-22.5 35t-8.5 49q0 85 60.5 124.5t166.5 39.5q19 0 45 -2
t52 -6.5t49 -10t36 -13.5l-57 -421q-1 -7 0.5 -9t8.5 -3l47 -6l-7 -53h-146l-4 6l31 207h-101q-19 0 -31 -8t-24 -27q-19 -32 -46.5 -80.5t-53.5 -97.5h-135z" />
    <glyph glyph-name="afii10071" unicode="&#x451;" horiz-adv-x="480" 
d="M420 30q-40 -20 -86 -31t-94 -11q-54 0 -91.5 15.5t-61 42.5t-33.5 65t-10 83q0 68 20.5 128t57.5 105t88.5 71t113.5 26q39 0 65.5 -9.5t43.5 -25.5t24.5 -38t7.5 -47q0 -57 -36 -93.5t-87 -58.5t-107.5 -32.5t-98.5 -15.5q0 -33 5.5 -59.5t19 -45t38 -28.5t61.5 -10
t71 10t72 27zM142 272q25 3 65 10t78.5 21.5t66 37.5t27.5 58q0 23 -15.5 37.5t-50.5 14.5q-34 0 -62 -14.5t-49.5 -39t-36.5 -57t-23 -68.5zM286 668q0 -27 -17 -45t-47 -18q-23 0 -36 12.5t-13 33.5q0 26 17 44.5t47 18.5q23 0 36 -12.5t13 -33.5zM488 668q0 -27 -17 -45
t-47 -18q-23 0 -36 12.5t-13 33.5q0 26 17 44.5t47 18.5q23 0 36 -12.5t13 -33.5z" />
    <glyph glyph-name="afii10099" unicode="&#x452;" horiz-adv-x="590" 
d="M260 -149q49 0 86.5 35.5t63 96.5t38.5 141t13 170q0 39 -5.5 64.5t-15.5 40t-24 20t-31 5.5q-24 0 -48.5 -7.5t-47 -18t-41 -23t-31.5 -22.5l-40 -279q-2 -9 1 -12.5t13 -4.5l56 -7l-7 -50h-228l8 51l50 6q11 1 13.5 5t4.5 15l69 490h-68l9 62h67l6 47q2 12 -10 15
l-55 14l11 50h155l-18 -126h185l-9 -62h-185l-20 -137q17 12 38 24t45 22.5t48.5 17t48.5 6.5q72 0 107.5 -45t35.5 -150q0 -96 -14.5 -190.5t-47.5 -169.5t-87 -121.5t-133 -46.5q-29 0 -59 7t-49 16l26 67q42 -16 76 -16z" />
    <glyph glyph-name="afii10100" unicode="&#x453;" horiz-adv-x="456" 
d="M436 700l-56 64l-165 -156l36 -41zM273 461q-51 0 -83 -12q-7 -2 -9 -6t-4 -9l-21 -68h-67l16 118q29 16 79 28t104 12q67 0 110.5 -31t43.5 -95q0 -43 -17 -71.5t-44 -47t-60 -30.5t-65 -23q-27 -9 -49 -17.5t-38.5 -19.5t-25.5 -25.5t-9 -35.5q0 -36 23.5 -52.5
t61.5 -16.5q45 0 81.5 19t68.5 48l43 -55q-38 -38 -92 -60.5t-111 -22.5q-75 0 -120.5 35t-45.5 101q0 44 18 72t46 46.5t62.5 30l67.5 22.5q23 8 44 16t37 19.5t25 27t9 37.5q0 32 -21 49t-58 17z" />
    <glyph glyph-name="afii10101" unicode="&#x454;" horiz-adv-x="518" 
d="M457 31q-32 -20 -82.5 -31.5t-105.5 -11.5q-118 0 -171.5 59.5t-53.5 161.5q0 81 24.5 140.5t67.5 98.5t100.5 57.5t123.5 18.5q60 0 99.5 -11t56.5 -19l-19 -133l-63 4l-3 62q0 15 -13 19q-11 3 -29 5t-44 2q-35 0 -67.5 -9t-59 -28.5t-45.5 -50t-28 -73.5h215l-10 -67
h-214q1 -86 36 -125.5t110 -39.5q50 0 89 11.5t65 26.5z" />
    <glyph glyph-name="afii10102" unicode="&#x455;" horiz-adv-x="451" 
d="M355 372l-3 62q-1 8 -3.5 12t-10.5 7q-21 7 -66 7q-43 0 -75.5 -18t-32.5 -59q0 -35 26.5 -53t69.5 -33q24 -8 49 -18.5t46 -27t34 -40.5t13 -60q0 -40 -15.5 -70.5t-42.5 -51t-63.5 -31t-79.5 -10.5q-34 0 -64.5 3.5t-54 9t-39.5 11t-22 9.5l19 127l62 -4l3 -65
q0 -11 10 -15q12 -5 33.5 -9.5t57.5 -4.5q50 0 80 22t30 64q0 41 -27 58.5t-75 33.5q-24 8 -48.5 18t-43.5 25.5t-31 38.5t-12 57q0 41 15.5 70.5t42.5 48.5t64.5 28.5t81.5 9.5q56 0 97 -10t56 -17l-18 -129z" />
    <glyph glyph-name="afii10103" unicode="&#x456;" horiz-adv-x="295" 
d="M192 625q-26 0 -41 14t-15 39q0 32 19.5 53t54.5 21q27 0 41.5 -14t14.5 -39q0 -32 -19.5 -53t-54.5 -21zM73 0l-2 4l21 115l45 312q3 17 -11 21l-53 14l7 48h157l-61 -437q-2 -12 0.5 -15t13.5 -5l59 -8l-7 -49h-169z" />
    <glyph glyph-name="afii10104" unicode="&#x457;" horiz-adv-x="296" 
d="M74 0l-2 4l21 115l44 312q3 17 -11 21l-52 14l6 48h158l-61 -437q-2 -12 0 -15t13 -5l60 -8l-7 -49h-169zM259 606q-23 0 -36.5 12.5t-13.5 34.5q0 27 17.5 45t47.5 18q49 0 49 -46q0 -27 -17.5 -45.5t-46.5 -18.5zM104 606q-23 0 -36.5 12.5t-13.5 34.5q0 27 17.5 45
t47.5 18q49 0 49 -46q0 -27 -17.5 -45.5t-46.5 -18.5z" />
    <glyph glyph-name="afii10105" unicode="&#x458;" horiz-adv-x="286" 
d="M135 430q3 17 -9 21l-57 15l7 48h160l-80 -579q-12 -84 -50.5 -121t-111.5 -37q-24 0 -45 5t-38.5 11.5t-29.5 14t-18 13.5l37 57q11 -8 35 -18.5t50 -10.5q42 0 58.5 25t24.5 79zM193 625q-27 0 -42 14t-15 39q0 32 20 53t55 21q26 0 41 -14t15 -39q0 -32 -20 -53
t-54 -21z" />
    <glyph glyph-name="afii10106" unicode="&#x459;" horiz-adv-x="794" 
d="M523 514l3 -5l-29 -207q20 4 49.5 7t54.5 3q78 0 121 -37t43 -106q0 -44 -16.5 -77.5t-46.5 -56.5t-71.5 -34.5t-91.5 -11.5q-43 0 -86 5t-85 22l58 431h-138q-11 -76 -22 -132.5t-23 -107.5q-14 -59 -32.5 -100t-42 -66.5t-54 -37t-68.5 -11.5q-5 0 -10.5 0.5t-10.5 0.5
l-10 73q28 0 49.5 4.5t39 21t32 48t28.5 85.5q11 40 21 93t21 122q2 8 0.5 11.5t-9.5 4.5l-49 6l8 52h367zM465 68q12 -4 36 -7.5t44 -3.5q55 0 91.5 25t36.5 83q0 25 -8.5 40.5t-22 24t-30.5 11.5t-34 3q-20 0 -45 -2t-45 -7z" />
    <glyph glyph-name="afii10107" unicode="&#x45a;" horiz-adv-x="830" 
d="M577 -12q-24 0 -49.5 2.5t-48.5 6.5t-42.5 9t-32.5 10l28 215h-228l-33 -231h-85l-4 5l61 428q3 18 -11 21l-52 12l6 48h155l3 -6l-30 -208h228l31 214h86l2 -5l-29 -208q20 4 50 7t56 3q78 0 120.5 -36.5t42.5 -105.5q0 -49 -19.5 -83.5t-51 -56t-71.5 -31.5t-82 -10z
M501 68q12 -4 36.5 -7.5t47.5 -3.5q24 0 46.5 6t40 19t27.5 33.5t10 49.5q0 25 -8.5 40.5t-21.5 24.5t-29.5 12t-33.5 3q-29 0 -54.5 -4t-37.5 -7z" />
    <glyph glyph-name="afii10108" unicode="&#x45b;" horiz-adv-x="617" 
d="M402 0l-2 2l18 100l28 202q2 14 3.5 29.5t1.5 29.5q0 21 -8.5 39.5t-38.5 18.5q-27 0 -51.5 -9t-48 -24t-47 -35t-48.5 -42l-32 -234q-2 -12 0.5 -15t13.5 -5l62 -8l-7 -49h-233l7 50l49 7q11 2 14 5t5 15l68 490h-67l9 65h67l6 39q3 18 -9 21l-54 15l7 48h155l-18 -123
h187l-9 -65h-187l-24 -171q27 23 52 42.5t49.5 34t51 23t56.5 8.5q58 0 86 -30t29 -87q0 -13 -1.5 -30t-3.5 -32l-35 -248q-2 -12 0.5 -15t13.5 -5l55 -8l-7 -49h-163z" />
    <glyph glyph-name="afii10109" unicode="&#x45c;" horiz-adv-x="545" 
d="M311 567l-36 41l165 156l56 -64zM205 289h47q32 0 49.5 12t36.5 46l58 105q19 34 44 53t68 19q23 0 45 -6l-9 -61q-5 1 -10 1h-10q-23 0 -35 -9.5t-24 -32.5l-45 -86q-27 -50 -79 -64v-1q17 -5 28.5 -18.5t25.5 -43.5l54 -124q4 -8 7.5 -12.5t11.5 -6.5l48 -8l-6 -52
h-128q-7 24 -17 50t-19.5 49.5t-18 43.5t-14.5 33q-14 32 -26.5 42t-40.5 10h-48l-33 -228h-89l62 439q2 8 0 11t-9 5l-44 10l6 49h142l3 -6z" />
    <glyph glyph-name="afii10110" unicode="&#x45e;" horiz-adv-x="526" 
d="M199 15l-108 425q-2 9 -5.5 12t-11.5 5l-41 9l9 48h130l5 -6l23 -126l60 -259l166 333l-62 10l6 48h159l7 -14l-296 -577q-19 -37 -37.5 -64.5t-39.5 -45.5t-47.5 -27t-62.5 -9q-23 0 -43.5 4.5t-37.5 11.5t-29.5 14.5t-18.5 13.5l37 57q17 -12 39.5 -20.5t50.5 -8.5
q21 0 36.5 7t28 20t23.5 30t22 38zM483 706q-45 -134 -186 -134q-72 0 -108.5 35.5t-43.5 98.5l74 22q6 -48 24 -71t61 -23q42 0 66.5 22.5t42.5 69.5z" />
    <glyph glyph-name="afii10193" unicode="&#x45f;" horiz-adv-x="617" 
d="M308 -38l-37 -147l-71 -5l23 141zM405 0l15 99q-20 -17 -44 -36.5t-50.5 -36t-53.5 -27t-54 -10.5q-63 0 -94.5 27t-31.5 94q0 11 1 27t3 30l39 270q2 12 -0.5 15t-13.5 5l-52 8l8 49h154l3 -4l-45 -321q-2 -14 -3.5 -28.5t-1.5 -32.5q0 -30 11 -43.5t42 -13.5q23 0 46 9
t46.5 24.5t47.5 35.5t49 42l34 255q2 12 -0.5 15t-13.5 5l-58 8l7 49h163l3 -4l-61 -434q-3 -17 9 -19l55 -9l-6 -48h-153z" />
    <glyph glyph-name="afii10050" unicode="&#x490;" horiz-adv-x="546" 
d="M294 653l-80 -574q-2 -11 0 -14.5t13 -4.5l145 -11l-8 -49h-332l8 51l64 7q11 2 13.5 5.5t4.5 14.5l79 565q2 11 0 14.5t-13 5.5l-62 7l7 54h365q16 0 19 13l31 94l66 4l-26 -182h-294z" />
    <glyph glyph-name="afii10098" unicode="&#x491;" horiz-adv-x="437" 
d="M24 0l7 48l47 5q8 1 10 3.5t4 10.5l52 377q1 8 -0.5 10.5t-9.5 3.5l-45 5l7 51h270q11 0 14 9l23 67l67 5l-21 -148h-213l-53 -378q-2 -8 -0.5 -10.5t9.5 -3.5l104 -8l-6 -47h-266z" />
    <glyph glyph-name="thinspace" unicode="&#x2009;" horiz-adv-x="125" 
 />
    <glyph glyph-name="endash" unicode="&#x2013;" 
d="M12 247l10 69h499l-10 -69h-499z" />
    <glyph glyph-name="emdash" unicode="&#x2014;" horiz-adv-x="1000" 
d="M7 247l10 69h999l-10 -69h-999z" />
    <glyph glyph-name="quoteleft" unicode="&#x2018;" horiz-adv-x="185" 
d="M191 553q-39 2 -65.5 12.5t-26.5 41.5q0 15 6 27.5t16 26.5l66 101l41 -17l-41 -95q-3 -7 5 -10l29 -13z" />
    <glyph glyph-name="quoteright" unicode="&#x2019;" horiz-adv-x="189" 
d="M98 568l41 95q3 6 -5 9l-29 14l30 74q39 -2 65.5 -12.5t26.5 -40.5q0 -15 -6 -28t-16 -27l-66 -101z" />
    <glyph glyph-name="quotesinglbase" unicode="&#x201a;" horiz-adv-x="180" 
d="M7 -106l41 95q3 6 -4 9l-29 14l30 74q39 -2 65.5 -12.5t26.5 -40.5q0 -15 -6 -28t-16 -27l-66 -101z" />
    <glyph glyph-name="quotedblleft" unicode="&#x201c;" horiz-adv-x="338" 
d="M344 553q-39 2 -65.5 12.5t-26.5 41.5q0 15 6 27.5t16 26.5l66 101l41 -17l-41 -95q-3 -7 5 -10l29 -13zM191 553q-39 2 -65.5 12.5t-26.5 41.5q0 15 6 27.5t16 26.5l66 101l41 -17l-41 -95q-3 -7 5 -10l29 -13z" />
    <glyph glyph-name="quotedblright" unicode="&#x201d;" horiz-adv-x="342" 
d="M251 568l41 95q3 6 -5 9l-29 14l30 74q39 -2 65.5 -12.5t26.5 -40.5q0 -15 -6 -28t-16 -27l-66 -101zM98 568l41 95q3 6 -5 9l-29 14l30 74q39 -2 65.5 -12.5t26.5 -40.5q0 -15 -6 -28t-16 -27l-66 -101z" />
    <glyph glyph-name="quotedblbase" unicode="&#x201e;" horiz-adv-x="333" 
d="M160 -106l41 95q3 6 -4 9l-29 14l30 74q39 -2 65.5 -12.5t26.5 -40.5q0 -15 -6 -28t-16 -27l-66 -101zM7 -106l41 95q3 6 -4 9l-29 14l30 74q39 -2 65.5 -12.5t26.5 -40.5q0 -15 -6 -28t-16 -27l-66 -101z" />
    <glyph glyph-name="dagger" unicode="&#x2020;" horiz-adv-x="393" 
d="M122 -83l27 191l14 212l48 112h34l17 -112l-44 -213l-27 -190h-69zM125 411h-74l10 75h74l81 -21l-5 -33zM216 465l-8 96l12 84h75l-12 -84l-34 -96h-33zM326 411l-81 21l4 33l87 21h74l-11 -75h-73z" />
    <glyph glyph-name="daggerdbl" unicode="&#x2021;" horiz-adv-x="410" 
d="M293 76l-81 21l5 33h-33l-5 -33h33l8 -96l-12 -84h-75l12 84l34 96l-87 -21h-74l11 75h74l81 -21l-17 116l11 77l48 109h33l18 -109l-11 -77l-49 -116l87 21h74l-11 -75h-74zM139 411h-74l11 75h74l81 -21l-8 96l12 84h75l-12 -84l-34 -96l87 21h74l-11 -75h-74l-81 21
l5 33h-33l-5 -33z" />
    <glyph glyph-name="bullet" unicode="&#x2022;" horiz-adv-x="371" 
d="M338 280q0 -67 -36 -100.5t-102 -33.5t-101.5 33.5t-35.5 100.5t35.5 100.5t101.5 33.5t102 -33.5t36 -100.5z" />
    <glyph glyph-name="ellipsis" unicode="&#x2026;" horiz-adv-x="618" 
d="M365 64q0 -32 -18.5 -54t-57.5 -22q-58 0 -58 49q0 33 18 55t58 22q58 0 58 -50zM558 64q0 -32 -18.5 -54t-57.5 -22q-58 0 -58 49q0 33 18 55t58 22q58 0 58 -50zM172 64q0 -32 -18.5 -54t-57.5 -22q-58 0 -58 49q0 33 18 55t58 22q58 0 58 -50z" />
    <glyph glyph-name="perthousand" unicode="&#x2030;" horiz-adv-x="1088" 
d="M204 295q-33 0 -56.5 10t-38.5 27.5t-21.5 41t-6.5 50.5q0 43 11.5 79t33 62t53.5 40.5t74 14.5q65 0 94 -34.5t29 -91.5q0 -44 -11 -80.5t-33 -63t-54 -41t-74 -14.5zM116 -17l466 638h86l-465 -638h-87zM213 352q30 0 47.5 13.5t26.5 34t12 44t3 44.5q0 32 -12.5 53
t-44.5 21q-25 0 -42.5 -12t-28 -31.5t-15 -43.5t-4.5 -47q0 -33 13 -54.5t45 -21.5zM534 -12q-34 0 -57.5 10t-38 27t-21 40t-6.5 50q0 43 11.5 79.5t33.5 62.5t54.5 41t74.5 15q65 0 93.5 -35.5t28.5 -92.5q0 -88 -44.5 -142.5t-128.5 -54.5zM543 45q30 0 47.5 13t26.5 33
t12 43.5t3 44.5q0 32 -12.5 54t-44.5 22q-25 0 -42.5 -12.5t-28 -32t-15 -43t-4.5 -46.5q0 -33 12.5 -54.5t45.5 -21.5zM862 -12q-34 0 -57.5 10t-38 27t-21 40t-6.5 50q0 43 11.5 79.5t33 62.5t53.5 41t74 15q65 0 94.5 -35.5t29.5 -92.5q0 -88 -44.5 -142.5t-128.5 -54.5z
M871 45q30 0 47.5 13t26.5 33t12 43.5t3 44.5q0 32 -12.5 54t-44.5 22q-25 0 -42.5 -12.5t-28 -32t-15 -43t-4.5 -46.5q0 -33 12.5 -54.5t45.5 -21.5z" />
    <glyph glyph-name="guilsinglleft" unicode="&#x2039;" horiz-adv-x="278" 
d="M128 103l-65 156l110 149h83l-96 -139q-5 -7 -5.5 -10t1.5 -9l54 -147h-82z" />
    <glyph glyph-name="guilsinglright" unicode="&#x203a;" horiz-adv-x="278" 
d="M47 103l96 145q5 7 5 10t-2 9l-55 141h82l66 -153l-107 -152h-85z" />
    <glyph glyph-name="fraction" unicode="&#x2044;" horiz-adv-x="205" 
d="M-143 -12l459 736h84l-458 -736h-85z" />
    <glyph glyph-name="Euro" unicode="&#x20ac;" horiz-adv-x="522" 
d="M180 217q14 -158 134 -158q23 0 42.5 2.5t31.5 7.5q10 4 13 16l23 77l62 4l-19 -145q-10 -4 -27 -10t-39.5 -11t-48 -8.5t-52.5 -3.5q-101 0 -153.5 59t-59.5 170h-85l19 62h65q2 36 6 69h-54l19 62h48q17 62 47 107t69 74t85 43t95 14q52 0 91.5 -11.5t57.5 -22.5
l-21 -145l-60 5l-3 77q0 12 -12 16q-10 3 -26.5 5.5t-40.5 2.5q-62 0 -112 -40t-76 -125h198l-18 -62h-194q-4 -33 -6 -69h182l-18 -62h-163z" />
    <glyph glyph-name="afii61352" unicode="&#x2116;" horiz-adv-x="1120" 
d="M506 0l-242 527l-62 -445q-2 -12 0 -15t13 -5l66 -8l-7 -54h-240l7 54l64 7q11 2 14 5.5t5 14.5l65 466q2 11 0 15t-13 5l-62 7l8 55h193l231 -512l59 431q2 11 0 15t-13 5l-62 7l8 54h239l-8 -54l-68 -8q-11 -2 -14 -5t-5 -14l-76 -548h-100zM721 183h308l-10 -73h-308z
M882 224q-39 0 -66.5 10.5t-45.5 29t-26 44t-8 54.5q0 45 12.5 83.5t36.5 66.5t60 43.5t83 15.5q77 0 109.5 -40t32.5 -102q0 -92 -48 -148.5t-140 -56.5zM890 281q46 0 74 36t29 113q0 45 -18.5 64t-54.5 19q-46 0 -76.5 -35t-30.5 -110q0 -46 19.5 -66.5t57.5 -20.5z" />
    <glyph glyph-name="trademark" unicode="&#x2122;" horiz-adv-x="830" 
d="M166 348v37l60 5v287h-85l-9 -54h-36v101h320v-101h-37l-8 54h-86v-287l64 -5v-37h-183zM734 348v36l47 5v223l-96 -183h-46l-94 184v-224l50 -5v-36h-146v36l40 5v291l-40 5v39h99l116 -233l119 233h95v-39l-42 -5v-291l44 -5v-36h-146z" />
    <glyph glyph-name="partialdiff" unicode="&#x2202;" horiz-adv-x="575" 
d="M444 349q6 23 8.5 55t2.5 63q0 27 -5.5 51t-18 42.5t-32.5 29t-50 10.5q-42 0 -85.5 -16t-72.5 -35l-31 61q43 27 98 45t109 18q48 0 81 -16.5t54 -45.5t30.5 -68.5t9.5 -86.5q0 -44 -6 -96t-20 -104t-37.5 -100.5t-58 -85.5t-82.5 -59.5t-110 -22.5q-88 0 -130.5 45.5
t-42.5 120.5q0 54 17 101.5t48 82t74.5 54.5t96.5 20q54 0 92 -20t61 -43zM429 276q-9 10 -22 21.5t-30 21t-37.5 16t-44.5 6.5q-40 0 -67.5 -17t-45 -43t-25.5 -58t-8 -61q0 -44 21 -73.5t68 -29.5q45 0 77.5 21.5t55.5 54t37 70.5t21 71z" />
    <glyph glyph-name="product" unicode="&#x220f;" horiz-adv-x="776" 
d="M430 -176l7 50l64 7q11 2 14 5.5t5 14.5l105 752h-344l-105 -751q-2 -12 0 -15t13 -5l66 -8l-7 -50h-254l7 50l64 7q11 2 14 5.5t5 14.5l104 743q2 11 -0.5 14.5t-13.5 5.5l-62 7l8 53h690l-8 -53l-68 -8q-11 -2 -13.5 -5t-4.5 -14l-104 -742q-2 -12 0 -15t13 -5l66 -8
l-7 -50h-254z" />
    <glyph glyph-name="summation" unicode="&#x2211;" horiz-adv-x="627" 
d="M-26 -176l8 59l290 396l-162 389l8 56h528l-23 -165l-67 4l-3 77q-1 13 -16 13h-321l151 -371l-277 -381h349q8 0 11.5 1.5t6.5 9.5l28 87h67l-24 -175h-554z" />
    <glyph glyph-name="minus" unicode="&#x2212;" horiz-adv-x="570" 
d="M112 281l11 81h377l-11 -81h-377z" />
    <glyph glyph-name="radical" unicode="&#x221a;" horiz-adv-x="563" 
d="M244 0l-97 227q-5 12 -17 8l-65 -18l-17 56l144 65l100 -244l265 650l77 -19l-295 -725h-95z" />
    <glyph glyph-name="infinity" unicode="&#x221e;" horiz-adv-x="671" 
d="M212 457q54 0 87 -23t59 -55q28 29 66 53.5t87 24.5q26 0 49.5 -8t41.5 -24.5t28.5 -41.5t10.5 -59q0 -30 -10 -55.5t-29 -44t-45 -29.5t-58 -11q-53 0 -88 23.5t-61 54.5q-26 -29 -61.5 -53.5t-83.5 -24.5q-28 0 -53.5 8t-44.5 24t-30 41t-11 59q0 30 11 56t30.5 44.5
t46.5 29.5t58 11zM206 244q33 0 58.5 21.5t48.5 50.5q-24 34 -50 56.5t-61 22.5q-31 0 -49 -22.5t-18 -51.5q0 -14 3.5 -27.5t12 -24.5t22 -18t33.5 -7zM503 398q-34 0 -59 -21.5t-49 -51.5q24 -31 51 -53.5t60 -22.5q31 0 49 21.5t18 51.5q0 28 -16 52t-54 24z" />
    <glyph glyph-name="integral" unicode="&#x222b;" horiz-adv-x="508" 
d="M130 -99q18 -10 36.5 -14t36.5 -4q26 0 44 14.5t14 55.5l-54 633q-3 39 7.5 66t29.5 43.5t44.5 24t52.5 7.5q30 0 54.5 -5.5t47.5 -14.5l-20 -71q-19 10 -37 14t-36 4q-26 0 -43.5 -15t-14.5 -52l54 -635q3 -40 -7.5 -67t-29.5 -43.5t-44.5 -23.5t-51.5 -7q-32 0 -57 6
t-47 15z" />
    <glyph glyph-name="approxequal" unicode="&#x2248;" horiz-adv-x="530" 
d="M491 322q-8 -22 -17 -41.5t-22 -34.5t-30 -23.5t-41 -8.5q-27 0 -56.5 7t-58 15t-55.5 15t-49 7q-23 0 -38.5 -12.5t-35.5 -38.5l-47 22q27 45 54.5 73t72.5 28q29 0 57 -7t55.5 -15t53.5 -15t50 -7q23 0 33.5 13t23.5 39zM517 497q-8 -22 -17.5 -41.5t-22.5 -34t-30 -23
t-40 -8.5q-27 0 -57 6.5t-59 15t-56 15t-49 6.5q-23 0 -38 -12.5t-35 -38.5l-48 22q27 45 55 73t73 28q29 0 57 -7t55 -15t53 -15t50 -7q23 0 34 13t24 39z" />
    <glyph glyph-name="notequal" unicode="&#x2260;" horiz-adv-x="570" 
d="M262 159l-64 -109h-80l65 109h-94l12 83h132l47 79h-168l11 83h207l57 95h76l-56 -95h90l-11 -83h-128l-47 -79h164l-12 -83h-201z" />
    <glyph glyph-name="lessequal" unicode="&#x2264;" horiz-adv-x="570" 
d="M108 251l14 100l392 154l8 -79l-326 -123l296 -120l-27 -77zM74 0l11 80h377l-11 -80h-377z" />
    <glyph glyph-name="greaterequal" unicode="&#x2265;" horiz-adv-x="570" 
d="M84 106l-3 80l328 120l-291 122l28 77l350 -154l-15 -100zM69 0l11 80h377l-11 -80h-377z" />
    <glyph glyph-name="lozenge" unicode="&#x25ca;" horiz-adv-x="538" 
d="M204 -17l-111 324l202 324h74l111 -324l-202 -324h-74zM401 307l-81 236l-147 -236l80 -239z" />
    <glyph glyph-name="breve.cyr" 
d="M430 706q-45 -134 -186 -134q-72 0 -108.5 35.5t-43.5 98.5l74 22q6 -48 24 -71t61 -23q42 0 66.5 22.5t42.5 69.5z" />
    <glyph glyph-name="breve_cyr.cap.smcp" horiz-adv-x="394" 
d="M323 693q-20 -52 -53.5 -74t-81.5 -22q-52 0 -83.5 23.5t-39.5 71.5l63 18q4 -32 20 -45t41 -13q23 0 42 12t31 47z" />
    <glyph glyph-name="hyphen.case" horiz-adv-x="311" 
d="M44 307l13 89h271l-13 -89h-271z" />
    </font>
</defs>
</svg>
