<?xml version="1.0" standalone="no"?>
<!DOCTYPE svg PUBLIC "-//W3C//DTD SVG 1.1//EN" "http://www.w3.org/Graphics/SVG/1.1/DTD/svg11.dtd" >
<svg xmlns="http://www.w3.org/2000/svg" xmlns:xlink="http://www.w3.org/1999/xlink" version="1.1">
<metadata>
Created by FontForge 20170731 at Wed May 14 19:50:30 2014
 By ,,,
Copyright (c) 2010 by TypeTogether. All rights reserved.This font is ONLY licensed for use when accessed from the Extensis WebINK font service. Any other use of this font file is illegal under United States and international copyright laws. Please respect the rights of the people who design and license fonts.
</metadata>
<defs>
<font id="AdelleCyrillic-Light" horiz-adv-x="570" >
  <font-face 
    font-family="Adelle Cyrillic"
    font-weight="300"
    font-stretch="normal"
    units-per-em="1000"
    panose-1="2 0 5 3 0 0 0 2 0 4"
    ascent="755"
    descent="-245"
    x-height="511"
    cap-height="724"
    bbox="-147 -228 1024 935"
    underline-thickness="50"
    underline-position="-200"
    unicode-range="U+000D-25CA"
  />
<missing-glyph horiz-adv-x="500" 
 />
    <glyph glyph-name=".notdef" horiz-adv-x="500" 
 />
    <glyph glyph-name=".null" horiz-adv-x="0" 
 />
    <glyph glyph-name="nonmarkingreturn" unicode="&#xd;" horiz-adv-x="500" 
 />
    <glyph glyph-name="NULL" horiz-adv-x="0" 
 />
    <glyph glyph-name="NULL" horiz-adv-x="0" 
 />
    <glyph glyph-name="space" unicode=" " horiz-adv-x="230" 
 />
    <glyph glyph-name="exclam" unicode="!" horiz-adv-x="256" 
d="M101 183l-12 379v162h77v-162l-10 -379h-55zM187 45q0 -57 -58 -57t-58 57t58 57t58 -57z" />
    <glyph glyph-name="quotedbl" unicode="&#x22;" horiz-adv-x="360" 
d="M223 447v259h72v-259h-72zM65 447v259h72v-259h-72z" />
    <glyph glyph-name="numbersign" unicode="#" horiz-adv-x="607" 
d="M330 0l22 146h-135l-22 -146h-59l21 146h-121l13 52h117l25 162h-121l12 53h117l19 130h60l-20 -130h133l19 130h60l-20 -130h121l-11 -53h-118l-23 -162h119l-11 -52h-116l-22 -146h-59zM383 360h-133l-25 -162h135z" />
    <glyph glyph-name="dollar" unicode="$" horiz-adv-x="521" 
d="M456 168q0 -72 -44 -113.5t-122 -51.5v-83h-55v80q-33 0 -63.5 4t-56 9.5t-44.5 12t-30 11.5v135h49l18 -75q3 -12 6.5 -16.5t11.5 -7.5q14 -5 43.5 -10.5t65.5 -6.5v228q-31 9 -62 20t-55 30t-39 47.5t-15 72.5q0 40 13 70t36 50.5t54 32.5t68 16v74h55v-71
q54 -2 97 -13.5t63 -19.5v-147l-51 5l-17 82q-2 11 -6 15.5t-14 8.5q-13 5 -32 7.5t-40 3.5v-232q31 -9 60.5 -20.5t53 -30t38 -47t14.5 -70.5zM128 463q0 -24 8.5 -41.5t23 -30.5t34 -22t41.5 -16v212q-51 -7 -79 -32.5t-28 -69.5zM391 158q0 24 -8 41.5t-21.5 30t-32 21.5
t-39.5 16v-208q54 8 77.5 34.5t23.5 64.5z" />
    <glyph glyph-name="percent" unicode="%" horiz-adv-x="856" 
d="M206 257q-44 0 -74 14.5t-48 39t-26 56.5t-8 66q0 41 10.5 75.5t31.5 59t51.5 38.5t70.5 14q83 0 119 -48t36 -126q0 -42 -10.5 -76.5t-31 -59.5t-51 -39t-70.5 -14zM205 -17l377 638h65l-376 -638h-66zM209 309q28 0 46.5 10t29 28t15 42.5t4.5 52.5q0 25 -4 47.5
t-14.5 40t-28 27.5t-45.5 10t-47 -12t-30 -30.5t-15.5 -41.5t-4.5 -45q0 -26 4 -49.5t14.5 -41t29 -28t46.5 -10.5zM643 -12q-44 0 -74 14.5t-48 39t-26 56.5t-8 66q0 41 10.5 75.5t31.5 59t51.5 38.5t70.5 14q83 0 119 -48t36 -126q0 -42 -10.5 -76.5t-31 -59.5t-51 -39
t-70.5 -14zM646 40q28 0 46.5 10t29 28t15 42.5t4.5 52.5q0 25 -4 47.5t-14.5 40t-28 27.5t-45.5 10t-47 -12t-30 -30.5t-15.5 -41.5t-4.5 -45q0 -26 4 -49.5t14.5 -41t29 -28t46.5 -10.5z" />
    <glyph glyph-name="ampersand" unicode="&#x26;" horiz-adv-x="711" 
d="M567 0l-86 104q-47 -63 -102 -89.5t-125 -26.5q-47 0 -86 14.5t-66.5 40.5t-43 63.5t-15.5 83.5q0 81 47 135t139 75q-23 26 -41.5 62t-18.5 71q0 27 9.5 52t29 44.5t49.5 31t72 11.5q22 0 44.5 -3.5t42 -8.5t34.5 -10.5t22 -9.5v-126l-51 3l-12 68q-2 8 -5 12.5t-11 7.5
q-25 9 -64 9q-48 0 -71 -20t-23 -53q0 -19 4.5 -35.5t15 -35t28.5 -41.5t46 -55l144 -169l6 18q14 43 22 79.5t11 84.5h115v-44l-46 -9q-9 -2 -12 -4.5t-5 -12.5q-6 -40 -18 -82.5t-28 -75.5l74 -89q7 -8 12.5 -11t16.5 -5l54 -10v-44h-108zM266 351q-69 -10 -113 -48
t-44 -112q0 -26 8.5 -52t27 -47t47 -34t68.5 -13q53 0 99.5 26t80.5 79z" />
    <glyph glyph-name="quotesingle" unicode="'" horiz-adv-x="202" 
d="M65 447v259h72v-259h-72z" />
    <glyph glyph-name="parenleft" unicode="(" horiz-adv-x="278" 
d="M201 -152q-27 42 -52.5 89t-45.5 101t-32 114.5t-12 127.5t13 129.5t34.5 118.5t48.5 105t55 90l51 -32q-32 -53 -57 -103t-42 -99.5t-26 -100.5t-9 -107q0 -66 10.5 -121.5t28.5 -103.5t41 -92t47 -87z" />
    <glyph glyph-name="parenright" unicode=")" horiz-adv-x="278" 
d="M77 -152l-53 29q24 43 47 87t41 92t28.5 103.5t10.5 121.5q0 56 -9 107t-26 100.5t-42 99.5t-57 103l51 32q28 -41 55 -90t48.5 -105t34.5 -118.5t13 -129.5t-12 -127.5t-32 -114.5t-45.5 -101t-52.5 -89z" />
    <glyph glyph-name="asterisk" unicode="*" horiz-adv-x="469" 
d="M203 692v63h63v-63l-15 -104h-33zM235 536l-56 -89l-41 -49l-48 41l41 48l78 71zM105 578l-60 22l22 59l60 -21l91 -50l-9 -30zM338 487l41 -48l-48 -41l-41 49l-55 89l26 21zM251 588l92 50l59 21l22 -59l-60 -22l-103 -21z" />
    <glyph glyph-name="plus" unicode="+" 
d="M250 131v157h-152v66h152v154h69v-154h152v-66h-152v-157h-69z" />
    <glyph glyph-name="comma" unicode="," horiz-adv-x="175" 
d="M40 -102l31 104q1 7 -5 10l-32 14l22 73q44 -2 70 -12.5t26 -46.5q0 -12 -4 -23.5t-10 -22.5l-59 -111z" />
    <glyph glyph-name="hyphen" unicode="-" horiz-adv-x="311" 
d="M20 255v74h271v-74h-271z" />
    <glyph glyph-name="period" unicode="." horiz-adv-x="206" 
d="M166 45q0 -57 -58 -57t-58 57t58 57t58 -57z" />
    <glyph glyph-name="slash" unicode="/" horiz-adv-x="353" 
d="M6 -92l281 847h60l-280 -847h-61z" />
    <glyph glyph-name="zero" unicode="0" horiz-adv-x="563" 
d="M279 -12q-73 0 -119 25t-71.5 66.5t-34.5 94.5t-9 108q0 57 11 111t39 96t75 67t119 25q71 0 115.5 -23.5t69.5 -63t34.5 -91t9.5 -107.5q0 -58 -10 -113.5t-36.5 -98.5t-73 -69.5t-119.5 -26.5zM282 44q49 0 81 18.5t51 51.5t27 78t8 97q0 51 -7 94t-25 74t-49.5 48
t-80.5 17t-82 -17.5t-53.5 -49.5t-29 -77.5t-8.5 -101.5q0 -48 8 -90.5t27 -74t51.5 -49.5t81.5 -18z" />
    <glyph glyph-name="one" unicode="1" horiz-adv-x="351" 
d="M30 0v45l107 6q11 1 13.5 5t2.5 15v411q0 12 -3.5 15.5t-11.5 5.5l-98 17l5 46h175v-495q0 -12 2.5 -15t13.5 -5l90 -7v-44h-296z" />
    <glyph glyph-name="two" unicode="2" horiz-adv-x="461" 
d="M34 0v50l135 132q36 35 67.5 64.5t55 57t37 54.5t13.5 58q0 52 -29.5 80t-98.5 28q-31 0 -54.5 -4t-39 -16t-23 -33.5t-7.5 -56.5l-64 8q0 51 16.5 82.5t43.5 48.5t61 22.5t68 5.5q105 0 151 -43.5t46 -113.5q0 -41 -16.5 -76t-42 -66t-57 -60t-61.5 -58l-113 -108h234
q8 0 11 1.5t5 9.5l16 87h50v-154h-404z" />
    <glyph glyph-name="three" unicode="3" horiz-adv-x="476" 
d="M301 261q131 -25 131 -155q0 -84 -53.5 -136.5t-158.5 -52.5q-69 0 -122.5 23.5t-83.5 59.5l44 47q32 -33 70.5 -51t94.5 -18q26 0 51 6t44.5 20t31.5 38.5t12 61.5q0 63 -40 94t-112 31q-17 0 -33 -1.5t-36 -4.5v57l62 6q72 7 107.5 42.5t35.5 86.5q0 48 -27.5 78.5
t-93.5 30.5q-30 0 -53.5 -4.5t-39.5 -16.5t-24.5 -33.5t-8.5 -55.5l-64 8q0 50 17.5 81t45.5 48.5t62.5 23.5t68.5 6q51 0 86.5 -12.5t58 -33.5t32.5 -49.5t10 -60.5q0 -58 -29 -99t-86 -61v-4z" />
    <glyph glyph-name="four" unicode="4" horiz-adv-x="491" 
d="M317 -67v151h-292v53l240 433l55 -32l-216 -395h214v218h65v-218h93v-59h-94v-151h-65z" />
    <glyph glyph-name="five" unicode="5" horiz-adv-x="501" 
d="M143 508l-14 -214q26 17 60.5 28t72.5 11q88 0 141 -52.5t53 -149.5q0 -45 -14.5 -84t-42.5 -68t-68.5 -45.5t-93.5 -16.5q-69 0 -125.5 22t-91.5 60l45 50q32 -35 74.5 -52.5t98.5 -17.5q26 0 52.5 8t47.5 26t34.5 46.5t13.5 68.5q0 42 -12.5 70t-32 45t-43.5 24t-47 7
q-48 0 -78.5 -15t-55.5 -33l-52 24l20 316h267q8 0 11 1.5t5 9.5l14 54l43 3v-126h-282z" />
    <glyph glyph-name="six" unicode="6" horiz-adv-x="517" 
d="M395 498q0 54 -25.5 72t-75.5 18q-56 0 -90 -27t-53 -67t-25 -85.5t-6 -81.5q28 26 71.5 46.5t101.5 20.5q47 0 80 -15t55 -40.5t32 -60.5t10 -74q0 -48 -13 -87.5t-38.5 -68t-64 -44.5t-89.5 -16q-67 0 -108.5 28t-64.5 73.5t-31.5 105t-8.5 122.5q0 48 9.5 105.5
t36.5 107t76 82.5t127 33q27 0 55 -5.5t51 -20.5t37.5 -42t14.5 -71zM122 263q1 -26 5.5 -64t19.5 -72.5t43.5 -59t77.5 -24.5q65 0 99 40t34 115q0 69 -27.5 103.5t-89.5 34.5q-25 0 -49.5 -7t-46 -18t-38.5 -24t-28 -24z" />
    <glyph glyph-name="seven" unicode="7" horiz-adv-x="487" 
d="M165 -67q9 102 33.5 189.5t57.5 160t70 129t71 96.5h-266q-8 0 -11 -1.5t-5 -9.5l-19 -91l-46 -3v163h427v-50q-43 -42 -85 -110t-76 -147.5t-56 -164.5t-24 -161h-71z" />
    <glyph glyph-name="eight" unicode="8" horiz-adv-x="496" 
d="M332 331q24 -13 46.5 -29t39 -36.5t26.5 -46t10 -58.5q0 -42 -16 -74.5t-44.5 -54.5t-67 -33t-84.5 -11q-43 0 -79.5 10.5t-63.5 31t-42.5 51t-15.5 70.5q0 32 10.5 59t27.5 50.5t40 44t48 38.5q-41 23 -70 57.5t-29 91.5q0 38 15 66.5t40.5 47.5t59 29t70.5 10
q45 0 79 -11t57 -30.5t34.5 -46t11.5 -56.5q0 -26 -9.5 -50t-24 -46t-33 -40.5t-36.5 -33.5zM224 315q-54 -38 -84 -76.5t-30 -82.5q0 -54 39 -82.5t102 -28.5q60 0 97 32t37 81q0 33 -14 56.5t-36.5 41t-51.5 31.5t-59 28zM277 358q36 30 62.5 64t26.5 76q0 26 -10 43.5
t-26 28t-37 14.5t-44 4q-47 0 -80 -22.5t-33 -67.5q0 -27 12 -47.5t31.5 -36.5t45 -29.5t52.5 -26.5z" />
    <glyph glyph-name="nine" unicode="9" horiz-adv-x="546" 
d="M110 31q32 -29 68.5 -41.5t76.5 -12.5q56 0 88 27t47.5 66.5t19.5 83t4 76.5q-28 -26 -71 -48t-103 -22q-47 0 -80.5 15.5t-55.5 43t-32 65t-10 81.5q0 48 13.5 87.5t39.5 68t65 44.5t91 16q69 0 110.5 -27.5t64 -73t29.5 -105t7 -123.5q0 -51 -7 -110t-30.5 -109
t-68.5 -83t-122 -33q-49 0 -97.5 14t-83.5 47zM412 294q-1 32 -5.5 72.5t-18.5 76t-43 59.5t-80 24q-66 0 -100 -40t-34 -115q0 -72 27.5 -112.5t90.5 -40.5q27 0 52 7.5t46 19t37.5 25t27.5 24.5z" />
    <glyph glyph-name="colon" unicode=":" horiz-adv-x="206" 
d="M166 45q0 -57 -58 -57t-58 57t58 57t58 -57zM166 439q0 -57 -58 -57t-58 57t58 57t58 -57z" />
    <glyph glyph-name="semicolon" unicode=";" horiz-adv-x="175" 
d="M40 -102q3 9 9 25.5t11.5 34t9 32t1.5 18.5q-1 2 -5 4l-32 14l22 73q44 -2 70 -12.5t26 -46.5q0 -14 -7.5 -33.5t-19 -40.5t-24 -42.5t-22.5 -40.5zM157 439q0 -57 -58 -57t-58 57t58 57t58 -57z" />
    <glyph glyph-name="less" unicode="&#x3c;" 
d="M89 246v84l365 159l24 -64l-325 -136l329 -130l-20 -61z" />
    <glyph glyph-name="equal" unicode="=" 
d="M101 171v69h369v-69h-369zM101 323v69h369v-69h-369z" />
    <glyph glyph-name="greater" unicode="&#x3e;" 
d="M108 98l-20 61l329 130l-325 136l24 64l365 -159v-84z" />
    <glyph glyph-name="question" unicode="?" horiz-adv-x="457" 
d="M141 182v175q42 4 80.5 13.5t67.5 29t46 51t17 79.5q0 41 -11 67.5t-31 41.5t-46.5 21t-58.5 6q-38 0 -61 -5t-33 -12q-4 -3 -6 -7.5t-4 -15.5l-10 -54l-51 -3v123q7 3 23 8.5t38.5 10.5t50 9t56.5 4q48 0 87 -9.5t67.5 -31t44 -57.5t15.5 -90t-16.5 -93t-45.5 -66
t-68 -43.5t-84 -24.5v-127h-67zM233 45q0 -57 -58 -57t-58 57t58 57t58 -57z" />
    <glyph glyph-name="at" unicode="@" horiz-adv-x="824" 
d="M606 -139q-22 -11 -72 -23t-125 -12q-79 0 -145 22t-113.5 66t-74 110.5t-26.5 156.5q0 86 28.5 157t79.5 122t122.5 79.5t157.5 28.5q74 0 136 -21t106.5 -61.5t69 -99t24.5 -134.5q0 -73 -15 -123t-41 -81.5t-61 -45.5t-75 -14q-53 0 -75.5 22t-25.5 54
q-31 -29 -64.5 -52.5t-75.5 -23.5q-53 0 -79 35t-26 102q0 55 14.5 104.5t42.5 86.5t67.5 59t89.5 22q35 0 70.5 -9.5t60.5 -22.5l-29 -176q-5 -30 -8.5 -55t-3.5 -42q0 -28 13.5 -40t41.5 -12q22 0 42.5 12t36.5 36.5t25.5 61.5t9.5 86q0 136 -69.5 206t-207.5 70
q-72 0 -130 -25t-99.5 -69t-63.5 -104t-22 -131q0 -79 21.5 -135.5t61 -93t95 -54t122.5 -17.5q45 0 89 8.5t83 22.5zM510 325q-14 9 -32 13.5t-37 4.5q-29 0 -54 -16.5t-44 -45t-29.5 -66t-10.5 -80.5q0 -37 8.5 -60.5t40.5 -23.5q15 0 32.5 7.5t35 18.5t33 25.5t26.5 27.5
z" />
    <glyph glyph-name="A" unicode="A" horiz-adv-x="695" 
d="M466 0v44l83 9l-61 180h-292l-60 -180l81 -9v-44h-207v44l43 11q9 2 15 6t9 13l221 650h92l226 -652q3 -9 8.5 -12t14.5 -5l46 -11v-44h-219zM343 669l-127 -377h253z" />
    <glyph glyph-name="B" unicode="B" horiz-adv-x="668" 
d="M70 0v44l63 7q11 2 13.5 5.5t2.5 14.5v581q0 11 -2.5 15t-13.5 5l-63 7v45h283q64 0 106 -13.5t66.5 -37.5t34.5 -56.5t10 -69.5q0 -36 -10.5 -63.5t-27.5 -48.5t-39 -34.5t-45 -21.5v-3q86 -10 128 -58t42 -123q0 -55 -19.5 -92.5t-54.5 -60.5t-84 -32.5t-108 -9.5h-282
zM347 59q42 0 79 4.5t64 19t42.5 42t15.5 72.5q0 39 -14 66t-38 44.5t-56.5 25.5t-70.5 8h-154v-282h132zM322 399q31 0 62.5 6t57 21.5t42 43t16.5 70.5q0 72 -39.5 99t-123.5 27h-122v-267h107z" />
    <glyph glyph-name="C" unicode="C" horiz-adv-x="684" 
d="M629 40q-39 -27 -103 -39.5t-133 -12.5q-91 0 -155 28t-104.5 78.5t-59.5 120.5t-19 153q0 79 22 146.5t66 117t110.5 77.5t155.5 28q68 0 125 -14.5t93 -38.5v-146l-51 3l-17 94q-1 6 -3 10.5t-10 7.5q-29 11 -65.5 18t-76.5 7q-63 0 -114.5 -20.5t-88 -60t-56.5 -97.5
t-20 -133q0 -157 73 -238.5t199 -81.5q38 0 81 5t75 19q11 5 13 17l16 89h47v-137z" />
    <glyph glyph-name="D" unicode="D" horiz-adv-x="773" 
d="M70 0v44l63 7q11 2 13.5 5.5t2.5 14.5v581q0 11 -2.5 15t-13.5 5l-63 7v45h289q94 0 162 -24.5t111.5 -70t64.5 -110.5t21 -146q0 -83 -22.5 -152t-68.5 -118t-117 -76t-168 -27h-272zM347 59q149 0 225 78t76 221q0 90 -20.5 149t-58.5 94.5t-92.5 50t-123.5 14.5h-137
v-607h131z" />
    <glyph glyph-name="E" unicode="E" horiz-adv-x="637" 
d="M70 0v44l63 7q11 2 13.5 5.5t2.5 14.5v581q0 11 -2.5 15t-13.5 5l-63 7v45h490v-150l-51 3l-14 78q-3 13 -17 13h-262v-274h280v-56h-280v-282h284q8 0 11 1.5t5 9.5l16 87h50v-154h-512z" />
    <glyph glyph-name="F" unicode="F" horiz-adv-x="601" 
d="M70 0v44l63 7q11 2 13.5 5.5t2.5 14.5v581q0 11 -2.5 15t-13.5 5l-63 7v45h486v-150l-51 3l-14 78q-3 13 -17 13h-258v-271h276v-56h-276v-269q0 -12 2.5 -15t13.5 -5l147 -8v-44h-309z" />
    <glyph glyph-name="G" unicode="G" horiz-adv-x="747" 
d="M675 283q-16 -1 -16 -14v-243q-21 -10 -49 -17.5t-58.5 -12t-62.5 -6.5t-62 -2q-101 0 -171.5 28.5t-115 79.5t-65 120.5t-20.5 151.5q0 79 22 146.5t66 117t110.5 77.5t155.5 28q68 0 126.5 -14.5t94.5 -38.5v-146l-51 3l-17 94q-1 6 -3 10.5t-10 7.5q-29 11 -67 18
t-78 7q-63 0 -114.5 -20.5t-88 -60t-56.5 -97.5t-20 -133q0 -158 80.5 -239t225.5 -81q37 0 79.5 5t69.5 13q5 2 9 5t4 12v195h-146l10 55h260v-45z" />
    <glyph glyph-name="H" unicode="H" horiz-adv-x="804" 
d="M509 0v44l63 7q11 2 13.5 5.5t2.5 14.5v275h-372v-274q0 -12 2.5 -15t13.5 -5l67 -8v-44h-229v44l63 7q11 2 13.5 5.5t2.5 14.5v582q0 11 -2.5 15t-13.5 5l-63 7v44h229v-44l-67 -8q-11 -2 -13.5 -5t-2.5 -14v-251h372v251q0 11 -2.5 15t-13.5 5l-63 7v44h229v-44l-67 -8
q-11 -2 -13.5 -5t-2.5 -14v-581q0 -12 2.5 -15t13.5 -5l67 -8v-44h-229z" />
    <glyph glyph-name="I" unicode="I" horiz-adv-x="387" 
d="M71 0v44l73 7q11 2 13.5 5.5t2.5 14.5v582q0 11 -2.5 15t-13.5 5l-73 7v44h249v-44l-77 -8q-11 -2 -13.5 -5t-2.5 -14v-581q0 -12 2.5 -15t13.5 -5l77 -8v-44h-249z" />
    <glyph glyph-name="J" unicode="J" horiz-adv-x="499" 
d="M304 654q0 11 -3 14.5t-13 4.5l-83 7v44h249v-44l-67 -8q-11 -2 -13.5 -4.5t-2.5 -13.5v-513q0 -78 -36.5 -115.5t-119.5 -37.5q-57 0 -99 12t-56 21v123l51 -3l10 -68q1 -5 3 -8t9 -6q8 -4 28.5 -9.5t51.5 -5.5q55 0 73 25.5t18 79.5v505z" />
    <glyph glyph-name="K" unicode="K" horiz-adv-x="728" 
d="M459 0v45q20 2 41 4t41 4l-241 308l-84 -90v-199q0 -12 2.5 -15t13.5 -5l67 -8v-44h-229v44l63 7q11 2 13.5 5.5t2.5 14.5v582q0 11 -2.5 15t-13.5 5l-63 7v44h229v-44l-67 -8q-11 -2 -13.5 -5t-2.5 -14v-300l295 318l-62 8v45h210v-44l-54 -10q-14 -2 -18.5 -5
t-11.5 -11l-230 -245l264 -339q7 -9 11 -11.5t18 -4.5l60 -10v-44h-239z" />
    <glyph glyph-name="L" unicode="L" horiz-adv-x="617" 
d="M70 0v44l63 7q11 2 13.5 5.5t2.5 14.5v581q0 11 -2.5 15t-13.5 5l-63 7v45h245v-45l-83 -8q-11 -1 -13.5 -4.5t-2.5 -14.5v-596h284q8 0 11 1.5t5 9.5l16 87h50v-154h-512z" />
    <glyph glyph-name="M" unicode="M" horiz-adv-x="944" 
d="M629 0v44l83 7q11 2 13.5 5.5t2.5 14.5v537l-225 -427h-62l-225 433v-542q0 -12 2.5 -15t13.5 -5l87 -8v-44h-249v44l63 7q11 2 13.5 5.5t2.5 14.5v581q0 11 -2.5 15t-13.5 5l-63 7v45h164l240 -477l246 477h158v-44l-67 -8q-11 -2 -13.5 -5t-2.5 -14v-582q0 -10 3 -13.5
t13 -5.5l67 -8v-44h-249z" />
    <glyph glyph-name="N" unicode="N" horiz-adv-x="828" 
d="M600 0l-384 638v-566q0 -12 2.5 -15t13.5 -5l67 -8v-44h-229v44l63 7q11 2 13.5 5.5t2.5 14.5v582q0 11 -2.5 14.5t-13.5 5.5l-63 7v45h176l372 -632v560q0 11 -2.5 14.5t-13.5 5.5l-63 7v44h228v-44l-67 -8q-11 -2 -13.5 -5t-2.5 -14v-653h-84z" />
    <glyph glyph-name="O" unicode="O" horiz-adv-x="783" 
d="M388 -12q-85 0 -147.5 28t-103.5 78t-60.5 119t-19.5 150t22.5 149.5t66 118.5t108 78t148.5 28t145 -28t101.5 -76.5t60 -114t19.5 -140.5q0 -88 -21.5 -160t-64 -123t-106.5 -79t-148 -28zM392 47q60 0 109 20t84 60t54.5 100t19.5 141q0 75 -18 133t-52 97t-82 59.5
t-107 20.5q-60 0 -110 -20.5t-86.5 -60.5t-56.5 -98.5t-20 -135.5t19 -136t53.5 -99t83.5 -60.5t109 -20.5z" />
    <glyph glyph-name="P" unicode="P" horiz-adv-x="658" 
d="M70 0v44l63 7q11 2 13.5 5.5t2.5 14.5v581q0 11 -2.5 15t-13.5 5l-63 7v45h297q69 0 115.5 -17t74.5 -46.5t39.5 -68t11.5 -81.5q0 -64 -19 -109t-54.5 -73t-86.5 -40.5t-114 -12.5h-119v-204q0 -12 2.5 -15.5t13.5 -4.5l143 -8v-44h-304zM332 335q43 0 80.5 6t65.5 25
t44 53t16 90q0 82 -45.5 119.5t-145.5 37.5h-132v-331h117z" />
    <glyph glyph-name="Q" unicode="Q" horiz-adv-x="780" 
d="M571 -161q-12 -7 -35.5 -12t-48.5 -5q-71 0 -99.5 30t-28.5 90q0 23 3 47q-79 4 -137 33.5t-95.5 79.5t-55.5 118t-18 148q0 79 22.5 146.5t66 117t108 77.5t148.5 28t145 -28t100.5 -76.5t59 -114t19.5 -140.5q0 -83 -19 -151.5t-56 -118.5t-92.5 -80.5t-129.5 -37.5
q-3 -21 -3 -46q0 -31 14 -49t51 -18q20 0 37.5 4t27.5 9zM391 47q60 0 108.5 20t83.5 60t54 100t19 141q0 150 -69 230t-188 80q-60 0 -110 -20.5t-86.5 -60t-56.5 -97.5t-20 -133q0 -78 19 -138t53.5 -100.5t83.5 -61t109 -20.5z" />
    <glyph glyph-name="R" unicode="R" horiz-adv-x="689" 
d="M426 0v45l82 8q-9 22 -21 50t-24.5 58t-24.5 59t-22 53q-9 21 -24 31t-42 10h-135v-242q0 -12 2.5 -15t13.5 -5l68 -8v-44h-229v44l63 7q11 2 13.5 5.5t2.5 14.5v581q0 11 -2.5 15t-13.5 5l-63 7v45h292q68 0 111 -17.5t68 -45t34.5 -62t9.5 -69.5q0 -82 -39.5 -129
t-101.5 -67q26 -12 38.5 -40t28.5 -70l62 -151q7 -15 24 -18l67 -11v-44h-238zM325 373q39 0 74 7t60.5 25t40.5 48t15 76q0 42 -14 68.5t-40.5 42t-66 21t-90.5 5.5h-89v-293h110z" />
    <glyph glyph-name="S" unicode="S" horiz-adv-x="581" 
d="M449 549l-17 86q-2 7 -3 11.5t-3 7.5q-5 7 -34 14.5t-74 7.5q-87 0 -128.5 -34t-41.5 -94q0 -50 27.5 -77.5t69 -44.5t90 -30t90 -36t69 -61.5t27.5 -106.5q0 -57 -21 -96t-56 -63t-82 -34.5t-99 -10.5q-34 0 -66.5 4t-59 9.5t-46.5 12t-31 11.5v151h49l19 -85
q2 -10 4.5 -14t12.5 -8q12 -5 44.5 -13t82.5 -8q84 0 131 33t47 106q0 54 -27.5 82.5t-69 46t-90 30t-90 34t-69 58.5t-27.5 103q0 52 19.5 89t52.5 61t77.5 35t95.5 11q63 0 109 -12.5t69 -20.5v-160z" />
    <glyph glyph-name="T" unicode="T" horiz-adv-x="643" 
d="M169 0v45l103 7q11 1 13.5 5t2.5 15v596h-175q-8 0 -11 -1.5t-5 -9.5l-16 -87h-50v154h582v-154h-50l-16 87q-2 8 -5 9.5t-11 1.5h-176v-596q0 -11 2.5 -14.5t13.5 -4.5l110 -8v-45h-312z" />
    <glyph glyph-name="U" unicode="U" horiz-adv-x="789" 
d="M582 653q0 11 -2.5 15t-13.5 5l-63 7v44h229v-44l-67 -8q-11 -2 -13.5 -5t-2.5 -14v-418q0 -125 -66 -186t-194 -61q-135 0 -192 64t-57 184v417q0 11 -2.5 15t-13.5 5l-63 7v44h229v-44l-67 -8q-11 -2 -13.5 -5t-2.5 -14v-413q0 -54 12.5 -90.5t36.5 -59.5t59 -33
t80 -10q46 0 81 9.5t58.5 32t35.5 59t12 90.5v415z" />
    <glyph glyph-name="V" unicode="V" horiz-adv-x="676" 
d="M297 0l-223 652q-3 9 -9 12t-15 5l-45 11l10 44h211v-44l-83 -9l201 -614l196 614l-81 9l10 44h197v-44l-42 -11q-9 -2 -15.5 -6t-9.5 -13l-210 -650h-92z" />
    <glyph glyph-name="W" unicode="W" horiz-adv-x="973" 
d="M634 0l-144 493l-149 -493h-78l-171 651q-2 10 -6 13.5t-14 5.5l-62 10l10 44h229v-44l-91 -10l148 -590l147 493h77l146 -503l151 600l-93 10l10 44h219v-44l-54 -9q-11 -2 -14.5 -5.5t-6.5 -14.5l-169 -651h-85z" />
    <glyph glyph-name="X" unicode="X" horiz-adv-x="669" 
d="M434 0v44l74 9l-179 270l-175 -270l72 -9v-44h-206v42l50 11q15 4 25 19l193 296l-183 284q-5 8 -10 11.5t-14 5.5l-45 11l10 44h196v-44l-74 -9l161 -253l166 253l-72 9l10 44h187v-44l-42 -11q-15 -4 -25 -19l-182 -277l203 -301q5 -8 10 -11.5t14 -5.5l51 -11v-44
h-215z" />
    <glyph glyph-name="Y" unicode="Y" horiz-adv-x="596" 
d="M161 0v44l93 7q11 1 13.5 5t2.5 15v213l-201 368q-7 13 -24 17l-45 11l10 44h198v-44l-74 -9l171 -325l167 325l-72 9l10 44h186v-44l-42 -11q-8 -2 -14 -6.5t-11 -12.5l-192 -363v-215q0 -12 2.5 -15t13.5 -5l97 -8v-44h-289z" />
    <glyph glyph-name="Z" unicode="Z" horiz-adv-x="633" 
d="M50 0v46l433 622h-332q-8 0 -11 -1.5t-5 -9.5l-19 -93l-52 -3v163h502v-48l-431 -620h351q8 0 11 1.5t5 9.5l19 107h52v-174h-523z" />
    <glyph glyph-name="bracketleft" unicode="[" horiz-adv-x="243" 
d="M68 -143v867h145v-44l-67 -8q-11 -2 -13.5 -5t-2.5 -14v-723q0 -12 2.5 -15t13.5 -5l67 -8v-45h-145z" />
    <glyph glyph-name="backslash" unicode="\" horiz-adv-x="353" 
d="M286 -92l-280 847h60l281 -847h-61z" />
    <glyph glyph-name="bracketright" unicode="]" horiz-adv-x="243" 
d="M175 724v-867h-145v45l67 8q11 2 13.5 5t2.5 14v723q0 12 -2.5 15t-13.5 5l-67 8v44h145z" />
    <glyph glyph-name="asciicircum" unicode="^" horiz-adv-x="526" 
d="M428 299l-168 303l-165 -303h-65l197 365h69l200 -365h-68z" />
    <glyph glyph-name="underscore" unicode="_" horiz-adv-x="500" 
d="M0 -181v52h500v-52h-500z" />
    <glyph glyph-name="grave" unicode="`" horiz-adv-x="500" 
d="M321 569l-175 139l52 53l155 -160z" />
    <glyph glyph-name="a" unicode="a" horiz-adv-x="534" 
d="M387 0l-9 67l-3 1q-40 -37 -84 -58.5t-101 -21.5q-47 0 -74.5 14t-42 34.5t-18.5 43.5t-4 41q0 75 45.5 110t134.5 43l143 13v56q0 32 -4 54.5t-16.5 37.5t-35 22t-58.5 7q-25 0 -46.5 -1.5t-37.5 -9t-25.5 -24t-9.5 -46.5l-64 8q0 44 18.5 70t46 39.5t59.5 17t60 3.5
q51 0 85.5 -8.5t55.5 -28.5t30 -54t9 -85v-274q0 -12 2.5 -15t13.5 -5l52 -7v-44h-122zM374 234l-131 -12q-72 -7 -97 -29t-25 -64q0 -45 21.5 -65t60.5 -20q26 0 50.5 8t47 21t41 30t32.5 35v96z" />
    <glyph glyph-name="b" unicode="b" horiz-adv-x="588" 
d="M93 0q4 26 7.5 66t3.5 76v531q0 17 -13 21l-61 19l8 42h133v-295q36 22 80 41.5t98 19.5q85 0 136 -58t51 -187q0 -77 -15 -132t-42.5 -89.5t-66.5 -50.5t-86 -16q-45 0 -84 14t-75 46l-2 -1l-5 -47h-67zM171 120q28 -29 67.5 -51.5t81.5 -22.5t70.5 15.5t46 44t25.5 70
t8 92.5q0 56 -10.5 93.5t-28.5 60t-42 31.5t-51 9q-25 0 -49 -6t-45 -15.5t-39.5 -20.5t-33.5 -22v-278z" />
    <glyph glyph-name="c" unicode="c" horiz-adv-x="476" 
d="M446 27q-26 -17 -71 -28t-93 -11q-63 0 -107.5 19.5t-73.5 54t-42.5 82.5t-13.5 106q0 72 19 123t53.5 84t81.5 48.5t103 15.5q54 0 91 -10.5t51 -16.5v-123l-51 3l-12 66q-1 5 -2.5 8t-8.5 5q-11 4 -32 7t-44 3q-37 0 -70 -11.5t-57 -36.5t-38 -65t-14 -97
q0 -108 48 -156.5t128 -48.5q38 0 71 9.5t58 25.5z" />
    <glyph glyph-name="d" unicode="d" horiz-adv-x="590" 
d="M430 0l-8 68l-3 1q-36 -34 -78 -57.5t-102 -23.5q-42 0 -76.5 14.5t-59 45t-38 79t-13.5 116.5q0 73 15 125.5t42.5 86.5t66 50t84.5 16t87 -14t70 -35v202q0 16 -13 20l-61 19l8 42h133v-684q0 -12 2.5 -15t13.5 -5l52 -7v-44h-122zM417 399q-25 24 -66.5 44t-89.5 20
q-38 0 -65 -15.5t-44.5 -44t-25.5 -69t-8 -89.5q0 -58 10 -96.5t28 -61t41.5 -31.5t50.5 -9q52 0 93 26.5t76 67.5v258z" />
    <glyph glyph-name="e" unicode="e" horiz-adv-x="506" 
d="M450 30q-34 -20 -76.5 -31t-95.5 -11q-66 0 -111 21t-72 57.5t-38.5 85.5t-11.5 106q0 67 17 116.5t47 82t70 48.5t86 16q44 0 81 -13t63.5 -41t41.5 -73t15 -109q0 -11 -0.5 -21.5t-1.5 -21.5h-349q1 -43 10.5 -78.5t29.5 -61t51.5 -39.5t76.5 -14q23 0 41.5 2t35 6.5
t32 11.5t33.5 17zM397 296q-1 47 -11.5 78.5t-28.5 51t-41.5 28t-49.5 8.5q-28 0 -54 -8.5t-46 -28t-33 -51t-16 -78.5h280z" />
    <glyph glyph-name="f" unicode="f" horiz-adv-x="394" 
d="M45 0v45l67 6q11 1 13.5 5t2.5 15v374q0 5 -1 7.5t-7 2.5h-74v56h82v85q0 83 40.5 126.5t130.5 43.5q29 0 54 -4.5t44 -16.5t29.5 -33.5t10.5 -55.5l-63 -9q0 41 -20 51.5t-58 10.5q-31 0 -50.5 -8t-31 -23t-15.5 -36.5t-4 -48.5v-72q0 -5 1 -7.5t7 -2.5h167v-56h-175
v-383q0 -12 2.5 -15.5t13.5 -4.5l115 -8v-44h-281z" />
    <glyph glyph-name="g" unicode="g" horiz-adv-x="534" 
d="M433 449q17 -21 27 -45.5t10 -60.5q0 -45 -15.5 -80t-43.5 -59t-65.5 -36t-81.5 -12q-53 0 -87 14l-47 -94l177 -13q54 -4 93.5 -10t65 -20t37.5 -38t12 -64q0 -72 -61.5 -114t-192.5 -42q-63 0 -106.5 8.5t-70 24.5t-38 38.5t-11.5 51.5q0 38 18.5 66.5t49.5 57.5
q-24 5 -35.5 15t-11.5 30q0 12 5.5 23.5t14.5 25.5l49 77q-31 19 -50.5 54.5t-19.5 85.5q0 42 15 77t42.5 59.5t66.5 38t87 13.5q26 0 48 -2.5t38 -7.5h174v-55zM404 339q0 61 -35.5 94t-101.5 33q-64 0 -104 -31.5t-40 -97.5q0 -25 7.5 -48t24.5 -39.5t43.5 -26.5t65.5 -10
q65 0 102.5 35t37.5 91zM168 11q-20 -18 -41 -44t-21 -57q0 -45 46.5 -59.5t128.5 -14.5q15 0 28.5 1t26.5 3q51 8 79 30t28 60q0 37 -28.5 52.5t-82.5 18.5z" />
    <glyph glyph-name="h" unicode="h" horiz-adv-x="632" 
d="M391 0v45l52 6q11 2 13.5 5t2.5 14v244q0 75 -24 110.5t-78 35.5q-27 0 -53.5 -8t-49.5 -19t-41.5 -24t-29.5 -24v-314q0 -12 2.5 -15t13.5 -5l60 -7v-44h-211v45l52 6q11 2 13.5 5.5t2.5 14.5v602q0 17 -13 21l-61 19l8 42h133v-304q40 29 83.5 49.5t102.5 20.5
q78 0 117.5 -43.5t39.5 -146.5v-260q0 -12 2.5 -15t13.5 -5l60 -7v-44h-211z" />
    <glyph glyph-name="i" unicode="i" horiz-adv-x="289" 
d="M190 688q0 -26 -14 -39.5t-40 -13.5t-40 13.5t-14 39.5t14 39.5t40 13.5t40 -13.5t14 -39.5zM28 0v45l72 6q11 2 13.5 5.5t2.5 14.5v358q0 17 -13 21l-58 19l8 42h130v-440q0 -12 2.5 -15t13.5 -5l70 -7v-44h-241z" />
    <glyph glyph-name="j" unicode="j" horiz-adv-x="275" 
d="M114 429q0 11 -2 15t-10 6l-68 19l8 42h139v-581q0 -77 -31 -115t-101 -38q-41 0 -75 11t-54 28l33 49q14 -11 38.5 -21t52.5 -10q45 0 57.5 28.5t12.5 82.5v484zM190 688q0 -26 -14 -39.5t-40 -13.5t-40 13.5t-14 39.5t14 39.5t40 13.5t40 -13.5t14 -39.5z" />
    <glyph glyph-name="k" unicode="k" horiz-adv-x="579" 
d="M359 0v45l62 8l-142 222l-96 -108v-96q0 -12 2.5 -15t13.5 -5l65 -7v-44h-231v45l67 6q11 2 13.5 5.5t2.5 14.5v602q0 17 -13 21l-61 19l8 42h133v-503l224 259h100v-44l-59 -13q-9 -2 -13.5 -4.5t-11.5 -10.5l-99 -112l162 -257q6 -9 10.5 -11.5t18.5 -4.5l54 -10v-44
h-210z" />
    <glyph glyph-name="l" unicode="l" horiz-adv-x="289" 
d="M33 0v45l67 6q11 1 13.5 5t2.5 15v602q0 17 -13 21l-61 19l8 42h133v-684q0 -12 2.5 -15t13.5 -5l65 -7v-44h-231z" />
    <glyph glyph-name="m" unicode="m" horiz-adv-x="921" 
d="M680 0v45l52 6q11 2 13.5 5t2.5 14v240q0 74 -18.5 112t-77.5 38q-45 0 -85 -19.5t-68 -39.5q2 -14 3 -30.5t1 -34.5v-265q0 -12 2.5 -15t13.5 -5l52 -7v-44h-200v45l49 6q11 2 13.5 5t2.5 14v245q0 37 -3 64.5t-12 45.5t-26 26.5t-45 8.5t-53.5 -8t-47 -19.5
t-38.5 -24.5t-28 -23v-314q0 -12 2.5 -15t13.5 -5l60 -7v-44h-211v45l52 6q11 2 13.5 5.5t2.5 14.5v358q0 17 -13 21l-58 19l8 42h113l8 -62l3 -1q15 12 34.5 25t43 23.5t51.5 17.5t59 7q49 0 77 -16.5t42 -48.5q36 26 81 45.5t102 19.5q44 0 72.5 -13.5t45.5 -38
t23.5 -59.5t6.5 -79v-260q0 -12 2.5 -15t13.5 -5l60 -7v-44h-211z" />
    <glyph glyph-name="n" unicode="n" horiz-adv-x="632" 
d="M391 0v45l52 6q11 2 13.5 5t2.5 14v240q0 78 -23 114t-79 36q-27 0 -53.5 -8t-49.5 -19t-41.5 -24t-29.5 -24v-314q0 -12 2.5 -15t13.5 -5l60 -7v-44h-211v45l52 6q11 2 13.5 5.5t2.5 14.5v358q0 17 -13 21l-58 19l8 42h113l8 -62l3 -1q38 28 86 50.5t108 22.5
q44 0 73.5 -13.5t47.5 -38t26 -59.5t8 -79v-260q0 -12 2.5 -15t13.5 -5l60 -7v-44h-211z" />
    <glyph glyph-name="o" unicode="o" horiz-adv-x="563" 
d="M279 -12q-62 0 -106.5 20t-73 55.5t-41.5 85t-13 108.5t15 107.5t45 83t76 54t108 19.5t105.5 -19t71 -53.5t40 -81.5t12.5 -103q0 -63 -14 -114t-43.5 -87t-74.5 -55.5t-107 -19.5zM282 43q167 0 167 214q0 103 -39.5 154t-122.5 51q-84 0 -128.5 -51.5t-44.5 -154.5
t42 -158t126 -55z" />
    <glyph glyph-name="p" unicode="p" horiz-adv-x="600" 
d="M58 -212v45l42 6q11 2 13.5 5.5t2.5 14.5v570q0 17 -13 21l-58 19l8 42h114l8 -60l2 -1q35 26 82.5 48.5t101.5 22.5q85 0 136 -58t51 -187q0 -137 -46.5 -204.5t-123.5 -80.5q-19 -3 -40 -3q-45 0 -83.5 14.5t-69.5 44.5l-2 -1v-187q0 -12 2.5 -15.5t13.5 -4.5l90 -7
v-44h-231zM183 120q28 -29 67.5 -51.5t81.5 -22.5t70.5 15.5t46 44t25.5 70t8 92.5q0 56 -10.5 93.5t-28.5 59.5t-42 31t-51 9q-25 0 -50 -7.5t-47 -18.5t-40 -23.5t-30 -22.5v-269z" />
    <glyph glyph-name="q" unicode="q" horiz-adv-x="577" 
d="M331 -212v44l70 7q11 1 13.5 4.5t2.5 15.5v207l-1 1q-36 -35 -76.5 -57t-98.5 -22q-43 0 -78 14t-59.5 44.5t-38 79t-13.5 116.5q0 73 15 125.5t42 86.5t65 50.5t83 16.5q49 0 89.5 -15.5t70.5 -37.5l10 43h67q-5 -37 -7.5 -67.5t-2.5 -62.5v-522q0 -11 2.5 -14.5
t13.5 -5.5l52 -6v-45h-221zM417 399q-24 23 -66.5 43.5t-89.5 20.5q-38 0 -65 -15.5t-44.5 -44t-25.5 -68.5t-8 -89q0 -59 10 -97.5t28 -61t41.5 -31.5t50.5 -9q52 0 93 26.5t76 67.5v258z" />
    <glyph glyph-name="r" unicode="r" horiz-adv-x="417" 
d="M48 0v45l52 6q11 2 13.5 5.5t2.5 14.5v358q0 17 -13 21l-58 19l8 42h114l9 -64q12 12 28 25t35.5 24t42.5 18t49 7q17 0 34.5 -2.5t31.5 -6.5v-139l-51 3l-13 76q-1 5 -2.5 7t-9.5 2q-20 0 -40.5 -8t-39 -19.5t-33.5 -24t-25 -22.5v-316q0 -12 2.5 -15t13.5 -5l90 -7v-44
h-241z" />
    <glyph glyph-name="s" unicode="s" horiz-adv-x="449" 
d="M342 374l-12 66q-1 5 -2.5 8t-8.5 5q-11 4 -33.5 8t-49.5 4q-63 0 -90 -25t-27 -60q0 -24 10.5 -39t28 -25.5t40.5 -17.5t48 -13q29 -7 58 -16.5t52 -25.5t37.5 -41.5t14.5 -64.5q0 -42 -16.5 -71t-43.5 -46t-62 -24.5t-71 -7.5q-29 0 -57.5 3.5t-52.5 9t-41 11t-24 9.5
v123l51 -3l12 -66q1 -5 2.5 -8t8.5 -5q11 -4 38.5 -11t69.5 -7q55 0 88 21t33 66q0 24 -10 40t-27 26.5t-39 17.5t-46 13q-30 7 -59.5 15.5t-53 24t-38.5 40t-15 64.5q0 41 16 69.5t42.5 46t61 25.5t71.5 8q52 0 92.5 -10.5t54.5 -16.5v-123z" />
    <glyph glyph-name="t" unicode="t" horiz-adv-x="400" 
d="M370 16q-29 -11 -61 -19.5t-68 -8.5q-66 0 -97.5 32t-31.5 92v333q0 5 -1 7.5t-7 2.5h-74v45q28 4 46 11.5t29 22.5t17.5 39.5t11.5 61.5h45v-114q0 -5 1 -7.5t7 -2.5h149v-56h-157v-318q0 -48 16 -68.5t60 -20.5q25 0 49.5 6t46.5 14z" />
    <glyph glyph-name="u" unicode="u" horiz-adv-x="629" 
d="M468 0l-9 73l-2 1q-17 -15 -37.5 -30.5t-44.5 -28t-53 -20t-62 -7.5q-42 0 -69.5 12.5t-44 36.5t-23.5 58t-7 77v258q0 12 -2.5 17t-13.5 7l-53 15l7 42h129v-321q0 -74 18 -109.5t72 -35.5q29 0 55.5 9.5t49.5 24t43 33t35 36.5v283q0 12 -2.5 16.5t-13.5 6.5l-54 15
l7 42h130v-439q0 -20 13 -21l55 -7v-44h-123z" />
    <glyph glyph-name="v" unicode="v" horiz-adv-x="561" 
d="M247 0l-173 441q-3 9 -7.5 12t-13.5 5l-43 9l10 44h189v-44l-71 -8l149 -397l149 397l-68 8l10 44h173v-44l-32 -6q-11 -2 -16 -5t-9 -12l-171 -444h-76z" />
    <glyph glyph-name="w" unicode="w" horiz-adv-x="825" 
d="M532 0l-109 421l-122 -421h-80l-147 441q-3 9 -7.5 12t-13.5 5l-43 9l10 44h185v-44l-67 -8l125 -391l123 428h77l111 -426l120 389l-68 8l10 44h179v-44l-36 -6q-14 -2 -18.5 -6t-7.5 -14q-35 -112 -70 -221t-70 -220h-81z" />
    <glyph glyph-name="x" unicode="x" horiz-adv-x="563" 
d="M334 0v44l68 9l-125 163l-126 -163l69 -9v-44h-210v44l56 11q8 2 12.5 5t10.5 11l147 189l-137 179q-6 8 -10.5 11t-13.5 6l-45 11l10 44h188v-44l-67 -8l118 -153l121 153l-67 8l10 44h185v-44l-47 -10q-9 -3 -14 -7t-11 -12l-136 -174l147 -191q7 -8 12 -12t14 -6
l60 -11v-44h-219z" />
    <glyph glyph-name="y" unicode="y" horiz-adv-x="567" 
d="M93 -212v45l70 8q9 1 12.5 5.5t8.5 15.5l64 148l-176 430q-4 9 -8 12t-13 5l-41 10l10 44h190v-44l-68 -8l143 -369l149 369l-69 8l10 44h182v-44l-34 -5q-19 -3 -25 -17l-253 -604l94 -9v-44h-246z" />
    <glyph glyph-name="z" unicode="z" horiz-adv-x="476" 
d="M40 0v42l312 413h-221q-6 0 -8 -4t-3 -9l-12 -66l-53 -3v138h384v-44l-310 -411h236q6 0 8 4t3 9l12 76l53 3v-148h-401z" />
    <glyph glyph-name="braceleft" unicode="{" horiz-adv-x="274" 
d="M236 -146q-76 8 -112 33t-36 88q0 21 2 45.5t4.5 50t4.5 51t2 47.5q0 30 -7.5 48.5t-20 28.5t-29 13.5t-34.5 3.5v51q18 0 34.5 3.5t29 13.5t20 28.5t7.5 48.5q0 23 -2 49t-4.5 52t-4.5 51t-2 46q0 63 36 88t112 33l10 -49q-26 -6 -43.5 -10.5t-28.5 -12t-15.5 -19
t-4.5 -30.5q0 -41 6 -95t6 -105q0 -30 -6 -50.5t-16 -33.5t-22.5 -21t-25.5 -13q13 -5 25.5 -12.5t22.5 -20.5t16 -33.5t6 -50.5q0 -51 -6 -103t-6 -93q0 -19 4.5 -30.5t15.5 -19t28.5 -12t43.5 -10.5z" />
    <glyph glyph-name="bar" unicode="|" horiz-adv-x="280" 
d="M110 -143v898h60v-898h-60z" />
    <glyph glyph-name="braceright" unicode="}" horiz-adv-x="274" 
d="M38 -146l-10 49q26 6 43.5 10.5t28.5 12t15.5 19t4.5 30.5q0 41 -6 93t-6 103q0 30 6 50.5t16 33.5t22.5 20.5t25.5 12.5q-13 5 -25.5 13t-22.5 21t-16 33.5t-6 50.5q0 51 6 104.5t6 95.5q0 19 -4.5 30.5t-15.5 19t-28.5 12t-43.5 10.5l10 49q77 -8 112.5 -33t35.5 -88
q0 -56 -6.5 -103.5t-6.5 -94.5q0 -30 7.5 -48.5t20 -28.5t29 -13.5t34.5 -3.5v-51q-27 -1 -50 -9.5t-34 -36.5q-7 -17 -7 -48q0 -52 6.5 -104.5t6.5 -89.5q0 -63 -35.5 -88t-112.5 -33z" />
    <glyph glyph-name="asciitilde" unicode="~" horiz-adv-x="465" 
d="M451 397q-5 -21 -11.5 -39t-17 -31.5t-26 -21.5t-38.5 -8q-27 0 -58 7t-61.5 16t-58.5 16t-50 7q-24 0 -38.5 -13.5t-32.5 -41.5l-42 18q20 42 44 68.5t67 26.5q29 0 58.5 -7t58 -16t56 -16t51.5 -7q25 0 35 14t20 42z" />
    <glyph glyph-name="uni00A0" unicode="&#xa0;" horiz-adv-x="230" 
 />
    <glyph glyph-name="sterling" unicode="&#xa3;" horiz-adv-x="548" 
d="M50 0l-12 47q31 26 47 50.5t23 52t7.5 61.5t0.5 77v16h-84v56h84v71q0 46 11 85.5t35 68t63.5 44.5t96.5 16q32 0 61.5 -5.5t52 -20.5t35.5 -42.5t13 -71.5l-63 -9q0 55 -26 73.5t-76 18.5q-35 0 -60.5 -8.5t-42 -28.5t-24.5 -53.5t-8 -84.5v-53h195v-56h-195
q0 -43 -0.5 -77t-6 -63.5t-19 -55t-40.5 -52.5h285q8 0 11 1.5t5 9.5l16 87h50v-154h-435z" />
    <glyph glyph-name="currency" unicode="&#xa4;" 
d="M513 9l-93 91q-26 -20 -60 -30.5t-76 -10.5q-45 0 -79.5 11.5t-60.5 31.5l-92 -93l-46 47l95 95q-17 28 -25 61.5t-8 69.5q0 67 35 123l-94 93l50 49l90 -90q27 22 62.5 34.5t79.5 12.5t79.5 -11.5t61.5 -32.5l86 86l46 -47l-89 -90q32 -53 32 -123q0 -37 -9.5 -71.5
t-29.5 -63.5l95 -94zM289 119q35 0 61.5 12.5t44.5 34.5t27 52t9 64q0 75 -36 117.5t-109 42.5q-71 0 -106.5 -45t-35.5 -115q0 -34 8.5 -64t26 -52t45 -34.5t65.5 -12.5z" />
    <glyph glyph-name="brokenbar" unicode="&#xa6;" horiz-adv-x="280" 
d="M110 -143v388h60v-388h-60zM110 410v345h60v-345h-60z" />
    <glyph glyph-name="section" unicode="&#xa7;" horiz-adv-x="540" 
d="M85 14l51 -3l12 -66q1 -5 2.5 -8.5t8.5 -5.5q11 -4 39.5 -10.5t60.5 -6.5q51 0 80 21t29 69q0 35 -21.5 53t-53.5 28.5t-69 19t-69 24t-53.5 43t-21.5 75.5q0 43 22.5 77.5t51.5 54.5q-22 17 -35.5 41t-13.5 62q0 39 15 66t40 44.5t58 25.5t69 8q57 0 95.5 -10.5
t52.5 -16.5v-123l-51 3l-12 66q-1 5 -2.5 8t-8.5 5q-11 4 -32 8t-50 4q-61 0 -85 -25t-24 -60q0 -32 21.5 -49.5t53.5 -28.5t70 -20t70 -25t53.5 -43.5t21.5 -75.5q0 -45 -24 -78t-53 -54q23 -16 37.5 -39.5t14.5 -59.5q0 -45 -16 -74.5t-41.5 -47t-58 -25t-65.5 -7.5
q-27 0 -54.5 4t-51 9t-40.5 11t-23 9v123zM206 353q-30 -15 -45.5 -42.5t-15.5 -53.5q0 -31 18 -50t45.5 -31t61.5 -20.5t65 -20.5q27 17 42.5 43t15.5 61q0 32 -17.5 49.5t-45 28t-60.5 18t-64 18.5z" />
    <glyph glyph-name="dieresis" unicode="&#xa8;" horiz-adv-x="500" 
d="M200 658q0 -23 -13.5 -36t-36.5 -13t-36.5 13t-13.5 36t13.5 36t36.5 13t36.5 -13t13.5 -36zM399 658q0 -23 -13.5 -36t-36.5 -13t-36.5 13t-13.5 36t13.5 36t36.5 13t36.5 -13t13.5 -36z" />
    <glyph glyph-name="copyright" unicode="&#xa9;" horiz-adv-x="759" 
d="M710 319q0 -74 -24 -135t-68 -104.5t-104.5 -67.5t-134.5 -24q-82 0 -144 24.5t-103 67t-62 100.5t-21 125q0 78 26 139t71 103.5t105.5 65t129.5 22.5q77 0 137.5 -22.5t103.5 -63.5t65.5 -99.5t22.5 -130.5zM381 31q65 0 117 19.5t88 56t55.5 89t19.5 117.5
q0 68 -21 120.5t-58 87.5t-88.5 53t-112.5 18q-60 0 -111.5 -19t-89 -56t-59 -90t-21.5 -121q0 -64 19.5 -115t55.5 -86.5t88 -54.5t118 -19zM505 144q-20 -12 -52 -18t-62 -6q-51 0 -86.5 14.5t-58 41t-33 62t-10.5 77.5t12 78t36 61.5t59.5 40t83.5 14.5q31 0 62.5 -6.5
t49.5 -13.5v-103l-39 3l-10 54q-1 3 -2.5 5t-6.5 4q-11 5 -26.5 8t-36.5 3q-24 0 -46 -8t-38.5 -26t-26.5 -46.5t-10 -69.5q0 -31 7 -58t22.5 -47t40 -31.5t58.5 -11.5q18 0 32.5 3t23.5 8q5 2 6 4.5l3 7.5l14 54h34v-98z" />
    <glyph glyph-name="guillemotleft" unicode="&#xab;" horiz-adv-x="424" 
d="M153 103l-88 157l89 148h66l-73 -136q-4 -7 -4 -10t3 -9l73 -150h-66zM299 103l-88 157l89 148h66l-73 -136q-4 -7 -4 -10t3 -9l73 -150h-66z" />
    <glyph glyph-name="logicalnot" unicode="&#xac;" 
d="M402 199v94h-304v66h373v-160h-69z" />
    <glyph glyph-name="uni00AD" unicode="&#xad;" horiz-adv-x="311" 
d="M20 255v74h271v-74h-271z" />
    <glyph glyph-name="registered" unicode="&#xae;" horiz-adv-x="447" 
d="M407 480q0 -41 -13.5 -74.5t-37.5 -57.5t-58 -37.5t-75 -13.5q-45 0 -79.5 13.5t-57.5 37t-34.5 56t-11.5 69.5q0 43 14.5 77t39.5 58t58.5 36.5t71.5 12.5q85 0 134 -48t49 -129zM368 477q0 71 -40.5 107.5t-103.5 36.5q-30 0 -56.5 -10t-46 -28.5t-30.5 -46t-11 -62.5
q0 -66 38.5 -103.5t105.5 -37.5t105.5 38.5t38.5 105.5zM242 384v19l18 2l-26 45q-6 10 -18 10h-16v-49q0 -5 5 -6l16 -2v-19h-78v19l16 2q5 1 5 5v139q0 6 -8 6t-13 1v19h87q39 0 51.5 -16.5t12.5 -37.5q0 -39 -38 -53q5 -2 8 -6t8 -12l22 -38q2 -5 8 -6l18 -3v-19h-78z
M213 488q19 0 31.5 6t12.5 26q0 17 -10 22t-27 5h-20v-59h13z" />
    <glyph glyph-name="macron" unicode="&#xaf;" horiz-adv-x="500" 
d="M98 616v57h303v-57h-303z" />
    <glyph glyph-name="degree" unicode="&#xb0;" horiz-adv-x="300" 
d="M151 609q26 0 38.5 15t12.5 42q0 55 -51 55q-24 0 -38.5 -14.5t-14.5 -44.5q0 -25 13.5 -39t39.5 -14zM250 666q0 -48 -26.5 -74t-72.5 -26q-47 0 -74 25.5t-27 70.5q0 51 29.5 76.5t71.5 25.5q43 0 71 -25t28 -73z" />
    <glyph glyph-name="plusminus" unicode="&#xb1;" 
d="M98 0v66h373v-66h-373zM250 131v157h-152v66h152v154h69v-154h152v-66h-152v-157h-69z" />
    <glyph glyph-name="mu" unicode="&#xb5;" horiz-adv-x="629" 
d="M108 511h67v-336q0 -67 19.5 -98.5t73.5 -31.5q27 0 53 9.5t49.5 24.5t43 33t34.5 36v363h67v-439q0 -20 13 -21l55 -7v-44h-124l-8 71l-3 1q-17 -15 -38 -30t-44.5 -27t-50.5 -19.5t-56 -7.5q-59 0 -86 35l-3 -2l5 -197h-67v687z" />
    <glyph glyph-name="paragraph" unicode="&#xb6;" horiz-adv-x="547" 
d="M372 -133v722h-89v-722h-147v44l68 8q8 1 10 4t2 11v238q-94 9 -150 68.5t-56 159.5q0 67 22 113.5t60 76t88 42.5t105 13h237v-44l-67 -8q-11 -2 -13.5 -5t-2.5 -14v-640q0 -9 3 -11t13 -4l67 -8v-44h-150z" />
    <glyph glyph-name="periodcentered" unicode="&#xb7;" horiz-adv-x="176" 
d="M146 302q0 -57 -58 -57t-58 57t58 57t58 -57z" />
    <glyph glyph-name="cedilla" unicode="&#xb8;" horiz-adv-x="500" 
d="M149 -178q15 -3 33 -3q38 0 56.5 15t18.5 40q0 20 -14.5 33t-57.5 14l15 109l52 -8l-9 -66q30 -6 51 -25t21 -54q0 -18 -6.5 -36.5t-21.5 -34t-39.5 -25t-60.5 -9.5q-11 0 -22 1t-22 3z" />
    <glyph glyph-name="guillemotright" unicode="&#xbb;" horiz-adv-x="424" 
d="M58 103l73 141q4 7 4 10t-3 9l-73 145h66l88 -153l-89 -152h-66zM204 103l73 141q4 7 4 10t-3 9l-73 145h66l88 -153l-89 -152h-66z" />
    <glyph glyph-name="multiply" unicode="&#xd7;" 
d="M284 272l-107 -109l-48 48l108 109l-108 110l48 48l107 -109l108 109l48 -48l-108 -110l108 -109l-48 -48z" />
    <glyph glyph-name="divide" unicode="&#xf7;" 
d="M336 171q0 -57 -58 -57t-58 57t58 57t58 -57zM98 288v66h373v-66h-373zM336 473q0 -57 -58 -57t-58 57t58 57t58 -57z" />
    <glyph glyph-name="florin" unicode="&#x192;" horiz-adv-x="482" 
d="M244 321l-42 -242q-7 -39 -17.5 -69t-28.5 -51t-45 -31.5t-65 -10.5q-34 0 -68.5 10.5t-50.5 22.5l23 50q14 -9 43 -18.5t58 -9.5q33 0 52 19.5t27 62.5l45 257q1 5 0.5 7.5t-6.5 2.5h-94l10 56h102l20 105q7 39 19 69.5t31.5 51t48.5 31.5t70 11q48 0 77 -11.5t40 -17.5
l-21 -121l-47 3l-1 70q0 5 -1 8.5t-7 5.5q-8 3 -18.5 5t-27.5 2q-25 0 -42 -8t-28 -22.5t-17 -35t-11 -45.5l-17 -91q-1 -5 0 -7.5t7 -2.5h147l-10 -56h-155z" />
    <glyph glyph-name="circumflex" unicode="&#x2c6;" horiz-adv-x="500" 
d="M374 576l-124 104l-124 -104l-38 33l124 120h76l124 -120z" />
    <glyph glyph-name="caron" unicode="&#x2c7;" horiz-adv-x="500" 
d="M209 576l-121 119l37 34l122 -104l126 104l38 -33l-126 -120h-76z" />
    <glyph glyph-name="uni02C9" unicode="&#x2c9;" horiz-adv-x="500" 
d="M98 616v57h303v-57h-303z" />
    <glyph glyph-name="breve" unicode="&#x2d8;" horiz-adv-x="500" 
d="M405 705q-17 -61 -52.5 -96.5t-104.5 -35.5t-104 35.5t-49 96.5l54 19q14 -42 35 -69t66 -27t67.5 26t37.5 70z" />
    <glyph glyph-name="dotaccent" unicode="&#x2d9;" horiz-adv-x="500" 
d="M304 688q0 -26 -14 -39.5t-40 -13.5t-40 13.5t-14 39.5t14 39.5t40 13.5t40 -13.5t14 -39.5z" />
    <glyph glyph-name="ring" unicode="&#x2da;" horiz-adv-x="500" 
d="M352 689q0 -43 -25.5 -66t-69.5 -23q-43 0 -68.5 22.5t-25.5 64.5q0 46 27 68t67 22q41 0 68 -21t27 -67zM257 646q44 0 44 43q0 42 -44 42q-20 0 -32 -10.5t-12 -33.5q0 -41 44 -41z" />
    <glyph glyph-name="ogonek" unicode="&#x2db;" horiz-adv-x="500" 
d="M328 -192q-19 -9 -40.5 -14.5t-42.5 -5.5q-37 0 -60.5 18t-23.5 57q0 25 11 48t27.5 42.5t35.5 36t35 29.5l53 -15q-13 -11 -29 -24.5t-30 -30t-23.5 -34.5t-9.5 -37q0 -18 9 -25.5t23 -7.5q11 0 23 3.5t24 8.5z" />
    <glyph glyph-name="tilde" unicode="&#x2dc;" horiz-adv-x="500" 
d="M399 637q-19 -26 -32.5 -36t-29.5 -10q-6 0 -13.5 1t-15.5 3q-19 5 -39.5 10.5t-39 10.5t-34 9t-24.5 6q-10 3 -16 -3l-42 -41l-36 27l29 41q16 23 29 31t29 8q8 0 15.5 -1.5l17.5 -3.5q17 -4 37 -9.5t39 -10.5t35 -9t23 -6q10 -3 16 3l39 39l36 -27z" />
    <glyph glyph-name="hungarumlaut" unicode="&#x2dd;" horiz-adv-x="500" 
d="M108 571l-35 27l133 179l58 -47zM270 571l-36 27l134 178l58 -46z" />
    <glyph glyph-name="uni0394" unicode="&#x394;" horiz-adv-x="652" 
d="M30 0l247 724h92l253 -724h-592zM117 58h409l-204 611z" />
    <glyph glyph-name="uni03A9" unicode="&#x3a9;" horiz-adv-x="829" 
d="M499 0v134q27 11 59.5 34t60.5 58.5t46.5 83.5t18.5 109q0 129 -69 194t-188 65q-60 0 -110 -17.5t-86.5 -52t-56.5 -86.5t-20 -121q0 -57 15.5 -101t41 -76.5t59 -54.5t68.5 -35v-134h-278v154h50l16 -87q2 -8 5 -9.5t11 -1.5h134v53q-47 18 -83 48t-60 67.5t-36.5 82.5
t-12.5 93q0 75 24 137t68.5 106.5t108.5 69t144 24.5q84 0 145 -23.5t100.5 -65.5t59 -99.5t19.5 -124.5q0 -53 -15 -100.5t-41 -88t-61 -72.5t-76 -54v-53h127q8 0 11 1.5t5 9.5l16 87h50v-154h-270z" />
    <glyph glyph-name="uni03BC" unicode="&#x3bc;" horiz-adv-x="629" 
d="M108 511h67v-336q0 -67 19.5 -98.5t73.5 -31.5q27 0 53 9.5t49.5 24.5t43 33t34.5 36v363h67v-439q0 -20 13 -21l55 -7v-44h-124l-8 71l-3 1q-17 -15 -38 -30t-44.5 -27t-50.5 -19.5t-56 -7.5q-59 0 -86 35l-3 -2l5 -197h-67v687z" />
    <glyph glyph-name="pi" unicode="&#x3c0;" horiz-adv-x="664" 
d="M464 0v450h-268v-450h-134v44l51 7q9 1 12.5 3t3.5 9v377q0 11 -2.5 15t-13.5 5l-63 7v44h564v-44l-67 -8q-11 -2 -13.5 -5t-2.5 -14v-369q0 -12 2.5 -15t13.5 -5l51 -7v-44h-134z" />
    <glyph glyph-name="afii10023" unicode="&#x401;" horiz-adv-x="637" 
d="M281 831q0 -23 -13.5 -36t-36.5 -13t-36.5 13t-13.5 36t13.5 36t36.5 13t36.5 -13t13.5 -36zM480 831q0 -23 -13.5 -36t-36.5 -13t-36.5 13t-13.5 36t13.5 36t36.5 13t36.5 -13t13.5 -36zM70 0v44l63 7q11 2 13.5 5.5t2.5 14.5v581q0 11 -2.5 15t-13.5 5l-63 7v45h490
v-150l-51 3l-14 78q-3 13 -17 13h-262v-274h280v-56h-280v-282h284q8 0 11 1.5t5 9.5l16 87h50v-154h-512z" />
    <glyph glyph-name="afii10051" unicode="&#x402;" horiz-adv-x="807" 
d="M757 199q0 -46 -12.5 -85t-38 -67t-65 -43.5t-93.5 -15.5q-48 0 -84 9.5t-52 17.5v131h47l18 -68q2 -10 5 -15t13 -9q9 -4 21 -6t32 -2q67 0 103 35.5t36 116.5q0 45 -15 75t-39.5 48t-56.5 25.5t-66 7.5q-48 0 -88.5 -6t-77.5 -14v-334h-145v44l63 7q11 2 13.5 5.5
t2.5 14.5v597h-166q-8 0 -11 -1.5t-5 -9.5l-16 -87h-50v154h607v-166l-49 3l-17 94q-3 13 -17 13h-210v-276q30 5 74 12.5t102 7.5q112 0 174.5 -55.5t62.5 -157.5z" />
    <glyph glyph-name="afii10052" unicode="&#x403;" horiz-adv-x="580" 
d="M243 766l-24 38l181 131l40 -63zM70 0v44l63 7q11 2 13.5 5.5t2.5 14.5v581q0 11 -2.5 15t-13.5 5l-63 7v45h470v-166l-49 3l-17 94q-3 13 -17 13h-241v-596q0 -12 2.5 -15t13.5 -5l147 -8v-44h-309z" />
    <glyph glyph-name="afii10053" unicode="&#x404;" horiz-adv-x="684" 
d="M629 40q-39 -27 -103 -39.5t-133 -12.5q-90 0 -154 27t-105 77t-60 120t-19 156q0 81 21.5 149t65 117t109 76t154.5 27q68 0 125 -14.5t93 -38.5v-146l-51 3l-17 94q-1 6 -3 10.5t-10 7.5q-29 11 -65.5 18t-76.5 7q-122 0 -195.5 -72t-79.5 -217h330v-56h-330
q8 -148 77.5 -217t194.5 -69q38 0 81 5t75 19q11 5 13 17l16 89h47v-137z" />
    <glyph glyph-name="afii10054" unicode="&#x405;" horiz-adv-x="581" 
d="M449 549l-17 86q-2 7 -3 11.5t-3 7.5q-5 7 -34 14.5t-74 7.5q-87 0 -128.5 -34t-41.5 -94q0 -50 27.5 -77.5t69 -44.5t90 -30t90 -36t69 -61.5t27.5 -106.5q0 -57 -21 -96t-56 -63t-82 -34.5t-99 -10.5q-34 0 -66.5 4t-59 9.5t-46.5 12t-31 11.5v151h49l19 -85
q2 -10 4.5 -14t12.5 -8q12 -5 44.5 -13t82.5 -8q84 0 131 33t47 106q0 54 -27.5 82.5t-69 46t-90 30t-90 34t-69 58.5t-27.5 103q0 52 19.5 89t52.5 61t77.5 35t95.5 11q63 0 109 -12.5t69 -20.5v-160z" />
    <glyph glyph-name="afii10055" unicode="&#x406;" horiz-adv-x="387" 
d="M71 0v44l73 7q11 2 13.5 5.5t2.5 14.5v582q0 11 -2.5 15t-13.5 5l-73 7v44h249v-44l-77 -8q-11 -2 -13.5 -5t-2.5 -14v-581q0 -12 2.5 -15t13.5 -5l77 -8v-44h-249z" />
    <glyph glyph-name="afii10056" unicode="&#x407;" horiz-adv-x="387" 
d="M144 831q0 -23 -13.5 -36t-36.5 -13t-36.5 13t-13.5 36t13.5 36t36.5 13t36.5 -13t13.5 -36zM343 831q0 -23 -13.5 -36t-36.5 -13t-36.5 13t-13.5 36t13.5 36t36.5 13t36.5 -13t13.5 -36zM71 0v44l73 7q11 2 13.5 5.5t2.5 14.5v582q0 11 -2.5 15t-13.5 5l-73 7v44h249
v-44l-77 -8q-11 -2 -13.5 -5t-2.5 -14v-581q0 -12 2.5 -15t13.5 -5l77 -8v-44h-249z" />
    <glyph glyph-name="afii10057" unicode="&#x408;" horiz-adv-x="499" 
d="M304 654q0 11 -3 14.5t-13 4.5l-83 7v44h249v-44l-67 -8q-11 -2 -13.5 -4.5t-2.5 -13.5v-513q0 -78 -36.5 -115.5t-119.5 -37.5q-57 0 -99 12t-56 21v123l51 -3l10 -68q1 -5 3 -8t9 -6q8 -4 28.5 -9.5t51.5 -5.5q55 0 73 25.5t18 79.5v505z" />
    <glyph glyph-name="afii10058" unicode="&#x409;" horiz-adv-x="998" 
d="M958 226q0 -61 -19 -104t-53 -70t-81 -39.5t-103 -12.5h-269v44l63 7q11 2 13.5 5.5t2.5 14.5v597h-224q2 -122 -1.5 -221t-13.5 -184q-7 -63 -22.5 -111t-41.5 -82t-64.5 -54.5t-91.5 -27.5l-14 65q33 6 59.5 17.5t46.5 32t34 52t23 77.5q6 29 10.5 74.5t7.5 101
t4.5 118t-0.5 125.5q0 11 -2.5 15.5t-13.5 6.5l-65 7v44h551v-43l-100 -10q-11 -1 -13 -4.5t-3 -15.5v-225h141q65 0 110 -15t74 -42t42 -63.5t13 -79.5zM697 59q40 0 75 7t60.5 25.5t40.5 50t15 80.5q0 75 -44.5 110t-124.5 35h-141v-308h119z" />
    <glyph glyph-name="afii10059" unicode="&#x40a;" horiz-adv-x="1020" 
d="M216 402h318v251q0 12 -2.5 15t-13.5 5l-63 7v44h261v-43l-100 -10q-11 -1 -13 -4.5t-3 -15.5v-249h131q65 0 110 -14t74 -39.5t42 -62t13 -81.5q0 -57 -19 -96.5t-53 -63.5t-81 -34.5t-103 -10.5h-259v44l63 7q11 2 13.5 5.5t2.5 14.5v275h-318v-274q0 -12 2.5 -15
t13.5 -5l67 -8v-44h-229v44l63 7q11 2 13.5 5.5t2.5 14.5v582q0 11 -2.5 15t-13.5 5l-63 7v44h229v-44l-67 -8q-11 -2 -13.5 -5t-2.5 -14v-251zM709 59q40 0 75 5.5t60.5 21t40.5 43.5t15 74q0 81 -44.5 111.5t-124.5 30.5h-131v-286h109z" />
    <glyph glyph-name="afii10060" unicode="&#x40b;" horiz-adv-x="863" 
d="M344 408q43 12 92.5 20t95.5 8q47 0 82.5 -9.5t60 -31.5t37 -57.5t12.5 -87.5v-179q0 -13 2.5 -15.5t13.5 -4.5l63 -7v-44h-229v44l67 8q11 2 13.5 5t2.5 14v159q0 38 -5.5 65.5t-20 45.5t-39.5 27t-65 9q-21 0 -45 -2.5t-49 -6t-48 -8.5t-41 -11v-278q0 -13 2.5 -15.5
t13.5 -4.5l63 -7v-44h-229v44l67 8q11 2 14 5t3 14v597h-166q-8 0 -11 -1.5t-5 -9.5l-16 -87h-50v154h607v-166l-49 3l-17 94q-3 13 -17 13h-210v-260z" />
    <glyph glyph-name="afii10061" unicode="&#x40c;" horiz-adv-x="708" 
d="M324 766l-24 38l181 131l40 -63zM216 398h79q23 0 41 5t33 18t28.5 35.5t26.5 57.5l52 136q18 48 47.5 67.5t68.5 19.5q22 0 42 -4l-3 -50q-6 1 -12 1.5t-11 0.5q-35 0 -50.5 -18t-29.5 -55l-54 -144q-16 -43 -42.5 -64t-48.5 -28q25 -8 42.5 -26.5t40.5 -62.5l113 -209
q7 -12 12 -16.5t15 -6.5l67 -11v-44h-134q-15 38 -35 77.5t-39.5 75.5t-36.5 66t-28 48q-13 24 -24 38.5t-22.5 23t-25.5 11.5t-35 3h-77v-271q0 -12 2.5 -15t13.5 -5l67 -8v-44h-229v44l63 7q11 2 13.5 5.5t2.5 14.5v582q0 11 -2.5 15t-13.5 5l-63 7v44h229v-44l-67 -8
q-11 -2 -13.5 -5t-2.5 -14v-255z" />
    <glyph glyph-name="afii10062" unicode="&#x40e;" horiz-adv-x="641" 
d="M347 835q22 0 37 6t25.5 16.5t18 25t13.5 30.5l54 -19q-13 -47 -47.5 -79.5t-102.5 -32.5t-102.5 30t-47.5 82l57 19q9 -34 30 -56t65 -22zM364 143q-16 -39 -31 -68t-33.5 -48.5t-43 -29t-59.5 -9.5q-32 0 -64.5 7.5t-55.5 21.5l23 52q16 -9 41 -16.5t53 -7.5q22 0 37 5
t26 15.5t19 26t16 35.5l6 16l-215 506q-7 16 -25 20l-45 11l10 44h198v-44l-74 -9l185 -458v0l180 458l-72 9l10 44h186v-44l-42 -11q-8 -2 -14.5 -6.5t-10.5 -12.5z" />
    <glyph glyph-name="afii10145" unicode="&#x40f;" horiz-adv-x="770" 
d="M70 0v44l63 7q11 1 13.5 5t2.5 15v582q0 11 -2.5 14.5t-13.5 5.5l-63 7v44h229v-44l-67 -8q-11 -2 -13.5 -5t-2.5 -15v-596h338v597q0 11 -2.5 14.5t-13.5 5.5l-63 7v44h229v-44l-67 -8q-11 -2 -13.5 -5t-2.5 -15v-581q0 -11 2.5 -14t13.5 -5l67 -8v-44h-259
q-12 0 -13 -13l-17 -143l-45 3l-17 140q-1 13 -13 13h-270z" />
    <glyph glyph-name="afii10017" unicode="&#x410;" horiz-adv-x="695" 
d="M466 0v44l83 9l-61 180h-292l-60 -180l81 -9v-44h-207v44l43 11q9 2 15 6t9 13l221 650h92l226 -652q3 -9 8.5 -12t14.5 -5l46 -11v-44h-219zM343 669l-127 -377h253z" />
    <glyph glyph-name="afii10018" unicode="&#x411;" horiz-adv-x="668" 
d="M70 44l63 7q11 2 13.5 5.5t2.5 14.5v581q0 12 -2.5 15t-13.5 5l-63 7v45h478v-166l-49 3l-17 94q-3 13 -17 13h-250v-269h157q127 0 186.5 -50t59.5 -141q0 -57 -18.5 -96.5t-52 -64t-81 -36t-105.5 -11.5h-291v44zM354 59q42 0 78 6t61.5 22t40 44.5t14.5 73.5
q0 40 -13.5 66t-37.5 41.5t-57 22t-72 6.5h-153v-282h139z" />
    <glyph glyph-name="afii10019" unicode="&#x412;" horiz-adv-x="668" 
d="M70 0v44l63 7q11 2 13.5 5.5t2.5 14.5v581q0 11 -2.5 15t-13.5 5l-63 7v45h283q64 0 106 -13.5t66.5 -37.5t34.5 -56.5t10 -69.5q0 -36 -10.5 -63.5t-27.5 -48.5t-39 -34.5t-45 -21.5v-3q86 -10 128 -58t42 -123q0 -55 -19.5 -92.5t-54.5 -60.5t-84 -32.5t-108 -9.5h-282
zM347 59q42 0 79 4.5t64 19t42.5 42t15.5 72.5q0 39 -14 66t-38 44.5t-56.5 25.5t-70.5 8h-154v-282h132zM322 399q31 0 62.5 6t57 21.5t42 43t16.5 70.5q0 72 -39.5 99t-123.5 27h-122v-267h107z" />
    <glyph glyph-name="afii10020" unicode="&#x413;" horiz-adv-x="580" 
d="M70 0v44l63 7q11 2 13.5 5.5t2.5 14.5v581q0 11 -2.5 15t-13.5 5l-63 7v45h470v-166l-49 3l-17 94q-3 13 -17 13h-241v-596q0 -12 2.5 -15t13.5 -5l147 -8v-44h-309z" />
    <glyph glyph-name="afii10021" unicode="&#x414;" horiz-adv-x="761" 
d="M123 0q-15 0 -16 -13l-18 -132l-49 -2v203h61q31 42 54 88t38 105t22.5 135.5t7.5 179.5v87q0 11 -2.5 15.5t-13.5 6.5l-63 7v44h547v-44l-67 -8q-9 -2 -12.5 -6t-3.5 -16v-594h81v-203l-49 2l-17 132q-1 13 -17 13h-483zM288 584q0 -199 -28.5 -326t-87.5 -202h369v612
h-253v-84z" />
    <glyph glyph-name="afii10022" unicode="&#x415;" horiz-adv-x="637" 
d="M70 0v44l63 7q11 2 13.5 5.5t2.5 14.5v581q0 11 -2.5 15t-13.5 5l-63 7v45h490v-150l-51 3l-14 78q-3 13 -17 13h-262v-274h280v-56h-280v-282h284q8 0 11 1.5t5 9.5l16 87h50v-154h-512z" />
    <glyph glyph-name="afii10024" unicode="&#x416;" horiz-adv-x="1010" 
d="M538 401h64q23 0 39.5 4.5t29 16.5t23 34t22.5 58l46 136q16 48 46.5 67.5t69.5 19.5q22 0 42 -4l-3 -50q-6 1 -12 1.5t-11 0.5q-35 0 -51 -18t-29 -55l-48 -141q-15 -43 -34.5 -64t-41.5 -28q26 -8 43 -26.5t39 -62.5l109 -212q6 -12 11.5 -16.5t15.5 -6.5l67 -11v-44
h-137q-15 38 -34.5 78t-38 77.5t-35 68.5t-26.5 49q-13 24 -23 38t-21 22t-25 10.5t-35 2.5h-62v-273q0 -12 2.5 -15.5t13.5 -5.5l67 -8v-44h-229v44l63 7q11 2 13.5 5.5t2.5 14.5v275h-65q-21 0 -35 -2.5t-25 -10.5t-21 -22t-23 -38q-10 -18 -26.5 -49t-35 -68.5t-38 -77.5
t-34.5 -78h-134v44l67 11q10 2 15.5 6.5t11.5 16.5l109 212q23 44 40 62.5t42 26.5q-22 7 -41.5 28t-34.5 64l-48 143q-13 37 -27 54t-49 17q-5 0 -11 -0.5t-12 -1.5l-3 50q11 2 24.5 3t23.5 1q39 0 67 -19.5t44 -67.5l46 -136q12 -36 22.5 -58t23 -34t29 -16.5t39.5 -4.5
h59v252q0 11 -2.5 15t-13.5 5l-63 7v44h229v-44l-67 -8q-11 -2 -13.5 -5t-2.5 -14v-252z" />
    <glyph glyph-name="afii10025" unicode="&#x417;" 
d="M288 737q98 0 158 -45.5t60 -135.5q0 -66 -40 -112t-112 -64v-4q86 -11 126 -59t40 -124q0 -39 -14.5 -76t-45 -65.5t-77 -46t-110.5 -17.5q-69 0 -125 16.5t-88 39.5v143h51l17 -94q1 -6 3.5 -10.5t10.5 -8.5q30 -14 62 -19.5t67 -5.5q38 0 70.5 8.5t56.5 26.5t38 46
t14 67q0 68 -44.5 106t-132.5 38h-96v59h62q44 0 80 10.5t62 30.5t40 48t14 63q0 36 -12.5 60t-33.5 38.5t-49 21t-60 6.5q-38 0 -67.5 -7.5t-56.5 -17.5q-8 -3 -10 -7.5t-3 -10.5l-17 -94l-51 -3v146q36 24 94.5 38.5t118.5 14.5z" />
    <glyph glyph-name="afii10026" unicode="&#x418;" horiz-adv-x="813" 
d="M518 0v44l63 7q11 2 13.5 5.5t2.5 14.5v561l-3 -1l-364 -631h-160v44l63 7q11 2 13.5 5.5t2.5 14.5v582q0 11 -2.5 15t-13.5 5l-63 7v44h229v-44l-67 -8q-11 -2 -13.5 -5t-2.5 -14v-565h3l364 636h164v-44l-67 -8q-11 -2 -13.5 -5t-2.5 -14v-581q0 -12 2.5 -15t13.5 -5
l67 -8v-44h-229z" />
    <glyph glyph-name="afii10027" unicode="&#x419;" horiz-adv-x="813" 
d="M440 835q22 0 37 6t25.5 16.5t18 25t13.5 30.5l54 -19q-13 -47 -47.5 -79.5t-102.5 -32.5t-102.5 30t-47.5 82l57 19q9 -34 30 -56t65 -22zM518 0v44l63 7q11 2 13.5 5.5t2.5 14.5v561l-3 -1l-364 -631h-160v44l63 7q11 2 13.5 5.5t2.5 14.5v582q0 11 -2.5 15t-13.5 5
l-63 7v44h229v-44l-67 -8q-11 -2 -13.5 -5t-2.5 -14v-565h3l364 636h164v-44l-67 -8q-11 -2 -13.5 -5t-2.5 -14v-581q0 -12 2.5 -15t13.5 -5l67 -8v-44h-229z" />
    <glyph glyph-name="afii10028" unicode="&#x41a;" horiz-adv-x="708" 
d="M216 398h79q23 0 41 5t33 18t28.5 35.5t26.5 57.5l52 136q18 48 47.5 67.5t68.5 19.5q22 0 42 -4l-3 -50q-6 1 -12 1.5t-11 0.5q-35 0 -50.5 -18t-29.5 -55l-54 -144q-16 -43 -42.5 -64t-48.5 -28q25 -8 42.5 -26.5t40.5 -62.5l113 -209q7 -12 12 -16.5t15 -6.5l67 -11
v-44h-134q-15 38 -35 77.5t-39.5 75.5t-36.5 66t-28 48q-13 24 -24 38.5t-22.5 23t-25.5 11.5t-35 3h-77v-271q0 -12 2.5 -15t13.5 -5l67 -8v-44h-229v44l63 7q11 2 13.5 5.5t2.5 14.5v582q0 11 -2.5 15t-13.5 5l-63 7v44h229v-44l-67 -8q-11 -2 -13.5 -5t-2.5 -14v-255z
" />
    <glyph glyph-name="afii10029" unicode="&#x41b;" horiz-adv-x="752" 
d="M453 0v44l63 7q11 2 13.5 5.5t2.5 14.5v597h-232q2 -122 -1.5 -221t-13.5 -184q-7 -63 -22.5 -111t-41.5 -82t-64.5 -54.5t-91.5 -27.5l-14 62q37 7 64 19t46 33t31.5 52.5t21.5 77.5q6 29 10.5 74.5t7.5 101t4.5 118t-0.5 125.5q0 11 -2.5 15.5t-13.5 6.5l-65 7v44h527
v-44l-67 -8q-9 -2 -12.5 -6t-3.5 -16v-578q0 -12 2.5 -15t13.5 -5l67 -8v-44h-229z" />
    <glyph glyph-name="afii10030" unicode="&#x41c;" horiz-adv-x="948" 
d="M629 0v44l83 7q11 2 13.5 5.5t2.5 14.5v537l-225 -427h-62l-225 433v-542q0 -12 2.5 -15t13.5 -5l87 -8v-44h-249v44l63 7q11 2 13.5 5.5t2.5 14.5v581q0 11 -2.5 15t-13.5 5l-63 7v45h164l240 -477l246 477h158v-44l-67 -8q-11 -2 -13.5 -5t-2.5 -14v-582q0 -10 3 -13.5
t13 -5.5l67 -8v-44h-249z" />
    <glyph glyph-name="afii10031" unicode="&#x41d;" horiz-adv-x="808" 
d="M509 0v44l63 7q11 2 13.5 5.5t2.5 14.5v275h-372v-274q0 -12 2.5 -15t13.5 -5l67 -8v-44h-229v44l63 7q11 2 13.5 5.5t2.5 14.5v582q0 11 -2.5 15t-13.5 5l-63 7v44h229v-44l-67 -8q-11 -2 -13.5 -5t-2.5 -14v-251h372v251q0 11 -2.5 15t-13.5 5l-63 7v44h229v-44l-67 -8
q-11 -2 -13.5 -5t-2.5 -14v-581q0 -12 2.5 -15t13.5 -5l67 -8v-44h-229z" />
    <glyph glyph-name="afii10032" unicode="&#x41e;" horiz-adv-x="783" 
d="M387 -12q-85 0 -147.5 28t-103.5 78t-60.5 119t-19.5 150t22.5 149.5t66 118.5t108 78t148.5 28t145 -28t101.5 -76.5t60 -114t19.5 -140.5q0 -88 -21.5 -160t-64 -123t-106.5 -79t-148 -28zM391 47q60 0 109 20t84 60t54.5 100t19.5 141q0 75 -18 133t-52 97t-82 59.5
t-107 20.5q-60 0 -110 -20.5t-86.5 -60.5t-56.5 -98.5t-20 -135.5t19 -136t53.5 -99t83.5 -60.5t109 -20.5z" />
    <glyph glyph-name="afii10033" unicode="&#x41f;" horiz-adv-x="784" 
d="M485 0v44l63 7q11 2 13.5 5.5t2.5 14.5v597h-348v-596q0 -12 2.5 -15t13.5 -5l67 -8v-44h-229v44l63 7q11 2 13.5 5.5t2.5 14.5v582q0 11 -2.5 15t-13.5 5l-63 7v44h644v-44l-67 -8q-11 -2 -13.5 -5t-2.5 -14v-581q0 -12 2.5 -15t13.5 -5l67 -8v-44h-229z" />
    <glyph glyph-name="afii10034" unicode="&#x420;" horiz-adv-x="658" 
d="M70 0v44l63 7q11 2 13.5 5.5t2.5 14.5v581q0 11 -2.5 15t-13.5 5l-63 7v45h297q69 0 115.5 -17t74.5 -46.5t39.5 -68t11.5 -81.5q0 -64 -19 -109t-54.5 -73t-86.5 -40.5t-114 -12.5h-119v-204q0 -12 2.5 -15.5t13.5 -4.5l143 -8v-44h-304zM332 335q43 0 80.5 6t65.5 25
t44 53t16 90q0 82 -45.5 119.5t-145.5 37.5h-132v-331h117z" />
    <glyph glyph-name="afii10035" unicode="&#x421;" horiz-adv-x="684" 
d="M629 40q-39 -27 -103 -39.5t-133 -12.5q-91 0 -155 28t-104.5 78.5t-59.5 120.5t-19 153q0 79 22 146.5t66 117t110.5 77.5t155.5 28q68 0 125 -14.5t93 -38.5v-146l-51 3l-17 94q-1 6 -3 10.5t-10 7.5q-29 11 -65.5 18t-76.5 7q-63 0 -114.5 -20.5t-88 -60t-56.5 -97.5
t-20 -133q0 -157 73 -238.5t199 -81.5q38 0 81 5t75 19q11 5 13 17l16 89h47v-137z" />
    <glyph glyph-name="afii10036" unicode="&#x422;" horiz-adv-x="643" 
d="M169 0v45l103 7q11 1 13.5 5t2.5 15v596h-175q-8 0 -11 -1.5t-5 -9.5l-16 -87h-50v154h582v-154h-50l-16 87q-2 8 -5 9.5t-11 1.5h-176v-596q0 -11 2.5 -14.5t13.5 -4.5l110 -8v-45h-312z" />
    <glyph glyph-name="afii10037" unicode="&#x423;" horiz-adv-x="641" 
d="M364 143q-16 -39 -31 -68t-33.5 -48.5t-43 -29t-59.5 -9.5q-32 0 -64.5 7.5t-55.5 21.5l23 52q16 -9 41 -16.5t53 -7.5q22 0 37 5t26 15.5t19 26t16 35.5l6 16l-215 506q-7 16 -25 20l-45 11l10 44h198v-44l-74 -9l185 -458v0l180 458l-72 9l10 44h186v-44l-42 -11
q-8 -2 -14.5 -6.5t-10.5 -12.5z" />
    <glyph glyph-name="afii10038" unicode="&#x424;" horiz-adv-x="822" 
d="M767 379q0 -71 -22 -117.5t-64 -74.5t-102 -39.5t-136 -12.5v-63q0 -12 2.5 -15t13.5 -5l77 -8v-44h-245v44l73 7q11 2 13.5 5.5t2.5 14.5v63q-78 0 -139 10t-102 36.5t-62.5 72t-21.5 116.5q0 69 25 114.5t68.5 72t103 37.5t128.5 12v60q0 12 -2.5 15t-13.5 5l-77 8v44
h245v-44l-73 -7q-11 -2 -13.5 -5.5t-2.5 -14.5v-60q73 0 133 -9.5t102.5 -34.5t65.5 -69.5t23 -113.5zM697 369q0 54 -15.5 89t-47 56t-79 29.5t-112.5 8.5v-365q63 1 110.5 9.5t79.5 28.5t48 55t16 89zM125 366q0 -52 14.5 -86t45.5 -55t79.5 -29.5t115.5 -9.5v364
q-62 0 -109.5 -8.5t-80 -30t-49 -57t-16.5 -88.5z" />
    <glyph glyph-name="afii10039" unicode="&#x425;" horiz-adv-x="669" 
d="M434 0v44l74 9l-179 270l-175 -270l72 -9v-44h-206v42l50 11q15 4 25 19l193 296l-183 284q-5 8 -10 11.5t-14 5.5l-45 11l10 44h196v-44l-74 -9l161 -253l166 253l-72 9l10 44h187v-44l-42 -11q-15 -4 -25 -19l-182 -277l203 -301q5 -8 10 -11.5t14 -5.5l51 -11v-44
h-215z" />
    <glyph glyph-name="afii10040" unicode="&#x426;" horiz-adv-x="769" 
d="M660 -154l-17 141q-3 13 -17 13h-556v44l67 8q11 2 13.5 5t2.5 14v581q0 12 -2.5 15t-13.5 5l-67 8v44h229v-44l-63 -7q-11 -2 -13.5 -5.5t-2.5 -14.5v-597h333v596q0 12 -2.5 15t-13.5 5l-67 8v44h229v-44l-63 -7q-11 -2 -13.5 -5.5t-2.5 -14.5v-597h89v-213z" />
    <glyph glyph-name="afii10041" unicode="&#x427;" horiz-adv-x="725" 
d="M393 48l100 7q11 1 13 4.5t3 15.5v231q-18 -6 -41 -11.5t-48 -9t-50.5 -5.5t-48.5 -2q-46 0 -83 9.5t-62.5 31.5t-39 57.5t-13.5 87.5v189q0 13 -2.5 15.5t-13.5 4.5l-63 7v44h229v-44l-67 -8q-11 -2 -13.5 -5t-2.5 -14v-169q0 -37 6.5 -64.5t22 -45.5t41.5 -27t66 -9
q21 0 46.5 2t51 5.5t48.5 8.5t37 11v288q0 13 -2.5 15.5t-13.5 4.5l-63 7v44h229v-44l-67 -8q-11 -2 -13.5 -5t-2.5 -14v-581q0 -12 2.5 -15t13.5 -5l67 -8v-44h-266v48z" />
    <glyph glyph-name="afii10042" unicode="&#x428;" horiz-adv-x="1063" 
d="M66 44l67 8q11 2 13.5 5t2.5 14v581q0 12 -2.5 15t-13.5 5l-67 8v44h229v-44l-63 -7q-11 -2 -13.5 -5.5t-2.5 -14.5v-597h278v597q0 11 -2.5 15t-13.5 5l-73 7v44h249v-44l-77 -8q-11 -2 -13.5 -5t-2.5 -14v-597h286v596q0 12 -2.5 15t-13.5 5l-67 8v44h229v-44l-63 -7
q-11 -2 -13.5 -5.5t-2.5 -14.5v-582q0 -11 2.5 -15t13.5 -5l63 -7v-44h-927v44z" />
    <glyph glyph-name="afii10043" unicode="&#x429;" horiz-adv-x="1053" 
d="M837 56v596q0 12 -2.5 15t-13.5 5l-67 8v44h229v-44l-63 -7q-11 -2 -13.5 -5.5t-2.5 -14.5v-597h89v-213l-49 3l-17 141q-3 13 -17 13h-844v44l67 8q11 2 13.5 5t2.5 14v581q0 12 -2.5 15t-13.5 5l-67 8v44h229v-44l-63 -7q-11 -2 -13.5 -5.5t-2.5 -14.5v-597h273v597
q0 11 -2.5 15t-13.5 5l-73 7v44h249v-44l-77 -8q-11 -2 -13.5 -5t-2.5 -14v-597h281z" />
    <glyph glyph-name="afii10044" unicode="&#x42a;" horiz-adv-x="749" 
d="M164 44l63 7q11 2 13.5 5.5t2.5 14.5v597h-130q-14 0 -17 -13l-17 -94l-49 -3v166h395v-49l-100 -7q-11 -1 -13 -4.5t-3 -15.5v-222h153q65 0 110 -14.5t73.5 -41.5t41 -65t12.5 -85q0 -56 -18.5 -97.5t-52 -68.5t-80.5 -40.5t-103 -13.5h-281v44zM440 59q41 0 75.5 8
t59.5 26.5t39.5 49t14.5 75.5q0 83 -44 116t-124 33h-152v-308h131z" />
    <glyph glyph-name="afii10045" unicode="&#x42b;" horiz-adv-x="960" 
d="M334 59q40 0 75 7t60.5 25.5t40.5 50t15 80.5q0 75 -44.5 110t-124.5 35h-141v-308h119zM70 724h261v-43l-100 -10q-11 -1 -13 -4.5t-3 -15.5v-225h141q65 0 110 -15t74 -42t42 -63.5t13 -79.5q0 -61 -19 -104t-53 -70t-81 -39.5t-103 -12.5h-269v44l63 7q11 2 13.5 5.5
t2.5 14.5v582q0 12 -2.5 15t-13.5 5l-63 7v44zM645 0v44l73 7q11 2 13.5 5.5t2.5 14.5v582q0 11 -2.5 15t-13.5 5l-73 7v44h249v-44l-77 -8q-11 -2 -13.5 -5t-2.5 -14v-581q0 -12 2.5 -15t13.5 -5l77 -8v-44h-249z" />
    <glyph glyph-name="afii10046" unicode="&#x42c;" horiz-adv-x="665" 
d="M70 724h261v-43l-100 -10q-11 -1 -13 -4.5t-3 -15.5v-225h161q65 0 110 -15t74 -42t42 -63.5t13 -79.5q0 -61 -19 -104t-53 -70t-81 -39.5t-103 -12.5h-289v44l63 7q11 2 13.5 5.5t2.5 14.5v582q0 12 -2.5 15t-13.5 5l-63 7v44zM354 59q40 0 75 7t60.5 25.5t40.5 50
t15 80.5q0 75 -44.5 110t-124.5 35h-161v-308h139z" />
    <glyph glyph-name="afii10047" unicode="&#x42d;" horiz-adv-x="684" 
d="M61 685q39 27 103.5 39.5t133.5 12.5q90 0 153 -27t102.5 -75.5t57.5 -115.5t18 -148q0 -87 -21.5 -157.5t-65 -120.5t-109 -77.5t-154.5 -27.5q-68 0 -127 14.5t-95 38.5v143h51l17 -94q1 -6 3 -10.5t10 -7.5q29 -11 67.5 -18t78.5 -7q122 0 194.5 71t79.5 218h-329v56
h329q-5 146 -71.5 216t-192.5 70q-38 0 -81.5 -5t-75.5 -19q-10 -4 -13 -17l-16 -89h-47v137z" />
    <glyph glyph-name="afii10048" unicode="&#x42e;" horiz-adv-x="1064" 
d="M70 0v44l63 7q11 2 13.5 5.5t2.5 14.5v582q0 11 -2.5 15t-13.5 5l-63 7v44h229v-44l-67 -8q-11 -2 -13.5 -5t-2.5 -14v-251h183q5 73 27.5 134.5t62 106t96 69.5t128.5 25q76 0 131.5 -28t92 -76.5t54.5 -114t18 -140.5q0 -88 -19.5 -160t-58.5 -123t-97 -79t-135 -28
q-76 0 -131.5 26.5t-92.5 74.5t-56 113.5t-21 143.5h-182v-274q0 -12 2.5 -15t13.5 -5l67 -8v-44h-229zM703 47q53 0 96.5 20t75 60t48.5 100t17 141q0 151 -61.5 230.5t-167.5 79.5q-53 0 -97.5 -20.5t-77 -60.5t-50.5 -98.5t-18 -135.5t17 -136t47.5 -99t74 -60.5
t96.5 -20.5z" />
    <glyph glyph-name="afii10049" unicode="&#x42f;" horiz-adv-x="704" 
d="M40 44l67 11q10 2 16 6.5t11 16.5l67 153q17 40 34.5 66t51.5 40v0q-34 4 -64.5 17t-53.5 35.5t-36 55t-13 75.5q0 33 10 69t37 66t75.5 49.5t124.5 19.5h271v-45l-63 -7q-11 -1 -13.5 -5t-2.5 -15v-581q0 -11 2.5 -14.5t13.5 -5.5l63 -7v-44h-229v44l68 8q11 2 13.5 5
t2.5 15v242h-132q-27 0 -41 -11t-28 -37q-9 -18 -23 -47.5t-29.5 -65.5t-32.5 -75.5t-32 -77.5h-135v44zM493 666h-128q-37 0 -69.5 -6.5t-55.5 -23t-36.5 -44.5t-13.5 -70q0 -46 17.5 -75t46 -45.5t65.5 -22.5t76 -6h98v293z" />
    <glyph glyph-name="afii10065" unicode="&#x430;" horiz-adv-x="544" 
d="M387 0l-9 67l-3 1q-40 -37 -84 -58.5t-101 -21.5q-47 0 -74.5 14t-42 34.5t-18.5 43.5t-4 41q0 75 45.5 110t134.5 43l143 13v56q0 32 -4 54.5t-16.5 37.5t-35 22t-58.5 7q-25 0 -46.5 -1.5t-37.5 -9t-25.5 -24t-9.5 -46.5l-64 8q0 44 18.5 70t46 39.5t59.5 17t60 3.5
q51 0 85.5 -8.5t55.5 -28.5t30 -54t9 -85v-274q0 -12 2.5 -15t13.5 -5l52 -7v-44h-122zM374 234l-131 -12q-72 -7 -97 -29t-25 -64q0 -45 21.5 -65t60.5 -20q26 0 50.5 8t47 21t41 30t32.5 35v96z" />
    <glyph glyph-name="afii10066" unicode="&#x431;" horiz-adv-x="563" 
d="M279 -12q-121 0 -172.5 81t-51.5 230q0 88 9 156t37.5 117.5t80.5 81t139 46.5q32 6 50 9t28 7t13.5 9t6.5 14l52 3q2 -34 -6.5 -53t-26.5 -28.5t-45 -13.5t-61 -9q-60 -8 -100 -24.5t-64.5 -45.5t-37 -72.5t-17.5 -106.5v0q23 50 73 81t110 31q57 0 97.5 -17.5t66 -50
t37 -78t11.5 -101.5q0 -59 -13.5 -108t-41 -84t-71 -54.5t-103.5 -19.5zM282 43q79 0 118 52.5t39 151.5q0 103 -35.5 149t-110.5 46q-79 0 -122.5 -53t-43.5 -141q0 -97 37.5 -151t117.5 -54z" />
    <glyph glyph-name="afii10067" unicode="&#x432;" horiz-adv-x="534" 
d="M50 0v45l46 5q8 1 10 3.5t2 10.5v382q0 8 -2 10.5t-10 3.5l-46 5v46h253q47 0 77.5 -10t48.5 -27t25.5 -39.5t7.5 -48.5q0 -50 -27.5 -79t-61.5 -40v-2q63 -7 93 -40t30 -87q0 -39 -14.5 -65.5t-40.5 -42.5t-61.5 -23t-78.5 -7h-251zM293 53q29 0 53 3t42 13t28 27.5
t10 46.5q0 51 -34.5 71.5t-84.5 20.5h-132v-182h118zM274 286q21 0 42.5 3.5t39 13.5t28 27.5t10.5 45.5q0 49 -27.5 65.5t-82.5 16.5h-109v-172h99z" />
    <glyph glyph-name="afii10068" unicode="&#x433;" horiz-adv-x="441" 
d="M50 0v45l46 5q8 1 10 3.5t2 10.5v382q0 8 -2 10.5t-10 3.5l-46 5v46h358v-149l-53 4l-13 85q-1 9 -12 9h-154v-395q0 -8 1.5 -10.5t9.5 -3.5l107 -6v-45h-244z" />
    <glyph glyph-name="afii10069" unicode="&#x434;" horiz-adv-x="574" 
d="M108 0q-9 0 -11 -9l-13 -117l-51 -3v181h48q23 28 39 59t27 70t16 89t5 117v59q0 8 -2 11t-10 4l-51 5v45h419v-45l-48 -6q-8 -1 -10 -4t-2 -11v-393h64v-181l-52 3l-13 117q-3 9 -12 9h-343zM230 395q0 -125 -19 -207t-61 -136h246v408h-166v-65z" />
    <glyph glyph-name="afii10070" unicode="&#x435;" horiz-adv-x="506" 
d="M450 30q-34 -20 -76.5 -31t-95.5 -11q-66 0 -111 21t-72 57.5t-38.5 85.5t-11.5 106q0 67 17 116.5t47 82t70 48.5t86 16q44 0 81 -13t63.5 -41t41.5 -73t15 -109q0 -11 -0.5 -21.5t-1.5 -21.5h-349q1 -43 10.5 -78.5t29.5 -61t51.5 -39.5t76.5 -14q23 0 41.5 2t35 6.5
t32 11.5t33.5 17zM397 296q-1 47 -11.5 78.5t-28.5 51t-41.5 28t-49.5 8.5q-28 0 -54 -8.5t-46 -28t-33 -51t-16 -78.5h280z" />
    <glyph glyph-name="afii10072" unicode="&#x436;" horiz-adv-x="749" 
d="M409 289h40q17 0 28 2.5t20 10t16.5 22.5t16.5 40l32 93q11 35 33.5 49.5t51.5 14.5q9 0 23.5 -2t22.5 -4l-3 -44q-15 3 -25 3q-18 0 -28 -10t-18 -34l-33 -96q-11 -31 -24.5 -46t-29.5 -20q18 -5 30.5 -19t28.5 -45l67 -133q5 -8 9 -12.5t14 -6.5l53 -8v-44h-116
q-11 27 -24.5 55t-27 54t-25 47t-18.5 34q-9 17 -16.5 27t-15.5 15t-18 6.5t-25 1.5h-39v-175q0 -8 2 -10.5t10 -3.5l48 -6v-45h-184v45l49 6q8 1 10 3.5t2 9.5v176h-48q-15 0 -25 -1.5t-18 -6.5t-15.5 -15t-16.5 -27q-7 -13 -18.5 -34t-25 -47t-27 -54t-24.5 -55h-113v44
l53 8q10 2 14 6.5t9 12.5l67 133q16 31 28.5 45t30.5 19q-16 5 -29.5 20.5t-24.5 45.5l-37 96q-9 24 -18.5 34t-27.5 10q-10 0 -25 -3l-3 44q8 2 24 4t28 2q29 0 48.5 -15t32.5 -49l36 -93q10 -25 17.5 -39.5t16 -22.5t20 -10.5t27.5 -2.5h44v145q0 16 -13 20l-47 15l8 42
h115v-222z" />
    <glyph glyph-name="afii10073" unicode="&#x437;" horiz-adv-x="442" 
d="M223 521q76 0 122 -32.5t46 -92.5q0 -51 -29.5 -83.5t-77.5 -45.5v-3q57 -8 90 -38.5t33 -88.5q0 -66 -50.5 -107.5t-147.5 -41.5q-51 0 -103 15t-86 47l36 47q23 -23 62 -38t86 -15q27 0 51.5 5t42.5 16t29 30.5t11 47.5q0 43 -30 65.5t-87 22.5h-88v54h55q63 0 99 27.5
t36 72.5q0 23 -9 38.5t-24 25.5t-34.5 14t-40.5 4q-26 0 -48.5 -4.5t-40.5 -9.5q-10 -4 -12 -13l-12 -65l-50 -3v110q14 8 33.5 15.5t42.5 12.5t47.5 8t47.5 3z" />
    <glyph glyph-name="afii10074" unicode="&#x438;" horiz-adv-x="619" 
d="M386 0v45l46 5q8 1 9.5 3.5t1.5 10.5v358h-4l-251 -422h-138v45l46 5q8 1 10 3.5t2 10.5v383q0 8 -2 10.5t-10 3.5l-46 5v45h186v-45l-49 -6q-8 -1 -9.5 -3t-1.5 -10v-362h4l251 426h141v-45l-49 -6q-8 -1 -10 -3t-2 -10v-382q0 -8 2 -10.5t10 -3.5l49 -6v-45h-186z" />
    <glyph glyph-name="afii10075" unicode="&#x439;" horiz-adv-x="619" 
d="M386 0v45l46 5q8 1 9.5 3.5t1.5 10.5v358h-4l-251 -422h-138v45l46 5q8 1 10 3.5t2 10.5v383q0 8 -2 10.5t-10 3.5l-46 5v45h186v-45l-49 -6q-8 -1 -9.5 -3t-1.5 -10v-362h4l251 426h141v-45l-49 -6q-8 -1 -10 -3t-2 -10v-382q0 -8 2 -10.5t10 -3.5l49 -6v-45h-186z
M328 626q45 0 67.5 27t34.5 71l53 -19q-17 -61 -52.5 -96.5t-104.5 -35.5t-104 35.5t-49 96.5l56 19q9 -42 31.5 -70t67.5 -28z" />
    <glyph glyph-name="afii10076" unicode="&#x43a;" horiz-adv-x="526" 
d="M228 284q17 0 28 2.5t20 10t17 22t18 39.5l40 99q14 33 35 48.5t54 15.5q20 0 42 -6l-2 -47q-6 1 -11 1.5t-10 0.5q-17 0 -29 -8.5t-22 -31.5l-41 -100q-12 -30 -27 -45t-31 -20q18 -5 31.5 -20t29.5 -46l67 -128q5 -8 9 -12.5t14 -6.5l53 -8v-44h-116q-11 27 -24.5 54.5
t-27 52t-25 45t-18.5 33.5q-9 17 -16.5 27t-15.5 15t-18 6.5t-25 1.5h-51v-172q0 -8 1.5 -10t9.5 -3l49 -5v-45h-186v45l46 5q8 1 10 3.5t2 11.5v382q0 8 -2 10.5t-10 3.5l-46 5v45h186v-45l-49 -6q-8 -1 -9.5 -3t-1.5 -10v-163h52z" />
    <glyph glyph-name="afii10077" unicode="&#x43b;" horiz-adv-x="565" 
d="M331 0v45l44 5q8 1 10 4t2 11v395h-164q0 -81 -3.5 -139.5t-8.5 -110.5q-10 -111 -47 -163t-114 -61l-15 59q25 3 44 11.5t33.5 28t24 53t15.5 86.5q2 18 4 44.5t4 56t3.5 61t1.5 60.5q0 8 -1.5 11t-9.5 4l-50 5v45h411v-45l-49 -6q-11 -1 -11 -15v-379q0 -8 1.5 -11
t9.5 -4l49 -6v-45h-184z" />
    <glyph glyph-name="afii10078" unicode="&#x43c;" horiz-adv-x="708" 
d="M459 0v45l60 5q8 1 10 3.5t2 10.5v358h-1l-145 -293h-71l-144 297h-1v-361q0 -8 1.5 -10.5t9.5 -3.5l64 -6v-45h-194v45l46 6q8 1 10 3.5t2 10.5v382q0 8 -2 10.5t-10 3.5l-46 5v45h146l155 -326h1l160 326h146v-45l-47 -5q-8 -1 -11 -4t-3 -15v-378q0 -12 12 -13l49 -6
v-45h-199z" />
    <glyph glyph-name="afii10079" unicode="&#x43d;" horiz-adv-x="622" 
d="M388 0v45l46 5q8 1 10 3.5t2 10.5v174h-270v-173q0 -8 1.5 -10.5t9.5 -3.5l49 -6v-45h-186v45l46 5q8 1 10 4t2 11v382q0 8 -2 10.5t-10 3.5l-46 5v45h186v-45l-46 -6q-14 -1 -14 -14v-155h270v156q0 8 -2 10.5t-10 3.5l-46 5v45h186v-45l-46 -6q-14 -1 -14 -15v-380
q0 -8 1.5 -10.5t9.5 -3.5l49 -6v-45h-186z" />
    <glyph glyph-name="afii10080" unicode="&#x43e;" horiz-adv-x="563" 
d="M279 -12q-62 0 -106.5 20t-73 55.5t-41.5 85t-13 108.5t15 107.5t45 83t76 54t108 19.5t105.5 -19t71 -53.5t40 -81.5t12.5 -103q0 -63 -14 -114t-43.5 -87t-74.5 -55.5t-107 -19.5zM282 43q167 0 167 214q0 103 -39.5 154t-122.5 51q-84 0 -128.5 -51.5t-44.5 -154.5
t42 -158t126 -55z" />
    <glyph glyph-name="afii10081" unicode="&#x43f;" horiz-adv-x="605" 
d="M373 0v44l44 5q8 1 10 4t2 11v395h-253v-395q0 -8 1.5 -10.5t9.5 -3.5l48 -6v-44h-185v44l46 5q8 1 10 3.5t2 10.5v384q0 8 -2 10.5t-10 3.5l-46 5v45h507v-45l-49 -6q-8 -1 -9.5 -3t-1.5 -10v-383q0 -8 1.5 -10.5t9.5 -3.5l49 -6v-44h-184z" />
    <glyph glyph-name="afii10082" unicode="&#x440;" horiz-adv-x="600" 
d="M167 511l8 -60l2 -1q35 26 82.5 48.5t101.5 22.5q85 0 136 -58t51 -187q0 -51 -9 -102t-32.5 -92.5t-64 -67.5t-104.5 -26q-90 0 -155 60v-189q0 -12 2.5 -15.5t13.5 -4.5l90 -7v-44h-231v45l42 6q11 2 13.5 5.5t2.5 14.5v570q0 17 -13 21l-58 19l8 42h114zM482 268
q0 56 -10.5 93.5t-28.5 59.5t-42 31t-51 9q-25 0 -50 -7.5t-47 -18.5t-40 -23.5t-30 -22.5v-269q28 -29 67.5 -51.5t81.5 -22.5t70.5 15.5t46 44t25.5 70t8 92.5z" />
    <glyph glyph-name="afii10083" unicode="&#x441;" horiz-adv-x="486" 
d="M446 27q-26 -17 -71 -28t-93 -11q-63 0 -107.5 19.5t-73.5 54t-42.5 82.5t-13.5 106q0 72 19 123t53.5 84t81.5 48.5t103 15.5q54 0 91 -10.5t51 -16.5v-123l-51 3l-12 66q-1 5 -2.5 8t-8.5 5q-11 4 -32 7t-44 3q-37 0 -70 -11.5t-57 -36.5t-38 -65t-14 -97
q0 -108 48 -156.5t128 -48.5q38 0 71 9.5t58 25.5z" />
    <glyph glyph-name="afii10084" unicode="&#x442;" horiz-adv-x="493" 
d="M126 0v46l74 6q8 1 10.5 3.5t2.5 10.5v394h-112q-10 0 -12 -8l-11 -82h-50v141h438v-141h-49l-12 82q-1 8 -11 8h-113v-395q0 -8 2 -10.5t10 -3.5l80 -5v-46h-247z" />
    <glyph glyph-name="afii10085" unicode="&#x443;" horiz-adv-x="567" 
d="M50 -151q13 -6 32 -10.5t37 -4.5q22 0 36.5 7t25 21t19 33.5t19.5 45.5l29 69l-176 430q-4 9 -8 12t-13 5l-41 10l10 44h190v-44l-68 -8l143 -369v0l149 369l-69 8l10 44h182v-44l-34 -5q-19 -3 -25 -17l-220 -526q-16 -38 -30.5 -64.5t-32.5 -44t-41 -25.5t-55 -8
q-27 0 -48.5 5.5t-40.5 14.5z" />
    <glyph glyph-name="afii10086" unicode="&#x444;" horiz-adv-x="727" 
d="M682 268q0 -62 -14 -112.5t-47 -86.5t-87.5 -57t-136.5 -23v-130q0 -12 2.5 -15.5t13.5 -4.5l68 -7v-44h-231v45l64 6q11 1 13.5 5t2.5 15v129q-84 2 -139 21t-87.5 52.5t-45.5 81t-13 105.5q0 80 24.5 132.5t64 83t91 43.5t105.5 14v152q0 17 -13 21l-61 19l8 42h133
v-233q63 0 115 -12t90 -41t59 -78t21 -123zM615 261q0 66 -16 106.5t-44.5 62.5t-69 29.5t-88.5 8.5v-423q36 1 75 7t70.5 28t52 64.5t20.5 116.5zM113 243q0 -68 21 -107.5t53 -59.5t70 -25.5t73 -6.5v424q-41 -2 -80 -10.5t-69.5 -32.5t-49 -67t-18.5 -115z" />
    <glyph glyph-name="afii10087" unicode="&#x445;" horiz-adv-x="563" 
d="M334 0v44l68 9l-125 163l-126 -163l69 -9v-44h-210v44l56 11q8 2 12.5 5t10.5 11l147 189l-137 179q-6 8 -10.5 11t-13.5 6l-45 11l10 44h188v-44l-67 -8l118 -153l121 153l-67 8l10 44h185v-44l-47 -10q-9 -3 -14 -7t-11 -12l-136 -174l147 -191q7 -8 12 -12t14 -6
l60 -11v-44h-219z" />
    <glyph glyph-name="afii10088" unicode="&#x446;" horiz-adv-x="595" 
d="M502 -125l-13 114q-2 11 -12 11h-427v44l49 6q8 1 10 3.5t2 10.5v381q0 8 -2.5 11t-10.5 5l-48 5v45h185v-45l-44 -5q-13 -1 -13 -16v-393h239v394q0 8 -2.5 10.5t-10.5 4.5l-46 5v45h184v-45l-44 -5q-13 -1 -13 -15v-394h67v-181z" />
    <glyph glyph-name="afii10089" unicode="&#x447;" horiz-adv-x="554" 
d="M285 47l78 6q8 1 10.5 3.5t2.5 11.5v140q-13 -4 -30 -7t-35.5 -5.5t-37 -3.5t-33.5 -1q-77 0 -113 32.5t-36 99.5v125q0 8 -2 10.5t-10 3.5l-44 5v44h181v-44l-44 -6q-8 -1 -10.5 -4t-2.5 -11v-109q0 -47 18.5 -69.5t73.5 -22.5q13 0 30.5 1t35 3t33.5 5t26 7v186
q0 8 -1.5 11t-9.5 4l-42 5v44h181v-44l-47 -6q-8 -1 -10.5 -4t-2.5 -11v-381q0 -8 2.5 -11t10.5 -4l47 -5v-45h-219v47z" />
    <glyph glyph-name="afii10090" unicode="&#x448;" horiz-adv-x="811" 
d="M47 45l49 6q8 1 10 3.5t2 10.5v382q0 8 -2 10t-10 4l-49 5v45h182v-45l-42 -5q-8 -1 -10 -3.5t-2 -10.5v-395h193v395q0 8 -2 10.5t-10 3.5l-48 5v45h189v-45l-50 -5q-8 -1 -9.5 -3.5t-1.5 -10.5v-395h197v394q0 8 -2 10.5t-10 4.5l-44 5v45h181v-45l-46 -5
q-8 -1 -9.5 -3.5t-1.5 -10.5v-384q0 -7 1.5 -9t9.5 -3l47 -6v-45h-712v45z" />
    <glyph glyph-name="afii10091" unicode="&#x449;" horiz-adv-x="804" 
d="M47 45l49 6q8 1 10 3.5t2 10.5v382q0 8 -2 10t-10 4l-49 5v45h182v-45l-42 -5q-8 -1 -10 -3.5t-2 -10.5v-395h189v395q0 8 -1.5 10.5t-9.5 3.5l-48 5v45h189v-45l-50 -5q-8 -1 -10 -3.5t-2 -10.5v-395h194v394q0 8 -2 10.5t-10 4.5l-44 5v45h181v-45l-46 -5
q-8 -1 -9.5 -3.5t-1.5 -10.5v-395h67v-181l-50 4l-13 116q-1 9 -12 9h-639v45z" />
    <glyph glyph-name="afii10092" unicode="&#x44a;" horiz-adv-x="569" 
d="M129 45l47 6q11 1 11 12v397h-81q-8 0 -11 -3t-5 -11l-10 -79l-51 -3v147h309v-47l-74 -5q-7 -1 -8.5 -3.5t-1.5 -9.5v-141h106q95 0 133 -39t38 -107q0 -42 -14 -72t-39 -49.5t-59.5 -28.5t-75.5 -9h-214v45zM336 53q54 0 89.5 22.5t35.5 81.5q0 32 -10 51t-28.5 28.5
t-44.5 12t-59 2.5h-65v-198h82z" />
    <glyph glyph-name="afii10093" unicode="&#x44b;" horiz-adv-x="721" 
d="M108 448q0 8 -2 10t-9 3l-48 5v45h210v-45l-72 -6q-7 -1 -9.5 -2.5t-2.5 -9.5v-145h99q31 0 62 -6.5t55.5 -22.5t39.5 -44t15 -70q0 -40 -14 -70t-39.5 -50t-60.5 -30t-76 -10h-206v44l50 6q8 1 8 11v387zM475 0v45l53 5q8 1 10 3.5t2 10.5v383q0 8 -2 10.5t-10 3.5
l-53 5v45h201v-45l-57 -6q-8 -1 -9.5 -3t-1.5 -11v-381q0 -8 1.5 -10.5t9.5 -3.5l57 -6v-45h-201zM249 53q57 0 91.5 22.5t34.5 79.5q0 30 -10 49t-27.5 29.5t-41 14t-51.5 3.5h-70v-198h74z" />
    <glyph glyph-name="afii10094" unicode="&#x44c;" horiz-adv-x="496" 
d="M108 448q0 8 -2 10t-9 3l-48 5v45h210v-45l-72 -6q-7 -1 -9.5 -2.5t-2.5 -9.5v-145h112q31 0 62 -6.5t55.5 -22.5t39.5 -44t15 -70q0 -40 -14 -70t-39.5 -50t-60.5 -30t-76 -10h-219v44l50 6q8 1 8 11v387zM262 53q57 0 91.5 22.5t34.5 79.5q0 30 -10 49t-27.5 29.5
t-41 14t-51.5 3.5h-83v-198h87z" />
    <glyph glyph-name="afii10095" unicode="&#x44d;" horiz-adv-x="535" 
d="M187 285h231q-7 90 -52 135t-124 45q-28 0 -56 -4.5t-48 -14.5q-5 -2 -6 -5t-3 -10l-11 -63h-48v114q29 17 77 28t102 11q64 0 109.5 -18.5t75 -52.5t43 -81t13.5 -103q0 -59 -15.5 -110t-47.5 -88.5t-81 -58.5t-116 -21q-31 0 -59 5t-51.5 13t-41 17t-27.5 18l30 54
q22 -16 60.5 -32.5t89.5 -16.5q81 0 130.5 47t56.5 136h-231v56z" />
    <glyph glyph-name="afii10096" unicode="&#x44e;" horiz-adv-x="775" 
d="M511 -12q-54 0 -93 17.5t-64.5 49t-39 76t-16.5 97.5h-122v-163q0 -8 1.5 -10.5t9.5 -3.5l57 -6v-45h-201v45l53 5q8 1 10 3.5t2 10.5v383q0 8 -2 10.5t-10 3.5l-53 5v45h201v-45l-57 -6q-8 -1 -9.5 -3t-1.5 -11v-165h121q3 54 18.5 98t43.5 75.5t69 49t95 17.5
q57 0 96.5 -19t64 -53.5t35.5 -81.5t11 -103q0 -63 -12.5 -114t-39 -87t-68 -55.5t-99.5 -19.5zM515 44q72 0 110 53.5t38 159.5q0 205 -144 205q-72 0 -113.5 -51.5t-41.5 -154.5t39.5 -157.5t111.5 -54.5z" />
    <glyph glyph-name="afii10097" unicode="&#x44f;" horiz-adv-x="568" 
d="M396 458h-120q-25 0 -46 -4.5t-36.5 -15t-24.5 -28.5t-9 -45q0 -30 11.5 -48.5t30 -29t43 -14.5t50.5 -4h101v189zM31 45l52 9q10 2 13 5.5t9 16.5l41 90q12 26 25 44t38 28v0q-49 7 -84 38t-35 90q0 40 14 67.5t38.5 45t58 25t71.5 7.5h249v-45l-48 -5q-7 -1 -8.5 -3.5
t-1.5 -10.5v-386q0 -10 9 -11l49 -6v-44h-184v44l49 6q5 1 7.5 2.5t2.5 9.5v155h-122q-20 0 -29.5 -7.5t-18.5 -26.5q-7 -15 -17 -36t-21 -45t-22 -50.5t-22 -51.5h-113v45z" />
    <glyph glyph-name="afii10071" unicode="&#x451;" horiz-adv-x="506" 
d="M450 30q-34 -20 -76.5 -31t-95.5 -11q-66 0 -111 21t-72 57.5t-38.5 85.5t-11.5 106q0 67 17 116.5t47 82t70 48.5t86 16q44 0 81 -13t63.5 -41t41.5 -73t15 -109q0 -11 -0.5 -21.5t-1.5 -21.5h-349q1 -43 10.5 -78.5t29.5 -61t51.5 -39.5t76.5 -14q23 0 41.5 2t35 6.5
t32 11.5t33.5 17zM397 296q-1 47 -11.5 78.5t-28.5 51t-41.5 28t-49.5 8.5q-28 0 -54 -8.5t-46 -28t-33 -51t-16 -78.5h280zM215 658q0 -23 -13.5 -36t-36.5 -13t-36.5 13t-13.5 36t13.5 36t36.5 13t36.5 -13t13.5 -36zM414 658q0 -23 -13.5 -36t-36.5 -13t-36.5 13
t-13.5 36t13.5 36t36.5 13t36.5 -13t13.5 -36z" />
    <glyph glyph-name="afii10099" unicode="&#x452;" horiz-adv-x="601" 
d="M233 -151q23 -8 43.5 -12t37.5 -4q46 0 76 25t47.5 72t24.5 113.5t7 150.5q0 77 -8 125t-23 75t-36.5 36.5t-48.5 9.5t-52.5 -7.5t-47.5 -18.5t-40 -23.5t-30 -23.5v-296q0 -12 2.5 -15t13.5 -5l60 -7v-44h-211v45l52 6q11 2 13.5 5.5t2.5 14.5v505h-70v56h70v41
q0 17 -13 21l-61 19l8 42h133v-123h194v-56h-194v-145v0q16 12 35.5 24t42 22.5t49 17t55.5 6.5q37 0 68.5 -12.5t54 -47t35.5 -95t13 -157.5q0 -76 -8 -150t-31.5 -132.5t-65.5 -94t-110 -35.5q-23 0 -51 4.5t-54 14.5z" />
    <glyph glyph-name="afii10100" unicode="&#x453;" horiz-adv-x="441" 
d="M160 569l-32 32l155 160l52 -53zM50 0v45l46 5q8 1 10 3.5t2 10.5v382q0 8 -2 10.5t-10 3.5l-46 5v46h358v-149l-53 4l-13 85q-1 9 -12 9h-154v-395q0 -8 1.5 -10.5t9.5 -3.5l107 -6v-45h-244z" />
    <glyph glyph-name="afii10101" unicode="&#x454;" horiz-adv-x="509" 
d="M349 230h-232q6 -91 50.5 -138.5t129.5 -47.5q40 0 79.5 14.5t65.5 35.5l32 -50q-37 -28 -84 -42t-97 -14q-66 0 -113 20t-77 55.5t-44 83.5t-14 104q0 59 16.5 108.5t49.5 85.5t82.5 56t114.5 20q48 0 90.5 -10.5t69.5 -28.5v-117l-51 2l-11 64q-2 7 -3.5 11t-9.5 6
q-15 6 -38 10.5t-51 4.5q-81 0 -130.5 -44t-56.5 -133h232v-56z" />
    <glyph glyph-name="afii10102" unicode="&#x455;" horiz-adv-x="449" 
d="M342 374l-12 66q-1 5 -2.5 8t-8.5 5q-11 4 -33.5 8t-49.5 4q-63 0 -90 -25t-27 -60q0 -24 10.5 -39t28 -25.5t40.5 -17.5t48 -13q29 -7 58 -16.5t52 -25.5t37.5 -41.5t14.5 -64.5q0 -42 -16.5 -71t-43.5 -46t-62 -24.5t-71 -7.5q-29 0 -57.5 3.5t-52.5 9t-41 11t-24 9.5
v123l51 -3l12 -66q1 -5 2.5 -8t8.5 -5q11 -4 38.5 -11t69.5 -7q55 0 88 21t33 66q0 24 -10 40t-27 26.5t-39 17.5t-46 13q-30 7 -59.5 15.5t-53 24t-38.5 40t-15 64.5q0 41 16 69.5t42.5 46t61 25.5t71.5 8q52 0 92.5 -10.5t54.5 -16.5v-123z" />
    <glyph glyph-name="afii10103" unicode="&#x456;" horiz-adv-x="289" 
d="M190 688q0 -26 -14 -39.5t-40 -13.5t-40 13.5t-14 39.5t14 39.5t40 13.5t40 -13.5t14 -39.5zM28 0v45l72 6q11 2 13.5 5.5t2.5 14.5v358q0 17 -13 21l-58 19l8 42h130v-440q0 -12 2.5 -15t13.5 -5l70 -7v-44h-241z" />
    <glyph glyph-name="afii10104" unicode="&#x457;" horiz-adv-x="309" 
d="M14 687q0 23 13.5 36t36.5 13t36.5 -13t13.5 -36t-13.5 -36t-36.5 -13t-36.5 13t-13.5 36zM163 687q0 23 13.5 36t36.5 13t36.5 -13t13.5 -36t-13.5 -36t-36.5 -13t-36.5 13t-13.5 36zM38 0v45l72 6q11 2 13.5 5.5t2.5 14.5v358q0 17 -13 21l-58 19l8 42h130v-440
q0 -12 2.5 -15t13.5 -5l70 -7v-44h-241z" />
    <glyph glyph-name="afii10105" unicode="&#x458;" horiz-adv-x="275" 
d="M114 429q0 11 -2 15t-10 6l-68 19l8 42h139v-581q0 -77 -31 -115t-101 -38q-41 0 -75 11t-54 28l33 49q14 -11 38.5 -21t52.5 -10q45 0 57.5 28.5t12.5 82.5v484zM190 688q0 -26 -14 -39.5t-40 -13.5t-40 13.5t-14 39.5t14 39.5t40 13.5t40 -13.5t14 -39.5z" />
    <glyph glyph-name="afii10106" unicode="&#x459;" horiz-adv-x="755" 
d="M103 511h424v-45l-72 -6q-7 -1 -9.5 -2.5t-2.5 -9.5v-145h112q31 0 62 -6.5t55.5 -22.5t39.5 -44t15 -70q0 -40 -14 -70t-39.5 -50t-60.5 -30t-76 -10h-219v44l50 6q8 1 8 11v399h-154q2 -75 -2.5 -136.5t-9.5 -113.5q-10 -111 -47 -163t-114 -61l-14 59q24 5 43.5 13.5
t33.5 27.5t23.5 52t15.5 86q2 18 4 44.5t4 56t3.5 61t1.5 60.5q0 8 -1.5 11t-9.5 4l-50 5v45zM530 53q57 0 91.5 22.5t34.5 79.5q0 30 -10 49t-27.5 29.5t-41 14t-51.5 3.5h-83v-198h87z" />
    <glyph glyph-name="afii10107" unicode="&#x45a;" horiz-adv-x="795" 
d="M358 0v45l46 5q8 1 10 3.5t2 10.5v171h-240v-170q0 -8 1.5 -10.5t9.5 -3.5l49 -6v-45h-186v45l46 5q8 1 10 4t2 11v382q0 8 -2 10.5t-10 3.5l-46 5v45h186v-45l-46 -6q-14 -1 -14 -14v-158h240v161q0 11 -12 12l-46 5v45h209v-45l-72 -6q-7 -1 -9.5 -2.5t-2.5 -9.5v-160
h96q33 0 65 -5.5t57 -20.5t40.5 -41.5t15.5 -68.5q0 -40 -14 -69t-39.5 -47.5t-60.5 -27t-76 -8.5h-209zM560 53q27 0 50 4t40 14.5t26.5 29t9.5 46.5q0 30 -10 48t-29 27t-45.5 11.5t-59.5 2.5h-59v-183h77z" />
    <glyph glyph-name="afii10108" unicode="&#x45b;" horiz-adv-x="632" 
d="M391 0v45l52 6q11 2 13.5 5t2.5 14v224q0 75 -24 110.5t-78 35.5q-27 0 -53.5 -8t-49.5 -19t-41.5 -24t-29.5 -24v-294q0 -12 2.5 -15t13.5 -5l60 -7v-44h-211v45l52 6q11 2 13.5 5.5t2.5 14.5v505h-70v56h70v41q0 17 -13 21l-61 19l8 42h133v-123h194v-56h-194v-145
q40 29 83.5 49.5t102.5 20.5q78 0 117.5 -43.5t39.5 -146.5v-240q0 -12 2.5 -15t13.5 -5l60 -7v-44h-211z" />
    <glyph glyph-name="afii10109" unicode="&#x45c;" horiz-adv-x="526" 
d="M246 569l-32 32l155 160l52 -53zM228 284q17 0 28 2.5t20 10t17 22t18 39.5l40 99q14 33 35 48.5t54 15.5q20 0 42 -6l-2 -47q-6 1 -11 1.5t-10 0.5q-17 0 -29 -8.5t-22 -31.5l-41 -100q-12 -30 -27 -45t-31 -20q18 -5 31.5 -20t29.5 -46l67 -128q5 -8 9 -12.5t14 -6.5
l53 -8v-44h-116q-11 27 -24.5 54.5t-27 52t-25 45t-18.5 33.5q-9 17 -16.5 27t-15.5 15t-18 6.5t-25 1.5h-51v-172q0 -8 1.5 -10t9.5 -3l49 -5v-45h-186v45l46 5q8 1 10 3.5t2 11.5v382q0 8 -2 10.5t-10 3.5l-46 5v45h186v-45l-49 -6q-8 -1 -9.5 -3t-1.5 -10v-163h52z" />
    <glyph glyph-name="afii10110" unicode="&#x45e;" horiz-adv-x="567" 
d="M50 -151q13 -6 32 -10.5t37 -4.5q22 0 36.5 7t25 21t19 33.5t19.5 45.5l29 69l-176 430q-4 9 -8 12t-13 5l-41 10l10 44h190v-44l-68 -8l143 -369v0l149 369l-69 8l10 44h182v-44l-34 -5q-19 -3 -25 -17l-220 -526q-16 -38 -30.5 -64.5t-32.5 -44t-41 -25.5t-55 -8
q-27 0 -48.5 5.5t-40.5 14.5zM300 626q45 0 67.5 27t34.5 71l53 -19q-17 -61 -52.5 -96.5t-104.5 -35.5t-104 35.5t-49 96.5l56 19q9 -42 31.5 -70t67.5 -28z" />
    <glyph glyph-name="afii10193" unicode="&#x45f;" horiz-adv-x="579" 
d="M50 0v39l47 6q8 1 9.5 3.5t1.5 10.5v393q0 8 -1.5 10.5t-9.5 3.5l-47 5v39h185v-39l-47 -5q-8 -1 -10 -3.5t-2 -10.5v-400h228v400q0 8 -2 10.5t-10 3.5l-45 5v39h185v-39l-49 -5q-8 -1 -9.5 -3.5t-1.5 -10.5v-393q0 -8 1.5 -10.5t9.5 -3.5l49 -6v-39h-196q-8 0 -10 -9
l-11 -120l-41 3l-14 117q-1 9 -10 9h-200z" />
    <glyph glyph-name="afii10050" unicode="&#x490;" horiz-adv-x="532" 
d="M70 0v44l63 7q11 2 13.5 5.5t2.5 14.5v581q0 11 -2.5 15t-13.5 5l-63 7v45h358q16 0 17 13l18 96l49 3v-168h-296v-596q0 -12 2.5 -15t13.5 -5l147 -8v-44h-309z" />
    <glyph glyph-name="afii10098" unicode="&#x491;" horiz-adv-x="411" 
d="M50 0v39l46 5q8 1 10 3.5t2 10.5v393q0 8 -2 11t-10 3l-46 5v40h267q11 0 12 9l13 66l49 4v-130h-215v-400q0 -8 1.5 -10.5t9.5 -3.5l107 -6v-39h-244z" />
    <glyph glyph-name="thinspace" unicode="&#x2009;" horiz-adv-x="125" 
 />
    <glyph glyph-name="endash" unicode="&#x2013;" horiz-adv-x="499" 
d="M0 255v54h499v-54h-499z" />
    <glyph glyph-name="emdash" unicode="&#x2014;" horiz-adv-x="1000" 
d="M0 255v54h999v-54h-999z" />
    <glyph glyph-name="quoteleft" unicode="&#x2018;" horiz-adv-x="177" 
d="M132 559q-40 2 -63.5 11.5t-23.5 42.5q0 11 4 20.5t9 20.5l53 101l36 -14l-29 -94q-1 -6 5 -9l29 -13z" />
    <glyph glyph-name="quoteright" unicode="&#x2019;" horiz-adv-x="177" 
d="M30 573l29 94q1 6 -5 9l-29 13l20 66q40 -2 63.5 -11.5t23.5 -42.5q0 -11 -4 -20.5t-9 -20.5l-53 -101z" />
    <glyph glyph-name="quotesinglbase" unicode="&#x201a;" horiz-adv-x="166" 
d="M39 -103l29 94q1 6 -5 9l-29 13l20 66q40 -2 63.5 -11.5t23.5 -42.5q0 -20 -13 -41l-53 -101z" />
    <glyph glyph-name="quotedblleft" unicode="&#x201c;" horiz-adv-x="320" 
d="M275 559q-40 2 -63.5 11.5t-23.5 42.5q0 11 4 20.5t9 20.5l53 101l36 -14l-29 -94q-1 -6 5 -9l29 -13zM132 559q-40 2 -63.5 11.5t-23.5 42.5q0 11 4 20.5t9 20.5l53 101l36 -14l-29 -94q-1 -6 5 -9l29 -13z" />
    <glyph glyph-name="quotedblright" unicode="&#x201d;" horiz-adv-x="320" 
d="M173 573l29 94q1 6 -5 9l-29 13l20 66q40 -2 63.5 -11.5t23.5 -42.5q0 -11 -4 -20.5t-9 -20.5l-53 -101zM30 573l29 94q1 6 -5 9l-29 13l20 66q40 -2 63.5 -11.5t23.5 -42.5q0 -11 -4 -20.5t-9 -20.5l-53 -101z" />
    <glyph glyph-name="quotedblbase" unicode="&#x201e;" horiz-adv-x="309" 
d="M39 -103l29 94q1 6 -5 9l-29 13l20 66q40 -2 63.5 -11.5t23.5 -42.5q0 -20 -13 -41l-53 -101zM182 -103l29 94q1 6 -5 9l-29 13l20 66q40 -2 63.5 -11.5t23.5 -42.5q0 -20 -13 -41l-53 -101z" />
    <glyph glyph-name="dagger" unicode="&#x2020;" horiz-adv-x="389" 
d="M166 -83v192l-13 211l25 112h33l25 -112l-13 -212v-191h-57zM178 432l-84 -15h-74v63h74l84 -15v-33zM163 561v84h63v-84l-15 -96h-33zM295 417l-84 15v33l84 15h74v-63h-74z" />
    <glyph glyph-name="daggerdbl" unicode="&#x2021;" horiz-adv-x="409" 
d="M188 130l-25 116v78l25 108h33l25 -108v-78l-25 -116h-33zM305 82l-84 15v33l84 15h74v-63h-74zM188 465l-15 96v84h63v-84l-15 -96h-33zM104 417h-74v63h74l84 -15v-33zM173 -83v84l15 96h33l15 -96v-84h-63zM104 82h-74v63h74l84 -15v-33zM305 417l-84 15v33l84 15h74
v-63h-74z" />
    <glyph glyph-name="bullet" unicode="&#x2022;" horiz-adv-x="365" 
d="M314 280q0 -65 -34.5 -97t-97.5 -32t-97 32t-34 97t34 97t97 32t97.5 -32t34.5 -97z" />
    <glyph glyph-name="ellipsis" unicode="&#x2026;" horiz-adv-x="549" 
d="M340 45q0 -57 -58 -57t-58 57t58 57t58 -57zM157 45q0 -57 -58 -57t-58 57t58 57t58 -57zM523 45q0 -57 -58 -57t-58 57t58 57t58 -57z" />
    <glyph glyph-name="perthousand" unicode="&#x2030;" horiz-adv-x="1059" 
d="M187 295q-39 0 -65.5 13t-42 34.5t-22.5 50.5t-7 60q0 73 36.5 120t107.5 47q74 0 105.5 -43.5t31.5 -114.5q0 -75 -36 -121t-108 -46zM146 -17l377 638h65l-376 -638h-66zM190 345q24 0 39.5 9t24.5 24.5t12.5 36t3.5 44.5q0 22 -3.5 42t-12 35t-23.5 24t-38 9
q-24 0 -39.5 -10.5t-25 -27t-13 -36.5t-3.5 -39q0 -22 3.5 -42t12 -35.5t23.5 -24.5t39 -9zM542 -12q-39 0 -65.5 13t-42 34.5t-22.5 50.5t-7 60q0 73 36.5 120t107.5 47q74 0 105.5 -43.5t31.5 -114.5q0 -75 -36 -121t-108 -46zM545 38q24 0 39.5 9t24.5 24.5t12.5 36
t3.5 44.5q0 22 -3.5 42t-12 35t-23.5 24t-38 9q-24 0 -39.5 -10.5t-25 -27t-13 -36.5t-3.5 -39q0 -22 3.5 -42t12 -35.5t23.5 -24.5t39 -9zM865 -12q-39 0 -65.5 13t-42 34.5t-22.5 50.5t-7 60q0 73 36.5 120t107.5 47q74 0 105.5 -43.5t31.5 -114.5q0 -75 -36 -121
t-108 -46zM868 38q24 0 39.5 9t24.5 24.5t12.5 36t3.5 44.5q0 22 -3.5 42t-12 35t-23.5 24t-38 9q-24 0 -39.5 -10.5t-25 -27t-13 -36.5t-3.5 -39q0 -22 3.5 -42t12 -35.5t23.5 -24.5t39 -9z" />
    <glyph glyph-name="guilsinglleft" unicode="&#x2039;" horiz-adv-x="278" 
d="M153 103l-88 157l89 148h66l-73 -136q-4 -7 -4 -10t3 -9l73 -150h-66z" />
    <glyph glyph-name="guilsinglright" unicode="&#x203a;" horiz-adv-x="278" 
d="M58 103l73 141q4 7 4 10t-3 9l-73 145h66l88 -153l-89 -152h-66z" />
    <glyph glyph-name="fraction" unicode="&#x2044;" horiz-adv-x="134" 
d="M-147 -12l356 736h63l-355 -736h-64z" />
    <glyph glyph-name="Euro" unicode="&#x20ac;" horiz-adv-x="520" 
d="M155 223q32 -177 179 -177q23 0 46 3t34 8q8 3 10.5 7.5t3.5 10.5l12 72l48 4v-134q-16 -7 -58 -18t-96 -11q-214 0 -249 235h-79l10 56h64q-1 9 -1 18.5v20.5v15t1 15h-54l10 56h49q10 62 34 107.5t58 75t76.5 44t90.5 14.5q52 0 90 -11t56 -19v-135l-48 4l-13 73
q-1 6 -3 10t-10 7q-11 5 -32 8t-47 3q-70 0 -119.5 -44t-65.5 -137h221l-10 -56h-216v-21v-25t1 -23h205l-10 -56h-188z" />
    <glyph glyph-name="afii61352" unicode="&#x2116;" horiz-adv-x="1114" 
d="M540 0l-324 540v-468q0 -12 2.5 -15t13.5 -5l67 -8v-44h-229v44l63 7q11 2 13.5 5.5t2.5 14.5v484q0 11 -2.5 14.5t-13.5 5.5l-63 7v45h176l312 -530v458q0 11 -2.5 14.5t-13.5 5.5l-63 7v44h228v-44l-67 -8q-11 -2 -13.5 -5t-2.5 -14v-555h-84zM710 168h308v-55h-308v55
zM862 213q-42 0 -72.5 13t-49.5 36t-28 54.5t-9 69.5q0 76 40 123t125 47q42 0 71.5 -12.5t48.5 -34t27.5 -52t8.5 -66.5q0 -81 -38.5 -129.5t-123.5 -48.5zM864 257q99 0 99 129q0 64 -23.5 94t-72.5 30q-50 0 -77 -30t-27 -94q0 -129 101 -129z" />
    <glyph glyph-name="trademark" unicode="&#x2122;" horiz-adv-x="823" 
d="M91 348v33l62 5v294h-90l-10 -55h-33v99h319v-99h-33l-9 55h-92v-294l67 -5v-33h-181zM659 348v32l50 5v237l-103 -193h-40l-101 194v-238l53 -5v-32h-145v32l42 5v299l-42 5v35h95l120 -239l123 239h90v-35l-43 -5v-299l45 -5v-32h-144z" />
    <glyph glyph-name="partialdiff" unicode="&#x2202;" horiz-adv-x="546" 
d="M415 339q3 29 3 67q0 35 -5.5 72t-21 67t-42.5 49.5t-69 19.5t-83 -15.5t-70 -34.5l-30 46q38 26 87.5 44t98.5 18q63 0 102.5 -25t61.5 -65t30 -90t8 -100q0 -38 -3.5 -83t-13.5 -90t-27.5 -86.5t-45 -73.5t-66.5 -51.5t-92 -19.5q-96 0 -141.5 53t-45.5 137
q0 50 13.5 92.5t39 74t62.5 49t84 17.5q57 0 98.5 -23t67.5 -49zM412 276q-10 11 -25.5 24.5t-36 25t-45 19.5t-51.5 8q-38 0 -64 -15t-41.5 -39.5t-22.5 -55t-7 -61.5q0 -60 29 -99t89 -39q50 0 82 24t51 59.5t28.5 76t13.5 72.5z" />
    <glyph glyph-name="product" unicode="&#x220f;" horiz-adv-x="766" 
d="M490 -176v44l63 7q11 2 13.5 5.5t2.5 14.5v773h-372v-772q0 -12 2.5 -15t13.5 -5l67 -8v-44h-229v44l63 7q11 2 13.5 5.5t2.5 14.5v758q0 11 -2.5 14.5t-13.5 5.5l-63 7v44h668v-44l-67 -8q-11 -2 -13.5 -5t-2.5 -14v-757q0 -12 2.5 -15t13.5 -5l67 -8v-44h-229z" />
    <glyph glyph-name="summation" unicode="&#x2211;" horiz-adv-x="627" 
d="M28 -176v46l236 411l-216 396v47h520v-150l-51 3l-14 78q-3 13 -17 13h-357l208 -388l-232 -400h383q8 0 11 1.5t5 9.5l16 87h50v-154h-542z" />
    <glyph glyph-name="minus" unicode="&#x2212;" 
d="M99 288v66h373v-66h-373z" />
    <glyph glyph-name="radical" unicode="&#x221a;" 
d="M265 0l-133 235q-3 5 -6.5 7.5t-11.5 0.5l-62 -20l-19 45l122 58l140 -244l179 661l62 -15l-194 -728h-77z" />
    <glyph glyph-name="infinity" unicode="&#x221e;" horiz-adv-x="671" 
d="M336 278q-12 -13 -27.5 -29t-35 -29.5t-43 -22.5t-51.5 -9q-24 0 -47 8t-41 24t-29.5 40.5t-11.5 57.5q0 60 39 97.5t99 37.5q26 0 48 -8t40.5 -20.5t34.5 -28t31 -31.5q14 14 29 29.5t33.5 28.5t40.5 21.5t49 8.5q26 0 49 -8t40 -24.5t27.5 -42t10.5 -60.5
q0 -28 -10 -52t-28 -41t-42 -27t-52 -10q-29 0 -51.5 8.5t-41 22t-33 29.5t-27.5 30zM304 323q-25 30 -52.5 52.5t-65.5 22.5q-32 0 -51.5 -23t-19.5 -52q0 -14 3.5 -28.5t12 -26t21.5 -19t31 -7.5q20 0 38 9t33 21.5t28 26.5t22 24zM376 320q12 -13 24 -27t25 -24.5
t28.5 -17.5t33.5 -7q32 0 50.5 24.5t18.5 53.5q0 14 -3.5 27.5t-11 24.5t-20.5 18t-31 7q-17 0 -32 -7t-29 -18t-27 -25.5t-26 -28.5z" />
    <glyph glyph-name="integral" unicode="&#x222b;" horiz-adv-x="414" 
d="M65 -111q37 -19 77 -19q29 0 48 15.5t16 55.5l-55 651q-3 38 7.5 63.5t29 41.5t43.5 23t51 7q29 0 51 -5.5t42 -13.5l-18 -60q-37 19 -77 19q-29 0 -48 -16.5t-16 -54.5l55 -650q3 -38 -7 -64t-29 -42t-44 -22.5t-51 -6.5q-29 0 -51 5.5t-42 13.5z" />
    <glyph glyph-name="approxequal" unicode="&#x2248;" 
d="M502 495q-5 -21 -11.5 -39t-17 -31.5t-26 -21.5t-38.5 -8q-27 0 -58 7t-61.5 16t-58.5 16t-50 7q-24 0 -38.5 -13.5t-32.5 -41.5l-42 18q20 42 44 68.5t67 26.5q29 0 58.5 -7t58 -16t56 -16t51.5 -7q25 0 35 14t20 42zM501 320q-5 -21 -11.5 -39t-17 -31.5t-26 -21.5
t-38.5 -8q-27 0 -58 7t-61.5 16t-58.5 16t-50 7q-24 0 -38.5 -13.5t-32.5 -41.5l-42 18q20 42 44 68.5t67 26.5q29 0 58.5 -7t58 -16t56 -16t51.5 -7q25 0 35 14t20 42z" />
    <glyph glyph-name="notequal" unicode="&#x2260;" 
d="M229 240l41 83h-169v69h203l50 100h68l-50 -100h98v-69h-132l-41 -83h173v-69h-207l-49 -99h-68l49 99h-94v69h128z" />
    <glyph glyph-name="lessequal" unicode="&#x2264;" 
d="M89 246v84l365 159l24 -64l-325 -136l329 -130l-20 -61zM90 0v66h373v-66h-373z" />
    <glyph glyph-name="greaterequal" unicode="&#x2265;" 
d="M108 98l-20 61l329 130l-325 136l24 64l365 -159v-84zM107 0v66h373v-66h-373z" />
    <glyph glyph-name="lozenge" unicode="&#x25ca;" 
d="M255 -17l-157 324l157 324h60l157 -324l-157 -324h-60zM406 307l-121 251l-121 -251l121 -252z" />
    <glyph glyph-name="breve.cyr" horiz-adv-x="500" 
d="M250 626q45 0 67.5 27t34.5 71l53 -19q-17 -61 -52.5 -96.5t-104.5 -35.5t-104 35.5t-49 96.5l56 19q9 -42 31.5 -70t67.5 -28z" />
    <glyph glyph-name="hyphen.case" horiz-adv-x="311" 
d="M20 315v74h271v-74h-271z" />
    </font>
</defs>
</svg>
