<?xml version="1.0" standalone="no"?>
<!DOCTYPE svg PUBLIC "-//W3C//DTD SVG 1.1//EN" "http://www.w3.org/Graphics/SVG/1.1/DTD/svg11.dtd" >
<svg xmlns="http://www.w3.org/2000/svg" xmlns:xlink="http://www.w3.org/1999/xlink" version="1.1">
<metadata>
Created by FontForge 20170731 at Wed May 14 19:51:06 2014
 By ,,,
Copyright (c) 2010 by TypeTogether. All rights reserved.This font is ONLY licensed for use when accessed from the Extensis WebINK font service. Any other use of this font file is illegal under United States and international copyright laws. Please respect the rights of the people who design and license fonts.
</metadata>
<defs>
<font id="AdelleCyrillic-LightItalic" horiz-adv-x="500" >
  <font-face 
    font-family="Adelle Cyrillic"
    font-weight="300"
    font-style="italic"
    font-stretch="normal"
    units-per-em="1000"
    panose-1="2 0 5 3 0 0 0 9 0 4"
    ascent="755"
    descent="-245"
    x-height="511"
    cap-height="724"
    bbox="-159 -228 1063 935"
    underline-thickness="50"
    underline-position="-200"
    unicode-range="U+000D-25CA"
  />
<missing-glyph 
 />
    <glyph glyph-name=".notdef" 
 />
    <glyph glyph-name=".null" horiz-adv-x="0" 
 />
    <glyph glyph-name="nonmarkingreturn" unicode="&#xd;" 
 />
    <glyph glyph-name="NULL" horiz-adv-x="0" 
 />
    <glyph glyph-name="NULL" horiz-adv-x="0" 
 />
    <glyph glyph-name="space" unicode=" " horiz-adv-x="230" 
 />
    <glyph glyph-name="exclam" unicode="!" horiz-adv-x="256" 
d="M102 183l41 379l23 162h77l-23 -162l-63 -379h-55zM169 55q0 -67 -67 -67q-24 0 -37.5 12t-13.5 35q0 33 17.5 50t49.5 17q51 0 51 -47z" />
    <glyph glyph-name="quotedbl" unicode="&#x22;" horiz-adv-x="356" 
d="M244 447l37 259h72l-37 -259h-72zM86 447l37 259h72l-37 -259h-72z" />
    <glyph glyph-name="numbersign" unicode="#" horiz-adv-x="607" 
d="M401 146l-42 -146h-59l42 146h-135l-42 -146h-59l41 146h-121l20 52h117l48 162h-121l20 53h117l37 130h60l-38 -130h133l37 130h60l-38 -130h121l-19 -53h-118l-46 -162h119l-18 -52h-116zM403 360h-133l-48 -162h135z" />
    <glyph glyph-name="dollar" unicode="$" horiz-adv-x="511" 
d="M340 626q52 -2 92.5 -13.5t59.5 -19.5l-19 -147l-48 5l-5 82q-1 8 -2.5 12t-9.5 8q-15 7 -33 10.5t-43 4.5l-32 -235q27 -10 52.5 -21.5t45.5 -28t32 -40t12 -58.5q0 -80 -48.5 -126.5t-139.5 -56.5l-11 -82h-53l10 80q-31 0 -60 4.5t-53.5 10.5t-43 12.5t-28.5 11.5
l19 133h48l10 -80q2 -10 4.5 -14t13.5 -8q16 -5 39.5 -9t58.5 -5l31 234q-27 9 -53 20.5t-47 28t-33.5 41.5t-12.5 61q0 44 15.5 76.5t42 55t61 35t73.5 16.5l11 73h54zM160 454q0 -42 25.5 -64.5t62.5 -37.5l29 213q-56 -8 -86.5 -37t-30.5 -74zM376 172q0 42 -25 63.5
t-60 35.5l-29 -213q62 8 88 39t26 75z" />
    <glyph glyph-name="percent" unicode="%" horiz-adv-x="856" 
d="M215 257q-39 0 -65 12t-42.5 32.5t-23.5 47t-7 55.5q0 46 12.5 85.5t36.5 68.5t59 45.5t81 16.5q72 0 104 -40t32 -106q0 -47 -12.5 -87t-36 -69t-58.5 -45t-80 -16zM170 -17l466 638h65l-465 -638h-66zM221 310q42 0 65 19.5t34 46t13.5 53.5t2.5 43q0 41 -16 68t-61 27
q-34 0 -57 -15t-36 -37.5t-18.5 -50t-5.5 -53.5q0 -20 3.5 -38t12.5 -32t24.5 -22.5t38.5 -8.5zM612 -12q-39 0 -65 12t-42.5 32.5t-23.5 47t-7 55.5q0 46 12.5 85.5t36.5 68.5t59 45.5t81 16.5q72 0 104 -40t32 -106q0 -47 -12.5 -87t-36 -69t-58.5 -45t-80 -16zM618 41
q42 0 65 19.5t34 46t13.5 53.5t2.5 43q0 41 -16 68t-61 27q-34 0 -57 -15t-36 -37.5t-18.5 -50t-5.5 -53.5q0 -20 3.5 -38t12.5 -32t24.5 -22.5t38.5 -8.5z" />
    <glyph glyph-name="ampersand" unicode="&#x26;" horiz-adv-x="679" 
d="M586 322q-17 -1 -18 -14l-37 -264q-82 -56 -220 -56q-122 0 -178.5 45.5t-56.5 123.5q0 71 40 120t114 70q-16 6 -32.5 17t-29.5 27t-21 38t-8 51q0 42 16.5 77.5t46.5 61t72.5 39.5t94.5 14q30 0 58 -4.5t52 -11t43 -14.5t29 -15l-20 -126l-50 3l-4 74q0 6 -2 11t-10 8
q-18 8 -45 11.5t-47 3.5q-24 0 -52.5 -4.5t-53 -18.5t-41 -39.5t-16.5 -66.5q0 -51 33.5 -80t92.5 -29h62l-8 -58q-23 0 -44.5 -1t-41.5 -4q-34 -5 -62 -15t-48 -27t-31.5 -41.5t-11.5 -58.5q0 -38 13 -62t35 -37.5t51.5 -18.5t63.5 -5q53 0 87.5 8t53.5 16q16 6 17 21
l39 275l8 5h115l-7 -45z" />
    <glyph glyph-name="quotesingle" unicode="'" horiz-adv-x="198" 
d="M86 447l37 259h72l-37 -259h-72z" />
    <glyph glyph-name="parenleft" unicode="(" horiz-adv-x="296" 
d="M154 -152q-35 69 -61.5 159t-26.5 196q0 82 20 155.5t51.5 139t70.5 122t78 103.5l46 -32q-48 -66 -85 -124t-62 -116t-38 -118t-13 -130q0 -99 23.5 -177.5t53.5 -148.5z" />
    <glyph glyph-name="parenright" unicode=")" horiz-adv-x="291" 
d="M-28 -120q48 66 85 124t62 116t38 118t13 130q0 99 -23.5 177.5t-53.5 148.5l57 29q35 -69 61.5 -159t26.5 -196q0 -82 -19.5 -155.5t-51 -139t-71 -122t-78.5 -103.5z" />
    <glyph glyph-name="asterisk" unicode="*" horiz-adv-x="469" 
d="M115 442l47 47l88 69l-101 20l-57 22l30 59l57 -21l84 -50v104l9 63h63l-9 -63l-30 -104h-33l-13 -30l27 -20l-69 -89l-48 -49zM353 402l-34 47l-42 89l25 19l-6 31l99 50l62 21l14 -59l-63 -22l-106 -21l67 -70l34 -48z" />
    <glyph glyph-name="plus" unicode="+" horiz-adv-x="570" 
d="M234 131l22 157h-152l9 66h152l22 154h69l-22 -154h152l-9 -66h-152l-22 -157h-69z" />
    <glyph glyph-name="comma" unicode="," horiz-adv-x="188" 
d="M5 -102l46 104q3 7 -4 10l-30 14l32 73q40 -2 64.5 -10.5t24.5 -37.5q0 -15 -6 -29t-15 -28l-75 -111z" />
    <glyph glyph-name="hyphen" unicode="-" horiz-adv-x="311" 
d="M23 255l11 74h271l-11 -74h-271z" />
    <glyph glyph-name="period" unicode="." horiz-adv-x="208" 
d="M146 57q0 -29 -16.5 -49t-50.5 -20q-24 0 -37.5 11t-13.5 33q0 32 17.5 51t49.5 19q51 0 51 -45z" />
    <glyph glyph-name="slash" unicode="/" horiz-adv-x="362" 
d="M-28 -92l387 823h63l-387 -823h-63z" />
    <glyph glyph-name="zero" unicode="0" horiz-adv-x="541" 
d="M508 288q-7 -59 -23.5 -113.5t-47 -96t-78 -66t-118.5 -24.5q-57 0 -94.5 17t-60 46t-31.5 67t-9 81q0 21 1 42.5t4 43.5q8 59 26.5 112.5t51 94t81 65t116.5 24.5q54 0 90 -17t57.5 -45.5t31 -67t9.5 -80.5q0 -41 -6 -83zM245 44q47 0 81 18t57.5 49.5t37 76t20.5 96.5
q6 44 6 81q0 35 -6.5 63.5t-21.5 49.5t-40 32.5t-62 11.5q-47 0 -81.5 -17t-58 -48.5t-38 -76.5t-22.5 -101q-2 -19 -3 -36.5t-1 -34.5q0 -35 6.5 -65t21.5 -52t40.5 -34.5t63.5 -12.5z" />
    <glyph glyph-name="one" unicode="1" horiz-adv-x="345" 
d="M2 0l6 42l103 7q9 1 11.5 5t4.5 15l58 418q2 12 -1 15.5t-11 5.5l-91 17l7 41h172l-69 -497q-2 -12 0.5 -15.5t13.5 -4.5l86 -8l-6 -41h-284z" />
    <glyph glyph-name="two" unicode="2" horiz-adv-x="472" 
d="M10 0l7 50l174 153q43 38 76.5 66.5t57 55t35.5 53.5t12 60q0 41 -26.5 63.5t-86.5 22.5q-33 0 -57 -4t-40.5 -16t-25.5 -33.5t-13 -56.5l-63 9q6 53 26 84t48.5 47.5t63.5 21.5t70 5q92 0 130.5 -38t38.5 -101q0 -45 -18.5 -82t-48 -70.5t-66 -64t-72.5 -61.5l-127 -108
h229q8 0 11.5 1.5t5.5 9.5l28 87h49l-22 -154h-396z" />
    <glyph glyph-name="three" unicode="3" horiz-adv-x="467" 
d="M301 261q46 -11 77.5 -44.5t31.5 -94.5q0 -44 -14.5 -81.5t-43.5 -65t-71.5 -43t-99.5 -15.5q-69 0 -120 26t-74 59l47 45q24 -30 60.5 -49.5t91.5 -19.5q29 0 56.5 6.5t49.5 23t35.5 44t13.5 68.5q0 56 -34.5 84t-99.5 28q-29 0 -68 -6l7 57l62 6q80 8 120 47t40 97
q0 41 -24 66t-81 25q-33 0 -57 -4.5t-40.5 -16.5t-26 -33.5t-13.5 -55.5l-64 8q4 51 24 82t49 48t64 23t70 6q46 0 78 -10.5t52 -29t29 -44t9 -55.5q0 -61 -34.5 -107.5t-101.5 -69.5v-4z" />
    <glyph glyph-name="four" unicode="4" horiz-adv-x="482" 
d="M279 -67l21 151h-280l8 53l289 433l48 -32l-261 -395h205l27 209l67 9l-30 -218h89l-8 -59h-91l-19 -151h-65z" />
    <glyph glyph-name="five" unicode="5" horiz-adv-x="485" 
d="M184 508l-46 -214q28 17 61 28t70 11q79 0 124.5 -44t45.5 -130q0 -51 -17 -95t-48.5 -76.5t-77 -51.5t-102.5 -19q-70 0 -121.5 23t-80.5 61l48 45q29 -35 66.5 -52.5t86.5 -17.5q31 0 62.5 10t57 31.5t41.5 55t16 80.5q0 35 -9.5 58.5t-25.5 37.5t-37 20.5t-43 6.5
q-45 0 -77.5 -16t-58.5 -34l-50 24l64 316h332l-7 -58h-274z" />
    <glyph glyph-name="six" unicode="6" horiz-adv-x="525" 
d="M471 537q-26 25 -53 36.5t-62 11.5q-55 0 -94 -27t-63.5 -66t-37.5 -82.5t-18 -76.5q14 11 33.5 23.5t42.5 22.5t50 16.5t56 6.5q79 0 115.5 -45.5t36.5 -117.5q0 -55 -14.5 -101t-43.5 -79.5t-71.5 -52t-98.5 -18.5q-52 0 -87 19t-56 52t-29.5 78t-8.5 98q0 34 5.5 77.5
t19 89t35 89.5t53.5 78t75.5 55t99.5 21q40 0 82 -13.5t74 -46.5zM139 267q-1 -11 -1.5 -23t-0.5 -27q0 -28 4.5 -59t17 -56.5t36 -42t61.5 -16.5q71 0 111.5 48t40.5 139q0 55 -23 84.5t-75 29.5q-27 0 -52.5 -8.5t-48 -20.5t-41 -25t-29.5 -23z" />
    <glyph glyph-name="seven" unicode="7" horiz-adv-x="485" 
d="M116 -67q22 102 57.5 189.5t76.5 160t84 129t81 96.5h-259q-8 0 -11.5 -1.5t-5.5 -9.5l-30 -93l-45 -3l21 165h419l-7 -50q-46 -42 -95.5 -110t-93 -147.5t-76 -164.5t-45.5 -161h-71z" />
    <glyph glyph-name="eight" unicode="8" horiz-adv-x="483" 
d="M346 329q39 -24 67.5 -57.5t28.5 -89.5q0 -47 -17.5 -83t-49 -61t-74 -37.5t-93.5 -12.5q-38 0 -70.5 9.5t-56 27.5t-36.5 44.5t-13 61.5q0 36 12.5 66.5t33.5 57t48.5 49t57.5 42.5q-33 20 -56 50.5t-23 75.5q0 42 17 74.5t45.5 54.5t64.5 33t74 11q83 0 123.5 -37
t40.5 -90q0 -29 -11.5 -56.5t-29.5 -51.5t-40 -44.5t-43 -36.5zM236 318q-65 -42 -100 -84.5t-35 -91.5q0 -47 33.5 -72t90.5 -25q32 0 59 9.5t47 27t31.5 41t11.5 50.5t-10.5 47.5t-28.5 37t-43.5 31t-55.5 29.5zM294 355q43 33 75 71.5t32 84.5q0 22 -8.5 37t-22.5 24
t-33 12.5t-39 3.5q-25 0 -47.5 -6.5t-39.5 -19.5t-27 -32t-10 -44q0 -24 8.5 -42t24 -33t38 -28t49.5 -28z" />
    <glyph glyph-name="nine" unicode="9" horiz-adv-x="515" 
d="M68 32q26 -25 57.5 -40t68.5 -15q57 0 94.5 27t60.5 66t34.5 82.5t15.5 76.5q-31 -26 -77.5 -47.5t-106.5 -21.5q-39 0 -68 12.5t-47.5 34.5t-27.5 52.5t-9 66.5q0 55 15 102t44 81t71.5 53t98.5 19q52 0 86.5 -19t55.5 -52t29.5 -78t8.5 -98q0 -34 -4.5 -78t-16 -90.5
t-31.5 -91t-51 -79.5t-74 -56.5t-101 -21.5q-40 0 -87 15t-80 52zM401 295q2 11 2 23.5v33.5q0 29 -4 59.5t-17 56t-36.5 42t-61.5 16.5q-70 0 -111 -50t-41 -141q0 -55 23 -86t75 -31q27 0 52.5 8t48 19.5t40.5 25t30 24.5z" />
    <glyph glyph-name="colon" unicode=":" horiz-adv-x="210" 
d="M203 451q0 -29 -16.5 -49t-50.5 -20q-24 0 -37.5 11t-13.5 33q0 32 17.5 51t49.5 19q51 0 51 -45zM148 57q0 -29 -16.5 -49t-50.5 -20q-24 0 -37.5 11t-13.5 33q0 32 17.5 51t49.5 19q51 0 51 -45z" />
    <glyph glyph-name="semicolon" unicode=";" horiz-adv-x="188" 
d="M5 -102l46 104q3 7 -4 10l-30 14l32 73q40 -2 64.5 -10.5t24.5 -37.5q0 -15 -6 -29t-15 -28l-75 -111zM199 451q0 -29 -16.5 -49t-50.5 -20q-24 0 -37.5 11t-13.5 33q0 32 17.5 51t49.5 19q51 0 51 -45z" />
    <glyph glyph-name="less" unicode="&#x3c;" horiz-adv-x="570" 
d="M111 246l12 84l387 159l15 -64l-344 -136l311 -130l-29 -61z" />
    <glyph glyph-name="equal" unicode="=" horiz-adv-x="570" 
d="M95 171l9 69h369l-9 -69h-369zM116 323l10 69h369l-10 -69h-369z" />
    <glyph glyph-name="greater" unicode="&#x3e;" horiz-adv-x="570" 
d="M79 98l-8 65l347 130l-306 136l30 60l343 -159l-12 -84z" />
    <glyph glyph-name="question" unicode="?" horiz-adv-x="457" 
d="M150 182l24 175q47 5 90.5 17t76.5 34.5t53 58.5t20 89q0 112 -130 112q-34 0 -58 -3.5t-36 -8.5q-7 -2 -9 -6t-5 -12l-22 -66l-51 -3l17 123q8 3 24.5 8.5t39 10.5t50 9t56.5 4q43 0 78.5 -8.5t61 -28t39.5 -51t14 -77.5q0 -58 -19.5 -101t-53 -73t-79 -48.5
t-97.5 -27.5l-17 -127h-67zM223 55q0 -67 -67 -67q-24 0 -37.5 12t-13.5 35q0 33 17.5 50t49.5 17q51 0 51 -47z" />
    <glyph glyph-name="at" unicode="@" horiz-adv-x="824" 
d="M560 -139q-23 -11 -75 -23t-127 -12q-71 0 -129 17t-99.5 53t-64 91.5t-22.5 132.5q0 97 36 179t97 142t142.5 93.5t172.5 33.5q67 0 121.5 -17.5t93.5 -50.5t60 -81.5t21 -111.5q0 -23 -3 -50t-10 -55.5t-17 -57t-25 -52.5q-33 -56 -79 -80t-99 -24t-73 22t-18 54
q-35 -29 -71.5 -52.5t-78.5 -23.5q-89 0 -89 100q0 42 14.5 92.5t40.5 92.5q34 56 85.5 90t114.5 34q35 0 69.5 -9.5t57.5 -22.5l-62 -203q-1 -4 -4.5 -16t-6.5 -25t-5.5 -24.5t-2.5 -16.5q0 -20 11 -30t38 -10q30 0 56.5 21t46.5 56t31.5 81t11.5 95q0 114 -64 166.5
t-179 52.5q-79 0 -146 -30.5t-115.5 -83t-76 -124t-27.5 -152.5q0 -121 66 -180t196 -59q45 0 90 8.5t86 22.5zM529 325q-12 9 -29.5 13.5t-36.5 4.5q-28 0 -58.5 -19t-55.5 -50.5t-41 -73.5t-16 -89q0 -25 6.5 -42.5t34.5 -17.5q15 0 34 7.5t37.5 18.5t36 25.5t30.5 27.5z
" />
    <glyph glyph-name="A" unicode="A" horiz-adv-x="681" 
d="M432 0l6 37l86 9l-35 187h-286l-86 -187l77 -9l-6 -37h-203l6 37l42 11q12 3 19 9.5t11 14.5l303 652h89l133 -659q3 -13 21 -17l43 -11l-6 -37h-214zM403 671l-173 -379h248z" />
    <glyph glyph-name="B" unicode="B" horiz-adv-x="645" 
d="M42 0l5 38l62 7q11 2 14 5.5t5 14.5l82 592q2 11 -0.5 15t-12.5 5l-61 8l6 39h277q55 0 91.5 -11.5t58.5 -32t31.5 -48.5t9.5 -60q0 -43 -12.5 -76t-33.5 -56t-47 -38t-53 -23l-1 -4q71 -8 108 -49.5t37 -104.5t-21.5 -105t-59.5 -68t-91.5 -37t-117.5 -11h-276zM321 59
q46 0 86 5.5t69.5 22t46.5 48t17 83.5q0 33 -12 56t-33 38t-50 22t-63 7h-152l-38 -282h129zM344 399q33 0 68 7t63.5 25t46.5 50t18 83q0 58 -35.5 80t-109.5 22h-120l-36 -267h105z" />
    <glyph glyph-name="C" unicode="C" horiz-adv-x="659" 
d="M589 40q-42 -27 -106.5 -39.5t-132.5 -12.5q-76 0 -130 23t-88.5 64.5t-50.5 98.5t-16 124q0 95 26 175.5t77.5 139t127 91.5t174.5 33q66 0 120 -14.5t86 -38.5l-20 -146l-50 3l-4 94q0 6 -1 10.5t-9 7.5q-26 11 -59 18t-72 7q-70 0 -130 -25t-103.5 -72.5t-68 -117
t-24.5 -158.5q0 -126 56.5 -192.5t171.5 -66.5q38 0 80.5 5.5t75.5 19.5q10 4 14 17l29 89h46z" />
    <glyph glyph-name="D" unicode="D" horiz-adv-x="757" 
d="M42 0l6 40l62 7q9 1 12 4t5 14l83 593q2 11 -0.5 15t-12.5 5l-61 7l6 39h283q81 0 139 -21t96 -60t56 -93.5t18 -120.5q0 -93 -25 -172t-77 -136t-131.5 -89t-188.5 -32h-270zM321 57q83 0 147 25t107.5 72t66 116t22.5 156q0 69 -18.5 115t-52 74.5t-81 40.5t-106.5 12
h-129l-84 -611h128z" />
    <glyph glyph-name="E" unicode="E" horiz-adv-x="614" 
d="M43 0l4 39l63 7q11 2 13.5 5.5t4.5 14.5l82 591q2 11 0 15t-13 5l-60 7l5 40h480l-21 -150l-45 3l-3 78q-1 13 -15 13h-261l-37 -274h274l-8 -56h-274l-39 -282h282q8 0 11.5 1.5t5.5 9.5l28 87h45l-21 -154h-501z" />
    <glyph glyph-name="F" unicode="F" horiz-adv-x="589" 
d="M44 0l5 39l62 7q11 2 13.5 5.5t4.5 14.5l81 591q2 11 0 15t-13 5l-60 7l6 40h476l-21 -150l-45 3l-3 78q-1 13 -15 13h-257l-37 -271h270l-8 -56h-270l-38 -274q-2 -12 0 -15.5t13 -4.5l143 -8l-5 -39h-302z" />
    <glyph glyph-name="G" unicode="G" horiz-adv-x="714" 
d="M666 283q-17 -1 -18 -14l-33 -243q-22 -10 -50.5 -17.5t-59.5 -12t-62.5 -6.5t-61.5 -2q-85 0 -145.5 23.5t-98.5 65.5t-55.5 99.5t-17.5 124.5q0 92 26 172t77 138.5t126.5 92t174.5 33.5q66 0 121 -14.5t87 -38.5l-19 -146l-50 3l-4 94q0 6 -1 10.5t-9 7.5
q-26 11 -63 18t-76 7q-70 0 -129 -25t-102 -72t-66.5 -115.5t-23.5 -155.5q0 -134 65 -198.5t188 -64.5q42 0 85.5 5t70.5 13q5 2 9.5 5t6.5 12l26 195h-143l18 55h255l-7 -45z" />
    <glyph glyph-name="H" unicode="H" horiz-adv-x="788" 
d="M473 0l6 39l62 7q11 2 13.5 5.5t4.5 14.5l39 280h-364l-40 -279q-2 -12 0 -15t13 -5l65 -8l-6 -39h-224l5 39l63 7q11 2 13.5 5.5t4.5 14.5l83 592q2 11 0 15t-13 5l-60 7l5 39h224l-5 -39l-67 -8q-11 -2 -13.5 -5t-4.5 -14l-35 -256h364l36 256q2 11 0 15t-12 5l-61 7
l4 39h224l-4 -39l-66 -8q-11 -2 -14 -5t-5 -14l-82 -591q-2 -12 0 -15t12 -5l65 -8l-6 -39h-224z" />
    <glyph glyph-name="I" unicode="I" horiz-adv-x="357" 
d="M33 0l4 39l73 7q11 1 13.5 5t4.5 15l83 592q2 11 0 15t-13 5l-70 7l4 39h244l-4 -39l-77 -8q-11 -2 -13.5 -5t-4.5 -14l-83 -591q-2 -12 0 -15t13 -5l74 -8l-4 -39h-244z" />
    <glyph glyph-name="J" unicode="J" horiz-adv-x="478" 
d="M352 659q2 11 -0.5 14.5t-12.5 4.5l-81 7l5 39h245l-5 -39l-67 -8q-11 -2 -13.5 -4.5t-4.5 -13.5l-73 -518q-10 -78 -49 -115.5t-124 -37.5q-56 0 -95.5 12.5t-51.5 21.5l16 122l46 -3v-72q0 -5 1.5 -8t8.5 -6q8 -4 29 -8.5t52 -4.5q54 0 74.5 26.5t28.5 80.5z" />
    <glyph glyph-name="K" unicode="K" horiz-adv-x="698" 
d="M541 0l-4 4l-63 110l-155 247l-95 -90l-30 -204q-2 -12 0 -15t13 -5l68 -8l-6 -39h-224l5 39l60 7q10 2 13 5t5 16l83 591q2 11 0 15t-13 5l-60 7l6 39h224l-6 -39l-67 -8q-11 -2 -13.5 -5t-4.5 -14l-44 -303l332 321l-56 8l6 40h206l-6 -39l-54 -10q-14 -2 -19 -5
t-13 -11l-259 -250l212 -344q5 -7 10 -10.5t16 -5.5l58 -10l-6 -39h-119z" />
    <glyph glyph-name="L" unicode="L" horiz-adv-x="597" 
d="M44 0l5 39l61 7q11 2 13.5 5.5t4.5 14.5l83 591q2 11 0 15t-13 5l-60 7l5 40h240l-5 -40l-83 -8q-11 -1 -13.5 -4.5t-4.5 -14.5l-85 -601h284q8 0 11.5 1.5t5.5 9.5l28 87h45l-21 -154h-501z" />
    <glyph glyph-name="M" unicode="M" horiz-adv-x="915" 
d="M582 0l4 39l85 7q9 1 12 5t5 15l76 546l-274 -431h-63l-156 435l-78 -549q-2 -12 0 -15.5t13 -4.5l86 -8l-4 -39h-244l4 39l63 7q11 2 13.5 6t4.5 15l82 590q2 11 0 15t-13 5l-60 7l5 40h159l165 -476l295 476h163l-5 -39l-67 -8q-11 -2 -14 -6t-5 -18l-82 -587
q-2 -10 1 -13.5t13 -5.5l65 -8l-5 -39h-244z" />
    <glyph glyph-name="N" unicode="N" horiz-adv-x="816" 
d="M563 0l-288 646l-81 -579q-2 -12 0 -15t13 -5l65 -8l-4 -39h-224l3 39l63 7q11 2 13.5 5.5t4.5 14.5l83 591q2 11 0 14.5t-13 5.5l-60 7l5 40h170l281 -641l78 575q2 11 0 14.5t-13 5.5l-61 7l5 39h224l-5 -39l-67 -8q-11 -2 -14 -5t-5 -14l-91 -658h-82z" />
    <glyph glyph-name="O" unicode="O" horiz-adv-x="750" 
d="M346 -12q-73 0 -127 22.5t-88.5 62.5t-51.5 95t-17 121q0 97 25.5 179t75 142t122.5 93.5t168 33.5q72 0 124.5 -22.5t86.5 -62t50 -92.5t16 -115q0 -107 -26.5 -191.5t-76.5 -143.5t-121 -90.5t-160 -31.5zM354 47q64 0 120 24.5t97.5 73t65.5 121t24 167.5
q0 57 -14 104q-20 69 -71 105t-131 36q-65 0 -122 -24.5t-99.5 -72.5t-67 -119t-24.5 -164q0 -59 14 -107q21 -70 72.5 -107t135.5 -37z" />
    <glyph glyph-name="P" unicode="P" horiz-adv-x="641" 
d="M42 0l5 39l63 7q11 2 14 5.5t5 14.5l82 592q2 11 -0.5 15t-13.5 5l-60 7l5 39h287q59 0 99.5 -14t66 -38.5t36.5 -57.5t11 -71q0 -71 -21 -121.5t-60.5 -83t-95.5 -47.5t-126 -15h-117l-29 -209q-1 -12 1 -15.5t12 -4.5l139 -8l-5 -39h-298zM340 333q48 0 90.5 8t74 30
t50 62.5t18.5 104.5q0 66 -40.5 98t-127.5 32h-129l-46 -335h110z" />
    <glyph glyph-name="Q" unicode="Q" horiz-adv-x="750" 
d="M645 -131q-31 -3 -57 -3q-68 0 -113 15.5t-78 34t-59.5 34t-58.5 15.5q-20 0 -43.5 -7.5t-53.5 -24.5l-26 45q18 11 36.5 18.5t35.5 12.5v2q-89 35 -127.5 108t-38.5 170t25.5 179t75 142t122.5 93.5t168 33.5q72 0 124.5 -22.5t86.5 -62t50 -92.5t16 -115
q0 -101 -23 -182.5t-68 -139.5t-111 -90.5t-152 -35.5v-2q56 -32 105 -51.5t110 -19.5q14 0 28 1t30 3zM352 47q64 0 120.5 24.5t98.5 73t66 121t24 167.5q0 57 -14 104q-20 69 -71 105t-131 36q-65 0 -122 -24.5t-99.5 -72.5t-67 -119t-24.5 -164q0 -59 14 -107
q21 -70 71.5 -107t134.5 -37z" />
    <glyph glyph-name="R" unicode="R" horiz-adv-x="655" 
d="M498 0l-5 5l-70 262q-6 23 -19 35t-39 12h-136l-36 -247q-2 -12 0 -15t13 -5l68 -8l-6 -39h-224l5 39l61 7q11 2 13.5 5.5t4.5 15.5l83 590q2 11 0 15t-13 5l-60 7l5 40h282q57 0 95.5 -14t61.5 -37.5t32.5 -55t9.5 -66.5q0 -72 -40 -129.5t-132 -88.5q23 -13 32 -35.5
t17 -53.5l45 -176q3 -12 9.5 -14.5t17.5 -4.5l59 -10l-6 -39h-128zM342 373q45 0 84 10t67.5 31t44.5 54t16 78q0 37 -12 60t-35.5 36.5t-59 18.5t-83.5 5h-87l-40 -293h105z" />
    <glyph glyph-name="S" unicode="S" horiz-adv-x="562" 
d="M490 549l-4 93q0 5 -1.5 10t-9.5 9q-11 6 -32 10.5t-63 4.5q-37 0 -70.5 -7.5t-59 -24.5t-40.5 -44.5t-15 -66.5q0 -30 10.5 -50.5t29.5 -35.5t44 -25.5t54 -21.5q32 -12 63 -25t56.5 -33.5t41 -51t15.5 -76.5q0 -62 -22 -105t-59.5 -70t-88 -39t-107.5 -12q-34 0 -66 4
t-58.5 9.5t-46.5 12t-29 11.5l20 151h48l6 -91q1 -8 3 -11t10 -7q15 -8 45 -14t78 -6q91 0 143 38.5t52 119.5q0 32 -11 53.5t-29 37t-41.5 26t-49.5 19.5q-32 12 -64.5 24t-59 32t-43 50t-16.5 78q0 55 21.5 95t58 66t84.5 38.5t100 12.5q66 0 110 -12.5t65 -20.5l-23 -160
z" />
    <glyph glyph-name="T" unicode="T" horiz-adv-x="619" 
d="M135 0l6 40l99 7q10 1 13 5t5 15l84 601h-175q-8 0 -11.5 -1.5t-5.5 -9.5l-27 -87h-45l20 154h571l-21 -154h-45l-4 87q-1 8 -3.5 9.5t-10.5 1.5h-177l-84 -601q-2 -11 0 -14.5t13 -4.5l109 -8l-6 -40h-305z" />
    <glyph glyph-name="U" unicode="U" horiz-adv-x="768" 
d="M630 658q1 11 -0.5 15t-12.5 5l-61 7l6 39h224l-6 -39l-66 -8q-11 -2 -14 -5t-5 -14l-58 -425q-17 -129 -85.5 -187t-196.5 -58q-116 0 -167.5 48.5t-51.5 142.5q0 14 1 28t3 29l56 422q2 11 0 15t-12 5l-61 7l6 39h224l-6 -39l-66 -8q-11 -2 -14 -5t-5 -14l-57 -418
q-2 -14 -3 -28t-1 -25q0 -40 11 -67t32 -43t51.5 -23t68.5 -7q45 0 80.5 9.5t61.5 32t43 59t24 90.5z" />
    <glyph glyph-name="V" unicode="V" horiz-adv-x="662" 
d="M266 0l-129 657q-2 9 -7.5 12t-13.5 5l-43 11l7 39h211l-5 -39l-83 -9l114 -619l275 619l-78 9l7 39h206l-6 -39l-42 -11q-11 -3 -18.5 -9t-13.5 -19l-291 -646h-90z" />
    <glyph glyph-name="W" unicode="W" horiz-adv-x="937" 
d="M586 0l-73 493l-212 -493h-78l-79 656q-1 10 -4.5 13.5t-11.5 5.5l-60 10l8 39h230l-6 -39l-90 -10l65 -592l208 490h80l74 -502l227 604l-87 10l6 39h225l-6 -39l-54 -9q-9 -2 -14.5 -6.5t-10.5 -17.5l-251 -652h-86z" />
    <glyph glyph-name="X" unicode="X" horiz-adv-x="656" 
d="M400 0l6 39l74 9l-140 273l-207 -273l69 -9l-6 -39h-204l4 37l49 11q16 4 28 19l231 308l-140 282q-4 8 -8.5 11.5t-12.5 5.5l-40 11l6 39h196l-6 -39l-73 -9l124 -257l196 257l-69 9l7 39h195l-6 -39l-42 -11q-17 -4 -28 -19l-218 -284l159 -304q4 -8 8.5 -11.5
t12.5 -5.5l49 -11l-6 -39h-208z" />
    <glyph glyph-name="Y" unicode="Y" horiz-adv-x="584" 
d="M133 0l5 39l93 7q10 1 12.5 5t4.5 16l30 217l-146 373q-5 8 -9 11t-12 6l-43 11l6 39h200l-6 -39l-73 -9l123 -329l209 329l-71 9l6 39h196l-6 -39l-42 -11q-11 -3 -16.5 -7.5t-11.5 -13.5l-238 -366l-29 -220q-2 -12 0 -15.5t13 -4.5l93 -8l-5 -39h-283z" />
    <glyph glyph-name="Z" unicode="Z" horiz-adv-x="620" 
d="M24 0l6 46l505 622h-324q-8 0 -11.5 -1.5t-5.5 -9.5l-31 -93l-49 -3l23 163h492l-6 -48l-506 -620h353q8 0 12 1.5t6 9.5l33 107h48l-23 -174h-522z" />
    <glyph glyph-name="bracketleft" unicode="[" horiz-adv-x="254" 
d="M47 -143l122 867h145l-5 -39l-68 -8q-11 -2 -14 -5t-5 -14l-103 -733q-2 -11 0 -14.5t13 -5.5l66 -8l-6 -40h-145z" />
    <glyph glyph-name="backslash" unicode="\" horiz-adv-x="353" 
d="M256 -92l-157 823h60l158 -823h-61z" />
    <glyph glyph-name="bracketright" unicode="]" horiz-adv-x="243" 
d="M-36 -143l5 39l68 8q11 2 14 5t5 14l103 733q2 11 0 14.5t-13 5.5l-66 8l6 40h145l-122 -867h-145z" />
    <glyph glyph-name="asciicircum" unicode="^" horiz-adv-x="526" 
d="M442 299l-126 303l-207 -303h-69l248 365h69l149 -365h-64z" />
    <glyph glyph-name="underscore" unicode="_" 
d="M-25 -181l7 52h499l-7 -52h-499z" />
    <glyph glyph-name="grave" unicode="`" 
d="M400 569l-155 139l59 53l133 -160z" />
    <glyph glyph-name="a" unicode="a" horiz-adv-x="570" 
d="M378 0l13 94l-3 1q-42 -43 -88.5 -75t-105.5 -32q-71 0 -110 45.5t-39 141.5q0 59 13 120t42 111.5t77 82.5t118 32q44 0 81.5 -17.5t62.5 -38.5l15 46h66q-8 -29 -14.5 -58.5t-11.5 -60.5l-46 -326q-2 -12 0.5 -15t13.5 -5l50 -7l-6 -39h-128zM430 402q-21 22 -59 41.5
t-82 19.5q-51 0 -85.5 -27.5t-55 -69.5t-29.5 -91t-9 -93q0 -77 27.5 -106t70.5 -29q26 0 51.5 12.5t50 31.5t47 42t41.5 44z" />
    <glyph glyph-name="b" unicode="b" horiz-adv-x="572" 
d="M60 0q7 26 16 65t14 77l77 541q3 17 -10 21l-55 14l5 37h135l-48 -341q23 20 47.5 39.5t50 34.5t52.5 24t54 9q30 0 55.5 -10.5t44 -34t29 -60t10.5 -88.5q0 -54 -13 -114t-42 -110t-75.5 -83t-114.5 -33q-44 0 -82.5 17.5t-69.5 49.5l-2 -1l-12 -54h-66zM152 120
q24 -29 60 -52.5t78 -23.5q50 0 84.5 27t55.5 68.5t30.5 90t9.5 91.5q0 41 -6.5 67.5t-18 42.5t-27.5 22t-35 6q-26 0 -54.5 -13.5t-55.5 -33t-50.5 -40.5t-39.5 -37z" />
    <glyph glyph-name="c" unicode="c" horiz-adv-x="482" 
d="M411 27q-28 -17 -73.5 -28t-91.5 -11q-54 0 -92 14.5t-62 41.5t-35.5 65t-11.5 84q0 89 24 151t64.5 101.5t93 57.5t110.5 18q55 0 88 -10.5t47 -16.5l-17 -123l-48 3l-3 66q0 10 -11 14t-28 6.5t-42 2.5q-39 0 -76.5 -14t-67.5 -45t-48 -80.5t-18 -120.5
q0 -81 35.5 -120t101.5 -39q42 0 79 10.5t64 26.5z" />
    <glyph glyph-name="d" unicode="d" horiz-adv-x="574" 
d="M378 0l13 92l-3 2q-19 -19 -40.5 -38t-45 -34t-50 -24.5t-56.5 -9.5q-71 0 -111 45t-40 142q0 55 12 116t40.5 112t76 84.5t118.5 33.5q46 0 84.5 -17.5t63.5 -38.5l29 220q2 17 -10 20l-55 13l5 37h136l-97 -689q-2 -12 0.5 -15t13.5 -5l50 -7l-5 -39h-129zM431 401
q-21 23 -59.5 42.5t-82.5 19.5q-52 0 -86.5 -28t-55 -70.5t-29 -92t-8.5 -93.5q0 -38 7.5 -63.5t20.5 -40.5t30.5 -21.5t38.5 -6.5q27 0 53 12.5t50.5 31.5t47 42.5t41.5 44.5z" />
    <glyph glyph-name="e" unicode="e" horiz-adv-x="470" 
d="M404 27q-37 -20 -80.5 -29.5t-89.5 -9.5q-52 0 -88.5 15t-58.5 42t-32 64t-10 82q0 64 19.5 123.5t55 105.5t86 73.5t112.5 27.5q38 0 63 -9.5t40.5 -25t22 -36.5t6.5 -44q0 -39 -18 -68t-47.5 -50t-66.5 -35t-74.5 -23t-72 -14.5t-59.5 -8.5q0 -37 5.5 -67t20.5 -51
t41 -32t67 -11t74.5 10t68.5 27zM119 263q28 3 73 10t87.5 22t73.5 40.5t31 65.5q0 28 -17 44.5t-56 16.5t-70.5 -16.5t-56 -44.5t-41 -64t-24.5 -74z" />
    <glyph glyph-name="f" unicode="f" horiz-adv-x="372" 
d="M48 -212l94 657q2 10 -7 10h-72l8 56h80l14 102q11 80 52.5 116.5t110.5 36.5q54 0 89.5 -17t49.5 -30l-32 -48q-5 4 -15 10.5t-23.5 12.5t-30.5 10.5t-37 4.5q-49 0 -71.5 -28.5t-29.5 -83.5l-10 -76q-1 -5 0 -7.5t7 -2.5h163l-8 -56h-171l-95 -667h-66z" />
    <glyph glyph-name="g" unicode="g" horiz-adv-x="559" 
d="M370 -37l20 133q-18 -18 -39.5 -37.5t-46 -35t-51.5 -25.5t-57 -10q-71 0 -111 45t-40 142q0 55 12 116t40.5 112t76 84.5t118.5 33.5q46 0 84.5 -17.5t63.5 -38.5l15 46h66q-10 -37 -16.5 -67.5t-11.5 -62.5l-57 -422q-13 -93 -67.5 -137.5t-141.5 -44.5
q-66 0 -113.5 12.5t-71.5 26.5l27 55q6 -4 19.5 -10.5t33.5 -12.5t45 -10.5t52 -4.5q64 0 102 30.5t49 99.5zM431 401q-21 23 -59.5 42.5t-82.5 19.5q-52 0 -86.5 -28t-55 -70.5t-29 -92t-8.5 -93.5q0 -38 7.5 -63.5t20.5 -40.5t30.5 -21.5t38.5 -6.5q27 0 53 12.5
t50.5 31.5t47 42.5t41.5 44.5z" />
    <glyph glyph-name="h" unicode="h" horiz-adv-x="617" 
d="M414 0l-2 3l19 100l31 217q3 20 4.5 39.5t1.5 33.5q0 29 -12.5 47.5t-46.5 18.5q-51 0 -103.5 -36t-112.5 -91l-36 -265q-2 -12 0.5 -15t13.5 -5l67 -8l-6 -39h-217l6 40l50 7q12 2 15 5t5 15l86 616q3 18 -9 21l-56 14l5 37h136l-50 -348q59 50 110 82t109 32
q60 0 87 -31t27 -88q0 -13 -1.5 -30t-3.5 -32l-39 -273q-2 -12 0.5 -15t13.5 -5l58 -8l-6 -39h-144z" />
    <glyph glyph-name="i" unicode="i" horiz-adv-x="286" 
d="M185 635q-23 0 -35.5 12t-12.5 32q0 26 17 44t46 18q23 0 35 -12t12 -32q0 -26 -16.5 -44t-45.5 -18zM77 0l-2 4l20 106l47 330q3 17 -11 21l-54 13l5 37h136l-63 -444q-2 -12 0.5 -15t13.5 -5l64 -8l-6 -39h-150z" />
    <glyph glyph-name="j" unicode="j" horiz-adv-x="274" 
d="M140 439q3 18 -9 21l-60 14l6 37h139l-81 -581q-11 -80 -45.5 -116.5t-103.5 -36.5q-21 0 -40.5 4.5t-35.5 10.5t-27.5 13t-17.5 13l32 47q11 -8 35.5 -19.5t50.5 -11.5q46 0 63 28.5t24 82.5zM186 635q-23 0 -35.5 12t-12.5 32q0 26 17 44t46 18q23 0 35 -12t12 -32
q0 -26 -16.5 -44t-45.5 -18z" />
    <glyph glyph-name="k" unicode="k" horiz-adv-x="570" 
d="M401 0l-3 3l-36 96l-77 179l-115 -109l-14 -102q-2 -12 0 -15t13 -5l69 -8l-6 -39h-217l6 40l51 7q11 2 13.5 5.5t4.5 14.5l87 617q3 16 -10 20l-55 14l5 37h136l-71 -497l224 217q23 23 46.5 34.5t58.5 11.5q17 0 38 -3l-6 -49q-29 1 -52.5 -8t-57.5 -41l-96 -93
l107 -260q4 -8 6.5 -10.5t11.5 -4.5l68 -13l-6 -39h-123z" />
    <glyph glyph-name="l" unicode="l" horiz-adv-x="284" 
d="M72 0l-2 4l20 106l81 574q3 17 -11 21l-54 13l5 37h136l-97 -688q-2 -12 0.5 -15t13.5 -5l64 -8l-6 -39h-150z" />
    <glyph glyph-name="m" unicode="m" horiz-adv-x="901" 
d="M699 0l-2 3l18 99l31 218q4 26 6.5 47t2.5 37q0 28 -10 41.5t-42 13.5q-37 0 -80.5 -31t-113.5 -96l-39 -265q-2 -12 0.5 -15t13.5 -5l59 -8l-6 -39h-144l-2 3l20 109l30 208q3 19 5.5 44.5t2.5 37.5q0 30 -11.5 43.5t-40.5 13.5q-23 0 -48 -11t-51 -28.5t-52.5 -40.5
t-52.5 -47l-36 -265q-2 -12 0.5 -15t13.5 -5l67 -8l-6 -39h-215l6 40l50 7q11 2 14 5.5t5 14.5l51 371q3 17 -9 21l-55 15l5 37h133l-15 -104q33 28 60 49t52 35.5t48.5 22t49.5 7.5q48 0 75 -21t27 -77q0 -6 -0.5 -11.5t-0.5 -7.5q21 20 45 40.5t49.5 37.5t53 28t55.5 11
q61 0 83.5 -28t22.5 -76q0 -14 -2 -34t-5 -40l-39 -276q-2 -12 0.5 -15t13.5 -5l59 -8l-6 -39h-144z" />
    <glyph glyph-name="n" unicode="n" horiz-adv-x="619" 
d="M415 0l-2 3l19 108l30 209q6 39 6 68q0 38 -12.5 54.5t-48.5 16.5q-27 0 -57.5 -14t-59 -34t-54 -41.5t-42.5 -37.5l-36 -265q-2 -12 0.5 -15t13.5 -5l67 -8l-6 -39h-216l6 40l50 7q11 2 14 5.5t5 14.5l51 371q3 18 -9 21l-55 15l5 37h133l-15 -104q25 21 50.5 41
t52.5 36.5t56 26.5t59 10q63 0 90.5 -30.5t27.5 -89.5q0 -12 -1.5 -29.5t-3.5 -31.5l-39 -273q-2 -12 0.5 -15t13.5 -5l58 -8l-6 -39h-145z" />
    <glyph glyph-name="o" unicode="o" horiz-adv-x="552" 
d="M245 -12q-52 0 -90 15t-62.5 42t-36 65t-11.5 84q0 71 17.5 130.5t52.5 103.5t87 68.5t120 24.5q53 0 90 -16t60.5 -43.5t34 -65.5t10.5 -82q0 -76 -18.5 -136.5t-53 -102.5t-85 -64.5t-115.5 -22.5zM252 43q89 0 143 69.5t54 202.5q0 74 -34.5 110.5t-100.5 36.5
q-91 0 -146.5 -67t-55.5 -195q0 -76 35 -116.5t105 -40.5z" />
    <glyph glyph-name="p" unicode="p" horiz-adv-x="577" 
d="M47 -212l-4 4l28 170l65 476q3 18 -9 21l-55 15l5 37h135l-14 -98q21 18 44.5 37t49.5 35t54 26t57 10q30 0 55.5 -10.5t44 -34t29 -60t10.5 -88.5q0 -57 -13 -117t-42.5 -109.5t-76 -81.5t-112.5 -32q-85 0 -150 65l-25 -194q-2 -12 -0.5 -15.5t12.5 -4.5l88 -7l-6 -44
h-170zM158 120q24 -29 59.5 -52.5t77.5 -23.5q50 0 84.5 27t55.5 68.5t30.5 90t9.5 91.5q0 41 -6.5 67.5t-18 42.5t-27.5 22t-35 6q-26 0 -54.5 -13.5t-55.5 -33t-50.5 -40.5t-39.5 -37z" />
    <glyph glyph-name="q" unicode="q" horiz-adv-x="559" 
d="M262 -212l6 44l70 7q11 1 13.5 4.5t4.5 15.5l34 237q-19 -19 -40.5 -38t-46 -34.5t-51.5 -25.5t-56 -10q-42 0 -70.5 14.5t-46.5 39.5t-26 59t-8 74q0 59 12.5 120t42 111.5t76.5 82.5t116 32q46 0 84.5 -17.5t63.5 -38.5l15 46h66q-10 -37 -16.5 -67.5t-11.5 -62.5
l-71 -522q-2 -11 0 -14.5t13 -5.5l50 -6l-6 -45h-217zM431 401q-21 23 -59.5 42.5t-82.5 19.5q-52 0 -86.5 -28t-55 -70.5t-29 -92t-8.5 -93.5q0 -38 7.5 -63.5t20.5 -40.5t30.5 -21.5t38.5 -6.5q27 0 53 12.5t50.5 31.5t47 42.5t41.5 44.5z" />
    <glyph glyph-name="r" unicode="r" horiz-adv-x="424" 
d="M17 0l6 40l52 6q9 1 12 5t5 15l51 372q3 18 -9 21l-55 15l5 37h129l-13 -105q13 17 31 37t40.5 37.5t47.5 29t51 11.5q17 0 31.5 -2.5t27.5 -6.5l-19 -139l-49 3l-3 75q0 5 -1 7t-9 2q-22 0 -62.5 -35t-91.5 -94l-36 -265q-2 -12 0.5 -15.5t13.5 -4.5l87 -7l-6 -39h-236z
" />
    <glyph glyph-name="s" unicode="s" horiz-adv-x="440" 
d="M356 375l-3 67q0 13 -11 17q-10 4 -28 6.5t-47 2.5q-23 0 -45 -5t-38.5 -15.5t-26.5 -26.5t-10 -39q0 -36 27 -55.5t64 -35.5q25 -10 51 -21.5t47 -28t34.5 -40.5t13.5 -59q0 -41 -15.5 -70t-41.5 -48t-60 -27.5t-71 -8.5q-69 0 -115.5 12t-59.5 20l18 123l47 -3l3 -69
q0 -10 13 -15q14 -5 37 -10t58 -5q54 0 87 24.5t33 70.5q0 23 -10 39t-26.5 28t-38 21t-43.5 18t-43.5 19.5t-38 25t-26.5 35t-10 49.5q0 40 16 68.5t42.5 46.5t62 26.5t74.5 8.5q55 0 92.5 -10t51.5 -16l-17 -123z" />
    <glyph glyph-name="t" unicode="t" horiz-adv-x="391" 
d="M338 16q-26 -12 -61.5 -20t-68.5 -8q-114 0 -114 97q0 6 0.5 13t1.5 14l46 333q1 5 0 7.5t-6 2.5h-73l7 46q25 4 43 12t32 23t25 39t20 60h45l-16 -114q-1 -6 0 -8t6 -2h146l-8 -56h-154l-43 -318q-3 -21 -3 -37q0 -28 13.5 -41t48.5 -13q25 0 50.5 7t47.5 15z" />
    <glyph glyph-name="u" unicode="u" horiz-adv-x="616" 
d="M416 0l16 104q-26 -22 -53 -43t-54 -37.5t-54.5 -26t-56.5 -9.5q-55 0 -86.5 26.5t-31.5 93.5q0 12 1.5 29.5t3.5 31.5l39 275q2 12 -0.5 15t-13.5 5l-53 8l6 39h134l2 -3l-45 -319q-6 -39 -6 -68q0 -36 13.5 -53.5t49.5 -17.5q27 0 57.5 14.5t59 34.5t53.5 42t42 38
l36 265q2 12 -0.5 15t-13.5 5l-62 8l6 39h144l2 -3l-62 -443q-3 -16 9 -18l57 -9l-5 -38h-134z" />
    <glyph glyph-name="v" unicode="v" horiz-adv-x="523" 
d="M190 0l-96 446q-2 9 -5.5 12t-11.5 5l-42 9l6 39h113l4 -5l14 -97l66 -346l196 399l-64 11l5 38h147l4 -7l-257 -504h-79z" />
    <glyph glyph-name="w" unicode="w" horiz-adv-x="794" 
d="M483 0l-59 426l-181 -426h-80l-69 446q-2 14 -15 17l-44 9l6 39h111l4 -5l8 -82l48 -355l185 442h78l60 -449l176 401l-64 9l6 39h139l4 -5l-231 -506h-82z" />
    <glyph glyph-name="x" unicode="x" horiz-adv-x="548" 
d="M385 0l-6 6l-34 71l-74 139l-138 -168l66 -9l-4 -39h-207l5 39l56 11q8 2 12 4.5t12 11.5l167 200l-94 183q-4 8 -8 11.5t-13 5.5l-39 5l6 40h98l4 -4l35 -79l60 -116l131 152l-58 8l6 39h183l-6 -39l-41 -10q-10 -2 -15.5 -6.5t-11.5 -12.5l-157 -179l103 -196
q5 -9 10 -12.5t13 -5.5l63 -11l-6 -39h-118z" />
    <glyph glyph-name="y" unicode="y" horiz-adv-x="506" 
d="M193 20l-102 427q-2 9 -5.5 12t-11.5 5l-41 10l8 37h111l3 -4l22 -125l62 -284l179 365l-62 11l4 37h144l5 -7l-295 -579q-19 -38 -36.5 -65.5t-38 -46t-45.5 -27.5t-59 -9q-21 0 -40.5 4.5t-35.5 10.5t-27.5 13t-17.5 13l32 47q11 -8 35.5 -19.5t50.5 -11.5q22 0 38 6.5
t29.5 20t25.5 33.5t26 47z" />
    <glyph glyph-name="z" unicode="z" horiz-adv-x="491" 
d="M20 0l5 42l360 413h-217q-6 0 -8 -3.5t-4 -9.5l-21 -66l-49 -3l18 138h377l-6 -44l-358 -411h232q9 0 12 13l23 76l49 3l-20 -148h-393z" />
    <glyph glyph-name="braceleft" unicode="{" horiz-adv-x="270" 
d="M190 -146q-67 8 -100 28t-33 68q0 26 9 63.5t17 75.5q5 25 11.5 50.5t6.5 53.5q0 22 -6 35.5t-17 21t-25.5 10t-31.5 3.5l8 51q27 1 50.5 9.5t39.5 36.5q14 24 17.5 73t7.5 136q2 40 9 68t25.5 46t51 28.5t83.5 15.5l3 -52q-37 -6 -58 -14t-31.5 -20.5t-13.5 -30.5
t-5 -44q-2 -50 -4.5 -95t-5.5 -65q-4 -30 -13 -50.5t-21 -33.5t-25.5 -21t-27.5 -13q21 -9 38.5 -26.5t17.5 -60.5q0 -29 -6 -58t-14 -61q-3 -14 -7 -31.5t-7.5 -35t-6 -32.5t-2.5 -24q0 -27 19 -36.5t64 -19.5z" />
    <glyph glyph-name="bar" unicode="|" horiz-adv-x="280" 
d="M69 -143l122 867h60l-122 -867h-60z" />
    <glyph glyph-name="braceright" unicode="}" horiz-adv-x="284" 
d="M107 727q67 -8 100 -28t33 -68q0 -26 -9 -63.5t-17 -75.5q-5 -25 -11.5 -50.5t-6.5 -53.5q0 -22 6 -35.5t17 -21t25.5 -10t31.5 -3.5l-8 -51q-27 -1 -50.5 -9.5t-39.5 -36.5q-14 -24 -17.5 -73t-7.5 -136q-1 -40 -8.5 -68t-26 -46t-51 -28.5t-83.5 -15.5l-3 52
q38 6 59 14t31.5 20.5t13.5 30.5t4 44q2 50 4.5 95t5.5 65q5 30 13.5 50.5t20.5 33.5t25.5 21t27.5 13q-21 9 -38.5 26.5t-17.5 60.5q0 29 6 58t14 61q3 14 7 31.5t7.5 35t6 32.5t2.5 24q0 27 -19 36.5t-64 19.5z" />
    <glyph glyph-name="asciitilde" unicode="~" horiz-adv-x="465" 
d="M486 397q-8 -21 -17 -39t-21.5 -31.5t-29 -21.5t-39.5 -8q-27 0 -57 7t-59 16t-56 16t-49 7q-24 0 -40.5 -13.5t-38.5 -41.5l-39 18q26 42 53 68.5t71 26.5q29 0 57 -7t56 -16t54 -16t50 -7q25 0 37 14t26 42z" />
    <glyph glyph-name="uni00A0" unicode="&#xa0;" horiz-adv-x="230" 
 />
    <glyph glyph-name="sterling" unicode="&#xa3;" horiz-adv-x="537" 
d="M41 0l-6 47q32 24 51 47.5t30 50t16.5 57.5t10.5 71l4 31h-83l8 56h82l7 51q8 55 22 98.5t39.5 73.5t63.5 46t93 16q29 0 53.5 -5t44 -12t33.5 -15.5t21 -14.5l-32 -48q-5 4 -16.5 10.5t-27 12.5t-34.5 10.5t-40 4.5q-69 0 -104 -34.5t-44 -106.5l-12 -87h191l-8 -56
h-191q-7 -44 -12 -78t-14 -63t-26 -54.5t-47 -52.5h279q8 0 12 1.5t6 9.5l27 87h49l-20 -154h-426z" />
    <glyph glyph-name="currency" unicode="&#xa4;" horiz-adv-x="570" 
d="M513 9l-93 91q-26 -20 -60 -30.5t-76 -10.5q-45 0 -79.5 11.5t-60.5 31.5l-92 -93l-46 47l95 95q-17 28 -25 61.5t-8 69.5q0 67 35 123l-94 93l50 49l90 -90q27 22 62.5 34.5t79.5 12.5t79.5 -11.5t61.5 -32.5l86 86l46 -47l-89 -90q32 -53 32 -123q0 -37 -9.5 -71.5
t-29.5 -63.5l95 -94zM289 119q35 0 61.5 12.5t44.5 34.5t27 52t9 64q0 75 -36 117.5t-109 42.5q-71 0 -106.5 -45t-35.5 -115q0 -34 8.5 -64t26 -52t45 -34.5t65.5 -12.5z" />
    <glyph glyph-name="brokenbar" unicode="&#xa6;" horiz-adv-x="280" 
d="M69 -143l55 388h60l-55 -388h-60zM144 389l47 335h60l-47 -335h-60z" />
    <glyph glyph-name="section" unicode="&#xa7;" horiz-adv-x="540" 
d="M104 -54q0 -10 9 -14q16 -7 42 -12.5t56 -5.5q58 0 90 24t32 71q0 22 -9 36.5t-24.5 25t-35.5 18t-41 13.5q-26 8 -52 17t-47 23.5t-34 36.5t-13 55q0 26 8.5 47t22.5 39t31.5 33.5t34.5 30.5q-16 14 -27.5 35.5t-11.5 54.5q0 39 17 68t45.5 47.5t65 27.5t76.5 9
q57 0 93.5 -10.5t50.5 -16.5l-17 -123l-50 3l-3 67q0 11 -10 15q-25 9 -80 9q-34 0 -57 -7.5t-37.5 -19.5t-21 -27.5t-6.5 -32.5q0 -22 9.5 -37t25 -25.5t35.5 -17.5t42 -14q26 -8 52.5 -17t47.5 -23t34 -35.5t13 -54.5q0 -25 -8 -46.5t-21.5 -40t-31.5 -34.5t-37 -31
q20 -20 30 -41.5t10 -50.5q0 -44 -17 -74t-44.5 -48.5t-63.5 -26.5t-74 -8q-28 0 -55.5 4.5t-51 10.5t-40 12t-21.5 9l16 120l51 -3zM313 135q13 10 27 22t25.5 26.5t19 31t7.5 34.5q0 33 -21 49t-55 27q-23 8 -51.5 15.5t-44.5 12.5q-29 -18 -52.5 -48.5t-23.5 -61.5
q0 -32 21 -48t56 -28q20 -7 46 -15.5t46 -16.5z" />
    <glyph glyph-name="dieresis" unicode="&#xa8;" 
d="M435 609q-21 0 -33 11t-12 30q0 24 15.5 40.5t42.5 16.5q44 0 44 -41q0 -23 -15.5 -40t-41.5 -17zM236 609q-21 0 -33 11t-12 30q0 24 15.5 40.5t42.5 16.5q44 0 44 -41q0 -23 -15.5 -40t-41.5 -17z" />
    <glyph glyph-name="copyright" unicode="&#xa9;" horiz-adv-x="759" 
d="M717 319q0 -74 -24 -135t-68 -104.5t-104.5 -67.5t-134.5 -24q-82 0 -144 24.5t-103 67t-62 100.5t-21 125q0 78 26 139t71 103.5t105.5 65t129.5 22.5q77 0 137.5 -22.5t103.5 -63.5t65.5 -99.5t22.5 -130.5zM388 31q65 0 117 19.5t88 56t55.5 89t19.5 117.5
q0 68 -21 120.5t-58 87.5t-88.5 53t-112.5 18q-60 0 -111.5 -19t-89 -56t-59 -90t-21.5 -121q0 -64 19.5 -115t55.5 -86.5t88 -54.5t118 -19zM512 144q-20 -12 -52 -18t-62 -6q-51 0 -86.5 14.5t-58 41t-33 62t-10.5 77.5t12 78t36 61.5t59.5 40t83.5 14.5q31 0 62.5 -6.5
t49.5 -13.5v-103l-39 3l-10 54q-1 3 -2.5 5t-6.5 4q-11 5 -26.5 8t-36.5 3q-24 0 -46 -8t-38.5 -26t-26.5 -46.5t-10 -69.5q0 -31 7 -58t22.5 -47t40 -31.5t58.5 -11.5q18 0 32.5 3t23.5 8q5 2 6 4.5l3 7.5l14 54h34v-98z" />
    <glyph glyph-name="guillemotleft" unicode="&#xab;" horiz-adv-x="424" 
d="M280 103l-66 157l110 148h68l-95 -139q-6 -7 -6 -12q0 -1 2 -7l53 -147h-66zM134 103l-66 157l110 148h68l-95 -139q-6 -7 -6 -12q0 -1 2 -7l53 -147h-66z" />
    <glyph glyph-name="logicalnot" unicode="&#xac;" horiz-adv-x="570" 
d="M394 199l14 94h-304l9 66h373l-23 -160h-69z" />
    <glyph glyph-name="uni00AD" unicode="&#xad;" horiz-adv-x="311" 
d="M23 255l11 74h271l-11 -74h-271z" />
    <glyph glyph-name="registered" unicode="&#xae;" horiz-adv-x="447" 
d="M448 480q0 -41 -13.5 -74.5t-37.5 -57.5t-58 -37.5t-75 -13.5q-45 0 -79.5 13.5t-57.5 37t-34.5 56t-11.5 69.5q0 43 14.5 77t39.5 58t58.5 36.5t71.5 12.5q85 0 134 -48t49 -129zM409 477q0 71 -40.5 107.5t-103.5 36.5q-30 0 -56.5 -10t-46 -28.5t-30.5 -46t-11 -62.5
q0 -66 38.5 -103.5t105.5 -37.5t105.5 38.5t38.5 105.5zM283 384v19l18 2l-26 45q-6 10 -18 10h-16v-49q0 -3 0.5 -4t5.5 -2l15 -2v-19h-78v19l16 3q5 1 5 6v136q0 5 -5 6l-16 2v19h87q39 0 51.5 -16.5t12.5 -37.5q0 -39 -38 -53q5 -2 8.5 -6t8.5 -12l21 -38q2 -5 8 -6
l18 -3v-19h-78zM254 488q17 0 30.5 6t13.5 26q0 17 -10 22t-27 5h-20v-59h13z" />
    <glyph glyph-name="macron" unicode="&#xaf;" 
d="M184 616l8 57h303l-8 -57h-303z" />
    <glyph glyph-name="degree" unicode="&#xb0;" horiz-adv-x="287" 
d="M204 609q29 0 44.5 18.5t15.5 48.5q0 45 -45 45q-27 0 -43.5 -17.5t-16.5 -50.5q0 -20 10.5 -32t34.5 -12zM313 681q0 -53 -32 -84t-84 -31q-42 0 -65 21.5t-23 60.5q0 29 9.5 51t25.5 36.5t37 21.5t44 7q39 0 63.5 -21t24.5 -62z" />
    <glyph glyph-name="plusminus" unicode="&#xb1;" horiz-adv-x="570" 
d="M60 0l9 66h373l-9 -66h-373zM321 288l-22 -157h-69l22 157h-152l9 66h152l22 154h69l-22 -154h152l-9 -66h-152z" />
    <glyph glyph-name="mu" unicode="&#xb5;" horiz-adv-x="629" 
d="M424 0l10 71h-4q-19 -14 -41 -29t-46 -27t-50 -19.5t-52 -7.5q-69 0 -98 43l-22 -207h-67l96 687h67l-47 -336q-2 -14 -3 -28.5t-1 -25.5q0 -36 17 -56t62 -20q27 0 54.5 9.5t52.5 24.5t47.5 33t39.5 36l51 363h67l-61 -441q-3 -20 10 -21l54 -7l-6 -42h-130z" />
    <glyph glyph-name="paragraph" unicode="&#xb6;" horiz-adv-x="596" 
d="M478 589h-83l-75 -533h-39q-53 0 -95.5 18.5t-72.5 51.5t-46.5 79.5t-16.5 101.5q0 78 23.5 140.5t68.5 106.5t110 67.5t147 23.5h237l-6 -44l-68 -8q-11 -2 -14 -5t-5 -14l-76 -538q-13 -91 -68 -134.5t-140 -43.5q-66 0 -113 13.5t-71 27.5l26 53q6 -4 19.5 -10.5
t33.5 -12.5t45 -10.5t52 -4.5q64 0 102.5 30.5t48.5 99.5z" />
    <glyph glyph-name="periodcentered" unicode="&#xb7;" horiz-adv-x="176" 
d="M168 314q0 -29 -16.5 -49t-50.5 -20q-24 0 -37.5 11t-13.5 33q0 32 17.5 51t49.5 19q51 0 51 -45z" />
    <glyph glyph-name="cedilla" unicode="&#xb8;" 
d="M137 -175q6 -2 15.5 -3t23.5 -1q13 0 27 3t25 9.5t18.5 17.5t7.5 27q0 20 -15 31.5t-52 11.5l31 109l51 -8l-19 -66q26 -7 44 -24.5t18 -48.5q0 -28 -11 -49t-29.5 -34.5t-42 -20.5t-49.5 -7q-18 0 -32.5 2.5t-21.5 4.5z" />
    <glyph glyph-name="guillemotright" unicode="&#xbb;" horiz-adv-x="424" 
d="M198 103l96 145q5 6 5 11q0 2 -2 8l-53 141h66l66 -153l-107 -152h-71zM52 103l96 145q5 6 5 11q0 2 -2 8l-53 141h66l66 -153l-107 -152h-71z" />
    <glyph glyph-name="multiply" unicode="&#xd7;" horiz-adv-x="570" 
d="M347 318l90 -107l-55 -48l-90 106l-123 -109l-43 51l123 109l-92 110l55 48l92 -109l123 109l43 -51z" />
    <glyph glyph-name="divide" unicode="&#xf7;" horiz-adv-x="570" 
d="M326 181q0 -33 -17.5 -50t-49.5 -17q-51 0 -51 47q0 33 17.5 50t49.5 17q51 0 51 -47zM103 288l10 66h373l-10 -66h-373zM368 483q0 -67 -67 -67q-50 0 -50 47q0 33 17 50t49 17q51 0 51 -47z" />
    <glyph glyph-name="florin" unicode="&#x192;" horiz-adv-x="489" 
d="M261 321l-78 -253q-12 -39 -25.5 -67.5t-32 -47t-44.5 -27.5t-63 -9q-16 0 -34 3t-34 8.5t-29 11.5t-20 12l28 48q14 -9 40.5 -18.5t54.5 -9.5q32 0 53 19.5t35 62.5l80 257q3 10 -7 10h-90l17 56h102l35 114q12 39 28 68t37.5 48t51 28.5t69.5 9.5q47 0 73.5 -11.5
t36.5 -17.5l-37 -121l-44 4l9 70q1 10 -6 13q-8 3 -17 5t-29 2q-25 0 -42.5 -8t-30 -22.5t-21.5 -35t-17 -45.5l-29 -91q-2 -7 -1 -8.5t6 -1.5h144l-17 -56h-152z" />
    <glyph glyph-name="circumflex" unicode="&#x2c6;" 
d="M459 576l-114 104l-144 -104l-33 33l146 120h76l112 -120z" />
    <glyph glyph-name="caron" unicode="&#x2c7;" 
d="M365 576h-76l-109 119l42 34l112 -104l146 104l33 -33z" />
    <glyph glyph-name="uni02C9" unicode="&#x2c9;" 
d="M184 616l8 57h303l-8 -57h-303z" />
    <glyph glyph-name="breve" unicode="&#x2d8;" 
d="M514 705q-26 -61 -70.5 -96.5t-113.5 -35.5t-103.5 35.5t-42.5 96.5l50 19q10 -50 34.5 -73t69.5 -23t76 23t54 73z" />
    <glyph glyph-name="dotaccent" unicode="&#x2d9;" 
d="M339 635q-23 0 -35.5 12t-12.5 32q0 26 17 44t46 18q23 0 35 -12t12 -32q0 -26 -16.5 -44t-45.5 -18z" />
    <glyph glyph-name="ring" unicode="&#x2da;" 
d="M453 703q0 -47 -28 -75t-79 -28q-38 0 -60 19t-22 57q0 44 28 72.5t79 28.5q37 0 59.5 -19t22.5 -55zM353 641q23 0 37 15.5t14 40.5q0 36 -40 36q-24 0 -37.5 -14.5t-13.5 -39.5q0 -17 9 -27.5t31 -10.5z" />
    <glyph glyph-name="ogonek" unicode="&#x2db;" 
d="M314 -192q-20 -9 -42.5 -14.5t-43.5 -5.5q-33 0 -53.5 14.5t-20.5 45.5q0 27 11.5 50.5t30.5 44.5t42.5 40t47.5 36l51 -15q-12 -9 -30.5 -23t-36.5 -32t-30.5 -38t-12.5 -40q0 -26 27 -26q11 0 23.5 3.5t25.5 8.5z" />
    <glyph glyph-name="tilde" unicode="&#x2dc;" 
d="M488 637q-23 -26 -37.5 -36t-30.5 -10q-6 0 -13.5 1t-15.5 3l-132 36q-10 3 -16 -3l-48 -41l-32 27l35 41q19 23 33 31t30 8q8 0 15.5 -1.5t16.5 -3.5l129 -35q10 -3 17 3l44 39l33 -27z" />
    <glyph glyph-name="hungarumlaut" unicode="&#x2dd;" 
d="M188 571l-31 27l158 179l51 -47zM350 571l-32 27l159 178l51 -46z" />
    <glyph glyph-name="uni0394" unicode="&#x394;" horiz-adv-x="652" 
d="M13 0l348 724h92l152 -724h-592zM402 669l-291 -611h409z" />
    <glyph glyph-name="uni03A9" unicode="&#x3a9;" horiz-adv-x="851" 
d="M478 0l19 134q32 12 71.5 37t74.5 64t59 94t24 127q0 107 -61 164.5t-162 57.5q-70 0 -128 -20t-100 -59t-65.5 -97.5t-23.5 -135.5q0 -94 43 -150.5t107 -81.5l-19 -134h-278l22 154h50l3 -87q0 -8 3.5 -9.5t11.5 -1.5h134l8 54q-77 35 -116 103t-39 151
q0 81 27.5 149.5t78.5 118t123 77.5t161 28q74 0 128.5 -21t90.5 -58t53.5 -88t17.5 -110q0 -63 -18.5 -117t-51 -98.5t-77 -78.5t-95.5 -57l-7 -53h127q8 0 11.5 1.5t5.5 9.5l29 87h50l-22 -154h-270z" />
    <glyph glyph-name="uni03BC" unicode="&#x3bc;" horiz-adv-x="629" 
d="M424 0l10 71h-4q-19 -14 -41 -29t-46 -27t-50 -19.5t-52 -7.5q-69 0 -98 43l-22 -207h-67l96 687h67l-47 -336q-2 -14 -3 -28.5t-1 -25.5q0 -36 17 -56t62 -20q27 0 54.5 9.5t52.5 24.5t47.5 33t39.5 36l51 363h67l-61 -441q-3 -20 10 -21l54 -7l-6 -42h-130z" />
    <glyph glyph-name="pi" unicode="&#x3c0;" horiz-adv-x="696" 
d="M452 0l63 450h-268l-63 -450h-134l6 44l52 7q9 1 12.5 3t4.5 9l53 377q2 11 0 15t-13 5l-62 7l6 44h564l-6 -44l-68 -8q-11 -2 -14 -5t-5 -14l-52 -369q-2 -12 0.5 -15t13.5 -5l50 -7l-6 -44h-134z" />
    <glyph glyph-name="afii10023" unicode="&#x401;" horiz-adv-x="637" 
d="M359 839q0 -23 -16 -40t-42 -17q-20 0 -32 11t-12 30q0 23 16 40t42 17q20 0 32 -11t12 -30zM558 839q0 -23 -16 -40t-42 -17q-20 0 -32 11t-12 30q0 23 16 40t42 17q20 0 32 -11t12 -30zM43 0l4 39l63 7q11 2 13.5 5.5t4.5 14.5l82 591q2 11 0 15t-13 5l-60 7l5 40h480
l-21 -150l-45 3l-3 78q-1 13 -15 13h-261l-37 -274h274l-8 -56h-274l-39 -282h282q8 0 11.5 1.5t5.5 9.5l28 87h45l-21 -154h-501z" />
    <glyph glyph-name="afii10051" unicode="&#x402;" horiz-adv-x="802" 
d="M167 0l6 42l64 7q11 1 13.5 5t4.5 15l84 599h-165q-8 0 -12 -1.5t-6 -9.5l-28 -87h-50l21 154h607l-23 -155h-49l-4 84q0 15 -15 15h-210l-38 -275q31 6 71 12.5t94 6.5q55 0 96.5 -14.5t69 -40.5t41 -61.5t13.5 -78.5q0 -50 -14.5 -92t-43.5 -72.5t-72 -47.5t-100 -17
q-48 0 -87 9.5t-53 17.5l18 131h44l9 -77q1 -8 4 -12t9 -6q21 -7 56 -7t64 10t51 31t34 54.5t12 79.5q0 39 -12.5 65t-33.5 41.5t-49.5 22.5t-60.5 7q-48 0 -89.5 -6.5t-79.5 -14.5l-46 -334h-145z" />
    <glyph glyph-name="afii10052" unicode="&#x403;" horiz-adv-x="580" 
d="M320 766l-22 38l200 131l34 -63zM40 0l6 41l64 8q11 2 13.5 5.5t4.5 14.5l82 587q2 11 0 15t-13 5l-62 7l6 41h470l-23 -166l-47 3l-4 94q-1 13 -16 13h-242l-83 -598q-2 -12 0 -15t13 -5l146 -9l-6 -41h-309z" />
    <glyph glyph-name="afii10053" unicode="&#x404;" horiz-adv-x="659" 
d="M589 40q-42 -27 -106.5 -39.5t-132.5 -12.5q-76 0 -130 23t-88.5 64.5t-50.5 98.5t-16 124q0 95 26 175.5t77.5 139t127 91.5t174.5 33q66 0 120 -14.5t86 -38.5l-20 -146l-50 3l-4 94q0 6 -1 10.5t-9 7.5q-26 11 -59 18t-72 7q-62 0 -115.5 -19t-95.5 -56t-70 -91
t-39 -123h330l-8 -56h-327q-1 -7 -1 -14v-14q0 -126 56.5 -192.5t171.5 -66.5q38 0 80.5 5.5t75.5 19.5q10 4 14 17l29 89h46z" />
    <glyph glyph-name="afii10054" unicode="&#x405;" horiz-adv-x="562" 
d="M490 549l-4 93q0 5 -1.5 10t-9.5 9q-11 6 -32 10.5t-63 4.5q-37 0 -70.5 -7.5t-59 -24.5t-40.5 -44.5t-15 -66.5q0 -30 10.5 -50.5t29.5 -35.5t44 -25.5t54 -21.5q32 -12 63 -25t56.5 -33.5t41 -51t15.5 -76.5q0 -62 -22 -105t-59.5 -70t-88 -39t-107.5 -12q-34 0 -66 4
t-58.5 9.5t-46.5 12t-29 11.5l20 151h48l6 -91q1 -8 3 -11t10 -7q15 -8 45 -14t78 -6q91 0 143 38.5t52 119.5q0 32 -11 53.5t-29 37t-41.5 26t-49.5 19.5q-32 12 -64.5 24t-59 32t-43 50t-16.5 78q0 55 21.5 95t58 66t84.5 38.5t100 12.5q66 0 110 -12.5t65 -20.5l-23 -160
z" />
    <glyph glyph-name="afii10055" unicode="&#x406;" horiz-adv-x="357" 
d="M33 0l4 39l73 7q11 1 13.5 5t4.5 15l83 592q2 11 0 15t-13 5l-70 7l4 39h244l-4 -39l-77 -8q-11 -2 -13.5 -5t-4.5 -14l-83 -591q-2 -12 0 -15t13 -5l74 -8l-4 -39h-244z" />
    <glyph glyph-name="afii10056" unicode="&#x407;" horiz-adv-x="357" 
d="M219 839q0 -23 -16 -40t-42 -17q-20 0 -32 11t-12 30q0 23 16 40t42 17q20 0 32 -11t12 -30zM418 839q0 -23 -16 -40t-42 -17q-20 0 -32 11t-12 30q0 23 16 40t42 17q20 0 32 -11t12 -30zM33 0l4 39l73 7q11 1 13.5 5t4.5 15l83 592q2 11 0 15t-13 5l-70 7l4 39h244
l-4 -39l-77 -8q-11 -2 -13.5 -5t-4.5 -14l-83 -591q-2 -12 0 -15t13 -5l74 -8l-4 -39h-244z" />
    <glyph glyph-name="afii10057" unicode="&#x408;" horiz-adv-x="478" 
d="M352 659q2 11 -0.5 14.5t-12.5 4.5l-81 7l5 39h245l-5 -39l-67 -8q-11 -2 -13.5 -4.5t-4.5 -13.5l-73 -518q-10 -78 -49 -115.5t-124 -37.5q-56 0 -95.5 12.5t-51.5 21.5l16 122l46 -3v-72q0 -5 1.5 -8t8.5 -6q8 -4 29 -8.5t52 -4.5q54 0 74.5 26.5t28.5 80.5z" />
    <glyph glyph-name="afii10058" unicode="&#x409;" horiz-adv-x="1016" 
d="M228 724h550l-6 -40l-101 -10q-11 -1 -14 -4.5t-5 -15.5l-31 -230h141q55 0 94.5 -13.5t65 -37t37.5 -55.5t12 -70q0 -121 -75 -184.5t-204 -63.5h-276l6 42l64 7q11 2 13.5 5.5t4.5 14.5l84 599h-223q-15 -122 -33.5 -221t-38.5 -184q-17 -71 -41 -122.5t-57 -85
t-77.5 -50t-102.5 -17.5l-5 61q42 2 74 12t57 31.5t44 55.5t34 83q9 30 20 76t22 102t21 119t17 126q2 11 0 15.5t-13 6.5l-64 7zM688 58q41 0 79.5 9t68 30.5t47 57t17.5 88.5q0 123 -147 123h-141l-43 -308h119z" />
    <glyph glyph-name="afii10059" unicode="&#x40a;" horiz-adv-x="1056" 
d="M658 403h141q110 0 161 -45t51 -120q0 -121 -75 -179.5t-204 -58.5h-276l6 42l64 7q11 2 13.5 5.5t4.5 14.5l39 277h-351l-40 -279q-2 -12 0 -15t13 -5l65 -8l-6 -39h-224l5 39l63 7q11 2 13.5 5.5t4.5 14.5l83 592q2 11 0 15t-13 5l-60 7l5 39h224l-5 -39l-67 -8
q-11 -2 -13.5 -5t-4.5 -14l-35 -256h351l36 256q2 11 0 15t-12 5l-61 7l4 39h224l-4 -39l-66 -8q-11 -2 -14 -5t-5 -14zM728 58q41 0 79.5 7.5t68 27t47 53.5t17.5 87q0 63 -38.5 87.5t-111.5 24.5h-141l-40 -287h119z" />
    <glyph glyph-name="afii10060" unicode="&#x40b;" horiz-adv-x="845" 
d="M367 408q45 12 95.5 20t96.5 8q93 0 136.5 -43t29.5 -143l-26 -182q-2 -13 0.5 -15.5t13.5 -4.5l62 -7l-6 -41h-229l6 41l68 8q11 2 13.5 5t4.5 14l23 162q6 40 4 68t-14 46t-36 26.5t-64 8.5q-21 0 -45.5 -2.5t-49.5 -6t-48.5 -8.5t-42.5 -11l-40 -283q-2 -13 0.5 -15.5
t13.5 -4.5l62 -7l-6 -41h-229l6 41l68 8q11 2 14 5t5 14l84 600h-166q-8 0 -11.5 -1.5t-5.5 -9.5l-28 -87h-48l21 154h603l-23 -166l-47 3l-3 94q-1 13 -16 13h-210z" />
    <glyph glyph-name="afii10061" unicode="&#x40c;" horiz-adv-x="705" 
d="M443 766l-22 38l200 131l34 -63zM194 67q-2 -12 0 -15t13 -5l66 -8l-6 -39h-224l6 39l60 7q11 2 14 5.5t5 14.5l82 592q2 11 0 15t-13 5l-62 7l6 39h227l-5 -39l-68 -8q-11 -2 -14 -5t-5 -14l-36 -260h79q23 0 41.5 5t35.5 18t33 35.5t35 57.5l76 143q42 80 119 80
q21 0 46 -6l-10 -53q-7 2 -13 2h-12q-28 0 -46 -15t-38 -53l-75 -144q-22 -43 -53.5 -64.5t-54.5 -28.5q22 -8 38.5 -27.5t33.5 -63.5l83 -210q5 -12 9.5 -16.5t13.5 -6.5l66 -11l-6 -40h-136q-11 38 -25 77.5t-28 75.5t-26.5 66t-20.5 48q-10 24 -18.5 38.5t-19 23
t-24 11.5t-34.5 3h-77z" />
    <glyph glyph-name="afii10062" unicode="&#x40e;" horiz-adv-x="641" 
d="M575 894q-25 -61 -66 -86.5t-95 -25.5q-55 0 -92 25.5t-48 86.5l53 17q8 -46 33 -61.5t55 -15.5q15 0 30 3t29.5 11.5t27 23.5t22.5 40zM295 142l-144 511q-6 16 -23 20l-42 11l16 40h192l-6 -40l-75 -9l124 -467l248 466l-71 9l15 41h186l-5 -41l-44 -11q-8 -2 -15 -6.5
t-12 -12.5l-276 -510q-23 -43 -42.5 -72.5t-40.5 -48t-45.5 -26.5t-57.5 -8q-32 0 -65 9t-51 22l26 50q14 -9 36.5 -18t52.5 -9q42 0 65.5 22t45.5 63z" />
    <glyph glyph-name="afii10145" unicode="&#x40f;" horiz-adv-x="762" 
d="M531 56l84 597q2 11 0 14.5t-13 5.5l-62 7l6 44h229l-6 -44l-68 -8q-11 -2 -14 -5t-5 -15l-82 -581q-2 -11 0.5 -14t13.5 -5l66 -8l-6 -44h-260q-12 0 -15 -13l-33 -141l-44 2l3 139q0 13 -11 13h-274l6 44l64 7q11 1 13.5 5t4.5 15l82 582q2 11 0 14.5t-13 5.5l-62 7
l6 44h229l-6 -44l-68 -8q-11 -2 -14 -5t-5 -15l-84 -596h338z" />
    <glyph glyph-name="afii10017" unicode="&#x410;" horiz-adv-x="681" 
d="M432 0l6 37l86 9l-35 187h-286l-86 -187l77 -9l-6 -37h-203l6 37l42 11q12 3 19 9.5t11 14.5l303 652h89l133 -659q3 -13 21 -17l43 -11l-6 -37h-214zM403 671l-173 -379h248z" />
    <glyph glyph-name="afii10018" unicode="&#x411;" horiz-adv-x="668" 
d="M332 59q44 0 83 6.5t68 25t46.5 52t17.5 86.5q0 33 -12 54.5t-33 34t-51 18t-66 5.5h-153l-39 -282h139zM241 399h151q119 0 172.5 -44.5t53.5 -125.5q0 -63 -21.5 -106.5t-59.5 -71t-89.5 -39.5t-111.5 -12h-296l6 41l64 7q11 1 13.5 5t4.5 15l82 588q2 9 -1 13t-14 6
l-60 8l6 41h478l-23 -166l-49 3l-3 94q-1 13 -16 13h-250z" />
    <glyph glyph-name="afii10019" unicode="&#x412;" horiz-adv-x="645" 
d="M42 0l5 38l62 7q11 2 14 5.5t5 14.5l82 592q2 11 -0.5 15t-12.5 5l-61 8l6 39h277q55 0 91.5 -11.5t58.5 -32t31.5 -48.5t9.5 -60q0 -43 -12.5 -76t-33.5 -56t-47 -38t-53 -23l-1 -4q71 -8 108 -49.5t37 -104.5t-21.5 -105t-59.5 -68t-91.5 -37t-117.5 -11h-276zM321 59
q46 0 86 5.5t69.5 22t46.5 48t17 83.5q0 33 -12 56t-33 38t-50 22t-63 7h-152l-38 -282h129zM344 399q33 0 68 7t63.5 25t46.5 50t18 83q0 58 -35.5 80t-109.5 22h-120l-36 -267h105z" />
    <glyph glyph-name="afii10020" unicode="&#x413;" horiz-adv-x="580" 
d="M40 0l6 41l64 8q11 2 13.5 5.5t4.5 14.5l82 587q2 11 0 15t-13 5l-62 7l6 41h470l-23 -166l-47 3l-4 94q-1 13 -16 13h-242l-83 -598q-2 -12 0 -15t13 -5l146 -9l-6 -41h-309z" />
    <glyph glyph-name="afii10021" unicode="&#x414;" horiz-adv-x="761" 
d="M105 0q-15 0 -18 -13l-35 -130l-49 -2l26 201h61q37 42 66.5 88.5t53 106.5t41.5 137t33 180l12 87q2 11 0 15.5t-13 6.5l-62 7l6 40h547l-6 -40l-68 -8q-9 -2 -13 -6t-6 -16l-84 -598h73l-26 -201l-48 2l-1 130q0 13 -15 13h-475zM362 668l-10 -80q-26 -199 -74 -328
t-117 -204h370l85 612h-254z" />
    <glyph glyph-name="afii10022" unicode="&#x415;" horiz-adv-x="614" 
d="M43 0l4 39l63 7q11 2 13.5 5.5t4.5 14.5l82 591q2 11 0 15t-13 5l-60 7l5 40h480l-21 -150l-45 3l-3 78q-1 13 -15 13h-261l-37 -274h274l-8 -56h-274l-39 -282h282q8 0 11.5 1.5t5.5 9.5l28 87h45l-21 -154h-501z" />
    <glyph glyph-name="afii10024" unicode="&#x416;" horiz-adv-x="993" 
d="M523 658q2 11 0 15t-13 5l-62 7l5 39h227l-5 -39l-68 -8q-11 -2 -14 -5t-5 -14l-36 -257h66q23 0 40 4.5t31 16.5t27.5 34t30.5 58l65 136q22 46 52 66.5t72 20.5q22 0 47 -6l-10 -56q-7 2 -12.5 2h-11.5q-28 0 -48.5 -15.5t-40.5 -57.5l-67 -141q-21 -43 -44 -60
t-46 -24q23 -8 37.5 -26.5t31.5 -62.5l80 -215q4 -12 9 -16.5t14 -6.5l66 -11l-6 -41h-137q-10 38 -23.5 78t-27.5 77.5t-26 68.5t-19 49q-9 24 -17.5 38t-18.5 22t-23.5 10.5t-34.5 2.5h-64l-39 -278q-2 -12 0 -15.5t13 -5.5l66 -8l-5 -39h-227l5 39l64 7q11 2 14 5.5
t5 14.5l39 280h-63q-21 0 -35 -2.5t-26 -10.5t-24 -22t-28 -38q-12 -18 -33 -49t-45 -68t-48.5 -77.5t-45.5 -78.5h-136l6 41l67 11q11 2 17 6.5t14 16.5l136 215q29 44 49.5 62.5t47.5 26.5q-21 7 -38 28t-25 64l-28 141q-8 37 -21 52t-42 15q-6 0 -12 -0.5t-14 -1.5l4 54
q24 6 45 6q38 0 64.5 -20.5t35.5 -68.5l27 -134q7 -36 14.5 -58t18.5 -34t26.5 -16.5t38.5 -4.5h61z" />
    <glyph glyph-name="afii10025" unicode="&#x417;" horiz-adv-x="605" 
d="M377 737q94 0 146 -40.5t52 -121.5t-50 -129t-129 -68l-1 -4q69 -11 106.5 -51.5t37.5 -109.5q0 -43 -16 -84t-49.5 -72t-84.5 -50t-120 -19q-71 0 -128 17t-95 43l21 147h49l2 -102q0 -13 12 -20q27 -15 63.5 -21t76.5 -6t76 11t63 32.5t43 54t16 75.5q0 58 -38.5 90
t-119.5 32h-112l8 57h78q47 0 87 12.5t69.5 35t46 53.5t16.5 69q0 31 -10.5 52t-28.5 34t-43.5 18.5t-55.5 5.5q-16 0 -35.5 -2t-38 -5t-34.5 -7.5t-25 -9.5q-5 -3 -7 -5.5t-4 -8.5l-31 -102h-51l21 146q39 24 98 38.5t119 14.5z" />
    <glyph glyph-name="afii10026" unicode="&#x418;" horiz-adv-x="805" 
d="M487 0l6 40l64 7q11 2 14 5.5t5 14.5l80 560l-3 -1l-454 -626h-159l6 40l63 7q11 2 14 5.5t5 14.5l81 590q2 11 0 15t-13 5l-62 7l6 40h229l-6 -40l-68 -8q-11 -2 -14 -5t-5 -14l-79 -564h3l453 631h164l-6 -40l-68 -8q-11 -2 -14 -5t-5 -14l-81 -589q-2 -12 0 -15t13 -5
l66 -8l-6 -40h-229z" />
    <glyph glyph-name="afii10027" unicode="&#x419;" horiz-adv-x="805" 
d="M656 894q-25 -61 -66 -86.5t-95 -25.5q-55 0 -92 25.5t-48 86.5l53 17q8 -46 33 -61.5t55 -15.5q15 0 30 3t29.5 11.5t27 23.5t22.5 40zM487 0l6 40l64 7q11 2 14 5.5t5 14.5l80 560l-3 -1l-454 -626h-159l6 40l63 7q11 2 14 5.5t5 14.5l81 590q2 11 0 15t-13 5l-62 7
l6 40h229l-6 -40l-68 -8q-11 -2 -14 -5t-5 -14l-79 -564h3l453 631h164l-6 -40l-68 -8q-11 -2 -14 -5t-5 -14l-81 -589q-2 -12 0 -15t13 -5l66 -8l-6 -40h-229z" />
    <glyph glyph-name="afii10028" unicode="&#x41a;" horiz-adv-x="705" 
d="M194 67q-2 -12 0 -15t13 -5l66 -8l-6 -39h-224l6 39l60 7q11 2 14 5.5t5 14.5l82 592q2 11 0 15t-13 5l-62 7l6 39h227l-5 -39l-68 -8q-11 -2 -14 -5t-5 -14l-36 -260h79q23 0 41.5 5t35.5 18t33 35.5t35 57.5l76 143q42 80 119 80q21 0 46 -6l-10 -53q-7 2 -13 2h-12
q-28 0 -46 -15t-38 -53l-75 -144q-22 -43 -53.5 -64.5t-54.5 -28.5q22 -8 38.5 -27.5t33.5 -63.5l83 -210q5 -12 9.5 -16.5t13.5 -6.5l66 -11l-6 -40h-136q-11 38 -25 77.5t-28 75.5t-26.5 66t-20.5 48q-10 24 -18.5 38.5t-19 23t-24 11.5t-34.5 3h-77z" />
    <glyph glyph-name="afii10029" unicode="&#x41b;" horiz-adv-x="743" 
d="M597 668h-232q-15 -122 -33.5 -221t-38.5 -184q-17 -71 -41 -122.5t-57 -85t-77.5 -50t-102.5 -17.5l-5 61q42 2 74 12t57 31.5t44 55.5t34 83q9 30 20 76t22 102t21 119t17 126q2 11 0 15.5t-13 6.5l-64 7l6 41h527l-6 -41l-68 -8q-9 -2 -13 -6t-6 -16l-81 -585
q-2 -12 0 -15t13 -5l66 -8l-7 -40h-229l7 40l64 7q11 2 13.5 5.5t4.5 14.5z" />
    <glyph glyph-name="afii10030" unicode="&#x41c;" horiz-adv-x="915" 
d="M582 0l4 39l85 7q9 1 12 5t5 15l76 546l-274 -431h-63l-156 435l-78 -549q-2 -12 0 -15.5t13 -4.5l86 -8l-4 -39h-244l4 39l63 7q11 2 13.5 6t4.5 15l82 590q2 11 0 15t-13 5l-60 7l5 40h159l165 -476l295 476h163l-5 -39l-67 -8q-11 -2 -14 -6t-5 -18l-82 -587
q-2 -10 1 -13.5t13 -5.5l65 -8l-5 -39h-244z" />
    <glyph glyph-name="afii10031" unicode="&#x41d;" horiz-adv-x="788" 
d="M473 0l6 39l62 7q11 2 13.5 5.5t4.5 14.5l39 280h-364l-40 -279q-2 -12 0 -15t13 -5l65 -8l-6 -39h-224l5 39l63 7q11 2 13.5 5.5t4.5 14.5l83 592q2 11 0 15t-13 5l-60 7l5 39h224l-5 -39l-67 -8q-11 -2 -13.5 -5t-4.5 -14l-35 -256h364l36 256q2 11 0 15t-12 5l-61 7
l4 39h224l-4 -39l-66 -8q-11 -2 -14 -5t-5 -14l-82 -591q-2 -12 0 -15t12 -5l65 -8l-6 -39h-224z" />
    <glyph glyph-name="afii10032" unicode="&#x41e;" horiz-adv-x="750" 
d="M346 -12q-73 0 -127 22.5t-88.5 62.5t-51.5 95t-17 121q0 97 25.5 179t75 142t122.5 93.5t168 33.5q72 0 124.5 -22.5t86.5 -62t50 -92.5t16 -115q0 -107 -26.5 -191.5t-76.5 -143.5t-121 -90.5t-160 -31.5zM354 47q64 0 120 24.5t97.5 73t65.5 121t24 167.5
q0 57 -14 104q-20 69 -71 105t-131 36q-65 0 -122 -24.5t-99.5 -72.5t-67 -119t-24.5 -164q0 -59 14 -107q21 -70 72.5 -107t135.5 -37z" />
    <glyph glyph-name="afii10033" unicode="&#x41f;" horiz-adv-x="772" 
d="M278 668l-84 -600q-2 -12 0 -15t13 -5l67 -8l-6 -40h-229l6 40l64 7q11 2 13.5 5.5t4.5 14.5l82 589q2 11 0 15t-13 5l-62 7l6 41h644l-6 -41l-68 -8q-11 -2 -14 -5t-5 -14l-81 -588q-2 -12 0 -15t13 -5l66 -8l-6 -40h-229l6 40l64 7q11 2 13.5 5.5t4.5 14.5l84 601h-348
z" />
    <glyph glyph-name="afii10034" unicode="&#x420;" horiz-adv-x="641" 
d="M42 0l5 39l63 7q11 2 14 5.5t5 14.5l82 592q2 11 -0.5 15t-13.5 5l-60 7l5 39h287q59 0 99.5 -14t66 -38.5t36.5 -57.5t11 -71q0 -71 -21 -121.5t-60.5 -83t-95.5 -47.5t-126 -15h-117l-29 -209q-1 -12 1 -15.5t12 -4.5l139 -8l-5 -39h-298zM340 333q48 0 90.5 8t74 30
t50 62.5t18.5 104.5q0 66 -40.5 98t-127.5 32h-129l-46 -335h110z" />
    <glyph glyph-name="afii10035" unicode="&#x421;" horiz-adv-x="659" 
d="M589 40q-42 -27 -106.5 -39.5t-132.5 -12.5q-76 0 -130 23t-88.5 64.5t-50.5 98.5t-16 124q0 95 26 175.5t77.5 139t127 91.5t174.5 33q66 0 120 -14.5t86 -38.5l-20 -146l-50 3l-4 94q0 6 -1 10.5t-9 7.5q-26 11 -59 18t-72 7q-70 0 -130 -25t-103.5 -72.5t-68 -117
t-24.5 -158.5q0 -126 56.5 -192.5t171.5 -66.5q38 0 80.5 5.5t75.5 19.5q10 4 14 17l29 89h46z" />
    <glyph glyph-name="afii10036" unicode="&#x422;" horiz-adv-x="619" 
d="M135 0l6 40l99 7q10 1 13 5t5 15l84 601h-175q-8 0 -11.5 -1.5t-5.5 -9.5l-27 -87h-45l20 154h571l-21 -154h-45l-4 87q-1 8 -3.5 9.5t-10.5 1.5h-177l-84 -601q-2 -11 0 -14.5t13 -4.5l109 -8l-6 -40h-305z" />
    <glyph glyph-name="afii10037" unicode="&#x423;" horiz-adv-x="641" 
d="M295 142l-144 511q-6 16 -23 20l-42 11l16 40h192l-6 -40l-75 -9l124 -467l248 466l-71 9l15 41h186l-5 -41l-44 -11q-8 -2 -15 -6.5t-12 -12.5l-276 -510q-23 -43 -42.5 -72.5t-40.5 -48t-45.5 -26.5t-57.5 -8q-32 0 -65 9t-51 22l26 50q14 -9 36.5 -18t52.5 -9
q42 0 65.5 22t45.5 63z" />
    <glyph glyph-name="afii10038" unicode="&#x424;" horiz-adv-x="783" 
d="M480 606q141 -2 212 -52t71 -144q0 -74 -23 -125.5t-67 -84t-109.5 -48t-149.5 -17.5l-10 -67q-1 -5 -1 -11q0 -8 14 -9l76 -8l-5 -40h-245l5 40l74 7q11 1 13.5 5t4.5 15l11 67q-147 2 -216.5 48.5t-69.5 152.5q0 73 23.5 123.5t68.5 82.5t110.5 47.5t149.5 17.5l8 63
q0 3 0.5 5t0.5 4q0 6 -3 7.5t-11 3.5l-76 8l6 40h245l-6 -40l-73 -8q-11 -2 -14.5 -5t-5.5 -14zM409 552q-64 0 -116 -10.5t-88 -35t-55.5 -64.5t-19.5 -100q0 -44 13 -73.5t40.5 -48t71 -26.5t103.5 -8zM422 187q65 0 116.5 11.5t87.5 37t55 67t19 102.5q0 77 -53.5 113
t-174.5 36z" />
    <glyph glyph-name="afii10039" unicode="&#x425;" horiz-adv-x="656" 
d="M400 0l6 39l74 9l-140 273l-207 -273l69 -9l-6 -39h-204l4 37l49 11q16 4 28 19l231 308l-140 282q-4 8 -8.5 11.5t-12.5 5.5l-40 11l6 39h196l-6 -39l-73 -9l124 -257l196 257l-69 9l7 39h195l-6 -39l-42 -11q-17 -4 -28 -19l-218 -284l159 -304q4 -8 8.5 -11.5
t12.5 -5.5l49 -11l-6 -39h-208z" />
    <glyph glyph-name="afii10040" unicode="&#x426;" horiz-adv-x="757" 
d="M35 0l6 41l68 8q11 2 13.5 5t4.5 14l82 588q2 12 0 15t-13 5l-66 8l6 40h229l-6 -40l-64 -7q-11 -2 -14 -5.5t-5 -14.5l-84 -601h333l84 600q2 12 0 15t-13 5l-66 8l6 40h229l-6 -40l-64 -7q-11 -2 -14 -5.5t-5 -14.5l-84 -601h79l-26 -211l-48 3l-1 139q-1 13 -15 13
h-546z" />
    <glyph glyph-name="afii10041" unicode="&#x427;" horiz-adv-x="722" 
d="M367 0l6 45l101 7q11 1 14 4.5t5 15.5l33 234q-38 -13 -89.5 -20t-97.5 -7q-83 0 -131.5 32t-48.5 112q0 19 3 41l26 193q2 13 0 15.5t-13 4.5l-62 7l6 40h229l-6 -40l-68 -8q-11 -2 -14 -5t-5 -14l-23 -173q-2 -14 -3 -26.5t-1 -23.5q0 -50 25 -74t93 -24q21 0 47 2
t52.5 6t50 9.5t38.5 11.5l40 292q2 13 0 15.5t-13 4.5l-62 7l6 40h229l-6 -40l-68 -8q-11 -2 -14 -5t-5 -14l-81 -588q-2 -12 0 -15t13 -5l66 -8l-6 -41h-266z" />
    <glyph glyph-name="afii10042" unicode="&#x428;" horiz-adv-x="1055" 
d="M470 56l84 601q2 11 0 15t-13 5l-72 7l6 40h249l-6 -40l-78 -8q-11 -2 -14 -5t-5 -14l-84 -601h286l84 600q2 12 0 15t-13 5l-66 8l6 40h229l-6 -40l-64 -7q-11 -2 -14 -5.5t-5 -14.5l-82 -588q-2 -11 0.5 -15t13.5 -5l62 -7l-6 -42h-927l6 42l68 8q11 2 13.5 5t4.5 14
l82 587q2 12 0 15t-13 5l-66 8l6 40h229l-6 -40l-64 -7q-11 -2 -14 -5.5t-5 -14.5l-84 -601h278z" />
    <glyph glyph-name="afii10043" unicode="&#x429;" horiz-adv-x="1045" 
d="M35 0l6 42l68 8q11 2 13.5 5t4.5 14l82 586q2 12 0 15t-13 5l-66 8l6 41h229l-6 -41l-64 -7q-11 -2 -14 -5.5t-5 -14.5l-84 -600h273l84 600q2 11 0 15t-13 5l-72 7l6 41h249l-6 -41l-78 -8q-11 -2 -14 -5t-5 -14l-84 -600h281l84 599q2 12 0 15t-13 5l-66 8l6 41h229
l-6 -41l-64 -7q-11 -2 -14 -5.5t-5 -14.5l-84 -600h79l-26 -211l-48 3l-1 139q-1 13 -15 13h-834z" />
    <glyph glyph-name="afii10044" unicode="&#x42a;" horiz-adv-x="761" 
d="M434 57q41 0 79.5 10t68 32t47 57t17.5 84q0 70 -37 98t-111 28h-152l-43 -309h131zM193 668q-14 0 -18 -13l-31 -94l-49 -3l23 166h395l-7 -45l-101 -7q-11 -1 -13.5 -4.5t-4.5 -15.5l-32 -228h148q113 0 163 -47.5t50 -126.5q0 -61 -20.5 -108t-58 -78.5t-90 -47.5
t-115.5 -16h-281l6 41l64 7q11 2 13.5 5.5t4.5 14.5l84 600h-130z" />
    <glyph glyph-name="afii10045" unicode="&#x42b;" horiz-adv-x="941" 
d="M311 58q41 0 79.5 9t68 30.5t47 57t17.5 88.5q0 123 -147 123h-141l-43 -308h119zM244 424h141q55 0 94.5 -13.5t65 -37t37.5 -55.5t12 -70q0 -121 -75 -184.5t-204 -63.5h-276l6 42l64 7q11 2 13.5 5.5t4.5 14.5l82 587q2 12 0 15t-13 5l-62 7l6 41h261l-6 -40l-101 -10
q-11 -1 -14 -4.5t-5 -15.5zM617 0l4 39l73 7q11 1 13.5 5t4.5 15l83 592q2 11 0 15t-13 5l-70 7l4 39h244l-4 -39l-77 -8q-11 -2 -13.5 -5t-4.5 -14l-83 -591q-2 -12 0 -15t13 -5l74 -8l-4 -39h-244z" />
    <glyph glyph-name="afii10046" unicode="&#x42c;" horiz-adv-x="639" 
d="M311 58q41 0 79.5 9t68 30.5t47 57t17.5 88.5q0 123 -147 123h-141l-43 -308h119zM244 424h141q55 0 94.5 -13.5t65 -37t37.5 -55.5t12 -70q0 -121 -75 -184.5t-204 -63.5h-276l6 42l64 7q11 2 13.5 5.5t4.5 14.5l82 587q2 12 0 15t-13 5l-62 7l6 41h261l-6 -40l-101 -10
q-11 -1 -14 -4.5t-5 -15.5z" />
    <glyph glyph-name="afii10047" unicode="&#x42d;" horiz-adv-x="681" 
d="M137 685q42 27 106.5 39.5t132.5 12.5q76 0 130 -23t88.5 -64.5t50.5 -98t16 -124.5q0 -95 -25 -175.5t-75 -139t-124.5 -91.5t-173.5 -33q-66 0 -123.5 14.5t-89.5 38.5l20 146l50 -3l4 -94q0 -6 1 -10.5t9 -7.5q26 -11 61.5 -18t74.5 -7q62 0 114.5 19t94 56t69 91
t37.5 123h-374l8 56h371q1 7 1 13.5v14.5q0 126 -56.5 192.5t-171.5 66.5q-38 0 -80.5 -5.5t-75.5 -19.5q-10 -4 -14 -17l-29 -89h-46z" />
    <glyph glyph-name="afii10048" unicode="&#x42e;" horiz-adv-x="1054" 
d="M671 -12q-67 0 -116.5 23t-81.5 63.5t-48 95.5t-16 119v28.5t2 28.5h-179l-39 -279q-2 -12 0 -15t13 -5l74 -8l-4 -39h-244l4 39l73 7q11 1 13.5 5t4.5 15l83 592q2 11 0 15t-13 5l-70 7l4 39h244l-4 -39l-77 -8q-11 -2 -13.5 -5t-4.5 -14l-36 -256h178q13 75 42.5 136.5
t75 105.5t106.5 68.5t136 24.5q72 0 121 -22.5t79 -62.5t43 -93.5t13 -116.5q0 -106 -23.5 -190t-69 -142.5t-113.5 -90t-157 -31.5zM682 46q63 0 115 25t89.5 73.5t58.5 121t21 167.5q0 29 -3 57t-9 51q-19 72 -61.5 104.5t-122.5 32.5q-61 0 -114.5 -24.5t-93 -72.5
t-62.5 -119t-23 -164q0 -62 14 -110q21 -70 65.5 -106t125.5 -36z" />
    <glyph glyph-name="afii10049" unicode="&#x42f;" horiz-adv-x="701" 
d="M10 0l6 42l68 11q11 2 17 6.5t13 16.5l89 155q23 40 44 66t57 40q-28 7 -54 20.5t-45.5 34t-31 49.5t-11.5 68q0 56 20.5 96.5t56.5 66.5t85 39t107 13h278l-6 -42l-64 -7q-11 -1 -14 -5t-5 -15l-82 -588q-2 -11 0.5 -14.5t13.5 -5.5l62 -7l-6 -40h-229l6 40l69 8
q11 2 14 5t5 15l34 246h-120q-36 0 -53.5 -11t-34.5 -37q-12 -18 -30 -47.5t-38.5 -65.5t-42 -75.5t-41.5 -77.5h-137zM515 373l41 293h-128q-39 0 -74.5 -7t-62.5 -24.5t-43 -47t-16 -74.5q0 -43 15 -70t40.5 -42.5t59 -21.5t70.5 -6h98z" />
    <glyph glyph-name="afii10065" unicode="&#x430;" horiz-adv-x="570" 
d="M378 0l13 94l-3 1q-42 -43 -88.5 -75t-105.5 -32q-71 0 -110 45.5t-39 141.5q0 59 13 120t42 111.5t77 82.5t118 32q44 0 81.5 -17.5t62.5 -38.5l15 46h66q-8 -29 -14.5 -58.5t-11.5 -60.5l-46 -326q-2 -12 0.5 -15t13.5 -5l50 -7l-6 -39h-128zM430 402q-21 22 -59 41.5
t-82 19.5q-51 0 -85.5 -27.5t-55 -69.5t-29.5 -91t-9 -93q0 -77 27.5 -106t70.5 -29q26 0 51.5 12.5t50 31.5t47 42t41.5 44z" />
    <glyph glyph-name="afii10066" unicode="&#x431;" horiz-adv-x="544" 
d="M536 742q-1 -30 -12 -48.5t-30 -29.5t-46 -17t-60 -13q-60 -12 -104 -33t-75 -51.5t-51.5 -70.5t-33.5 -89l4 -2q38 59 92 86.5t113 27.5q44 0 76.5 -14.5t54 -40t32 -59.5t10.5 -72q0 -60 -14 -118.5t-45 -105t-81 -75.5t-122 -29q-49 0 -84.5 16.5t-58.5 46t-34 71.5
t-11 93q0 57 10 124.5t31 126.5q30 85 100.5 145.5t185.5 83.5q32 6 50.5 10.5t28 9t13.5 10t8 14.5zM251 43q51 0 86.5 24t57.5 62.5t32 86t10 94.5q0 65 -28.5 99.5t-91.5 34.5q-49 0 -85.5 -18.5t-61 -51t-37 -75.5t-12.5 -91q0 -34 6.5 -64.5t21.5 -52.5t40 -35t62 -13z
" />
    <glyph glyph-name="afii10067" unicode="&#x432;" horiz-adv-x="525" 
d="M257 -12q-28 0 -56.5 2.5t-54 7t-46.5 10t-35 10.5l47 348q7 52 30.5 82.5t55 46.5t66 21t63.5 5q43 0 72.5 -10t47.5 -26.5t25.5 -38t7.5 -44.5q0 -49 -28.5 -84t-79.5 -52v-2q51 -8 79 -34.5t28 -72.5q0 -45 -17 -77t-47 -52.5t-70.5 -30t-87.5 -9.5zM136 60
q14 -5 46.5 -11t79.5 -6q31 0 58 5.5t47 19t31.5 35t11.5 53.5q0 45 -30.5 60.5t-77.5 15.5h-142zM277 286q25 0 49 5.5t42.5 18.5t30 33t11.5 48q0 40 -23 57.5t-69 17.5q-27 0 -51 -4.5t-42 -15.5t-30 -31t-16 -52l-11 -77h109z" />
    <glyph glyph-name="afii10068" unicode="&#x433;" horiz-adv-x="445" 
d="M272 469q-59 0 -95 -14q-6 -2 -8 -6t-4 -9l-21 -68h-50l15 110q28 16 75 27.5t98 11.5q63 0 103 -30t40 -91q0 -50 -23.5 -80t-58 -48.5t-75.5 -30.5t-75.5 -26t-58 -34.5t-23.5 -57.5q0 -42 26.5 -60.5t68.5 -18.5q48 0 85 20.5t67 49.5l36 -45q-33 -35 -85.5 -58
t-107.5 -23q-67 0 -111.5 34t-44.5 98q0 49 23.5 78.5t58 48t75.5 30.5t75.5 26t58 35t23.5 58q0 36 -23.5 54.5t-63.5 18.5z" />
    <glyph glyph-name="afii10069" unicode="&#x434;" horiz-adv-x="534" 
d="M181 742q103 -13 166 -49.5t97 -85.5t45.5 -105t11.5 -107q0 -25 -1.5 -64.5t-9 -85t-23.5 -91.5t-45 -82.5t-73 -60t-108 -23.5q-53 0 -90 15.5t-60.5 43t-34.5 66.5t-11 85q0 65 16.5 120.5t47.5 96t77 63.5t104 23q48 0 84 -16t65 -41q-13 111 -79.5 170t-202.5 81z
M438 378q-19 22 -55.5 44t-89.5 22q-46 0 -80 -18t-56.5 -50.5t-33.5 -78t-11 -101.5q0 -27 5.5 -54.5t20.5 -49.5t40 -35.5t64 -13.5q62 0 100 31.5t59 80t28.5 108t8.5 115.5z" />
    <glyph glyph-name="afii10070" unicode="&#x435;" horiz-adv-x="470" 
d="M404 27q-37 -20 -80.5 -29.5t-89.5 -9.5q-52 0 -88.5 15t-58.5 42t-32 64t-10 82q0 64 19.5 123.5t55 105.5t86 73.5t112.5 27.5q38 0 63 -9.5t40.5 -25t22 -36.5t6.5 -44q0 -39 -18 -68t-47.5 -50t-66.5 -35t-74.5 -23t-72 -14.5t-59.5 -8.5q0 -37 5.5 -67t20.5 -51
t41 -32t67 -11t74.5 10t68.5 27zM119 263q28 3 73 10t87.5 22t73.5 40.5t31 65.5q0 28 -17 44.5t-56 16.5t-70.5 -16.5t-56 -44.5t-41 -64t-24.5 -74z" />
    <glyph glyph-name="afii10072" unicode="&#x436;" horiz-adv-x="752" 
d="M394 0h-61l34 240h-47q-15 0 -25.5 -1.5t-19.5 -6.5t-18 -15t-20 -27q-9 -13 -23.5 -34.5t-31 -47.5t-33.5 -54t-31 -54h-118l6 40l53 8q10 2 15 6t11 13l86 134q20 31 34.5 45t34.5 23q-20 11 -30.5 26.5t-17.5 45.5l-21 90q-5 24 -13 32t-26 8q-8 0 -18 -1q-5 0 -9 -1
l4 46q8 2 22.5 4t26.5 2q32 0 47.5 -16t23.5 -50l23 -91q6 -25 12 -39.5t13.5 -22.5t19 -10.5t27.5 -2.5h50l21 151q3 16 -10 20l-45 13l13 38h109l4 -6l-31 -216h40q17 0 28.5 2.5t21.5 10t19.5 22.5t21.5 40l45 93q17 35 41 49.5t53 14.5q14 0 27 -2t20 -4l-8 -47
q-4 1 -8 1t-8 0.5t-8 0.5q-18 0 -30.5 -8t-23.5 -32l-46 -96q-15 -31 -31 -44.5t-41 -22.5q15 -5 29.5 -22.5t26.5 -48.5l50 -130q3 -8 6.5 -12.5t13.5 -6.5l53 -8l-6 -39h-116q-7 27 -16.5 55t-19.5 54t-18.5 47t-13.5 34q-7 17 -13 27t-14 15t-18 6.5t-25 1.5h-39z" />
    <glyph glyph-name="afii10073" unicode="&#x437;" horiz-adv-x="471" 
d="M287 521q79 0 117.5 -32.5t38.5 -84.5q0 -55 -35.5 -91t-89.5 -48v-3q46 -8 75.5 -33.5t29.5 -79.5q0 -39 -16.5 -69.5t-45 -50.5t-67.5 -30.5t-83 -10.5q-60 0 -110.5 18t-73.5 45l38 46q23 -22 61.5 -37.5t89.5 -15.5q23 0 47.5 5t45 17t33.5 32t13 50q0 83 -105 83
h-103l8 54h70q66 0 107.5 28.5t41.5 76.5q0 44 -29.5 61t-67.5 17q-28 0 -52 -3t-41 -10q-6 -2 -8 -6t-4 -9l-21 -68h-50l15 110q29 17 74.5 28t96.5 11z" />
    <glyph glyph-name="afii10074" unicode="&#x438;" horiz-adv-x="616" 
d="M416 0l16 104q-26 -22 -53 -43t-54 -37.5t-54.5 -26t-56.5 -9.5q-55 0 -86.5 26.5t-31.5 93.5q0 12 1.5 29.5t3.5 31.5l39 275q2 12 -0.5 15t-13.5 5l-53 8l6 39h134l2 -3l-45 -319q-6 -39 -6 -68q0 -36 13.5 -53.5t49.5 -17.5q27 0 57.5 14.5t59 34.5t53.5 42t42 38
l36 265q2 12 -0.5 15t-13.5 5l-62 8l6 39h144l2 -3l-62 -443q-3 -16 9 -18l57 -9l-5 -38h-134z" />
    <glyph glyph-name="afii10075" unicode="&#x439;" horiz-adv-x="616" 
d="M416 0l16 104q-26 -22 -53 -43t-54 -37.5t-54.5 -26t-56.5 -9.5q-55 0 -86.5 26.5t-31.5 93.5q0 12 1.5 29.5t3.5 31.5l39 275q2 12 -0.5 15t-13.5 5l-53 8l6 39h134l2 -3l-45 -319q-6 -39 -6 -68q0 -36 13.5 -53.5t49.5 -17.5q27 0 57.5 14.5t59 34.5t53.5 42t42 38
l36 265q2 12 -0.5 15t-13.5 5l-62 8l6 39h144l2 -3l-62 -443q-3 -16 9 -18l57 -9l-5 -38h-134zM523 705q-26 -64 -71.5 -98t-114.5 -34t-103.5 35.5t-42.5 96.5l56 19q8 -50 30.5 -74t67.5 -24t74 24t52 74z" />
    <glyph glyph-name="afii10076" unicode="&#x43a;" horiz-adv-x="528" 
d="M145 0h-65l64 449q2 8 0 10.5t-9 4.5l-44 9l5 38h118l3 -5l-32 -224h50q34 0 56 13.5t42 51.5l56 106q20 39 45.5 53.5t55.5 14.5q10 0 21 -1t22 -3l-6 -48q-5 1 -9.5 1h-9.5q-25 0 -37.5 -10t-25.5 -34l-49 -94q-14 -26 -32 -42.5t-50 -25.5q16 -7 28 -20t26 -43
l61 -133q4 -8 7 -12.5t11 -6.5l46 -8l-4 -41h-106q-8 24 -18.5 50t-21 50t-19.5 44t-15 33q-15 33 -29.5 44t-47.5 11h-53z" />
    <glyph glyph-name="afii10077" unicode="&#x43b;" horiz-adv-x="581" 
d="M385 0l-2 5l63 455h-161q-11 -81 -23 -139.5t-24 -110.5q-15 -64 -34.5 -106t-43.5 -66.5t-53.5 -34t-66.5 -9.5h-17l-8 54h13q25 0 46.5 5.5t40 23.5t34.5 53t30 94q4 18 9.5 45t11.5 57.5t12 62.5t10 61q2 8 0.5 11t-9.5 4l-49 5l6 41h345l4 -5l-60 -443q-1 -8 1 -11
t10 -5l52 -10l-6 -37h-131z" />
    <glyph glyph-name="afii10078" unicode="&#x43c;" horiz-adv-x="754" 
d="M559 0l-2 4l57 408h-1l-189 -293h-68l-80 287q-11 -51 -23.5 -103t-24.5 -93q-20 -67 -40 -109.5t-44.5 -67t-54.5 -33t-71 -6.5l-8 52q27 -1 49 4t41 23t36.5 54t35.5 97q5 18 12.5 46t15 61t15 67t11.5 63l-53 9l5 41h130l91 -338h1l209 338h79l4 -6l-62 -445
q-1 -12 11 -13l54 -9l-6 -38h-130z" />
    <glyph glyph-name="afii10079" unicode="&#x43d;" horiz-adv-x="614" 
d="M444 238h-262l-34 -238h-63l-2 4l62 438q3 17 -11 21l-54 11l5 37h134l2 -4l-31 -216h262l33 220h62l2 -4l-62 -439q-3 -17 11 -21l54 -10l-5 -37h-135l-2 6l18 110z" />
    <glyph glyph-name="afii10080" unicode="&#x43e;" horiz-adv-x="552" 
d="M245 -12q-52 0 -90 15t-62.5 42t-36 65t-11.5 84q0 71 17.5 130.5t52.5 103.5t87 68.5t120 24.5q53 0 90 -16t60.5 -43.5t34 -65.5t10.5 -82q0 -76 -18.5 -136.5t-53 -102.5t-85 -64.5t-115.5 -22.5zM252 43q89 0 143 69.5t54 202.5q0 74 -34.5 110.5t-100.5 36.5
q-91 0 -146.5 -67t-55.5 -195q0 -76 35 -116.5t105 -40.5z" />
    <glyph glyph-name="afii10081" unicode="&#x43f;" horiz-adv-x="619" 
d="M415 0l-2 3l19 108l30 209q6 39 6 68q0 38 -12.5 54.5t-48.5 16.5q-27 0 -57.5 -14t-59 -34t-54 -41.5t-42.5 -37.5l-36 -265q-2 -12 0.5 -15t13.5 -5l67 -8l-6 -39h-216l6 40l50 7q11 2 14 5.5t5 14.5l51 371q3 18 -9 21l-55 15l5 37h133l-15 -104q25 21 50.5 41
t52.5 36.5t56 26.5t59 10q63 0 90.5 -30.5t27.5 -89.5q0 -12 -1.5 -29.5t-3.5 -31.5l-39 -273q-2 -12 0.5 -15t13.5 -5l58 -8l-6 -39h-145z" />
    <glyph glyph-name="afii10082" unicode="&#x440;" horiz-adv-x="577" 
d="M47 -212l-4 4l28 170l65 476q3 18 -9 21l-55 15l5 37h135l-14 -98q21 18 44.5 37t49.5 35t54 26t57 10q30 0 55.5 -10.5t44 -34t29 -60t10.5 -88.5q0 -57 -13 -117t-42.5 -109.5t-76 -81.5t-112.5 -32q-85 0 -150 65l-25 -194q-2 -12 -0.5 -15.5t12.5 -4.5l88 -7l-6 -44
h-170zM158 120q24 -29 59.5 -52.5t77.5 -23.5q50 0 84.5 27t55.5 68.5t30.5 90t9.5 91.5q0 41 -6.5 67.5t-18 42.5t-27.5 22t-35 6q-26 0 -54.5 -13.5t-55.5 -33t-50.5 -40.5t-39.5 -37z" />
    <glyph glyph-name="afii10083" unicode="&#x441;" horiz-adv-x="482" 
d="M411 27q-28 -17 -73.5 -28t-91.5 -11q-54 0 -92 14.5t-62 41.5t-35.5 65t-11.5 84q0 89 24 151t64.5 101.5t93 57.5t110.5 18q55 0 88 -10.5t47 -16.5l-17 -123l-48 3l-3 66q0 10 -11 14t-28 6.5t-42 2.5q-39 0 -76.5 -14t-67.5 -45t-48 -80.5t-18 -120.5
q0 -81 35.5 -120t101.5 -39q42 0 79 10.5t64 26.5z" />
    <glyph glyph-name="afii10084" unicode="&#x442;" horiz-adv-x="901" 
d="M699 0l-2 3l18 99l31 218q4 26 6.5 47t2.5 37q0 28 -10 41.5t-42 13.5q-37 0 -80.5 -31t-113.5 -96l-39 -265q-2 -12 0.5 -15t13.5 -5l59 -8l-6 -39h-144l-2 3l20 109l30 208q3 19 5.5 44.5t2.5 37.5q0 30 -11.5 43.5t-40.5 13.5q-23 0 -48 -11t-51 -28.5t-52.5 -40.5
t-52.5 -47l-36 -265q-2 -12 0.5 -15t13.5 -5l67 -8l-6 -39h-215l6 40l50 7q11 2 14 5.5t5 14.5l51 371q3 17 -9 21l-55 15l5 37h133l-15 -104q33 28 60 49t52 35.5t48.5 22t49.5 7.5q48 0 75 -21t27 -77q0 -6 -0.5 -11.5t-0.5 -7.5q21 20 45 40.5t49.5 37.5t53 28t55.5 11
q61 0 83.5 -28t22.5 -76q0 -14 -2 -34t-5 -40l-39 -276q-2 -12 0.5 -15t13.5 -5l59 -8l-6 -39h-144z" />
    <glyph glyph-name="afii10085" unicode="&#x443;" horiz-adv-x="506" 
d="M193 20l-102 427q-2 9 -5.5 12t-11.5 5l-41 10l8 37h111l3 -4l22 -125l62 -284l179 365l-62 11l4 37h144l5 -7l-295 -579q-19 -38 -36.5 -65.5t-38 -46t-45.5 -27.5t-59 -9q-21 0 -40.5 4.5t-35.5 10.5t-27.5 13t-17.5 13l32 47q11 -8 35.5 -19.5t50.5 -11.5q22 0 38 6.5
t29.5 20t25.5 33.5t26 47z" />
    <glyph glyph-name="afii10086" unicode="&#x444;" horiz-adv-x="737" 
d="M445 521q54 -1 100.5 -12t80 -36.5t52.5 -66t19 -99.5q0 -74 -18 -132t-57.5 -98.5t-101.5 -63t-150 -24.5l-18 -130q-1 -5 -1 -11q0 -8 14 -9l67 -7l-6 -44h-231l6 45l65 6q10 1 13.5 5t5.5 15l18 129q-133 8 -192 66t-59 155q0 92 28 152.5t74 96t104.5 49.5t119.5 14
l21 152v5q0 12 -10 16l-58 19l13 42h133zM377 43q37 1 81 8.5t82 33.5t63.5 77t25.5 140q0 49 -15 80.5t-40.5 50.5t-60.5 26.5t-76 8.5zM370 468q-40 -2 -84 -10.5t-81 -35t-61 -77t-24 -135.5q0 -52 17.5 -84t45.5 -50.5t61.5 -25.5t66.5 -8z" />
    <glyph glyph-name="afii10087" unicode="&#x445;" horiz-adv-x="548" 
d="M385 0l-6 6l-34 71l-74 139l-138 -168l66 -9l-4 -39h-207l5 39l56 11q8 2 12 4.5t12 11.5l167 200l-94 183q-4 8 -8 11.5t-13 5.5l-39 5l6 40h98l4 -4l35 -79l60 -116l131 152l-58 8l6 39h183l-6 -39l-41 -10q-10 -2 -15.5 -6.5t-11.5 -12.5l-157 -179l103 -196
q5 -9 10 -12.5t13 -5.5l63 -11l-6 -39h-118z" />
    <glyph glyph-name="afii10088" unicode="&#x446;" horiz-adv-x="616" 
d="M485 -4q-64 3 -58 66l5 42q-26 -22 -53 -43t-54 -37.5t-54.5 -26t-56.5 -9.5q-55 0 -86.5 26.5t-31.5 93.5q0 12 1.5 29.5t3.5 31.5l39 275q2 12 -0.5 15t-13.5 5l-53 8l6 39h134l2 -3l-45 -319q-6 -39 -6 -68q0 -36 13.5 -53.5t49.5 -17.5q27 0 57.5 14.5t59 34.5
t53.5 42t42 38l36 265q2 12 -0.5 15t-13.5 5l-62 8l6 39h144l2 -3l-60 -428q-3 -22 2.5 -30.5t24.5 -8.5h34l-22 -166l-51 5z" />
    <glyph glyph-name="afii10089" unicode="&#x447;" horiz-adv-x="564" 
d="M395 254q-15 -12 -36.5 -26t-47 -26t-54 -20t-58.5 -8q-66 0 -90.5 29t-16.5 83l22 161q3 15 -10 18l-49 6l6 40h123l4 -6l-29 -210q-4 -26 4 -45t45 -19q20 0 40 4.5t42.5 15t50 28t63.5 42.5l18 127q2 8 0.5 11.5t-9.5 4.5l-53 8l6 39h127l4 -3l-60 -442q-3 -16 11 -19
l54 -10l-5 -37h-137l-2 6l16 96z" />
    <glyph glyph-name="afii10090" unicode="&#x448;" horiz-adv-x="898" 
d="M213 511l2 -3l-45 -317q-4 -26 -6.5 -47t-2.5 -37q0 -28 10 -41.5t42 -13.5q38 0 81 31.5t113 95.5l39 265q2 12 -0.5 15t-13.5 5l-59 8l6 39h140l2 -3l-46 -317q-3 -19 -5.5 -44.5t-2.5 -37.5q0 -30 11.5 -43.5t40.5 -13.5q23 0 48 11t51 28.5t52.5 40.5t52.5 47l36 265
q2 12 -0.5 15t-13.5 5l-67 8l6 39h143l5 -3l-59 -435q-2 -8 -0.5 -13.5t9.5 -7.5l55 -15l-5 -37h-133l15 104q-33 -28 -60 -49t-51.5 -35.5t-48.5 -22t-50 -7.5q-48 0 -75 21t-27 77q0 6 0.5 11.5t0.5 7.5q-21 -19 -45 -40t-49.5 -38t-53 -28t-55.5 -11q-61 0 -83.5 28
t-22.5 76q0 14 2 34t5 40l39 276q2 12 -0.5 15t-13.5 5l-59 8l6 39h140z" />
    <glyph glyph-name="afii10091" unicode="&#x449;" horiz-adv-x="904" 
d="M219 511l2 -3l-45 -317q-4 -26 -6.5 -47t-2.5 -37q0 -28 10 -41.5t42 -13.5q38 0 81 31.5t113 95.5l39 265q2 12 -0.5 15t-13.5 5l-59 8l6 39h140l2 -3l-46 -317q-3 -19 -5.5 -44.5t-2.5 -37.5q0 -30 11.5 -43.5t40.5 -13.5q23 0 48 11t51 28.5t52.5 40.5t52.5 47l36 265
q2 12 -0.5 15t-13.5 5l-67 8l6 39h143l5 -3l-59 -435q-2 -18 4.5 -25t23.5 -7h34l-22 -166l-52 6l7 115q-31 2 -47 18.5t-11 47.5l6 41q-33 -27 -60.5 -48.5t-52.5 -35.5t-49 -21.5t-50 -7.5q-48 0 -75 21t-27 77q0 6 0.5 11.5t0.5 7.5q-21 -19 -45 -40t-49.5 -38t-53 -28
t-55.5 -11q-61 0 -83.5 28t-22.5 76q0 14 2 34t5 40l39 276q2 12 -0.5 15t-13.5 5l-59 8l6 39h140z" />
    <glyph glyph-name="afii10092" unicode="&#x44a;" horiz-adv-x="572" 
d="M377 309q74 0 117 -36.5t43 -102.5q0 -50 -18.5 -84.5t-48.5 -56.5t-68 -31.5t-77 -9.5q-46 0 -90.5 8t-71.5 19l61 445h-81q-8 0 -11.5 -3t-6.5 -11l-18 -59l-52 -3l18 127h221l4 -4l-31 -209q23 4 52 7.5t58 3.5zM234 57q14 -5 40 -9.5t53 -4.5t52 6.5t45 21t32 38.5
t12 59q0 27 -10 43.5t-25 26.5t-34 13.5t-37 3.5q-35 0 -62 -4.5t-41 -7.5z" />
    <glyph glyph-name="afii10093" unicode="&#x44b;" horiz-adv-x="746" 
d="M290 308q74 0 117 -36t43 -106q0 -48 -18.5 -81.5t-48.5 -55t-68 -31.5t-77 -10q-46 0 -88 8t-69 19l59 433q1 13 -10 14l-52 8l6 41h128l3 -3l-30 -211q23 4 49.5 7.5t55.5 3.5zM152 57q14 -5 37.5 -9.5t50.5 -4.5t52 6.5t45 20.5t32 37t12 56q0 29 -10 46.5t-25 27.5
t-34 13.5t-37 3.5q-35 0 -59.5 -4.5t-38.5 -7.5zM541 0l-2 4l20 106l47 330q3 17 -11 21l-54 13l5 37h136l-63 -444q-2 -12 0.5 -15t13.5 -5l64 -8l-6 -39h-150z" />
    <glyph glyph-name="afii10094" unicode="&#x44c;" 
d="M305 308q74 0 117 -36t43 -102q0 -50 -18.5 -84.5t-48.5 -56.5t-68 -31.5t-77 -9.5q-23 0 -47.5 2t-48 6t-43 9t-33.5 10l59 433q1 13 -10 14l-52 8l6 41h128l3 -3l-30 -211q23 4 57 7.5t63 3.5zM152 57q14 -5 45 -9.5t58 -4.5t52 6.5t45 21t32 38.5t12 59q0 27 -10 43.5
t-25 26t-34 13t-37 3.5q-35 0 -67 -4.5t-46 -7.5z" />
    <glyph glyph-name="afii10095" unicode="&#x44d;" horiz-adv-x="535" 
d="M435 285q6 90 -36 135.5t-121 45.5q-28 0 -56 -5t-51 -14q-7 -2 -11 -15l-20 -64h-48l16 114q32 17 81.5 28t103.5 11t93 -15.5t64.5 -44t37.5 -68t12 -88.5q0 -63 -18 -120.5t-54 -101t-90.5 -69.5t-126.5 -26q-33 0 -62 5.5t-52.5 14t-40 18.5t-25.5 19l34 51
q20 -16 57 -33.5t90 -17.5q78 0 136 45.5t80 140.5h-238l8 54h237z" />
    <glyph glyph-name="afii10096" unicode="&#x44e;" horiz-adv-x="772" 
d="M482 -12q-51 0 -86.5 17t-58 46t-32.5 66.5t-10 78.5v16t1 16h-122l-33 -228h-66l63 440q3 17 -11 21l-54 13l5 37h136l-33 -230h121q11 54 32 98t53 75.5t75 49t97 17.5q49 0 83 -16.5t55 -45t30.5 -66.5t9.5 -81q0 -70 -17 -129.5t-49.5 -103t-80 -67.5t-108.5 -24z
M487 44q39 0 72 17t57.5 50.5t38.5 82.5t14 113q0 155 -120 155q-39 0 -73 -16.5t-59.5 -49.5t-40.5 -81t-15 -111q0 -80 32 -120t94 -40z" />
    <glyph glyph-name="afii10097" unicode="&#x44f;" horiz-adv-x="568" 
d="M437 453q-17 9 -49.5 12t-61.5 3q-59 0 -97.5 -24.5t-38.5 -86.5q0 -28 11 -45t29.5 -26.5t42 -13t48.5 -3.5h91zM16 45l53 9q10 2 13.5 5.5t11.5 16.5l54 90q16 26 31.5 44t41.5 28q-19 5 -37.5 13t-33 22.5t-23 35t-8.5 49.5q0 81 56.5 122t162.5 41q18 0 42 -2t49 -6
t46 -9.5t33 -12.5l-58 -430q-1 -10 8 -11l48 -6l-6 -44h-124l-4 5l15 92l18 120h-119q-20 0 -32 -7.5t-24 -26.5q-9 -15 -22 -36t-27 -45t-29 -50.5t-29 -51.5h-113z" />
    <glyph glyph-name="afii10071" unicode="&#x451;" horiz-adv-x="470" 
d="M404 27q-37 -20 -80.5 -29.5t-89.5 -9.5q-52 0 -88.5 15t-58.5 42t-32 64t-10 82q0 64 19.5 123.5t55 105.5t86 73.5t112.5 27.5q38 0 63 -9.5t40.5 -25t22 -36.5t6.5 -44q0 -39 -18 -68t-47.5 -50t-66.5 -35t-74.5 -23t-72 -14.5t-59.5 -8.5q0 -37 5.5 -67t20.5 -51
t41 -32t67 -11t74.5 10t68.5 27zM119 263q28 3 73 10t87.5 22t73.5 40.5t31 65.5q0 28 -17 44.5t-56 16.5t-70.5 -16.5t-56 -44.5t-41 -64t-24.5 -74zM421 609q-21 0 -33 11t-12 30q0 24 15.5 40.5t42.5 16.5q44 0 44 -41q0 -23 -15.5 -40t-41.5 -17zM222 609q-21 0 -33 11
t-12 30q0 24 15.5 40.5t42.5 16.5q44 0 44 -41q0 -23 -15.5 -40t-41.5 -17z" />
    <glyph glyph-name="afii10099" unicode="&#x452;" horiz-adv-x="584" 
d="M177 -151q45 -17 80 -17q54 0 94.5 39.5t66.5 105t39 149.5t13 173q0 46 -6 73.5t-17 42.5t-26.5 20t-33.5 5q-30 0 -58 -7.5t-52 -18.5t-43.5 -23.5t-33.5 -23.5l-42 -300q-1 -4 -1 -9q0 -6 3 -8t12 -3l59 -7l-6 -40h-211l6 41l53 6q11 1 13.5 5t4.5 15l71 509h-70l8 56
h70l6 50q0 2 0.5 3.5t0.5 3.5q0 11 -11 14l-56 13l10 39h135l-18 -123h194l-8 -56h-194l-20 -145q17 12 38.5 24t45.5 22.5t51.5 17t56.5 6.5q31 0 55.5 -9t42 -31t26.5 -59t9 -92q0 -100 -15 -196t-47.5 -171t-84 -120.5t-125.5 -45.5q-29 0 -57.5 7t-48.5 15z" />
    <glyph glyph-name="afii10100" unicode="&#x453;" horiz-adv-x="445" 
d="M402 701l-47 56l-166 -153l29 -35zM272 469q-59 0 -95 -14q-6 -2 -8 -6t-4 -9l-21 -68h-50l15 110q28 16 75 27.5t98 11.5q63 0 103 -30t40 -91q0 -50 -23.5 -80t-58 -48.5t-75.5 -30.5t-75.5 -26t-58 -34.5t-23.5 -57.5q0 -42 26.5 -60.5t68.5 -18.5q48 0 85 20.5
t67 49.5l36 -45q-33 -35 -85.5 -58t-107.5 -23q-67 0 -111.5 34t-44.5 98q0 49 23.5 78.5t58 48t75.5 30.5t75.5 26t58 35t23.5 58q0 36 -23.5 54.5t-63.5 18.5z" />
    <glyph glyph-name="afii10101" unicode="&#x454;" horiz-adv-x="509" 
d="M441 27q-27 -17 -74.5 -28t-103.5 -11q-113 0 -165.5 57t-52.5 152q0 87 25.5 148.5t68.5 100.5t99.5 57t118.5 18q63 0 97 -10.5t48 -16.5l-17 -123l-48 3l-3 66q0 10 -11 14t-29.5 6.5t-53.5 2.5q-39 0 -74.5 -10t-64.5 -31.5t-50.5 -55.5t-30.5 -82h235l-8 -53h-234
v-23q0 -85 40 -124.5t115 -39.5q51 0 89.5 10.5t65.5 26.5z" />
    <glyph glyph-name="afii10102" unicode="&#x455;" horiz-adv-x="440" 
d="M356 375l-3 67q0 13 -11 17q-10 4 -28 6.5t-47 2.5q-23 0 -45 -5t-38.5 -15.5t-26.5 -26.5t-10 -39q0 -36 27 -55.5t64 -35.5q25 -10 51 -21.5t47 -28t34.5 -40.5t13.5 -59q0 -41 -15.5 -70t-41.5 -48t-60 -27.5t-71 -8.5q-69 0 -115.5 12t-59.5 20l18 123l47 -3l3 -69
q0 -10 13 -15q14 -5 37 -10t58 -5q54 0 87 24.5t33 70.5q0 23 -10 39t-26.5 28t-38 21t-43.5 18t-43.5 19.5t-38 25t-26.5 35t-10 49.5q0 40 16 68.5t42.5 46.5t62 26.5t74.5 8.5q55 0 92.5 -10t51.5 -16l-17 -123z" />
    <glyph glyph-name="afii10103" unicode="&#x456;" horiz-adv-x="286" 
d="M185 635q-23 0 -35.5 12t-12.5 32q0 26 17 44t46 18q23 0 35 -12t12 -32q0 -26 -16.5 -44t-45.5 -18zM77 0l-2 4l20 106l47 330q3 17 -11 21l-54 13l5 37h136l-63 -444q-2 -12 0.5 -15t13.5 -5l64 -8l-6 -39h-150z" />
    <glyph glyph-name="afii10104" unicode="&#x457;" horiz-adv-x="306" 
d="M87 0l-2 4l20 106l47 330q3 17 -11 21l-54 13l5 37h136l-63 -444q-2 -12 0.5 -15t13.5 -5l64 -8l-6 -39h-150zM266 637q-21 0 -33 11t-12 30q0 24 15.5 40.5t42.5 16.5q44 0 44 -41q0 -23 -15.5 -40t-41.5 -17zM107 637q-21 0 -33 11t-12 30q0 24 15.5 40.5t42.5 16.5
q44 0 44 -41q0 -23 -15.5 -40t-41.5 -17z" />
    <glyph glyph-name="afii10105" unicode="&#x458;" horiz-adv-x="274" 
d="M140 439q3 18 -9 21l-60 14l6 37h139l-81 -581q-11 -80 -45.5 -116.5t-103.5 -36.5q-21 0 -40.5 4.5t-35.5 10.5t-27.5 13t-17.5 13l32 47q11 -8 35.5 -19.5t50.5 -11.5q46 0 63 28.5t24 82.5zM186 635q-23 0 -35.5 12t-12.5 32q0 26 17 44t46 18q23 0 35 -12t12 -32
q0 -26 -16.5 -44t-45.5 -18z" />
    <glyph glyph-name="afii10106" unicode="&#x459;" horiz-adv-x="779" 
d="M469 294q23 4 54.5 7.5t60.5 3.5q74 0 117 -35.5t43 -105.5q0 -48 -18.5 -81.5t-48.5 -54.5t-68 -30.5t-77 -9.5q-46 0 -93 8t-74 19l59 445h-149q-12 -81 -23.5 -139.5t-23.5 -110.5q-15 -64 -33.5 -105.5t-41 -66.5t-50.5 -35t-62 -10q-5 0 -9 0.5t-9 0.5l-8 55h15
q23 0 42 5.5t36.5 24t32.5 53t28 92.5q4 18 9.5 45t11.5 57.5t12 62.5t10 61q2 8 0.5 11t-9.5 4l-49 5l6 41h335l3 -4zM436 57q14 -5 42.5 -9.5t55.5 -4.5t52 6.5t45 20.5t32 37t12 56q0 29 -10 46t-25 26.5t-34 12.5t-37 3q-35 0 -64.5 -4.5t-43.5 -7.5z" />
    <glyph glyph-name="afii10107" unicode="&#x45a;" horiz-adv-x="825" 
d="M578 -12q-46 0 -93 8t-74 19l29 223h-253l-34 -238h-63l-2 4l62 438q3 17 -11 21l-54 11l5 37h134l2 -4l-31 -216h252l33 220h62l2 -4l-30 -213q23 4 55 7.5t61 3.5q74 0 117 -35.5t43 -105.5q0 -48 -18.5 -81.5t-48.5 -54.5t-68 -30.5t-77 -9.5zM482 57q14 -5 42.5 -9.5
t55.5 -4.5t52 6.5t45 20.5t32 37t12 56q0 29 -10 46t-25 26.5t-34 12.5t-37 3q-35 0 -64.5 -4.5t-43.5 -8.5z" />
    <glyph glyph-name="afii10108" unicode="&#x45b;" horiz-adv-x="617" 
d="M414 0l-2 3l19 100l29 197q3 20 4.5 39.5t1.5 33.5q0 29 -12.5 47.5t-46.5 18.5q-51 0 -103.5 -36t-112.5 -91l-36 -245q-2 -12 0.5 -15t13.5 -5l69 -8l-6 -39h-217l6 40l50 7q12 2 15 5t5 15l71 509h-70l7 56h71l7 51q3 18 -9 21l-56 14l5 37h136l-18 -123h195l-7 -56
h-196q-9 -66 -14.5 -103.5t-7.5 -56.5q-3 -23 -4 -29q59 50 110 82t109 32q60 0 87 -31t27 -88q0 -13 -1.5 -30t-3.5 -32l-37 -253q-2 -12 0.5 -15t13.5 -5l58 -8l-6 -39h-144z" />
    <glyph glyph-name="afii10109" unicode="&#x45c;" horiz-adv-x="528" 
d="M299 569l-29 35l166 153l47 -56zM145 0h-65l64 449q2 8 0 10.5t-9 4.5l-44 9l5 38h118l3 -5l-32 -224h50q34 0 56 13.5t42 51.5l56 106q20 39 45.5 53.5t55.5 14.5q10 0 21 -1t22 -3l-6 -48q-5 1 -9.5 1h-9.5q-25 0 -37.5 -10t-25.5 -34l-49 -94q-14 -26 -32 -42.5
t-50 -25.5q16 -7 28 -20t26 -43l61 -133q4 -8 7 -12.5t11 -6.5l46 -8l-4 -41h-106q-8 24 -18.5 50t-21 50t-19.5 44t-15 33q-15 33 -29.5 44t-47.5 11h-53z" />
    <glyph glyph-name="afii10110" unicode="&#x45e;" horiz-adv-x="506" 
d="M193 20l-102 427q-2 9 -5.5 12t-11.5 5l-41 10l8 37h111l3 -4l22 -125l62 -284l179 365l-62 11l4 37h144l5 -7l-295 -579q-19 -38 -36.5 -65.5t-38 -46t-45.5 -27.5t-59 -9q-21 0 -40.5 4.5t-35.5 10.5t-27.5 13t-17.5 13l32 47q11 -8 35.5 -19.5t50.5 -11.5q22 0 38 6.5
t29.5 20t25.5 33.5t26 47zM466 705q-26 -64 -71.5 -98t-114.5 -34t-103.5 35.5t-42.5 96.5l56 19q8 -50 30.5 -74t67.5 -24t74 24t52 74z" />
    <glyph glyph-name="afii10193" unicode="&#x45f;" horiz-adv-x="616" 
d="M416 0l16 104q-26 -22 -53 -43t-54 -37.5t-54.5 -26t-56.5 -9.5q-55 0 -86.5 26.5t-31.5 93.5q0 12 1.5 29.5t3.5 31.5l39 275q2 12 -0.5 15t-13.5 5l-53 8l6 39h134l2 -3l-45 -319q-6 -39 -6 -68q0 -36 13.5 -53.5t49.5 -17.5q27 0 57.5 14.5t59 34.5t53.5 42t42 38
l36 265q2 12 -0.5 15t-13.5 5l-62 8l6 39h144l2 -3l-62 -443q-3 -16 9 -18l57 -9l-5 -38h-134zM295 -38l-35 -142l-57 -4l21 136z" />
    <glyph glyph-name="afii10050" unicode="&#x490;" horiz-adv-x="532" 
d="M279 668l-83 -598q-2 -12 0 -15.5t13 -4.5l146 -11l-6 -39h-309l6 41l64 7q11 2 13.5 5.5t4.5 14.5l82 584q2 11 0 15t-13 5l-62 7l6 45h358q16 0 19 13l32 96l49 3l-24 -168h-296z" />
    <glyph glyph-name="afii10098" unicode="&#x491;" horiz-adv-x="422" 
d="M30 0l5 37l47 5q13 1 14 14l55 395q1 8 -0.5 11t-9.5 3l-45 5l5 41h267q10 0 13 9l23 65l49 4l-18 -130h-215l-56 -401q-2 -8 -0.5 -10.5t9.5 -3.5l106 -8l-5 -36h-244z" />
    <glyph glyph-name="thinspace" unicode="&#x2009;" horiz-adv-x="125" 
 />
    <glyph glyph-name="endash" unicode="&#x2013;" 
d="M7 255l8 54h499l-8 -54h-499z" />
    <glyph glyph-name="emdash" unicode="&#x2014;" horiz-adv-x="1000" 
d="M7 255l8 54h999l-8 -54h-999z" />
    <glyph glyph-name="quoteleft" unicode="&#x2018;" horiz-adv-x="172" 
d="M175 559q-35 3 -57.5 13t-22.5 36q0 14 5.5 24.5t13.5 22.5l68 101l34 -15l-43 -94q-3 -6 4 -9l27 -13z" />
    <glyph glyph-name="quoteright" unicode="&#x2019;" horiz-adv-x="177" 
d="M91 572l43 94q3 6 -4 9l-27 13l29 66q35 -3 57.5 -13t22.5 -36q0 -14 -5.5 -24.5t-13.5 -22.5l-68 -101z" />
    <glyph glyph-name="quotesinglbase" unicode="&#x201a;" horiz-adv-x="166" 
d="M0 -103l43 94q3 6 -4 9l-27 13l29 66q35 -3 57.5 -13t22.5 -36q0 -14 -5.5 -24.5t-13.5 -22.5l-68 -101z" />
    <glyph glyph-name="quotedblleft" unicode="&#x201c;" horiz-adv-x="315" 
d="M318 559q-35 3 -57.5 13t-22.5 36q0 14 5.5 24.5t13.5 22.5l68 101l34 -15l-43 -94q-3 -6 4 -9l27 -13zM175 559q-35 3 -57.5 13t-22.5 36q0 14 5.5 24.5t13.5 22.5l68 101l34 -15l-43 -94q-3 -6 4 -9l27 -13z" />
    <glyph glyph-name="quotedblright" unicode="&#x201d;" horiz-adv-x="320" 
d="M234 572l43 94q3 6 -4 9l-27 13l29 66q35 -3 57.5 -13t22.5 -36q0 -14 -5.5 -24.5t-13.5 -22.5l-68 -101zM91 572l43 94q3 6 -4 9l-27 13l29 66q35 -3 57.5 -13t22.5 -36q0 -14 -5.5 -24.5t-13.5 -22.5l-68 -101z" />
    <glyph glyph-name="quotedblbase" unicode="&#x201e;" horiz-adv-x="309" 
d="M143 -103l43 94q3 6 -4 9l-27 13l29 66q35 -3 57.5 -13t22.5 -36q0 -14 -5.5 -24.5t-13.5 -22.5l-68 -101zM0 -103l43 94q3 6 -4 9l-27 13l29 66q35 -3 57.5 -13t22.5 -36q0 -14 -5.5 -24.5t-13.5 -22.5l-68 -101z" />
    <glyph glyph-name="dagger" unicode="&#x2020;" horiz-adv-x="389" 
d="M123 -83l27 192l16 211l41 112h33l9 -112l-42 -212l-27 -191h-57zM121 417h-74l9 63h74l82 -15l-5 -33zM212 465l-2 96l12 84h63l-12 -84l-28 -96h-33zM322 417l-82 15l5 33l86 15h74l-9 -63h-74z" />
    <glyph glyph-name="daggerdbl" unicode="&#x2021;" horiz-adv-x="407" 
d="M290 82l-82 15l5 33h-33l-5 -33h33l2 -96l-12 -84h-63l12 84l28 96l-86 -15h-74l9 63h74l82 -15l-9 116l11 78l40 108l-86 -15h-74l9 63h74l82 -15l-2 96l12 84h63l-12 -84l-28 -96l86 15h74l-9 -63h-74l-82 15l5 33h-33l-5 -33h33l10 -108l-11 -78l-41 -116l86 15h74
l-9 -63h-74z" />
    <glyph glyph-name="bullet" unicode="&#x2022;" horiz-adv-x="365" 
d="M341 280q0 -65 -34.5 -97t-97.5 -32t-97 32t-34 97t34 97t97 32t97.5 -32t34.5 -97z" />
    <glyph glyph-name="ellipsis" unicode="&#x2026;" horiz-adv-x="549" 
d="M326 57q0 -29 -16.5 -49t-50.5 -20q-24 0 -37.5 11t-13.5 33q0 32 17.5 51t49.5 19q51 0 51 -45zM509 57q0 -29 -16.5 -49t-50.5 -20q-24 0 -37.5 11t-13.5 33q0 32 17.5 51t49.5 19q51 0 51 -45zM143 57q0 -29 -16.5 -49t-50.5 -20q-24 0 -37.5 11t-13.5 33
q0 32 17.5 51t49.5 19q51 0 51 -45z" />
    <glyph glyph-name="perthousand" unicode="&#x2030;" horiz-adv-x="1056" 
d="M197 295q-33 0 -55.5 10.5t-37 28t-21 41t-6.5 49.5q0 42 11 77.5t32 62t52.5 41.5t72.5 15q63 0 91 -34.5t28 -91.5q0 -43 -10.5 -79.5t-31.5 -63t-52.5 -41.5t-72.5 -15zM109 -17l466 638h65l-465 -638h-66zM203 345q34 0 54 15t30 37t12.5 47t2.5 44q0 33 -13.5 57
t-50.5 24q-29 0 -48.5 -14t-31 -35t-16 -46t-4.5 -47q0 -34 14 -58t51 -24zM508 -12q-33 0 -55.5 10t-37 27.5t-20.5 40.5t-6 49q0 42 11 78t32.5 62.5t53 42t72.5 15.5q63 0 90.5 -35.5t27.5 -92.5q0 -43 -11 -79t-32 -62.5t-52.5 -41t-72.5 -14.5zM515 38q34 0 54 15
t30 36.5t12.5 46t2.5 43.5q0 33 -13.5 58t-50.5 25q-29 0 -48.5 -14t-31 -35.5t-16 -46.5t-4.5 -46q0 -34 13.5 -58t51.5 -24zM831 -12q-33 0 -55.5 10t-37 27.5t-20.5 40.5t-6 49q0 42 11 78t32 62.5t52 42t72 15.5q63 0 91.5 -35.5t28.5 -92.5q0 -43 -11 -79t-32 -62.5
t-52.5 -41t-72.5 -14.5zM838 38q34 0 54 15t30 36.5t12.5 46t2.5 43.5q0 33 -13.5 58t-50.5 25q-29 0 -48.5 -14t-31 -35.5t-16 -46.5t-4.5 -46q0 -34 13.5 -58t51.5 -24z" />
    <glyph glyph-name="guilsinglleft" unicode="&#x2039;" horiz-adv-x="278" 
d="M134 103l-66 157l110 148h68l-95 -139q-6 -7 -6 -12q0 -1 2 -7l53 -147h-66z" />
    <glyph glyph-name="guilsinglright" unicode="&#x203a;" horiz-adv-x="278" 
d="M52 103l96 145q5 6 5 11q0 2 -2 8l-53 141h66l66 -153l-107 -152h-71z" />
    <glyph glyph-name="fraction" unicode="&#x2044;" horiz-adv-x="162" 
d="M-159 -12l458 736h63l-457 -736h-64z" />
    <glyph glyph-name="Euro" unicode="&#x20ac;" horiz-adv-x="507" 
d="M55 404h45q17 63 46 108.5t67.5 75t84.5 43.5t96 14q51 0 86 -11t52 -19l-19 -135l-44 5l-3 77q0 11 -13 15q-10 3 -28.5 6t-44.5 3q-72 0 -128.5 -44.5t-83.5 -137.5h220l-17 -56h-215q-4 -33 -6 -69h201l-17 -56h-183q5 -88 43 -133.5t107 -45.5q26 0 48 3t36 8
q6 2 8 5.5t4 9.5l22 77l47 4l-18 -134q-8 -3 -23.5 -8t-36 -9.5t-45 -8t-50.5 -3.5q-100 0 -152.5 61.5t-58.5 173.5h-78l17 56h61q1 18 3 35l4 34h-51z" />
    <glyph glyph-name="afii61352" unicode="&#x2116;" horiz-adv-x="1081" 
d="M490 0l-254 552l-66 -480q-2 -12 0 -15t13 -5l66 -8l-7 -44h-226l7 44l64 7q11 2 13.5 5.5t4.5 14.5l68 484q2 11 0 14.5t-13 5.5l-62 7l7 45h174l241 -538l65 466q2 11 0 14.5t-13 5.5l-62 7l6 44h225l-6 -44l-68 -8q-11 -2 -14 -5t-5 -14l-78 -555h-80zM680 168h308
l-8 -55h-308zM836 214q-71 0 -103 37.5t-32 97.5q0 45 12 83t35.5 66t58.5 43.5t81 15.5q36 0 61.5 -10t41 -28t23 -42.5t7.5 -53.5q0 -97 -47 -153t-138 -56zM843 261q54 0 86 39.5t32 122.5q0 45 -21 65.5t-60 20.5q-54 0 -87 -38.5t-33 -118.5q0 -91 83 -91z" />
    <glyph glyph-name="trademark" unicode="&#x2122;" horiz-adv-x="823" 
d="M162 348v33l62 5v294h-90l-10 -55h-33v99h319v-99h-33l-9 55h-92v-294l67 -5v-33h-181zM730 348v32l50 5v237l-103 -193h-40l-101 194v-238l53 -5v-32h-145v32l42 5v299l-42 5v35h95l120 -239l123 239h90v-35l-43 -5v-299l45 -5v-32h-144z" />
    <glyph glyph-name="partialdiff" unicode="&#x2202;" horiz-adv-x="569" 
d="M453 340q6 26 9 61.5t3 72.5q0 27 -5.5 52.5t-18.5 45t-34.5 31t-53.5 11.5q-44 0 -88 -16t-74 -34l-24 49q42 26 94 42.5t101 16.5q50 0 82.5 -18t51 -47.5t26 -67.5t7.5 -78q0 -48 -6.5 -101.5t-21.5 -106.5t-38.5 -100.5t-58 -84.5t-80 -58.5t-104.5 -21.5
q-84 0 -123.5 46t-39.5 116q0 54 16.5 101.5t47.5 83t74 56t97 20.5q57 0 97.5 -22.5t63.5 -48.5zM439 276q-9 11 -23 24.5t-33 25t-43 19.5t-51 8q-45 0 -75.5 -19t-50 -48t-28 -63.5t-8.5 -65.5q0 -50 24 -81.5t75 -31.5q50 0 87 24t63 59t41 75.5t22 73.5z" />
    <glyph glyph-name="product" unicode="&#x220f;" horiz-adv-x="766" 
d="M436 -176l6 41l64 7q11 2 14 5.5t5 14.5l108 776h-372l-108 -775q-2 -12 0 -15t13 -5l66 -8l-6 -41h-229l6 41l64 7q11 2 14 5.5t5 14.5l106 761q2 11 0 14.5t-13 5.5l-62 7l6 44h668l-6 -44l-68 -8q-11 -2 -14 -5t-5 -14l-106 -760q-2 -12 0 -15t13 -5l66 -8l-6 -41
h-229z" />
    <glyph glyph-name="summation" unicode="&#x2211;" horiz-adv-x="627" 
d="M-20 -176l6 46l295 413l-161 394l6 47h520l-21 -150l-50 3l-3 78q-1 13 -16 13h-358l155 -388l-284 -400h379q8 0 11.5 1.5t5.5 9.5l28 87h50l-21 -154h-542z" />
    <glyph glyph-name="minus" unicode="&#x2212;" horiz-adv-x="570" 
d="M108 288l9 66h373l-9 -66h-373z" />
    <glyph glyph-name="radical" unicode="&#x221a;" horiz-adv-x="552" 
d="M241 0l-100 235q-2 5 -5.5 7.5t-11.5 0.5l-65 -20l-13 45l130 58l105 -251l273 668l60 -15l-296 -728h-77z" />
    <glyph glyph-name="infinity" unicode="&#x221e;" horiz-adv-x="678" 
d="M213 453q26 0 47 -7t38 -18.5t32 -26.5t30 -32q32 37 67 60.5t84 23.5q26 0 49.5 -7.5t41.5 -23.5t28.5 -39.5t10.5 -55.5q0 -63 -39 -101t-99 -38q-52 0 -87.5 25.5t-62.5 56.5q-12 -15 -27.5 -29.5t-34 -26t-40 -19t-45.5 -7.5q-57 0 -96.5 31.5t-39.5 98.5q0 30 11 55
t30.5 42.5t45.5 27.5t56 10zM210 242q35 0 62 23t50 52q-25 35 -51.5 59t-64.5 24q-32 0 -51.5 -21t-19.5 -58q0 -35 16.5 -57t58.5 -22zM506 399q-31 0 -60.5 -26t-52.5 -56q26 -34 52 -55t60 -21q32 0 51.5 24.5t19.5 57.5q0 31 -14.5 53.5t-55.5 22.5z" />
    <glyph glyph-name="integral" unicode="&#x222b;" horiz-adv-x="530" 
d="M137 -115q19 -10 38 -14t39 -4q36 0 51.5 17t12.5 57l-55 651q-3 38 7.5 63.5t29 41.5t43.5 23t51 7q29 0 51 -5.5t42 -13.5l-18 -60q-37 19 -77 19q-29 0 -48 -16.5t-16 -54.5l55 -650q3 -38 -5 -64t-25.5 -42t-41.5 -22.5t-52 -6.5q-29 0 -56 6t-44 15z" />
    <glyph glyph-name="approxequal" unicode="&#x2248;" horiz-adv-x="530" 
d="M492 320q-8 -21 -17 -39t-21.5 -31.5t-29 -21.5t-39.5 -8q-27 0 -57 7t-59 16t-56 16t-49 7q-24 0 -40.5 -13.5t-38.5 -41.5l-39 18q26 42 53 68.5t71 26.5q29 0 57.5 -7t56 -16t54 -16t50.5 -7q25 0 36.5 14t25.5 42zM518 495q-8 -21 -17.5 -39t-21.5 -31.5t-28.5 -21.5
t-39.5 -8q-27 0 -57 7t-59 16t-56.5 16t-49.5 7q-24 0 -40 -13.5t-38 -41.5l-40 18q26 42 53.5 68.5t71.5 26.5q29 0 57 -7t56 -16t54 -16t50 -7q25 0 37 14t26 42z" />
    <glyph glyph-name="notequal" unicode="&#x2260;" horiz-adv-x="570" 
d="M231 240l52 83h-169l10 69h203l64 100h68l-64 -100h98l-10 -69h-132l-52 -83h173l-10 -69h-207l-63 -99h-68l63 99h-94l10 69h128z" />
    <glyph glyph-name="lessequal" unicode="&#x2264;" horiz-adv-x="570" 
d="M104 246l12 84l387 159l15 -64l-344 -136l311 -130l-29 -61zM71 0l9 66h373l-9 -66h-373z" />
    <glyph glyph-name="greaterequal" unicode="&#x2265;" horiz-adv-x="570" 
d="M82 98l-9 65l347 130l-306 136l31 60l343 -159l-12 -84zM68 0l9 66h373l-9 -66h-373z" />
    <glyph glyph-name="lozenge" unicode="&#x25ca;" horiz-adv-x="530" 
d="M205 -17l-111 324l202 324h60l112 -324l-203 -324h-60zM402 307l-86 251l-156 -251l85 -252z" />
    <glyph glyph-name="breve.cyr" 
d="M428 705q-26 -64 -71.5 -98t-114.5 -34t-103.5 35.5t-42.5 96.5l56 19q8 -50 30.5 -74t67.5 -24t74 24t52 74z" />
    <glyph glyph-name="breve_cyr.cap.smcp" horiz-adv-x="390" 
d="M371 726q-26 -64 -71.5 -98t-114.5 -34t-103.5 35.5t-42.5 96.5l56 19q8 -50 30.5 -74t67.5 -24t74 24t52 74z" />
    <glyph glyph-name="hyphen.case" horiz-adv-x="311" 
d="M37 315l11 74h271l-11 -74h-271z" />
    </font>
</defs>
</svg>
