<?xml version="1.0" standalone="no"?>
<!DOCTYPE svg PUBLIC "-//W3C//DTD SVG 1.1//EN" "http://www.w3.org/Graphics/SVG/1.1/DTD/svg11.dtd" >
<svg xmlns="http://www.w3.org/2000/svg" xmlns:xlink="http://www.w3.org/1999/xlink" version="1.1">
<metadata>
Created by FontForge 20170731 at Wed May 14 19:48:43 2014
 By ,,,
Copyright (c) 2010 by TypeTogether. All rights reserved.This font is ONLY licensed for use when accessed from the Extensis WebINK font service. Any other use of this font file is illegal under United States and international copyright laws. Please respect the rights of the people who design and license fonts.
</metadata>
<defs>
<font id="AdelleCyrillic-SemiBoldItalic" horiz-adv-x="500" >
  <font-face 
    font-family="Adelle Cyrillic"
    font-weight="600"
    font-style="italic"
    font-stretch="normal"
    units-per-em="1000"
    panose-1="2 0 5 3 0 0 0 9 0 4"
    ascent="755"
    descent="-245"
    x-height="517"
    cap-height="724"
    bbox="-152 -244 1087 947"
    underline-thickness="50"
    underline-position="-200"
    unicode-range="U+000D-25CA"
  />
<missing-glyph 
 />
    <glyph glyph-name=".notdef" 
 />
    <glyph glyph-name=".null" horiz-adv-x="0" 
 />
    <glyph glyph-name="nonmarkingreturn" unicode="&#xd;" 
 />
    <glyph glyph-name="NULL" horiz-adv-x="0" 
 />
    <glyph glyph-name="NULL" horiz-adv-x="0" 
 />
    <glyph glyph-name="space" unicode=" " horiz-adv-x="214" 
 />
    <glyph glyph-name="exclam" unicode="!" horiz-adv-x="272" 
d="M92 183l37 371l24 170h125l-24 -170l-66 -371h-96zM197 69q0 -39 -21 -60t-64 -21q-65 0 -65 57q0 39 21.5 60t63.5 21q65 0 65 -57z" />
    <glyph glyph-name="quotedbl" unicode="&#x22;" horiz-adv-x="390" 
d="M262 447l37 259h108l-37 -259h-108zM80 447l37 259h108l-37 -259h-108z" />
    <glyph glyph-name="numbersign" unicode="#" horiz-adv-x="607" 
d="M404 132l-38 -132h-84l37 132h-107l-38 -132h-84l37 132h-109l29 80h104l40 134h-109l29 81h103l34 116h85l-34 -116h106l34 116h85l-34 -116h110l-28 -81h-106l-38 -134h108l-27 -80h-105zM382 346h-107l-39 -134h107z" />
    <glyph glyph-name="dollar" unicode="$" horiz-adv-x="515" 
d="M366 630q47 -2 85.5 -11.5t62.5 -18.5l-21 -161l-81 9l-3 75q0 15 -13 19q-8 2 -18.5 4.5t-22.5 4.5l-27 -192q25 -13 50 -27t45 -33t32.5 -45t12.5 -63q0 -77 -51 -126t-138 -61l-11 -84h-80l11 80q-26 2 -53 5.5t-51 8.5t-44.5 11t-33.5 13l21 148h81l8 -74
q1 -10 4 -15t17 -9q10 -3 27 -5.5t35 -4.5l27 197q-29 13 -56.5 26.5t-48.5 32.5t-34 46t-13 66q0 41 15.5 73t42.5 55t63 37t78 20l11 72h81zM194 464q0 -29 14.5 -45t43.5 -31l22 163q-31 -6 -55.5 -27.5t-24.5 -59.5zM362 171q0 28 -14.5 46t-35.5 30l-22 -165
q72 21 72 89z" />
    <glyph glyph-name="percent" unicode="%" horiz-adv-x="889" 
d="M224 257q-40 0 -67 11.5t-44 31.5t-24.5 46.5t-7.5 55.5q0 47 12 87t37 69t62 45.5t87 16.5q75 0 108.5 -39t33.5 -105q0 -48 -13 -88t-37.5 -69.5t-61.5 -45.5t-85 -16zM176 -17l466 638h107l-465 -638h-108zM235 327q32 0 50.5 15.5t27.5 37.5t11.5 47.5t2.5 44.5
q0 36 -13 57t-46 21q-26 0 -44 -11.5t-29 -31t-15.5 -45t-4.5 -52.5q0 -36 13 -59.5t47 -23.5zM653 -12q-40 0 -67.5 11.5t-44 31.5t-24 46.5t-7.5 55.5q0 47 12 87t36.5 69t61.5 45.5t87 16.5q75 0 108.5 -39t33.5 -105q0 -48 -12.5 -88t-37.5 -69.5t-61.5 -45.5t-84.5 -16
zM664 58q32 0 50.5 15.5t27.5 37.5t11.5 47.5t2.5 44.5q0 36 -13.5 57t-45.5 21q-26 0 -44 -11.5t-29 -31t-15.5 -45t-4.5 -52.5q0 -36 12.5 -59.5t47.5 -23.5z" />
    <glyph glyph-name="ampersand" unicode="&#x26;" horiz-adv-x="683" 
d="M612 319q-16 -1 -17 -14l-36 -261q-21 -13 -49 -23.5t-59.5 -17.5t-65 -11t-65.5 -4q-133 0 -190.5 46.5t-57.5 125.5q0 40 12.5 71.5t33.5 54.5t49 38.5t58 22.5v2q-16 6 -32.5 17t-30 27t-21.5 37.5t-8 49.5q0 46 17.5 83t49.5 62.5t77 39t100 13.5q33 0 64 -4.5
t58.5 -11.5t49.5 -16t36 -18l-23 -143l-83 6l-4 69q-1 8 -3 12t-10 7q-17 6 -39 8.5t-42 2.5q-22 0 -45.5 -4.5t-43 -16.5t-32 -33t-12.5 -54q0 -44 28.5 -69t79.5 -25h50l-12 -86q-23 0 -45 -1t-42 -5q-52 -9 -84.5 -36.5t-32.5 -81.5q0 -30 10.5 -49.5t29 -31t44 -16.5
t56.5 -5q69 0 103 14q12 5 17 9.5t7 19.5l36 259l16 10h154l-10 -65z" />
    <glyph glyph-name="quotesingle" unicode="'" horiz-adv-x="208" 
d="M80 447l37 259h108l-37 -259h-108z" />
    <glyph glyph-name="parenleft" unicode="(" horiz-adv-x="334" 
d="M165 -164q-40 69 -69 164.5t-29 204.5q0 82 19.5 156t52.5 140t75 124.5t87 109.5l78 -52q-49 -63 -85.5 -121t-60 -116t-35 -118.5t-11.5 -129.5q0 -94 21.5 -168.5t51.5 -143.5z" />
    <glyph glyph-name="parenright" unicode=")" horiz-adv-x="336" 
d="M-10 -112q50 63 86 121t59.5 116t35 118.5t11.5 129.5q0 94 -21.5 168.5t-51.5 143.5l95 50q40 -69 69 -164.5t29 -204.5q0 -82 -19.5 -156t-52.5 -140t-75 -124.5t-87 -109.5z" />
    <glyph glyph-name="asterisk" unicode="*" horiz-adv-x="473" 
d="M120 444l49 52l92 62l-103 6l-61 22l40 82l61 -22l77 -58l-13 100l9 67h87l-9 -67l-41 -100h-33l-14 -30l26 -20l-55 -95l-49 -53zM348 391l-35 52l-26 95l27 19l-6 31l93 58l67 22l17 -82l-67 -22l-104 -7l73 -62l35 -52z" />
    <glyph glyph-name="plus" unicode="+" horiz-adv-x="570" 
d="M231 125l21 150h-141l14 95h141l20 146h98l-20 -146h142l-14 -95h-142l-21 -150h-98z" />
    <glyph glyph-name="comma" unicode="," horiz-adv-x="200" 
d="M10 -100l45 106q3 8 -5 11l-34 13l35 94q50 -1 80.5 -12t30.5 -50q0 -19 -8.5 -36t-17.5 -31l-73 -113z" />
    <glyph glyph-name="hyphen" unicode="-" horiz-adv-x="311" 
d="M30 239l15 104h271l-15 -104h-271z" />
    <glyph glyph-name="period" unicode="." horiz-adv-x="223" 
d="M176 70q0 -38 -21 -60t-63 -22q-65 0 -65 56q0 39 21.5 60.5t63.5 21.5q64 0 64 -56z" />
    <glyph glyph-name="slash" unicode="/" horiz-adv-x="421" 
d="M-20 -92l388 823h110l-387 -823h-111z" />
    <glyph glyph-name="zero" unicode="0" horiz-adv-x="563" 
d="M542 288q-9 -66 -27.5 -121t-52 -94.5t-84 -62t-122.5 -22.5q-59 0 -99 16.5t-64.5 45.5t-35 69t-10.5 86q0 21 2 42.5t4 43.5q8 64 27.5 118t54.5 93.5t86.5 62t121.5 22.5q57 0 96.5 -16.5t63.5 -45.5t34.5 -68.5t10.5 -85.5q0 -39 -6 -83zM267 73q72 0 107 52t50 161
q6 47 6 84q0 61 -22 95t-78 34q-72 0 -108.5 -52t-51.5 -160q-3 -23 -4 -43t-1 -37q0 -62 22.5 -98t79.5 -36z" />
    <glyph glyph-name="one" unicode="1" horiz-adv-x="371" 
d="M5 0l9 60l92 6q10 1 12.5 5t4.5 15l54 385q2 11 -1 15t-11 6l-86 18l9 62h215l-67 -486q-2 -12 0 -15t13 -5l82 -7l-9 -59h-317z" />
    <glyph glyph-name="two" unicode="2" horiz-adv-x="498" 
d="M16 0l10 75l163 144q45 39 77.5 67.5t53.5 52.5t31 46t10 49q0 30 -19.5 48.5t-64.5 18.5q-26 0 -45 -4t-31.5 -15.5t-20 -30.5t-11.5 -49l-104 11q7 57 29 91.5t53.5 53t69 24t76.5 5.5q49 0 83 -10.5t55.5 -29.5t31.5 -45.5t10 -57.5q0 -42 -15.5 -76.5t-41 -64.5
t-58.5 -58t-68 -58l-125 -108h181q12 0 16 11l26 83h80l-24 -173h-428z" />
    <glyph glyph-name="three" unicode="3" horiz-adv-x="506" 
d="M347 263q42 -10 73.5 -43t31.5 -94q0 -99 -65.5 -154t-179.5 -55q-74 0 -130.5 26.5t-84.5 64.5l71 68q23 -26 58 -47t88 -21q26 0 49.5 6t41.5 19.5t28.5 36t10.5 55.5q0 48 -28.5 70.5t-80.5 22.5q-17 0 -32.5 -1.5t-36.5 -4.5l10 81l54 6q68 7 104.5 41t36.5 88
q0 32 -18.5 52.5t-63.5 20.5q-52 0 -77 -19.5t-32 -79.5l-106 11q6 55 28 89t54 53t70 25.5t75 6.5q97 0 140 -39.5t43 -108.5q0 -65 -36 -108.5t-96 -63.5v-4z" />
    <glyph glyph-name="four" unicode="4" horiz-adv-x="531" 
d="M293 -67l19 141h-282l11 79l272 431l88 -49l-244 -372h168l26 184l106 14l-27 -198h84l-12 -89h-86l-18 -141h-105z" />
    <glyph glyph-name="five" unicode="5" horiz-adv-x="517" 
d="M219 476l-41 -175l1 -1q26 17 59 29t73 12q76 0 120.5 -46t44.5 -131q0 -52 -17.5 -97.5t-50.5 -78.5t-81.5 -52t-110.5 -19q-77 0 -132.5 26t-88.5 64l71 69q26 -29 62 -48.5t86 -19.5q28 0 54.5 8.5t47 26t33 44.5t12.5 65q0 29 -8.5 48.5t-22 31t-30 16.5t-33.5 5
q-37 0 -65.5 -14.5t-48.5 -30.5l-76 34l67 330h353l-13 -96h-265z" />
    <glyph glyph-name="six" unicode="6" horiz-adv-x="547" 
d="M481 516q-27 25 -55 35.5t-57 10.5q-42 0 -73.5 -20t-54 -51t-35 -68.5t-17.5 -72.5q29 20 70 37t93 17q74 0 116 -42t42 -122q0 -60 -17.5 -107t-50 -79t-77.5 -49t-101 -17q-57 0 -95 19.5t-61.5 53t-33.5 78.5t-10 96q0 40 6.5 86t20.5 92t37.5 89t57.5 76t80 53
t105 20q48 0 92 -15.5t79 -50.5zM182 265q-1 -13 -1.5 -22.5t-0.5 -23.5q0 -25 3.5 -51t13.5 -46.5t28.5 -33.5t48.5 -13q32 0 54.5 12.5t37 34t21.5 49.5t7 59q0 46 -19 66t-61 20q-38 0 -74 -17t-58 -34z" />
    <glyph glyph-name="seven" unicode="7" horiz-adv-x="503" 
d="M115 -67q21 103 56 188.5t75.5 153t81.5 118t74 83.5h-220q-12 0 -15 -11l-28 -88l-79 -6l27 201h455l-12 -84q-48 -45 -95 -109t-87.5 -137.5t-70 -153t-42.5 -155.5h-120z" />
    <glyph glyph-name="eight" unicode="8" horiz-adv-x="507" 
d="M387 333q37 -24 64 -56.5t27 -87.5q0 -49 -19.5 -86.5t-53.5 -63t-81 -38.5t-101 -13q-88 0 -139.5 37t-51.5 110q0 35 11 64.5t30 54.5t43.5 46.5t51.5 39.5q-30 20 -49.5 50.5t-19.5 76.5q0 45 17.5 79t47.5 57.5t71 35.5t87 12q87 0 132 -38t45 -98q0 -29 -10 -55.5
t-26 -49.5t-36 -42.5t-40 -34.5zM239 296q-52 -36 -77.5 -70.5t-25.5 -73.5t26 -61t77 -22q57 0 89 29.5t32 74.5q0 22 -9 38.5t-25 30t-38.5 26.5t-48.5 28zM311 374q37 30 62 61t25 68q0 35 -24.5 51t-60.5 16q-45 0 -74 -22.5t-29 -62.5q0 -19 8.5 -34.5t22.5 -29t32 -25
t38 -22.5z" />
    <glyph glyph-name="nine" unicode="9" horiz-adv-x="544" 
d="M94 61q25 -23 57 -38.5t69 -15.5q45 0 75.5 20t50.5 50.5t30.5 68t16.5 72.5q-28 -20 -68 -37t-94 -17q-75 0 -117.5 43t-42.5 122q0 59 17 106.5t48.5 81t77.5 52t104 18.5q56 0 94.5 -18.5t61.5 -51.5t33 -78.5t10 -99.5q0 -37 -4.5 -82.5t-16.5 -92.5t-33 -91.5
t-54.5 -79t-80.5 -55.5t-110 -21q-49 0 -100 19t-83 54zM400 303q1 11 1 22v24q1 26 -2 53t-13.5 49t-29 36t-49.5 14q-58 0 -88.5 -45t-30.5 -114q0 -46 17 -69.5t60 -23.5q39 0 75.5 18.5t59.5 35.5z" />
    <glyph glyph-name="colon" unicode=":" horiz-adv-x="223" 
d="M233 456q0 -38 -21 -60t-63 -22q-65 0 -65 56q0 39 21.5 60.5t63.5 21.5q64 0 64 -56zM176 70q0 -38 -21 -60t-63 -22q-65 0 -65 56q0 39 21.5 60.5t63.5 21.5q64 0 64 -56z" />
    <glyph glyph-name="semicolon" unicode=";" horiz-adv-x="200" 
d="M10 -100l45 106q3 8 -5 11l-34 13l35 94q50 -1 80.5 -12t30.5 -50q0 -19 -8.5 -36t-17.5 -31l-73 -113zM227 456q0 -38 -21 -60t-63 -22q-65 0 -65 56q0 39 21.5 60.5t63.5 21.5q64 0 64 -56z" />
    <glyph glyph-name="less" unicode="&#x3c;" horiz-adv-x="570" 
d="M109 232l16 116l399 149l16 -92l-322 -114l294 -112l-41 -89z" />
    <glyph glyph-name="equal" unicode="=" horiz-adv-x="570" 
d="M93 147l13 97h378l-13 -97h-378zM116 319l14 97h379l-14 -97h-379z" />
    <glyph glyph-name="greater" unicode="&#x3e;" horiz-adv-x="570" 
d="M87 90l-12 94l325 112l-290 114l39 87l357 -149l-17 -116z" />
    <glyph glyph-name="question" unicode="?" horiz-adv-x="498" 
d="M148 182l25 187q39 5 80.5 14t75 28.5t55 51t21.5 80.5q0 45 -27 66t-70 21q-26 0 -44 -2t-31 -5q-11 -2 -14.5 -6.5t-6.5 -15.5l-19 -62l-92 -7l23 157q33 12 86.5 23.5t112.5 11.5q44 0 81.5 -9.5t65.5 -30.5t43.5 -54.5t15.5 -81.5q0 -106 -66.5 -169t-184.5 -82
l-15 -115h-115zM262 69q0 -39 -21 -60t-63 -21q-66 0 -66 57q0 39 21.5 60t63.5 21q65 0 65 -57z" />
    <glyph glyph-name="at" unicode="@" horiz-adv-x="834" 
d="M573 -146q-27 -12 -78.5 -23.5t-126.5 -11.5q-64 0 -121 15t-100 50t-68 91.5t-25 138.5q0 99 35 182.5t96 144t142.5 94t174.5 33.5q68 0 123.5 -17.5t95 -51t61 -82.5t21.5 -113q0 -55 -12.5 -111.5t-41 -102t-73.5 -74t-111 -28.5q-48 0 -70.5 19.5t-25.5 52.5
q-33 -28 -67.5 -50t-72.5 -22q-45 0 -69 27.5t-24 80.5t18 106.5t51 97t80.5 70.5t107.5 27q40 0 74 -9.5t58 -22.5l-38 -124q-7 -22 -13.5 -45.5t-12 -44t-9 -36.5t-3.5 -24q0 -14 9.5 -24t32.5 -10q27 0 50 20t40 52.5t26.5 73.5t9.5 84q0 107 -61 156t-169 49
q-81 0 -145 -30.5t-108.5 -81.5t-68.5 -118t-24 -140q0 -114 60.5 -172t187.5 -58q45 0 88.5 8.5t84.5 22.5zM529 318q-9 7 -23.5 10.5t-29.5 3.5q-25 0 -52 -16.5t-49.5 -45.5t-36.5 -68t-14 -83q0 -18 6 -36t30 -18q25 0 56.5 19.5t56.5 44.5z" />
    <glyph glyph-name="A" unicode="A" horiz-adv-x="717" 
d="M423 0l9 57l83 9l-26 143h-262l-64 -143l86 -9l-9 -57h-253l9 57l43 11q11 3 17.5 8.5t11.5 13.5l300 634h138l130 -639q2 -12 21 -17l44 -11l-9 -57h-269zM414 619l-149 -323h211z" />
    <glyph glyph-name="B" unicode="B" horiz-adv-x="647" 
d="M28 0l9 58l62 7q11 2 14 5.5t5 14.5l76 552q2 11 -0.5 15t-12.5 5l-61 8l8 59h307q55 0 92 -12t59.5 -33t32 -49t9.5 -60q0 -43 -13 -75.5t-33.5 -55.5t-46.5 -37.5t-53 -22.5l-1 -4q72 -8 107.5 -47.5t35.5 -102.5t-22 -106t-61 -69.5t-93 -38t-118 -11.5h-302zM325 87
q40 0 73.5 5.5t57.5 20.5t37.5 42t13.5 71q0 29 -10 48.5t-27.5 31t-41.5 16.5t-51 5h-113l-32 -240h93zM348 413q31 0 60.5 5t53 20t37.5 42t14 70q0 53 -33 70t-91 17h-82l-31 -224h72z" />
    <glyph glyph-name="C" unicode="C" horiz-adv-x="665" 
d="M601 42q-45 -27 -112 -40.5t-135 -13.5q-78 0 -133.5 23t-91 64t-52 98t-16.5 126q0 96 26.5 176t78.5 138.5t129.5 91t178.5 32.5q63 0 121 -14.5t93 -40.5l-24 -175l-83 6l-3 94q0 9 -2 13t-10 7q-17 7 -44.5 12.5t-59.5 5.5q-61 0 -112.5 -22t-88.5 -64.5t-58 -105.5
t-21 -145q0 -113 48.5 -171.5t144.5 -58.5q33 0 66.5 4t59.5 14q10 4 14 18l29 93h80z" />
    <glyph glyph-name="D" unicode="D" horiz-adv-x="747" 
d="M28 0l9 60l63 7q9 1 12 4.5t5 14.5l77 552q2 11 -0.5 15t-12.5 5l-61 7l8 59h295q81 0 140.5 -21t98.5 -59.5t58.5 -93.5t19.5 -123q0 -91 -25 -169.5t-76.5 -135.5t-131.5 -89.5t-190 -32.5h-289zM314 87q78 0 135.5 24.5t95.5 69.5t57 107.5t19 137.5q0 59 -14.5 99
t-42.5 65t-69.5 36t-94.5 11h-92l-75 -550h81z" />
    <glyph glyph-name="E" unicode="E" horiz-adv-x="617" 
d="M29 0l7 59l63 7q11 2 14 5.5t5 14.5l76 551q2 11 0 15t-13 5l-60 7l7 60h504l-25 -180l-80 4l-3 77q-1 13 -15 13h-201l-31 -230h249l-12 -87h-249l-32 -236h221q8 0 11.5 1.5t6.5 9.5l27 88h80l-25 -184h-525z" />
    <glyph glyph-name="F" unicode="F" horiz-adv-x="593" 
d="M30 0l7 59l63 7q11 2 13.5 5.5t4.5 14.5l76 551q2 11 0 15t-13 5l-60 7l8 60h500l-25 -180l-80 4l-3 77q-1 13 -16 13h-196l-31 -228h245l-13 -87h-245l-32 -236q-2 -12 0 -15.5t13 -4.5l143 -8l-8 -59h-351z" />
    <glyph glyph-name="G" unicode="G" horiz-adv-x="716" 
d="M674 273q-17 -1 -18 -14l-31 -227q-54 -25 -121.5 -34.5t-127.5 -9.5q-86 0 -146 24t-97.5 66t-54.5 99t-17 123q0 93 26.5 173t78 138.5t129 92t179.5 33.5q59 0 118 -14t96 -42l-23 -171l-83 7l-3 91q0 8 -1.5 12.5t-9.5 6.5q-21 8 -50.5 13t-60.5 5q-62 0 -113 -23
t-87 -66.5t-56 -105.5t-20 -140q0 -114 53 -172.5t156 -58.5q32 0 64.5 3.5t53.5 9.5q5 2 9 5.5t6 12.5l22 157h-125l23 75h281l-9 -65z" />
    <glyph glyph-name="H" unicode="H" horiz-adv-x="796" 
d="M454 0l8 59l62 7q11 2 14 5.5t5 14.5l34 243h-310l-34 -242q-2 -12 -0.5 -15t12.5 -5l65 -8l-8 -59h-273l8 59l63 7q11 2 13.5 5.5t4.5 14.5l77 552q2 11 0 15t-13 5l-60 7l7 59h274l-8 -59l-67 -8q-11 -2 -13.5 -5t-4.5 -14l-30 -221h309l31 221q2 11 0 15t-13 5l-61 7
l8 59h273l-8 -59l-66 -8q-11 -2 -13.5 -5t-4.5 -14l-77 -551q-2 -12 0 -15t12 -5l65 -8l-8 -59h-273z" />
    <glyph glyph-name="I" unicode="I" horiz-adv-x="371" 
d="M20 0l7 59l73 7q11 1 13.5 5t4.5 15l77 552q2 11 0 15t-13 5l-70 7l8 59h292l-7 -59l-77 -8q-11 -2 -13.5 -5t-4.5 -14l-77 -551q-2 -12 -0.5 -15t12.5 -5l75 -8l-7 -59h-293z" />
    <glyph glyph-name="J" unicode="J" horiz-adv-x="491" 
d="M332 639q2 10 -0.5 13.5t-12.5 4.5l-85 8l8 59h298l-8 -59l-67 -8q-11 -2 -13.5 -5t-4.5 -14l-68 -485q-12 -85 -56 -125t-137 -40q-29 0 -55.5 3.5t-48.5 9t-37.5 12t-23.5 12.5l20 154l81 -6v-70q0 -7 1.5 -10t7.5 -6q6 -2 21.5 -5.5t36.5 -3.5q39 0 55 19t21 60z" />
    <glyph glyph-name="K" unicode="K" horiz-adv-x="723" 
d="M526 0l-5 5l-55 109l-121 213l-91 -91l-22 -149q-2 -12 0 -15t13 -5l67 -8l-9 -59h-273l8 59l61 7q11 2 14 5t5 16l77 551q2 11 0 15t-13 5l-60 7l8 59h273l-8 -59l-67 -8q-11 -2 -13.5 -5t-4.5 -14l-40 -275l296 293l-57 8l8 60h235l-8 -59l-47 -9q-14 -2 -19.5 -5
t-13.5 -11l-234 -231l180 -322q5 -9 10 -12.5t16 -5.5l61 -10l-8 -59h-163z" />
    <glyph glyph-name="L" unicode="L" horiz-adv-x="603" 
d="M30 0l7 59l62 7q11 2 14 5.5t5 14.5l77 551q2 11 0 15t-13 5l-60 7l7 60h289l-7 -60l-83 -8q-11 -1 -13.5 -4.5t-4.5 -14.5l-78 -552h222q8 0 11.5 1.5t6.5 9.5l29 95h80l-26 -191h-525z" />
    <glyph glyph-name="M" unicode="M" horiz-adv-x="931" 
d="M574 0l7 59l83 7q10 1 13 5t5 15l64 454l-224 -380h-120l-125 381l-63 -454q-2 -12 0 -15.5t13 -4.5l85 -8l-8 -59h-274l7 59l63 7q11 1 13.5 5t4.5 15l77 551q2 11 0 15t-13 5l-60 7l7 60h202l148 -463h5l264 463h214l-7 -59l-67 -8q-11 -2 -14 -5t-5 -17l-77 -549
q-2 -11 1 -14.5t13 -4.5l65 -8l-8 -59h-289z" />
    <glyph glyph-name="N" unicode="N" horiz-adv-x="814" 
d="M540 0l-261 577l-68 -490q-2 -12 0 -15t13 -5l64 -8l-6 -59h-252l6 59l63 7q11 2 14 5.5t5 14.5l77 552q2 11 0 15t-13 5l-60 7l7 59h211l256 -575l67 489q2 11 0 15t-13 5l-61 7l8 59h251l-8 -59l-67 -8q-11 -2 -13.5 -5t-4.5 -14l-89 -638h-126z" />
    <glyph glyph-name="O" unicode="O" horiz-adv-x="754" 
d="M350 -12q-76 0 -131.5 21.5t-91 60.5t-52.5 93t-17 119q0 41 6 86q11 80 42.5 147.5t82 116.5t120 77t156.5 28q76 0 130.5 -23t89.5 -62.5t51.5 -93.5t16.5 -116q0 -18 -1 -36.5t-4 -38.5q-12 -88 -43 -158.5t-81 -119.5t-118.5 -75t-155.5 -26zM367 85q50 0 92.5 15
t76.5 47.5t57.5 84.5t33.5 126q3 20 4 37t1 34q0 103 -48 157t-134 54q-51 0 -95 -16.5t-78.5 -50t-58 -84.5t-33.5 -120q-6 -40 -6 -74q0 -107 48.5 -158.5t139.5 -51.5z" />
    <glyph glyph-name="P" unicode="P" horiz-adv-x="638" 
d="M28 0l9 59l63 7q11 2 14 5.5t5 14.5l76 552q2 11 -0.5 15t-13.5 5l-60 7l7 59h310q59 0 99.5 -14t66 -39t37 -59t11.5 -73q0 -70 -21 -120.5t-60.5 -83.5t-96 -48.5t-126.5 -15.5h-91l-25 -184q-2 -12 0 -15.5t12 -4.5l140 -8l-8 -59h-348zM343 357q37 0 71 6t60.5 24.5
t42.5 52t16 88.5q0 62 -37 85.5t-100 23.5h-89l-38 -280h74z" />
    <glyph glyph-name="Q" unicode="Q" horiz-adv-x="754" 
d="M226 16q-88 28 -128 96.5t-40 169.5q0 41 6 86q11 80 42.5 147.5t82 116.5t120 77t156.5 28q76 0 130.5 -23t89.5 -62.5t51.5 -93.5t16.5 -116q0 -18 -1 -36.5t-4 -38.5q-12 -84 -40 -151t-73 -114t-108.5 -72.5t-146.5 -26.5v-4q20 -10 44 -21.5t51.5 -21t59 -16
t65.5 -6.5q16 0 32.5 1.5t34.5 3.5l-4 -88q-20 -2 -38 -3.5t-35 -1.5q-65 0 -110 13.5t-79 30t-61 30t-56 13.5q-21 0 -50.5 -8.5t-59.5 -26.5l-43 76q17 12 44.5 23t50.5 16v3zM367 85q50 0 92.5 15t76.5 47.5t57.5 84.5t33.5 126q3 20 4 37t1 34q0 103 -48 157t-134 54
q-51 0 -95 -16.5t-78.5 -50t-58 -84.5t-33.5 -120q-6 -40 -6 -74q0 -107 48.5 -158.5t139.5 -51.5z" />
    <glyph glyph-name="R" unicode="R" horiz-adv-x="665" 
d="M467 0l-6 7l-60 254q-5 21 -17 32t-38 11h-83l-31 -217q-2 -12 0 -15t12 -5l63 -8l-8 -59h-269l8 59l62 7q11 2 13.5 5.5t4.5 15.5l77 550q2 11 0 15t-13 5l-60 7l7 60h308q58 0 97 -14t63 -38t34.5 -56t10.5 -67q0 -79 -41.5 -133t-121.5 -84q23 -11 32 -34t17 -59
l35 -148q3 -11 7.5 -15.5t15.5 -6.5l64 -10l-8 -59h-175zM345 389q36 0 68.5 7.5t56.5 24.5t38 45t14 70q0 59 -36.5 80t-111.5 21h-66l-33 -248h70z" />
    <glyph glyph-name="S" unicode="S" horiz-adv-x="572" 
d="M472 527l-3 89q0 8 -2.5 13.5t-12.5 8.5q-21 7 -63 7q-32 0 -61.5 -7t-52 -21t-35.5 -35.5t-13 -50.5q0 -25 10 -42.5t27.5 -30t40.5 -22.5t48 -19q31 -11 63 -24.5t58 -34.5t42.5 -53t16.5 -80q0 -63 -23 -108t-62.5 -73.5t-93 -42t-114.5 -13.5q-34 0 -67.5 4t-62 9.5
t-50.5 12.5t-34 13l24 176h84l7 -93q1 -8 3.5 -13t14.5 -9q14 -5 37.5 -8t55.5 -3q77 0 120 32t43 95q0 26 -10.5 44.5t-27.5 32t-40 23.5t-48 19q-31 11 -63.5 24t-58 33t-42 51t-16.5 79q0 58 22.5 101t61 71t90 41.5t108.5 13.5q65 0 113 -13t75 -25l-25 -180z" />
    <glyph glyph-name="T" unicode="T" horiz-adv-x="654" 
d="M133 0l8 60l101 7q10 1 13 5t5 15l76 551h-132q-8 0 -11.5 -1.5t-5.5 -9.5l-27 -83l-81 -4l24 184h606l-25 -184l-80 4l-4 83q-1 8 -3.5 9.5t-10.5 1.5h-135l-76 -551q-2 -11 -0.5 -14.5t12.5 -4.5l109 -8l-9 -60h-354z" />
    <glyph glyph-name="U" unicode="U" horiz-adv-x="772" 
d="M614 638q2 11 0 15t-13 5l-61 7l8 59h262l-8 -59l-67 -8q-11 -2 -13.5 -5t-4.5 -14l-55 -397q-10 -69 -33 -117t-59.5 -78.5t-86.5 -44t-115 -13.5q-125 0 -182.5 50t-57.5 153q0 14 1.5 31t3.5 34l51 382q2 11 0 15t-12 5l-61 7l8 59h274l-9 -59l-67 -8q-11 -2 -13.5 -5
t-4.5 -14l-51 -371q-2 -17 -3.5 -33t-1.5 -29q0 -66 32 -94t104 -28q40 0 71 9t53.5 29.5t37 54.5t21.5 84z" />
    <glyph glyph-name="V" unicode="V" horiz-adv-x="692" 
d="M256 0l-119 637q-2 8 -5 10.5t-12 4.5l-47 13l9 59h265l-8 -59l-82 -9l95 -551l240 551l-76 9l9 59h241l-9 -59l-45 -11q-11 -2 -16 -7t-10 -16l-277 -631h-153z" />
    <glyph glyph-name="W" unicode="W" horiz-adv-x="979" 
d="M586 0l-57 421l-174 -421h-144l-70 632q-1 13 -4.5 17t-14.5 6l-52 10l10 59h268l-9 -59l-86 -9l56 -527l191 454h119l60 -470l197 543l-83 9l9 59h254l-9 -59l-51 -9q-9 -2 -15 -7t-11 -19l-234 -630h-150z" />
    <glyph glyph-name="X" unicode="X" horiz-adv-x="714" 
d="M399 0l9 59l76 9l-122 219l-175 -219l72 -9l-9 -59h-251l8 57l54 11q9 2 15 6.5t13 12.5l225 277l-151 273q-4 8 -8.5 11.5t-12.5 5.5l-45 11l9 59h263l-8 -59l-76 -9l112 -211l172 211l-72 9l10 59h239l-9 -59l-46 -11q-10 -2 -15.5 -6.5t-12.5 -12.5l-217 -264
l162 -284q5 -9 10 -12.5t14 -5.5l48 -10l-9 -59h-272z" />
    <glyph glyph-name="Y" unicode="Y" horiz-adv-x="629" 
d="M132 0l8 59l97 7q10 1 12.5 5t4.5 16l26 189l-146 361q-5 13 -21 17l-43 11l9 59h259l-9 -59l-76 -9l102 -278l180 278l-73 9l9 59h233l-8 -59l-43 -11q-19 -4 -27 -20l-231 -356l-26 -191q-2 -12 0 -15.5t13 -4.5l99 -8l-8 -59h-341z" />
    <glyph glyph-name="Z" unicode="Z" horiz-adv-x="642" 
d="M25 0l11 75l464 563h-261q-8 0 -11.5 -1.5t-5.5 -9.5l-31 -92l-83 -4l28 193h518l-11 -78l-462 -561h288q8 0 12 1.5t6 9.5l33 107h81l-28 -203h-548z" />
    <glyph glyph-name="bracketleft" unicode="[" horiz-adv-x="298" 
d="M36 -143l122 867h190l-6 -57l-67 -10q-11 -2 -14 -5.5t-5 -14.5l-97 -692q-2 -11 0 -14.5t13 -5.5l64 -10l-10 -58h-190z" />
    <glyph glyph-name="backslash" unicode="\" horiz-adv-x="401" 
d="M262 -92l-157 823h104l158 -823h-105z" />
    <glyph glyph-name="bracketright" unicode="]" horiz-adv-x="291" 
d="M-15 -143l7 57l66 10q11 2 14 5.5t5 14.5l97 692q2 11 0 14.5t-13 5.5l-64 10l10 58h190l-122 -867h-190z" />
    <glyph glyph-name="asciicircum" unicode="^" horiz-adv-x="574" 
d="M452 299l-111 267l-182 -267h-112l248 365h117l149 -365h-109z" />
    <glyph glyph-name="underscore" unicode="_" 
d="M-25 -181l11 83h500l-12 -83h-499z" />
    <glyph glyph-name="grave" unicode="`" 
d="M396 564l-156 144l78 67l131 -168z" />
    <glyph glyph-name="a" unicode="a" horiz-adv-x="590" 
d="M374 0l12 86l-4 2q-45 -44 -88 -72t-99 -28q-73 0 -112 47.5t-39 147.5q0 57 13 118t42.5 111t77.5 82.5t118 32.5q43 0 78.5 -16.5t61.5 -40.5l17 47h102q-8 -32 -14.5 -63t-11.5 -63l-42 -305q-2 -12 0 -15t13 -5l48 -7l-8 -59h-165zM419 389q-18 18 -48 33t-63 15
q-43 0 -71.5 -25.5t-45.5 -62.5t-24 -79.5t-7 -77.5q0 -59 17 -83.5t52 -24.5q20 0 41.5 10.5t42.5 26t41.5 34.5t36.5 37z" />
    <glyph glyph-name="b" unicode="b" horiz-adv-x="588" 
d="M51 0q9 30 18.5 69t14.5 75l73 515q3 17 -10 21l-53 16l9 59h177l-46 -325l1 -1q46 42 93 70t98 28q31 0 57 -10.5t44.5 -34t29 -60t10.5 -88.5q0 -53 -12 -114t-39.5 -112.5t-73 -85.5t-112.5 -34q-88 0 -153 65l-3 -1l-12 -52h-111zM194 137q10 -10 23.5 -20.5
t29.5 -19.5t33.5 -15t35.5 -6q36 0 61 23t40.5 58t23 77t7.5 79q0 60 -17.5 87t-49.5 27q-19 0 -41 -10t-43.5 -24t-40.5 -30.5t-34 -30.5z" />
    <glyph glyph-name="c" unicode="c" horiz-adv-x="493" 
d="M434 33q-32 -20 -81 -32.5t-99 -12.5q-56 0 -96 15.5t-65.5 43.5t-37.5 67t-12 87q0 85 24 146.5t64.5 101.5t95 59t115.5 19q57 0 96.5 -12.5t56.5 -23.5l-20 -142l-78 4l-3 66q0 7 -2 10.5t-10 5.5q-9 3 -23.5 5t-31.5 2q-31 0 -61 -12t-53.5 -39t-38 -70.5
t-14.5 -106.5q0 -74 31 -106t85 -32q39 0 74.5 10t61.5 23z" />
    <glyph glyph-name="d" unicode="d" horiz-adv-x="593" 
d="M374 0l12 85l-4 2q-42 -40 -86 -69.5t-100 -29.5q-72 0 -112 46.5t-40 146.5q0 54 12.5 115t41.5 112.5t76.5 85t118.5 33.5q45 0 80 -14.5t60 -34.5l24 182q2 11 -0.5 15t-9.5 6l-53 15l9 59h176l-93 -669q-2 -12 0 -15t13 -5l48 -7l-8 -59h-165zM420 391
q-18 17 -48.5 31.5t-62.5 14.5q-44 0 -72.5 -25.5t-45.5 -63t-24 -81t-7 -79.5q0 -56 18 -79.5t53 -23.5q20 0 41 10t42 25.5t41 34.5t36 36z" />
    <glyph glyph-name="e" unicode="e" horiz-adv-x="492" 
d="M437 33q-45 -21 -93 -33t-99 -12q-56 0 -94.5 16t-62.5 43.5t-34.5 66t-10.5 83.5q0 72 21.5 132.5t60 104.5t91 68.5t114.5 24.5q79 0 114.5 -35t35.5 -90t-31.5 -90.5t-79.5 -58t-104 -33.5t-105 -17q0 -30 5 -53t18 -39.5t34.5 -25t55.5 -8.5q33 0 68 9t76 27z
M166 281q18 2 53 8.5t69 19t59.5 32.5t25.5 50q0 49 -58 49q-28 0 -52.5 -12.5t-44 -34t-33 -50.5t-19.5 -62z" />
    <glyph glyph-name="f" unicode="f" horiz-adv-x="402" 
d="M44 -212l90 637q1 10 -7 10h-68l12 82h76l11 80q14 92 61.5 130.5t124.5 38.5q50 0 92.5 -16t64.5 -34l-45 -74q-11 8 -39.5 22.5t-63.5 14.5q-40 0 -59 -21.5t-24 -64.5l-9 -66q-1 -5 0 -7.5t7 -2.5h158l-12 -82h-166l-91 -647h-113z" />
    <glyph glyph-name="g" unicode="g" horiz-adv-x="578" 
d="M386 85l-4 2q-22 -21 -43.5 -39t-43.5 -31.5t-46 -21t-53 -7.5q-72 0 -112 47.5t-40 147.5q0 55 12.5 115.5t41.5 111.5t77 84t118 33q45 0 81 -16.5t62 -40.5l17 47h102q-9 -36 -15.5 -68t-11.5 -65l-56 -411q-14 -103 -75.5 -149.5t-153.5 -46.5q-36 0 -68 5t-59 12
t-47 15.5t-31 15.5l39 77q6 -4 20.5 -11t35.5 -13.5t46 -11.5t52 -5q60 0 93.5 28t44.5 92zM419 389q-18 18 -48 33t-63 15q-43 0 -72 -25.5t-45.5 -63t-23.5 -80t-7 -77.5q0 -58 18 -82t53 -24q20 0 41.5 10.5t42.5 26.5t40.5 35t35.5 35z" />
    <glyph glyph-name="h" unicode="h" horiz-adv-x="619" 
d="M388 0l-2 3l19 104l32 220q2 12 3 26.5t1 22.5q0 20 -8.5 35t-33.5 15q-19 0 -42.5 -10.5t-47 -25.5t-44 -31t-34.5 -28l-34 -244q-2 -12 0 -15t13 -5l59 -8l-9 -59h-249l9 60l46 7q11 2 14 5t5 15l80 572q3 18 -9 21l-52 16l8 59h176l-43 -319q18 15 40 31t47 29.5
t52 22t57 8.5q56 0 84.5 -29.5t30.5 -85.5q0 -14 -1 -30t-3 -32l-38 -263q-2 -12 0.5 -15t13.5 -5l53 -8l-9 -59h-184z" />
    <glyph glyph-name="i" unicode="i" horiz-adv-x="304" 
d="M199 615q-31 0 -47.5 16.5t-16.5 45.5q0 39 22.5 62.5t62.5 23.5q32 0 48.5 -16t16.5 -45q0 -38 -22.5 -62.5t-63.5 -24.5zM70 0l-3 5l23 122l41 294q3 17 -10 21l-52 16l9 59h180l-61 -430q-2 -12 0.5 -15t13.5 -5l54 -8l-8 -59h-187z" />
    <glyph glyph-name="j" unicode="j" horiz-adv-x="297" 
d="M131 421q1 17 -10 21l-55 16l9 59h181l-80 -577q-12 -87 -54.5 -125t-119.5 -38q-26 0 -49.5 5t-42 12.5t-31 15.5t-18.5 14l42 67q11 -7 34.5 -17.5t49.5 -10.5q38 0 54.5 22t24.5 76zM200 615q-32 0 -48.5 16.5t-16.5 45.5q0 39 22.5 62.5t63.5 23.5q31 0 48 -16
t17 -45q0 -38 -23 -62.5t-63 -24.5z" />
    <glyph glyph-name="k" unicode="k" horiz-adv-x="592" 
d="M397 0l-3 3l-34 104l-63 158l-85 -80l-14 -98q-2 -12 0 -15t13 -5l58 -8l-8 -59h-250l8 60l48 7q11 2 13.5 5.5t4.5 14.5l81 573q1 16 -10 20l-53 16l9 59h180l-64 -456l184 175q33 31 60 42t61 11q12 0 24 -1t25 -4l-9 -71q-29 2 -52.5 -6t-52.5 -37l-75 -72l96 -252
q5 -11 10.5 -13t16.5 -4l50 -9l-8 -58h-161z" />
    <glyph glyph-name="l" unicode="l" horiz-adv-x="304" 
d="M67 0l-3 5l23 122l75 533q3 17 -11 21l-51 15l8 59h180l-93 -668q-2 -12 0.5 -15t13.5 -5l53 -8l-8 -59h-187z" />
    <glyph glyph-name="m" unicode="m" horiz-adv-x="889" 
d="M662 0q-1 1 -1 2l17 110l29 215q2 14 3.5 28t1.5 25q0 20 -7.5 32.5t-27.5 12.5q-35 0 -71 -28t-78 -66l-34 -244q-2 -12 0 -15t13 -5l53 -8l-8 -59h-180l-4 5l19 119l27 196q2 17 4 33.5t2 29.5q0 17 -6 28.5t-26 11.5q-18 0 -39.5 -10t-43 -24t-40.5 -29.5t-32 -27.5
l-34 -245q-2 -12 0.5 -15t13.5 -5l57 -8l-8 -59h-249l8 60l46 7q11 2 14 5.5t5 14.5l46 333q3 17 -9 21l-52 17l8 59h171l-12 -88q21 18 44 35.5t48 31.5t51 22.5t53 8.5q45 0 71 -26.5t26 -75.5q21 18 43 36t45.5 33t49 24t53.5 9q58 0 81.5 -27.5t24.5 -78.5q0 -31 -6 -70
l-37 -264q-2 -12 0 -15t13 -5l53 -8l-8 -59h-181z" />
    <glyph glyph-name="n" unicode="n" horiz-adv-x="620" 
d="M388 0l-2 3l21 120l28 188q2 16 4 33.5t2 30.5q0 22 -7.5 36.5t-31.5 14.5q-20 0 -42.5 -9t-44.5 -22.5t-43 -30.5t-39 -33l-34 -244q-2 -12 0.5 -15t13.5 -5l57 -8l-8 -59h-249l8 60l46 7q11 2 14 5.5t5 14.5l46 333q3 17 -9 21l-52 17l8 59h171l-12 -88q23 19 46 37
t48 31.5t51.5 21.5t56.5 8q67 0 92 -34t25 -88q0 -14 -1.5 -28.5t-3.5 -30.5l-37 -259q-2 -12 0 -15t13 -5l54 -8l-8 -59h-186z" />
    <glyph glyph-name="o" unicode="o" horiz-adv-x="567" 
d="M259 -12q-56 0 -97 15.5t-67.5 43t-39 66.5t-12.5 86q0 72 19 132t56 103.5t91.5 68t125.5 24.5q58 0 98 -16.5t65 -45t36 -66.5t11 -82q0 -74 -18.5 -135t-54.5 -104t-89.5 -66.5t-123.5 -23.5zM269 71q34 0 63 14.5t50 44.5t33 76t12 110t-27.5 94t-78.5 30
q-34 0 -63 -13.5t-51 -42.5t-34.5 -74t-12.5 -108q0 -131 109 -131z" />
    <glyph glyph-name="p" unicode="p" horiz-adv-x="593" 
d="M37 -212l-3 4l28 168l64 460q3 17 -9 21l-52 17l8 59h173l-11 -85q50 43 95.5 69t96.5 26q32 0 58 -11t45.5 -34.5t30 -61t10.5 -90.5q0 -61 -14.5 -122t-43 -110t-71 -79.5t-99.5 -30.5q-51 0 -86.5 16t-70.5 41l-25 -169q-2 -10 0 -13.5t13 -4.5l97 -8l-9 -62h-225z
M199 133q9 -9 22.5 -19t30 -18.5t35 -14t37.5 -5.5q34 0 58.5 23t40 58t22.5 77t7 79q0 60 -17 87t-49 27q-19 0 -41 -10t-43.5 -24t-40.5 -30.5t-34 -30.5z" />
    <glyph glyph-name="q" unicode="q" horiz-adv-x="578" 
d="M248 -212l8 62l79 8q11 1 15 4.5t6 14.5l30 208l-4 2q-41 -40 -86.5 -69.5t-104.5 -29.5q-39 0 -67 14.5t-45.5 40.5t-26 62t-8.5 78q0 54 13 114.5t42 111.5t76 84.5t116 33.5q79 0 145 -57l17 47h102q-8 -36 -15 -68t-12 -65l-69 -507q-2 -11 0 -14.5t13 -5.5l48 -6
l-9 -63h-263zM420 389q-18 18 -48.5 33t-63.5 15q-43 0 -71.5 -25.5t-45.5 -63t-24 -80t-7 -77.5q0 -58 18 -82t52 -24q20 0 41.5 10.5t43 26t41.5 34.5t36 36z" />
    <glyph glyph-name="r" unicode="r" horiz-adv-x="450" 
d="M13 0l8 60l48 6q10 1 13 5t5 15l46 334q2 17 -10 21l-52 17l8 59h169l-13 -96q14 19 32 38t39.5 34t45 24.5t48.5 9.5q17 0 36.5 -2.5t32.5 -6.5l-22 -164l-88 4l-3 62q0 10 -8 10q-19 0 -49 -23.5t-64 -61.5l-35 -258q-2 -12 0.5 -15.5t13.5 -4.5l91 -8l-8 -59h-284z
" />
    <glyph glyph-name="s" unicode="s" horiz-adv-x="462" 
d="M354 366l-3 58q-1 13 -11 17q-11 4 -26 6.5t-38 2.5q-40 0 -67 -15.5t-27 -50.5q0 -29 26.5 -44t62.5 -29q26 -9 52.5 -20.5t48 -28.5t35.5 -42.5t14 -63.5q0 -44 -18 -76t-48 -52.5t-68.5 -30t-80.5 -9.5q-35 0 -66 4t-55 9t-41 11t-23 10l19 137l79 -5l3 -62
q0 -8 3 -12t13 -6q14 -4 32 -6.5t45 -2.5q47 0 73.5 17t26.5 53q0 32 -25.5 48.5t-60.5 27.5q-28 9 -55.5 19.5t-49.5 27t-35.5 42t-13.5 63.5q0 44 18.5 75t48.5 50.5t69 29t79 9.5q57 0 101 -10t61 -18l-18 -137z" />
    <glyph glyph-name="t" unicode="t" horiz-adv-x="412" 
d="M369 22q-30 -14 -71.5 -24t-79.5 -10q-68 0 -99 26t-31 82q0 8 0.5 17.5t1.5 19.5l41 292q0 5 -0.5 7.5t-6.5 2.5h-70l10 73q29 4 51 13t38.5 26.5t28.5 44t22 65.5h72l-18 -130q-1 -10 8 -10h140l-11 -82h-150l-37 -272q-3 -21 -3 -35q0 -26 13 -38.5t46 -12.5
q23 0 45.5 5.5t42.5 12.5z" />
    <glyph glyph-name="u" unicode="u" horiz-adv-x="617" 
d="M394 0l14 91l-3 1q-18 -16 -40 -34t-47 -33.5t-53.5 -26t-59.5 -10.5q-54 0 -85.5 28.5t-31.5 95.5q0 11 1 25.5t3 28.5l37 264q2 12 0 15t-13 5l-50 8l8 59h177l2 -3l-45 -326q-2 -11 -3 -24.5t-1 -24.5q0 -20 8 -34t33 -14q39 0 75.5 26t92.5 76l32 237q2 12 0 15
t-13 5l-55 8l9 59h183l2 -3l-60 -428q-3 -18 9 -19l54 -9l-8 -58h-172z" />
    <glyph glyph-name="v" unicode="v" horiz-adv-x="559" 
d="M185 0l-88 432q-2 9 -5.5 11.5t-11.5 5.5l-41 9l8 59h158l6 -8l16 -106l51 -289h3l165 335l-65 10l8 58h176l8 -21l-254 -496h-134z" />
    <glyph glyph-name="w" unicode="w" horiz-adv-x="829" 
d="M494 0l-48 374l-147 -374h-136l-66 432q-3 14 -16 17l-42 9l9 59h154l6 -8l7 -87l39 -306l156 396h123l51 -401l147 339l-58 8l9 59h154l9 -19l-220 -498h-131z" />
    <glyph glyph-name="x" unicode="x" horiz-adv-x="572" 
d="M389 0l-9 8l-41 78l-61 106l-111 -125l63 -9l-7 -58h-228l7 58l49 9q9 2 13.5 5.5t12.5 11.5l156 177l-98 172q-5 7 -8.5 11t-12.5 6l-39 7l9 60h135l7 -7l42 -85l48 -89l104 114l-52 8l9 59h212l-9 -59l-42 -10q-10 -2 -15 -6.5t-13 -12.5l-149 -159l106 -184
q5 -9 10 -12.5t13 -5.5l56 -9l-9 -59h-148z" />
    <glyph glyph-name="y" unicode="y" horiz-adv-x="539" 
d="M195 10l-104 422q-3 9 -6 12t-11 5l-41 10l11 58h148l7 -8l25 -128l50 -233h3l151 301l-62 10l8 58h170l10 -21l-298 -575q-19 -36 -37.5 -63t-41 -45t-51 -27t-66.5 -9q-24 0 -46 5t-40 12t-31 15t-19 14l43 69q15 -10 40 -19.5t51 -9.5q37 0 60 25t43 60z" />
    <glyph glyph-name="z" unicode="z" horiz-adv-x="504" 
d="M21 0l8 66l328 373h-171q-7 0 -9 -3.5t-4 -9.5l-20 -60l-79 -4l21 155h410l-10 -68l-324 -372h180q11 0 15 13l22 72l80 4l-22 -166h-425z" />
    <glyph glyph-name="braceleft" unicode="{" horiz-adv-x="304" 
d="M230 -148q-89 5 -129.5 26.5t-40.5 77.5q0 29 6 59t14 59q9 33 16.5 63.5t7.5 56.5q0 37 -19.5 48t-50.5 13l10 69q30 2 50.5 11.5t31.5 40.5q13 37 15.5 84t2.5 104q0 49 11 79.5t35.5 48t64.5 25t98 10.5l4 -69q-36 -5 -55.5 -12.5t-29 -22.5t-11.5 -41t-4 -67
q-2 -32 -2 -65.5t-8 -64.5t-25.5 -56.5t-52.5 -40.5q21 -9 36.5 -27.5t15.5 -56.5q0 -25 -6.5 -55.5t-14.5 -62.5t-14.5 -61.5t-6.5 -50.5q0 -27 16 -36.5t54 -18.5z" />
    <glyph glyph-name="bar" unicode="|" horiz-adv-x="283" 
d="M50 -143l122 867h104l-122 -867h-104z" />
    <glyph glyph-name="braceright" unicode="}" horiz-adv-x="313" 
d="M112 727q89 -5 129.5 -26.5t40.5 -77.5q0 -29 -6 -59t-14 -59q-9 -33 -16.5 -63.5t-7.5 -56.5q0 -37 19.5 -48t50.5 -13l-10 -69q-30 -2 -50.5 -11.5t-31.5 -40.5q-13 -37 -15.5 -84t-2.5 -104q0 -49 -11 -79.5t-35.5 -48t-64.5 -25t-98 -10.5l-4 69q36 5 55.5 12.5
t29 22.5t12 41t3.5 67q2 32 2 65.5t8 64.5t25.5 56.5t52.5 40.5q-21 9 -36.5 27.5t-15.5 56.5q0 25 6.5 55.5t14.5 62.5t14.5 61.5t6.5 50.5q0 27 -16 36.5t-54 18.5z" />
    <glyph glyph-name="asciitilde" unicode="~" horiz-adv-x="499" 
d="M521 416q-20 -58 -47 -90.5t-75 -32.5q-27 0 -56 7t-57.5 16t-55 16t-48.5 7q-24 0 -41 -11t-38 -40l-56 28q24 50 57.5 83.5t80.5 33.5q29 0 56.5 -7t54.5 -16t52.5 -16t49.5 -7t36 12t26 40z" />
    <glyph glyph-name="uni00A0" unicode="&#xa0;" horiz-adv-x="214" 
 />
    <glyph glyph-name="sterling" unicode="&#xa3;" horiz-adv-x="546" 
d="M37 0l-5 72q27 18 44.5 35t28.5 39t17 50.5t12 68.5l3 25h-76l12 87h74l8 58q6 47 20.5 86.5t41 68.5t68 45t101.5 16t104 -17.5t67 -40.5l-55 -69q-18 15 -49 27.5t-65 12.5q-59 0 -85 -31.5t-34 -88.5l-9 -67h163l-12 -87h-161l-5 -38q-8 -55 -26 -95t-61 -78h233
q8 0 11 3t5 9l25 82h81l-23 -173h-453z" />
    <glyph glyph-name="currency" unicode="&#xa4;" horiz-adv-x="570" 
d="M496 1l-88 87q-52 -33 -124 -33q-80 0 -128 33q-20 -21 -44.5 -44.5t-42.5 -42.5l-69 69l91 91q-15 27 -20.5 56.5t-5.5 62.5q0 30 6.5 57.5t21.5 53.5l-90 89l72 72l84 -85q53 38 131 38t129 -36l82 82l68 -70l-86 -86q26 -49 26 -111q0 -67 -31 -124l90 -89zM288 147
q56 0 85 39t29 94q0 61 -29 95.5t-87 34.5q-57 0 -85.5 -36.5t-28.5 -93.5q0 -28 6.5 -52t21 -42t36.5 -28.5t52 -10.5z" />
    <glyph glyph-name="brokenbar" unicode="&#xa6;" horiz-adv-x="283" 
d="M50 -143l54 388h104l-54 -388h-104zM125 389l47 335h104l-47 -335h-104z" />
    <glyph glyph-name="section" unicode="&#xa7;" horiz-adv-x="556" 
d="M131 -39q1 -8 3 -12.5t13 -7.5q12 -4 33 -7t45 -3q50 0 76.5 18.5t26.5 54.5q0 19 -9 31.5t-24 21.5t-35 15t-42 12q-26 7 -52 16t-47 23.5t-34 37t-13 57.5q0 27 8 49.5t21.5 41t30.5 34t35 28.5q-17 14 -29 38.5t-12 56.5q0 43 17.5 74t47.5 51t70.5 29.5t85.5 9.5
q63 0 108 -10.5t62 -18.5l-19 -135l-81 5l-2 58q0 13 -10 17q-24 8 -68 8q-54 0 -78.5 -20.5t-24.5 -49.5q0 -18 9.5 -30.5t25 -21t36 -15t42.5 -12.5q26 -7 51.5 -16.5t45.5 -25t33 -39t13 -58.5q0 -50 -28 -87t-64 -60q19 -19 29.5 -43t10.5 -53q0 -45 -18.5 -76.5
t-49 -51t-70 -28.5t-81.5 -9q-34 0 -64.5 4t-55.5 9.5t-43 11.5t-26 11l17 132l81 -5zM327 156q9 7 19.5 16.5t19.5 21t15 24.5t6 27q0 26 -20.5 41t-52.5 24l-82 23q-20 -15 -39.5 -38.5t-19.5 -48.5q0 -28 22.5 -41t54.5 -24z" />
    <glyph glyph-name="dieresis" unicode="&#xa8;" 
d="M434 601q-26 0 -39.5 14t-13.5 38q0 32 19 51.5t52 19.5q26 0 40 -13.5t14 -37.5q0 -32 -19 -52t-53 -20zM230 601q-26 0 -39.5 14t-13.5 38q0 32 19 51.5t52 19.5q26 0 40 -13.5t14 -37.5q0 -32 -19 -52t-53 -20z" />
    <glyph glyph-name="copyright" unicode="&#xa9;" horiz-adv-x="765" 
d="M728 319q0 -75 -24.5 -136.5t-68.5 -105t-105.5 -67.5t-135.5 -24q-82 0 -144.5 24.5t-104.5 67t-63 101t-21 126.5q0 78 26 140t71.5 104.5t106.5 65t131 22.5q77 0 138.5 -22.5t104.5 -64t66 -100t23 -131.5zM396 45q62 0 111 18.5t83.5 53t53 84.5t18.5 112
q0 65 -20 114t-55 83t-84 51t-107 17q-57 0 -106 -18.5t-85 -53t-56 -85t-20 -115.5q0 -122 70.5 -191.5t196.5 -69.5zM520 144q-20 -12 -52 -18t-62 -6q-51 0 -86.5 14.5t-58 41t-33 62t-10.5 77.5q0 43 12 78.5t36 61t59.5 40t83.5 14.5q31 0 62.5 -6.5t49.5 -13.5v-108
l-48 4l-9 48q-1 8 -8 11q-8 3 -22.5 6t-31.5 3q-45 0 -76 -31.5t-31 -108.5q0 -28 6 -53.5t19.5 -44t35.5 -29.5t53 -11q27 0 45 8q6 3 8 10l15 54h43v-103z" />
    <glyph glyph-name="guillemotleft" unicode="&#xab;" horiz-adv-x="448" 
d="M292 103l-65 155l110 150h99l-97 -139q-5 -7 -5.5 -10t1.5 -9l54 -147h-97zM122 103l-65 155l110 150h99l-97 -139q-5 -7 -5.5 -10t1.5 -9l54 -147h-97z" />
    <glyph glyph-name="logicalnot" unicode="&#xac;" horiz-adv-x="570" 
d="M381 183l14 95h-288l13 95h381l-27 -190h-93z" />
    <glyph glyph-name="uni00AD" unicode="&#xad;" horiz-adv-x="311" 
d="M30 239l15 104h271l-15 -104h-271z" />
    <glyph glyph-name="registered" unicode="&#xae;" horiz-adv-x="450" 
d="M459 480q0 -41 -13.5 -75t-38 -58.5t-58.5 -38t-75 -13.5q-46 0 -80.5 13.5t-57.5 37.5t-35 56.5t-12 70.5q0 43 14.5 77.5t40 58.5t59 37t72.5 13q86 0 135 -49t49 -130zM415 477q0 69 -40 104.5t-100 35.5q-30 0 -55.5 -9.5t-44.5 -28t-30 -45t-11 -60.5
q0 -65 37.5 -101t103.5 -36q65 0 102.5 37t37.5 103zM290 384v23l13 2l-24 42q-3 5 -5.5 6.5t-7.5 1.5h-12v-43q0 -6 6 -7l15 -2v-23h-82v22l15 3q5 1 5 7v128q0 5 -5 6l-15 3v22h88q40 0 53.5 -16.5t13.5 -37.5q0 -20 -10 -33t-26 -19q9 -2 17 -18l17 -36q2 -5 8 -6l17 -2
v-23h-81zM268 490q15 0 26 5t11 24q0 15 -9 20t-23 5h-19v-54h14z" />
    <glyph glyph-name="macron" unicode="&#xaf;" 
d="M180 606l12 82h311l-12 -82h-311z" />
    <glyph glyph-name="degree" unicode="&#xb0;" horiz-adv-x="286" 
d="M198 614q26 0 41.5 17.5t15.5 43.5q0 44 -42 44q-24 0 -40.5 -16.5t-16.5 -45.5q0 -20 10.5 -31.5t31.5 -11.5zM315 683q0 -56 -35.5 -90t-89.5 -34q-44 0 -69.5 24.5t-25.5 66.5q0 30 10 53t27.5 39t40.5 24t48 8q42 0 68 -24t26 -67z" />
    <glyph glyph-name="plusminus" unicode="&#xb1;" horiz-adv-x="570" 
d="M67 0l13 95h381l-13 -95h-381zM345 275l-20 -141h-98l20 141h-142l13 95h142l20 146h99l-21 -146h141l-13 -95h-141z" />
    <glyph glyph-name="mu" unicode="&#xb5;" horiz-adv-x="635" 
d="M411 0l10 65l-4 1q-38 -34 -79 -56t-79 -22q-26 0 -44 9t-29 18l-18 -191h-118l98 693h115l-47 -334q-2 -13 -3 -24t-1 -21q0 -27 11 -41.5t43 -14.5q38 0 78.5 23t73.5 53l51 359h115l-60 -429q-3 -17 10 -20l52 -7l-9 -61h-166z" />
    <glyph glyph-name="paragraph" unicode="&#xb6;" horiz-adv-x="631" 
d="M483 569h-72l-73 -513h-40q-54 0 -97.5 17.5t-73.5 50.5t-46.5 79.5t-16.5 103.5q0 78 24 140.5t69 106.5t110.5 67.5t147.5 23.5h258l-9 -62l-68 -8q-11 -2 -14 -5t-5 -14l-74 -527q-14 -100 -73 -145.5t-147 -45.5q-75 0 -126 17.5t-74 31.5l38 73q6 -4 20.5 -11
t35 -13.5t45 -11.5t51.5 -5q58 0 91.5 29t43.5 93z" />
    <glyph glyph-name="periodcentered" unicode="&#xb7;" horiz-adv-x="212" 
d="M204 327q0 -38 -21 -60t-63 -22q-65 0 -65 56q0 39 21.5 60.5t63.5 21.5q64 0 64 -56z" />
    <glyph glyph-name="cedilla" unicode="&#xb8;" 
d="M135 -177q5 -2 14.5 -3t21.5 -1t25 2.5t23 8.5t16.5 15.5t6.5 24.5q0 22 -15.5 31.5t-47.5 10.5l33 118l62 -8l-19 -67q24 -7 45.5 -25t21.5 -56q0 -29 -12 -51t-31.5 -37t-45.5 -22.5t-53 -7.5q-24 0 -39 3t-20 5z" />
    <glyph glyph-name="guillemotright" unicode="&#xbb;" horiz-adv-x="448" 
d="M211 103l97 145q5 7 5 10t-2 9l-57 141h98l66 -153l-107 -152h-100zM41 103l97 145q5 7 5 10t-2 9l-57 141h98l66 -153l-107 -152h-100z" />
    <glyph glyph-name="multiply" unicode="&#xd7;" horiz-adv-x="570" 
d="M297 252l-117 -103l-59 68l118 104l-89 104l79 69l87 -104l118 104l59 -69l-117 -104l88 -104l-79 -68z" />
    <glyph glyph-name="divide" unicode="&#xf7;" horiz-adv-x="570" 
d="M348 173q0 -36 -20 -56.5t-59 -20.5q-62 0 -62 55q0 35 20.5 56t59.5 21q31 0 46 -14.5t15 -40.5zM107 274l14 94h381l-14 -94h-381zM393 491q0 -36 -20 -56t-60 -20q-61 0 -61 54q0 35 20 56.5t59 21.5q31 0 46.5 -15t15.5 -41z" />
    <glyph glyph-name="florin" unicode="&#x192;" horiz-adv-x="539" 
d="M299 302l-68 -224q-16 -51 -34.5 -84.5t-42.5 -54t-54.5 -29t-70.5 -8.5q-42 0 -81.5 13t-58.5 30l42 73q17 -12 44.5 -22.5t56.5 -10.5q32 0 53.5 17t37.5 68l69 222q2 10 -6 10h-89l23 78h100l33 105q14 45 31 76.5t41 51.5t56.5 29t75.5 9q48 0 83 -11.5t57 -25.5
l-40 -135l-71 6l8 66q0 11 -7 13q-8 3 -16.5 4.5t-24.5 1.5q-39 0 -58.5 -24t-33.5 -68l-28 -88q-2 -5 -1 -7.5t7 -2.5h132l-24 -78h-141z" />
    <glyph glyph-name="circumflex" unicode="&#x2c6;" 
d="M452 568l-107 98l-135 -98l-46 44l143 125h92l108 -125z" />
    <glyph glyph-name="caron" unicode="&#x2c7;" 
d="M375 579h-92l-106 125l54 44l106 -98l136 98l46 -44z" />
    <glyph glyph-name="uni02C9" unicode="&#x2c9;" 
d="M179 606l12 82h311l-12 -82h-311z" />
    <glyph glyph-name="breve" unicode="&#x2d8;" 
d="M518 707q-26 -63 -70.5 -99t-116.5 -36t-107.5 36t-43.5 99l66 24q9 -44 32 -64t62 -20t66.5 20t49.5 64z" />
    <glyph glyph-name="dotaccent" unicode="&#x2d9;" 
d="M335 617q-31 0 -47.5 16.5t-16.5 45.5q0 39 22.5 62.5t62.5 23.5q32 0 48.5 -16t16.5 -45q0 -38 -22.5 -62.5t-63.5 -24.5z" />
    <glyph glyph-name="ring" unicode="&#x2da;" 
d="M361 762q38 0 63.5 -19t25.5 -60q0 -48 -32.5 -80t-84.5 -32q-39 0 -64 22.5t-25 62.5q0 48 33.5 77t83.5 29zM342 625q23 0 35.5 16t12.5 37q0 17 -10.5 25t-25.5 8q-23 0 -36 -13.5t-13 -36.5q0 -17 10 -26.5t27 -9.5z" />
    <glyph glyph-name="ogonek" unicode="&#x2db;" 
d="M333 -200q-27 -12 -55 -18t-52 -6q-86 0 -86 67q0 29 13 54t33.5 47t45.5 41.5t50 35.5l61 -17q-11 -9 -28.5 -23t-34 -31t-28 -36t-11.5 -37q0 -25 26 -25q22 0 52 11z" />
    <glyph glyph-name="tilde" unicode="&#x2dc;" 
d="M494 637q-21 -28 -37 -41t-36 -13q-11 0 -25 3t-31 8q-29 8 -60 17t-45 12q-9 2 -16 -5l-41 -36l-44 32l36 47q18 23 34 34t34 11q19 0 49 -9q14 -4 30.5 -8.5t32 -8.5t28 -7.5t19.5 -4.5t15 5l37 35l48 -33z" />
    <glyph glyph-name="hungarumlaut" unicode="&#x2dd;" 
d="M190 565l-45 41l156 175l68 -62zM370 565l-45 41l156 175l68 -62z" />
    <glyph glyph-name="uni0394" unicode="&#x394;" horiz-adv-x="688" 
d="M8 0l355 724h140l157 -724h-652zM414 613h-3l-247 -519h345z" />
    <glyph glyph-name="uni03A9" unicode="&#x3a9;" horiz-adv-x="838" 
d="M453 0l23 166q30 11 65 33t65.5 57t51 84t20.5 114q0 95 -50.5 141.5t-135.5 46.5q-57 0 -104.5 -17.5t-82 -51.5t-54 -85t-19.5 -118q0 -78 34 -129t89 -75l-23 -166h-303l23 165h81l4 -69q1 -8 4 -9.5t11 -1.5h106l6 45q-72 31 -112 95t-40 145q0 79 28 146.5t79 116.5
t123 76.5t161 27.5q75 0 130.5 -19.5t92 -54.5t54.5 -85t18 -110q0 -64 -19 -118t-52 -96.5t-77 -73.5t-94 -51l-6 -44h101q8 0 11.5 1.5t5.5 9.5l25 69h81l-24 -165h-297z" />
    <glyph glyph-name="uni03BC" unicode="&#x3bc;" horiz-adv-x="629" 
d="M411 0l10 65l-4 1q-38 -34 -79 -56t-79 -22q-26 0 -44 9t-29 18l-18 -191h-118l98 693h115l-47 -334q-2 -13 -3 -24t-1 -21q0 -27 11 -41.5t43 -14.5q38 0 78.5 23t73.5 53l51 359h115l-60 -429q-3 -17 10 -20l52 -7l-9 -61h-166z" />
    <glyph glyph-name="pi" unicode="&#x3c0;" horiz-adv-x="693" 
d="M421 0l61 436h-202l-61 -436h-179l9 62l49 7q10 1 12.5 3.5t4.5 11.5l49 342q2 11 0 15t-13 5l-54 7l8 64h576l-8 -64l-59 -7q-11 -2 -14 -5.5t-5 -14.5l-47 -337q-2 -12 0 -15t13 -5l47 -7l-8 -62h-179z" />
    <glyph glyph-name="afii10023" unicode="&#x401;" horiz-adv-x="617" 
d="M498 781q-26 0 -39.5 14t-13.5 38q0 32 19 51.5t52 19.5q26 0 40 -13.5t14 -37.5q0 -32 -19 -52t-53 -20zM294 781q-26 0 -39.5 14t-13.5 38q0 32 19 51.5t52 19.5q26 0 40 -13.5t14 -37.5q0 -32 -19 -52t-53 -20zM29 0l7 59l63 7q11 2 14 5.5t5 14.5l76 551q2 11 0 15
t-13 5l-60 7l7 60h504l-25 -180l-80 4l-3 77q-1 13 -15 13h-201l-31 -230h249l-12 -87h-249l-32 -236h221q8 0 11.5 1.5t6.5 9.5l27 88h80l-25 -184h-525z" />
    <glyph glyph-name="afii10051" unicode="&#x402;" horiz-adv-x="820" 
d="M548 77q53 0 84.5 39t31.5 99q0 33 -10 54.5t-27.5 35t-41.5 19t-52 5.5q-35 0 -67 -4.5t-63 -10.5l-44 -314h-194l8 61l65 7q11 1 13.5 5t4.5 15l78 550h-126q-8 0 -11.5 -1.5t-6.5 -9.5l-27 -84l-84 -3l25 184h647l-27 -185l-82 3l-5 83q0 13 -14 13h-174l-33 -235
q27 6 62.5 11.5t83.5 5.5q108 0 163 -53.5t55 -145.5q0 -49 -16 -91t-46 -73t-73.5 -48.5t-99.5 -17.5q-73 0 -133 22l21 148h77l4 -65q1 -10 3 -12.5t9 -4.5q6 -2 11 -2h11z" />
    <glyph glyph-name="afii10052" unicode="&#x403;" horiz-adv-x="592" 
d="M340 766l-28 58l207 123l40 -86zM26 0l9 61l65 7q11 2 13.5 5.5t4.5 14.5l76 548q2 11 0 14.5t-13 5.5l-62 7l8 61h509l-26 -191l-82 5l-4 88q-1 8 -4 10t-11 2h-198l-77 -549q-2 -11 0 -14.5t13 -5.5l144 -8l-9 -61h-356z" />
    <glyph glyph-name="afii10053" unicode="&#x404;" horiz-adv-x="665" 
d="M601 42q-45 -27 -112 -40.5t-135 -13.5q-78 0 -133.5 23t-91 64t-52 98t-16.5 126q0 96 26.5 176t78.5 138.5t129.5 91t178.5 32.5q63 0 121 -14.5t93 -40.5l-24 -175l-83 6l-3 94q0 16 -13 22q-19 9 -47.5 12.5t-55.5 3.5q-104 0 -176.5 -61.5t-94.5 -178.5h284l-12 -88
h-280q-1 -5 -1 -9v-8q2 -109 50.5 -165.5t142.5 -56.5q26 0 61 2.5t58 10.5q11 4 14.5 9t6.5 14l29 93h80z" />
    <glyph glyph-name="afii10054" unicode="&#x405;" horiz-adv-x="572" 
d="M472 527l-3 89q0 8 -2.5 13.5t-12.5 8.5q-21 7 -63 7q-32 0 -61.5 -7t-52 -21t-35.5 -35.5t-13 -50.5q0 -25 10 -42.5t27.5 -30t40.5 -22.5t48 -19q31 -11 63 -24.5t58 -34.5t42.5 -53t16.5 -80q0 -63 -23 -108t-62.5 -73.5t-93 -42t-114.5 -13.5q-34 0 -67.5 4t-62 9.5
t-50.5 12.5t-34 13l24 176h84l7 -93q1 -8 3.5 -13t14.5 -9q14 -5 37.5 -8t55.5 -3q77 0 120 32t43 95q0 26 -10.5 44.5t-27.5 32t-40 23.5t-48 19q-31 11 -63.5 24t-58 33t-42 51t-16.5 79q0 58 22.5 101t61 71t90 41.5t108.5 13.5q65 0 113 -13t75 -25l-25 -180z" />
    <glyph glyph-name="afii10055" unicode="&#x406;" horiz-adv-x="371" 
d="M20 0l7 59l73 7q11 1 13.5 5t4.5 15l77 552q2 11 0 15t-13 5l-70 7l8 59h292l-7 -59l-77 -8q-11 -2 -13.5 -5t-4.5 -14l-77 -551q-2 -12 -0.5 -15t12.5 -5l75 -8l-7 -59h-293z" />
    <glyph glyph-name="afii10056" unicode="&#x407;" horiz-adv-x="371" 
d="M240 851q0 -30 -19.5 -50t-51.5 -20q-26 0 -40.5 14.5t-14.5 37.5q0 30 20 50t52 20q25 0 39.5 -14t14.5 -38zM444 851q0 -30 -19.5 -50t-51.5 -20q-26 0 -40.5 14.5t-14.5 37.5q0 30 20 50t52 20q25 0 39.5 -14t14.5 -38zM20 0l7 59l73 7q11 1 13.5 5t4.5 15l77 552
q2 11 0 15t-13 5l-70 7l8 59h292l-7 -59l-77 -8q-11 -2 -13.5 -5t-4.5 -14l-77 -551q-2 -12 -0.5 -15t12.5 -5l75 -8l-7 -59h-293z" />
    <glyph glyph-name="afii10057" unicode="&#x408;" horiz-adv-x="491" 
d="M332 639q2 10 -0.5 13.5t-12.5 4.5l-85 8l8 59h298l-8 -59l-67 -8q-11 -2 -13.5 -5t-4.5 -14l-68 -485q-12 -85 -56 -125t-137 -40q-29 0 -55.5 3.5t-48.5 9t-37.5 12t-23.5 12.5l20 154l81 -6v-70q0 -7 1.5 -10t7.5 -6q6 -2 21.5 -5.5t36.5 -3.5q39 0 55 19t21 60z" />
    <glyph glyph-name="afii10058" unicode="&#x409;" horiz-adv-x="1036" 
d="M217 724h607l-9 -61l-98 -9q-11 -1 -14.5 -4.5t-5.5 -15.5l-28 -208h120q57 0 98 -13t67 -37t38.5 -56.5t12.5 -71.5q0 -63 -20.5 -109.5t-58.5 -77t-91.5 -46t-118.5 -15.5h-302l9 61l65 7q11 2 13.5 5.5t4.5 14.5l77 551h-190q-13 -108 -30.5 -207.5t-39.5 -180.5
q-16 -60 -39 -108.5t-58 -83t-84.5 -54.5t-118.5 -21l-7 104q42 3 73.5 13.5t54.5 31t40.5 52.5t31.5 78q9 28 18 68.5t18.5 89t18 102.5t15.5 110q2 12 -0.5 16.5t-13.5 6.5l-63 7zM709 86q34 0 65.5 7.5t55.5 25t38 47t14 73.5q0 56 -32 79.5t-91 23.5h-102l-36 -256h88z
" />
    <glyph glyph-name="afii10059" unicode="&#x40a;" horiz-adv-x="1061" 
d="M692 413h120q115 0 166.5 -46.5t51.5 -124.5q0 -63 -20.5 -108.5t-58.5 -75t-91 -44t-118 -14.5h-298l8 61l65 7q11 2 13.5 5.5t4.5 14.5l33 238h-302l-34 -239q-2 -12 -0.5 -15t12.5 -5l65 -8l-8 -59h-273l7 59l63 7q11 2 14 5.5t5 14.5l77 552q2 11 -0.5 15t-13.5 5
l-60 7l8 59h273l-7 -59l-67 -8q-11 -2 -13.5 -5t-4.5 -14l-31 -224h301l32 224q2 11 0 15t-13 5l-61 7l8 59h282l-7 -60l-78 -8q-11 -2 -14 -5t-5 -14zM734 86q35 0 66.5 6.5t55.5 23t38 45t14 72.5q0 56 -33 76.5t-93 20.5h-102l-34 -244h88z" />
    <glyph glyph-name="afii10060" unicode="&#x40b;" horiz-adv-x="852" 
d="M416 412q35 9 78.5 16t88.5 7q104 0 143.5 -48t26.5 -143l-22 -156q-2 -12 0.5 -15t13.5 -5l63 -8l-9 -60h-267v0l8 60l58 9q11 2 13 5.5t4 13.5l19 135q8 61 -8.5 90.5t-81.5 29.5q-32 0 -70.5 -6t-70.5 -14l-32 -235q-2 -11 0 -14.5t13 -5.5l62 -8l-9 -60h-276l9 61
l66 7q16 2 18.5 16.5t4.5 30.5l73 523h-125q-8 0 -11.5 -1.5t-6.5 -9.5l-27 -85l-83 -2l25 184h644l-26 -191l-82 5l-3 83q-1 17 -20 17h-170z" />
    <glyph glyph-name="afii10061" unicode="&#x40c;" horiz-adv-x="737" 
d="M410 766l-28 58l207 123l40 -86zM233 89q-2 -12 0.5 -15.5t13.5 -5.5l66 -8l-9 -60h-275l8 60l62 7q11 1 14 4.5t5 15.5l77 548q2 11 -0.5 16t-13.5 6l-62 7l9 60h276l-7 -60l-68 -8q-12 -2 -15 -6t-5 -15l-31 -223h69q21 0 37 4.5t30 15t27 29t27 46.5l54 106
q15 29 29 52t32 39t41.5 24.5t57.5 8.5q15 0 30.5 -2t32.5 -6l-16 -83q-8 2 -14.5 2h-12.5q-34 -1 -49.5 -16.5t-30.5 -47.5l-57 -118q-22 -44 -51.5 -63.5t-55.5 -26.5v-1q14 -6 24.5 -14.5t19.5 -21.5t18 -32t19 -47l63 -163q5 -12 9.5 -17t15.5 -7l67 -11l-9 -62h-180
q-11 37 -23.5 73.5t-24.5 70t-23 62t-20 49.5q-8 21 -16 34.5t-18 21.5t-23.5 11t-33.5 3h-57z" />
    <glyph glyph-name="afii10062" unicode="&#x40e;" horiz-adv-x="676" 
d="M616 907q-25 -68 -67.5 -96.5t-105.5 -28.5q-66 0 -106 30.5t-48 93.5l80 23q5 -42 25 -59t51 -17q29 0 53 15.5t41 60.5zM158 626q-4 13 -9 18.5t-17 8.5l-42 11l18 60h245l-9 -60l-74 -9l98 -386h4l205 385l-70 9l18 61h224l-9 -61l-43 -11q-15 -4 -20.5 -9.5
t-13.5 -20.5l-263 -478q-24 -45 -46.5 -75t-46.5 -48t-51.5 -25.5t-60.5 -7.5q-38 0 -75.5 10t-60.5 23l36 84q14 -8 39.5 -17t53.5 -9q20 0 34 5t25 15t21 25t21 34z" />
    <glyph glyph-name="afii10145" unicode="&#x40f;" horiz-adv-x="774" 
d="M521 85l76 549q2 12 0 15t-13 5l-59 8l9 62h273l-8 -62l-67 -8q-11 -2 -14 -5t-5 -15l-76 -544q-2 -11 0.5 -14.5t13.5 -5.5l64 -7l-9 -63h-267q-13 0 -16 -13l-36 -146l-75 5l2 141q0 13 -11 13h-278l9 62l66 7q11 2 13.5 5.5t4.5 14.5l76 545q2 12 0 15t-13 5l-64 8
l9 62h274l-9 -62l-62 -8q-11 -2 -14 -5t-5 -15l-77 -549h288z" />
    <glyph glyph-name="afii10017" unicode="&#x410;" horiz-adv-x="717" 
d="M423 0l9 57l83 9l-26 143h-262l-64 -143l86 -9l-9 -57h-253l9 57l43 11q11 3 17.5 8.5t11.5 13.5l300 634h138l130 -639q2 -12 21 -17l44 -11l-9 -57h-269zM414 619l-149 -323h211z" />
    <glyph glyph-name="afii10018" unicode="&#x411;" horiz-adv-x="668" 
d="M340 87q34 0 65 6t55 21t38 42t14 69q0 28 -10 46t-27.5 28.5t-42 15t-53.5 4.5h-114l-32 -232h107zM277 403h132q118 0 171.5 -45.5t53.5 -127.5q0 -61 -22 -105t-60.5 -71.5t-91 -40.5t-114.5 -13h-320l9 61l65 7q11 1 13.5 5t4.5 15l76 548q2 10 -0.5 13.5t-13.5 5.5
l-61 8l8 61h510l-27 -191l-82 4l-4 89q0 8 -3.5 10t-11.5 2h-199z" />
    <glyph glyph-name="afii10019" unicode="&#x412;" horiz-adv-x="647" 
d="M28 0l9 58l62 7q11 2 14 5.5t5 14.5l76 552q2 11 -0.5 15t-12.5 5l-61 8l8 59h307q55 0 92 -12t59.5 -33t32 -49t9.5 -60q0 -43 -13 -75.5t-33.5 -55.5t-46.5 -37.5t-53 -22.5l-1 -4q72 -8 107.5 -47.5t35.5 -102.5t-22 -106t-61 -69.5t-93 -38t-118 -11.5h-302zM325 87
q40 0 73.5 5.5t57.5 20.5t37.5 42t13.5 71q0 29 -10 48.5t-27.5 31t-41.5 16.5t-51 5h-113l-32 -240h93zM348 413q31 0 60.5 5t53 20t37.5 42t14 70q0 53 -33 70t-91 17h-82l-31 -224h72z" />
    <glyph glyph-name="afii10020" unicode="&#x413;" horiz-adv-x="592" 
d="M26 0l9 61l65 7q11 2 13.5 5.5t4.5 14.5l76 548q2 11 0 14.5t-13 5.5l-62 7l8 61h509l-26 -191l-82 5l-4 88q-1 8 -4 10t-11 2h-198l-77 -549q-2 -11 0 -14.5t13 -5.5l144 -8l-9 -61h-356z" />
    <glyph glyph-name="afii10021" unicode="&#x414;" horiz-adv-x="785" 
d="M141 0q-14 0 -17 -13l-38 -130l-84 -5l31 234h59q36 38 63.5 80.5t49 95.5t37.5 120.5t28 155.5l14 97q2 11 0 15.5t-13 5.5l-62 7l8 61h600l-9 -61l-68 -8q-11 -2 -14 -5.5t-5 -15.5l-77 -548h75l-31 -234l-84 5l-1 130q0 13 -13 13h-449zM394 639l-13 -95
q-21 -160 -60 -270.5t-107 -187.5h314l77 553h-211z" />
    <glyph glyph-name="afii10022" unicode="&#x415;" horiz-adv-x="617" 
d="M29 0l7 59l63 7q11 2 14 5.5t5 14.5l76 551q2 11 0 15t-13 5l-60 7l7 60h504l-25 -180l-80 4l-3 77q-1 13 -15 13h-201l-31 -230h249l-12 -87h-249l-32 -236h221q8 0 11.5 1.5t6.5 9.5l27 88h80l-25 -184h-525z" />
    <glyph glyph-name="afii10024" unicode="&#x416;" horiz-adv-x="1053" 
d="M535 637q2 11 0 15t-13 5l-62 7l9 60h273l-8 -60l-66 -8q-11 -2 -14 -5t-5 -14l-31 -223h48q21 0 36 4t27.5 14t24 28.5t25.5 46.5l55 114q12 25 25 46t31 36.5t42.5 24.5t58.5 9q19 0 35 -2.5t29 -5.5l-16 -84q-4 1 -8 1t-8.5 0.5t-10.5 0.5q-35 0 -52 -22t-35 -61
l-43 -93q-20 -42 -44 -61.5t-57 -31.5v-1q15 -7 25.5 -16t19 -22.5t17 -32.5t18.5 -46l60 -162q5 -12 9.5 -17.5t15.5 -7.5l66 -10l-9 -63h-182q-10 36 -22.5 73.5t-24.5 72t-22.5 64.5t-18.5 51t-15.5 33.5t-17.5 19.5t-22.5 9.5t-29.5 2.5h-43l-33 -238q-2 -12 0 -15.5
t13 -5.5l60 -8l-8 -59h-265l7 59l60 7q10 2 14 6t6 18l33 236h-45q-17 0 -29.5 -2.5t-24 -9.5t-22.5 -20t-25 -33t-33 -50t-40.5 -64.5t-43.5 -72.5t-42 -74h-186l9 63l67 10q11 2 16.5 5.5t10.5 11.5l113 179q31 50 54.5 74t57.5 34v1q-29 16 -44.5 36t-24.5 61l-25 111
q-8 34 -20.5 47t-38.5 14h-13t-15 -1l7 83q34 8 66 8q54 0 77 -22.5t34 -67.5l35 -142q7 -27 14 -45t16.5 -28t23 -14t33.5 -4h50z" />
    <glyph glyph-name="afii10025" unicode="&#x417;" horiz-adv-x="618" 
d="M393 737q105 0 158 -41.5t53 -122.5q0 -40 -13.5 -72t-36.5 -56t-53.5 -40.5t-65.5 -25.5l-1 -4q60 -11 97.5 -48.5t37.5 -108.5q0 -49 -19 -91.5t-56 -73t-91.5 -48t-125.5 -17.5q-33 0 -66.5 4t-63.5 11.5t-55.5 18t-43.5 22.5l23 164h83l4 -94q1 -13 14 -19
q22 -11 51.5 -15t58.5 -4q35 0 65.5 9t53 27.5t36 45.5t13.5 63q0 52 -34 76.5t-96 24.5h-112l13 88h70q44 0 79.5 11t61 30t39 46t13.5 58q0 53 -32 74t-82 21q-26 0 -57.5 -4.5t-48.5 -12.5q-9 -5 -13 -16l-29 -93l-85 -4l22 161q42 23 104 39.5t130 16.5z" />
    <glyph glyph-name="afii10026" unicode="&#x418;" horiz-adv-x="815" 
d="M472 0l9 60l64 7q11 2 14 5.5t5 14.5l69 477h-4l-404 -564h-198l9 60l63 7q11 2 14 5.5t5 14.5l76 549q2 11 0 15t-13 5l-62 7l9 61h274l-8 -61l-68 -8q-12 -2 -14.5 -5t-4.5 -14l-68 -466h5l397 554h207l-9 -61l-68 -8q-11 -2 -14 -5t-5 -14l-75 -548q-2 -12 0 -15.5
t13 -5.5l66 -7l-9 -60h-275z" />
    <glyph glyph-name="afii10027" unicode="&#x419;" horiz-adv-x="815" 
d="M684 907q-25 -68 -67.5 -96.5t-105.5 -28.5q-66 0 -106 30.5t-48 93.5l80 23q5 -42 25 -59t51 -17q29 0 53 15.5t41 60.5zM472 0l9 60l64 7q11 2 14 5.5t5 14.5l69 477h-4l-404 -564h-198l9 60l63 7q11 2 14 5.5t5 14.5l76 549q2 11 0 15t-13 5l-62 7l9 61h274l-8 -61
l-68 -8q-12 -2 -14.5 -5t-4.5 -14l-68 -466h5l397 554h207l-9 -61l-68 -8q-11 -2 -14 -5t-5 -14l-75 -548q-2 -12 0 -15.5t13 -5.5l66 -7l-9 -60h-275z" />
    <glyph glyph-name="afii10028" unicode="&#x41a;" horiz-adv-x="737" 
d="M233 89q-2 -12 0.5 -15.5t13.5 -5.5l66 -8l-9 -60h-275l8 60l62 7q11 1 14 4.5t5 15.5l77 548q2 11 -0.5 16t-13.5 6l-62 7l9 60h276l-7 -60l-68 -8q-12 -2 -15 -6t-5 -15l-31 -223h69q21 0 37 4.5t30 15t27 29t27 46.5l54 106q15 29 29 52t32 39t41.5 24.5t57.5 8.5
q15 0 30.5 -2t32.5 -6l-16 -83q-8 2 -14.5 2h-12.5q-34 -1 -49.5 -16.5t-30.5 -47.5l-57 -118q-22 -44 -51.5 -63.5t-55.5 -26.5v-1q14 -6 24.5 -14.5t19.5 -21.5t18 -32t19 -47l63 -163q5 -12 9.5 -17t15.5 -7l67 -11l-9 -62h-180q-11 37 -23.5 73.5t-24.5 70t-23 62
t-20 49.5q-8 21 -16 34.5t-18 21.5t-23.5 11t-33.5 3h-57z" />
    <glyph glyph-name="afii10029" unicode="&#x41b;" horiz-adv-x="778" 
d="M601 639h-207q-14 -108 -31.5 -207.5t-39.5 -180.5q-16 -60 -39 -108t-58 -82.5t-84.5 -54t-118.5 -20.5l-7 102q42 3 73.5 13.5t55 31t40.5 52.5t31 78q9 28 18.5 68.5t18.5 89t18 102.5t16 110q2 12 -0.5 16.5t-13.5 6.5l-64 7l8 61h594l-8 -61l-68 -8q-11 -2 -14 -6
t-5 -15l-76 -546q-2 -12 0 -15t13 -5l66 -8l-9 -60h-274l9 60l60 7q11 2 13.5 5.5t4.5 14.5z" />
    <glyph glyph-name="afii10030" unicode="&#x41c;" horiz-adv-x="931" 
d="M574 0l7 59l83 7q10 1 13 5t5 15l64 454l-224 -380h-120l-125 381l-63 -454q-2 -12 0 -15.5t13 -4.5l85 -8l-8 -59h-274l7 59l63 7q11 1 13.5 5t4.5 15l77 551q2 11 0 15t-13 5l-60 7l7 60h202l148 -463h5l264 463h214l-7 -59l-67 -8q-11 -2 -14 -5t-5 -17l-77 -549
q-2 -11 1 -14.5t13 -4.5l65 -8l-8 -59h-289z" />
    <glyph glyph-name="afii10031" unicode="&#x41d;" horiz-adv-x="796" 
d="M454 0l8 59l62 7q11 2 14 5.5t5 14.5l34 243h-310l-34 -242q-2 -12 -0.5 -15t12.5 -5l65 -8l-8 -59h-273l8 59l63 7q11 2 13.5 5.5t4.5 14.5l77 552q2 11 0 15t-13 5l-60 7l7 59h274l-8 -59l-67 -8q-11 -2 -13.5 -5t-4.5 -14l-30 -221h309l31 221q2 11 0 15t-13 5l-61 7
l8 59h273l-8 -59l-66 -8q-11 -2 -13.5 -5t-4.5 -14l-77 -551q-2 -12 0 -15t12 -5l65 -8l-8 -59h-273z" />
    <glyph glyph-name="afii10032" unicode="&#x41e;" horiz-adv-x="754" 
d="M350 -12q-76 0 -131.5 21.5t-91 60.5t-52.5 93t-17 119q0 41 6 86q11 80 42.5 147.5t82 116.5t120 77t156.5 28q76 0 130.5 -23t89.5 -62.5t51.5 -93.5t16.5 -116q0 -18 -1 -36.5t-4 -38.5q-12 -88 -43 -158.5t-81 -119.5t-118.5 -75t-155.5 -26zM367 85q50 0 92.5 15
t76.5 47.5t57.5 84.5t33.5 126q3 20 4 37t1 34q0 103 -48 157t-134 54q-51 0 -95 -16.5t-78.5 -50t-58 -84.5t-33.5 -120q-6 -40 -6 -74q0 -107 48.5 -158.5t139.5 -51.5z" />
    <glyph glyph-name="afii10033" unicode="&#x41f;" horiz-adv-x="781" 
d="M311 639l-78 -551q-2 -12 0 -15t13 -5l63 -8l-9 -60h-273l8 60l64 7q11 2 13.5 5.5t4.5 14.5l77 549q2 11 0 15t-13 5l-62 7l9 61h687l-9 -61l-68 -8q-11 -2 -14 -5t-5 -14l-76 -548q-2 -12 0 -15t13 -5l66 -8l-8 -60h-274l8 60l60 7q11 2 13.5 5.5t4.5 14.5l78 552h-293
z" />
    <glyph glyph-name="afii10034" unicode="&#x420;" horiz-adv-x="641" 
d="M28 0l9 59l63 7q11 2 14 5.5t5 14.5l76 552q2 11 -0.5 15t-13.5 5l-60 7l7 59h310q59 0 99.5 -14t66 -39t37 -59t11.5 -73q0 -70 -21 -120.5t-60.5 -83.5t-96 -48.5t-126.5 -15.5h-91l-25 -184q-2 -12 0 -15.5t12 -4.5l140 -8l-8 -59h-348zM343 357q37 0 71 6t60.5 24.5
t42.5 52t16 88.5q0 62 -37 85.5t-100 23.5h-89l-38 -280h74z" />
    <glyph glyph-name="afii10035" unicode="&#x421;" horiz-adv-x="665" 
d="M601 42q-45 -27 -112 -40.5t-135 -13.5q-78 0 -133.5 23t-91 64t-52 98t-16.5 126q0 96 26.5 176t78.5 138.5t129.5 91t178.5 32.5q63 0 121 -14.5t93 -40.5l-24 -175l-83 6l-3 94q0 9 -2 13t-10 7q-17 7 -44.5 12.5t-59.5 5.5q-61 0 -112.5 -22t-88.5 -64.5t-58 -105.5
t-21 -145q0 -113 48.5 -171.5t144.5 -58.5q33 0 66.5 4t59.5 14q10 4 14 18l29 93h80z" />
    <glyph glyph-name="afii10036" unicode="&#x422;" horiz-adv-x="654" 
d="M133 0l8 60l101 7q10 1 13 5t5 15l76 551h-132q-8 0 -11.5 -1.5t-5.5 -9.5l-27 -83l-81 -4l24 184h606l-25 -184l-80 4l-4 83q-1 8 -3.5 9.5t-10.5 1.5h-135l-76 -551q-2 -11 -0.5 -14.5t12.5 -4.5l109 -8l-9 -60h-354z" />
    <glyph glyph-name="afii10037" unicode="&#x423;" horiz-adv-x="676" 
d="M158 626q-4 13 -9 18.5t-17 8.5l-42 11l18 60h245l-9 -60l-74 -9l98 -386h4l205 385l-70 9l18 61h224l-9 -61l-43 -11q-15 -4 -20.5 -9.5t-13.5 -20.5l-263 -478q-24 -45 -46.5 -75t-46.5 -48t-51.5 -25.5t-60.5 -7.5q-38 0 -75.5 10t-60.5 23l36 84q14 -8 39.5 -17
t53.5 -9q20 0 34 5t25 15t21 25t21 34z" />
    <glyph glyph-name="afii10038" unicode="&#x424;" horiz-adv-x="834" 
d="M631 676l-73 -7q-10 -2 -14 -5.5t-5 -13.5l-6 -47q148 -3 219.5 -52t71.5 -143q0 -77 -26.5 -128.5t-74 -83t-113 -45.5t-143.5 -17l-6 -50q-1 -8 1 -12t11 -5l74 -7l-8 -60h-286l9 60l71 6q11 1 14 5t5 15l7 47q-67 2 -121 12.5t-92 34.5t-58.5 62.5t-20.5 94.5
q0 137 92 199.5t266 67.5l6 50q1 8 -1.5 11t-12.5 4l-72 7l9 61h285zM185 346q0 -70 44 -97t143 -29l42 297q-110 -1 -169.5 -39.5t-59.5 -131.5zM706 396q0 65 -44.5 93.5t-143.5 29.5l-41 -298q113 3 171 42t58 133z" />
    <glyph glyph-name="afii10039" unicode="&#x425;" horiz-adv-x="714" 
d="M399 0l9 59l76 9l-122 219l-175 -219l72 -9l-9 -59h-251l8 57l54 11q9 2 15 6.5t13 12.5l225 277l-151 273q-4 8 -8.5 11.5t-12.5 5.5l-45 11l9 59h263l-8 -59l-76 -9l112 -211l172 211l-72 9l10 59h239l-9 -59l-46 -11q-10 -2 -15.5 -6.5t-12.5 -12.5l-217 -264
l162 -284q5 -9 10 -12.5t14 -5.5l48 -10l-9 -59h-272z" />
    <glyph glyph-name="afii10040" unicode="&#x426;" horiz-adv-x="769" 
d="M23 0l8 61l68 8q11 2 14 5t5 14l76 548q2 12 0 15t-13 5l-66 8l9 60h273l-8 -60l-60 -7q-11 -2 -14 -5.5t-5 -14.5l-77 -552h280l77 551q2 12 0 15t-13 5l-60 8l9 60h272l-9 -60l-64 -7q-11 -2 -14 -5.5t-5 -14.5l-77 -552h79l-31 -240l-82 5l-2 137q-1 8 -3.5 10.5
t-10.5 2.5h-556z" />
    <glyph glyph-name="afii10041" unicode="&#x427;" horiz-adv-x="725" 
d="M325 0l9 63l118 7q11 2 14 5t5 15l28 196q-37 -10 -79.5 -15t-80.5 -5q-100 0 -144 37.5t-44 108.5q0 21 3 42l24 182q2 12 0 15.5t-13 5.5l-57 7l8 60h265l-8 -61l-59 -7q-11 -2 -14 -5.5t-5 -14.5l-22 -162q-2 -8 -2.5 -19.5t-0.5 -20.5q0 -41 21.5 -61t80.5 -20
q15 0 33.5 1.5t37.5 4t37 6.5t31 8l36 263q2 11 -0.5 15t-12.5 6l-49 7l8 60h263l-8 -61l-66 -7q-11 -2 -14 -5.5t-5 -14.5l-76 -548q-2 -11 0 -14.5t13 -5.5l64 -7l-9 -61h-330z" />
    <glyph glyph-name="afii10042" unicode="&#x428;" horiz-adv-x="1057" 
d="M458 85l76 551q2 12 0 15.5t-13 5.5l-57 7l9 60h265l-8 -60l-61 -7q-11 -2 -14 -6t-5 -15l-77 -551h229l77 550q2 12 -0.5 15.5t-13.5 5.5l-52 8l9 60h265l-9 -60l-64 -7q-11 -2 -14 -5.5t-5 -14.5l-77 -551q-2 -9 1 -12.5t13 -4.5l64 -7l-9 -62h-964l8 62l68 8
q11 2 14 5t5 14l76 547q2 12 0 15t-13 5l-66 8l9 60h266l-9 -60l-52 -7q-11 -2 -14 -5.5t-5 -14.5l-77 -552h225z" />
    <glyph glyph-name="afii10043" unicode="&#x429;" horiz-adv-x="1052" 
d="M23 0l8 62l68 8q11 2 14 5t5 14l76 546q2 12 0 15t-13 5l-66 8l9 61h266l-9 -61l-52 -7q-11 -2 -14 -5.5t-5 -14.5l-77 -551h222l76 551q2 11 0 15t-13 5l-57 7l9 61h265l-8 -61l-61 -7q-11 -2 -14 -5.5t-5 -14.5l-77 -551h226l77 550q2 12 -0.5 15.5t-13.5 5.5l-52 7
l9 61h265l-9 -61l-64 -7q-11 -2 -14 -5.5t-5 -14.5l-77 -550h77l-32 -241l-82 5l-2 136q0 14 -14 14h-836z" />
    <glyph glyph-name="afii10044" unicode="&#x42a;" horiz-adv-x="787" 
d="M461 86q34 0 65.5 8t55.5 26t38 47.5t14 72.5q0 60 -31.5 83t-91.5 23h-109l-36 -260h95zM224 639q-8 0 -11.5 -2t-6.5 -10l-29 -91l-84 -3l27 191h449l-9 -64l-99 -7q-11 -1 -13.5 -5t-4.5 -15l-28 -203h122q59 0 100.5 -12.5t68 -36t38.5 -56.5t12 -74
q0 -63 -21.5 -110.5t-60 -78.5t-92 -46.5t-117.5 -15.5h-305l9 61l64 7q11 1 13.5 4.5t4.5 15.5l77 551h-104z" />
    <glyph glyph-name="afii10045" unicode="&#x42b;" horiz-adv-x="971" 
d="M280 430h121q57 0 97.5 -13.5t67 -37.5t38.5 -57.5t12 -73.5q0 -63 -20.5 -109.5t-58.5 -77t-91 -46t-118 -15.5h-302l9 61l64 7q11 2 14 5t5 14l76 550q2 11 -0.5 14t-13.5 5l-66 7l9 61h312l-9 -61l-98 -9q-11 -1 -14 -4.5t-5 -15.5zM321 86q34 0 65.5 7.5t55.5 25.5
t38 47.5t14 74.5q0 32 -10 52.5t-30 32t-48.5 16t-66.5 4.5h-70l-37 -260h89zM618 0l7 59l73 7q11 1 13.5 5t4.5 15l77 552q2 11 0 15t-13 5l-70 7l8 59h292l-7 -59l-77 -8q-11 -2 -13.5 -5t-4.5 -14l-77 -551q-2 -12 -0.5 -15t12.5 -5l75 -8l-7 -59h-293z" />
    <glyph glyph-name="afii10046" unicode="&#x42c;" horiz-adv-x="647" 
d="M321 86q34 0 65.5 7.5t55.5 25.5t38 47.5t14 74.5q0 55 -32.5 80t-93.5 25h-99l-37 -260h89zM280 430h121q57 0 97.5 -13.5t67 -37.5t38.5 -57.5t12 -73.5q0 -63 -20.5 -109.5t-58.5 -77t-91 -46t-118 -15.5h-302l9 61l64 7q11 2 13.5 5.5t4.5 14.5l77 549q2 11 -0.5 14
t-13.5 5l-66 7l9 61h312l-9 -61l-98 -9q-11 -1 -14 -4.5t-5 -15.5z" />
    <glyph glyph-name="afii10047" unicode="&#x42d;" horiz-adv-x="694" 
d="M141 684q23 13 52 23t61.5 16.5t66.5 10t66 3.5q80 0 136.5 -24t92.5 -67t52.5 -102t16.5 -129q0 -91 -26.5 -169.5t-78 -135.5t-128 -89.5t-176.5 -32.5q-33 0 -66 4t-63 11t-55 17t-42 22l24 171l84 -3l3 -94q0 -11 5 -15t14 -7q23 -8 50 -11t51 -3q108 0 179 64
t93 176h-315l13 88h312v17q-1 110 -50 166t-146 56q-23 0 -58 -2.5t-61 -10.5q-11 -3 -14 -8t-7 -16l-28 -92l-82 -4z" />
    <glyph glyph-name="afii10048" unicode="&#x42e;" horiz-adv-x="1067" 
d="M690 -12q-75 0 -127.5 25t-85 69.5t-46.5 106t-12 135.5h-154l-33 -237q-2 -12 0 -15t13 -5l74 -8l-7 -59h-292l6 59l73 7q11 1 13.5 5t4.5 15l78 552q2 11 -0.5 15t-13.5 5l-70 7l8 59h293l-8 -59l-76 -8q-11 -2 -13.5 -5t-4.5 -14l-32 -226h153q14 72 44.5 132
t76.5 102.5t107.5 66.5t137.5 24q73 0 123.5 -22.5t81.5 -62.5t44.5 -93.5t13.5 -116.5q0 -95 -22.5 -178t-68.5 -144.5t-115.5 -96.5t-163.5 -35zM704 83q59 0 103 28.5t73.5 77t44.5 114t15 139.5q0 38 -7 74t-24.5 64t-47.5 45t-77 17q-58 0 -103.5 -27.5t-77 -75
t-48 -112t-16.5 -139.5q0 -43 8 -80t26.5 -65t50.5 -44t80 -16z" />
    <glyph glyph-name="afii10049" unicode="&#x42f;" horiz-adv-x="719" 
d="M11 0l9 62l66 10q12 2 17.5 5.5t11.5 14.5l84 145q20 35 41.5 59.5t58.5 38.5v0q-28 8 -52.5 21.5t-43.5 35t-30 50.5t-11 66q0 62 23.5 103t62.5 66.5t90 36t106 10.5h308l-9 -62l-64 -7q-12 -2 -15 -6t-5 -16l-75 -546q-2 -11 0.5 -14.5t13.5 -5.5l62 -7l-9 -60h-271
l9 60l62 8q10 2 13.5 5t5.5 14l29 214h-83q-33 0 -49 -10.5t-33 -36.5q-13 -22 -30 -51t-35.5 -62t-37.5 -69t-37 -72h-183zM511 386l35 251h-112q-29 0 -56.5 -7t-48.5 -22.5t-33.5 -40.5t-12.5 -62q0 -36 12 -59t32.5 -36.5t48 -18.5t57.5 -5h78z" />
    <glyph glyph-name="afii10065" unicode="&#x430;" horiz-adv-x="590" 
d="M374 0l12 86l-4 2q-45 -44 -88 -72t-99 -28q-73 0 -112 47.5t-39 147.5q0 57 13 118t42.5 111t77.5 82.5t118 32.5q43 0 78.5 -16.5t61.5 -40.5l17 47h102q-8 -32 -14.5 -63t-11.5 -63l-42 -305q-2 -12 0 -15t13 -5l48 -7l-8 -59h-165zM419 389q-18 18 -48 33t-63 15
q-43 0 -71.5 -25.5t-45.5 -62.5t-24 -79.5t-7 -77.5q0 -59 17 -83.5t52 -24.5q20 0 41.5 10.5t42.5 26t41.5 34.5t36.5 37z" />
    <glyph glyph-name="afii10066" unicode="&#x431;" horiz-adv-x="559" 
d="M257 -12q-56 0 -95 18t-63.5 50t-35.5 76.5t-11 98.5q0 53 8.5 111.5t25.5 111.5q29 91 102 158t202 92q31 6 49.5 10.5t28.5 8.5t14 9t7 12l82 3q-1 -34 -10 -57.5t-26.5 -38.5t-43.5 -23.5t-62 -13.5q-70 -10 -117.5 -26t-79 -41.5t-51 -62t-33.5 -86.5l4 -2
q35 55 87 83.5t115 28.5q46 0 80 -14t56.5 -39.5t33.5 -61t11 -77.5q0 -61 -15.5 -120t-48.5 -105t-86 -74.5t-128 -28.5zM266 71q43 0 71.5 23.5t46 59.5t24.5 78.5t7 80.5q0 54 -22 81t-71 27q-42 0 -71.5 -19.5t-48 -51t-27 -70.5t-8.5 -78q0 -60 22 -95.5t77 -35.5z" />
    <glyph glyph-name="afii10067" unicode="&#x432;" horiz-adv-x="539" 
d="M274 -12q-33 0 -65 2.5t-60.5 7t-51.5 10t-38 10.5l46 344q7 50 28.5 82t52.5 50.5t69.5 25.5t79.5 7q92 0 133.5 -34.5t41.5 -88.5q0 -51 -29.5 -85t-78.5 -48v-3q50 -6 78.5 -32.5t28.5 -74.5q0 -46 -19 -79t-51 -54t-75 -30.5t-90 -9.5zM180 83q10 -3 36.5 -7.5
t60.5 -4.5q51 0 83.5 20t32.5 70q0 21 -8.5 33t-23 18t-34 7.5t-42.5 1.5h-85zM297 299q19 0 37.5 4.5t32.5 15t23 26.5t9 38q0 33 -19 47t-54 14q-42 0 -70.5 -16.5t-35.5 -63.5l-10 -65h87z" />
    <glyph glyph-name="afii10068" unicode="&#x433;" horiz-adv-x="468" 
d="M275 453q-23 0 -40.5 -2.5t-31.5 -7.5q-8 -2 -10 -6t-4 -9l-21 -67h-84l17 125q15 8 36.5 15.5t47 13t53.5 9t56 3.5q36 0 66 -8t52 -24t34.5 -41t12.5 -59q0 -43 -16.5 -71.5t-42 -47.5t-57.5 -31t-64 -22q-58 -18 -90 -35t-32 -55q0 -31 21.5 -44.5t53.5 -13.5
q42 0 79 18.5t72 47.5l48 -68q-44 -41 -99.5 -63t-114.5 -22q-81 0 -128.5 36.5t-47.5 102.5q0 46 18.5 75t47 48t63 30.5t67.5 21.5q22 7 42 15t35 18.5t23.5 25.5t8.5 36q0 26 -19 41t-52 15z" />
    <glyph glyph-name="afii10069" unicode="&#x434;" horiz-adv-x="561" 
d="M193 752q111 -13 179 -52t105.5 -90t50 -108t12.5 -107q0 -40 -4 -86t-15.5 -91t-31.5 -86.5t-51.5 -73.5t-75.5 -51t-105 -19q-55 0 -95.5 15.5t-66.5 43.5t-39 67.5t-13 87.5q0 63 16.5 118t48 96t78.5 64.5t108 23.5q43 0 76.5 -14t61.5 -38q2 2 3 2q-12 53 -37 89.5
t-62 61t-84 38.5t-103 22zM427 370q-17 17 -46.5 34t-69.5 17q-39 0 -67 -17.5t-46.5 -48t-27 -71.5t-8.5 -87q0 -24 4.5 -47t16.5 -40.5t31.5 -28t49.5 -10.5q45 0 75 23.5t48.5 64t27.5 95t12 116.5z" />
    <glyph glyph-name="afii10070" unicode="&#x435;" horiz-adv-x="490" 
d="M437 33q-45 -21 -93 -33t-99 -12q-56 0 -94.5 16t-62.5 43.5t-34.5 66t-10.5 83.5q0 72 21.5 132.5t60 104.5t91 68.5t114.5 24.5q79 0 114.5 -35t35.5 -90t-31.5 -90.5t-79.5 -58t-104 -33.5t-105 -17q0 -30 5 -53t18 -39.5t34.5 -25t55.5 -8.5q33 0 68 9t76 27z
M166 281q18 2 53 8.5t69 19t59.5 32.5t25.5 50q0 49 -58 49q-28 0 -52.5 -12.5t-44 -34t-33 -50.5t-19.5 -62z" />
    <glyph glyph-name="afii10072" unicode="&#x436;" horiz-adv-x="818" 
d="M501 301h29q14 0 24.5 2t19.5 8.5t17 18.5t17 32l35 74q11 24 22.5 41t25.5 28.5t32.5 16.5t44.5 5q16 0 33.5 -2.5t31.5 -7.5l-17 -72q-6 1 -12.5 1.5t-12.5 0.5q-18 -1 -28 -9.5t-21 -28.5l-43 -84q-14 -26 -29.5 -38.5t-34.5 -17.5v-1q17 -7 30 -22.5t24 -45.5
l41 -112q3 -8 6.5 -12.5t13.5 -6.5l57 -8l-9 -61h-158q-17 61 -32.5 107t-30.5 79q-11 23 -23 32.5t-38 9.5h-25l-31 -228h-113l34 228h-33q-28 0 -42.5 -11t-34.5 -39q-20 -29 -47 -72.5t-60 -105.5h-159l9 62l56 8q10 2 14 5.5t9 12.5l76 122q18 29 35 42t35 19v0
q-15 7 -27 21.5t-20 41.5l-22 75q-6 20 -15.5 29t-26.5 9q-7 0 -13.5 -0.5t-12.5 -1.5l6 72q14 5 34 7.5t35 2.5q44 0 61 -21t26 -52l24 -83q6 -22 12 -35.5t13.5 -21t17 -10.5t24.5 -3h36l17 122q3 16 -9 20l-43 13l14 61h159l2 -4z" />
    <glyph glyph-name="afii10073" unicode="&#x437;" horiz-adv-x="489" 
d="M301 527q48 0 81 -9t54 -25.5t30.5 -39t9.5 -48.5q0 -53 -33.5 -87t-84.5 -49v-2q20 -4 38 -12t31.5 -21t21.5 -32.5t8 -46.5q0 -41 -18.5 -72.5t-50 -52.5t-73 -31.5t-88.5 -10.5q-62 0 -116.5 18.5t-84.5 47.5l49 72q21 -18 62.5 -34.5t92.5 -16.5q19 0 39 4t36 13.5
t26.5 25t10.5 38.5q0 34 -21.5 48.5t-58.5 14.5h-104l11 80h64q61 0 95 24t34 62q0 35 -23 49.5t-56 14.5q-21 0 -39.5 -2t-32.5 -7q-5 -2 -7.5 -5.5t-4.5 -9.5l-20 -61l-84 -2l18 125q32 17 83 28.5t105 11.5z" />
    <glyph glyph-name="afii10074" unicode="&#x438;" horiz-adv-x="617" 
d="M394 0l14 91l-3 1q-18 -16 -40 -34t-47 -33.5t-53.5 -26t-59.5 -10.5q-54 0 -85.5 28.5t-31.5 95.5q0 11 1 25.5t3 28.5l37 264q2 12 0 15t-13 5l-50 8l8 59h177l2 -3l-45 -326q-2 -11 -3 -24.5t-1 -24.5q0 -20 8 -34t33 -14q39 0 75.5 26t92.5 76l32 237q2 12 0 15
t-13 5l-55 8l9 59h183l2 -3l-60 -428q-3 -18 9 -19l54 -9l-8 -58h-172z" />
    <glyph glyph-name="afii10075" unicode="&#x439;" horiz-adv-x="617" 
d="M394 0l14 91l-3 1q-18 -16 -40 -34t-47 -33.5t-53.5 -26t-59.5 -10.5q-54 0 -85.5 28.5t-31.5 95.5q0 11 1 25.5t3 28.5l37 264q2 12 0 15t-13 5l-50 8l8 59h177l2 -3l-45 -326q-2 -11 -3 -24.5t-1 -24.5q0 -20 8 -34t33 -14q39 0 75.5 26t92.5 76l32 237q2 12 0 15
t-13 5l-55 8l9 59h183l2 -3l-60 -428q-3 -18 9 -19l54 -9l-8 -58h-172zM532 707q-25 -69 -70.5 -102.5t-116.5 -33.5q-75 0 -113.5 36t-45.5 99l82 25q5 -44 24 -66.5t59 -22.5q38 0 61.5 21.5t41.5 66.5z" />
    <glyph glyph-name="afii10076" unicode="&#x43a;" horiz-adv-x="562" 
d="M226 297h36q29 0 48 11.5t37 45.5l51 94q20 38 45 58.5t73 20.5q14 0 27.5 -2t29.5 -6l-12 -74q-4 1 -8 1t-7.5 0.5t-5.5 0.5q-21 -1 -32.5 -10t-22.5 -31l-39 -73q-14 -27 -31.5 -41t-46.5 -24v-1q17 -6 28.5 -19.5t24.5 -43.5l49 -115q3 -8 6.5 -12.5t12.5 -6.5l50 -8
l-7 -62h-150q-16 51 -34.5 98.5t-29.5 73.5q-13 32 -25 41.5t-38 9.5h-38l-32 -223h-113l60 429q2 8 0 11.5t-9 5.5l-45 11l9 60h165l4 -7z" />
    <glyph glyph-name="afii10077" unicode="&#x43b;" horiz-adv-x="617" 
d="M391 0l-5 7l60 427h-139q-11 -71 -21.5 -125t-23.5 -106q-24 -97 -66.5 -150.5t-121.5 -59.5q-11 -2 -23 -2t-24 1l-11 90q42 0 69.5 11t48.5 48t37.5 106t35.5 184q3 15 -10 16l-49 8l9 62h408l5 -7l-59 -428q-1 -8 1 -10.5t10 -4.5l51 -10l-9 -57h-173z" />
    <glyph glyph-name="afii10078" unicode="&#x43c;" horiz-adv-x="798" 
d="M579 0l-4 6l54 368h-2l-160 -267h-108l-59 257h-2q-4 -18 -8.5 -39.5t-9.5 -43.5t-10 -42.5t-10 -35.5q-15 -52 -32 -92t-40 -66.5t-56 -40t-80 -13.5h-13.5t-13.5 1l-11 89q38 0 67 12t51.5 50.5t41.5 110.5t38 190l-54 11l8 62h190l73 -321h2l186 321h128l6 -7
l-60 -429q-1 -8 1.5 -10t10.5 -3l52 -8l-9 -60h-167z" />
    <glyph glyph-name="afii10079" unicode="&#x43d;" horiz-adv-x="627" 
d="M427 225h-214l-32 -225h-108l-4 6l59 419q3 16 -11 20l-51 12l8 60h175l5 -7l-29 -202h214l30 209h107l5 -7l-59 -423q-3 -17 11 -20l52 -10l-8 -57h-178l-5 8l18 106z" />
    <glyph glyph-name="afii10080" unicode="&#x43e;" horiz-adv-x="567" 
d="M259 -12q-56 0 -97 15.5t-67.5 43t-39 66.5t-12.5 86q0 72 19 132t56 103.5t91.5 68t125.5 24.5q58 0 98 -16.5t65 -45t36 -66.5t11 -82q0 -74 -18.5 -135t-54.5 -104t-89.5 -66.5t-123.5 -23.5zM269 71q34 0 63 14.5t50 44.5t33 76t12 110t-27.5 94t-78.5 30
q-34 0 -63 -13.5t-51 -42.5t-34.5 -74t-12.5 -108q0 -131 109 -131z" />
    <glyph glyph-name="afii10081" unicode="&#x43f;" horiz-adv-x="620" 
d="M388 0l-2 3l21 120l28 188q2 16 4 33.5t2 30.5q0 22 -7.5 36.5t-31.5 14.5q-20 0 -42.5 -9t-44.5 -22.5t-43 -30.5t-39 -33l-34 -244q-2 -12 0.5 -15t13.5 -5l57 -8l-8 -59h-249l8 60l46 7q11 2 14 5.5t5 14.5l46 333q3 17 -9 21l-52 17l8 59h171l-12 -88q23 19 46 37
t48 31.5t51.5 21.5t56.5 8q67 0 92 -34t25 -88q0 -14 -1.5 -28.5t-3.5 -30.5l-37 -259q-2 -12 0 -15t13 -5l54 -8l-8 -59h-186z" />
    <glyph glyph-name="afii10082" unicode="&#x440;" horiz-adv-x="593" 
d="M37 -212l-3 4l28 168l64 460q3 17 -9 21l-52 17l8 59h173l-11 -85q50 43 95.5 69t96.5 26q32 0 58 -11t45.5 -34.5t30 -61t10.5 -90.5q0 -61 -14.5 -122t-43 -110t-71 -79.5t-99.5 -30.5q-51 0 -86.5 16t-70.5 41l-25 -169q-2 -10 0 -13.5t13 -4.5l97 -8l-9 -62h-225z
M199 133q9 -9 22.5 -19t30 -18.5t35 -14t37.5 -5.5q34 0 58.5 23t40 58t22.5 77t7 79q0 60 -17 87t-49 27q-19 0 -41 -10t-43.5 -24t-40.5 -30.5t-34 -30.5z" />
    <glyph glyph-name="afii10083" unicode="&#x441;" horiz-adv-x="493" 
d="M434 33q-32 -20 -81 -32.5t-99 -12.5q-56 0 -96 15.5t-65.5 43.5t-37.5 67t-12 87q0 85 24 146.5t64.5 101.5t95 59t115.5 19q57 0 96.5 -12.5t56.5 -23.5l-20 -142l-78 4l-3 66q0 7 -2 10.5t-10 5.5q-9 3 -23.5 5t-31.5 2q-31 0 -61 -12t-53.5 -39t-38 -70.5
t-14.5 -106.5q0 -74 31 -106t85 -32q39 0 74.5 10t61.5 23z" />
    <glyph glyph-name="afii10084" unicode="&#x442;" horiz-adv-x="889" 
d="M662 0q-1 1 -1 2l17 110l29 215q2 14 3.5 28t1.5 25q0 20 -7.5 32.5t-27.5 12.5q-35 0 -71 -28t-78 -66l-34 -244q-2 -12 0 -15t13 -5l53 -8l-8 -59h-180l-4 5l19 119l27 196q2 17 4 33.5t2 29.5q0 17 -6 28.5t-26 11.5q-18 0 -39.5 -10t-43 -24t-40.5 -29.5t-32 -27.5
l-34 -245q-2 -12 0.5 -15t13.5 -5l57 -8l-8 -59h-249l8 60l46 7q11 2 14 5.5t5 14.5l46 333q3 17 -9 21l-52 17l8 59h171l-12 -88q21 18 44 35.5t48 31.5t51 22.5t53 8.5q45 0 71 -26.5t26 -75.5q21 18 43 36t45.5 33t49 24t53.5 9q58 0 81.5 -27.5t24.5 -78.5q0 -31 -6 -70
l-37 -264q-2 -12 0 -15t13 -5l53 -8l-8 -59h-181z" />
    <glyph glyph-name="afii10085" unicode="&#x443;" horiz-adv-x="546" 
d="M195 10l-104 422q-3 9 -6 12t-11 5l-41 10l11 58h148l7 -8l25 -128l50 -233h3l151 301l-62 10l8 58h170l10 -21l-298 -575q-19 -36 -37.5 -63t-41 -45t-51 -27t-66.5 -9q-24 0 -46 5t-40 12t-31 15t-19 14l43 69q15 -10 40 -19.5t51 -9.5q37 0 60 25t43 60z" />
    <glyph glyph-name="afii10086" unicode="&#x444;" horiz-adv-x="780" 
d="M497 524q120 -3 188.5 -53.5t68.5 -160.5q0 -164 -86.5 -241.5t-245.5 -80.5l-16 -110q-2 -10 0.5 -14.5t13.5 -5.5l57 -7l-9 -63h-261l10 64l56 6q12 2 15 6t5 16l14 109q-136 9 -196.5 67t-60.5 155q0 92 29 152.5t76 96.5t106.5 50.5t120.5 14.5l18 127q2 16 -10 21
l-55 19l19 63h175zM434 78q30 0 66 6.5t66.5 29.5t51 67t20.5 120q0 41 -12 67t-32.5 41t-48.5 21t-61 7zM369 437q-33 -1 -68.5 -8.5t-65.5 -30.5t-49.5 -66.5t-19.5 -117.5q0 -41 13.5 -67.5t35 -42t49 -21.5t55.5 -7z" />
    <glyph glyph-name="afii10087" unicode="&#x445;" horiz-adv-x="572" 
d="M389 0l-9 8l-41 78l-61 106l-111 -125l63 -9l-7 -58h-228l7 58l49 9q9 2 13.5 5.5t12.5 11.5l156 177l-98 172q-5 7 -8.5 11t-12.5 6l-39 7l9 60h135l7 -7l42 -85l48 -89l104 114l-52 8l9 59h212l-9 -59l-42 -10q-10 -2 -15 -6.5t-13 -12.5l-149 -159l106 -184
q5 -9 10 -12.5t13 -5.5l56 -9l-9 -59h-148z" />
    <glyph glyph-name="afii10088" unicode="&#x446;" horiz-adv-x="617" 
d="M513 98q-3 -21 2.5 -29.5t26.5 -8.5h37l-25 -194l-82 8l3 118q-80 7 -68 79l4 24q-18 -16 -41 -34.5t-49 -34.5t-55.5 -27t-60.5 -11q-54 0 -85.5 28.5t-31.5 95.5q0 11 1 25.5t3 28.5l37 264q2 12 0 15t-13 5l-50 8l8 59h177l2 -3l-45 -326q-2 -11 -3 -24.5t-1 -24.5
q0 -20 8 -34t33 -14q39 0 75.5 26t92.5 76l32 237q2 12 0 15t-13 5l-55 8l9 59h183l2 -3z" />
    <glyph glyph-name="afii10089" unicode="&#x447;" horiz-adv-x="580" 
d="M199 168q-60 0 -86 25t-26 76q0 11 1.5 23t3.5 24l17 116q3 17 -9 18l-45 7l9 60h164l4 -7l-26 -195q-5 -29 3 -44t37 -15q31 0 64 15.5t84 51.5l16 109q2 8 0.5 11.5t-9.5 4.5l-44 8l9 61h162l5 -6l-59 -425q-1 -16 11 -17l51 -8l-9 -61h-176l-3 8l35 226q-1 0 -1 1
q-40 -26 -86 -46.5t-97 -20.5z" />
    <glyph glyph-name="afii10090" unicode="&#x448;" horiz-adv-x="887" 
d="M250 517l3 -6l-45 -322q-6 -34 -6 -56q1 -21 9 -31.5t31 -10.5q28 0 61 24t84 70l35 243q2 12 0 15.5t-13 5.5l-47 9l8 59h172l5 -6l-47 -322q-2 -13 -3.5 -30t-1.5 -25q0 -19 7.5 -30t27.5 -11q18 0 37 8t38.5 21t39 29.5t39.5 33.5l33 243q2 12 0 15.5t-13 5.5l-51 9
l9 59h173l5 -5l-57 -421q-2 -8 -0.5 -13.5t9.5 -7.5l53 -12l-9 -58h-170l14 91q-1 0 -2 1q-20 -17 -42 -35.5t-46 -33.5t-51.5 -24.5t-57.5 -9.5q-45 0 -72 26.5t-27 77.5q-19 -18 -41 -36.5t-45.5 -33.5t-49.5 -24.5t-53 -9.5q-60 0 -83.5 28t-23.5 81q0 13 1.5 30.5
t4.5 36.5l37 263q2 12 0 15.5t-13 5.5l-54 9l9 59h179z" />
    <glyph glyph-name="afii10091" unicode="&#x449;" horiz-adv-x="892" 
d="M250 517l3 -6l-45 -322q-6 -34 -6 -56q1 -21 9 -31.5t31 -10.5q28 0 61 24t84 70l35 243q2 12 0 15.5t-13 5.5l-47 9l8 59h172l5 -6l-47 -322q-2 -13 -3.5 -30t-1.5 -25q0 -19 7.5 -30t27.5 -11q18 0 37 8t38.5 21t39 29.5t39.5 33.5l33 243q2 12 0 15.5t-13 5.5l-51 9
l9 59h173l5 -5l-56 -415q-3 -20 2.5 -28.5t26.5 -8.5h37l-25 -194l-82 8l3 118q-80 7 -68 82l3 17l-2 1q-20 -17 -42 -35.5t-46.5 -33.5t-52 -24.5t-57.5 -9.5q-45 0 -72 26.5t-27 77.5q-19 -18 -41 -36.5t-45.5 -33.5t-49.5 -24.5t-53 -9.5q-60 0 -83.5 28t-23.5 81
q0 13 1.5 30.5t4.5 36.5l37 263q2 12 0 15.5t-13 5.5l-54 9l9 59h179z" />
    <glyph glyph-name="afii10092" unicode="&#x44a;" horiz-adv-x="605" 
d="M422 322q76 0 118.5 -38t42.5 -105q0 -52 -20.5 -88.5t-54 -59.5t-76 -33t-86.5 -10q-53 0 -101 8.5t-75 17.5l58 420h-63q-11 0 -16 -13l-19 -61l-83 -4l22 161h280l5 -7l-29 -198q18 3 44.5 6.5t52.5 3.5zM293 79q11 -3 30 -6.5t38 -3.5q44 0 76 24t32 79
q0 21 -7.5 35.5t-19.5 22.5t-27 11.5t-31 3.5q-18 0 -38.5 -3t-30.5 -5z" />
    <glyph glyph-name="afii10093" unicode="&#x44b;" horiz-adv-x="780" 
d="M322 321q76 0 118.5 -37.5t42.5 -106.5q0 -51 -20.5 -87t-54 -58.5t-76 -33t-86.5 -10.5q-54 0 -100 8.5t-73 17.5l56 411q3 15 -10 18l-50 12l9 62h175l4 -5l-30 -202q19 4 44 7.5t51 3.5zM196 79q11 -3 28.5 -6.5t36.5 -3.5q44 0 76 24t32 76q0 22 -7 36.5t-18 23
t-25 12t-28 3.5q-20 0 -37.5 -2t-36.5 -6zM548 0l-3 5l23 122l41 294q3 17 -10 21l-52 16l9 59h180l-61 -430q-2 -13 0.5 -15.5t13.5 -4.5l54 -8l-8 -59h-187z" />
    <glyph glyph-name="afii10094" unicode="&#x44c;" horiz-adv-x="514" 
d="M331 321q76 0 118.5 -37.5t42.5 -104.5q0 -52 -19.5 -88.5t-52 -59.5t-74.5 -33t-86 -10q-57 0 -108.5 8.5t-78.5 17.5l56 411q3 15 -10 18l-50 12l9 62h175l4 -5l-30 -201q19 4 46 7t58 3zM196 79q11 -3 33 -6.5t41 -3.5q44 0 76 24t32 79q0 21 -7.5 35t-19.5 22.5
t-27 11.5t-31 3q-23 0 -44 -2.5t-32 -5.5z" />
    <glyph glyph-name="afii10095" unicode="&#x44d;" horiz-adv-x="549" 
d="M415 300q2 73 -34 109t-100 36q-49 0 -83 -14q-6 -2 -8.5 -5.5t-4.5 -10.5l-19 -59l-81 -4l19 136q32 14 86.5 26.5t111.5 12.5q116 0 170.5 -61.5t54.5 -164.5q0 -65 -20 -122t-58.5 -99.5t-94.5 -67t-128 -24.5q-66 0 -117 18t-78 39l42 78q19 -14 58 -30t89 -16
q67 0 114.5 35t67.5 106h-200l12 82h201z" />
    <glyph glyph-name="afii10096" unicode="&#x44e;" horiz-adv-x="803" 
d="M68 0l-1 2l62 419q2 9 -0.5 14t-10.5 8l-51 15l8 59h180l-32 -220h95q23 104 89.5 167t176.5 63q54 0 91.5 -16.5t61 -46t34 -69t10.5 -85.5q0 -70 -17.5 -129t-51.5 -102t-83.5 -67t-113.5 -24q-103 0 -153.5 56t-52.5 172h-98l-32 -216h-111zM521 72q29 0 54.5 12
t45 40t31 72.5t11.5 109.5q0 25 -3.5 49t-13.5 42.5t-27.5 30t-46.5 11.5q-41 0 -69 -21t-45 -54.5t-24.5 -75t-7.5 -83.5q0 -22 3.5 -46t14 -43t29 -31.5t48.5 -12.5z" />
    <glyph glyph-name="afii10097" unicode="&#x44f;" horiz-adv-x="590" 
d="M428 434q-14 6 -38.5 9t-46.5 3q-47 0 -77 -19.5t-30 -64.5q0 -23 8 -37.5t22 -23t32.5 -12t39.5 -3.5h70zM18 62l49 8q11 2 15 5t10 12l51 85q16 26 31.5 42.5t43.5 25.5v1q-18 5 -35.5 14t-31.5 23.5t-22.5 35.5t-8.5 50q0 43 17 73.5t48 50.5t74.5 29.5t95.5 9.5
q21 0 48 -2.5t54.5 -7t51.5 -10.5t39 -14l-56 -412q-1 -8 0.5 -10t8.5 -3l48 -6l-9 -62h-167l-6 7l30 202h-77q-23 0 -37.5 -10.5t-25.5 -29.5q-20 -33 -43.5 -77t-47.5 -92h-157z" />
    <glyph glyph-name="afii10071" unicode="&#x451;" horiz-adv-x="490" 
d="M437 33q-45 -21 -93 -33t-99 -12q-56 0 -94.5 16t-62.5 43.5t-34.5 66t-10.5 83.5q0 72 21.5 132.5t60 104.5t91 68.5t114.5 24.5q79 0 114.5 -35t35.5 -90t-31.5 -90.5t-79.5 -58t-104 -33.5t-105 -17q0 -30 5 -53t18 -39.5t34.5 -25t55.5 -8.5q33 0 68 9t76 27z
M166 281q18 2 53 8.5t69 19t59.5 32.5t25.5 50q0 49 -58 49q-28 0 -52.5 -12.5t-44 -34t-33 -50.5t-19.5 -62zM424 601q-26 0 -39.5 14t-13.5 38q0 32 19 51.5t52 19.5q26 0 40 -13.5t14 -37.5q0 -32 -19 -52t-53 -20zM220 601q-26 0 -39.5 14t-13.5 38q0 32 19 51.5
t52 19.5q26 0 40 -13.5t14 -37.5q0 -32 -19 -52t-53 -20z" />
    <glyph glyph-name="afii10099" unicode="&#x452;" horiz-adv-x="596" 
d="M262 -130q45 0 80 31.5t59 88t37 133t13 166.5q0 34 -4.5 55.5t-12.5 34t-20.5 17t-27.5 4.5q-19 0 -41.5 -7t-43.5 -17t-38.5 -21t-28.5 -19l-35 -250q-2 -11 0.5 -14.5t12.5 -4.5l51 -7l-8 -60h-244l8 61l48 6q11 1 13.5 5t4.5 15l66 470h-65l10 68h65l5 36
q2 9 -1 12.5t-10 5.5l-52 16l11 60h175l-19 -130h177l-10 -68h-176l-19 -125q15 9 34 20.5t42.5 22t50 17.5t54.5 7q72 0 105.5 -49.5t33.5 -149.5q0 -91 -14.5 -184t-48.5 -168.5t-90 -123t-139 -47.5q-29 0 -60 7t-50 16l32 84q16 -6 33.5 -10t36.5 -4z" />
    <glyph glyph-name="afii10100" unicode="&#x453;" horiz-adv-x="468" 
d="M441 699l-64 72l-165 -158l43 -49zM275 453q-23 0 -40.5 -2.5t-31.5 -7.5q-8 -2 -10 -6t-4 -9l-21 -67h-84l17 125q15 8 36.5 15.5t47 13t53.5 9t56 3.5q36 0 66 -8t52 -24t34.5 -41t12.5 -59q0 -43 -16.5 -71.5t-42 -47.5t-57.5 -31t-64 -22q-58 -18 -90 -35t-32 -55
q0 -31 21.5 -44.5t53.5 -13.5q42 0 79 18.5t72 47.5l48 -68q-44 -41 -99.5 -63t-114.5 -22q-81 0 -128.5 36.5t-47.5 102.5q0 46 18.5 75t47 48t63 30.5t67.5 21.5q22 7 42 15t35 18.5t23.5 25.5t8.5 36q0 26 -19 41t-52 15z" />
    <glyph glyph-name="afii10101" unicode="&#x454;" horiz-adv-x="527" 
d="M473 35q-38 -23 -91 -35t-108 -12q-61 0 -105 16t-72 45t-41 69.5t-13 90.5q0 80 24 139.5t66.5 99.5t101 59.5t128.5 19.5q58 0 101.5 -11.5t64.5 -22.5l-20 -143l-79 6l-3 60q-1 9 -2.5 13t-9.5 6q-9 3 -25.5 5t-39.5 2q-63 0 -113 -33.5t-67 -108.5h195l-12 -81h-194
q2 -75 35.5 -109t101.5 -34q50 0 88.5 12t63.5 26z" />
    <glyph glyph-name="afii10102" unicode="&#x455;" horiz-adv-x="462" 
d="M354 366l-3 58q-1 13 -11 17q-11 4 -26 6.5t-38 2.5q-40 0 -67 -15.5t-27 -50.5q0 -29 26.5 -44t62.5 -29q26 -9 52.5 -20.5t48 -28.5t35.5 -42.5t14 -63.5q0 -44 -18 -76t-48 -52.5t-68.5 -30t-80.5 -9.5q-35 0 -66 4t-55 9t-41 11t-23 10l19 137l79 -5l3 -62
q0 -8 3 -12t13 -6q14 -4 32 -6.5t45 -2.5q47 0 73.5 17t26.5 53q0 32 -25.5 48.5t-60.5 27.5q-28 9 -55.5 19.5t-49.5 27t-35.5 42t-13.5 63.5q0 44 18.5 75t48.5 50.5t69 29t79 9.5q57 0 101 -10t61 -18l-18 -137z" />
    <glyph glyph-name="afii10103" unicode="&#x456;" horiz-adv-x="304" 
d="M199 615q-31 0 -47.5 16.5t-16.5 45.5q0 39 22.5 62.5t62.5 23.5q32 0 48.5 -16t16.5 -45q0 -38 -22.5 -62.5t-63.5 -24.5zM70 0l-3 5l23 122l41 294q3 17 -10 21l-52 16l9 59h180l-61 -430q-2 -12 0.5 -15t13.5 -5l54 -8l-8 -59h-187z" />
    <glyph glyph-name="afii10104" unicode="&#x457;" horiz-adv-x="316" 
d="M75 0l-2 5l22 122l41 294q3 17 -10 21l-51 16l8 59h180l-61 -430q-2 -12 0.5 -15t13.5 -5l55 -8l-8 -59h-188zM279 600q-26 0 -40.5 14.5t-14.5 37.5q0 31 20 50.5t52 19.5q26 0 40 -13.5t14 -37.5q0 -31 -19.5 -51t-51.5 -20zM108 600q-26 0 -40.5 14.5t-14.5 37.5
q0 31 20 50.5t52 19.5q26 0 40 -13.5t14 -37.5q0 -31 -19.5 -51t-51.5 -20z" />
    <glyph glyph-name="afii10105" unicode="&#x458;" horiz-adv-x="297" 
d="M131 421q1 17 -10 21l-55 16l9 59h181l-80 -577q-12 -87 -54.5 -125t-119.5 -38q-26 0 -49.5 5t-42 12.5t-31 15.5t-18.5 14l42 67q11 -7 34.5 -17.5t49.5 -10.5q38 0 54.5 22t24.5 76zM200 615q-32 0 -48.5 16.5t-16.5 45.5q0 39 22.5 62.5t63.5 23.5q31 0 48 -16
t17 -45q0 -38 -23 -62.5t-63 -24.5z" />
    <glyph glyph-name="afii10106" unicode="&#x459;" horiz-adv-x="808" 
d="M550 517l4 -5l-29 -205q18 3 45.5 5.5t50.5 2.5q81 0 122.5 -37.5t41.5 -104.5q0 -43 -17 -77t-47 -58t-72 -37t-92 -13q-46 0 -95 7t-91 21l57 418h-127q-11 -71 -21.5 -125t-24.5 -106q-27 -107 -73 -159.5t-132 -52.5h-11t-12 1l-11 91q39 0 66 11t47 47t36.5 105
t35.5 185q3 15 -10 16l-49 8l9 62h399zM493 81q11 -4 31 -7t40 -3q44 0 75.5 23t31.5 72q0 21 -7 35t-18.5 22t-26.5 11.5t-30 3.5q-17 0 -36 -1.5t-39 -5.5z" />
    <glyph glyph-name="afii10107" unicode="&#x45a;" horiz-adv-x="834" 
d="M581 -12q-26 0 -53.5 2.5t-52 6.5t-45 9t-33.5 10l27 209h-203l-32 -225h-108l-4 6l59 418q3 17 -11 20l-51 13l8 60h175l5 -7l-29 -202h203l31 209h109l3 -5l-29 -206q19 4 46 6.5t51 2.5q80 0 122 -37.5t42 -104.5q0 -50 -18.5 -85.5t-50 -57.5t-73.5 -32t-88 -10z
M519 80q11 -4 31 -7t40 -3q44 0 75.5 24t31.5 74q0 21 -7 35t-18 22t-25.5 11t-29.5 3q-24 0 -45 -3t-32 -6z" />
    <glyph glyph-name="afii10108" unicode="&#x45b;" horiz-adv-x="617" 
d="M388 0l-2 3l19 104l29 200q2 12 3 26.5t1 22.5q0 20 -8.5 35t-33.5 15q-19 0 -42.5 -10.5t-47 -25.5t-44 -31t-34.5 -28l-31 -224q-2 -12 0 -15t13 -5l59 -8l-9 -59h-249l9 60l46 7q11 2 14 5t5 15l66 473h-65l10 72h65l4 27q3 18 -9 21l-52 16l8 59h176l-17 -123h176
l-10 -72h-176l-19 -144q18 15 40 31t47 29.5t52 22t57 8.5q56 0 84.5 -29.5t30.5 -85.5q0 -14 -1 -30t-3 -32l-35 -243q-2 -12 0.5 -15t13.5 -5l53 -8l-9 -59h-184z" />
    <glyph glyph-name="afii10109" unicode="&#x45c;" horiz-adv-x="562" 
d="M325 564l-43 49l165 158l64 -72zM226 297h36q29 0 48 11.5t37 45.5l51 94q20 38 45 58.5t73 20.5q14 0 27.5 -2t29.5 -6l-12 -74q-4 1 -8 1t-7.5 0.5t-5.5 0.5q-21 -1 -32.5 -10t-22.5 -31l-39 -73q-14 -27 -31.5 -41t-46.5 -24v-1q17 -6 28.5 -19.5t24.5 -43.5l49 -115
q3 -8 6.5 -12.5t12.5 -6.5l50 -8l-7 -62h-150q-16 51 -34.5 98.5t-29.5 73.5q-13 32 -25 41.5t-38 9.5h-38l-32 -223h-113l60 429q2 8 0 11.5t-9 5.5l-45 11l9 60h165l4 -7z" />
    <glyph glyph-name="afii10110" unicode="&#x45e;" horiz-adv-x="546" 
d="M195 10l-104 422q-3 9 -6 12t-11 5l-41 10l11 58h148l7 -8l25 -128l50 -233h3l151 301l-62 10l8 58h170l10 -21l-298 -575q-19 -36 -37.5 -63t-41 -45t-51 -27t-66.5 -9q-24 0 -46 5t-40 12t-31 15t-19 14l43 69q15 -10 40 -19.5t51 -9.5q37 0 60 25t43 60zM502 707
q-25 -69 -70.5 -102.5t-116.5 -33.5q-75 0 -113.5 36t-45.5 99l82 25q5 -44 24 -66.5t59 -22.5q38 0 61.5 21.5t41.5 66.5z" />
    <glyph glyph-name="afii10193" unicode="&#x45f;" horiz-adv-x="617" 
d="M394 0l14 91l-3 1q-18 -16 -40 -34t-47 -33.5t-53.5 -26t-59.5 -10.5q-54 0 -85.5 28.5t-31.5 95.5q0 11 1 25.5t3 28.5l37 264q2 12 0 15t-13 5l-50 8l8 59h177l2 -3l-45 -326q-2 -11 -3 -24.5t-1 -24.5q0 -20 8 -34t33 -14q39 0 75.5 26t92.5 76l32 237q2 12 0 15
t-13 5l-55 8l9 59h183l2 -3l-60 -428q-3 -18 9 -19l54 -9l-8 -58h-172zM321 -38l-39 -151l-85 -6l25 145z" />
    <glyph glyph-name="afii10050" unicode="&#x490;" horiz-adv-x="560" 
d="M329 638l-77 -549q-2 -11 0 -15t13 -5l144 -10l-9 -59h-355l9 61l64 7q11 1 13.5 5t4.5 15l77 545q2 11 -0.5 15t-13.5 5l-62 7l9 64h371q15 0 18 12l31 93l83 5l-28 -196h-292z" />
    <glyph glyph-name="afii10098" unicode="&#x491;" horiz-adv-x="452" 
d="M18 0l9 59l47 5q8 1 10 3.5t3 10.5l50 358q1 8 -0.5 10.5t-9.5 3.5l-45 5l8 62h274q12 0 15 9l23 69l85 6l-23 -167h-213l-49 -355q-2 -8 -0.5 -10.5t9.5 -2.5l103 -8l-8 -58h-288z" />
    <glyph glyph-name="thinspace" unicode="&#x2009;" horiz-adv-x="125" 
 />
    <glyph glyph-name="endash" unicode="&#x2013;" 
d="M12 239l12 84h499l-12 -84h-499z" />
    <glyph glyph-name="emdash" unicode="&#x2014;" horiz-adv-x="1000" 
d="M12 239l12 84h1000l-12 -84h-1000z" />
    <glyph glyph-name="quoteleft" unicode="&#x2018;" horiz-adv-x="197" 
d="M206 547q-21 1 -40 3.5t-33 9t-22 17.5t-8 29q0 17 6.5 30.5t17.5 30.5l65 100l49 -18l-39 -96q-3 -8 4 -11l32 -13z" />
    <glyph glyph-name="quoteright" unicode="&#x2019;" horiz-adv-x="200" 
d="M104 563l39 96q3 8 -4 11l-32 13l32 83q21 -1 40 -4t33 -9t22 -17t8 -28t-6.5 -31.5t-17.5 -30.5l-65 -101z" />
    <glyph glyph-name="quotesinglbase" unicode="&#x201a;" horiz-adv-x="194" 
d="M15 -110l39 96q3 8 -5 11l-31 13l31 83q22 -1 41 -4t33 -9t22 -17t8 -28t-7 -31.5t-18 -30.5l-64 -101z" />
    <glyph glyph-name="quotedblleft" unicode="&#x201c;" horiz-adv-x="360" 
d="M369 547q-21 1 -40 3.5t-33 9t-22 17.5t-8 29q0 17 6.5 30.5t17.5 30.5l65 100l49 -18l-39 -96q-3 -8 4 -11l32 -13zM206 547q-21 1 -40 3.5t-33 9t-22 17.5t-8 29q0 17 6.5 30.5t17.5 30.5l65 100l49 -18l-39 -96q-3 -8 4 -11l32 -13z" />
    <glyph glyph-name="quotedblright" unicode="&#x201d;" horiz-adv-x="363" 
d="M267 563l39 96q3 8 -4 11l-32 13l32 83q21 -1 40 -4t33 -9t22 -17t8 -28t-6.5 -31.5t-17.5 -30.5l-65 -101zM104 563l39 96q3 8 -4 11l-32 13l32 83q21 -1 40 -4t33 -9t22 -17t8 -28t-6.5 -31.5t-17.5 -30.5l-65 -101z" />
    <glyph glyph-name="quotedblbase" unicode="&#x201e;" horiz-adv-x="357" 
d="M178 -110l39 96q3 8 -5 11l-31 13l31 83q22 -1 41 -4t33 -9t22 -17t8 -28t-7 -31.5t-18 -30.5l-64 -101zM15 -110l39 96q3 8 -5 11l-31 13l31 83q22 -1 41 -4t33 -9t22 -17t8 -28t-7 -31.5t-18 -30.5l-64 -101z" />
    <glyph glyph-name="dagger" unicode="&#x2020;" horiz-adv-x="397" 
d="M120 -83l27 190l13 213l56 112h33l26 -112l-46 -213l-27 -190h-82zM128 405h-74l13 87h74l79 -27l-4 -33zM220 465l-13 96l12 84h87l-12 -84l-40 -96h-34zM329 405l-80 27l5 33l88 27h73l-12 -87h-74z" />
    <glyph glyph-name="daggerdbl" unicode="&#x2021;" horiz-adv-x="420" 
d="M133 -83l12 84l40 96l-87 -27h-74l12 87h74l80 -27l-24 116l11 76l55 110l-87 -27h-74l12 87h74l80 -27l-14 96l12 84h87l-12 -84l-40 -96l88 27h74l-13 -87h-73l-80 27l26 -110l-11 -76l-58 -116l88 27h74l-13 -87h-73l-80 27l13 -96l-12 -84h-87zM270 465h-33l-5 -33
h34zM223 130h-33l-5 -33h34z" />
    <glyph glyph-name="bullet" unicode="&#x2022;" horiz-adv-x="395" 
d="M353 290q0 -70 -37 -104.5t-106 -34.5t-105.5 34.5t-36.5 104.5q0 69 36.5 103.5t105.5 34.5t106 -34.5t37 -103.5z" />
    <glyph glyph-name="ellipsis" unicode="&#x2026;" horiz-adv-x="622" 
d="M379 70q0 -38 -21 -60t-63 -22q-65 0 -65 56q0 39 21.5 60.5t63.5 21.5q64 0 64 -56zM582 70q0 -38 -21 -60t-63 -22q-65 0 -65 56q0 39 21.5 60.5t63.5 21.5q64 0 64 -56zM176 70q0 -38 -21 -60t-63 -22q-65 0 -65 56q0 39 21.5 60.5t63.5 21.5q64 0 64 -56z" />
    <glyph glyph-name="perthousand" unicode="&#x2030;" horiz-adv-x="1106" 
d="M209 295q-69 0 -98 36.5t-29 91.5q0 89 45.5 143t131.5 54q66 0 96 -34t30 -93q0 -88 -45 -143t-131 -55zM119 -17l466 638h107l-465 -638h-108zM219 359q26 0 41.5 12t23.5 30.5t11 41.5t3 45q0 30 -11 48.5t-38 18.5q-22 0 -37.5 -10.5t-25 -28t-13.5 -40t-4 -47.5
q0 -32 11.5 -51t38.5 -19zM557 -12q-69 0 -97.5 36t-28.5 91q0 89 46 143.5t131 54.5q66 0 96 -34.5t30 -93.5q0 -89 -45.5 -143t-131.5 -54zM568 52q26 0 41.5 11.5t23.5 30t11 41t3 44.5q0 31 -11 50t-39 19q-22 0 -37 -10.5t-24.5 -28t-14 -40.5t-4.5 -47q0 -32 11.5 -51
t39.5 -19zM890 -12q-69 0 -97.5 36t-28.5 91q0 89 45.5 143.5t130.5 54.5q66 0 96.5 -34.5t30.5 -93.5q0 -89 -45.5 -143t-131.5 -54zM901 52q26 0 41.5 11.5t23.5 30t11 41t3 44.5q0 31 -11 50t-39 19q-22 0 -37 -10.5t-24.5 -28t-14 -40.5t-4.5 -47q0 -32 11.5 -51
t39.5 -19z" />
    <glyph glyph-name="guilsinglleft" unicode="&#x2039;" horiz-adv-x="278" 
d="M122 103l-65 155l110 150h99l-97 -139q-5 -7 -5.5 -10t1.5 -9l54 -147h-97z" />
    <glyph glyph-name="guilsinglright" unicode="&#x203a;" horiz-adv-x="278" 
d="M41 103l97 145q5 7 5 10t-2 9l-57 141h98l66 -153l-107 -152h-100z" />
    <glyph glyph-name="fraction" unicode="&#x2044;" horiz-adv-x="213" 
d="M-152 -17l462 741h106l-461 -741h-107z" />
    <glyph glyph-name="Euro" unicode="&#x20ac;" horiz-adv-x="536" 
d="M211 210q14 -135 117 -135q38 0 64 8q10 4 13 16l23 78l78 5l-21 -157q-10 -6 -29.5 -12.5t-43.5 -12t-51.5 -9t-54.5 -3.5q-100 0 -154 57.5t-62 164.5h-84l22 74h62q1 16 2 31t3 30h-54l22 74h48q18 61 48.5 104.5t69.5 72t84.5 42t93.5 13.5q54 0 97 -12.5t63 -25.5
l-21 -155l-77 5l-3 78q0 12 -11 16q-10 3 -24 5t-37 2q-51 0 -95.5 -34t-68.5 -111h181l-22 -74h-175q-2 -14 -3 -29.5t-2 -31.5h167l-22 -74h-143z" />
    <glyph glyph-name="afii61352" unicode="&#x2116;" horiz-adv-x="1120" 
d="M481 0l-218 490l-56 -398q-2 -12 0 -15t13 -5l66 -8l-9 -64h-257l9 64l64 7q11 2 14 5.5t5 14.5l63 449q2 11 0 15t-13 5l-62 7l9 65h217l212 -477l54 386q2 11 0 15t-13 5l-62 7l9 64h256l-9 -64l-68 -8q-11 -2 -14 -5t-5 -14l-76 -541h-129zM720 184h329l-12 -86h-329z
M884 222q-77 0 -111 39.5t-34 102.5q0 45 13 83.5t38.5 66.5t63 43.5t87.5 15.5q39 0 66.5 -11t45 -29.5t25.5 -44.5t8 -56q0 -94 -50.5 -152t-151.5 -58zM896 286q43 0 69.5 34.5t26.5 111.5t-62 77q-42 0 -70 -33.5t-28 -109.5q0 -42 16 -61t48 -19z" />
    <glyph glyph-name="trademark" unicode="&#x2122;" horiz-adv-x="837" 
d="M171 348v41l56 5v280h-78l-8 -53h-40v103h320v-103h-40l-7 53h-80v-280l61 -5v-41h-184zM738 348v40l45 5v209l-90 -173h-51l-88 174v-210l48 -5v-40h-148v40l38 5v284l-38 4v43h103l112 -227l115 227h99v-43l-40 -4v-284l42 -5v-40h-147z" />
    <glyph glyph-name="partialdiff" unicode="&#x2202;" horiz-adv-x="581" 
d="M437 356q3 25 5.5 52t2.5 53q0 53 -22.5 89t-77.5 36q-42 0 -84 -16t-71 -36l-37 73q45 29 102.5 48t116.5 19q52 0 87.5 -19t57 -52.5t30.5 -79t9 -98.5q0 -37 -5.5 -84t-19.5 -96t-37 -95t-59 -82t-85 -58t-114 -22q-90 0 -136.5 45.5t-46.5 124.5q0 56 17 102.5
t48.5 80t75 52.5t96.5 19q51 0 88 -18t59 -38zM419 276q-18 17 -48.5 35.5t-70.5 18.5q-34 0 -58.5 -15t-40 -38.5t-23 -52.5t-7.5 -56q0 -38 18.5 -65.5t61.5 -27.5q39 0 67.5 19t48.5 48.5t32.5 65t19.5 68.5z" />
    <glyph glyph-name="product" unicode="&#x220f;" horiz-adv-x="786" 
d="M423 -176l9 60l64 7q11 2 14 5.5t5 14.5l102 727h-316l-102 -726q-2 -12 0 -15t13 -5l66 -8l-9 -60h-279l9 60l64 7q11 2 14 5.5t5 14.5l101 724q2 11 0 15t-13 5l-62 7l9 62h712l-9 -62l-68 -8q-11 -2 -14 -5t-5 -14l-101 -723q-2 -12 0 -15t13 -5l66 -8l-9 -60h-279z
" />
    <glyph glyph-name="summation" unicode="&#x2211;" horiz-adv-x="627" 
d="M-31 -176l9 71l285 381l-163 383l9 65h537l-25 -180l-84 4l-3 77q-1 13 -16 13h-280l143 -354l-269 -363h319q8 0 11.5 1.5t5.5 9.5l28 88h84l-26 -196h-565z" />
    <glyph glyph-name="minus" unicode="&#x2212;" horiz-adv-x="570" 
d="M110 275l13 95h381l-13 -95h-381z" />
    <glyph glyph-name="radical" unicode="&#x221a;" horiz-adv-x="573" 
d="M247 0l-94 219q-5 11 -17 8l-65 -17l-21 69l157 70l96 -237l258 633l93 -24l-294 -721h-113z" />
    <glyph glyph-name="infinity" unicode="&#x221e;" horiz-adv-x="664" 
d="M211 461q54 0 88 -23t60 -55q28 30 66 54t87 24q26 0 49 -8t41 -24.5t28.5 -41.5t10.5 -59q0 -31 -10 -58t-29 -47t-46 -31.5t-61 -11.5q-54 0 -89.5 24t-61.5 55q-26 -30 -61.5 -54.5t-83.5 -24.5q-28 0 -53 8t-43.5 24.5t-29 41.5t-10.5 60q0 30 10.5 56.5t30 47t47 32
t60.5 11.5zM202 245q31 0 55.5 20.5t47.5 48.5q-23 33 -48.5 54t-57.5 21q-29 0 -47 -20.5t-18 -49.5q0 -13 3.5 -26.5t11 -24t21 -17t32.5 -6.5zM504 398q-32 0 -56 -19.5t-48 -48.5q23 -29 49 -51.5t58 -22.5q29 0 46 20t17 50q0 27 -15.5 49.5t-50.5 22.5z" />
    <glyph glyph-name="integral" unicode="&#x222b;" horiz-adv-x="487" 
d="M122 -87q35 -17 71 -17q24 0 39 13.5t11 55.5l-52 615q-4 41 7 69.5t31 45.5t46.5 24.5t53.5 7.5q31 0 57.5 -5.5t52.5 -15.5l-22 -82q-35 17 -70 17q-24 0 -39.5 -14t-12.5 -49l54 -621q4 -42 -7 -70t-30.5 -45t-45.5 -24t-53 -7q-33 0 -61.5 6.5t-51.5 15.5z" />
    <glyph glyph-name="approxequal" unicode="&#x2248;" horiz-adv-x="530" 
d="M511 317q-8 -23 -18 -44t-23 -36.5t-30.5 -25t-41.5 -9.5q-27 0 -56.5 6.5t-58 14t-55 14t-48.5 6.5t-36 -11t-33 -36l-55 26q28 48 56.5 77t73.5 29q29 0 57 -6.5t55 -14t52.5 -14t49.5 -6.5q20 0 30 12t22 36zM515 493q-8 -23 -17.5 -44t-22.5 -36.5t-31 -25t-42 -9.5
q-27 0 -56.5 6.5t-58 14t-55.5 13.5t-49 6q-21 0 -35 -11t-33 -36l-55 27q28 48 56.5 77t73.5 29q29 0 57 -6.5t55 -14t52.5 -14t49.5 -6.5q20 0 30.5 12t22.5 36z" />
    <glyph glyph-name="notequal" unicode="&#x2260;" horiz-adv-x="570" 
d="M295 147l-50 -90h-88l50 90h-91l14 97h132l42 75h-164l14 97h205l49 87h87l-49 -87h86l-14 -97h-126l-42 -75h158l-14 -97h-199z" />
    <glyph glyph-name="lessequal" unicode="&#x2264;" horiz-adv-x="570" 
d="M112 256l17 116l383 144l15 -89l-309 -111l281 -109l-26 -93zM77 0l13 95h381l-13 -95h-381z" />
    <glyph glyph-name="greaterequal" unicode="&#x2265;" horiz-adv-x="570" 
d="M86 114l2 95l311 110l-278 108l27 94l355 -149l-16 -116zM70 0l13 95h381l-13 -95h-381z" />
    <glyph glyph-name="lozenge" unicode="&#x25ca;" horiz-adv-x="546" 
d="M203 -17l-111 324l202 324h88l111 -324l-202 -324h-88zM400 307l-76 221l-138 -221l75 -226z" />
    <glyph glyph-name="breve.cyr" 
d="M433 707q-25 -69 -70.5 -102.5t-116.5 -33.5q-75 0 -113.5 36t-45.5 99l82 25q5 -44 24 -66.5t59 -22.5q38 0 61.5 21.5t41.5 66.5z" />
    <glyph glyph-name="breve_cyr.cap.smcp" horiz-adv-x="398" 
d="M332 703q-20 -55 -54.5 -78.5t-87.5 -23.5q-116 0 -130 100l75 21q4 -58 57 -58q23 0 39.5 13t27.5 45z" />
    <glyph glyph-name="hyphen.case" horiz-adv-x="317" 
d="M48 299l15 104h271l-15 -104h-271z" />
    </font>
</defs>
</svg>
