<?xml version="1.0" standalone="no"?>
<!DOCTYPE svg PUBLIC "-//W3C//DTD SVG 1.1//EN" "http://www.w3.org/Graphics/SVG/1.1/DTD/svg11.dtd" >
<svg xmlns="http://www.w3.org/2000/svg" xmlns:xlink="http://www.w3.org/1999/xlink" version="1.1">
<metadata>
Created by FontForge 20170731 at Wed May 14 19:57:18 2014
 By ,,,
Copyright (c) 2010 by TypeTogether. All rights reserved.This font is ONLY licensed for use when accessed from the Extensis WebINK font service. Any other use of this font file is illegal under United States and international copyright laws. Please respect the rights of the people who design and license fonts.
</metadata>
<defs>
<font id="AdelleCyrillic-Thin" horiz-adv-x="570" >
  <font-face 
    font-family="Adelle Cyrillic"
    font-weight="250"
    font-stretch="normal"
    units-per-em="1000"
    panose-1="2 0 5 3 0 0 0 2 0 4"
    ascent="755"
    descent="-245"
    x-height="508"
    cap-height="724"
    bbox="-154 -225 1015 926"
    underline-thickness="50"
    underline-position="-200"
    unicode-range="U+000D-25CA"
  />
<missing-glyph horiz-adv-x="500" 
 />
    <glyph glyph-name=".notdef" horiz-adv-x="500" 
 />
    <glyph glyph-name=".null" horiz-adv-x="0" 
 />
    <glyph glyph-name="nonmarkingreturn" unicode="&#xd;" horiz-adv-x="500" 
 />
    <glyph glyph-name="NULL" horiz-adv-x="0" 
 />
    <glyph glyph-name="NULL" horiz-adv-x="0" 
 />
    <glyph glyph-name="space" unicode=" " horiz-adv-x="236" 
 />
    <glyph glyph-name="exclam" unicode="!" horiz-adv-x="252" 
d="M106 180l-10 385v159h59v-159l-9 -385h-40zM179 40q0 -26 -14 -39t-38 -13q-52 0 -52 52t52 52q24 0 38 -13t14 -39z" />
    <glyph glyph-name="quotedbl" unicode="&#x22;" horiz-adv-x="357" 
d="M230 447v259h59v-259h-59zM70 447v259h59v-259h-59z" />
    <glyph glyph-name="numbersign" unicode="#" horiz-adv-x="607" 
d="M336 0l23 152h-146l-22 -152h-50l22 152h-126l12 40h121l27 174h-126l11 41h121l20 136h51l-21 -136h143l19 136h51l-20 -136h125l-10 -41h-122l-24 -174h123l-10 -40h-120l-23 -152h-49zM390 366h-144l-26 -174h145z" />
    <glyph glyph-name="dollar" unicode="$" horiz-adv-x="520" 
d="M447 161q0 -69 -43 -110t-122 -49v-82h-43v80q-36 0 -67.5 4.5t-57.5 10t-45 12t-29 10.5v131h34l19 -84q4 -12 7 -16.5t8 -6.5q15 -6 52 -11.5t79 -6.5v248q-31 9 -62 19.5t-55.5 28.5t-39.5 46t-15 72q0 40 13 69t36 49t54.5 31t68.5 14v74h43v-70q27 -1 53 -5
t47.5 -9.5t37.5 -11t23 -8.5v-142l-37 3l-17 90q-2 11 -6 15.5t-14 9.5q-14 5 -38.5 8.5t-48.5 4.5v-253q31 -9 60.5 -19.5t53 -28.5t37.5 -46t14 -71zM115 460q0 -28 10 -47.5t27 -33.5t39.5 -23t47.5 -17v238q-59 -5 -91.5 -36t-32.5 -81zM397 156q0 56 -30.5 82.5
t-84.5 40.5v-234q63 5 89 36.5t26 74.5z" />
    <glyph glyph-name="percent" unicode="%" horiz-adv-x="849" 
d="M207 257q-43 0 -72.5 15t-47.5 39.5t-25.5 56t-7.5 65.5q0 41 10.5 75t31 59t50.5 39t69 14q81 0 117 -48.5t36 -125.5q0 -41 -10.5 -76t-30.5 -60t-50.5 -39t-69.5 -14zM209 -17l377 638h50l-376 -638h-51zM210 298q32 0 52.5 11.5t32.5 31t16.5 46t4.5 55.5
q0 26 -4.5 51t-15.5 44t-31 30.5t-52 11.5t-53 -13.5t-33 -34.5t-17 -46t-5 -48q0 -27 4.5 -52t16.5 -44.5t32.5 -31t51.5 -11.5zM635 -12q-43 0 -72.5 15t-47.5 39.5t-25.5 56t-7.5 65.5q0 41 10.5 75t31 59t50.5 39t69 14q81 0 117 -48.5t36 -125.5q0 -41 -10.5 -76
t-30.5 -60t-50.5 -39t-69.5 -14zM638 28q32 0 52.5 11.5t32.5 31.5t16.5 46.5t4.5 55.5q0 26 -4.5 51t-15.5 44t-31 30.5t-52 11.5t-53 -13.5t-33 -34.5t-17 -46t-5 -48q0 -27 4.5 -52t16 -44.5t32 -31.5t52.5 -12z" />
    <glyph glyph-name="ampersand" unicode="&#x26;" horiz-adv-x="712" 
d="M581 0l-93 114q-48 -69 -103 -97.5t-127 -28.5q-47 0 -85.5 14.5t-66 41t-42.5 64t-15 83.5q0 82 50.5 136t144.5 74q-25 27 -45.5 64.5t-20.5 74.5q0 18 6.5 40.5t24 42.5t47.5 33.5t76 13.5q21 0 42.5 -3.5t40 -8.5t32.5 -9.5t21 -7.5v-118l-37 3l-12 70q-2 9 -5 13.5
t-11 7.5q-14 5 -32.5 7.5t-40.5 2.5q-51 0 -76.5 -22t-25.5 -57q0 -21 4 -38.5t15 -37.5t30.5 -45.5t50.5 -61.5l152 -178q5 12 12 34.5t13.5 50.5t12.5 58t7 57h102v-36l-51 -9q-9 -2 -11.5 -4t-4.5 -12q-6 -43 -18.5 -88t-29.5 -80l80 -95q8 -10 13.5 -12.5t17.5 -4.5
l53 -11v-35h-95zM265 367q-34 -5 -65 -17.5t-53.5 -34.5t-36 -52.5t-13.5 -71.5q0 -28 9.5 -57.5t29.5 -53t51 -38.5t74 -15q125 0 197 119z" />
    <glyph glyph-name="quotesingle" unicode="'" horiz-adv-x="199" 
d="M70 447v259h59v-259h-59z" />
    <glyph glyph-name="parenleft" unicode="(" horiz-adv-x="262" 
d="M200 -147q-25 42 -50 88.5t-44 99t-31 112.5t-12 127q0 66 13 128t34 117.5t47 104t52 88.5l38 -24q-32 -55 -57 -105.5t-42.5 -100.5t-27 -100.5t-9.5 -106.5q0 -67 11 -122.5t29.5 -104.5t41.5 -93t47 -87z" />
    <glyph glyph-name="parenright" unicode=")" horiz-adv-x="262" 
d="M63 -147l-40 20q23 43 46 86.5t41 92t29 104t11 123.5q0 55 -9 106t-26.5 101.5t-43 101.5t-58.5 106l38 24q27 -41 53.5 -89.5t47.5 -104t34 -117.5t13 -129t-12 -126.5t-31.5 -112.5t-43.5 -99.5t-49 -86.5z" />
    <glyph glyph-name="asterisk" unicode="*" horiz-adv-x="466" 
d="M113 576l-60 22l19 50l58 -22l93 -49l-7 -23l19 -15l-56 -89l-41 -49l-40 35l40 47l78 71zM247 577l93 49l58 22l19 -50l-60 -22l-103 -22zM254 554l78 -71l40 -47l-40 -35l-41 49l-56 89zM223 577l-15 103v63h53v-62l-14 -104h-24z" />
    <glyph glyph-name="plus" unicode="+" 
d="M255 137v160h-156v50h156v158h56v-158h156v-50h-156v-160h-56z" />
    <glyph glyph-name="comma" unicode="," horiz-adv-x="168" 
d="M43 -104l33 107q1 7 -5 10l-30 14l21 61q41 -3 62 -12.5t21 -38.5q0 -13 -3.5 -23t-8.5 -20l-60 -110z" />
    <glyph glyph-name="hyphen" unicode="-" horiz-adv-x="311" 
d="M20 262v51h271v-51h-271z" />
    <glyph glyph-name="period" unicode="." horiz-adv-x="202" 
d="M162 40q0 -26 -14 -39t-39 -13q-24 0 -38 13t-14 39t14 39t38 13q53 0 53 -52z" />
    <glyph glyph-name="slash" unicode="/" horiz-adv-x="335" 
d="M5 -92l281 847h44l-280 -847h-45z" />
    <glyph glyph-name="zero" unicode="0" horiz-adv-x="555" 
d="M275 -12q-73 0 -118 26.5t-69.5 68.5t-33 94t-8.5 103q0 55 10.5 108.5t37.5 95.5t73 68t118 26q70 0 113.5 -24t68 -64t33 -90.5t8.5 -104.5q0 -55 -9 -109.5t-34.5 -98.5t-71 -71.5t-118.5 -27.5zM278 30q53 0 88 20.5t55.5 56t29 82.5t8.5 99q0 51 -7.5 96t-27 78.5
t-54 53t-87.5 19.5q-54 0 -89.5 -19.5t-57.5 -54.5t-31 -83t-9 -105q0 -48 8.5 -92t29.5 -77.5t56 -53.5t88 -20z" />
    <glyph glyph-name="one" unicode="1" horiz-adv-x="341" 
d="M30 0v36l111 6q11 1 13.5 5t2.5 15v427q0 13 -3.5 16t-11.5 5l-101 16l4 37h162v-501q0 -12 2.5 -15t13.5 -5l91 -7v-35h-284z" />
    <glyph glyph-name="two" unicode="2" horiz-adv-x="449" 
d="M39 0v40l134 130q35 35 67.5 64.5t58 58t40.5 58.5t15 64q0 58 -32.5 88.5t-107.5 30.5q-34 0 -59.5 -4.5t-42 -17t-24.5 -35t-8 -58.5l-49 7q0 49 16 79t41.5 46t58 21.5t65.5 5.5q103 0 149.5 -43t46.5 -113q0 -42 -18 -78t-46 -68.5t-61.5 -62t-63.5 -59.5l-113 -108
h254q8 0 11 1.5t5 9.5l17 88h38v-145h-392z" />
    <glyph glyph-name="three" unicode="3" horiz-adv-x="467" 
d="M288 262q135 -27 135 -157q0 -40 -12.5 -74.5t-38 -60t-64 -39.5t-90.5 -14q-67 0 -118.5 23t-80.5 57l35 34q32 -35 71.5 -52.5t96.5 -17.5q27 0 54 7t48.5 23t34.5 42.5t13 66.5q0 75 -43.5 105.5t-121.5 30.5q-16 0 -32 -1.5t-35 -3.5v42l64 6q76 8 114 46t38 90
q0 58 -31 89.5t-102 31.5q-33 0 -58 -5t-42.5 -18t-26.5 -35.5t-9 -58.5l-48 7q0 47 17 77t43.5 46.5t60 22.5t66.5 6q49 0 83.5 -12.5t56.5 -33.5t32 -49t10 -58q0 -57 -31 -97.5t-89 -65.5z" />
    <glyph glyph-name="four" unicode="4" horiz-adv-x="474" 
d="M317 -67v155h-292v38l247 438l39 -21l-229 -413h236v235l47 -4v-231h95v-42h-95v-155h-48z" />
    <glyph glyph-name="five" unicode="5" horiz-adv-x="493" 
d="M129 521l-15 -234q29 21 66 32t74 11q85 0 138.5 -51.5t53.5 -153.5q0 -42 -14 -79.5t-41.5 -66.5t-67 -45.5t-90.5 -16.5q-66 0 -119 22t-87 58l33 36q33 -35 76.5 -53.5t99.5 -18.5q27 0 55 9.5t50.5 29.5t37 51t14.5 75q0 47 -13.5 77.5t-34.5 48.5t-46.5 25.5
t-50.5 7.5q-51 0 -82.5 -15.5t-58.5 -33.5l-41 19l19 308h268q8 0 11 1.5t6 9.5l14 54l34 3v-110h-289z" />
    <glyph glyph-name="six" unicode="6" horiz-adv-x="508" 
d="M397 504q0 56 -28.5 75.5t-80.5 19.5q-61 0 -98 -31.5t-56.5 -75.5t-26 -92.5t-5.5 -82.5q15 13 34.5 26.5t42.5 24t49 17.5t54 7q47 0 80 -16t54 -43t31 -61.5t10 -71.5q0 -45 -11.5 -83.5t-35.5 -67t-61 -45t-88 -16.5q-66 0 -106.5 28.5t-63 74.5t-30.5 105.5
t-8 120.5q0 47 9 104t35.5 106t74 82t125.5 33q23 0 49 -5t48 -19.5t36.5 -40t14.5 -67.5zM103 265q1 -25 6 -65.5t21.5 -78.5t47.5 -66t84 -28q69 0 107 44t38 125q0 73 -30 112.5t-99 39.5q-28 0 -54.5 -8t-49.5 -20t-41.5 -26.5t-29.5 -28.5z" />
    <glyph glyph-name="seven" unicode="7" horiz-adv-x="480" 
d="M175 -67q9 102 33.5 190.5t57.5 162t71 133t73 102.5h-287q-8 0 -11.5 -1.5t-5.5 -9.5l-20 -92l-32 -2v147h415v-36q-28 -27 -57 -69.5t-56.5 -94t-51 -108.5t-41 -114t-27.5 -110.5t-10 -97.5h-51z" />
    <glyph glyph-name="eight" unicode="8" horiz-adv-x="486" 
d="M311 329q25 -13 49 -29t42.5 -36.5t30 -46.5t11.5 -60q0 -40 -15 -71.5t-42 -53.5t-64 -33t-81 -11q-40 0 -75.5 10.5t-62.5 30.5t-42.5 49.5t-15.5 67.5q0 32 11 60t30 52t43.5 46t51.5 42q-44 24 -76.5 60t-32.5 89q0 38 14 66t38.5 47t57 28t68.5 9q44 0 77 -10.5
t54.5 -29t32 -43t10.5 -52.5q0 -26 -10 -51t-26.5 -47.5t-37 -43.5t-40.5 -39zM222 326q-61 -43 -94 -84t-33 -91q0 -62 43 -92t112 -30q66 0 105.5 34.5t39.5 90.5q0 35 -13 60t-36 44.5t-54.5 35.5t-69.5 32zM273 348q18 15 36.5 33t33 38.5t23.5 43t9 47.5
q0 29 -10.5 47.5t-28.5 29t-41.5 14.5t-49.5 4q-51 0 -87.5 -25.5t-36.5 -78.5q0 -29 12 -51t32.5 -40t48 -32.5t59.5 -29.5z" />
    <glyph glyph-name="nine" unicode="9" horiz-adv-x="541" 
d="M106 10q32 -27 69 -39t78 -12q60 0 94.5 31t51.5 74.5t21 91t4 81.5q-15 -14 -33.5 -28.5t-41.5 -26t-50 -18.5t-58 -7q-48 0 -81.5 17t-54 45.5t-30 66t-9.5 78.5q0 46 12.5 85.5t37.5 68t63 44.5t89 16q68 0 108.5 -28t61.5 -74.5t27.5 -105.5t6.5 -122q0 -48 -6 -106
t-28.5 -108t-66 -83.5t-119.5 -33.5q-47 0 -93.5 12.5t-81.5 45.5zM423 291q-1 32 -5.5 74.5t-20.5 80.5t-47 64.5t-86 26.5q-69 0 -108.5 -42t-39.5 -125q0 -78 30 -123.5t98 -45.5q30 0 57.5 9.5t51 23.5t41.5 29.5t29 27.5z" />
    <glyph glyph-name="colon" unicode=":" horiz-adv-x="206" 
d="M162 40q0 -26 -14 -39t-39 -13q-24 0 -38 13t-14 39t14 39t38 13q53 0 53 -52zM162 434q0 -26 -14 -39t-39 -13q-24 0 -38 13t-14 39t14 39t38 13q53 0 53 -52z" />
    <glyph glyph-name="semicolon" unicode=";" horiz-adv-x="175" 
d="M152 434q0 -26 -14 -39t-39 -13q-24 0 -38 13t-14 39t14 39t38 13q53 0 53 -52zM43 -104l33 107q1 7 -5 10l-30 14l21 61q41 -3 62 -12.5t21 -38.5q0 -13 -3.5 -23t-8.5 -20l-60 -110z" />
    <glyph glyph-name="less" unicode="&#x3c;" 
d="M93 256v58l360 164l22 -46l-332 -146l337 -137l-17 -44z" />
    <glyph glyph-name="equal" unicode="=" 
d="M103 186v52h366v-52h-366zM103 330v52h366v-52h-366z" />
    <glyph glyph-name="greater" unicode="&#x3e;" 
d="M110 105l-17 44l337 137l-332 146l22 46l360 -164v-58z" />
    <glyph glyph-name="question" unicode="?" horiz-adv-x="444" 
d="M142 179v173q45 4 84 14.5t67.5 30.5t45 52.5t16.5 80.5q0 53 -13 83t-35 46t-51 20t-61 4q-34 0 -59 -3.5t-39 -8.5q-11 -4 -13.5 -8t-4.5 -15l-11 -61h-31v106q3 2 17.5 7t37 10t51 9.5t59.5 4.5q45 0 82.5 -9t65 -30.5t42.5 -57t15 -87.5q0 -55 -16.5 -95t-46 -67
t-69.5 -42t-87 -22v-135h-46zM220 40q0 -26 -14 -39t-38 -13q-52 0 -52 52t52 52q24 0 38 -13t14 -39z" />
    <glyph glyph-name="at" unicode="@" horiz-adv-x="820" 
d="M605 -145q-24 -10 -73.5 -22t-119.5 -12q-79 0 -145.5 22t-114.5 66t-74.5 111.5t-26.5 158.5q0 85 28.5 156t80 122t123.5 79.5t159 28.5q72 0 133 -21t106 -61.5t70 -99t25 -134.5q0 -74 -14.5 -124.5t-40 -82t-59.5 -45t-73 -13.5q-54 0 -76 24.5t-23 59.5
q-17 -15 -34.5 -30t-36 -27t-38.5 -19.5t-41 -7.5q-52 0 -75.5 34t-23.5 99q0 56 14.5 105.5t42 87t66.5 59.5t88 22q33 0 66 -10t57 -22l-30 -193q-4 -24 -7.5 -48.5t-3.5 -42.5q0 -35 18.5 -45t50.5 -10q15 0 37.5 7t42.5 30t34.5 65.5t14.5 113.5q0 140 -76.5 215
t-220.5 75q-74 0 -136 -25.5t-106.5 -71t-69 -109t-24.5 -139.5q0 -85 23.5 -145.5t66 -99.5t101.5 -57t129 -18q45 0 89.5 9t83.5 23zM523 328q-17 11 -38 16.5t-42 5.5q-32 0 -60 -18t-48.5 -48.5t-32.5 -71.5t-12 -87q0 -19 2 -36.5t8 -30.5t17 -20.5t30 -7.5
q17 0 37.5 9t40 22.5t37.5 29.5t30 31z" />
    <glyph glyph-name="A" unicode="A" horiz-adv-x="682" 
d="M470 0v35l83 9l-65 199h-302l-66 -199l81 -9v-35h-190v36l43 11q8 2 14.5 6t9.5 13l224 658h70l229 -661q3 -9 8 -12t14 -5l47 -11v-35h-200zM337 687l-135 -400h269z" />
    <glyph glyph-name="B" unicode="B" horiz-adv-x="669" 
d="M77 0v33l63 7q11 2 13.5 5.5t2.5 14.5v603q0 11 -2.5 15t-13.5 5l-63 7v34h272q64 0 106 -13.5t66.5 -37.5t34 -56.5t9.5 -69.5q0 -36 -11 -63.5t-28.5 -48t-39.5 -34.5t-45 -23q86 -10 129.5 -59.5t43.5 -124.5q0 -55 -19.5 -92.5t-54.5 -60t-83.5 -32t-107.5 -9.5h-272
zM348 42q45 0 84 5.5t68 21.5t46 45.5t17 78.5q0 41 -14.5 70.5t-40.5 48.5t-60.5 28.5t-75.5 9.5h-169v-308h145zM324 392q32 0 65 6.5t60 23.5t44.5 46.5t17.5 75.5q0 75 -40.5 107t-131.5 32h-136v-291h121z" />
    <glyph glyph-name="C" unicode="C" horiz-adv-x="680" 
d="M628 39q-38 -27 -101 -39t-132 -12q-90 0 -153.5 28.5t-104 80t-59 122t-18.5 154.5q0 77 22 143.5t65.5 115.5t109 77t153.5 28q69 0 125 -14.5t91 -37.5v-134l-38 2l-17 93q-1 5 -2.5 9.5t-10.5 8.5q-30 12 -70 20t-83 8q-67 0 -121 -21.5t-92.5 -62.5t-59.5 -100.5
t-21 -136.5q0 -166 77 -252t210 -86q42 0 88 5t80 22q9 5 12 16l16 88h34v-125z" />
    <glyph glyph-name="D" unicode="D" horiz-adv-x="777" 
d="M77 0v33l63 7q11 2 13.5 5.5t2.5 14.5v603q0 11 -2.5 15t-13.5 5l-63 7v34h281q94 0 162 -24.5t111.5 -70t64.5 -110.5t21 -146q0 -83 -22.5 -152t-68.5 -118t-117 -76t-168 -27h-264zM351 42q152 0 233.5 82t81.5 232q0 95 -22 158t-62 100.5t-97 53t-128 15.5h-153
v-641h147z" />
    <glyph glyph-name="E" unicode="E" horiz-adv-x="638" 
d="M77 0v33l63 7q11 2 13.5 5.5t2.5 14.5v603q0 11 -2.5 15t-13.5 5l-63 7v34h481v-137l-39 2l-14 81q-3 13 -17 13h-284v-296h290v-41h-290v-304h306q8 0 11 1.5t5 9.5l16 88h38v-141h-503z" />
    <glyph glyph-name="F" unicode="F" horiz-adv-x="600" 
d="M77 0v35l63 7q11 2 13.5 5.5t2.5 14.5v601q0 11 -2.5 15t-13.5 5l-63 7v34h477v-137l-39 2l-14 81q-3 13 -17 13h-280v-293h286v-41h-286v-286q0 -12 2.5 -15t13.5 -5l147 -8v-35h-290z" />
    <glyph glyph-name="G" unicode="G" horiz-adv-x="754" 
d="M676 283q-16 -1 -16 -11v-249q-20 -9 -47 -15.5t-57 -11t-61 -6.5t-61 -2q-101 0 -172 28.5t-116 79.5t-65.5 121t-20.5 152q0 79 22 146t65.5 116.5t109 77.5t153.5 28q70 0 127.5 -14.5t92.5 -37.5v-135l-38 1l-18 95q0 5 -2 9.5t-10 8.5q-31 12 -72 20t-85 8
q-66 0 -120.5 -21t-93 -62.5t-59.5 -102t-21 -139.5q0 -82 22.5 -144.5t64.5 -104.5t101.5 -63.5t132.5 -21.5q44 0 91.5 6t76.5 15q4 2 8 5t4 12v212h-153l9 42h250v-38z" />
    <glyph glyph-name="H" unicode="H" horiz-adv-x="801" 
d="M518 0v35l63 7q11 2 13.5 5.5t2.5 14.5v292h-393v-291q0 -12 2.5 -15t13.5 -5l67 -8v-35h-210v35l63 7q11 2 13.5 5.5t2.5 14.5v600q0 11 -2.5 15t-13.5 5l-63 7v35h210v-35l-67 -8q-11 -2 -13.5 -5t-2.5 -14v-266h393v266q0 11 -2.5 15t-13.5 5l-63 7v35h210v-35l-67 -8
q-11 -2 -13.5 -5t-2.5 -14v-599q0 -12 2.5 -15t13.5 -5l67 -8v-35h-210z" />
    <glyph glyph-name="I" unicode="I" horiz-adv-x="391" 
d="M82 0v35l73 7q11 2 13.5 5.5t2.5 14.5v600q0 11 -2.5 15t-13.5 5l-73 7v35h231v-35l-77 -8q-11 -2 -13.5 -5t-2.5 -14v-599q0 -12 2.5 -15t13.5 -5l77 -8v-35h-231z" />
    <glyph glyph-name="J" unicode="J" horiz-adv-x="495" 
d="M314 663q0 11 -3 14.5t-13 4.5l-82 7v35h229v-35l-67 -8q-11 -2 -13.5 -4.5t-2.5 -13.5v-527q0 -76 -35 -112t-113 -36q-57 0 -97 11.5t-52 19.5v110l39 -2l10 -67q1 -4 2.5 -7.5t9.5 -6.5q8 -5 30.5 -11.5t57.5 -6.5q61 0 80.5 29.5t19.5 88.5v517z" />
    <glyph glyph-name="K" unicode="K" horiz-adv-x="723" 
d="M462 0v37l92 8l-264 331l-86 -91v-222q0 -12 2.5 -15t13.5 -5l67 -8v-35h-210v35l63 7q11 2 13.5 5.5t2.5 14.5v600q0 11 -2.5 15t-13.5 5l-63 7v35h210v-35l-67 -8q-11 -2 -13.5 -5t-2.5 -14v-319l314 337l-62 8v36h193v-35l-57 -11q-14 -2 -18.5 -5t-11.5 -10
l-238 -253l276 -349q7 -9 11 -11.5t18 -4.5l59 -10v-35h-226z" />
    <glyph glyph-name="L" unicode="L" horiz-adv-x="616" 
d="M77 0v33l63 7q11 2 13.5 5.5t2.5 14.5v601q0 11 -2.5 15t-13.5 5l-63 7v36h226v-36l-83 -8q-11 -1 -13.5 -4.5t-2.5 -14.5v-619h306q8 0 11 1.5t5 9.5l16 85h38v-138h-503z" />
    <glyph glyph-name="M" unicode="M" horiz-adv-x="938" 
d="M635 0v35l83 7q11 2 13.5 5.5t2.5 14.5v575l-244 -446h-36l-251 460v-588q0 -12 2.5 -15t13.5 -5l87 -8v-35h-229v35l63 7q11 2 13.5 5.5t2.5 14.5v599q0 11 -2.5 15t-13.5 5l-63 7v36h141l255 -478l257 478h135v-35l-67 -8q-11 -2 -13.5 -5t-2.5 -14v-600q0 -10 3 -13.5
t13 -5.5l67 -8v-35h-230z" />
    <glyph glyph-name="N" unicode="N" horiz-adv-x="828" 
d="M612 0l-408 674v-611q0 -12 2.5 -15t13.5 -5l67 -8v-35h-210v35l63 7q11 2 13.5 5.5t2.5 14.5v599q0 11 -2.5 14.5t-13.5 5.5l-63 7v36h156l396 -662v600q0 11 -2.5 14.5t-13.5 5.5l-63 7v35h210v-35l-67 -8q-11 -2 -13.5 -5t-2.5 -14v-662h-65z" />
    <glyph glyph-name="O" unicode="O" horiz-adv-x="787" 
d="M391 -12q-84 0 -146 28t-102.5 78t-60.5 118t-20 148q0 83 22 152t65.5 119t107.5 78t148 28q83 0 143.5 -27.5t101 -76t60 -114t19.5 -140.5q0 -88 -21.5 -160.5t-64 -123.5t-106 -79t-146.5 -28zM394 31q64 0 116.5 21.5t90 64t58 105.5t20.5 147q0 78 -19.5 138.5
t-55.5 102t-87 63t-114 21.5q-64 0 -117 -22t-91 -64.5t-59.5 -104.5t-21.5 -143q0 -78 19.5 -139t55.5 -103.5t88 -64.5t117 -22z" />
    <glyph glyph-name="P" unicode="P" horiz-adv-x="663" 
d="M77 0v35l63 7q11 2 13.5 5.5t2.5 14.5v601q0 11 -2.5 15t-13.5 5l-63 7v34h288q69 0 115.5 -17t74.5 -46.5t39.5 -68t11.5 -81.5q0 -64 -19 -107.5t-54.5 -70.5t-86.5 -39t-114 -12h-129v-219q0 -12 2.5 -16t13.5 -4l143 -8v-35h-285zM334 323q47 0 87.5 7t70 27.5
t46 57.5t16.5 96q0 84 -46.5 128t-156.5 44h-148v-360h131z" />
    <glyph glyph-name="Q" unicode="Q" horiz-adv-x="782" 
d="M562 -154q-8 -5 -28.5 -10.5t-42.5 -5.5q-67 0 -94.5 27t-27.5 89v19.5t2 22.5q-80 3 -138.5 32.5t-97 80t-57 119t-18.5 150.5q0 79 22 146t65.5 116t107.5 77t148 28q83 0 143 -27.5t100 -76t59 -114t19 -140.5q0 -84 -19.5 -153t-57.5 -120t-94.5 -81t-130.5 -36
q-3 -23 -3 -49q0 -31 12.5 -50t54.5 -19q20 0 37.5 4.5t25.5 8.5zM392 31q63 0 115 21.5t89 64t57.5 105.5t20.5 147q0 78 -19 138.5t-55 102t-86.5 63t-113.5 21.5t-116 -22t-91 -63.5t-59.5 -102t-21.5 -138.5q0 -163 73 -250t207 -87z" />
    <glyph glyph-name="R" unicode="R" horiz-adv-x="696" 
d="M436 0v37l88 10l-89 211q-15 35 -34.5 49t-49.5 14h-148v-258q0 -12 2.5 -15t13.5 -5l70 -8v-35h-212v35l63 7q11 2 13.5 5.5t2.5 14.5v601q0 11 -2.5 15t-13.5 5l-63 7v34h281q68 0 110.5 -17t67.5 -43.5t34 -60t9 -66.5q0 -84 -43 -133.5t-110 -66.5q26 -12 38 -32.5
t27 -56.5l78 -185q2 -3 6.5 -7.5t12.5 -6.5l72 -13v-36h-224zM326 362q42 0 79 8.5t64.5 28t43 52.5t15.5 81q0 45 -14.5 74.5t-39 46.5t-58.5 23.5t-73 6.5h-140v-321h123z" />
    <glyph glyph-name="S" unicode="S" horiz-adv-x="579" 
d="M456 559l-21 98l-3.5 10.5t-7.5 7.5q-10 5 -33.5 11.5t-73.5 6.5q-94 0 -138 -38.5t-44 -103.5q0 -44 18.5 -71t48.5 -45t68 -29.5t77 -24.5q33 -11 63 -25.5t53.5 -37t37 -54.5t13.5 -78q0 -55 -20.5 -93t-55 -61.5t-80.5 -33.5t-97 -10q-35 0 -66.5 4t-57.5 9.5
t-45 11.5t-29 11v140h34l19 -88q2 -10 3.5 -14t10.5 -8q13 -5 47.5 -13.5t88.5 -8.5q88 0 141 37t53 116q0 47 -19 75.5t-50 47t-69.5 30.5t-77.5 25q-33 11 -62.5 25t-52 35t-35.5 51.5t-13 73.5q0 51 19 86.5t51.5 58.5t76.5 33.5t93 10.5q63 0 107.5 -11.5t64.5 -18.5
v-153z" />
    <glyph glyph-name="T" unicode="T" horiz-adv-x="630" 
d="M172 0v36l103 7q11 1 13.5 5t2.5 15v620h-189q-8 0 -11 -1.5t-5 -9.5l-16 -89l-38 -3v144h568v-144l-37 3l-16 89q-2 8 -5 9.5t-11 1.5h-192v-620q0 -11 2.5 -14.5t13.5 -4.5l110 -8v-36h-293z" />
    <glyph glyph-name="U" unicode="U" horiz-adv-x="790" 
d="M595 662q0 11 -2.5 15t-13.5 5l-63 7v35h210v-35l-67 -8q-11 -2 -13.5 -5t-2.5 -14v-433q0 -121 -64 -181t-191 -60q-66 0 -111.5 16t-74.5 47t-42 76t-13 102v433q0 11 -2.5 15t-13.5 5l-63 7v35h210v-35l-67 -8q-11 -2 -13.5 -5t-2.5 -14v-435q0 -56 14 -94t40 -61
t63 -32.5t82 -9.5q47 0 84 10t63 32.5t40 60.5t14 93v436z" />
    <glyph glyph-name="V" unicode="V" horiz-adv-x="663" 
d="M301 0l-230 661q-3 9 -9 12t-15 5l-45 11l10 35h192v-35l-84 -9l217 -642l202 642l-81 9l10 35h182v-35l-42 -11q-9 -2 -15.5 -6t-9.5 -13l-213 -659h-69z" />
    <glyph glyph-name="W" unicode="W" horiz-adv-x="958" 
d="M638 0l-157 518l-160 -518h-51l-175 660q-2 10 -5.5 13.5t-14.5 5.5l-64 10l10 35h212v-35l-92 -10l158 -615l155 505h58l154 -517l158 627l-94 10l10 35h207v-35l-55 -9q-11 -2 -14 -5.5t-6 -14.5l-175 -660h-59z" />
    <glyph glyph-name="X" unicode="X" horiz-adv-x="647" 
d="M433 0v35l73 9l-189 292l-184 -292l71 -9v-35h-185v33l47 11q15 4 25 19l194 308l-179 290q-5 8 -10 11.5t-14 5.5l-44 11l10 35h178v-35l-73 -9l164 -271l172 271l-70 9l10 35h167v-35l-40 -11q-17 -4 -25 -19l-181 -286l202 -310q5 -8 10 -11.5t14 -5.5l50 -11v-35
h-193z" />
    <glyph glyph-name="Y" unicode="Y" horiz-adv-x="579" 
d="M162 0v35l92 7q11 1 13.5 5t2.5 15v225l-202 374q-7 13 -24 17l-45 11l10 35h179v-35l-73 -9l181 -345l175 345l-70 9l10 35h169v-35l-42 -11q-8 -2 -14 -6.5t-11 -12.5l-194 -369v-227q0 -12 2.5 -15t13.5 -5l94 -8v-35h-267z" />
    <glyph glyph-name="Z" unicode="Z" horiz-adv-x="625" 
d="M50 0v33l446 650h-358q-8 0 -11 -1.5t-5 -9.5l-19 -95l-38 -3v150h492v-35l-444 -647h377q8 0 11 1.5t5 9.5l20 108h36v-161h-512z" />
    <glyph glyph-name="bracketleft" unicode="[" horiz-adv-x="229" 
d="M72 -143v867h128v-36l-67 -7q-12 -2 -14 -4.5t-2 -14.5v-741q0 -13 2 -15.5t14 -4.5l67 -7v-37h-128z" />
    <glyph glyph-name="backslash" unicode="\" horiz-adv-x="339" 
d="M285 -92l-280 847h44l281 -847h-45z" />
    <glyph glyph-name="bracketright" unicode="]" horiz-adv-x="229" 
d="M157 724v-867h-127v37l67 7q12 2 14 4.5t2 13.5v741q0 14 -2 16.5t-14 4.5l-67 7v36h127z" />
    <glyph glyph-name="asciicircum" unicode="^" horiz-adv-x="508" 
d="M427 299l-176 319l-172 -319h-49l197 365h51l200 -365h-51z" />
    <glyph glyph-name="underscore" unicode="_" horiz-adv-x="500" 
d="M0 -181v38h500v-38h-500z" />
    <glyph glyph-name="grave" unicode="`" horiz-adv-x="500" 
d="M328 571l-174 137l43 45l156 -157z" />
    <glyph glyph-name="a" unicode="a" horiz-adv-x="529" 
d="M393 0l-9 73q-43 -40 -89 -62.5t-103 -22.5q-47 0 -74 14t-41 34.5t-18 43t-4 38.5q0 75 45 108t133 41l150 13v60q0 35 -4.5 61t-18 42.5t-37.5 24.5t-63 8q-27 0 -50.5 -1.5t-41 -10t-28 -26.5t-10.5 -51l-48 7q0 43 18 67.5t44.5 37t57.5 16t58 3.5q50 0 83 -8.5
t53 -28.5t28 -53.5t8 -83.5v-282q0 -12 2.5 -15t13.5 -5l53 -7v-35h-108zM383 239l-145 -13q-39 -3 -64.5 -11t-40 -21t-20.5 -30.5t-6 -39.5q0 -49 23 -71.5t70 -22.5q29 0 55.5 8.5t50 22t43 30.5t34.5 33v115z" />
    <glyph glyph-name="b" unicode="b" horiz-adv-x="583" 
d="M100 0q3 23 6.5 64t3.5 77v542q0 17 -13 21l-63 19l8 32h117v-305q42 27 86.5 47.5t99.5 20.5q86 0 136 -57.5t50 -184.5q0 -77 -15 -132t-43 -89.5t-67 -50.5t-87 -16q-45 0 -84.5 15t-77.5 48l-7 -51h-50zM159 106q30 -33 72.5 -54t84.5 -21q47 0 78.5 16.5t50.5 47.5
t27.5 74.5t8.5 98.5q0 63 -11.5 103t-31 63t-44.5 31.5t-53 8.5t-54 -6.5t-49 -17t-43 -23t-36 -24.5v-297z" />
    <glyph glyph-name="c" unicode="c" horiz-adv-x="469" 
d="M443 31q-12 -8 -30 -16t-39.5 -14t-44.5 -9.5t-46 -3.5q-62 0 -106 19.5t-72.5 54.5t-42 83t-13.5 104q0 72 19 123t52.5 83.5t80 47.5t101.5 15q54 0 88 -9.5t47 -13.5v-114l-39 3l-12 69q-1 5 -2.5 7.5t-8.5 4.5q-11 4 -34 7.5t-48 3.5q-40 0 -75.5 -12.5t-61.5 -40
t-41 -70.5t-15 -103q0 -112 50.5 -165t137.5 -53q38 0 74.5 10.5t61.5 27.5z" />
    <glyph glyph-name="d" unicode="d" horiz-adv-x="587" 
d="M432 0l-6 71q-37 -34 -80.5 -58.5t-105.5 -24.5q-42 0 -76.5 14t-59.5 44.5t-38.5 78.5t-13.5 115q0 73 15 125.5t42.5 86.5t66 50t86.5 16q47 0 87.5 -17.5t72.5 -43.5v228q0 16 -13 20l-62 19l8 31h118v-693q0 -12 2.5 -15t13.5 -5l53 -7v-35h-110zM422 406
q-26 26 -70 48t-97 22q-40 0 -69 -16.5t-48 -47t-27.5 -74t-8.5 -96.5q0 -64 12 -105t31.5 -65t45.5 -33t53 -9q58 0 100.5 28t77.5 68v280z" />
    <glyph glyph-name="e" unicode="e" horiz-adv-x="502" 
d="M446 31q-29 -20 -72.5 -31.5t-94.5 -11.5q-66 0 -110 21t-70.5 57t-38 85t-11.5 105q0 67 17 116.5t46 81.5t68.5 48t85.5 16q42 0 77.5 -12.5t61.5 -40.5t40.5 -72.5t14.5 -107.5q0 -11 -0.5 -19t-1.5 -18h-359q1 -47 11.5 -86.5t32 -68.5t55.5 -45t83 -16q50 0 83 10.5
t63 27.5zM408 288q-1 100 -41 143.5t-102 43.5q-31 0 -59 -9t-50 -31t-36.5 -58t-17.5 -89h306z" />
    <glyph glyph-name="f" unicode="f" horiz-adv-x="385" 
d="M49 0v36l69 6q11 1 13.5 5t2.5 15v395q0 5 -1 7.5t-7 2.5h-76v41h84v93q0 78 37.5 121.5t124.5 43.5q27 0 51 -4t41 -15.5t27 -31t10 -51.5l-47 -7q0 42 -21.5 54t-62.5 12q-34 0 -55.5 -9t-34 -26t-17 -41t-4.5 -54v-75q0 -5 1 -7.5t7 -2.5h169v-41h-177v-405
q0 -12 2.5 -15.5t13.5 -4.5l114 -7v-35h-264z" />
    <glyph glyph-name="g" unicode="g" horiz-adv-x="527" 
d="M423 459q20 -22 30.5 -49t10.5 -64q0 -46 -15.5 -81.5t-42.5 -59.5t-64.5 -36t-81.5 -12q-27 0 -54 4.5t-44 12.5l-48 -98l225 -18q89 -7 129.5 -34.5t40.5 -91.5q0 -72 -60 -114.5t-191 -42.5q-62 0 -104.5 8.5t-68.5 24.5t-37 38.5t-11 51.5q0 40 21 70.5t56 62.5
q-49 3 -49 39q0 11 5 23t13 25l43 74q-29 20 -48.5 56t-19.5 84q0 86 55 136t152 50q24 0 45.5 -2.5t37.5 -7.5h171v-42zM415 336q0 69 -38.5 106t-111.5 37q-71 0 -114 -36t-43 -108q0 -28 8 -53.5t26.5 -44t48 -29.5t72.5 -11q35 0 63.5 10.5t48 29.5t30 44t10.5 55z
M164 24q-11 -10 -24 -23t-24 -28t-18.5 -31.5t-7.5 -33.5q0 -24 9 -41t30.5 -28t57 -16t87.5 -5q51 0 86 9t56.5 25t30.5 36t9 43q0 45 -31.5 61t-88.5 20z" />
    <glyph glyph-name="h" unicode="h" horiz-adv-x="633" 
d="M403 0v36l55 6q11 2 12.5 4.5t1.5 13.5v263q0 86 -30 118.5t-85 32.5q-30 0 -59.5 -10t-54.5 -23.5t-44 -28.5t-28 -24v-326q0 -12 2.5 -15t13.5 -5l63 -7v-35h-198v36l54 6q11 2 13.5 5.5t2.5 14.5v621q0 17 -13 21l-62 19l7 32h118v-318q44 35 87.5 58t102.5 23
q38 0 68 -9t50.5 -31t31 -60t10.5 -97v-259q0 -12 2.5 -15t13.5 -5l62 -7v-35h-197z" />
    <glyph glyph-name="i" unicode="i" horiz-adv-x="283" 
d="M180 687q0 -21 -12.5 -32t-34.5 -11q-46 0 -46 43q0 44 46 44q22 0 34.5 -11t12.5 -33zM29 0v36l77 6q11 2 13.5 5.5t2.5 14.5v374q0 17 -13 21l-59 19l7 32h114v-446q0 -12 2.5 -15t13.5 -5l75 -7v-35h-233z" />
    <glyph glyph-name="j" unicode="j" horiz-adv-x="268" 
d="M120 436q0 11 -1.5 15t-9.5 6l-71 19l7 32h124v-588q0 -74 -28 -108.5t-95 -34.5q-36 0 -65.5 11.5t-50.5 28.5l27 38q14 -11 38.5 -22.5t52.5 -11.5q47 0 59.5 27t12.5 80v508zM180 687q0 -43 -46 -43q-47 0 -47 43q0 44 47 44q46 0 46 -44z" />
    <glyph glyph-name="k" unicode="k" 
d="M369 0v37l62 8l-157 240l-103 -122v-101q0 -12 2.5 -15t13.5 -5l69 -7v-35h-221v36l71 6q11 2 13.5 5.5t2.5 14.5v621q0 17 -13 21l-62 19l7 32h117v-526l233 279h92v-33l-61 -14q-9 -3 -13.5 -5t-11.5 -10l-104 -122l169 -262q6 -9 10.5 -11.5t18.5 -4.5l55 -11v-35
h-190z" />
    <glyph glyph-name="l" unicode="l" horiz-adv-x="283" 
d="M35 0v36l71 6q11 1 13.5 5t2.5 15v621q0 17 -13 21l-62 19l7 32h117v-693q0 -12 2.5 -15t13.5 -5l69 -7v-35h-221z" />
    <glyph glyph-name="m" unicode="m" horiz-adv-x="928" 
d="M697 0v36l55 6q11 2 12.5 4.5t1.5 13.5v259q0 83 -21.5 119.5t-84.5 36.5q-48 0 -92 -21.5t-75 -45.5q6 -30 6 -71v-275q0 -12 2.5 -15t13.5 -5l54 -7v-35h-184v36l50 6q11 2 12.5 4.5t1.5 13.5v263q0 45 -4.5 74.5t-15.5 46.5t-29.5 24t-46.5 7q-33 0 -62.5 -9.5
t-53 -23t-40.5 -27t-26 -22.5v-331q0 -12 2.5 -15t13.5 -5l65 -7v-35h-200v36l54 6q11 2 13.5 5.5t2.5 14.5v375q0 17 -13 21l-59 19l7 31h104l7 -69q14 12 33.5 25.5t44.5 25.5t54 20t63 8q29 0 49.5 -6t34 -16t22 -23t13.5 -27q38 26 83.5 49t102.5 23q45 0 73.5 -14
t45 -39t23 -60.5t6.5 -79.5v-263q0 -12 2.5 -15t13.5 -5l62 -7v-35h-197z" />
    <glyph glyph-name="n" unicode="n" horiz-adv-x="633" 
d="M403 0v36l55 6q11 2 12.5 4.5t1.5 13.5v243q0 51 -7 84t-21.5 52.5t-35.5 27t-49 7.5q-32 0 -62.5 -10t-56 -24t-43.5 -28t-26 -22v-328q0 -12 2.5 -15t13.5 -5l63 -7v-35h-198v36l54 6q11 2 13.5 5.5t2.5 14.5v374q0 17 -13 21l-59 19l7 32h103l9 -69q18 14 39.5 28
t46.5 25.5t53.5 18.5t60.5 7q44 0 73.5 -13.5t47 -39t25 -61.5t7.5 -82v-260q0 -12 2.5 -15t13.5 -5l62 -7v-35h-197z" />
    <glyph glyph-name="o" unicode="o" horiz-adv-x="559" 
d="M278 -12q-60 0 -103.5 20t-71.5 55.5t-41 84.5t-13 107t14.5 106.5t44 83t74.5 54t106 19.5q60 0 102.5 -19t69 -53t39 -80.5t12.5 -102.5q0 -62 -14 -113t-42.5 -87t-72.5 -55.5t-104 -19.5zM281 29q90 0 134.5 58.5t44.5 167.5q0 107 -42 164t-132 57q-91 0 -139 -57.5
t-48 -164.5q0 -106 45.5 -165.5t136.5 -59.5z" />
    <glyph glyph-name="p" unicode="p" horiz-adv-x="591" 
d="M60 -212v36l42 6q11 2 13.5 5.5t2.5 14.5v586q0 17 -13 21l-59 19l7 32h101l8 -63q13 8 32 20.5t44 24t54.5 20t63.5 8.5q31 0 63.5 -9t59.5 -36.5t44 -77.5t17 -131q0 -49 -9 -98t-32 -88.5t-64 -64.5t-106 -25q-30 0 -56 7t-46.5 17t-35.5 20.5t-23 17.5v-201
q0 -12 2.5 -15.5t13.5 -4.5l87 -6v-35h-211zM168 104q27 -28 69.5 -50.5t93.5 -22.5q44 0 74.5 16.5t49 47t27 74.5t8.5 99q0 61 -10.5 100.5t-30 63t-46 33t-58.5 9.5q-26 0 -52.5 -8t-50.5 -19t-43.5 -23.5t-30.5 -21.5v-298z" />
    <glyph glyph-name="q" unicode="q" horiz-adv-x="567" 
d="M339 -212v35l66 7q11 1 13.5 4t2.5 16v219q-33 -36 -76.5 -58.5t-102.5 -22.5q-43 0 -78 14t-59.5 44t-38 78t-13.5 115q0 72 14.5 125t41.5 87t65 50.5t84 16.5q50 0 93.5 -17t75.5 -42l10 49h47q-5 -35 -7.5 -63t-2.5 -59v-536q0 -11 2.5 -14.5t13.5 -5.5l52 -6v-36
h-203zM424 410q-25 26 -70 46.5t-97 20.5q-81 0 -118 -63.5t-37 -170.5q0 -64 11.5 -105.5t31.5 -65.5t46 -33.5t55 -9.5q54 0 94.5 25t83.5 73v283z" />
    <glyph glyph-name="r" unicode="r" horiz-adv-x="415" 
d="M52 0v36l54 6q11 2 13.5 5.5t2.5 14.5v374q0 17 -13 21l-59 19l7 32h102l9 -65q32 27 70.5 51t85.5 24q17 0 32 -2.5t29 -6.5v-128l-36 3l-14 82q-1 5 -2.5 6.5t-9.5 1.5q-22 0 -44.5 -8.5t-43 -20.5t-37 -26t-27.5 -25v-333q0 -12 2.5 -15t13.5 -5l89 -6v-35h-224z" />
    <glyph glyph-name="s" unicode="s" horiz-adv-x="441" 
d="M343 377l-12 74q-1 4 -2.5 7t-8.5 6q-11 4 -36 8.5t-53 4.5q-34 0 -58 -8t-39 -21.5t-22 -31.5t-7 -37q0 -25 10.5 -42t28.5 -28t41.5 -18.5t48.5 -13.5q29 -7 57.5 -16.5t52 -25.5t38 -41t14.5 -63q0 -41 -16.5 -68.5t-43 -44t-59.5 -23.5t-67 -7q-28 0 -56 3.5t-51 9
t-40 11t-24 8.5v114l37 -2l11 -70q1 -4 2.5 -7t8.5 -5q11 -4 41.5 -12t75.5 -8q59 0 94 23.5t35 77.5q0 26 -10.5 43t-27.5 28.5t-39.5 18.5t-46.5 13q-31 8 -60.5 16.5t-52.5 23.5t-37 39t-14 62q0 40 16.5 67.5t43 44t59.5 24t67 7.5q25 0 47.5 -3t40.5 -7.5t31 -8.5
t19 -7v-118z" />
    <glyph glyph-name="t" unicode="t" horiz-adv-x="391" 
d="M358 16q-26 -12 -55.5 -20t-64.5 -8q-60 0 -91 30t-31 84v355q0 5 -1 7.5t-7 2.5h-74v30q27 4 43.5 11t27 21t16 37t10.5 59h35v-107q0 -5 1 -7.5t7 -2.5h150v-41h-158v-341q0 -49 17.5 -72t62.5 -23q26 0 50.5 7.5t46.5 16.5z" />
    <glyph glyph-name="u" unicode="u" horiz-adv-x="625" 
d="M472 0l-7 79q-16 -15 -37 -31.5t-46.5 -29.5t-55.5 -21.5t-65 -8.5q-42 0 -70 13t-44.5 37.5t-23 59t-6.5 76.5v261q0 12 -2.5 17.5t-13.5 7.5l-54 17l7 31h112v-327q0 -37 4.5 -65.5t16 -47.5t32 -29t52.5 -10q30 0 57.5 9.5t52.5 24.5t46 33t38 35v305q0 12 -2.5 17
t-13.5 7l-57 17l6 31h116v-445q0 -11 2.5 -15.5t9.5 -5.5l57 -7v-35h-111z" />
    <glyph glyph-name="v" unicode="v" horiz-adv-x="548" 
d="M251 0l-176 448q-2 9 -7 12t-14 5l-43 9l9 34h173v-34l-72 -8l160 -420l157 420l-69 8l10 34h157v-34l-31 -6q-11 -2 -16 -5t-9 -12l-173 -451h-56z" />
    <glyph glyph-name="w" unicode="w" horiz-adv-x="814" 
d="M534 0l-118 443l-128 -443h-61l-152 448q-3 9 -7.5 12t-13.5 5l-43 9l9 34h173v-34l-69 -8l135 -419l126 446h64l121 -443l128 416l-70 8l9 34h165v-34l-36 -6q-15 -2 -19 -6t-7 -14q-20 -69 -32.5 -110t-22 -68t-17 -47t-16.5 -46.5t-22 -67.5t-34 -109h-62z" />
    <glyph glyph-name="x" unicode="x" horiz-adv-x="555" 
d="M338 0v35l73 9l-141 186l-137 -186l71 -9v-35h-195v35l58 12q8 2 12.5 5t10.5 11l150 200l-137 183q-6 8 -10.5 11t-13.5 6l-46 11l10 34h174v-34l-71 -8l127 -169l130 169l-70 8l10 34h172v-34l-48 -10q-9 -3 -14 -7t-11 -12l-141 -179l154 -201q7 -8 12 -12t14 -6
l64 -12v-35h-207z" />
    <glyph glyph-name="y" unicode="y" horiz-adv-x="556" 
d="M89 -212v36l71 7q9 1 12 5.5t8 15.5l69 161l-176 434q-4 9 -8 12t-13 5l-41 10l9 34h171v-34l-69 -8l156 -395l160 395l-70 8l9 34h167v-34l-34 -5q-19 -3 -25 -17l-260 -621l92 -8v-35h-228z" />
    <glyph glyph-name="z" unicode="z" horiz-adv-x="467" 
d="M41 0v32l324 433h-244q-6 0 -8 -4t-3 -9l-12 -72l-39 -2v130h373v-33l-325 -432h262q6 0 8 4t3 9l12 81l39 3v-140h-390z" />
    <glyph glyph-name="braceleft" unicode="{" horiz-adv-x="262" 
d="M225 -145q-67 10 -100.5 34t-33.5 83q0 20 2 45.5t4.5 51.5t4.5 51.5t2 46.5q0 32 -8 51.5t-21.5 30t-30.5 14t-35 3.5v45q18 0 35 3.5t30.5 14t21.5 30t8 51.5q0 21 -2 47t-4.5 53t-4.5 53t-2 47q0 59 33.5 83t100.5 34l10 -41q-27 -6 -46 -11t-30 -12t-16 -18.5
t-5 -30.5q0 -42 6 -98t6 -109q0 -32 -6.5 -52.5t-16.5 -34t-23 -20.5t-26 -12q13 -5 26 -12t23 -20t16.5 -33.5t6.5 -52.5q0 -53 -6 -107t-6 -95q0 -19 5 -30.5t16 -18.5t30 -12t46 -11z" />
    <glyph glyph-name="bar" unicode="|" horiz-adv-x="280" 
d="M118 -143v898h44v-898h-44z" />
    <glyph glyph-name="braceright" unicode="}" horiz-adv-x="262" 
d="M19 727q68 -10 101 -34t33 -83q0 -20 -2 -45t-4.5 -51.5t-4.5 -52t-2 -46.5q0 -32 8 -51.5t21.5 -30t30.5 -14t35 -3.5v-45q-18 0 -35 -3.5t-30.5 -14t-21.5 -30t-8 -51.5q0 -21 2 -47t4.5 -53t4.5 -53t2 -47q0 -59 -33 -83t-101 -34l-10 41q27 6 46 11t30 12t16 18.5
t5 30.5q0 42 -6 98t-6 109q0 32 6.5 52.5t16.5 34t23 20.5t26 12q-13 5 -26 12t-23 20t-16.5 33.5t-6.5 52.5q0 53 6 107t6 95q0 19 -5 30.5t-16 18.5t-30 12t-46 11z" />
    <glyph glyph-name="asciitilde" unicode="~" horiz-adv-x="452" 
d="M440 388q-5 -16 -11 -32t-15.5 -29t-24.5 -20.5t-38 -7.5q-27 0 -58 7t-61.5 16t-59 16t-50.5 7q-24 0 -38 -14.5t-33 -42.5l-35 14q21 38 42.5 61.5t64.5 23.5q29 0 58.5 -7t58.5 -16t56.5 -16t51.5 -7q26 0 35.5 15t19.5 43z" />
    <glyph glyph-name="uni00A0" unicode="&#xa0;" horiz-adv-x="236" 
 />
    <glyph glyph-name="sterling" unicode="&#xa3;" horiz-adv-x="545" 
d="M50 0l-11 37q32 28 48.5 55.5t23.5 57.5t7 64.5v77.5v18h-87v42h87v79q0 47 11 86t35 67t62 43t92 15q31 0 59 -5t49 -20t33 -41t12 -68l-47 -6q0 59 -30 79t-81 20q-37 0 -65 -9t-46 -30.5t-27 -56.5t-9 -87v-66h208v-42h-208v-43q0 -36 -1.5 -66t-8 -57t-19.5 -51.5
t-36 -49.5h301q8 0 11.5 1.5t5.5 9.5l16 91h38v-145h-423z" />
    <glyph glyph-name="currency" unicode="&#xa4;" 
d="M520 11l-96 93q-26 -20 -61.5 -32.5t-78.5 -12.5q-48 0 -83 12.5t-61 34.5l-94 -95l-38 36l97 97q-20 29 -28 63.5t-8 73.5q0 35 9 67.5t29 60.5l-96 95l42 39l92 -93q27 24 63.5 38t83.5 14q89 0 145 -48l88 88l37 -37l-90 -92q34 -53 34 -128q0 -38 -10 -73.5
t-32 -66.5l97 -96zM289 104q38 0 68 13.5t50.5 37.5t31.5 56.5t11 69.5q0 81 -42.5 127.5t-121.5 46.5q-38 0 -68 -13t-51 -36t-32 -55t-11 -70q0 -37 10.5 -69.5t31 -56.5t51.5 -37.5t72 -13.5z" />
    <glyph glyph-name="brokenbar" unicode="&#xa6;" horiz-adv-x="280" 
d="M118 -143v388h44v-388h-44zM118 412v343h44v-343h-44z" />
    <glyph glyph-name="section" unicode="&#xa7;" horiz-adv-x="534" 
d="M89 10l39 -2l12 -74q1 -5 2.5 -9t8.5 -6q11 -4 42 -11t63 -7q54 0 85 23.5t31 71.5q0 32 -13 51.5t-34 31.5t-47.5 19.5t-54.5 14.5q-26 7 -51.5 16t-45 25t-31.5 39.5t-12 58.5q0 43 21.5 75.5t56.5 57.5q-24 17 -38 39.5t-14 60.5t14.5 64.5t38.5 43t55.5 24t66.5 7.5
q56 0 91.5 -10.5t49.5 -15.5v-118l-40 2l-12 74q-1 3 -2 6.5t-8 5.5q-11 4 -33.5 9t-53.5 5q-33 0 -55 -8t-35.5 -20.5t-19.5 -28.5t-6 -31q0 -31 14 -50t36.5 -30.5t50.5 -19t57 -16.5q26 -7 50 -17.5t42.5 -26.5t29.5 -38.5t11 -55.5q0 -45 -24 -78.5t-53 -54.5
q23 -16 37 -39.5t14 -60.5q0 -44 -16 -72.5t-40.5 -45.5t-55.5 -24t-61 -7q-25 0 -52 4t-49.5 9t-39 10.5t-22.5 8.5v120zM204 364q-35 -15 -51.5 -47t-16.5 -60q0 -40 22.5 -62t64.5 -35q26 -8 55.5 -16t55.5 -19q29 18 45.5 47.5t16.5 67.5q0 24 -8 40t-22.5 27.5
t-33.5 19t-41 13.5q-21 5 -43 10.5t-44 13.5z" />
    <glyph glyph-name="dieresis" unicode="&#xa8;" horiz-adv-x="500" 
d="M197 656q0 -20 -12.5 -32t-33.5 -12q-20 0 -32.5 12t-12.5 32t12.5 32t32.5 12q21 0 33.5 -12t12.5 -32zM394 656q0 -20 -13 -32t-33 -12t-32.5 12t-12.5 32t12.5 32t32.5 12t33 -12t13 -32z" />
    <glyph glyph-name="copyright" unicode="&#xa9;" horiz-adv-x="757" 
d="M708 319q0 -74 -24 -134.5t-67.5 -104t-104 -67.5t-134.5 -24q-82 0 -143.5 24.5t-103 67t-62 100t-20.5 124.5q0 77 26 138t70.5 103.5t105 65t129.5 22.5q77 0 137.5 -22.5t103 -63.5t65 -99t22.5 -130zM380 25q66 0 119 20t89.5 57.5t56.5 91t20 119.5q0 70 -21 123
t-59 89t-90.5 54.5t-114.5 18.5q-61 0 -114 -19.5t-91 -57t-60 -92t-22 -123.5q0 -65 20 -117t57 -88.5t90 -56t120 -19.5zM504 144q-20 -12 -52 -18t-62 -6q-51 0 -86.5 14.5t-58 41t-33 62t-10.5 77.5t12 78t36 61.5t59.5 40t83.5 14.5q31 0 62.5 -6.5t49.5 -13.5v-101
l-36 4l-9 52q-1 10 -11 14q-11 5 -27.5 8.5t-38.5 3.5q-25 0 -48.5 -8t-42 -26.5t-29.5 -48.5t-11 -74q0 -67 34 -111t104 -44q19 0 34 3.5t25 7.5q5 2 6 4t3 5l15 62h31v-96z" />
    <glyph glyph-name="guillemotleft" unicode="&#xab;" horiz-adv-x="428" 
d="M160 103l-89 158l89 147h54l-71 -135q-4 -7 -4 -10t3 -9l72 -151h-54zM310 103l-89 158l89 147h54l-71 -135q-4 -7 -4 -10t3 -9l72 -151h-54z" />
    <glyph glyph-name="logicalnot" unicode="&#xac;" 
d="M421 206v97h-320v50h370v-147h-50z" />
    <glyph glyph-name="uni00AD" unicode="&#xad;" horiz-adv-x="311" 
d="M20 262v51h271v-51h-271z" />
    <glyph glyph-name="registered" unicode="&#xae;" horiz-adv-x="446" 
d="M406 480q0 -41 -13.5 -74.5t-37.5 -57.5t-58 -37t-75 -13q-45 0 -79.5 13.5t-57 36.5t-34 55.5t-11.5 69.5q0 43 14.5 77t39 57.5t58 36t71.5 12.5q85 0 134 -47.5t49 -128.5zM369 477q0 72 -41.5 109t-104.5 37q-30 0 -56.5 -10t-46 -29t-31 -47t-11.5 -63
q0 -67 39 -105t106 -38q68 0 107 39t39 107zM244 384v17l17 1l-29 50q-2 4 -5.5 6.5t-11.5 2.5h-20v-52q0 -3 0.5 -4t5.5 -2l16 -2v-17h-74v17l16 2q5 1 5 7v137q0 7 -4 8.5t-17 1.5v18h86q39 0 51.5 -16.5t12.5 -37.5q0 -38 -39 -54q5 -2 7.5 -6t7.5 -11l24 -40q2 -5 8 -6
l18 -3v-17h-75zM214 485q21 0 33.5 7t12.5 29q0 31 -38 31h-27v-67h19z" />
    <glyph glyph-name="macron" unicode="&#xaf;" horiz-adv-x="500" 
d="M99 620v47h301v-47h-301z" />
    <glyph glyph-name="degree" unicode="&#xb0;" horiz-adv-x="299" 
d="M151 607q52 0 52 58q0 57 -52 57q-25 0 -39.5 -14.5t-14.5 -46.5q0 -54 54 -54zM246 665q0 -46 -25 -71t-70 -25q-46 0 -72 24t-26 68q0 50 28 74.5t70 24.5t68.5 -23.5t26.5 -71.5z" />
    <glyph glyph-name="plusminus" unicode="&#xb1;" 
d="M100 0v50h371v-50h-371zM255 137v160h-156v50h156v158h56v-158h156v-50h-156v-160h-56z" />
    <glyph glyph-name="mu" unicode="&#xb5;" horiz-adv-x="629" 
d="M114 508h49v-336q0 -41 5 -68t16 -42.5t29 -21.5t43 -6q29 0 58 8.5t56 22.5t50.5 31t40.5 33v379h49v-445q0 -20 13 -21l56 -7v-35h-111l-10 72q-15 -10 -38 -24.5t-51 -28t-60 -22.5t-65 -9q-32 0 -51 10t-33 30l2 -204h-48v684z" />
    <glyph glyph-name="paragraph" unicode="&#xb6;" horiz-adv-x="536" 
d="M381 -133v731h-123v-731h-128v35l69 8q7 1 9 3.5t2 10.5v250q-45 5 -82.5 22.5t-64.5 46.5t-42 69t-15 89q0 67 22.5 113.5t60 75.5t87 42t104.5 13h231v-35l-67 -8q-11 -2 -13.5 -5t-2.5 -14v-659q0 -8 3 -10t13 -4l67 -8v-35h-130z" />
    <glyph glyph-name="periodcentered" unicode="&#xb7;" horiz-adv-x="163" 
d="M133 297q0 -52 -52 -52q-24 0 -38 13t-14 39t14 39t38 13q52 0 52 -52z" />
    <glyph glyph-name="cedilla" unicode="&#xb8;" horiz-adv-x="500" 
d="M150 -178q15 -3 35 -3q78 0 78 56q0 21 -14.5 35t-60.5 15l15 105l40 -6l-9 -66q36 -8 57 -27.5t21 -53.5q0 -16 -6 -33.5t-20.5 -31.5t-38 -23.5t-58.5 -9.5q-11 0 -21.5 1t-23.5 3z" />
    <glyph glyph-name="guillemotright" unicode="&#xbb;" horiz-adv-x="429" 
d="M64 103l72 140q4 7 4 10t-3 9l-71 146h54l88 -153l-90 -152h-54zM214 103l72 140q4 7 4 10t-3 9l-71 146h54l88 -153l-90 -152h-54z" />
    <glyph glyph-name="multiply" unicode="&#xd7;" 
d="M282 291l-113 -116l-34 33l113 116l-109 113l36 34l109 -112l109 112l35 -32l-110 -113l116 -118l-37 -35z" />
    <glyph glyph-name="divide" unicode="&#xf7;" 
d="M331 174q0 -26 -14 -39t-40 -13q-53 0 -53 52q0 29 13.5 41.5t39.5 12.5t40 -12.5t14 -41.5zM99 294l-3 51h371l3 -51h-371zM331 473q0 -27 -14 -40t-40 -13q-53 0 -53 53q0 54 53 54q26 0 40 -13t14 -41z" />
    <glyph glyph-name="florin" unicode="&#x192;" horiz-adv-x="472" 
d="M233 334l-45 -259q-6 -37 -15 -65.5t-24.5 -47.5t-39.5 -28.5t-60 -9.5q-32 0 -64.5 9t-46.5 20l18 35q13 -8 42 -16.5t58 -8.5q32 0 51.5 22t26.5 62l49 277q1 5 0.5 7.5t-6.5 2.5h-95l7 42h103l21 109q7 37 18.5 66t30.5 49.5t46.5 31t66.5 10.5q48 0 73.5 -11
t31.5 -14l-19 -115l-34 2l-2 76q0 4 -1 7.5t-7 5.5q-8 3 -19.5 5t-28.5 2q-28 0 -46.5 -9.5t-31 -26t-20 -38.5t-12.5 -48l-18 -92q-1 -5 0 -7.5t7 -2.5h156l-8 -42h-163z" />
    <glyph glyph-name="circumflex" unicode="&#x2c6;" horiz-adv-x="500" 
d="M374 581l-124 105l-123 -107l-30 26l118 121h70l120 -120z" />
    <glyph glyph-name="caron" unicode="&#x2c7;" horiz-adv-x="500" 
d="M211 574l-114 120l31 27l121 -107l125 106l29 -26l-122 -120h-70z" />
    <glyph glyph-name="uni02C9" unicode="&#x2c9;" horiz-adv-x="500" 
d="M99 620v47h301v-47h-301z" />
    <glyph glyph-name="breve" unicode="&#x2d8;" horiz-adv-x="500" 
d="M396 704q-8 -28 -19 -52t-28.5 -41.5t-42 -27.5t-58.5 -10q-68 0 -99.5 36t-44.5 95l42 14q12 -52 33.5 -78.5t69.5 -26.5q47 0 69.5 28.5t38.5 76.5z" />
    <glyph glyph-name="dotaccent" unicode="&#x2d9;" horiz-adv-x="500" 
d="M296 686q0 -43 -46 -43q-22 0 -34.5 11t-12.5 32q0 22 12.5 33.5t34.5 11.5q46 0 46 -45z" />
    <glyph glyph-name="ring" unicode="&#x2da;" horiz-adv-x="500" 
d="M354 705q0 -42 -24.5 -62t-67.5 -20q-42 0 -66 19.5t-24 60.5q0 42 26 63t64 21q40 0 66 -18.5t26 -63.5zM262 659q25 0 37 12.5t12 33.5t-12.5 34t-36.5 13q-21 0 -34.5 -13t-13.5 -36q0 -20 11.5 -32t36.5 -12z" />
    <glyph glyph-name="ogonek" unicode="&#x2db;" horiz-adv-x="500" 
d="M320 -189q-15 -8 -35 -13t-40 -5q-33 0 -56 17t-23 55q0 24 10.5 46t26.5 41.5t34 36t34 29.5l43 -10q-13 -11 -30 -26t-32 -33t-25 -37.5t-10 -39.5q0 -17 9.5 -27.5t27.5 -10.5q13 0 28 3.5t26 8.5z" />
    <glyph glyph-name="tilde" unicode="&#x2dc;" horiz-adv-x="500" 
d="M392 636q-18 -24 -36.5 -33.5t-47.5 -2.5l-133 35q-10 3 -16 -3l-43 -42l-28 21l24 34q17 22 34 30t46 1l135 -36q10 -3 16 3l41 41l28 -19z" />
    <glyph glyph-name="hungarumlaut" unicode="&#x2dd;" horiz-adv-x="500" 
d="M107 574l-27 21l131 179l49 -41zM262 574l-28 21l133 177l49 -39z" />
    <glyph glyph-name="uni0394" unicode="&#x394;" horiz-adv-x="639" 
d="M34 0l251 724h65l254 -724h-570zM101 42h431l-216 645z" />
    <glyph glyph-name="uni03A9" unicode="&#x3a9;" horiz-adv-x="839" 
d="M512 0v120q28 11 61.5 35.5t63 62t49 88t19.5 114.5q0 134 -73 204t-200 70q-64 0 -117.5 -18.5t-92 -55.5t-60 -92t-21.5 -128q0 -62 16.5 -108.5t44 -80t62.5 -56t72 -35.5v-120h-269v149h39l16 -94q2 -8 5 -9.5t11 -1.5h149v56q-51 18 -88.5 49t-61.5 70t-36 84.5
t-12 93.5q0 76 24 138.5t68.5 107.5t108.5 69.5t144 24.5q83 0 144 -24.5t100.5 -67t58.5 -100t19 -124.5q0 -52 -14 -100t-40 -89.5t-62 -74.5t-80 -57v-56h140q8 0 11 1.5t5 9.5l17 94h39v-149h-260z" />
    <glyph glyph-name="uni03BC" unicode="&#x3bc;" horiz-adv-x="629" 
d="M114 508h49v-336q0 -41 5 -68t16 -42.5t29 -21.5t43 -6q29 0 58 8.5t56 22.5t50.5 31t40.5 33v379h49v-445q0 -20 13 -21l56 -7v-35h-111l-10 72q-15 -10 -38 -24.5t-51 -28t-60 -22.5t-65 -9q-32 0 -51 10t-33 30l2 -204h-48v684z" />
    <glyph glyph-name="pi" unicode="&#x3c0;" horiz-adv-x="663" 
d="M471 0v457h-293v-457h-117v35l52 7q16 1 16 11v394q0 11 -2.5 15t-13.5 5l-66 7v34h560v-34l-71 -8q-11 -2 -13.5 -5t-2.5 -14v-385q0 -12 2.5 -15t13.5 -5l52 -7v-35h-117z" />
    <glyph glyph-name="afii10023" unicode="&#x401;" horiz-adv-x="638" 
d="M280 826q0 -20 -12.5 -32t-33.5 -12q-20 0 -32.5 12t-12.5 32t12.5 32t32.5 12q21 0 33.5 -12t12.5 -32zM477 826q0 -20 -13 -32t-33 -12t-32.5 12t-12.5 32t12.5 32t32.5 12t33 -12t13 -32zM77 0v33l63 7q11 2 13.5 5.5t2.5 14.5v603q0 11 -2.5 15t-13.5 5l-63 7v34h481
v-137l-39 2l-14 81q-3 13 -17 13h-284v-296h290v-41h-290v-304h306q8 0 11 1.5t5 9.5l16 88h38v-141h-503z" />
    <glyph glyph-name="afii10051" unicode="&#x402;" horiz-adv-x="797" 
d="M489 36q12 -3 27.5 -4t29.5 -1q71 0 111.5 38.5t40.5 127.5q0 48 -16 80t-43 52t-61 28.5t-70 8.5q-53 0 -96.5 -6.5t-82.5 -14.5v-345h-137v36l73 7q11 1 13.5 5t2.5 15v620h-180q-8 0 -11 -1.5t-5 -9.5l-16 -89l-37 -3v144h588v-144l-37 3l-16 89q-2 8 -5 9.5t-11 1.5
h-222v-295q32 5 77 13t106 8q113 0 175 -55.5t62 -157.5q0 -97 -51 -152.5t-155 -55.5q-40 0 -75 8.5t-49 15.5v116h37l15 -73q2 -10 5 -13t13 -6z" />
    <glyph glyph-name="afii10052" unicode="&#x403;" horiz-adv-x="574" 
d="M246 766l-21 27l176 133l37 -50zM77 0v35l63 7q11 2 13.5 5.5t2.5 14.5v601q0 11 -2.5 15t-13.5 5l-63 7v34h455v-157l-39 2l-14 101q-3 13 -17 13h-258v-620q0 -12 2.5 -15t13.5 -5l147 -8v-35h-290z" />
    <glyph glyph-name="afii10053" unicode="&#x404;" horiz-adv-x="680" 
d="M112 341q5 -150 78.5 -229t207.5 -79q42 0 88 5t80 22q9 5 12 16l16 88h34v-125q-38 -27 -101 -39t-132 -12q-90 0 -153.5 28.5t-104 80t-59 122t-18.5 154.5q0 77 22 143.5t65.5 115.5t109 77t153.5 28q69 0 125 -14.5t91 -37.5v-134l-38 2l-17 93q-2 8 -5 12t-12 8
q-30 12 -68 19t-81 7q-134 0 -211.5 -80.5t-82.5 -229.5h344v-41h-343z" />
    <glyph glyph-name="afii10054" unicode="&#x405;" horiz-adv-x="578" 
d="M456 559l-21 98l-3.5 10.5t-7.5 7.5q-10 5 -33.5 11.5t-73.5 6.5q-94 0 -138 -38.5t-44 -103.5q0 -44 18.5 -71t48.5 -45t68 -29.5t77 -24.5q33 -11 63 -25.5t53.5 -37t37 -54.5t13.5 -78q0 -55 -20.5 -93t-55 -61.5t-80.5 -33.5t-97 -10q-35 0 -66.5 4t-57.5 9.5
t-45 11.5t-29 11v140h34l19 -88q2 -10 3.5 -14t10.5 -8q13 -5 47.5 -13.5t88.5 -8.5q88 0 141 37t53 116q0 47 -19 75.5t-50 47t-69.5 30.5t-77.5 25q-33 11 -62.5 25t-52 35t-35.5 51.5t-13 73.5q0 51 19 86.5t51.5 58.5t76.5 33.5t93 10.5q63 0 107.5 -11.5t64.5 -18.5
v-153z" />
    <glyph glyph-name="afii10055" unicode="&#x406;" horiz-adv-x="383" 
d="M82 0v35l73 7q11 2 13.5 5.5t2.5 14.5v600q0 11 -2.5 15t-13.5 5l-73 7v35h231v-35l-77 -8q-11 -2 -13.5 -5t-2.5 -14v-599q0 -12 2.5 -15t13.5 -5l77 -8v-35h-231z" />
    <glyph glyph-name="afii10056" unicode="&#x407;" horiz-adv-x="391" 
d="M144 826q0 -20 -12.5 -32t-33.5 -12q-20 0 -32.5 12t-12.5 32t12.5 32t32.5 12q21 0 33.5 -12t12.5 -32zM341 826q0 -20 -13 -32t-33 -12t-32.5 12t-12.5 32t12.5 32t32.5 12t33 -12t13 -32zM82 0v35l73 7q11 2 13.5 5.5t2.5 14.5v600q0 11 -2.5 15t-13.5 5l-73 7v35h231
v-35l-77 -8q-11 -2 -13.5 -5t-2.5 -14v-599q0 -12 2.5 -15t13.5 -5l77 -8v-35h-231z" />
    <glyph glyph-name="afii10057" unicode="&#x408;" horiz-adv-x="494" 
d="M314 663q0 11 -3 14.5t-13 4.5l-82 7v35h229v-35l-67 -8q-11 -2 -13.5 -4.5t-2.5 -13.5v-527q0 -76 -35 -112t-113 -36q-57 0 -97 11.5t-52 19.5v110l39 -2l10 -67q1 -4 2.5 -7.5t9.5 -6.5q8 -5 30.5 -11.5t57.5 -6.5q61 0 80.5 29.5t19.5 88.5v517z" />
    <glyph glyph-name="afii10058" unicode="&#x409;" horiz-adv-x="1012" 
d="M289 682q2 -129 -2 -229t-13 -186q-7 -66 -22 -114.5t-40 -82t-61 -53.5t-86 -28l-12 46q37 7 64 19t46 33t32 52.5t22 77.5q6 30 11.5 81t8.5 112.5t4 127t-1 124.5q-1 11 -3 15t-13 5l-63 7v35h526v-35l-103 -8q-11 -1 -13.5 -4.5t-2.5 -15.5v-237h145q52 0 96.5 -9.5
t76.5 -32.5t50.5 -62.5t18.5 -99.5q0 -48 -13 -88t-42 -69.5t-77 -46t-117 -16.5h-264v34l63 7q11 1 13.5 5t2.5 15v621h-232zM568 383v-342h134q102 0 151.5 41t49.5 138q0 52 -16 84t-42 49.5t-60 23.5t-70 6h-147z" />
    <glyph glyph-name="afii10059" unicode="&#x40a;" horiz-adv-x="1015" 
d="M716 396q52 0 96.5 -8.5t76.5 -30t50.5 -58.5t18.5 -93q0 -44 -13 -81.5t-42 -65.5t-77 -43.5t-117 -15.5h-253v35l63 7q11 2 13.5 5.5t2.5 14.5v292h-331v-291q0 -12 2.5 -15t13.5 -5l67 -8v-35h-210v35l63 7q11 2 13.5 5.5t2.5 14.5v600q0 11 -2.5 15t-13.5 5l-63 7v35
h210v-35l-67 -8q-11 -2 -13.5 -5t-2.5 -14v-266h331v266q0 11 -2.5 15t-13.5 5l-63 7v35h210v-35l-67 -8q-11 -2 -13.5 -5t-2.5 -14v-266h133zM583 353v-312h122q103 0 152 37t49 128q0 48 -16 77t-42 44.5t-60 20.5t-70 5h-135z" />
    <glyph glyph-name="afii10060" unicode="&#x40b;" horiz-adv-x="824" 
d="M667 233q0 39 -5.5 69.5t-20.5 50.5t-42 30.5t-71 10.5q-22 0 -49 -2.5t-54 -6.5t-52 -10t-44 -12v-300q0 -11 2.5 -14t13.5 -5l60 -8v-36h-213v36l73 7q11 1 13.5 5t2.5 15v620h-180q-8 0 -11 -1.5t-5 -9.5l-16 -89l-37 -3v144h588v-144l-37 3l-16 89q-2 8 -5 9.5
t-11 1.5h-222v-278q46 14 98.5 22.5t99.5 8.5q45 0 80 -8.5t59 -29.5t36.5 -56.5t12.5 -89.5v-189q0 -11 2.5 -14t13.5 -5l60 -8v-36h-223v36l83 7q11 1 13.5 5t2.5 15v170z" />
    <glyph glyph-name="afii10061" unicode="&#x40c;" horiz-adv-x="693" 
d="M341 766l-21 27l176 133l37 -50zM204 63q0 -12 2.5 -15t13.5 -5l67 -8v-35h-210v35l63 7q11 2 13.5 5.5t2.5 14.5v600q0 11 -2.5 15t-13.5 5l-63 7v35h210v-35l-67 -8q-11 -2 -13.5 -5t-2.5 -14v-270h95q43 0 68 26t44 80l57 159q14 38 37 59t65 21q11 0 25.5 -2t25.5 -5
l-5 -40q-21 4 -39 4q-26 0 -40.5 -13t-25.5 -43l-56 -159q-14 -38 -34.5 -65.5t-59.5 -41.5q35 -11 53.5 -35.5t34.5 -53.5l119 -220q6 -11 10.5 -14t15.5 -5l64 -9v-35h-117q-15 33 -35 72.5t-39.5 77t-37 69t-28.5 48.5q-15 25 -27 41t-25 25.5t-30 13t-42 3.5h-73v-287z
" />
    <glyph glyph-name="afii10062" unicode="&#x40e;" horiz-adv-x="633" 
d="M475 890q-6 -18 -15.5 -37t-26 -34.5t-42 -26t-62.5 -10.5t-62.5 8.5t-42.5 23.5t-26.5 34.5t-14.5 41.5l43 14q7 -19 14.5 -33.5t19 -24.5t28.5 -15.5t44 -5.5t44.5 7.5t29 19t18 25.5t11.5 27zM438 689l10 35h175v-35l-39 -10q-17 -5 -22.5 -12t-11.5 -22l-201 -502
q-15 -37 -28.5 -65.5t-31 -48.5t-41 -30.5t-58.5 -10.5q-32 0 -61.5 7t-51.5 20l19 41q16 -9 41 -17t54 -8q24 0 40 8t27.5 22t21 35t19.5 46l-220 519q-4 9 -9.5 12t-14.5 5l-43 11l10 35h190v-35l-86 -9l197 -482h2l188 483z" />
    <glyph glyph-name="afii10145" unicode="&#x40f;" horiz-adv-x="765" 
d="M437 0q-12 0 -13 -13l-16 -142l-34 3l-16 139q-1 13 -13 13h-268v35l63 7q11 1 13.5 5t2.5 15v600q0 11 -2.5 14.5t-13.5 5.5l-63 7v35h210v-35l-67 -8q-11 -2 -13.5 -5t-2.5 -15v-619h358v620q0 11 -2.5 14.5t-13.5 5.5l-63 7v35h210v-35l-67 -8q-11 -2 -13.5 -5
t-2.5 -15v-599q0 -11 2.5 -14t13.5 -5l67 -8v-35h-256z" />
    <glyph glyph-name="afii10017" unicode="&#x410;" horiz-adv-x="681" 
d="M470 0v35l83 9l-65 199h-302l-66 -199l81 -9v-35h-190v36l43 11q8 2 14.5 6t9.5 13l224 658h70l229 -661q3 -9 8 -12t14 -5l47 -11v-35h-200zM337 687l-135 -400h269z" />
    <glyph glyph-name="afii10018" unicode="&#x411;" horiz-adv-x="668" 
d="M203 355v-314h158q103 0 152 37t49 128q0 48 -16 77.5t-42 45t-60 21t-70 5.5h-171zM543 724v-157l-39 2l-14 101q-3 13 -17 13h-270v-287h169q52 0 96.5 -8.5t76.5 -30t50.5 -58.5t18.5 -93q0 -44 -13 -81.5t-42 -65.5t-77 -43.5t-117 -15.5h-288v34l63 7q11 1 13.5 5
t2.5 15v601q0 11 -2.5 14.5t-13.5 5.5l-63 7v35h466z" />
    <glyph glyph-name="afii10019" unicode="&#x412;" horiz-adv-x="668" 
d="M77 0v33l63 7q11 2 13.5 5.5t2.5 14.5v603q0 11 -2.5 15t-13.5 5l-63 7v34h272q64 0 106 -13.5t66.5 -37.5t34 -56.5t9.5 -69.5q0 -36 -11 -63.5t-28.5 -48t-39.5 -34.5t-45 -23q86 -10 129.5 -59.5t43.5 -124.5q0 -55 -19.5 -92.5t-54.5 -60t-83.5 -32t-107.5 -9.5h-272
zM348 42q45 0 84 5.5t68 21.5t46 45.5t17 78.5q0 41 -14.5 70.5t-40.5 48.5t-60.5 28.5t-75.5 9.5h-169v-308h145zM324 392q32 0 65 6.5t60 23.5t44.5 46.5t17.5 75.5q0 75 -40.5 107t-131.5 32h-136v-291h121z" />
    <glyph glyph-name="afii10020" unicode="&#x413;" horiz-adv-x="574" 
d="M77 0v35l63 7q11 2 13.5 5.5t2.5 14.5v601q0 11 -2.5 15t-13.5 5l-63 7v34h455v-157l-39 2l-14 101q-3 13 -17 13h-258v-620q0 -12 2.5 -15t13.5 -5l147 -8v-35h-290z" />
    <glyph glyph-name="afii10021" unicode="&#x414;" horiz-adv-x="753" 
d="M115 0q-16 0 -17 -13l-17 -142l-36 -2v199h62q31 43 54.5 91t39 110t23.5 142.5t8 188.5v88q0 11 -2.5 15t-13.5 5l-63 7v35h527v-35l-67 -8q-11 -2 -13.5 -5t-2.5 -14v-620h91v-199l-36 2l-17 142q-1 13 -17 13h-503zM549 42v640h-267v-82q0 -214 -31 -349t-90 -209h388
z" />
    <glyph glyph-name="afii10022" unicode="&#x415;" horiz-adv-x="638" 
d="M77 0v33l63 7q11 2 13.5 5.5t2.5 14.5v603q0 11 -2.5 15t-13.5 5l-63 7v34h481v-137l-39 2l-14 81q-3 13 -17 13h-284v-296h290v-41h-290v-304h306q8 0 11 1.5t5 9.5l16 88h38v-141h-503z" />
    <glyph glyph-name="afii10024" unicode="&#x416;" horiz-adv-x="988" 
d="M601 724v-35l-67 -8q-11 -2 -13.5 -5t-2.5 -14v-270h83q38 0 63 31t38 75l47 159q11 38 34 58t64 20q14 0 28.5 -2.5t25.5 -5.5l-7 -37q-10 3 -22 4.5t-21 1.5q-26 0 -38.5 -14t-21.5 -44l-47 -159q-12 -42 -34 -70t-53 -39q33 -8 50 -29t33 -50l119 -221q6 -11 11 -18
t16 -9l67 -8v-35h-115q-15 32 -35.5 72t-42.5 80t-42 76t-35 60q-11 18 -20 30t-21 19t-28 10t-40 3h-56v-287q0 -12 2.5 -15t13.5 -5l67 -8v-35h-214v35l67 8q11 2 13.5 5t2.5 15v287h-63q-22 0 -37 -3t-27 -12t-23.5 -24.5t-26.5 -40.5q-10 -17 -28 -48t-38 -68.5t-40 -78
t-36 -75.5h-116v35l67 8q9 1 13 4.5t10 14.5l115 214q18 34 37 58t54 35q-35 13 -55.5 42t-31.5 68l-47 159q-9 30 -20.5 43.5t-40.5 13.5q-11 0 -24 -2.5t-21 -4.5l-6 38q11 4 28 7t34 3q42 0 61.5 -20.5t30.5 -58.5l47 -159q13 -44 38 -75t63 -31h83v270q0 11 -2.5 14
t-13.5 5l-67 8v35h214z" />
    <glyph glyph-name="afii10025" unicode="&#x417;" horiz-adv-x="560" 
d="M281 737q46 0 85 -11.5t67 -34t44 -56.5t16 -79q0 -64 -40 -111t-115 -65v-4q91 -11 130 -60.5t39 -124.5q0 -37 -13.5 -73.5t-42.5 -65t-74 -46.5t-108 -18q-69 0 -123.5 17t-85.5 41v135h38l16 -103q1 -6 3.5 -10.5t10.5 -8.5q32 -15 66 -21.5t73 -6.5t73.5 10t60 30.5
t40.5 51t15 71.5q0 71 -46.5 113.5t-142.5 42.5h-94v43h63q45 0 82 11.5t64 33t42 51.5t15 67q0 38 -13 64t-35.5 42.5t-52 24t-63.5 7.5q-42 0 -73 -8.5t-60 -19.5q-8 -3 -10 -8t-3 -10l-17 -101l-38 -2v140q35 25 92 38.5t115 13.5z" />
    <glyph glyph-name="afii10026" unicode="&#x418;" horiz-adv-x="804" 
d="M736 724v-35l-67 -8q-11 -2 -13.5 -5t-2.5 -14v-600q0 -11 2.5 -14t13.5 -5l67 -8v-35h-210v35l63 7q11 2 13.5 5.5t2.5 14.5v600l-376 -662h-152v36l63 7q11 2 13.5 5.5t2.5 14.5v599q0 11 -2.5 14.5t-13.5 5.5l-63 7v35h210v-35l-67 -8q-11 -2 -13.5 -5t-2.5 -15v-611
l384 674h148z" />
    <glyph glyph-name="afii10027" unicode="&#x419;" horiz-adv-x="804" 
d="M530 904q-5 -13 -11.5 -27t-18 -25.5t-29 -19t-44.5 -7.5t-44 5.5t-28.5 15.5t-19 24.5t-14.5 33.5l-43 -14q5 -22 14.5 -41.5t26.5 -34.5t42.5 -23.5t62.5 -8.5t62.5 10.5t42 26t26 34.5t15.5 37zM736 724v-35l-67 -8q-11 -2 -13.5 -5t-2.5 -14v-600q0 -11 2.5 -14
t13.5 -5l67 -8v-35h-210v35l63 7q11 2 13.5 5.5t2.5 14.5v600l-376 -662h-152v36l63 7q11 2 13.5 5.5t2.5 14.5v599q0 11 -2.5 14.5t-13.5 5.5l-63 7v35h210v-35l-67 -8q-11 -2 -13.5 -5t-2.5 -15v-611l384 674h148z" />
    <glyph glyph-name="afii10028" unicode="&#x41a;" horiz-adv-x="693" 
d="M204 63q0 -12 2.5 -15t13.5 -5l67 -8v-35h-210v35l63 7q11 2 13.5 5.5t2.5 14.5v600q0 11 -2.5 15t-13.5 5l-63 7v35h210v-35l-67 -8q-11 -2 -13.5 -5t-2.5 -14v-270h95q43 0 68 26t44 80l57 159q14 38 37 59t65 21q11 0 25.5 -2t25.5 -5l-5 -40q-21 4 -39 4
q-26 0 -40.5 -13t-25.5 -43l-56 -159q-14 -38 -34.5 -65.5t-59.5 -41.5q35 -11 53.5 -35.5t34.5 -53.5l119 -220q6 -11 10.5 -14t15.5 -5l64 -9v-35h-117q-15 33 -35 72.5t-39.5 77t-37 69t-28.5 48.5q-15 25 -27 41t-25 25.5t-30 13t-42 3.5h-73v-287z" />
    <glyph glyph-name="afii10029" unicode="&#x41b;" horiz-adv-x="740" 
d="M289 682q2 -129 -1.5 -228.5t-12.5 -185.5q-7 -66 -22 -114.5t-40.5 -82.5t-61.5 -54t-86 -28l-12 46q37 7 64 19t46 33t32 52.5t22 77.5q6 30 11.5 81t8.5 112.5t4 127t-1 124.5q-1 11 -3 15t-13 5l-63 7v35h501v-35l-67 -8q-11 -2 -13.5 -5t-2.5 -14v-599
q0 -12 2.5 -15t13.5 -5l67 -8v-35h-210v35l63 7q11 2 13.5 5.5t2.5 14.5v620h-242z" />
    <glyph glyph-name="afii10030" unicode="&#x41c;" horiz-adv-x="944" 
d="M635 0v35l83 7q11 2 13.5 5.5t2.5 14.5v575l-244 -446h-36l-251 460v-588q0 -12 2.5 -15t13.5 -5l87 -8v-35h-229v35l63 7q11 2 13.5 5.5t2.5 14.5v599q0 11 -2.5 15t-13.5 5l-63 7v36h141l255 -478l257 478h135v-35l-67 -8q-11 -2 -13.5 -5t-2.5 -14v-600q0 -10 3 -13.5
t13 -5.5l67 -8v-35h-230z" />
    <glyph glyph-name="afii10031" unicode="&#x41d;" horiz-adv-x="806" 
d="M518 0v35l63 7q11 2 13.5 5.5t2.5 14.5v292h-393v-291q0 -12 2.5 -15t13.5 -5l67 -8v-35h-210v35l63 7q11 2 13.5 5.5t2.5 14.5v600q0 11 -2.5 15t-13.5 5l-63 7v35h210v-35l-67 -8q-11 -2 -13.5 -5t-2.5 -14v-266h393v266q0 11 -2.5 15t-13.5 5l-63 7v35h210v-35l-67 -8
q-11 -2 -13.5 -5t-2.5 -14v-599q0 -12 2.5 -15t13.5 -5l67 -8v-35h-210z" />
    <glyph glyph-name="afii10032" unicode="&#x41e;" horiz-adv-x="788" 
d="M390 -12q-84 0 -146 28t-102.5 78t-60.5 118t-20 148q0 83 22 152t65.5 119t107.5 78t148 28q83 0 143.5 -27.5t101 -76t60 -114t19.5 -140.5q0 -88 -21.5 -160.5t-64 -123.5t-106 -79t-146.5 -28zM393 31q64 0 116.5 21.5t90 64t58 105.5t20.5 147q0 78 -19.5 138.5
t-55.5 102t-87 63t-114 21.5q-64 0 -117 -22t-91 -64.5t-59.5 -104.5t-21.5 -143q0 -78 19.5 -139t55.5 -103.5t88 -64.5t117 -22z" />
    <glyph glyph-name="afii10033" unicode="&#x41f;" horiz-adv-x="777" 
d="M704 724v-35l-67 -8q-11 -2 -13.5 -5t-2.5 -14v-599q0 -12 2.5 -15t13.5 -5l67 -8v-35h-210v35l63 7q11 2 13.5 5.5t2.5 14.5v620h-369v-619q0 -12 2.5 -15t13.5 -5l67 -8v-35h-210v35l63 7q11 2 13.5 5.5t2.5 14.5v600q0 11 -2.5 15t-13.5 5l-63 7v35h627z" />
    <glyph glyph-name="afii10034" unicode="&#x420;" horiz-adv-x="660" 
d="M77 0v35l63 7q11 2 13.5 5.5t2.5 14.5v601q0 11 -2.5 15t-13.5 5l-63 7v34h288q69 0 115.5 -17t74.5 -46.5t39.5 -68t11.5 -81.5q0 -64 -19 -107.5t-54.5 -70.5t-86.5 -39t-114 -12h-129v-219q0 -12 2.5 -16t13.5 -4l143 -8v-35h-285zM334 323q47 0 87.5 7t70 27.5
t46 57.5t16.5 96q0 84 -46.5 128t-156.5 44h-148v-360h131z" />
    <glyph glyph-name="afii10035" unicode="&#x421;" horiz-adv-x="685" 
d="M628 39q-38 -27 -101 -39t-132 -12q-90 0 -153.5 28.5t-104 80t-59 122t-18.5 154.5q0 77 22 143.5t65.5 115.5t109 77t153.5 28q69 0 125 -14.5t91 -37.5v-134l-38 2l-17 93q-1 5 -2.5 9.5t-10.5 8.5q-30 12 -70 20t-83 8q-67 0 -121 -21.5t-92.5 -62.5t-59.5 -100.5
t-21 -136.5q0 -166 77 -252t210 -86q42 0 88 5t80 22q9 5 12 16l16 88h34v-125z" />
    <glyph glyph-name="afii10036" unicode="&#x422;" horiz-adv-x="631" 
d="M172 0v36l103 7q11 1 13.5 5t2.5 15v620h-189q-8 0 -11 -1.5t-5 -9.5l-16 -89l-38 -3v144h568v-144l-37 3l-16 89q-2 8 -5 9.5t-11 1.5h-192v-620q0 -11 2.5 -14.5t13.5 -4.5l110 -8v-36h-293z" />
    <glyph glyph-name="afii10037" unicode="&#x423;" horiz-adv-x="633" 
d="M438 689l10 35h175v-35l-39 -10q-17 -5 -22.5 -12t-11.5 -22l-201 -502q-15 -37 -28.5 -65.5t-31 -48.5t-41 -30.5t-58.5 -10.5q-32 0 -61.5 7t-51.5 20l19 41q16 -9 41 -17t54 -8q24 0 40 8t27.5 22t21 35t19.5 46l-220 519q-4 9 -9.5 12t-14.5 5l-43 11l10 35h190v-35
l-86 -9l197 -482h2l188 483z" />
    <glyph glyph-name="afii10038" unicode="&#x424;" horiz-adv-x="813" 
d="M383 563q-65 0 -115.5 -9.5t-85.5 -32t-53.5 -60.5t-18.5 -96q0 -55 15.5 -91t49 -57.5t85 -30.5t123.5 -10v387zM432 176q65 -1 116 8.5t86 32.5t53 61.5t18 95.5q0 56 -15.5 92t-49 57.5t-85 30t-123.5 9.5v-387zM432 606q80 0 140.5 -10.5t101 -36.5t61 -71t20.5 -113
q0 -73 -26 -120t-70.5 -74t-103 -37t-123.5 -11v-70q0 -12 2.5 -15t13.5 -5l77 -8v-35h-231v35l73 7q11 2 13.5 5.5t2.5 14.5v72q-80 0 -140.5 10t-101 36.5t-61 72.5t-20.5 117q0 72 26 117.5t70.5 71.5t103 36t123.5 11v69q0 11 -2.5 15t-13.5 5l-73 7v35h231v-35l-77 -8
q-11 -2 -13.5 -5t-2.5 -14v-69z" />
    <glyph glyph-name="afii10039" unicode="&#x425;" horiz-adv-x="647" 
d="M433 0v35l73 9l-189 292l-184 -292l71 -9v-35h-185v33l47 11q15 4 25 19l194 308l-179 290q-5 8 -10 11.5t-14 5.5l-44 11l10 35h178v-35l-73 -9l164 -271l172 271l-70 9l10 35h167v-35l-40 -11q-17 -4 -25 -19l-181 -286l202 -310q5 -8 10 -11.5t14 -5.5l50 -11v-35
h-193z" />
    <glyph glyph-name="afii10040" unicode="&#x426;" horiz-adv-x="766" 
d="M610 42h91v-199l-36 2l-17 142q-1 13 -17 13h-554v35l63 7q11 1 13.5 5t2.5 15v600q0 11 -2.5 14.5t-13.5 5.5l-63 7v35h210v-35l-67 -8q-11 -2 -13.5 -5t-2.5 -15v-619h358v620q0 11 -2.5 14.5t-13.5 5.5l-63 7v35h210v-35l-67 -8q-11 -2 -13.5 -5t-2.5 -15v-619z" />
    <glyph glyph-name="afii10041" unicode="&#x427;" horiz-adv-x="721" 
d="M511 662q0 11 -2.5 15t-13.5 5l-73 7v35h221v-35l-67 -8q-11 -2 -13.5 -5t-2.5 -14v-599q0 -12 2.5 -15t13.5 -5l67 -8v-35h-241v35l93 7q11 1 13.5 5t2.5 15v252q-41 -14 -95 -22.5t-103 -8.5q-42 0 -78 8t-61.5 29t-40 57t-14.5 91v194q0 11 -2.5 15t-13.5 5l-63 7v35
h211v-35l-67 -8q-11 -2 -13.5 -5t-2.5 -14v-174q0 -40 7 -70.5t24 -50.5t46 -30.5t74 -10.5q20 0 46.5 2.5t54 7t52 10.5t39.5 13v303z" />
    <glyph glyph-name="afii10042" unicode="&#x428;" horiz-adv-x="1061" 
d="M550 42h308v620q0 11 -2.5 14.5t-13.5 5.5l-63 7v35h210v-35l-67 -8q-11 -2 -13.5 -5t-2.5 -15v-599q0 -11 2.5 -14t13.5 -5l67 -8v-35h-912v35l63 7q11 1 13.5 5t2.5 15v600q0 11 -2.5 14.5t-13.5 5.5l-63 7v35h210v-35l-67 -8q-11 -2 -13.5 -5t-2.5 -15v-619h298v620
q0 11 -2.5 15t-13.5 5l-73 7v35h230v-35l-77 -8q-11 -2 -13.5 -5t-2.5 -15v-619z" />
    <glyph glyph-name="afii10043" unicode="&#x429;" horiz-adv-x="1052" 
d="M77 0v35l63 7q11 1 13.5 5t2.5 15v600q0 11 -2.5 14.5t-13.5 5.5l-63 7v35h210v-35l-67 -8q-11 -2 -13.5 -5t-2.5 -15v-619h293v620q0 11 -2.5 15t-13.5 5l-73 7v35h230v-35l-77 -8q-11 -2 -13.5 -5t-2.5 -15v-619h303v620q0 11 -2.5 14.5t-13.5 5.5l-63 7v35h210v-35
l-67 -8q-11 -2 -13.5 -5t-2.5 -15v-619h91v-199l-36 2l-17 142q-1 13 -17 13h-840z" />
    <glyph glyph-name="afii10044" unicode="&#x42a;" horiz-adv-x="734" 
d="M409 724v-35l-103 -8q-11 -1 -13.5 -4.5t-2.5 -15.5v-237h145q52 0 96.5 -9.5t76.5 -32.5t50.5 -62.5t18.5 -99.5q0 -48 -13 -88t-42 -69.5t-77 -46t-117 -16.5h-264v34l63 7q11 1 13.5 5t2.5 15v622h-141q-14 0 -17 -13l-14 -101l-39 -2v157h377zM290 383v-342h134
q102 0 151.5 41t49.5 138q0 52 -16 84t-42 49.5t-60 23.5t-70 6h-147z" />
    <glyph glyph-name="afii10045" unicode="&#x42b;" horiz-adv-x="955" 
d="M322 724v-35l-103 -8q-11 -1 -13.5 -4.5t-2.5 -15.5v-237h145q52 0 96.5 -9.5t76.5 -32.5t50.5 -62.5t18.5 -99.5q0 -48 -13 -88t-42 -69.5t-77 -46t-117 -16.5h-264v34l63 7q11 1 13.5 5t2.5 15v601q0 11 -2.5 14.5t-13.5 5.5l-63 7v35h245zM203 383v-342h134
q102 0 151.5 41t49.5 138q0 52 -16 84t-42 49.5t-60 23.5t-70 6h-147zM646 0v35l73 7q11 2 13.5 5.5t2.5 14.5v600q0 11 -2.5 15t-13.5 5l-73 7v35h231v-35l-77 -8q-11 -2 -13.5 -5t-2.5 -14v-599q0 -12 2.5 -15t13.5 -5l77 -8v-35h-231z" />
    <glyph glyph-name="afii10046" unicode="&#x42c;" horiz-adv-x="671" 
d="M322 724v-35l-103 -8q-11 -1 -13.5 -4.5t-2.5 -15.5v-237h169q52 0 96.5 -9.5t76.5 -32.5t50.5 -62.5t18.5 -99.5q0 -48 -13 -88t-42 -69.5t-77 -46t-117 -16.5h-288v34l63 7q11 1 13.5 5t2.5 15v601q0 11 -2.5 14.5t-13.5 5.5l-63 7v35h245zM203 383v-342h158
q102 0 151.5 41t49.5 138q0 52 -16 84t-42 49.5t-60 23.5t-70 6h-171z" />
    <glyph glyph-name="afii10047" unicode="&#x42d;" horiz-adv-x="680" 
d="M568 382q-5 150 -78.5 230t-207.5 80q-42 0 -85 -5t-78 -19q-9 -4 -12 -7.5t-5 -11.5l-16 -88h-34v125q41 23 102.5 37t130.5 14q90 0 153.5 -28.5t104 -77.5t59 -115.5t18.5 -143.5q0 -85 -21.5 -155.5t-64.5 -121.5t-107 -79t-149 -28q-75 0 -132 14.5t-92 37.5v134h38
l17 -95q2 -7 4 -10.5t11 -7.5q30 -12 69 -20t82 -8q134 0 211.5 79.5t82.5 228.5h-344v41h343z" />
    <glyph glyph-name="afii10048" unicode="&#x42e;" horiz-adv-x="1064" 
d="M400 396q4 69 24.5 131t59 108.5t95.5 74t133 27.5q75 0 130.5 -27.5t91.5 -76t54 -114t18 -140.5q0 -88 -19.5 -160.5t-58.5 -123.5t-96.5 -79t-133.5 -28q-77 0 -133.5 28.5t-93 78t-54.5 116.5t-18 143h-195v-291q0 -12 2.5 -15t13.5 -5l67 -8v-35h-210v35l63 7
q11 2 13.5 5.5t2.5 14.5v600q0 11 -2.5 15t-13.5 5l-63 7v35h210v-35l-67 -8q-11 -2 -13.5 -5t-2.5 -14v-266h196zM701 31q56 0 103 21.5t81 64t52.5 105.5t18.5 147q0 78 -17.5 138.5t-50 102t-77.5 63t-101 21.5t-103.5 -22t-82 -64.5t-54 -104.5t-19.5 -143
q0 -78 17.5 -139t50 -103.5t78.5 -64.5t104 -22z" />
    <glyph glyph-name="afii10049" unicode="&#x42f;" horiz-adv-x="694" 
d="M203 248q15 36 31 56.5t44 32.5q-75 17 -119 61.5t-44 128.5q0 33 10.5 68t36 63.5t68 47t106.5 18.5h281v-34l-63 -7q-11 -1 -13.5 -5t-2.5 -15v-601q0 -11 2.5 -14.5t13.5 -5.5l63 -7v-35h-212v35l70 8q11 2 13.5 5t2.5 15v258h-144q-30 0 -48.5 -14.5t-35.5 -48.5
q-9 -18 -22.5 -47.5t-28.5 -65t-30 -73l-29 -72.5h-117v35l67 8q11 2 16.5 9t10.5 18zM491 362v321h-140q-39 0 -73 -8t-58.5 -26t-39 -46.5t-14.5 -70.5q0 -48 15.5 -81t43 -52.5t64.5 -28t79 -8.5h123z" />
    <glyph glyph-name="afii10065" unicode="&#x430;" horiz-adv-x="529" 
d="M393 0l-9 73q-43 -40 -89 -62.5t-103 -22.5q-47 0 -74 14t-41 34.5t-18 43t-4 38.5q0 75 45 108t133 41l150 13v60q0 35 -4.5 61t-18 42.5t-37.5 24.5t-63 8q-27 0 -50.5 -1.5t-41 -10t-28 -26.5t-10.5 -51l-48 7q0 43 18 67.5t44.5 37t57.5 16t58 3.5q50 0 83 -8.5
t53 -28.5t28 -53.5t8 -83.5v-282q0 -12 2.5 -15t13.5 -5l53 -7v-35h-108zM383 239l-145 -13q-39 -3 -64.5 -11t-40 -21t-20.5 -30.5t-6 -39.5q0 -49 23 -71.5t70 -22.5q29 0 55.5 8.5t50 22t43 30.5t34.5 33v115z" />
    <glyph glyph-name="afii10066" unicode="&#x431;" horiz-adv-x="562" 
d="M278 -12q-115 0 -166.5 79.5t-51.5 228.5q0 90 8.5 158t36 117t79 80t138.5 46q32 6 50 9.5t28 7.5t13.5 9.5t6.5 14.5l42 2q3 -27 -4.5 -43t-25.5 -25.5t-46.5 -14.5t-66.5 -11q-58 -9 -95.5 -26t-60.5 -46.5t-35 -74t-19 -109.5l2 -1q23 51 72.5 80.5t107.5 29.5
q57 0 97 -17.5t65 -50t36.5 -78t11.5 -101.5q0 -58 -13 -106.5t-40.5 -83.5t-69.5 -54.5t-100 -19.5zM281 29q86 0 127.5 57.5t41.5 157.5q0 109 -38 161t-119 52q-43 0 -77 -16t-57.5 -44.5t-36 -67t-12.5 -83.5q0 -99 42.5 -158t128.5 -59z" />
    <glyph glyph-name="afii10067" unicode="&#x432;" horiz-adv-x="528" 
d="M51 35l46 7q11 2 13.5 5t2.5 15v384q0 12 -2.5 15t-13.5 5l-46 7v35h244q47 0 77.5 -9.5t48.5 -26.5t25 -39t7 -48q0 -50 -27.5 -79t-60.5 -40v-2q62 -7 92 -40.5t30 -87.5q0 -39 -14 -65t-39.5 -41.5t-61 -22.5t-77.5 -7h-244v35zM290 39q31 0 57.5 4t46 15t30.5 30.5
t11 51.5q0 53 -36.5 75.5t-91.5 22.5h-145v-199h128zM269 280q23 0 46.5 4t42 14.5t30.5 30t12 49.5q0 52 -29.5 71.5t-90.5 19.5h-118v-189h107z" />
    <glyph glyph-name="afii10068" unicode="&#x433;" horiz-adv-x="432" 
d="M397 508v-142l-37 3l-14 89q-1 6 -4.5 7.5t-11.5 1.5h-167v-405q0 -12 2.5 -15t13.5 -5l77 -7v-35h-204v35l46 7q11 2 13.5 5t2.5 15v384q0 12 -2.5 15t-13.5 5l-46 7v35h345z" />
    <glyph glyph-name="afii10069" unicode="&#x434;" horiz-adv-x="560" 
d="M397 41v426h-177v-59q0 -136 -19.5 -224.5t-63.5 -142.5h260zM96 0q-9 0 -11 -11l-13 -114l-38 -3v169h50q23 29 39 61.5t27 73.5t16 94.5t5 124.5v51q0 12 -2.5 15t-13.5 5l-46 7v35h399v-35l-46 -7q-11 -2 -13.5 -5t-2.5 -15v-405h65v-169l-38 3l-13 114q-2 11 -11 11
h-353z" />
    <glyph glyph-name="afii10070" unicode="&#x435;" horiz-adv-x="502" 
d="M446 31q-29 -20 -72.5 -31.5t-94.5 -11.5q-66 0 -110 21t-70.5 57t-38 85t-11.5 105q0 67 17 116.5t46 81.5t68.5 48t85.5 16q42 0 77.5 -12.5t61.5 -40.5t40.5 -72.5t14.5 -107.5q0 -11 -0.5 -19t-1.5 -18h-359q1 -47 11.5 -86.5t32 -68.5t55.5 -45t83 -16q50 0 83 10.5
t63 27.5zM408 288q-1 100 -41 143.5t-102 43.5q-31 0 -59 -9t-50 -31t-36.5 -58t-17.5 -89h306z" />
    <glyph glyph-name="afii10072" unicode="&#x436;" horiz-adv-x="723" 
d="M340 439q0 16 -13 21l-49 16l7 32h104v-228h41q18 0 30.5 2t22.5 9.5t18 21t15 37.5l31 97q11 35 28 53t52 18q9 0 20.5 -2t19.5 -4l-4 -37q-15 3 -26 3q-20 0 -29.5 -11.5t-17.5 -36.5l-28 -90q-20 -66 -62 -82q18 -5 32.5 -21.5t28.5 -42.5l72 -136q9 -16 23 -17l51 -6
v-35h-98q-12 26 -26 54t-28 53.5t-26.5 47.5t-20.5 36q-9 17 -17 26.5t-17 14.5t-20 6.5t-26 1.5h-39v-178q0 -12 2.5 -15t13.5 -5l45 -7v-35h-173v36l47 6q11 2 13.5 5.5t2.5 14.5v178h-40q-15 0 -26 -1.5t-20 -6.5t-17 -14.5t-17 -26.5q-8 -14 -20 -35.5t-25 -47
t-26.5 -53.5t-25.5 -55h-101v35l53 6q14 1 23 17l68 131q14 26 28.5 43.5t34.5 25.5q-23 10 -37 29t-25 53l-28 90q-8 24 -17 35t-28 11q-5 0 -10 -0.5t-9 -0.5l-10 -2l-4 39q7 2 19.5 4t21.5 2q35 0 52 -18t28 -53l31 -97q8 -23 15.5 -36.5t17.5 -21t22.5 -10t30.5 -2.5h41
v159z" />
    <glyph glyph-name="afii10073" unicode="&#x437;" horiz-adv-x="444" 
d="M220 518q72 0 117.5 -31.5t45.5 -93.5q0 -54 -28.5 -84.5t-72.5 -44.5q53 -8 85.5 -39.5t32.5 -87.5q0 -64 -47 -106.5t-145 -42.5q-48 0 -99 14.5t-84 46.5l32 37q23 -24 62 -39.5t89 -15.5q27 0 52 5.5t44.5 18t31 33.5t11.5 52q0 46 -32 71t-95 25h-86v43h51
q67 0 106.5 27t39.5 81q0 24 -9.5 41t-26 27.5t-37 15.5t-43.5 5q-29 0 -52 -5t-42 -10q-12 -4 -13 -13l-12 -69l-39 -2v104q12 8 31 14.5t41 11.5t45.5 8t45.5 3z" />
    <glyph glyph-name="afii10074" unicode="&#x438;" horiz-adv-x="612" 
d="M112 446q0 12 -2.5 15t-13.5 5l-48 7v35h174v-35l-48 -7q-11 -2 -13.5 -5t-2.5 -15v-398l281 460h124v-35l-48 -7q-11 -2 -13.5 -5t-2.5 -15v-384q0 -12 2.5 -15t13.5 -5l48 -7v-35h-174v35l48 7q11 2 13.5 5t2.5 15v387l-276 -449h-129v35l48 7q11 2 13.5 5t2.5 15v384z
" />
    <glyph glyph-name="afii10075" unicode="&#x439;" horiz-adv-x="612" 
d="M112 446q0 12 -2.5 15t-13.5 5l-48 7v35h174v-35l-48 -7q-11 -2 -13.5 -5t-2.5 -15v-398l281 460h124v-35l-48 -7q-11 -2 -13.5 -5t-2.5 -15v-384q0 -12 2.5 -15t13.5 -5l48 -7v-35h-174v35l48 7q11 2 13.5 5t2.5 15v387l-276 -449h-129v35l48 7q11 2 13.5 5t2.5 15v384z
M460 704q-8 -28 -19 -52t-28.5 -41.5t-42 -27.5t-58.5 -10q-68 0 -99.5 36t-44.5 95l42 14q12 -52 33.5 -78.5t69.5 -26.5q47 0 69.5 28.5t38.5 76.5z" />
    <glyph glyph-name="afii10076" unicode="&#x43a;" horiz-adv-x="509" 
d="M287 259q18 -5 32.5 -22t28.5 -43l74 -136q9 -16 23 -17l51 -6v-35h-101q-12 27 -26.5 54.5t-28 53t-26 47.5t-20.5 36q-9 17 -17.5 27t-17.5 15t-20.5 6.5t-27.5 1.5h-48v-179q0 -12 2.5 -15t13.5 -5l50 -7v-35h-177v35l46 7q11 2 13.5 5t2.5 15v384q0 12 -2.5 15
t-13.5 5l-46 7v35h177v-35l-50 -7q-11 -2 -13.5 -5t-2.5 -15v-169h56q18 0 29.5 1.5t20.5 8.5t16.5 20t17.5 36l43 104q14 34 32.5 52.5t51.5 18.5q18 0 36 -5l-3 -40l-8 2q-4 0 -8 0.5t-9 0.5q-20 0 -29.5 -11.5t-19.5 -34.5l-41 -99q-11 -26 -24.5 -44.5t-36.5 -27.5z" />
    <glyph glyph-name="afii10077" unicode="&#x43b;" horiz-adv-x="552" 
d="M172 446q0 12 -2.5 15t-13.5 5l-46 7v35h389v-35l-46 -7q-11 -2 -13.5 -5t-2.5 -15v-384q0 -12 2.5 -15t13.5 -5l46 -7v-35h-177v35l50 7q11 2 13.5 5t2.5 15v405h-169q1 -70 -0.5 -139.5t-9.5 -133.5q-6 -48 -16 -84t-28 -62t-45 -41t-68 -21l-11 43q29 5 48 14.5
t31.5 25.5t20.5 40t15 59q9 44 12.5 112.5t3.5 165.5z" />
    <glyph glyph-name="afii10078" unicode="&#x43c;" horiz-adv-x="699" 
d="M530 445l-157 -315h-55l-154 315h-2v-383q0 -12 2.5 -15t13.5 -5l59 -7v-35h-182v35l42 7q11 2 13.5 5t2.5 15v384q0 12 -2.5 15t-13.5 5l-42 7v35h128l163 -336h2l165 336h126v-35l-42 -7q-11 -2 -13.5 -5t-2.5 -15v-384q0 -12 2.5 -15t13.5 -5l42 -7v-35h-182v35l59 7
q11 2 13.5 5t2.5 15v383h-2z" />
    <glyph glyph-name="afii10079" unicode="&#x43d;" horiz-adv-x="614" 
d="M454 285v161q0 12 -2.5 15t-13.5 5l-50 7v35h177v-35l-46 -7q-11 -2 -13.5 -5t-2.5 -15v-384q0 -12 2.5 -15t13.5 -5l46 -7v-35h-177v35l50 7q11 2 13.5 5t2.5 15v181h-291v-181q0 -12 2.5 -15t13.5 -5l50 -7v-35h-177v35l46 7q11 2 13.5 5t2.5 15v384q0 12 -2.5 15
t-13.5 5l-46 7v35h177v-35l-50 -7q-11 -2 -13.5 -5t-2.5 -15v-161h291z" />
    <glyph glyph-name="afii10080" unicode="&#x43e;" horiz-adv-x="559" 
d="M278 -12q-60 0 -103.5 20t-71.5 55.5t-41 84.5t-13 107t14.5 106.5t44 83t74.5 54t106 19.5q60 0 102.5 -19t69 -53t39 -80.5t12.5 -102.5q0 -62 -14 -113t-42.5 -87t-72.5 -55.5t-104 -19.5zM281 29q90 0 134.5 58.5t44.5 167.5q0 107 -42 164t-132 57q-91 0 -139 -57.5
t-48 -164.5q0 -106 45.5 -165.5t136.5 -59.5z" />
    <glyph glyph-name="afii10081" unicode="&#x43f;" horiz-adv-x="597" 
d="M547 508v-35l-46 -7q-11 -2 -13.5 -5t-2.5 -15v-384q0 -12 2.5 -15t13.5 -5l46 -7v-35h-177v35l50 7q11 2 13.5 5t2.5 15v405h-274v-405q0 -12 2.5 -15t13.5 -5l50 -7v-35h-177v35l46 7q11 2 13.5 5t2.5 15v384q0 12 -2.5 15t-13.5 5l-46 7v35h496z" />
    <glyph glyph-name="afii10082" unicode="&#x440;" horiz-adv-x="591" 
d="M60 -212v36l42 6q11 2 13.5 5.5t2.5 14.5v586q0 17 -13 21l-59 19l7 32h101l8 -63q13 8 32 20.5t44 24t54.5 20t63.5 8.5q31 0 63.5 -9t59.5 -36.5t44 -77.5t17 -131q0 -49 -9 -98t-32 -88.5t-64 -64.5t-106 -25q-30 0 -56 7t-46.5 17t-35.5 20.5t-23 17.5v-201
q0 -12 2.5 -15.5t13.5 -4.5l87 -6v-35h-211zM168 104q27 -28 69.5 -50.5t93.5 -22.5q44 0 74.5 16.5t49 47t27 74.5t8.5 99q0 61 -10.5 100.5t-30 63t-46 33t-58.5 9.5q-26 0 -52.5 -8t-50.5 -19t-43.5 -23.5t-30.5 -21.5v-298z" />
    <glyph glyph-name="afii10083" unicode="&#x441;" horiz-adv-x="469" 
d="M443 31q-12 -8 -30 -16t-39.5 -14t-44.5 -9.5t-46 -3.5q-62 0 -106 19.5t-72.5 54.5t-42 83t-13.5 104q0 72 19 123t52.5 83.5t80 47.5t101.5 15q54 0 88 -9.5t47 -13.5v-114l-39 3l-12 69q-1 5 -2.5 7.5t-8.5 4.5q-11 4 -34 7.5t-48 3.5q-40 0 -75.5 -12.5t-61.5 -40
t-41 -70.5t-15 -103q0 -112 50.5 -165t137.5 -53q38 0 74.5 10.5t61.5 27.5z" />
    <glyph glyph-name="afii10084" unicode="&#x442;" horiz-adv-x="475" 
d="M263 467v-405q0 -12 2.5 -15t13.5 -5l77 -7v-35h-231v35l73 7q11 2 13.5 5t2.5 15v405h-119q-8 0 -11.5 -1.5t-4.5 -7.5l-14 -79l-36 -2v131h420v-131l-37 2l-14 79q-1 6 -4.5 7.5t-11.5 1.5h-119z" />
    <glyph glyph-name="afii10085" unicode="&#x443;" horiz-adv-x="556" 
d="M73 447q-4 9 -8 12t-13 5l-41 10l9 34h171v-34l-69 -8l155 -396l161 396l-70 8l9 34h167v-34l-34 -5q-19 -3 -25 -17l-197 -473q-22 -54 -39.5 -92t-35.5 -62.5t-40.5 -36t-55.5 -11.5q-25 0 -48 5.5t-39 13.5l16 43q13 -7 32 -12t37 -5q20 0 33.5 6t24 19.5t21 35.5
t23.5 54l32 76z" />
    <glyph glyph-name="afii10086" unicode="&#x444;" horiz-adv-x="709" 
d="M330 682q0 17 -13 21l-59 19l7 32h115v-235q84 -2 138.5 -21t86.5 -52.5t44.5 -80.5t12.5 -106q0 -80 -24.5 -132t-64 -83t-90 -43t-103.5 -13v-139q0 -12 2.5 -15.5t13.5 -4.5l71 -6v-35h-220v36l67 6q11 2 13.5 5.5t2.5 14.5v138q-84 2 -138.5 21t-86.5 52.5t-44.5 81
t-12.5 105.5q0 80 24.5 132t64 83t90.5 43t103 13v163zM330 478q-43 -2 -85 -11t-74.5 -34t-52.5 -70.5t-20 -120.5q0 -72 22.5 -114t57 -63.5t75.5 -27.5t77 -7v448zM380 30q44 2 85.5 11t74 33.5t52.5 70t20 120.5q0 72 -22.5 114t-57 63.5t-75.5 27.5t-77 7v-447z" />
    <glyph glyph-name="afii10087" unicode="&#x445;" horiz-adv-x="555" 
d="M338 0v35l73 9l-141 186l-137 -186l71 -9v-35h-195v35l58 12q8 2 12.5 5t10.5 11l150 200l-137 183q-6 8 -10.5 11t-13.5 6l-46 11l10 34h174v-34l-71 -8l127 -169l130 169l-70 8l10 34h172v-34l-48 -10q-9 -3 -14 -7t-11 -12l-141 -179l154 -201q7 -8 12 -12t14 -6
l64 -12v-35h-207z" />
    <glyph glyph-name="afii10088" unicode="&#x446;" horiz-adv-x="589" 
d="M474 41h68v-169l-38 3l-13 114q-2 11 -11 11h-426v35l46 7q11 2 13.5 5t2.5 15v384q0 12 -2.5 15t-13.5 5l-46 7v35h177v-35l-50 -7q-11 -2 -13.5 -5t-2.5 -15v-405h260v405q0 12 -2.5 15t-13.5 5l-50 7v35h177v-35l-46 -7q-11 -2 -13.5 -5t-2.5 -15v-405z" />
    <glyph glyph-name="afii10089" unicode="&#x447;" horiz-adv-x="545" 
d="M379 446q0 12 -2.5 15t-13.5 5l-40 7v35h167v-35l-46 -7q-11 -2 -13.5 -5t-2.5 -15v-384q0 -12 2.5 -15t13.5 -5l46 -7v-35h-197v35l70 7q11 2 13.5 5t2.5 15v150q-30 -9 -69 -14t-67 -5q-75 0 -111.5 31t-36.5 101v121q0 12 -2.5 15t-13.5 5l-40 7v35h167v-35l-46 -7
q-11 -2 -13.5 -5t-2.5 -15v-112q0 -51 20.5 -75.5t80.5 -24.5q15 0 34 1.5t38 4.5t35.5 6.5t26.5 7.5v192z" />
    <glyph glyph-name="afii10090" unicode="&#x448;" horiz-adv-x="806" 
d="M635 41v405q0 12 -2.5 15t-13.5 5l-50 7v35h177v-35l-46 -7q-11 -2 -13.5 -5t-2.5 -15v-384q0 -12 2.5 -15t13.5 -5l46 -7v-35h-695v35l46 7q11 2 13.5 5t2.5 15v384q0 12 -2.5 15t-13.5 5l-46 7v35h177v-35l-50 -7q-11 -2 -13.5 -5t-2.5 -15v-405h212v405q0 12 -2.5 15
t-13.5 5l-50 7v35h177v-35l-46 -7q-11 -2 -13.5 -5t-2.5 -15v-405h212z" />
    <glyph glyph-name="afii10091" unicode="&#x449;" horiz-adv-x="798" 
d="M51 0v35l46 7q11 2 13.5 5t2.5 15v384q0 12 -2.5 15t-13.5 5l-46 7v35h177v-35l-50 -7q-11 -2 -13.5 -5t-2.5 -15v-405h211v405q0 12 -2.5 15t-13.5 5l-52 7v35h181v-35l-48 -7q-11 -2 -13.5 -5t-2.5 -15v-405h211v405q0 12 -2.5 15t-13.5 5l-50 7v35h177v-35l-46 -7
q-11 -2 -13.5 -5t-2.5 -15v-405h68v-169l-38 3l-13 114q-1 11 -13 11h-635z" />
    <glyph glyph-name="afii10092" unicode="&#x44a;" horiz-adv-x="553" 
d="M232 258v-219h88q62 0 101 25.5t39 90.5q0 37 -12.5 58t-32 31t-43 12t-44.5 2h-96zM30 508h288v-35l-70 -7q-11 -2 -13.5 -5t-2.5 -15v-148h99q42 0 75.5 -6.5t57 -23t36 -44t12.5 -70.5q0 -26 -7 -53t-26.5 -49.5t-54 -37t-88.5 -14.5h-214v35l46 7q11 2 13.5 5t2.5 15
v405h-88q-8 0 -11.5 -2t-5.5 -11l-13 -85l-36 -3v142z" />
    <glyph glyph-name="afii10093" unicode="&#x44b;" horiz-adv-x="700" 
d="M161 258v-219h82q62 0 101 25.5t39 90.5q0 37 -12.5 58t-32 31t-43 12t-44.5 2h-90zM51 0v35l46 7q11 2 13.5 5t2.5 15v384q0 12 -2.5 15t-13.5 5l-46 7v35h196v-35l-70 -7q-11 -2 -13.5 -5t-2.5 -15v-148h93q42 0 75.5 -6.5t57 -23t36 -44t12.5 -70.5q0 -26 -7 -53
t-26.5 -49.5t-54 -37t-88.5 -14.5h-208zM580 62q0 -12 2.5 -15t13.5 -5l50 -7v-35h-177v35l46 7q11 2 13.5 5t2.5 15v384q0 12 -2.5 15t-13.5 5l-46 7v35h177v-35l-50 -7q-11 -2 -13.5 -5t-2.5 -15v-384z" />
    <glyph glyph-name="afii10094" unicode="&#x44c;" horiz-adv-x="489" 
d="M161 258v-219h96q62 0 101 25.5t39 90.5q0 37 -12.5 58t-32 31t-43 12t-44.5 2h-104zM51 0v35l46 7q11 2 13.5 5t2.5 15v384q0 12 -2.5 15t-13.5 5l-46 7v35h196v-35l-70 -7q-11 -2 -13.5 -5t-2.5 -15v-148h107q42 0 75.5 -6.5t57 -23t36 -44t12.5 -70.5q0 -26 -7 -53
t-26.5 -49.5t-54 -37t-88.5 -14.5h-222z" />
    <glyph glyph-name="afii10095" unicode="&#x44d;" horiz-adv-x="531" 
d="M433 278q-3 58 -19 96t-42.5 60.5t-60.5 32t-72 9.5q-32 0 -60.5 -6t-39.5 -10q-7 -2 -8.5 -5t-3.5 -10l-13 -71l-39 -3v111q35 16 77 26t88 10q51 0 95.5 -13.5t77.5 -43t51.5 -77t18.5 -115.5q0 -63 -15.5 -115t-46.5 -89t-77.5 -57t-108.5 -20q-22 0 -47 4t-48.5 10.5
t-45 16.5t-36.5 22l24 37q32 -24 73 -36t79 -12q87 0 140.5 52.5t58.5 153.5h-249v42h249z" />
    <glyph glyph-name="afii10096" unicode="&#x44e;" horiz-adv-x="762" 
d="M290 275q3 50 16 94t39.5 77t67 52.5t97.5 19.5q56 0 95 -19t63 -53t35 -80.5t11 -102.5q0 -62 -12.5 -113t-38.5 -87t-66.5 -55.5t-96.5 -19.5q-57 0 -95.5 19.5t-63 53t-36.5 78t-15 94.5h-128v-171q0 -12 2.5 -15t13.5 -5l50 -7v-35h-177v35l46 7q11 2 13.5 5t2.5 15
v384q0 12 -2.5 15t-13.5 5l-46 7v35h177v-35l-50 -7q-11 -2 -13.5 -5t-2.5 -15v-171h128zM503 29q82 0 121 58.5t39 167.5q0 107 -36.5 164t-118.5 57q-84 0 -126 -57.5t-42 -164.5q0 -106 40 -165.5t123 -59.5z" />
    <glyph glyph-name="afii10097" unicode="&#x44f;" horiz-adv-x="560" 
d="M513 473l-46 -7q-11 -2 -13.5 -5t-2.5 -15v-384q0 -12 2.5 -15t13.5 -5l46 -7v-35h-177v35l50 7q11 2 13.5 5t2.5 15v154h-117q-25 0 -40 -7.5t-29 -33.5q-8 -15 -17.5 -35.5t-19.5 -44t-19.5 -48t-18.5 -47.5h-112v32l59 9q11 2 15 5t7 11l43 95q12 27 26 49.5t37 30.5
q-57 15 -88.5 47t-31.5 91q0 28 8.5 53t28.5 44t54.5 30t86.5 11h239v-35zM402 258v211h-130q-56 0 -90.5 -23t-34.5 -80q0 -31 12 -52t32 -33.5t47 -17.5t58 -5h106z" />
    <glyph glyph-name="afii10071" unicode="&#x451;" horiz-adv-x="502" 
d="M446 31q-29 -20 -72.5 -31.5t-94.5 -11.5q-66 0 -110 21t-70.5 57t-38 85t-11.5 105q0 67 17 116.5t46 81.5t68.5 48t85.5 16q42 0 77.5 -12.5t61.5 -40.5t40.5 -72.5t14.5 -107.5q0 -11 -0.5 -19t-1.5 -18h-359q1 -47 11.5 -86.5t32 -68.5t55.5 -45t83 -16q50 0 83 10.5
t63 27.5zM408 288q-1 100 -41 143.5t-102 43.5q-31 0 -59 -9t-50 -31t-36.5 -58t-17.5 -89h306zM210 656q0 -20 -12.5 -32t-33.5 -12q-20 0 -32.5 12t-12.5 32t12.5 32t32.5 12q21 0 33.5 -12t12.5 -32zM407 656q0 -20 -13 -32t-33 -12t-32.5 12t-12.5 32t12.5 32t32.5 12
t33 -12t13 -32z" />
    <glyph glyph-name="afii10099" unicode="&#x452;" horiz-adv-x="600" 
d="M530 199q0 -83 -8.5 -159.5t-32 -135t-64 -93t-104.5 -34.5q-23 0 -51 4.5t-54 14.5l15 42q24 -9 46.5 -14t40.5 -5q48 0 79.5 28.5t50 79t25.5 119t7 149.5q0 80 -9 130t-25 79t-38.5 39.5t-50.5 10.5q-30 0 -59.5 -10t-54.5 -23.5t-44 -28.5t-28 -24v-306
q0 -12 2.5 -15t13.5 -5l63 -7v-35h-198v36l54 6q11 2 13.5 5.5t2.5 14.5v529h-70v41h70v51q0 17 -13 21l-62 19l7 32h118v-123h204v-41h-204v-174q44 35 87.5 58t102.5 23q50 0 82.5 -20t51.5 -58t26.5 -93.5t7.5 -127.5z" />
    <glyph glyph-name="afii10100" unicode="&#x453;" horiz-adv-x="432" 
d="M155 571l-25 26l155 157l44 -46zM397 508v-142l-37 3l-14 89q-1 6 -4.5 7.5t-11.5 1.5h-167v-405q0 -12 2.5 -15t13.5 -5l77 -7v-35h-204v35l46 7q11 2 13.5 5t2.5 15v384q0 12 -2.5 15t-13.5 5l-46 7v35h345z" />
    <glyph glyph-name="afii10101" unicode="&#x454;" horiz-adv-x="501" 
d="M348 278v-42h-249q5 -103 53.5 -153.5t135.5 -50.5q38 0 81 12t75 36l19 -39q-15 -12 -37 -22t-46 -16.5t-49 -10.5t-48 -4q-62 0 -106 19.5t-72.5 54.5t-42 83t-13.5 104q0 72 19 123t53.5 83.5t83 47.5t107.5 15q46 0 81.5 -10.5t63.5 -21.5v-115l-39 3l-13 71
q-2 7 -4.5 10t-10.5 7q-11 5 -33 9.5t-54 4.5q-40 0 -75 -10.5t-62.5 -34t-44.5 -61.5t-21 -92h248z" />
    <glyph glyph-name="afii10102" unicode="&#x455;" horiz-adv-x="441" 
d="M343 377l-12 74q-1 4 -2.5 7t-8.5 6q-11 4 -36 8.5t-53 4.5q-34 0 -58 -8t-39 -21.5t-22 -31.5t-7 -37q0 -25 10.5 -42t28.5 -28t41.5 -18.5t48.5 -13.5q29 -7 57.5 -16.5t52 -25.5t38 -41t14.5 -63q0 -41 -16.5 -68.5t-43 -44t-59.5 -23.5t-67 -7q-28 0 -56 3.5t-51 9
t-40 11t-24 8.5v114l37 -2l11 -70q1 -4 2.5 -7t8.5 -5q11 -4 41.5 -12t75.5 -8q59 0 94 23.5t35 77.5q0 26 -10.5 43t-27.5 28.5t-39.5 18.5t-46.5 13q-31 8 -60.5 16.5t-52.5 23.5t-37 39t-14 62q0 40 16.5 67.5t43 44t59.5 24t67 7.5q25 0 47.5 -3t40.5 -7.5t31 -8.5
t19 -7v-118z" />
    <glyph glyph-name="afii10103" unicode="&#x456;" horiz-adv-x="283" 
d="M180 687q0 -21 -12.5 -32t-34.5 -11q-46 0 -46 43q0 44 46 44q22 0 34.5 -11t12.5 -33zM29 0v36l77 6q11 2 13.5 5.5t2.5 14.5v374q0 17 -13 21l-59 19l7 32h114v-446q0 -12 2.5 -15t13.5 -5l75 -7v-35h-233z" />
    <glyph glyph-name="afii10104" unicode="&#x457;" horiz-adv-x="283" 
d="M96 656q0 -20 -12.5 -32t-32.5 -12q-21 0 -33.5 12t-12.5 32t12.5 32t33.5 12q20 0 32.5 -12t12.5 -32zM242 656q0 -20 -12.5 -32t-32.5 -12t-33 12t-13 32t13 32t33 12t32.5 -12t12.5 -32zM29 0v36l77 6q11 2 13.5 5.5t2.5 14.5v374q0 17 -13 21l-59 19l7 32h114v-446
q0 -12 2.5 -15t13.5 -5l75 -7v-35h-233z" />
    <glyph glyph-name="afii10105" unicode="&#x458;" horiz-adv-x="268" 
d="M120 436q0 11 -1.5 15t-9.5 6l-71 19l7 32h124v-588q0 -74 -28 -108.5t-95 -34.5q-36 0 -65.5 11.5t-50.5 28.5l27 38q14 -11 38.5 -22.5t52.5 -11.5q47 0 59.5 27t12.5 80v508zM180 687q0 -43 -46 -43q-47 0 -47 43q0 44 47 44q46 0 46 -44z" />
    <glyph glyph-name="afii10106" unicode="&#x459;" horiz-adv-x="754" 
d="M437 258v-219h95q62 0 101 25.5t39 90.5q0 37 -12.5 58t-32 31t-43 12t-44.5 2h-103zM437 298h106q42 0 75.5 -6.5t57 -23t36 -44t12.5 -70.5q0 -26 -7 -53t-26.5 -49.5t-54 -37t-88.5 -14.5h-222v35l46 7q11 2 13.5 5t2.5 15v405h-170q1 -70 -1 -139.5t-10 -133.5
q-6 -48 -16 -84t-27 -62t-44 -41t-68 -21l-11 43q29 5 48 14.5t31.5 25.5t20.5 40t15 59q9 44 12.5 112.5t3.5 165.5q0 12 -2.5 15t-13.5 5l-46 7v35h389v-35l-46 -7q-11 -2 -13.5 -5t-2.5 -15v-148z" />
    <glyph glyph-name="afii10107" unicode="&#x45a;" horiz-adv-x="789" 
d="M470 242v-203h95q62 0 96.5 24t34.5 82q0 33 -11 52.5t-29 29.5t-40 12.5t-43 2.5h-103zM470 282h106q83 0 127.5 -30t44.5 -108q0 -22 -5.5 -47.5t-23.5 -47t-51 -35.5t-87 -14h-222v35l46 7q11 2 13.5 5t2.5 15v180h-259v-180q0 -12 2.5 -15t13.5 -5l50 -7v-35h-177v35
l46 7q11 2 13.5 5t2.5 15v384q0 12 -2.5 15t-13.5 5l-46 7v35h177v-35l-50 -7q-11 -2 -13.5 -5t-2.5 -15v-164h259v164q0 12 -2.5 15t-13.5 5l-50 7v35h197v-35l-66 -7q-11 -2 -13.5 -5t-2.5 -15v-164z" />
    <glyph glyph-name="afii10108" unicode="&#x45b;" horiz-adv-x="632" 
d="M403 0v36l55 6q11 2 12.5 4.5t1.5 13.5v243q0 86 -30 118.5t-85 32.5q-30 0 -59.5 -10t-54.5 -23.5t-44 -28.5t-28 -24v-306q0 -12 2.5 -15t13.5 -5l63 -7v-35h-198v36l54 6q11 2 13.5 5.5t2.5 14.5v529h-70v41h70v51q0 17 -13 21l-62 19l7 32h118v-123h204v-41h-204
v-174q44 35 87.5 58t102.5 23q38 0 68 -9t50.5 -31t31 -60t10.5 -97v-239q0 -12 2.5 -15t13.5 -5l62 -7v-35h-197z" />
    <glyph glyph-name="afii10109" unicode="&#x45c;" horiz-adv-x="509" 
d="M235 571l-25 26l155 157l44 -46zM287 259q18 -5 32.5 -22t28.5 -43l74 -136q9 -16 23 -17l51 -6v-35h-101q-12 27 -26.5 54.5t-28 53t-26 47.5t-20.5 36q-9 17 -17.5 27t-17.5 15t-20.5 6.5t-27.5 1.5h-48v-179q0 -12 2.5 -15t13.5 -5l50 -7v-35h-177v35l46 7
q11 2 13.5 5t2.5 15v384q0 12 -2.5 15t-13.5 5l-46 7v35h177v-35l-50 -7q-11 -2 -13.5 -5t-2.5 -15v-169h56q18 0 29.5 1.5t20.5 8.5t16.5 20t17.5 36l43 104q14 34 32.5 52.5t51.5 18.5q18 0 36 -5l-3 -40l-8 2q-4 0 -8 0.5t-9 0.5q-20 0 -29.5 -11.5t-19.5 -34.5l-41 -99
q-11 -26 -24.5 -44.5t-36.5 -27.5z" />
    <glyph glyph-name="afii10110" unicode="&#x45e;" horiz-adv-x="556" 
d="M73 447q-4 9 -8 12t-13 5l-41 10l9 34h171v-34l-69 -8l155 -396l161 396l-70 8l9 34h167v-34l-34 -5q-19 -3 -25 -17l-197 -473q-22 -54 -39.5 -92t-35.5 -62.5t-40.5 -36t-55.5 -11.5q-25 0 -48 5.5t-39 13.5l16 43q13 -7 32 -12t37 -5q20 0 33.5 6t24 19.5t21 35.5
t23.5 54l32 76zM438 704q-8 -28 -19 -52t-28.5 -41.5t-42 -27.5t-58.5 -10q-68 0 -99.5 36t-44.5 95l42 14q12 -52 33.5 -78.5t69.5 -26.5q47 0 69.5 28.5t38.5 76.5z" />
    <glyph glyph-name="afii10193" unicode="&#x45f;" horiz-adv-x="571" 
d="M328 0q-8 0 -10 -9l-10 -118l-32 3l-14 115q-1 9 -10 9h-201v35l46 7q11 2 13.5 5t2.5 15v384q0 12 -2.5 15t-13.5 5l-46 7v35h177v-35l-50 -7q-11 -2 -13.5 -5t-2.5 -15v-405h274v405q0 12 -2.5 15t-13.5 5l-50 7v35h177v-35l-46 -7q-11 -2 -13.5 -5t-2.5 -15v-384
q0 -12 2.5 -15t13.5 -5l46 -7v-35h-219z" />
    <glyph glyph-name="afii10050" unicode="&#x490;" horiz-adv-x="520" 
d="M431 724q14 0 17 13l14 97l39 2v-153h-297v-620q0 -12 2.5 -15.5t13.5 -4.5l147 -8v-35h-290v35l63 7q11 2 13.5 5.5t2.5 14.5v601q0 11 -2.5 15t-13.5 5l-63 7v34h354z" />
    <glyph glyph-name="afii10098" unicode="&#x491;" horiz-adv-x="399" 
d="M163 467v-405q0 -12 2.5 -15t13.5 -5l77 -7v-35h-204v35l46 7q11 2 13.5 5t2.5 15v384q0 12 -2.5 15t-13.5 5l-46 7v35h263q8 0 10 2.5t4 8.5l13 65h37v-117h-216z" />
    <glyph glyph-name="thinspace" unicode="&#x2009;" horiz-adv-x="125" 
 />
    <glyph glyph-name="endash" unicode="&#x2013;" horiz-adv-x="500" 
d="M0 262v41h499v-41h-499z" />
    <glyph glyph-name="emdash" unicode="&#x2014;" horiz-adv-x="1000" 
d="M0 262v41h999v-41h-999z" />
    <glyph glyph-name="quoteleft" unicode="&#x2018;" horiz-adv-x="175" 
d="M129 564q-37 3 -57.5 12t-20.5 38q0 9 3 17.5t8 17.5l55 101l30 -12l-30 -94q-1 -5 5 -8l27 -13z" />
    <glyph glyph-name="quoteright" unicode="&#x2019;" horiz-adv-x="176" 
d="M43 577l30 94q0 6 -6 8l-26 13l20 58q37 -2 57.5 -11t20.5 -38q0 -10 -4 -18.5t-9 -17.5l-53 -101z" />
    <glyph glyph-name="quotesinglbase" unicode="&#x201a;" horiz-adv-x="156" 
d="M35 -100l31 92q4 9 -4 12l-27 13l19 56q37 -2 57 -11t20 -38q0 -10 -3.5 -19t-8.5 -18l-54 -100z" />
    <glyph glyph-name="quotedblleft" unicode="&#x201c;" horiz-adv-x="313" 
d="M269 564q-37 3 -57.5 12t-20.5 38q0 9 3 17.5t8 17.5l55 101l30 -12l-30 -94q-1 -5 5 -8l27 -13zM129 564q-37 3 -57.5 12t-20.5 38q0 9 3 17.5t8 17.5l55 101l30 -12l-30 -94q-1 -5 5 -8l27 -13z" />
    <glyph glyph-name="quotedblright" unicode="&#x201d;" horiz-adv-x="313" 
d="M183 577l30 94q0 6 -6 8l-26 13l20 58q37 -2 57.5 -11t20.5 -38q0 -10 -4 -18.5t-9 -17.5l-53 -101zM43 577l30 94q0 6 -6 8l-26 13l20 58q37 -2 57.5 -11t20.5 -38q0 -10 -4 -18.5t-9 -17.5l-53 -101z" />
    <glyph glyph-name="quotedblbase" unicode="&#x201e;" horiz-adv-x="293" 
d="M35 -100l31 92q4 9 -4 12l-27 13l19 56q37 -2 57 -11t20 -38q0 -10 -3.5 -19t-8.5 -18l-54 -100zM175 -100l31 92q4 9 -4 12l-27 13l19 56q37 -2 57 -11t20 -38q0 -10 -3.5 -19t-8.5 -18l-54 -100z" />
    <glyph glyph-name="dagger" unicode="&#x2020;" horiz-adv-x="386" 
d="M171 -83v193l-12 210l20 114h28l19 -114l-12 -211v-192h-43zM179 434l-84 -10h-74v49h74l84 -10v-29zM168 561v84h49v-84l-10 -98h-28zM291 424l-84 10v29l84 10h74v-49h-74z" />
    <glyph glyph-name="daggerdbl" unicode="&#x2021;" horiz-adv-x="385" 
d="M94 137l84 -10l-19 114v79l20 114l-84 -10h-74v49h74l84 -10l-11 98v84h49v-84l-10 -98l84 10h74v-49h-74l-84 10v29h-28v-29h28l19 -114v-79l-20 -114l84 10h74v-49h-74l-84 10v29h-28v-29h28l11 -98v-84h-49v84l10 98l-84 -10h-74v49h74z" />
    <glyph glyph-name="bullet" unicode="&#x2022;" horiz-adv-x="361" 
d="M307 280q0 -63 -33 -94t-94 -31q-60 0 -93.5 31t-33.5 94t33.5 94t93.5 31q61 0 94 -31t33 -94z" />
    <glyph glyph-name="ellipsis" unicode="&#x2026;" 
d="M347 40q0 -26 -14 -39t-39 -13q-24 0 -38 13t-14 39t14 39t38 13q53 0 53 -52zM162 40q0 -26 -14 -39t-39 -13q-24 0 -38 13t-14 39t14 39t38 13q53 0 53 -52zM530 40q0 -26 -14 -39t-39 -13q-24 0 -38 13t-14 39t14 39t38 13q53 0 53 -52z" />
    <glyph glyph-name="perthousand" unicode="&#x2030;" horiz-adv-x="1045" 
d="M188 295q-39 0 -64.5 13.5t-41 35.5t-22 50.5t-6.5 58.5q0 35 9 65.5t26.5 53t44 35.5t61.5 13q72 0 103 -44.5t31 -113.5q0 -75 -35.5 -121t-105.5 -46zM148 -17l377 638h50l-376 -638h-51zM191 335q27 0 44 10t27 27.5t14 40t4 46.5q0 23 -3.5 44.5t-13 38.5t-26.5 27
t-43 10q-27 0 -44.5 -12t-27.5 -30.5t-14 -40.5t-4 -41q0 -22 3.5 -44t13.5 -38.5t26.5 -27t43.5 -10.5zM530 -12q-38 0 -64 13.5t-41.5 35.5t-22 50.5t-6.5 58.5q0 35 9 65.5t26.5 53t44 35.5t61.5 13q36 0 61.5 -11.5t41.5 -32.5t23.5 -50t7.5 -64q0 -75 -35 -121
t-106 -46zM532 28q27 0 44.5 10t28 27.5t14.5 40t4 46.5q0 23 -3.5 44.5t-13.5 38.5t-27 27t-43 10q-27 0 -44.5 -12t-28 -30.5t-14.5 -40.5t-4 -41q0 -22 4 -44t13.5 -38.5t26.5 -27t43 -10.5zM850 -12q-38 0 -64 13.5t-41.5 35.5t-22 50.5t-6.5 58.5q0 35 9 65.5t26.5 53
t44 35.5t61.5 13q36 0 61.5 -11.5t41.5 -32.5t23.5 -50t7.5 -64q0 -75 -35 -121t-106 -46zM852 28q27 0 44.5 10t27.5 27.5t14 40t4 46.5q0 23 -3.5 44.5t-13 38.5t-26.5 27t-43 10q-27 0 -44.5 -12t-27.5 -30.5t-14 -40.5t-4 -41q0 -22 3.5 -44t13 -38.5t26.5 -27t43 -10.5
z" />
    <glyph glyph-name="guilsinglleft" unicode="&#x2039;" horiz-adv-x="278" 
d="M160 103l-89 158l89 147h54l-71 -135q-4 -7 -4 -10t3 -9l72 -151h-54z" />
    <glyph glyph-name="guilsinglright" unicode="&#x203a;" horiz-adv-x="279" 
d="M64 103l72 140q4 7 4 10t-3 9l-71 146h54l88 -153l-90 -152h-54z" />
    <glyph glyph-name="fraction" unicode="&#x2044;" horiz-adv-x="105" 
d="M-154 -8l354 732h48l-354 -732h-48z" />
    <glyph glyph-name="Euro" unicode="&#x20ac;" horiz-adv-x="512" 
d="M135 228q16 -97 65.5 -148t130.5 -51q26 0 50.5 3.5t36.5 8.5q9 4 11.5 8.5t3.5 10.5l12 74l34 4v-124q-14 -5 -53 -15.5t-92 -10.5q-106 0 -168.5 61t-79.5 179h-75l8 42h62q-2 21 -2 43.5t2 44.5h-50l8 41h47q9 63 32.5 109t57.5 75.5t77 44t91 14.5q51 0 86 -10
t52 -16v-126l-35 4l-14 78q-1 5 -3 9.5t-10 7.5q-11 5 -34 8.5t-51 3.5q-81 0 -133.5 -51t-67.5 -151h236l-7 -41h-233q-3 -46 0 -88h220l-8 -42h-207z" />
    <glyph glyph-name="afii61352" unicode="&#x2116;" horiz-adv-x="1110" 
d="M551 0l-347 578v-515q0 -12 2.5 -15t13.5 -5l67 -8v-35h-210v35l63 7q11 2 13.5 5.5t2.5 14.5v500q0 11 -2.5 14.5t-13.5 5.5l-63 7v36h158l334 -563v500q0 11 -2.5 14.5t-13.5 5.5l-63 7v35h210v-35l-67 -8q-11 -2 -13.5 -5t-2.5 -14v-562h-66zM862 256q51 0 78 31.5
t27 99.5q0 128 -102 128q-53 0 -81.5 -31.5t-28.5 -96.5q0 -131 107 -131zM714 122v47h301v-47h-301zM860 215q-42 0 -71 13t-46.5 36t-25.5 54t-8 66t8.5 65.5t27.5 54t48.5 37t72.5 13.5q44 0 72.5 -13.5t45 -36t23 -52.5t6.5 -62q0 -37 -7.5 -69t-25.5 -55.5t-47.5 -37
t-72.5 -13.5z" />
    <glyph glyph-name="trademark" unicode="&#x2122;" horiz-adv-x="818" 
d="M88 348v30l64 5v302h-94l-11 -58h-30v97h318v-97h-30l-9 58h-97v-302l69 -5v-30h-180zM657 348v29l51 5v254l-107 -207h-36l-106 208v-255l55 -5v-29h-144v29l44 5v305l-44 5v32h92l123 -244l126 244h86v-32l-43 -5v-305l45 -5v-29h-142z" />
    <glyph glyph-name="partialdiff" unicode="&#x2202;" horiz-adv-x="541" 
d="M421 328q2 18 3.5 41t1.5 48q0 36 -7 73.5t-23.5 68t-44.5 50t-70 19.5q-43 0 -84 -16.5t-70 -34.5l-24 35q38 24 85 41.5t93 17.5q61 0 99 -25t59 -64t28.5 -87.5t7.5 -95.5q0 -37 -3.5 -81.5t-13 -90.5t-26 -89t-43.5 -76.5t-65.5 -53.5t-91.5 -20q-47 0 -81 14
t-55.5 39t-32 59.5t-10.5 74.5q0 49 13 92t38 74.5t62 50t84 18.5q59 0 102.5 -26t68.5 -56zM417 275q-10 12 -26 27.5t-37 29t-47 22.5t-56 9q-40 0 -68.5 -16.5t-45.5 -43t-25 -59.5t-8 -66q0 -66 32 -106.5t94 -40.5q55 0 89 26t54.5 63.5t29.5 80t14 74.5z" />
    <glyph glyph-name="product" unicode="&#x220f;" horiz-adv-x="766" 
d="M500 -176v35l63 7q11 2 13.5 5.5t2.5 14.5v796h-392v-795q0 -12 2.5 -15t13.5 -5l67 -8v-35h-211v35l63 7q11 2 13.5 5.5t2.5 14.5v776q0 11 -2.5 14.5t-13.5 5.5l-63 7v35h652v-35l-67 -8q-11 -2 -13.5 -5t-2.5 -14v-775q0 -12 2.5 -15t13.5 -5l67 -8v-35h-211z" />
    <glyph glyph-name="summation" unicode="&#x2211;" horiz-adv-x="627" 
d="M32 -176v36l236 421l-214 404v39h514v-137l-38 2l-14 79q-3 13 -17 13h-383l211 -403l-238 -414h407q8 0 11 1.5t5 9.5l16 87h38v-138h-534z" />
    <glyph glyph-name="minus" unicode="&#x2212;" 
d="M100 297v50h371v-50h-371z" />
    <glyph glyph-name="radical" unicode="&#x221a;" 
d="M265 0l-136 242q-3 5 -6.5 7.5t-11.5 0.5l-62 -20l-15 34l105 52l145 -263l182 689l42 -11l-194 -731h-49z" />
    <glyph glyph-name="infinity" unicode="&#x221e;" horiz-adv-x="690" 
d="M346 284q-12 -13 -28 -29.5t-35.5 -30.5t-43.5 -24t-53 -10q-22 0 -44.5 8t-40.5 23.5t-29 39.5t-11 56q0 59 37.5 96t97.5 37q27 0 49 -8t41 -21.5t35 -29.5t31 -33q14 15 29 31t34 29.5t41 22.5t49 9q25 0 47.5 -7.5t39.5 -24t27 -41.5t10 -60q0 -27 -10 -50t-27.5 -40
t-41.5 -26.5t-52 -9.5q-29 0 -51.5 9t-40.5 23t-32.5 30t-27.5 31zM322 323q-26 32 -56 56t-73 24q-21 0 -36.5 -7t-25.5 -18.5t-14.5 -26t-4.5 -28.5q0 -13 3 -28.5t11.5 -29t24 -22t40.5 -8.5q21 0 41 10t36.5 24t30.5 29t23 25zM380 317q12 -14 24.5 -28.5t26.5 -26.5
t30 -19.5t35 -7.5q33 0 57 22t24 64q0 38 -19 61.5t-58 23.5q-19 0 -34.5 -7.5t-30 -19.5t-27.5 -28t-28 -34z" />
    <glyph glyph-name="integral" unicode="&#x222b;" horiz-adv-x="430" 
d="M75 -125q15 -8 37 -13.5t43 -5.5q37 0 55.5 17.5t15.5 57.5l-55 657q-3 38 6 64.5t26.5 43t41.5 24t51 7.5t49 -7t38 -14l-15 -41q-38 20 -79 20q-30 0 -51 -20.5t-17 -70.5l54 -651q3 -36 -5 -61.5t-24.5 -41t-40.5 -22.5t-52 -7q-34 0 -55.5 6.5t-36.5 14.5z" />
    <glyph glyph-name="approxequal" unicode="&#x2248;" 
d="M501 493q-5 -19 -11.5 -36t-17 -30t-25.5 -20t-38 -7q-27 0 -58 7.5t-61.5 16.5t-59 16.5t-50.5 7.5q-26 0 -41 -15t-34 -44l-36 15q20 40 43.5 65t66.5 25q29 0 58.5 -7.5t58.5 -16.5t56.5 -16.5t51.5 -7.5q27 0 37.5 15t21.5 45zM500 323q-6 -20 -12.5 -37t-16.5 -30
t-25 -20t-38 -7q-27 0 -58 7.5t-61.5 16.5t-59 16.5t-50.5 7.5q-26 0 -41 -14.5t-34 -43.5l-36 14q20 40 43.5 65t66.5 25q29 0 58.5 -7.5t58.5 -16.5t56.5 -16.5t51.5 -7.5q27 0 37.5 15t20.5 45z" />
    <glyph glyph-name="notequal" unicode="&#x2260;" 
d="M259 186l-51 -95h-59l51 95h-97v52h125l49 92h-174v52h202l57 104h59l-57 -104h105v-52h-133l-49 -92h182v-52h-210z" />
    <glyph glyph-name="lessequal" unicode="&#x2264;" 
d="M89 242v57l368 167l20 -44l-338 -149l342 -138l-19 -43zM90 0v50h370v-50h-370z" />
    <glyph glyph-name="greaterequal" unicode="&#x2265;" 
d="M108 92l-19 43l342 138l-338 149l20 44l368 -167v-57zM110 0v50h370v-50h-370z" />
    <glyph glyph-name="lozenge" unicode="&#x25ca;" 
d="M260 -17l-157 324l157 324h50l157 -324l-157 -324h-50zM411 307l-126 264l-126 -264l126 -263z" />
    <glyph glyph-name="breve.cyr" horiz-adv-x="500" 
d="M396 704q-8 -28 -19 -52t-28.5 -41.5t-42 -27.5t-58.5 -10q-68 0 -99.5 36t-44.5 95l42 14q12 -52 33.5 -78.5t69.5 -26.5q47 0 69.5 28.5t38.5 76.5z" />
    <glyph glyph-name="hyphen.case" horiz-adv-x="311" 
d="M20 322v51h271v-51h-271z" />
    </font>
</defs>
</svg>
