<?xml version="1.0" standalone="no"?>
<!DOCTYPE svg PUBLIC "-//W3C//DTD SVG 1.1//EN" "http://www.w3.org/Graphics/SVG/1.1/DTD/svg11.dtd" >
<svg xmlns="http://www.w3.org/2000/svg" xmlns:xlink="http://www.w3.org/1999/xlink" version="1.1">
<metadata>
Created by FontForge 20170731 at Wed May 14 19:40:59 2014
 By ,,,
Copyright (c) 2010 by TypeTogether. All rights reserved.This font is ONLY licensed for use when accessed from the Extensis WebINK font service. Any other use of this font file is illegal under United States and international copyright laws. Please respect the rights of the people who design and license fonts.
</metadata>
<defs>
<font id="AdelleCyrillic-ThinItalic" horiz-adv-x="500" >
  <font-face 
    font-family="Adelle Cyrillic"
    font-weight="250"
    font-style="italic"
    font-stretch="normal"
    units-per-em="1000"
    panose-1="2 0 5 3 0 0 0 9 0 4"
    ascent="755"
    descent="-245"
    x-height="508"
    cap-height="724"
    bbox="-171 -225 1052 920"
    underline-thickness="50"
    underline-position="-200"
    unicode-range="U+000D-25CA"
  />
<missing-glyph 
 />
    <glyph glyph-name=".notdef" 
 />
    <glyph glyph-name=".null" horiz-adv-x="0" 
 />
    <glyph glyph-name="nonmarkingreturn" unicode="&#xd;" 
 />
    <glyph glyph-name="NULL" horiz-adv-x="0" 
 />
    <glyph glyph-name="NULL" horiz-adv-x="0" 
 />
    <glyph glyph-name="space" unicode=" " horiz-adv-x="236" 
 />
    <glyph glyph-name="exclam" unicode="!" horiz-adv-x="250" 
d="M105 180l42 385l23 159h60l-23 -159l-63 -385h-39zM158 49q0 -31 -16 -46t-44 -15q-46 0 -46 43q0 30 16 45.5t44 15.5q46 0 46 -43z" />
    <glyph glyph-name="quotedbl" unicode="&#x22;" horiz-adv-x="343" 
d="M237 447l37 259h59l-37 -259h-59zM88 447l37 259h59l-37 -259h-59z" />
    <glyph glyph-name="numbersign" unicode="#" horiz-adv-x="607" 
d="M396 152l-44 -152h-49l43 152h-145l-43 -152h-50l43 152h-126l17 40h121l52 174h-126l17 41h122l38 136h51l-40 -136h143l38 136h51l-39 -136h125l-16 -41h-123l-48 -174h123l-15 -40h-120zM407 366h-143l-51 -174h145z" />
    <glyph glyph-name="dollar" unicode="$" horiz-adv-x="510" 
d="M332 625q55 -2 95 -14.5t57 -20.5l-18 -142l-36 5l-5 94q-1 5 -2.5 7t-8.5 6q-18 9 -38.5 13.5t-49.5 5.5l-35 -255q27 -10 52.5 -21.5t45 -28.5t31.5 -40.5t12 -58.5q0 -75 -45.5 -120.5t-138.5 -53.5l-11 -81h-41l10 80q-34 0 -65 4.5t-56.5 10.5t-43.5 13t-27 11
l19 129h35l11 -92q2 -5 4 -8.5t14 -8.5q17 -6 44.5 -11t70.5 -6l33 252q-27 9 -54 20t-48 28t-34 42.5t-13 64.5q0 42 16 73.5t42.5 53t61.5 33t73 14.5l11 71h42zM145 452q0 -25 9.5 -43t24.5 -31.5t34 -23t38 -16.5l33 241q-65 -6 -102 -41t-37 -86zM382 171q0 25 -7 42
t-20 29.5t-30.5 21.5t-37.5 17l-33 -236q70 8 99 42.5t29 83.5z" />
    <glyph glyph-name="percent" unicode="%" horiz-adv-x="839" 
d="M213 256q-38 0 -64 12.5t-42 33t-23 47.5t-7 55q0 46 12.5 85t36 68t58 45.5t78.5 16.5q71 0 102.5 -40.5t31.5 -106.5q0 -47 -12 -86.5t-35.5 -68.5t-57.5 -45t-78 -16zM217 297q46 0 71.5 20.5t38 49t15.5 58t3 47.5q0 22 -4.5 41t-14.5 33.5t-27 23t-42 8.5
q-38 0 -63 -17t-40 -42t-21 -54.5t-6 -54.5q0 -23 4 -43.5t14.5 -36t28 -24.5t43.5 -9zM600 -12q-38 0 -64 12.5t-42 33t-23 47.5t-7 55q0 46 12.5 85t36 68t58 45.5t78.5 16.5q71 0 102.5 -40.5t31.5 -106.5q0 -47 -12 -86.5t-35.5 -68.5t-57.5 -45t-78 -16zM604 29
q46 0 71.5 20.5t38 49t15.5 58t3 47.5q0 22 -4.5 41t-14.5 33.5t-27 23t-42 8.5q-38 0 -63 -17t-40 -42t-21 -54.5t-6 -54.5q0 -23 4 -43.5t14.5 -36t28 -24.5t43.5 -9zM167 -17l466 638h49l-465 -638h-50z" />
    <glyph glyph-name="ampersand" unicode="&#x26;" horiz-adv-x="669" 
d="M574 323q-17 -1 -18 -14l-38 -266q-42 -26 -92.5 -40.5t-119.5 -14.5q-121 0 -176 47t-55 125q0 62 36.5 113t121.5 73q-14 5 -30.5 14t-30.5 24.5t-23.5 39t-9.5 56.5q0 40 16 74.5t45 60t70.5 40t93.5 14.5q29 0 56 -4.5t49.5 -10.5t40 -13t26.5 -13l-18 -120l-38 1
l-4 85q0 13 -12 17q-19 7 -47.5 11.5t-48.5 4.5q-25 0 -55.5 -5.5t-57.5 -21.5t-45 -43.5t-18 -72.5q0 -54 32.5 -86t104.5 -32h64l-7 -41q-29 0 -58 -1.5t-54 -6.5q-66 -13 -105 -47.5t-39 -103.5q0 -42 15 -68.5t39.5 -42t57 -21t67.5 -5.5q60 0 98.5 11.5t58.5 21.5
q9 4 10 14l41 287h104l-6 -36z" />
    <glyph glyph-name="quotesingle" unicode="'" horiz-adv-x="194" 
d="M88 447l37 259h59l-37 -259h-59z" />
    <glyph glyph-name="parenleft" unicode="(" horiz-adv-x="282" 
d="M153 -147q-33 69 -58.5 156.5t-25.5 192.5q0 82 20 155.5t51 138.5t69 120.5t75 101.5l34 -24q-48 -66 -85 -124.5t-62.5 -116t-39 -118t-13.5 -130.5q0 -101 24 -181t54 -150z" />
    <glyph glyph-name="parenright" unicode=")" horiz-adv-x="276" 
d="M-35 -123q48 66 85.5 124.5t63 116t39 118t13.5 130.5q0 51 -6.5 95.5t-18 85t-25.5 78t-29 72.5l41 20q33 -69 59.5 -156t26.5 -192q0 -82 -19.5 -155.5t-50.5 -138.5t-69 -120.5t-75 -101.5z" />
    <glyph glyph-name="asterisk" unicode="*" horiz-adv-x="468" 
d="M114 441l46 45l86 72l-101 26l-55 22l26 49l56 -20l87 -47l5 106l8 61h54l-8 -61l-26 -106h-33l-13 -30l27 -20l-74 -86l-48 -48zM355 406l-34 46l-48 86l25 19l-6 31l101 47l60 20l13 -49l-62 -22l-106 -27l64 -73l34 -47z" />
    <glyph glyph-name="plus" unicode="+" horiz-adv-x="570" 
d="M241 134l22 163h-156l7 50h156l23 158h52l-23 -158h163l-8 -50h-163l-22 -163h-51z" />
    <glyph glyph-name="comma" unicode="," horiz-adv-x="175" 
d="M-1 -103l47 103q3 7 -4 10l-29 14l32 65q37 -3 58.5 -11t21.5 -33q0 -14 -5.5 -26.5t-13.5 -24.5l-76 -110z" />
    <glyph glyph-name="hyphen" unicode="-" horiz-adv-x="311" 
d="M24 262l8 51h271l-8 -51h-271z" />
    <glyph glyph-name="period" unicode="." horiz-adv-x="190" 
d="M127 51q0 -26 -15.5 -44.5t-45.5 -18.5q-21 0 -33 10t-12 30q0 32 16.5 48t43.5 16q46 0 46 -41z" />
    <glyph glyph-name="slash" unicode="/" horiz-adv-x="344" 
d="M-26 -92l389 823h46l-390 -823h-45z" />
    <glyph glyph-name="zero" unicode="0" horiz-adv-x="533" 
d="M495 291q-7 -57 -22.5 -111t-44.5 -97t-76 -69t-117 -26q-56 0 -92.5 17t-58 46t-30 66.5t-8.5 78.5q0 21 0.5 42.5t3.5 43.5q8 56 26 110t49.5 96t79.5 67.5t115 25.5q52 0 87 -17t56 -45.5t29.5 -66t8.5 -78.5t-6 -83zM237 29q52 0 88.5 20.5t61.5 55.5t39 82t21 99
q6 42 6 80q0 36 -7 67.5t-23.5 55t-43.5 36.5t-67 13q-51 0 -88 -19.5t-62.5 -54.5t-41 -83t-23.5 -105q-3 -34 -3 -67q0 -37 7 -70t23.5 -57.5t44 -38.5t68.5 -14z" />
    <glyph glyph-name="one" unicode="1" horiz-adv-x="344" 
d="M3 0l6 34l106 8q9 1 11.5 5t4.5 15l61 435q2 13 -1 16t-11 5l-93 16l6 32h156l-70 -504q-2 -12 0 -15.5t14 -4.5l88 -9l-5 -33h-273z" />
    <glyph glyph-name="two" unicode="2" horiz-adv-x="459" 
d="M8 0l5 40l158 134q47 41 84.5 72.5t64.5 61.5t41.5 61.5t14.5 71.5q0 43 -27.5 71t-98.5 28q-35 0 -60.5 -4.5t-43 -17.5t-27.5 -36t-14 -61l-46 6q5 53 24.5 83.5t47 46t61 20t66.5 4.5q90 0 128 -39.5t38 -102.5q0 -45 -20 -83.5t-51.5 -73t-69 -66.5t-72.5 -62
l-130 -111h249q8 0 11.5 1.5t5.5 9.5l28 91h38l-21 -145h-384z" />
    <glyph glyph-name="three" unicode="3" horiz-adv-x="452" 
d="M284 264q46 -11 78.5 -47t32.5 -97q0 -42 -13.5 -78.5t-41.5 -64.5t-69.5 -44t-98.5 -16q-34 0 -63 7.5t-52.5 19.5t-41 27t-27.5 30l36 31q25 -32 61.5 -51.5t92.5 -19.5q30 0 59.5 8t53 26t38 48t14.5 75q0 60 -35.5 91t-107.5 31q-29 0 -68 -6l6 45l65 6q85 8 126 49
t41 101q0 44 -26 74.5t-88 30.5q-35 0 -61 -5t-44 -18.5t-28 -36t-14 -58.5l-48 6q3 49 22 79t47 46.5t62 22t68 5.5q45 0 76 -11t50 -29.5t27.5 -43.5t8.5 -53q0 -60 -34.5 -106t-103.5 -74z" />
    <glyph glyph-name="four" unicode="4" horiz-adv-x="468" 
d="M278 -67l22 157h-281l4 38l296 436l34 -23l-275 -409h228l31 222l47 7l-32 -229h94l-7 -42h-93l-21 -157h-47z" />
    <glyph glyph-name="five" unicode="5" horiz-adv-x="478" 
d="M171 526l-51 -241q29 19 64.5 32.5t76.5 13.5q76 0 121.5 -44.5t45.5 -130.5q0 -50 -16.5 -93.5t-47.5 -76t-75 -51t-99 -18.5q-68 0 -116 22.5t-77 59.5l36 31q58 -70 155 -70q32 0 65.5 11t61 34.5t45 60t17.5 87.5q0 37 -10.5 63t-28 42t-40.5 23.5t-47 7.5
q-48 0 -80.5 -18.5t-59.5 -36.5l-43 19l65 313h324l-5 -40h-281z" />
    <glyph glyph-name="six" unicode="6" horiz-adv-x="519" 
d="M471 555q-25 23 -54 35t-65 12q-61 0 -102 -31t-67 -75t-39 -92.5t-18 -83.5q14 11 34 25t44 26.5t52.5 21t58.5 8.5q41 0 69 -12.5t46 -34t26 -51.5t8 -65q0 -53 -13.5 -98.5t-40.5 -79.5t-68.5 -53t-97.5 -19q-51 0 -84.5 19t-54 52.5t-28.5 79t-8 99.5q0 32 5.5 74
t18.5 87.5t34 89.5t52.5 78.5t74 56t97.5 21.5q36 0 77 -13t73 -45zM122 272q-1 -11 -1.5 -25.5t-0.5 -30.5q0 -30 4.5 -62.5t18.5 -60.5t39.5 -46t66.5 -18q74 0 119 49t45 152q0 59 -24 93.5t-80 34.5q-28 0 -57 -10t-54 -23.5t-45 -28t-31 -24.5z" />
    <glyph glyph-name="seven" unicode="7" horiz-adv-x="478" 
d="M117 -67q23 101 58 190t76 164t84.5 135.5t83.5 103.5h-273q-8 0 -11.5 -1.5t-5.5 -9.5l-31 -95l-33 -2l19 148h406l-6 -34q-45 -41 -95 -111t-94.5 -153t-78.5 -171t-47 -164h-52z" />
    <glyph glyph-name="eight" unicode="8" horiz-adv-x="482" 
d="M334 329q40 -24 69 -59t29 -91q0 -46 -16.5 -81.5t-46.5 -60t-71.5 -37t-91.5 -12.5q-36 0 -67 9t-54 27t-36 44.5t-13 60.5q0 36 13.5 67t35.5 58t51 50t60 44q-35 20 -60 50.5t-25 75.5q0 42 17 73.5t45 53.5t62.5 33t68.5 11q41 0 70.5 -10t49.5 -27.5t29.5 -40
t9.5 -47.5q0 -30 -12 -57.5t-30.5 -51.5t-41.5 -45t-45 -37zM235 327q-69 -45 -106.5 -90t-37.5 -99q0 -51 32.5 -78t97.5 -27q35 0 65 11t51.5 29.5t33.5 44t12 55.5t-11.5 52t-32 40t-47.5 32.5t-57 29.5zM293 349q23 17 43 35.5t35.5 39t24.5 43t9 47.5q0 24 -9 41
t-24.5 27.5t-35 15t-40.5 4.5q-25 0 -49 -7.5t-42.5 -22.5t-29.5 -36.5t-11 -48.5q0 -26 7.5 -44t23 -33t40 -29t58.5 -32z" />
    <glyph glyph-name="nine" unicode="9" horiz-adv-x="507" 
d="M59 14q27 -26 59 -40.5t69 -14.5q62 0 102 30.5t64 73.5t35.5 90t15.5 80q-14 -13 -34.5 -26t-45.5 -23.5t-52.5 -17.5t-56.5 -7q-40 0 -69 13t-47.5 36t-27 53.5t-8.5 66.5q0 53 14 99t42 80t69.5 54t96.5 20q51 0 84.5 -19.5t53.5 -54.5t28 -83t8 -106q0 -33 -4.5 -76
t-16 -87.5t-31 -87t-49 -76t-70.5 -54t-95 -20.5q-40 0 -85 14t-79 51zM405 282q2 10 2 28v39q0 30 -4.5 64t-18 62t-39 46.5t-67.5 18.5q-75 0 -119.5 -54t-44.5 -154q0 -60 25.5 -95t80.5 -35q29 0 57 8t52.5 20t44 26t31.5 26z" />
    <glyph glyph-name="colon" unicode=":" horiz-adv-x="194" 
d="M185 448q0 -26 -15.5 -44.5t-45.5 -18.5q-21 0 -33 10t-12 30q0 32 16.5 48t43.5 16q46 0 46 -41zM130 51q0 -26 -15.5 -44.5t-45.5 -18.5q-21 0 -33 10t-12 30q0 32 16.5 48t43.5 16q46 0 46 -41z" />
    <glyph glyph-name="semicolon" unicode=";" horiz-adv-x="175" 
d="M-1 -103l47 103q3 7 -4 10l-29 14l32 65q37 -3 58.5 -11t21.5 -33q0 -14 -5.5 -26.5t-13.5 -24.5l-76 -110zM184 448q0 -26 -15.5 -44.5t-45.5 -18.5q-21 0 -33 10t-12 30q0 32 16.5 48t43.5 16q46 0 46 -41z" />
    <glyph glyph-name="less" unicode="&#x3c;" horiz-adv-x="570" 
d="M101 257l11 62l384 163l17 -43l-366 -152l325 -142l-21 -42z" />
    <glyph glyph-name="equal" unicode="=" horiz-adv-x="570" 
d="M96 186l7 52h366l-8 -52h-365zM116 330l9 52h365l-9 -52h-365z" />
    <glyph glyph-name="greater" unicode="&#x3e;" horiz-adv-x="570" 
d="M490 320l-11 -62l-384 -162l-17 43l366 152l-325 141l21 42z" />
    <glyph glyph-name="question" unicode="?" horiz-adv-x="442" 
d="M151 179l23 174q48 6 92 18.5t77.5 35.5t53.5 60t20 91q0 64 -35 94t-107 30q-38 0 -65.5 -5t-38.5 -11q-4 -2 -4.5 -5t-4.5 -11l-21 -63l-37 -2l15 110q3 2 17.5 6.5t36 9.5t49 9t56.5 4q42 0 77 -8.5t60 -28t39 -50t14 -74.5q0 -61 -20.5 -103.5t-55 -71.5t-80 -46
t-94.5 -26l-18 -137h-49zM208 49q0 -31 -15.5 -46t-44.5 -15q-21 0 -33.5 10.5t-12.5 32.5q0 30 16.5 45.5t43.5 15.5q46 0 46 -43z" />
    <glyph glyph-name="at" unicode="@" horiz-adv-x="820" 
d="M569 -138q-25 -10 -76 -22t-121 -12q-73 0 -133 19.5t-103 57.5t-66.5 96t-23.5 134q0 88 31 166.5t88 137t137.5 92.5t178.5 34q67 0 122.5 -18t95.5 -53.5t62 -87t22 -119.5q0 -46 -10 -99t-33.5 -98.5t-63 -75.5t-99.5 -30q-57 0 -79 25t-22 59l-38 -30t-38.5 -27
t-40 -19.5t-41.5 -7.5q-47 0 -66.5 27.5t-19.5 80.5q0 48 15.5 100.5t45.5 96.5t75 73t104 29q33 0 65 -10t55 -22l-50 -193q-7 -24 -12.5 -45.5t-7.5 -39.5q-4 -35 13 -48t49 -13q43 0 73 26.5t49 66t27.5 85t8.5 83.5q0 118 -70.5 181.5t-202.5 63.5q-83 0 -152.5 -30.5
t-119.5 -83.5t-78 -125t-28 -155q0 -70 20.5 -120t59 -82t92.5 -47t121 -15q45 0 90 9t86 23zM537 330q-17 11 -37 15.5t-41 4.5q-43 0 -76 -26t-56 -65t-35 -83.5t-12 -82.5q0 -27 9.5 -46t38.5 -19q17 0 38.5 9t43 23t41 30.5t33.5 31.5z" />
    <glyph glyph-name="A" unicode="A" horiz-adv-x="668" 
d="M398 695l-187 -410h268zM435 0l5 28l87 9l-38 206h-296l-94 -206l77 -9l-5 -28h-187l6 28l41 11q13 3 20 10t11 15l306 660h67l135 -668q3 -13 21 -17l43 -11l-5 -28h-194z" />
    <glyph glyph-name="B" unicode="B" horiz-adv-x="644" 
d="M47 0l4 29l62 7q11 2 14 5.5t5 14.5l84 610q2 11 -0.5 15t-12.5 5l-61 8l5 30h266q55 0 91.5 -11.5t58.5 -31.5t31 -47.5t9 -60.5q0 -43 -13 -76t-34.5 -56.5t-49 -39t-56.5 -24.5q71 -8 111.5 -51t40.5 -107q0 -62 -21 -104t-59 -67.5t-91 -36.5t-117 -11h-267zM319 42
q48 0 91 6t74.5 24.5t50 52.5t18.5 90q0 34 -13 59.5t-35.5 42t-53.5 25t-67 8.5h-167l-41 -308h143zM344 392q34 0 70.5 8t66.5 28t49.5 54.5t19.5 87.5q0 60 -36 86.5t-116 26.5h-134l-39 -291h119z" />
    <glyph glyph-name="C" unicode="C" horiz-adv-x="657" 
d="M585 39q-42 -27 -105 -39t-131 -12q-76 0 -129.5 23.5t-87.5 64.5t-50 97.5t-16 123.5q0 95 26 176t77 139.5t126.5 91.5t173.5 33q67 0 119 -14.5t84 -37.5l-19 -134l-38 2l-4 92q0 8 -2 12t-10 7q-29 11 -63 19.5t-76 8.5q-74 0 -137 -26t-108.5 -76t-71.5 -122.5
t-26 -164.5q0 -131 59.5 -201t182.5 -70q39 0 85 6t82 22q10 4 14 17l29 87h33z" />
    <glyph glyph-name="D" unicode="D" horiz-adv-x="761" 
d="M47 0l5 31l62 7q9 1 12 4t5 14l85 611q2 11 -0.5 15t-12.5 5l-61 7l5 30h276q81 0 139 -21.5t96 -60t56 -93t18 -120.5q0 -94 -25 -172.5t-76.5 -135.5t-131 -89t-188.5 -32h-264zM321 42q173 0 266 99t93 285q0 73 -19.5 122t-55.5 79t-86 43t-110 13h-144l-88 -641h144
z" />
    <glyph glyph-name="E" unicode="E" horiz-adv-x="613" 
d="M48 0l3 30l63 7q11 2 13.5 5.5t4.5 14.5l84 609q2 11 0 15t-13 5l-60 7l4 31h471l-19 -137l-33 2l-3 81q-1 13 -14 13h-284l-39 -296h284l-7 -41h-283l-42 -304h304q8 0 11.5 1.5t5.5 9.5l28 88h33l-20 -141h-492z" />
    <glyph glyph-name="F" unicode="F" horiz-adv-x="588" 
d="M49 0l4 30l62 7q11 2 13.5 5.5t4.5 14.5l83 609q2 11 0 15t-13 5l-60 7l5 31h467l-19 -137l-32 2l-3 81q-1 13 -15 13h-279l-39 -293h279l-7 -41h-279l-40 -291q-2 -12 0 -15.5t13 -4.5l143 -8l-4 -30h-284z" />
    <glyph glyph-name="G" unicode="G" horiz-adv-x="713" 
d="M663 289q-17 -1 -18 -14l-34 -252q-21 -9 -48.5 -15.5t-57.5 -11t-61.5 -6.5t-60.5 -2q-85 0 -145.5 23.5t-99 65t-56 99t-17.5 125.5q0 92 26 171.5t76.5 138.5t125.5 92.5t173 33.5q69 0 122.5 -14.5t83.5 -37.5l-18 -135l-38 1l-4 96q0 5 -1 9.5t-8 7.5
q-29 12 -68.5 20t-81.5 8q-74 0 -136 -25.5t-107 -74.5t-70 -120t-25 -162q0 -142 69.5 -209.5t200.5 -67.5q46 0 93.5 6t76.5 14q5 2 9.5 5t6.5 12l28 213h-148l14 42h245l-6 -32z" />
    <glyph glyph-name="H" unicode="H" horiz-adv-x="785" 
d="M480 0l5 30l62 7q11 2 13.5 5.5t4.5 14.5l41 297h-385l-41 -296q-2 -12 0 -15t13 -5l65 -8l-5 -30h-206l4 30l63 7q11 2 13.5 5.5t4.5 14.5l85 610q2 11 0 15t-13 5l-60 7l4 30h206l-4 -30l-67 -8q-11 -2 -13.5 -5t-4.5 -14l-37 -271h385l37 271q2 11 0 15t-12 5l-61 7
l3 30h206l-3 -30l-66 -8q-11 -2 -14 -5t-5 -14l-84 -609q-2 -12 0 -15t12 -5l65 -8l-5 -30h-206z" />
    <glyph glyph-name="I" unicode="I" horiz-adv-x="352" 
d="M37 0l4 30l73 7q11 1 13.5 5t4.5 15l85 610q2 11 0 15t-13 5l-70 7l2 30h227l-3 -30l-78 -8q-10 -2 -13 -5t-5 -14l-84 -609q-2 -12 0 -15t13 -5l74 -8l-3 -30h-227z" />
    <glyph glyph-name="J" unicode="J" horiz-adv-x="474" 
d="M359 668q2 11 -0.5 14.5t-12.5 4.5l-79 7l3 30h226l-3 -30l-67 -8q-11 -2 -14 -4.5t-5 -13.5l-75 -532q-10 -76 -46.5 -112t-118.5 -36q-55 0 -92.5 12.5t-48.5 20.5l15 108l33 -2v-72q0 -5 1.5 -8t8.5 -6q8 -5 31.5 -10t58.5 -5q59 0 82 30.5t31 89.5z" />
    <glyph glyph-name="K" unicode="K" horiz-adv-x="685" 
d="M546 0l-4 4l-69 120l-162 253l-99 -91l-32 -228q-2 -12 0 -15t13 -5l69 -8l-6 -30h-206l4 30l60 7q10 2 13 5t5 16l85 609q2 11 0 15t-13 5l-60 7l5 30h206l-6 -30l-66 -8q-11 -2 -13.5 -5t-4.5 -14l-47 -322l350 340l-59 8l5 31h191l-5 -30l-57 -11q-14 -2 -19 -5
t-13 -10l-264 -257l224 -356q7 -11 26 -15l58 -10l-5 -30h-104z" />
    <glyph glyph-name="L" unicode="L" horiz-adv-x="595" 
d="M49 0l4 30l61 7q11 2 13.5 5.5t4.5 14.5l85 609q2 11 0 15t-13 5l-60 7l4 31h222l-4 -31l-83 -8q-11 -1 -13.5 -4.5t-4.5 -14.5l-88 -624h307q8 0 11.5 1.5t5.5 9.5l27 85h33l-20 -138h-492z" />
    <glyph glyph-name="M" unicode="M" horiz-adv-x="909" 
d="M585 0l3 30l85 9q9 1 12 5t5 15l82 589l-292 -457h-44l-171 466l-85 -599q-2 -12 0.5 -15.5t13.5 -4.5l86 -8l-3 -30h-228l3 30l63 7q11 2 13.5 6t4.5 15l84 608q2 11 0 15t-13 5l-60 7l4 31h143l173 -483l303 483h144l-4 -30l-67 -8q-11 -2 -14 -6t-5 -19l-84 -604
q-2 -10 1 -13.5t13 -5.5l65 -8l-3 -30h-228z" />
    <glyph glyph-name="N" unicode="N" horiz-adv-x="817" 
d="M572 0l-305 676l-86 -618q-2 -12 0 -15t13 -5l65 -8l-3 -30h-207l2 30l63 7q11 2 13.5 5.5t4.5 14.5l85 609q2 11 0 14.5t-13 5.5l-60 7l4 31h155l295 -670l82 613q2 11 0 14.5t-13 5.5l-61 7l4 30h209l-4 -30l-67 -8q-11 -2 -14 -5t-5 -14l-92 -667h-65z" />
    <glyph glyph-name="O" unicode="O" horiz-adv-x="749" 
d="M345 -12q-73 0 -126 23t-87.5 63.5t-51.5 96t-17 121.5q0 97 25.5 178.5t74.5 141t121 92.5t166 33q71 0 123 -22.5t85.5 -61.5t49.5 -91t16 -112q0 -109 -26.5 -194.5t-75.5 -145t-119.5 -91t-157.5 -31.5zM350 31q68 0 127 26t102.5 77t69 125.5t25.5 171.5
q0 30 -2.5 61t-13.5 62q-22 68 -76.5 104t-137.5 36q-68 0 -128 -25.5t-105 -75t-71 -123t-26 -168.5q0 -31 2.5 -63t13.5 -65q23 -68 77.5 -105.5t142.5 -37.5z" />
    <glyph glyph-name="P" unicode="P" horiz-adv-x="642" 
d="M47 0l4 30l63 7q11 2 14 5.5t5 14.5l84 610q2 11 -0.5 15t-13.5 5l-60 7l4 30h279q59 0 99 -14t65.5 -38.5t36.5 -57t11 -69.5q0 -72 -21 -122t-60 -81.5t-95 -45.5t-126 -14h-126l-31 -224q-1 -12 1 -15.5t12 -4.5l139 -8l-4 -30h-280zM339 323q53 0 98 8.5t79 32.5
t53 66.5t19 111.5t-41.5 105t-136.5 36h-145l-49 -360h123z" />
    <glyph glyph-name="Q" unicode="Q" horiz-adv-x="749" 
d="M638 -123q-14 -1 -26.5 -1.5t-24.5 -0.5q-66 0 -112 16t-80 34.5t-60.5 34.5t-53.5 16q-26 0 -50 -9t-47 -20l-19 33q16 10 38.5 18t43.5 12v1q-98 32 -141 106.5t-43 174.5q0 97 25.5 178.5t74.5 141t121 92.5t166 33q71 0 123 -22.5t85.5 -61.5t49.5 -91.5t16 -112.5
q0 -102 -24 -185t-70.5 -142t-115.5 -91.5t-158 -33.5v-1q31 -18 58.5 -32.5t54.5 -25t56 -16.5t64 -6q12 0 25.5 0.5t27.5 2.5zM353 32q68 0 126.5 26t101.5 77.5t68 127t25 174.5q0 29 -3 58.5t-13 58.5q-22 68 -76.5 104t-137.5 36q-68 0 -128 -25.5t-105 -75t-71 -123
t-26 -168.5q0 -31 2.5 -63t13.5 -65q23 -68 81 -105t142 -37z" />
    <glyph glyph-name="R" unicode="R" horiz-adv-x="651" 
d="M507 0l-4 3l-71 264q-7 26 -20.5 40t-39.5 14h-156l-37 -263q-2 -12 0 -15t13 -5l69 -8l-5 -30h-207l4 30l61 7q11 2 13.5 5.5t4.5 15.5l85 608q2 11 0 15t-13 5l-60 7l4 31h260q62 0 102.5 -13.5t64 -37t33 -55t9.5 -66.5q0 -34 -9.5 -66.5t-30.5 -61t-54.5 -52
t-81.5 -39.5q26 -15 34.5 -38t12.5 -37l51 -199q3 -13 10 -15t18 -4l58 -10l-5 -30h-113zM340 362q48 0 89.5 12t71.5 35.5t47.5 58.5t17.5 82q0 40 -12.5 66t-36 41t-58.5 20.5t-80 5.5h-113l-44 -321h118z" />
    <glyph glyph-name="S" unicode="S" horiz-adv-x="558" 
d="M497 559l-5 99q0 9 -10 14q-13 6 -34.5 11.5t-71.5 5.5q-40 0 -75 -8t-61.5 -26t-42 -47.5t-15.5 -73.5q0 -33 11 -55t30.5 -37.5t45.5 -27t57 -22.5q32 -12 62.5 -25t55.5 -33.5t40 -50t15 -73.5q0 -61 -21 -103.5t-58 -69t-86.5 -38t-105.5 -11.5q-34 0 -65.5 4
t-57.5 9.5t-44.5 11.5t-27.5 11l19 140h35l6 -94q1 -8 2.5 -10.5t6.5 -4.5q10 -5 44.5 -13.5t91.5 -8.5q97 0 151.5 41.5t54.5 130.5q0 33 -10 56t-27.5 38.5t-40 26.5t-47.5 20q-33 12 -67.5 24.5t-62 32t-45 49.5t-17.5 79q0 54 21 92.5t57 64t82.5 37.5t97.5 12
q63 0 107 -12t63 -19l-22 -152z" />
    <glyph glyph-name="T" unicode="T" horiz-adv-x="606" 
d="M136 0l5 30l98 7q10 1 13 5t5 15l87 626h-190q-8 0 -11.5 -1.5t-5.5 -9.5l-27 -89h-32l18 141h558l-19 -141h-32l-4 89q-1 8 -4 9.5t-10 1.5h-193l-86 -626q-2 -11 0 -14.5t13 -4.5l109 -8l-6 -30h-286z" />
    <glyph glyph-name="U" unicode="U" horiz-adv-x="767" 
d="M642 667q1 11 -0.5 15t-12.5 5l-61 7l5 30h204l-5 -30l-65 -8q-11 -2 -14.5 -5t-5.5 -14l-60 -440q-16 -126 -83 -182.5t-193 -56.5q-113 0 -162.5 48.5t-49.5 137.5q0 13 1 27t3 28l57 438q2 11 0 15t-12 5l-61 7l6 30h206l-5 -30l-65 -8q-11 -2 -14.5 -5t-5.5 -14
l-59 -439q-2 -13 -3 -25.5t-1 -23.5q0 -43 12 -71.5t34.5 -45.5t54.5 -24t72 -7q46 0 84 9.5t66.5 32.5t47 60.5t26.5 92.5z" />
    <glyph glyph-name="V" unicode="V" horiz-adv-x="651" 
d="M270 0l-133 666q-2 9 -7.5 12t-13.5 5l-43 11l6 30h191l-3 -30l-84 -9l126 -648l286 648l-79 9l7 30h189l-4 -30l-42 -11q-12 -3 -19 -9t-14 -20l-296 -654h-67z" />
    <glyph glyph-name="W" unicode="W" horiz-adv-x="921" 
d="M586 0l-80 524l-225 -524h-54l-82 666q-1 17 -15 18l-63 10l8 30h213l-5 -30l-91 -10l71 -619l214 504h67l79 -516l241 631l-89 10l5 30h210l-4 -30l-56 -9q-9 -2 -14 -6.5t-10 -16.5l-258 -662h-62z" />
    <glyph glyph-name="X" unicode="X" horiz-adv-x="635" 
d="M396 0l4 30l74 9l-148 298l-213 -298l68 -9l-5 -30h-185l3 28l47 11q16 4 28 19l231 322l-140 286q-4 8 -8.5 11.5t-12.5 5.5l-39 11l5 30h172l-5 -30l-67 -8l131 -273l206 272l-68 9l6 30h175l-6 -30l-40 -11q-17 -4 -28 -19l-220 -291l159 -315q4 -8 8.5 -11t12.5 -5
l49 -12l-6 -30h-188z" />
    <glyph glyph-name="Y" unicode="Y" horiz-adv-x="567" 
d="M133 0l4 30l92 7q10 1 12.5 5t4.5 16l31 229l-146 379q-3 8 -8 11.5t-13 5.5l-43 11l5 30h180l-4 -30l-72 -9l130 -352l222 352l-70 9l4 30h179l-5 -30l-42 -11q-11 -3 -16.5 -8t-11.5 -14l-241 -371l-30 -232q-2 -12 0 -15.5t13 -4.5l91 -8l-4 -30h-262z" />
    <glyph glyph-name="Z" unicode="Z" horiz-adv-x="612" 
d="M23 0l5 33l522 650h-349q-8 0 -11.5 -1.5t-5.5 -9.5l-31 -95l-37 -3l22 150h482l-4 -35l-523 -647h377q15 0 19 13l32 106h36l-21 -161h-513z" />
    <glyph glyph-name="bracketleft" unicode="[" horiz-adv-x="242" 
d="M45 -143l122 867h128l-4 -31l-69 -7q-11 -2 -14 -4.5t-5 -14.5l-105 -751q-1 -11 0.5 -14.5t12.5 -5.5l67 -7l-5 -32h-128z" />
    <glyph glyph-name="backslash" unicode="\" horiz-adv-x="335" 
d="M254 -92l-158 823h43l160 -823h-45z" />
    <glyph glyph-name="bracketright" unicode="]" horiz-adv-x="229" 
d="M-40 -143l5 31l68 7q11 2 14 4.5t5 14.5l106 751q1 11 -0.5 14.5t-12.5 5.5l-67 7l4 32h128l-122 -867h-128z" />
    <glyph glyph-name="asciicircum" unicode="^" horiz-adv-x="508" 
d="M438 299l-131 319l-216 -319h-54l248 365h51l150 -365h-48z" />
    <glyph glyph-name="underscore" unicode="_" 
d="M-12 -181l6 38h499l-6 -38h-499z" />
    <glyph glyph-name="grave" unicode="`" 
d="M248 716l43 37l136 -158l-24 -22z" />
    <glyph glyph-name="a" unicode="a" horiz-adv-x="563" 
d="M379 0l15 104q-22 -21 -44.5 -41.5t-47.5 -37t-51.5 -27t-56.5 -10.5q-70 0 -109 45t-39 139q0 59 12.5 120.5t41.5 111.5t76 82t116 32q46 0 86 -19t65 -40l15 49h49q-8 -29 -14.5 -57t-11.5 -58l-47 -336q-2 -12 0.5 -15t13.5 -5l51 -7l-5 -30h-115zM435 411
q-22 24 -63 45t-88 21q-55 0 -91.5 -29t-59 -73t-32 -97t-9.5 -100q0 -43 8 -71.5t22 -46t33 -24.5t41 -7q30 0 59 14t55 34.5t49 44t41 42.5z" />
    <glyph glyph-name="b" unicode="b" horiz-adv-x="566" 
d="M65 0q6 23 15 62t14 79l79 552q3 17 -10 21l-56 14l3 27h118l-48 -345q23 20 48 39t51 34.5t53.5 25t55.5 9.5q30 0 55 -10.5t43.5 -34t29 -60t10.5 -88.5q0 -54 -13 -113.5t-41.5 -109t-73.5 -82t-109 -32.5q-49 0 -91 22t-71 49l-14 -59h-48zM139 109q11 -13 27 -26.5
t35.5 -25t42 -19t47.5 -7.5q50 0 85.5 29t58 72.5t33 95t10.5 96.5q0 46 -7.5 75t-20 45.5t-29.5 22.5t-37 6q-28 0 -59 -13.5t-59.5 -33t-53 -40.5t-39.5 -36z" />
    <glyph glyph-name="c" unicode="c" horiz-adv-x="478" 
d="M397 24q-26 -15 -67.5 -25.5t-86.5 -10.5q-102 0 -149.5 56t-47.5 150q0 89 24 150.5t64 100t92 56t109 17.5q55 0 85.5 -9.5t42.5 -13.5l-15 -114l-37 3l-3 69q0 9 -11 13t-29 7t-46 3q-42 0 -83 -15.5t-73 -49t-51.5 -86t-19.5 -126.5q0 -85 38 -128t107 -43
q42 0 81 10.5t61 22.5z" />
    <glyph glyph-name="d" unicode="d" horiz-adv-x="567" 
d="M379 0l15 98q-19 -18 -41.5 -37t-47 -35.5t-52 -27t-57.5 -10.5q-70 0 -110 44.5t-40 139.5q0 56 11.5 117t39.5 112t74 84t115 33q25 0 48 -6.5t42.5 -16t36 -21.5t28.5 -23l32 244q2 19 -10 20l-55 13l3 27h121l-98 -698q-2 -12 0.5 -15t13.5 -5l51 -7l-4 -30h-116z
M435 405q-11 11 -27 23.5t-36 23t-43 17.5t-47 7q-55 0 -91.5 -29.5t-58.5 -74.5t-31 -97.5t-9 -98.5q0 -43 8.5 -71t22.5 -45t33 -24t41 -7q30 0 58 13t53.5 32t48.5 41t42 40z" />
    <glyph glyph-name="e" unicode="e" horiz-adv-x="461" 
d="M392 24q-35 -19 -76.5 -27.5t-85.5 -8.5q-51 0 -86.5 14.5t-57 41t-31 63.5t-9.5 81q0 60 18.5 119.5t53 106t84 75.5t112.5 29q36 0 60.5 -9.5t38.5 -24.5t20 -35t6 -41q0 -40 -19 -69.5t-49 -50.5t-68 -34.5t-76.5 -22t-73.5 -13.5t-59 -8q0 -43 5.5 -76t21 -55.5
t43.5 -34.5t72 -12q43 0 78 8.5t66 23.5zM100 251q31 4 79.5 11.5t95 24t80 44t33.5 72.5q0 32 -18 52t-60 20t-78 -18.5t-63 -49.5t-45 -71.5t-24 -84.5z" />
    <glyph glyph-name="f" unicode="f" horiz-adv-x="361" 
d="M49 -212l96 668q2 10 -7 10h-74l7 42h80l15 112q11 75 50.5 110.5t105.5 35.5q28 0 50 -5.5t38 -13t27 -15.5t16 -13l-26 -36q-5 4 -14.5 10.5t-23 13t-31 11.5t-37.5 5q-52 0 -77 -32t-32 -92l-11 -81q-1 -5 0 -7.5t7 -2.5h166l-7 -42h-173l-96 -678h-49z" />
    <glyph glyph-name="g" unicode="g" horiz-adv-x="551" 
d="M395 98q-18 -18 -40 -37.5t-47 -35.5t-53.5 -26.5t-58.5 -10.5q-70 0 -110 44t-40 140q0 55 11.5 116t40 112t75.5 84.5t118 33.5q48 0 88 -19.5t65 -40.5l15 50h49q-10 -37 -16.5 -67t-11.5 -62l-57 -426q-12 -88 -64.5 -132t-137.5 -44q-63 0 -107 12.5t-69 25.5l21 42
q5 -4 18.5 -10t33.5 -12t44.5 -10.5t52.5 -4.5q65 0 106.5 29.5t52.5 105.5zM436 411q-22 26 -64 46t-90 20q-55 0 -91.5 -29.5t-58.5 -74.5t-31 -98.5t-9 -100.5q0 -42 8.5 -70t22.5 -44.5t33 -23.5t41 -7q30 0 58 13t54 32.5t49.5 42t42.5 42.5z" />
    <glyph glyph-name="h" unicode="h" horiz-adv-x="616" 
d="M423 0l-2 3l20 101l31 213q4 24 5 48t1 37q0 35 -15.5 53t-52.5 18q-27 0 -56.5 -11t-59 -29t-58 -40.5t-54.5 -45.5l-38 -289q-2 -12 0.5 -15t13.5 -5l71 -8l-5 -30h-206l6 31l50 7q13 2 16 5t5 15l88 635q3 18 -9 21l-57 14l3 27h119l-49 -351q59 48 113.5 81t111.5 33
q61 0 87.5 -31.5t26.5 -88.5q0 -13 -1.5 -30t-3.5 -32l-40 -278q-2 -12 0.5 -15t13.5 -5l60 -8l-5 -30h-130z" />
    <glyph glyph-name="i" unicode="i" horiz-adv-x="279" 
d="M180 644q-20 0 -31 9.5t-11 26.5q0 21 14.5 36t40.5 15q19 0 29.5 -9.5t10.5 -26.5q0 -20 -14.5 -35.5t-38.5 -15.5zM80 0l-2 4l19 98l49 346q3 17 -11 21l-55 12l3 27h121l-65 -450q-2 -12 0.5 -15t13.5 -5l68 -8l-5 -30h-136z" />
    <glyph glyph-name="j" unicode="j" horiz-adv-x="265" 
d="M144 447q3 20 -9 21l-63 13l6 27h123l-82 -582q-11 -77 -41 -113t-96 -36q-38 0 -70 14t-43 25l25 36q11 -9 36 -21t51 -12q24 0 40 8.5t25.5 24t15 37.5t9.5 49zM181 644q-20 0 -31 9.5t-11 26.5q0 21 14.5 36t40.5 15q20 0 30 -9.5t10 -26.5q0 -20 -14 -35.5t-39 -15.5
z" />
    <glyph glyph-name="k" unicode="k" horiz-adv-x="562" 
d="M399 0l-3 3l-34 93l-85 189l-122 -114l-15 -113q-2 -12 0 -15t13 -5l74 -8l-5 -30h-206l6 31l51 7q11 2 13.5 5.5t4.5 14.5l90 636q3 16 -10 20l-56 14l4 27h120l-74 -520l242 241q20 19 42 30.5t54 11.5q7 0 15.5 -0.5t17.5 -1.5l-4 -39q-16 0 -29 -1.5t-25.5 -7
t-26 -16t-31.5 -27.5l-105 -102l112 -262q6 -12 17 -15l73 -16l-6 -30h-112z" />
    <glyph glyph-name="l" unicode="l" horiz-adv-x="277" 
d="M74 0l-2 4l19 98l84 592q3 17 -12 21l-55 13l4 27h119l-97 -697q-2 -12 0.5 -15t13.5 -5l67 -8l-5 -30h-136z" />
    <glyph glyph-name="m" unicode="m" horiz-adv-x="905" 
d="M714 0l-2 4l15 70l35 243q5 35 7.5 57.5t2.5 36.5q0 31 -12 47.5t-48 16.5q-20 0 -40 -7t-44 -23t-54.5 -40.5t-71.5 -59.5l-41 -287q-2 -12 0.5 -15t13.5 -5l61 -8l-4 -30h-131l-3 4l20 92l32 221q4 26 6 52.5t2 38.5q0 42 -15 54.5t-47 12.5q-24 0 -53 -12.5t-58 -31.5
t-56.5 -41t-48.5 -42l-38 -290q-2 -12 0.5 -15t13.5 -5l70 -8l-5 -30h-203l6 31l51 7q11 2 14 5.5t5 14.5l52 388q3 17 -9 21l-56 14l3 27h119l-15 -107q66 57 116 87.5t101 30.5q60 0 84.5 -32t17.5 -92q20 17 44 38.5t51 40t57 31.5t60 13q58 0 80 -27.5t21 -75.5
q0 -11 -2 -33t-5 -42l-41 -282q-2 -12 0.5 -15t13.5 -5l62 -8l-5 -30h-129z" />
    <glyph glyph-name="n" unicode="n" horiz-adv-x="619" 
d="M426 0l-2 4l19 97l31 216q3 22 5 41t2 32q0 48 -16.5 65.5t-56.5 17.5q-28 0 -58.5 -12.5t-60.5 -31.5t-58 -40.5t-49 -38.5l-39 -292q-2 -12 0.5 -15t13.5 -5l71 -8l-5 -30h-205l6 31l51 7q11 2 14 5.5t5 14.5l53 388q3 18 -9 21l-56 14l3 27h119l-14 -103
q26 22 53.5 42.5t56.5 36t58 25t58 9.5q63 0 89 -30.5t26 -89.5q0 -12 -1.5 -30t-3.5 -32l-40 -278q-2 -12 0.5 -15t14.5 -5l59 -8l-5 -30h-129z" />
    <glyph glyph-name="o" unicode="o" horiz-adv-x="547" 
d="M239 -12q-51 0 -87.5 14.5t-60 41.5t-35 64.5t-11.5 82.5q0 71 17 130.5t51.5 103.5t85.5 68.5t118 24.5q51 0 86.5 -15.5t58.5 -43t33.5 -65t10.5 -81.5q0 -76 -18.5 -136.5t-53 -102.5t-84 -64t-111.5 -22zM245 30q97 0 154 74t57 210q0 78 -37 119t-109 41
q-100 0 -158 -72t-58 -203q0 -81 37.5 -125t113.5 -44z" />
    <glyph glyph-name="p" unicode="p" horiz-adv-x="571" 
d="M52 -212l-4 4l27 171l66 483q3 18 -9 21l-57 14l4 27h120l-14 -102q24 22 48.5 42t50 35.5t52.5 25t56 9.5q30 0 56 -10.5t44.5 -33t29 -58.5t10.5 -88q0 -55 -12.5 -115t-40.5 -110t-73 -82.5t-109 -32.5q-51 0 -89 19.5t-72 53.5l-29 -210q-2 -13 -0.5 -16.5t12.5 -4.5
l86 -6l-5 -36h-148zM145 114q12 -14 28 -29t35 -27.5t40.5 -20.5t44.5 -8q53 0 89 29t58.5 72.5t32.5 95.5t10 97q0 47 -7.5 76.5t-20 46t-30 22.5t-38.5 6q-25 0 -55 -14t-59.5 -34.5t-54.5 -42.5t-41 -38z" />
    <glyph glyph-name="q" unicode="q" horiz-adv-x="550" 
d="M269 -212l5 36l68 7q11 1 13 4t4 16l34 245q-19 -19 -41 -38.5t-47.5 -35t-53 -25.5t-56.5 -10q-40 0 -68.5 14t-46.5 39t-26.5 59t-8.5 73q0 58 12 119.5t40 111.5t74.5 82.5t114.5 32.5q48 0 90.5 -17.5t68.5 -39.5l15 47h48q-10 -37 -16.5 -67t-11.5 -62l-71 -528
q-2 -11 0 -14.5t13 -5.5l50 -6l-5 -37h-198zM436 415q-23 23 -64 41.5t-89 18.5q-55 0 -92 -29.5t-59 -74t-31 -97.5t-9 -100q0 -42 8.5 -70t23 -44.5t34 -23.5t41.5 -7q28 0 55.5 12t53 30.5t49.5 42t44 46.5z" />
    <glyph glyph-name="r" unicode="r" horiz-adv-x="414" 
d="M18 0l6 31l53 6q14 1 17 20l53 389q3 18 -9 21l-56 14l3 27h117l-14 -107q16 19 35.5 39.5t41.5 38t46 28.5t48 11q17 0 29.5 -2.5t25.5 -6.5l-18 -128l-34 3l-3 81q0 5 -1 6.5t-9 1.5q-23 0 -68.5 -36t-99.5 -96l-39 -284q-2 -12 0.5 -15.5t13.5 -4.5l86 -7l-5 -30h-219
z" />
    <glyph glyph-name="s" unicode="s" horiz-adv-x="432" 
d="M357 378l-3 73q0 12 -9 15q-9 4 -28.5 7.5t-53.5 3.5q-27 0 -51 -6t-41.5 -18t-28 -30t-10.5 -42q0 -38 23.5 -57.5t66.5 -37.5q27 -11 53.5 -22.5t47.5 -28t34.5 -40t13.5 -58.5q0 -42 -15.5 -70.5t-41 -46t-57.5 -25t-65 -7.5q-68 0 -113 12t-58 19l17 120l36 -2l3 -78
q0 -6 3 -8.5t12 -6.5q15 -5 39 -10.5t59 -5.5q61 0 95.5 27t34.5 78q0 27 -9 44t-26.5 29.5t-42 22.5t-55.5 23q-46 19 -75 46.5t-29 76.5q0 39 16 66.5t42.5 44.5t60 24.5t69.5 7.5q54 0 89.5 -10t47.5 -15l-16 -118z" />
    <glyph glyph-name="t" unicode="t" horiz-adv-x="384" 
d="M327 13q-26 -11 -58.5 -18t-64.5 -7q-108 0 -108 92q0 5 0.5 11t1.5 11l49 355q1 5 0 7.5t-6 2.5h-73l4 31q23 4 40 11t30 21t23.5 37t19.5 58h34l-14 -107q-1 -10 5 -10h148l-6 -41h-155l-47 -341q-3 -21 -3 -38q0 -29 15 -44.5t51 -15.5q26 0 52.5 7.5t49.5 15.5z" />
    <glyph glyph-name="u" unicode="u" horiz-adv-x="615" 
d="M424 0l15 107q-60 -51 -114.5 -85.5t-113.5 -34.5q-49 0 -80.5 26t-31.5 93q0 13 2 31.5t4 33.5l39 279q2 12 -0.5 15t-13.5 5l-54 8l4 30h120l1 -2l-45 -317q-4 -25 -5.5 -44.5t-1.5 -29.5q0 -42 15 -63.5t56 -21.5q30 0 65 17.5t67 40t57.5 45t37.5 32.5l39 285
q2 12 -0.5 15t-13.5 5l-65 8l5 30h130l2 -2l-63 -451q-3 -16 9 -17l58 -9l-4 -29h-120z" />
    <glyph glyph-name="v" unicode="v" horiz-adv-x="507" 
d="M189 0l-96 452q-2 9 -5.5 12t-11.5 5l-42 9l5 30h98l3 -4l12 -92l73 -369l208 425l-64 11l5 29h130l2 -4l-258 -504h-59z" />
    <glyph glyph-name="w" unicode="w" horiz-adv-x="781" 
d="M479 0l-64 451l-191 -451h-61l-70 452q-2 14 -15 17l-44 9l4 30h95l3 -4l8 -79l56 -376l192 459h60l66 -466l190 426l-67 10l5 30h126l2 -4l-231 -504h-64z" />
    <glyph glyph-name="x" unicode="x" horiz-adv-x="539" 
d="M382 0l-6 5l-31 69l-79 157l-151 -192l69 -9l-3 -30h-193l4 31l58 11q8 2 12 3.5t12 12.5l168 213l-92 185q-4 8 -8 12t-13 5l-39 4l5 31h85l3 -3l32 -76l63 -127l143 168l-60 8l5 30h166l-5 -30l-41 -10q-10 -2 -15.5 -6.5t-11.5 -12.5l-160 -184l105 -205q5 -10 10 -13
t13 -5l65 -12l-5 -30h-105z" />
    <glyph glyph-name="y" unicode="y" horiz-adv-x="490" 
d="M191 24l-96 429q-2 9 -5.5 12t-11.5 5l-41 11l7 27h96l3 -3l21 -123l63 -296l188 383l-62 12l3 27h129l3 -4l-293 -577q-19 -38 -36.5 -66.5t-36.5 -47t-43 -27.5t-57 -9q-40 0 -71 14.5t-42 25.5l26 37q3 -3 11.5 -8.5t21 -11t27 -9.5t27.5 -4q21 0 36 5t28 18t27 35.5
t33 58.5z" />
    <glyph glyph-name="z" unicode="z" horiz-adv-x="486" 
d="M20 0l4 32l374 432h-235q-9 0 -13 -13l-22 -71l-38 -3l18 131h364l-4 -33l-376 -431h250q12 0 16 13l25 80l37 3l-19 -140h-381z" />
    <glyph glyph-name="braceleft" unicode="{" horiz-adv-x="257" 
d="M175 -145q-59 9 -89 28t-30 64q0 24 8.5 64t17.5 80q5 23 11.5 49.5t6.5 52.5q0 24 -6.5 38t-18 21.5t-26.5 10t-33 3.5l7 45q26 0 49.5 8t42.5 34q13 18 19 69.5t10 156.5q2 39 10 65t26 42.5t49 25.5t77 15l1 -41q-39 -6 -62 -14t-34.5 -20t-15 -29t-5.5 -42
q-4 -68 -7.5 -117.5t-5.5 -64.5q-4 -29 -14.5 -49t-23 -33t-25.5 -19t-24 -8q10 -4 20 -10t18.5 -15.5t13.5 -24.5t5 -39q0 -30 -6 -57t-14 -61q-3 -15 -7 -34.5t-7.5 -38.5t-6 -34.5t-2.5 -22.5q0 -28 19.5 -39t66.5 -22z" />
    <glyph glyph-name="bar" unicode="|" horiz-adv-x="279" 
d="M76 -143l125 867h43l-124 -867h-44z" />
    <glyph glyph-name="braceright" unicode="}" horiz-adv-x="274" 
d="M105 727q59 -9 89 -28.5t30 -64.5q0 -23 -9 -62.5t-17 -80.5q-5 -26 -11.5 -48.5t-6.5 -53.5q0 -24 6.5 -38t18 -22t26.5 -10.5t33 -3.5l-7 -44q-26 0 -49.5 -8t-42.5 -34q-6 -9 -10 -24.5t-7 -41t-5.5 -62t-5.5 -87.5q-3 -39 -10 -66.5t-25 -46t-48.5 -29.5t-79.5 -17
l-1 41q39 6 61.5 16t34 23t15.5 29.5t6 36.5q2 34 3.5 65t3.5 56t3.5 43t2.5 25q5 31 15.5 50.5t22.5 30.5t25 16t24 7q-10 5 -20 11t-18.5 15.5t-13.5 24.5t-5 36q0 30 6 57t14 61q3 15 7 34.5t7.5 38.5t6 34.5t2.5 22.5q0 28 -19.5 38.5t-66.5 21.5z" />
    <glyph glyph-name="asciitilde" unicode="~" horiz-adv-x="452" 
d="M473 388q-7 -16 -15.5 -32t-20 -29t-27 -20.5t-38.5 -7.5q-27 0 -57 7.5t-59 16.5t-56.5 16.5t-49.5 7.5q-12 0 -21 -3t-17.5 -10t-18 -18.5t-22.5 -28.5l-34 16q27 38 52 61t68 23q29 0 57 -7.5t56 -16.5t54 -16.5t50 -7.5q25 0 37.5 16t26.5 44z" />
    <glyph glyph-name="uni00A0" unicode="&#xa0;" horiz-adv-x="236" 
 />
    <glyph glyph-name="sterling" unicode="&#xa3;" horiz-adv-x="534" 
d="M42 0l-6 37q34 27 53.5 53t30.5 54.5t16 61.5t11 74l4 31h-86l7 42h84l12 86q7 49 20.5 87.5t37.5 64.5t61 40t90 14q28 0 52 -5.5t42.5 -12.5t31 -14.5t17.5 -12.5l-22 -34q-4 2 -15 8.5t-27 13t-36 11.5t-42 5q-72 0 -109 -34.5t-49 -121.5l-13 -95h201l-7 -42h-200
l-7 -54q-4 -32 -9 -60t-15 -53.5t-27 -50t-45 -48.5h296q8 0 12 1.5t6 9.5l28 89h37l-18 -145h-417z" />
    <glyph glyph-name="currency" unicode="&#xa4;" horiz-adv-x="570" 
d="M520 11l-96 93q-26 -20 -61.5 -32.5t-78.5 -12.5q-48 0 -83 12.5t-61 34.5l-94 -95l-38 36l97 97q-20 29 -28 63.5t-8 73.5q0 35 9 67.5t29 60.5l-96 95l42 39l92 -93q27 24 63.5 38t83.5 14q89 0 145 -48l88 88l37 -37l-90 -92q34 -53 34 -128q0 -38 -10 -73.5
t-32 -66.5l97 -96zM289 104q38 0 68.5 13.5t52 37.5t33 56.5t11.5 69.5q0 81 -42 127.5t-120 46.5q-40 0 -71 -13t-52 -36t-32 -55t-11 -70q0 -37 8.5 -69.5t27.5 -56.5t50.5 -37.5t76.5 -13.5z" />
    <glyph glyph-name="brokenbar" unicode="&#xa6;" horiz-adv-x="279" 
d="M76 -143l55 388h44l-55 -388h-44zM152 389l49 335h44l-49 -335h-44z" />
    <glyph glyph-name="section" unicode="&#xa7;" horiz-adv-x="534" 
d="M97 -65q0 -7 2 -9t7 -4q16 -7 42.5 -13.5t57.5 -6.5q61 0 96 26t35 77q0 24 -8.5 41t-23.5 29t-34.5 20t-41.5 14q-30 9 -57 18.5t-48 24t-33.5 36t-12.5 53.5q0 25 9 45.5t23 37.5t32 32l36 30q-14 13 -26.5 35.5t-12.5 55.5q0 38 15.5 66t42 46.5t62.5 27.5t77 9
q54 0 88.5 -10.5t45.5 -15.5l-16 -118l-39 2l-3 79q0 3 -1.5 7t-6.5 6q-14 5 -34 7.5t-43 2.5q-40 0 -66.5 -9.5t-42.5 -24t-23 -33t-7 -36.5q0 -25 8.5 -41.5t24.5 -28t37.5 -19t47.5 -14.5q28 -7 53.5 -16t45.5 -22.5t32 -33.5t12 -50q0 -27 -8.5 -48t-22.5 -39
t-32.5 -34.5t-38.5 -34.5q20 -20 31 -40t11 -49q0 -45 -16.5 -74.5t-43 -47.5t-60.5 -25.5t-69 -7.5q-27 0 -54 4.5t-49.5 10.5t-38.5 12t-21 9l15 116l40 -2zM311 126q13 12 28 25.5t28 29.5t21.5 34.5t8.5 39.5q0 33 -21.5 48.5t-46.5 23.5q-38 12 -62.5 18.5t-51.5 16.5
q-38 -27 -61 -56.5t-23 -58.5q0 -37 19.5 -53.5t54.5 -29.5q18 -6 31 -10.5t25 -8.5t24 -8.5t26 -10.5z" />
    <glyph glyph-name="dieresis" unicode="&#xa8;" 
d="M435 612q-20 0 -31 10t-11 27q0 23 14 37.5t40 14.5q40 0 40 -37q0 -20 -14.5 -36t-37.5 -16zM238 612q-20 0 -31 10t-11 27q0 23 14.5 37.5t39.5 14.5q40 0 40 -37q0 -20 -14 -36t-38 -16z" />
    <glyph glyph-name="copyright" unicode="&#xa9;" horiz-adv-x="757" 
d="M713 319q0 -74 -24 -134.5t-67.5 -104t-104.5 -67.5t-134 -24q-82 0 -143.5 24.5t-102.5 67t-62 100t-21 124.5q0 77 26 138t71 103.5t105 65t129 22.5q76 0 137 -22.5t103.5 -63.5t65 -99t22.5 -130zM385 25q66 0 119 20t89.5 57.5t56.5 91t20 119.5q0 70 -21 123
t-59 89t-90.5 54.5t-114.5 18.5q-61 0 -113.5 -19.5t-91 -57t-60 -92t-21.5 -123.5q0 -65 19.5 -117t56.5 -88.5t90 -56t120 -19.5zM509 146q-20 -12 -52 -19t-62 -7q-51 0 -86.5 14.5t-58 41t-33 62t-10.5 77.5t12 78t36 61.5t59.5 40t83.5 14.5q31 0 62.5 -6.5t49.5 -13.5
v-101l-36 4l-10 53q-2 7 -4 9.5t-8 4.5q-12 5 -27 7.5t-37 2.5q-24 0 -47 -8.5t-40.5 -27t-28 -48.5t-10.5 -72q0 -32 7.5 -60t24 -48.5t42 -32.5t60.5 -12q19 0 33.5 3.5t25.5 8.5q5 3 6 5t2 5l15 58h31v-94z" />
    <glyph glyph-name="guillemotleft" unicode="&#xab;" horiz-adv-x="415" 
d="M275 103l-66 158l110 147h57l-95 -139q-5 -6 -5 -9.5t2 -8.5l52 -148h-55zM138 103l-66 158l110 147h57l-95 -139q-5 -6 -5 -9.5t2 -8.5l52 -148h-55z" />
    <glyph glyph-name="logicalnot" unicode="&#xac;" horiz-adv-x="570" 
d="M404 206l14 97h-315l8 50h370l-22 -147h-55z" />
    <glyph glyph-name="uni00AD" unicode="&#xad;" horiz-adv-x="311" 
d="M16 262l8 51h271l-8 -51h-271z" />
    <glyph glyph-name="registered" unicode="&#xae;" horiz-adv-x="446" 
d="M442 480q0 -41 -13.5 -74.5t-37.5 -57.5t-57.5 -37t-74.5 -13q-45 0 -79.5 13.5t-57.5 36.5t-34.5 55.5t-11.5 69.5q0 43 14.5 77t39.5 57.5t58.5 36t71.5 12.5q85 0 133.5 -47.5t48.5 -128.5zM405 477q0 72 -41 109t-104 37q-31 0 -58 -10t-46.5 -29t-30.5 -47t-11 -63
q0 -67 38.5 -105t107.5 -38q68 0 106.5 39t38.5 107zM279 384v17l18 2l-27 48q-6 10 -19 10h-19v-52q0 -5 8 -6l15 -2v-17h-76v17l17 4q5 1 5 5v141q0 4 -4 5l-18 2v17h87q38 0 50 -16t12 -36q0 -21 -11.5 -34t-28.5 -18q10 -3 19 -21l22 -40q2 -5 8 -6l19 -3v-17h-77z
M247 487q17 0 32 6t15 28q0 17 -10 22.5t-29 5.5h-23v-62h15z" />
    <glyph glyph-name="macron" unicode="&#xaf;" 
d="M185 620l7 45h300l-7 -45h-300z" />
    <glyph glyph-name="degree" unicode="&#xb0;" horiz-adv-x="287" 
d="M206 606q31 0 46 18.5t15 50.5q0 46 -46 46q-28 0 -44.5 -18t-16.5 -53q0 -20 10.5 -32t35.5 -12zM312 679q0 -51 -31 -80.5t-82 -29.5q-40 0 -62.5 19.5t-22.5 57.5q0 29 9 50t24.5 35t36 21t42.5 7q38 0 62 -20t24 -60z" />
    <glyph glyph-name="plusminus" unicode="&#xb1;" horiz-adv-x="570" 
d="M59 0l7 50h370l-7 -50h-370zM308 297l-22 -167h-53l23 167h-156l8 50h155l23 158h52l-22 -158h162l-8 -50h-162z" />
    <glyph glyph-name="mu" unicode="&#xb5;" horiz-adv-x="627" 
d="M428 0l11 77q-21 -16 -44 -32t-48.5 -29.5t-53.5 -22t-58 -8.5q-38 0 -66.5 14.5t-37.5 38.5l-31 -215h-52l110 685h50l-47 -309q-6 -42 -6.5 -74t8 -53t27 -32t50.5 -11q30 0 60.5 11.5t58 28.5t50.5 36.5t38 35.5l51 367h49l-61 -446q-2 -12 0 -16.5t10 -5.5l54 -7
l-5 -33h-117z" />
    <glyph glyph-name="paragraph" unicode="&#xb6;" horiz-adv-x="583" 
d="M477 598h-88l-76 -542h-39q-52 0 -94.5 18.5t-72.5 52t-46 79.5t-16 101q0 78 23.5 140.5t68.5 106.5t109.5 67.5t146.5 23.5h230l-6 -36l-68 -8q-11 -2 -14 -5t-5 -14l-76 -543q-12 -86 -65.5 -129t-138.5 -43q-62 0 -106.5 13t-69.5 27l20 42q5 -4 19 -10.5t33.5 -13
t44.5 -11t53 -4.5q66 0 106 32t50 104z" />
    <glyph glyph-name="periodcentered" unicode="&#xb7;" horiz-adv-x="163" 
d="M148 308q0 -26 -15.5 -44.5t-45.5 -18.5q-21 0 -33 10t-12 30q0 32 16.5 48t43.5 16q46 0 46 -41z" />
    <glyph glyph-name="cedilla" unicode="&#xb8;" 
d="M137 -179q6 -2 15.5 -3t23.5 -1q36 0 60.5 16t24.5 48q0 20 -15.5 34t-54.5 14l26 90l39 -2l-17 -59q31 -5 50 -24.5t19 -49.5q0 -27 -10.5 -46.5t-28.5 -32.5t-41 -19.5t-48 -6.5q-16 0 -30.5 2t-22.5 5z" />
    <glyph glyph-name="guillemotright" unicode="&#xbb;" horiz-adv-x="415" 
d="M193 103l95 144q8 11 4 20l-52 141h54l66 -153l-107 -152h-60zM56 103l95 144q8 11 4 20l-52 141h54l66 -153l-107 -152h-60z" />
    <glyph glyph-name="multiply" unicode="&#xd7;" horiz-adv-x="570" 
d="M286 291l-133 -116l-29 33l134 116l-89 113l36 28l89 -112l135 118l29 -32l-136 -119l95 -118l-37 -29z" />
    <glyph glyph-name="divide" unicode="&#xf7;" horiz-adv-x="570" 
d="M318 184q0 -32 -17 -47t-46 -15q-46 0 -46 43q0 32 16.5 47.5t45.5 15.5q47 0 47 -44zM102 294l8 51h370l-8 -51h-370zM359 480q0 -32 -16.5 -47.5t-45.5 -15.5q-46 0 -46 43q0 32 16 47.5t45 15.5q47 0 47 -43z" />
    <glyph glyph-name="florin" unicode="&#x192;" horiz-adv-x="471" 
d="M250 337l-85 -273q-10 -34 -21.5 -60t-28.5 -44t-41 -27t-60 -9q-15 0 -31.5 3t-31.5 7.5t-27.5 10t-18.5 10.5l23 37q13 -8 38.5 -17t53.5 -9q63 0 89 81l86 280q5 10 -7 10h-91l12 39h103l36 118q12 40 27 68.5t36 47t49 27t67 8.5q46 0 70 -11t29 -14l-36 -115l-34 3
l9 79q1 10 -9 14q-8 3 -18 4.5t-27 1.5q-26 0 -44.5 -9.5t-32 -26t-23 -38.5t-17.5 -48l-30 -99q-2 -8 -0.5 -9t5.5 -1h148l-11 -39h-156z" />
    <glyph glyph-name="circumflex" unicode="&#x2c6;" 
d="M462 579l-114 108l-150 -108l-26 28l144 115h67l109 -120z" />
    <glyph glyph-name="caron" unicode="&#x2c7;" 
d="M220 722l114 -108l150 107l25 -27l-144 -115h-67l-109 120z" />
    <glyph glyph-name="uni02C9" unicode="&#x2c9;" 
d="M185 620l8 45h300l-7 -45h-301z" />
    <glyph glyph-name="breve" unicode="&#x2d8;" 
d="M511 704q-26 -60 -69.5 -95.5t-112.5 -35.5q-68 0 -102 35.5t-42 95.5l41 16q10 -52 32.5 -79.5t77.5 -27.5q48 0 81 27t56 80z" />
    <glyph glyph-name="dotaccent" unicode="&#x2d9;" 
d="M340 643q-20 0 -31 10.5t-11 27.5q0 22 16 36t39 14q19 0 29.5 -11t10.5 -27q0 -21 -15 -35.5t-38 -14.5z" />
    <glyph glyph-name="ring" unicode="&#x2da;" 
d="M463 717q0 -47 -27 -70.5t-77 -23.5q-38 0 -58.5 17.5t-20.5 53.5q0 40 25.5 67t76.5 27q37 0 59 -18t22 -53zM366 657q23 0 37.5 14.5t14.5 41.5q0 18 -9.5 27t-32.5 9q-24 0 -38.5 -13t-14.5 -40q0 -17 9.5 -28t33.5 -11z" />
    <glyph glyph-name="ogonek" unicode="&#x2db;" 
d="M307 -190q-38 -16 -75 -16q-30 0 -50 15t-20 45q0 26 10.5 48.5t28 42t40 37.5t46.5 36l38 -12q-12 -9 -31.5 -23.5t-38 -33t-31.5 -40.5t-13 -44q0 -17 10.5 -24.5t27.5 -7.5q11 0 25 3t25 7z" />
    <glyph glyph-name="tilde" unicode="&#x2dc;" 
d="M473 625q-14 -16 -25 -24t-25 -8q-9 0 -26 5l-134 40q-11 4 -21 -4l-44 -39l-23 19l35 42q14 14 24.5 21t24.5 7q12 0 30 -6l129 -39q12 -3 18 3l45 37l23 -18z" />
    <glyph glyph-name="hungarumlaut" unicode="&#x2dd;" 
d="M187 574l-22 17l153 172l41 -36zM343 574l-23 17l154 171l41 -35z" />
    <glyph glyph-name="uni0394" unicode="&#x394;" horiz-adv-x="639" 
d="M15 0l349 724h71l150 -724h-570zM396 693l-306 -651h432z" />
    <glyph glyph-name="uni03A9" unicode="&#x3a9;" horiz-adv-x="855" 
d="M488 0l16 120q33 12 74.5 38t78.5 67.5t62 99t25 132.5q0 56 -17 100.5t-48 75t-75 47t-98 16.5q-75 0 -137 -21.5t-106.5 -63.5t-69 -104t-24.5 -143q0 -51 12 -90.5t33.5 -69.5t51 -50.5t63.5 -33.5l-17 -120h-269l21 149h38l3 -92q0 -14 16 -14h144l8 58
q-78 38 -117 107.5t-39 152.5q0 82 27.5 151t78.5 119t123 78t161 28q73 0 127 -21.5t90 -59.5t53.5 -89t17.5 -110q0 -63 -18.5 -117t-50.5 -99t-76.5 -80.5t-96.5 -60.5l-7 -57h137q8 0 11 1.5t5 9.5l31 95h39l-22 -149h-259z" />
    <glyph glyph-name="uni03BC" unicode="&#x3bc;" horiz-adv-x="629" 
d="M428 0l11 77q-21 -16 -44 -32t-48.5 -29.5t-53.5 -22t-58 -8.5q-38 0 -66.5 14.5t-37.5 38.5l-31 -215h-52l110 685h50l-47 -309q-6 -42 -6.5 -74t8 -53t27 -32t50.5 -11q30 0 60.5 11.5t58 28.5t50.5 36.5t38 35.5l51 367h49l-61 -446q-2 -12 0 -16.5t10 -5.5l54 -7
l-5 -33h-117z" />
    <glyph glyph-name="pi" unicode="&#x3c0;" horiz-adv-x="697" 
d="M464 0l64 459h-294l-63 -459h-117l5 36l53 7q16 1 17 11l54 392q2 11 0 15.5t-13 4.5l-65 7l5 35h560l-5 -35l-72 -8q-11 -2 -14 -5t-5 -14l-53 -383q-2 -12 0.5 -15t13.5 -5l51 -7l-5 -36h-117z" />
    <glyph glyph-name="afii10023" unicode="&#x401;" horiz-adv-x="613" 
d="M364 834q0 -20 -15.5 -36t-38.5 -16q-18 0 -29 10t-11 27q0 20 15 35.5t38 15.5q18 0 29.5 -9.5t11.5 -26.5zM560 834q0 -20 -15 -36t-38 -16q-18 0 -29.5 10t-11.5 27q0 20 15.5 35.5t38.5 15.5q18 0 29 -9.5t11 -26.5zM48 0l3 30l63 7q11 2 13.5 5.5t4.5 14.5l84 609
q2 11 0 15t-13 5l-60 7l4 31h471l-19 -137l-33 2l-3 81q-1 13 -14 13h-284l-39 -296h284l-7 -41h-283l-42 -304h304q8 0 11.5 1.5t5.5 9.5l28 88h33l-20 -141h-492z" />
    <glyph glyph-name="afii10051" unicode="&#x402;" horiz-adv-x="795" 
d="M438 39q12 -5 36 -7.5t44 -2.5q35 0 66.5 9.5t55 32t37 58.5t13.5 88q0 44 -13.5 72.5t-37.5 45.5t-55.5 24t-67.5 7q-53 0 -95 -6.5t-75 -14.5l-48 -345h-162l5 30l98 7q10 1 13 5t5 15l87 626h-190q-8 0 -11.5 -1.5t-5.5 -9.5l-27 -89h-32l18 141h578l-19 -141h-32
l-4 89q-1 8 -4 9.5t-10 1.5h-213l-41 -295q25 6 70.5 13.5t100.5 7.5q110 0 164.5 -53.5t54.5 -139.5q0 -112 -61 -170t-163 -58q-55 0 -93.5 10t-52.5 17l21 137l35 -2v-92q0 -8 1.5 -12t9.5 -7z" />
    <glyph glyph-name="afii10052" unicode="&#x403;" horiz-adv-x="576" 
d="M521 871l-31 49l-185 -127l19 -27zM602 724l-21 -157l-33 2l-2 101q0 13 -14 13h-265l-86 -625q-2 -12 0 -15.5t13 -4.5l143 -8l-4 -30h-284l4 30l62 7q11 2 13.5 5.5t4.5 14.5l83 609q2 11 0 15t-13 5l-60 7l5 31h454z" />
    <glyph glyph-name="afii10053" unicode="&#x404;" horiz-adv-x="657" 
d="M469 383l-6 -41h-345q-1 -9 -1 -19v-20q0 -131 59.5 -201t182.5 -70q39 0 85 6t82 22q10 4 14 17l29 87h33l-17 -125q-42 -27 -105 -39t-131 -12q-76 0 -129.5 23.5t-87.5 64.5t-50 97.5t-16 123.5q0 95 26 176t77 139.5t126.5 91.5t173.5 33q67 0 119 -14.5t84 -37.5
l-19 -134l-38 2l-4 92q0 8 -2 12t-10 7q-29 11 -63 19.5t-76 8.5q-65 0 -122 -20.5t-101.5 -60.5t-74 -97t-40.5 -131h347z" />
    <glyph glyph-name="afii10054" unicode="&#x405;" horiz-adv-x="558" 
d="M497 559l-5 99q0 9 -10 14q-13 6 -34.5 11.5t-71.5 5.5q-40 0 -75 -8t-61.5 -26t-42 -47.5t-15.5 -73.5q0 -33 11 -55t30.5 -37.5t45.5 -27t57 -22.5q32 -12 62.5 -25t55.5 -33.5t40 -50t15 -73.5q0 -61 -21 -103.5t-58 -69t-86.5 -38t-105.5 -11.5q-34 0 -65.5 4
t-57.5 9.5t-44.5 11.5t-27.5 11l19 140h35l6 -94q1 -8 2.5 -10.5t6.5 -4.5q10 -5 44.5 -13.5t91.5 -8.5q97 0 151.5 41.5t54.5 130.5q0 33 -10 56t-27.5 38.5t-40 26.5t-47.5 20q-33 12 -67.5 24.5t-62 32t-45 49.5t-17.5 79q0 54 21 92.5t57 64t82.5 37.5t97.5 12
q63 0 107 -12t63 -19l-22 -152z" />
    <glyph glyph-name="afii10055" unicode="&#x406;" horiz-adv-x="352" 
d="M37 0l4 30l73 7q11 1 13.5 5t4.5 15l85 610q2 11 0 15t-13 5l-70 7l2 30h227l-3 -30l-78 -8q-10 -2 -13 -5t-5 -14l-84 -609q-2 -12 0 -15t13 -5l74 -8l-3 -30h-227z" />
    <glyph glyph-name="afii10056" unicode="&#x407;" horiz-adv-x="352" 
d="M212 834q0 -20 -15.5 -36t-38.5 -16q-18 0 -29 10t-11 27q0 20 15 35.5t38 15.5q18 0 29.5 -9.5t11.5 -26.5zM408 834q0 -20 -15 -36t-38 -16q-18 0 -29.5 10t-11.5 27q0 20 15.5 35.5t38.5 15.5q18 0 29 -9.5t11 -26.5zM37 0l4 30l73 7q11 1 13.5 5t4.5 15l85 610
q2 11 0 15t-13 5l-70 7l2 30h227l-3 -30l-78 -8q-10 -2 -13 -5t-5 -14l-84 -609q-2 -12 0 -15t13 -5l74 -8l-3 -30h-227z" />
    <glyph glyph-name="afii10057" unicode="&#x408;" horiz-adv-x="473" 
d="M359 668q2 11 -0.5 14.5t-12.5 4.5l-79 7l3 30h226l-3 -30l-67 -8q-11 -2 -14 -4.5t-5 -13.5l-75 -532q-10 -76 -46.5 -112t-118.5 -36q-55 0 -92.5 12.5t-48.5 20.5l15 108l33 -2v-72q0 -5 1.5 -8t8.5 -6q8 -5 31.5 -10t58.5 -5q59 0 82 30.5t31 89.5z" />
    <glyph glyph-name="afii10058" unicode="&#x409;" horiz-adv-x="1014" 
d="M597 383l-49 -342h129q112 0 171 49.5t59 155.5q0 40 -14 66.5t-37.5 42t-54 22t-62.5 6.5h-142zM743 424q45 0 84.5 -9t69 -29.5t46 -54t16.5 -82.5q0 -66 -20 -113t-57 -77.5t-89.5 -44.5t-116.5 -14h-258l4 30l63 7q11 1 13.5 5t4.5 15l87 626h-236q-16 -128 -34 -229
t-38 -187q-18 -75 -42 -128t-56.5 -86t-75 -48t-96.5 -16l-4 45q41 1 73.5 11.5t58 32.5t45 56.5t35.5 84.5q10 30 21.5 79.5t23 109.5t22 126.5t17.5 132.5q2 11 0 15t-13 5l-60 7l4 30h509l-3 -30l-86 -8q-11 -2 -14 -5t-5 -14l-33 -243h140z" />
    <glyph glyph-name="afii10059" unicode="&#x40a;" horiz-adv-x="1060" 
d="M639 354l-45 -313h128q56 0 98.5 9t72 31t44.5 58t15 90q0 39 -15 63.5t-39 38t-55 18.5t-63 5h-141zM590 354h-371l-41 -296q-2 -12 0 -15t13 -5l65 -8l-5 -30h-206l4 30l63 7q11 2 13.5 5.5t4.5 14.5l85 610q2 11 0 15t-13 5l-60 7l4 30h206l-4 -30l-67 -8
q-11 -2 -13.5 -5t-4.5 -14l-37 -271h371l37 271q2 11 0 15t-12 5l-61 7l3 30h206l-3 -30l-66 -8q-11 -2 -14 -5t-5 -14l-37 -271h139q45 0 85 -8t70 -27t47.5 -51.5t17.5 -82.5q0 -65 -21 -108.5t-58 -70t-88 -37.5t-110 -11h-263l4 30l63 7q11 1 13.5 5t4.5 15z" />
    <glyph glyph-name="afii10060" unicode="&#x40b;" horiz-adv-x="842" 
d="M349 404q39 12 86.5 22t100.5 10q105 0 149 -44t30 -140l-28 -194q-2 -12 0 -15t13 -5l64 -8l-3 -30h-227l4 30l83 7q11 1 14 5t5 15l24 175q5 39 3.5 69.5t-16.5 51t-45 31t-82 10.5q-23 0 -48 -3t-49.5 -7.5t-46 -11t-38.5 -13.5l-41 -302q-2 -11 0 -14.5t13 -4.5
l69 -8l-6 -30h-236l5 30l88 7q10 1 13 5t5 15l87 626h-180q-8 0 -11.5 -1.5t-5.5 -9.5l-27 -89h-32l18 141h578l-19 -141h-32l-4 89q-1 8 -4 9.5t-10 1.5h-223z" />
    <glyph glyph-name="afii10061" unicode="&#x40c;" horiz-adv-x="693" 
d="M423 766l-19 27l185 127l31 -49zM544 65q5 -11 8.5 -18t14.5 -9l66 -8l-5 -30h-113q-11 33 -26.5 73t-31 78t-29 70t-21.5 49q-12 25 -21 40.5t-20 24.5t-25 12t-36 3h-85l-40 -292q-2 -12 0 -15t13 -5l74 -8l-3 -30h-227l4 30l73 7q11 1 13.5 5t4.5 15l85 610q2 11 0 15
t-13 5l-70 7l2 30h227l-3 -30l-78 -8q-10 -1 -13 -4.5t-5 -14.5l-38 -275h105q38 0 68.5 34t55.5 82l72 139q23 45 47 66.5t66 21.5q24 0 53 -8l-9 -38q-12 2 -21.5 3.5t-17.5 1.5q-28 0 -43.5 -15.5t-33.5 -50.5l-73 -139q-23 -44 -50 -76.5t-61 -43.5v0q28 -10 44 -37.5
t36 -76.5z" />
    <glyph glyph-name="afii10062" unicode="&#x40e;" horiz-adv-x="628" 
d="M504 905q-24 -52 -53 -67t-59 -15t-56 16.5t-36 64.5l-45 -13q8 -60 46 -84.5t90 -24.5q51 0 91 24t65 84zM590 685l-74 9l7 30h179l-4 -30l-42 -11q-12 -3 -18.5 -9t-14.5 -20l-282 -527q-19 -36 -35.5 -62.5t-35 -43.5t-42 -25t-56.5 -8q-30 0 -60.5 9.5t-47.5 22.5
l20 38q14 -10 37.5 -20t53.5 -10q42 0 63 18.5t42 57.5l17 32l-150 530q-2 9 -7.5 12t-13.5 5l-43 11l6 30h181l-3 -30l-75 -10l134 -496h2z" />
    <glyph glyph-name="afii10145" unicode="&#x40f;" horiz-adv-x="757" 
d="M42 0l3 30l66 8q11 2 14 5t5 14l84 609q2 12 0 15t-12 5l-65 8l5 30h206l-5 -30l-62 -7q-11 -2 -13.5 -5.5t-4.5 -14.5l-87 -626h363l87 625q2 12 0 15t-13 5l-65 8l5 30h206l-4 -30l-63 -7q-11 -2 -13.5 -5.5t-4.5 -14.5l-85 -609q-2 -12 0 -15t12 -5l65 -8l-5 -30h-256
q-12 0 -15 -13l-32 -139l-32 1l3 138q0 13 -11 13h-276z" />
    <glyph glyph-name="afii10017" unicode="&#x410;" horiz-adv-x="667" 
d="M398 695l-187 -410h268zM435 0l5 28l87 9l-38 206h-296l-94 -206l77 -9l-5 -28h-187l6 28l41 11q13 3 20 10t11 15l306 660h67l135 -668q3 -13 21 -17l43 -11l-5 -28h-194z" />
    <glyph glyph-name="afii10018" unicode="&#x411;" horiz-adv-x="668" 
d="M612 724l-21 -157l-33 2l-2 101q0 13 -14 13h-277l-38 -287h165q45 0 85 -8t70 -26.5t47.5 -50t17.5 -79.5q0 -67 -20.5 -111.5t-56.5 -71.5t-86 -38t-109 -11h-304l4 30l73 7q11 1 13.5 5t4.5 15l85 610q2 11 0 15t-13 5l-60 7l2 30h467zM221 354l-45 -313h154
q56 0 98.5 9t72 31t44.5 58t15 90q0 39 -14 63.5t-37.5 38t-54.5 18.5t-66 5h-167z" />
    <glyph glyph-name="afii10019" unicode="&#x412;" horiz-adv-x="644" 
d="M47 0l4 29l62 7q11 2 14 5.5t5 14.5l84 610q2 11 -0.5 15t-12.5 5l-61 8l5 30h266q55 0 91.5 -11.5t58.5 -31.5t31 -47.5t9 -60.5q0 -43 -13 -76t-34.5 -56.5t-49 -39t-56.5 -24.5q71 -8 111.5 -51t40.5 -107q0 -62 -21 -104t-59 -67.5t-91 -36.5t-117 -11h-267zM319 42
q48 0 91 6t74.5 24.5t50 52.5t18.5 90q0 34 -13 59.5t-35.5 42t-53.5 25t-67 8.5h-167l-41 -308h143zM344 392q34 0 70.5 8t66.5 28t49.5 54.5t19.5 87.5q0 60 -36 86.5t-116 26.5h-134l-39 -291h119z" />
    <glyph glyph-name="afii10020" unicode="&#x413;" horiz-adv-x="576" 
d="M602 724l-21 -157l-33 2l-2 101q0 13 -14 13h-265l-86 -625q-2 -12 0 -15.5t13 -4.5l143 -8l-4 -30h-284l4 30l62 7q11 2 13.5 5.5t4.5 14.5l83 609q2 11 0 15t-13 5l-60 7l5 31h454z" />
    <glyph glyph-name="afii10021" unicode="&#x414;" horiz-adv-x="752" 
d="M342 605q-27 -214 -78.5 -352t-121.5 -212h389l89 642h-268zM301 667q2 11 0 15t-13 5l-60 7l4 30h522l-3 -30l-66 -8q-11 -2 -14 -5t-5 -14l-86 -626h79l-23 -196l-35 2l-1 140q0 13 -15 13h-494q-15 0 -18 -13l-35 -140l-36 -1l25 195h60q37 43 68 92t55.5 112
t44 144.5t34.5 189.5z" />
    <glyph glyph-name="afii10022" unicode="&#x415;" horiz-adv-x="613" 
d="M48 0l3 30l63 7q11 2 13.5 5.5t4.5 14.5l84 609q2 11 0 15t-13 5l-60 7l4 31h471l-19 -137l-33 2l-3 81q-1 13 -14 13h-284l-39 -296h284l-7 -41h-283l-42 -304h304q8 0 11.5 1.5t5.5 9.5l28 88h33l-20 -141h-492z" />
    <glyph glyph-name="afii10024" unicode="&#x416;" horiz-adv-x="971" 
d="M518 667q2 11 0 15t-13 5l-70 7l2 30h227l-3 -30l-78 -8q-10 -1 -13 -4.5t-5 -14.5l-38 -275h85q38 0 68 33.5t53 82.5l68 147q20 42 43 60.5t63 18.5q13 0 28 -2t28 -6l-8 -39q-22 5 -41 5q-28 0 -43 -13.5t-32 -50.5l-66 -139q-21 -45 -48 -75t-61 -41v0
q29 -10 49.5 -36.5t41.5 -83.5l70 -188q5 -11 8.5 -18t14.5 -9l66 -8l-5 -30h-116q-10 35 -23.5 75t-27.5 77.5t-26 69t-19 48.5q-10 25 -20.5 40.5t-23.5 24.5t-29 12t-38 3h-65l-40 -292q-2 -12 0 -15t13 -5l74 -8l-3 -30h-227l4 30l73 7q11 1 13.5 5t4.5 15l41 293h-65
q-15 0 -29 -3t-28.5 -12t-29.5 -24.5t-32 -40.5q-12 -17 -33 -48.5t-45.5 -69t-49 -77.5t-44.5 -75h-120l3 30l68 8q11 2 17 9t14 18l124 190q36 57 64 83t60 36v0q-29 11 -47 40.5t-26 74.5l-26 141q-8 38 -20 51.5t-43 13.5q-8 0 -19 -0.5t-20 -2.5l2 39q25 5 48 5
q45 0 65.5 -22t28.5 -67l25 -139q5 -24 11.5 -45.5t18.5 -37t31 -24.5t48 -9h55z" />
    <glyph glyph-name="afii10025" unicode="&#x417;" horiz-adv-x="605" 
d="M376 737q89 0 141 -40t52 -121t-48 -129.5t-128 -67.5l-1 -4q65 -11 103 -53.5t38 -110.5q0 -41 -15 -81t-47 -71.5t-81.5 -51t-118.5 -19.5q-72 0 -126.5 17.5t-94.5 43.5l21 141h36l1 -105q0 -13 11 -20q29 -17 68 -25.5t83 -8.5q47 0 85.5 12t66.5 35.5t43 58.5t15 81
q0 60 -40.5 96t-128.5 36h-112l6 43h81q48 0 90 12t72.5 35t48.5 55.5t18 72.5q0 70 -40.5 98.5t-105.5 28.5q-43 0 -82 -7.5t-61 -18.5q-5 -3 -7.5 -6.5t-4.5 -11.5l-32 -106h-37l20 142q37 23 95.5 36.5t115.5 13.5z" />
    <glyph glyph-name="afii10026" unicode="&#x418;" horiz-adv-x="801" 
d="M658 724h155l-3 -30l-78 -8q-10 -1 -13 -4.5t-5 -14.5l-84 -609q-2 -12 0 -15t13 -5l74 -8l-3 -30h-227l4 30l73 7q11 1 13.5 5t4.5 15l84 600h-2l-476 -657h-152l4 30l73 7q11 1 13.5 5t4.5 15l85 610q2 11 0 15t-13 5l-70 7l2 30h227l-3 -30l-78 -8q-10 -1 -13 -4.5
t-5 -14.5l-82 -599h2z" />
    <glyph glyph-name="afii10027" unicode="&#x419;" horiz-adv-x="801" 
d="M609 905q-24 -52 -53 -67t-59 -15t-56 16.5t-36 64.5l-45 -13q8 -60 46 -84.5t90 -24.5q51 0 91 24t65 84zM658 724h155l-3 -30l-78 -8q-10 -1 -13 -4.5t-5 -14.5l-84 -609q-2 -12 0 -15t13 -5l74 -8l-3 -30h-227l4 30l73 7q11 1 13.5 5t4.5 15l84 600h-2l-476 -657h-152
l4 30l73 7q11 1 13.5 5t4.5 15l85 610q2 11 0 15t-13 5l-70 7l2 30h227l-3 -30l-78 -8q-10 -1 -13 -4.5t-5 -14.5l-82 -599h2z" />
    <glyph glyph-name="afii10028" unicode="&#x41a;" horiz-adv-x="693" 
d="M544 65q5 -11 8.5 -18t14.5 -9l66 -8l-5 -30h-113q-11 33 -26.5 73t-31 78t-29 70t-21.5 49q-12 25 -21 40.5t-20 24.5t-25 12t-36 3h-85l-40 -292q-2 -12 0 -15t13 -5l74 -8l-3 -30h-227l4 30l73 7q11 1 13.5 5t4.5 15l85 610q2 11 0 15t-13 5l-70 7l2 30h227l-3 -30
l-78 -8q-10 -1 -13 -4.5t-5 -14.5l-38 -275h105q38 0 68.5 34t55.5 82l72 139q23 45 47 66.5t66 21.5q24 0 53 -8l-9 -38q-12 2 -21.5 3.5t-17.5 1.5q-28 0 -43.5 -15.5t-33.5 -50.5l-73 -139q-23 -44 -50 -76.5t-61 -43.5v0q28 -10 44 -37.5t36 -76.5z" />
    <glyph glyph-name="afii10029" unicode="&#x41b;" horiz-adv-x="730" 
d="M304 667q2 11 0 15t-13 5l-60 7l4 30h495l-3 -30l-66 -8q-11 -2 -14 -5t-5 -14l-84 -609q-2 -12 0 -15t12 -5l65 -8l-5 -30h-206l5 30l62 7q11 2 13.5 5.5t4.5 14.5l87 626h-242q-16 -128 -34 -229t-38 -187q-18 -75 -42 -128t-56.5 -86t-75 -48t-96.5 -16l-4 45
q41 1 73.5 11.5t58 32.5t45 56.5t35.5 84.5q10 30 21.5 79.5t23 109.5t22 126.5t17.5 132.5z" />
    <glyph glyph-name="afii10030" unicode="&#x41c;" horiz-adv-x="909" 
d="M585 0l3 30l85 9q9 1 12 5t5 15l82 589l-292 -457h-44l-171 466l-85 -599q-2 -12 0.5 -15.5t13.5 -4.5l86 -8l-3 -30h-228l3 30l63 7q11 2 13.5 6t4.5 15l84 608q2 11 0 15t-13 5l-60 7l4 31h143l173 -483l303 483h144l-4 -30l-67 -8q-11 -2 -14 -6t-5 -19l-84 -604
q-2 -10 1 -13.5t13 -5.5l65 -8l-3 -30h-228z" />
    <glyph glyph-name="afii10031" unicode="&#x41d;" horiz-adv-x="785" 
d="M480 0l5 30l62 7q11 2 13.5 5.5t4.5 14.5l41 297h-385l-41 -296q-2 -12 0 -15t13 -5l65 -8l-5 -30h-206l4 30l63 7q11 2 13.5 5.5t4.5 14.5l85 610q2 11 0 15t-13 5l-60 7l4 30h206l-4 -30l-67 -8q-11 -2 -13.5 -5t-4.5 -14l-37 -271h385l37 271q2 11 0 15t-12 5l-61 7
l3 30h206l-3 -30l-66 -8q-11 -2 -14 -5t-5 -14l-84 -609q-2 -12 0 -15t12 -5l65 -8l-5 -30h-206z" />
    <glyph glyph-name="afii10032" unicode="&#x41e;" horiz-adv-x="748" 
d="M345 -12q-73 0 -126 23t-87.5 63.5t-51.5 96t-17 121.5q0 97 25.5 178.5t74.5 141t121 92.5t166 33q71 0 123 -22.5t85.5 -61.5t49.5 -91t16 -112q0 -109 -26.5 -194.5t-75.5 -145t-119.5 -91t-157.5 -31.5zM350 31q68 0 127 26t102.5 77t69 125.5t25.5 171.5
q0 30 -2.5 61t-13.5 62q-22 68 -76.5 104t-137.5 36q-68 0 -128 -25.5t-105 -75t-71 -123t-26 -168.5q0 -31 2.5 -63t13.5 -65q23 -68 77.5 -105.5t142.5 -37.5z" />
    <glyph glyph-name="afii10033" unicode="&#x41f;" horiz-adv-x="769" 
d="M462 0l5 30l62 7q11 2 13.5 5.5t4.5 14.5l87 626h-367l-87 -625q-2 -12 0 -15t13 -5l65 -8l-5 -30h-206l4 30l63 7q11 2 13.5 5.5t4.5 14.5l85 610q2 11 0 15t-13 5l-60 7l4 30h620l-3 -30l-66 -8q-11 -2 -14 -5t-5 -14l-84 -609q-2 -12 0 -15t12 -5l65 -8l-5 -30h-206z
" />
    <glyph glyph-name="afii10034" unicode="&#x420;" horiz-adv-x="641" 
d="M47 0l4 30l63 7q11 2 14 5.5t5 14.5l84 610q2 11 -0.5 15t-13.5 5l-60 7l4 30h279q59 0 99 -14t65.5 -38.5t36.5 -57t11 -69.5q0 -72 -21 -122t-60 -81.5t-95 -45.5t-126 -14h-126l-31 -224q-1 -12 1 -15.5t12 -4.5l139 -8l-4 -30h-280zM339 323q53 0 98 8.5t79 32.5
t53 66.5t19 111.5t-41.5 105t-136.5 36h-145l-49 -360h123z" />
    <glyph glyph-name="afii10035" unicode="&#x421;" horiz-adv-x="657" 
d="M585 39q-42 -27 -105 -39t-131 -12q-76 0 -129.5 23.5t-87.5 64.5t-50 97.5t-16 123.5q0 95 26 176t77 139.5t126.5 91.5t173.5 33q67 0 119 -14.5t84 -37.5l-19 -134l-38 2l-4 92q0 8 -2 12t-10 7q-29 11 -63 19.5t-76 8.5q-74 0 -137 -26t-108.5 -76t-71.5 -122.5
t-26 -164.5q0 -131 59.5 -201t182.5 -70q39 0 85 6t82 22q10 4 14 17l29 87h33z" />
    <glyph glyph-name="afii10036" unicode="&#x422;" horiz-adv-x="606" 
d="M136 0l5 30l98 7q10 1 13 5t5 15l87 626h-190q-8 0 -11.5 -1.5t-5.5 -9.5l-27 -89h-32l18 141h558l-19 -141h-32l-4 89q-1 8 -4 9.5t-10 1.5h-193l-86 -626q-2 -11 0 -14.5t13 -4.5l109 -8l-6 -30h-286z" />
    <glyph glyph-name="afii10037" unicode="&#x423;" horiz-adv-x="628" 
d="M590 685l-74 9l7 30h179l-4 -30l-42 -11q-12 -3 -18.5 -9t-14.5 -20l-282 -527q-19 -36 -35.5 -62.5t-35 -43.5t-42 -25t-56.5 -8q-30 0 -60.5 9.5t-47.5 22.5l20 38q14 -10 37.5 -20t53.5 -10q42 0 63 18.5t42 57.5l17 32l-150 530q-2 9 -7.5 12t-13.5 5l-43 11l6 30
h181l-3 -30l-75 -10l134 -496h2z" />
    <glyph glyph-name="afii10038" unicode="&#x424;" horiz-adv-x="764" 
d="M109 346q0 -48 15.5 -81t46 -53t76 -29t104.5 -10l55 394q-63 0 -117 -11t-94 -36.5t-63 -68t-23 -105.5zM399 174q66 0 120.5 11.5t93.5 39t60.5 72.5t21.5 111q0 83 -58 119.5t-184 39.5zM459 607q146 -4 214 -53t68 -143q0 -141 -86.5 -206t-260.5 -70l-11 -77
q-2 -12 0 -15t13 -5l74 -8l-3 -30h-227l4 30l73 7q11 1 13.5 5t4.5 15l11 77q-151 5 -217.5 54t-66.5 155q0 70 24 119t69 80.5t110 47t147 17.5l8 60q2 11 0 15t-13 5l-70 7l2 30h227l-3 -30l-78 -8q-10 -1 -13 -4.5t-5 -14.5z" />
    <glyph glyph-name="afii10039" unicode="&#x425;" horiz-adv-x="634" 
d="M396 0l4 30l74 9l-148 298l-213 -298l68 -9l-5 -30h-185l3 28l47 11q16 4 28 19l231 322l-140 286q-4 8 -8.5 11.5t-12.5 5.5l-39 11l5 30h172l-5 -30l-67 -8l131 -273l206 272l-68 9l6 30h175l-6 -30l-40 -11q-17 -4 -28 -19l-220 -291l159 -315q4 -8 8.5 -11t12.5 -5
l49 -12l-6 -30h-188z" />
    <glyph glyph-name="afii10040" unicode="&#x426;" horiz-adv-x="752" 
d="M42 0l3 30l66 8q11 2 14 5t5 14l84 609q2 12 0 15t-12 5l-65 8l5 30h206l-5 -30l-62 -7q-11 -2 -13.5 -5.5t-4.5 -14.5l-87 -626h353l87 625q2 12 0 15t-13 5l-65 8l5 30h206l-4 -30l-63 -7q-11 -2 -13.5 -5.5t-4.5 -14.5l-87 -626h79l-23 -196l-35 2l-1 140q0 13 -15 13
h-540z" />
    <glyph glyph-name="afii10041" unicode="&#x427;" horiz-adv-x="711" 
d="M576 667q2 11 0 15t-13 5l-70 7l2 30h227l-3 -30l-78 -8q-10 -2 -13 -5t-5 -14l-84 -609q-2 -12 0 -15t13 -5l74 -8l-3 -30h-247l4 30l93 7q11 1 13.5 5t4.5 15l36 259q-19 -7 -43.5 -12.5t-49.5 -10t-49.5 -7t-44.5 -2.5q-101 0 -149 42.5t-36 141.5l28 199q2 11 0 15
t-13 5l-60 7l2 30h217l-3 -30l-78 -8q-10 -2 -13 -5t-5 -14l-24 -179q-5 -37 -3.5 -67t15 -51.5t43 -33t81.5 -11.5q23 0 49 3t52.5 8t50 11.5t39.5 13.5z" />
    <glyph glyph-name="afii10042" unicode="&#x428;" horiz-adv-x="1054" 
d="M42 0l3 30l66 8q11 2 14 5t5 14l84 609q2 12 0 15t-12 5l-65 8l5 30h206l-5 -30l-62 -7q-11 -2 -13.5 -5.5t-4.5 -14.5l-87 -626h304l87 625q2 12 0 15t-13 5l-75 8l5 30h226l-4 -30l-73 -7q-11 -2 -13.5 -5.5t-4.5 -14.5l-87 -626h304l87 625q2 12 0 15t-13 5l-65 8
l5 30h206l-4 -30l-63 -7q-11 -2 -13.5 -5.5t-4.5 -14.5l-85 -609q-2 -12 0 -15t12 -5l65 -8l-5 -30h-912z" />
    <glyph glyph-name="afii10043" unicode="&#x429;" horiz-adv-x="1042" 
d="M42 0l3 30l66 8q11 2 14 5t5 14l84 609q2 12 0 15t-12 5l-65 8l5 30h206l-5 -30l-62 -7q-11 -2 -13.5 -5.5t-4.5 -14.5l-87 -626h298l87 625q2 12 0 15t-13 5l-75 8l5 30h226l-4 -30l-73 -7q-11 -2 -13.5 -5.5t-4.5 -14.5l-87 -626h298l87 625q2 12 0 15t-13 5l-65 8
l5 30h206l-4 -30l-63 -7q-11 -2 -13.5 -5.5t-4.5 -14.5l-87 -626h79l-23 -196l-35 2l-1 140q0 13 -15 13h-831z" />
    <glyph glyph-name="afii10044" unicode="&#x42a;" horiz-adv-x="745" 
d="M329 382l-50 -341h131q112 0 170 49.5t58 158.5q0 39 -14 64.5t-37 41t-53.5 21.5t-62.5 6h-142zM489 724l-3 -30l-102 -8q-10 -1 -13 -4.5t-5 -14.5l-31 -243h134q49 0 89.5 -9t70 -29.5t45.5 -53t16 -80.5q0 -67 -19 -115t-55.5 -78.5t-88.5 -44.5t-118 -14h-270l4 30
l73 7q11 1 13.5 5t4.5 15l87 626h-146q-8 0 -11.5 -1.5t-5.5 -9.5l-29 -105h-32l20 157h372z" />
    <glyph glyph-name="afii10045" unicode="&#x42b;" horiz-adv-x="930" 
d="M36 0l4 30l73 7q11 1 13.5 5t4.5 15l85 610q2 11 0 15t-13 5l-60 7l2 30h241l-3 -30l-102 -8q-10 -1 -13 -4.5t-5 -14.5l-32 -243h140q45 0 84.5 -9t69 -29.5t46 -54t16.5 -81.5q0 -66 -20 -113.5t-57 -78t-87.5 -44.5t-112.5 -14h-274zM225 383l-49 -342h129
q112 0 171 49.5t59 158.5q0 39 -14 65t-37.5 41t-54 21.5t-62.5 6.5h-142zM614 0l4 30l73 7q11 1 13.5 5t4.5 15l85 610q2 11 0 15t-13 5l-70 7l2 30h227l-3 -30l-78 -8q-10 -2 -13 -5t-5 -14l-84 -609q-2 -12 0 -15t13 -5l74 -8l-3 -30h-227z" />
    <glyph glyph-name="afii10046" unicode="&#x42c;" horiz-adv-x="642" 
d="M36 0l4 30l73 7q11 1 13.5 5t4.5 15l85 610q2 11 0 15t-13 5l-60 7l2 30h241l-3 -30l-102 -8q-10 -1 -13 -4.5t-5 -14.5l-32 -243h140q45 0 84.5 -9t69 -29.5t46 -54t16.5 -81.5q0 -66 -20.5 -113.5t-57.5 -78t-88 -44.5t-113 -14h-272zM225 382l-49 -341h129
q112 0 171 49.5t59 158.5q0 39 -14 64.5t-37.5 41t-54 21.5t-62.5 6h-142z" />
    <glyph glyph-name="afii10047" unicode="&#x42d;" horiz-adv-x="676" 
d="M202 342l6 41h392q1 9 1 19v20q0 131 -59.5 201t-182.5 70q-39 0 -83.5 -6t-81.5 -20q-5 -2 -8 -6t-6 -13l-29 -87h-33l17 131q18 9 44.5 17.5t56.5 14.5t63 9.5t65 3.5q78 0 132.5 -23t89 -64.5t50.5 -98t16 -123.5q0 -95 -25 -176t-74.5 -139.5t-123 -91.5t-171.5 -33
q-30 0 -60.5 4t-58.5 11.5t-51 17t-38 19.5l19 134l38 -2l4 -95q0 -8 2 -12t10 -7q29 -11 62 -18t82 -7q63 0 118.5 20.5t98.5 60.5t72 97.5t40 130.5h-394z" />
    <glyph glyph-name="afii10048" unicode="&#x42e;" horiz-adv-x="1049" 
d="M411 396q11 76 38.5 139t71.5 108t106 69.5t142 24.5q72 0 121 -24t79 -64t43 -92t13 -109q0 -108 -23.5 -193.5t-69 -144.5t-112.5 -90.5t-154 -31.5q-81 0 -133.5 31t-82.5 82t-39.5 117t-4.5 136h-185l-41 -296q-2 -12 0 -15t13 -5l65 -8l-5 -30h-206l4 30l63 7
q11 2 13.5 5.5t4.5 14.5l85 610q2 11 0 15t-13 5l-60 7l4 30h206l-4 -30l-67 -8q-11 -2 -13.5 -5t-4.5 -14l-37 -271h183zM671 32q68 0 123.5 26t96 76.5t62.5 125t22 171.5q0 53 -10.5 100.5t-35.5 83.5t-66 57.5t-102 21.5q-66 0 -122.5 -24.5t-97 -73.5t-63.5 -121.5
t-23 -167.5q0 -54 10.5 -103.5t35.5 -88t66.5 -61t103.5 -22.5z" />
    <glyph glyph-name="afii10049" unicode="&#x42f;" horiz-adv-x="694" 
d="M510 321h-139q-35 0 -53.5 -14.5t-40.5 -48.5q-12 -18 -29 -47.5t-36 -65t-39 -73t-38 -72.5h-122l3 30l68 8q11 2 16.5 6t11.5 15l104 189q20 36 39 57.5t48 33.5q-65 17 -102.5 58.5t-37.5 113.5q0 43 14.5 81.5t45 68t79.5 46.5t118 17h284l-3 -30l-78 -8
q-10 -1 -13 -4.5t-5 -14.5l-84 -609q-2 -12 0 -15t13 -5l74 -8l-3 -30h-227l4 30l73 7q11 1 13.5 5t4.5 15zM516 362l44 321h-144q-39 0 -75.5 -8.5t-64.5 -28t-45 -52.5t-17 -82q0 -40 14 -68.5t38.5 -46.5t58.5 -26.5t73 -8.5h118z" />
    <glyph glyph-name="afii10065" unicode="&#x430;" horiz-adv-x="566" 
d="M383 0l15 104q-22 -21 -44.5 -41.5t-47.5 -37t-51.5 -27t-56.5 -10.5q-70 0 -109 45t-39 139q0 59 12.5 120.5t41.5 111.5t76 82t116 32q46 0 86 -19t65 -40l15 49h49q-8 -29 -14.5 -57t-11.5 -58l-47 -336q-2 -12 0.5 -15t13.5 -5l51 -7l-5 -30h-115zM439 411
q-22 24 -63 45t-88 21q-55 0 -91.5 -29t-59 -73t-32 -97t-9.5 -100q0 -43 8 -71.5t22 -46t33 -24.5t41 -7q30 0 59 14t55 34.5t49 44t41 42.5z" />
    <glyph glyph-name="afii10066" unicode="&#x431;" horiz-adv-x="538" 
d="M239 -12q-91 0 -136.5 60.5t-45.5 160.5q0 59 10.5 129.5t33.5 131.5q30 84 98 143t179 79q33 6 51.5 10.5t28.5 9t14.5 10.5t8.5 16l42 2q0 -28 -9 -44.5t-26.5 -25.5t-44 -14t-62.5 -11q-109 -19 -170.5 -79.5t-93.5 -173.5l4 -2q18 31 41.5 52t49.5 34t54 18.5t55 5.5
q45 0 78 -15t54 -40.5t31.5 -58.5t10.5 -70q0 -60 -13.5 -118.5t-43.5 -105t-79 -75.5t-120 -29zM245 30q55 0 93 24.5t62 64t34.5 89.5t10.5 101q0 69 -30.5 108t-99.5 39q-51 0 -90.5 -19t-65.5 -52t-39.5 -78t-13.5 -97q0 -36 6.5 -69t22.5 -57.5t43 -39t67 -14.5z" />
    <glyph glyph-name="afii10067" unicode="&#x432;" horiz-adv-x="520" 
d="M251 -12q-26 0 -53 2.5t-51.5 7t-45.5 10t-34 10.5l49 350q7 52 31 82t55 45t63 19t55 4q44 0 72.5 -10.5t45.5 -27t24 -37.5t7 -42q0 -48 -28 -83.5t-80 -54.5v-3q51 -8 79 -34t28 -71q0 -44 -16.5 -75.5t-45.5 -52t-68.5 -30t-86.5 -9.5zM120 49q15 -5 50 -12t86 -7
q33 0 62.5 6.5t51.5 21.5t35 39t13 58q0 30 -12.5 46.5t-34 24.5t-50 9.5t-60.5 1.5h-115zM269 280q27 0 53 6.5t46.5 20t33 35t12.5 52.5q0 42 -24 61t-75 19q-29 0 -54.5 -4.5t-45 -17t-32.5 -34t-18 -55.5l-12 -83h116z" />
    <glyph glyph-name="afii10068" unicode="&#x433;" horiz-adv-x="436" 
d="M261 478q-30 0 -52 -3.5t-41 -10.5q-6 -2 -8 -6.5t-4 -9.5l-21 -72h-37l14 107q26 15 66.5 25t84.5 10q149 0 149 -116q0 -39 -16 -66t-42 -45.5t-59.5 -31t-69.5 -23.5q-26 -8 -49.5 -17.5t-41 -23t-28 -31.5t-10.5 -43q0 -45 28 -68.5t74 -23.5q55 0 94 24t68 52
l27 -30q-15 -16 -35 -31.5t-44.5 -28t-52.5 -20t-60 -7.5q-66 0 -107 33t-41 96q0 39 15 65t40 44t56 30t63 22q28 9 53.5 18.5t45.5 23t32 33t12 47.5q0 36 -24 57t-79 21z" />
    <glyph glyph-name="afii10069" unicode="&#x434;" horiz-adv-x="524" 
d="M177 738q102 -12 163.5 -47.5t95 -84t44.5 -104.5t11 -107q0 -23 -1.5 -62t-9 -84t-23 -91.5t-44 -84t-72 -61.5t-106.5 -24q-52 0 -88 16t-58.5 44.5t-32.5 67.5t-10 85q0 66 16.5 121t47.5 94.5t76 61.5t102 22q50 0 89 -18t67 -43q-6 54 -23 98t-50.5 77t-84.5 55.5
t-125 33.5zM445 385q-10 12 -25 25t-35 23.5t-45 17t-54 6.5q-48 0 -84 -18.5t-59.5 -52.5t-35.5 -82.5t-12 -107.5q0 -30 6 -59.5t21.5 -53t42.5 -38.5t69 -15q68 0 109 34t63.5 86.5t30 115t8.5 119.5z" />
    <glyph glyph-name="afii10070" unicode="&#x435;" horiz-adv-x="462" 
d="M392 24q-35 -19 -76.5 -27.5t-85.5 -8.5q-51 0 -86.5 14.5t-57 41t-31 63.5t-9.5 81q0 60 18.5 119.5t53 106t84 75.5t112.5 29q36 0 60.5 -9.5t38.5 -24.5t20 -35t6 -41q0 -40 -19 -69.5t-49 -50.5t-68 -34.5t-76.5 -22t-73.5 -13.5t-59 -8q0 -43 5.5 -76t21 -55.5
t43.5 -34.5t72 -12q43 0 78 8.5t66 23.5zM100 251q31 4 79.5 11.5t95 24t80 44t33.5 72.5q0 32 -18 52t-60 20t-78 -18.5t-63 -49.5t-45 -71.5t-24 -84.5z" />
    <glyph glyph-name="afii10072" unicode="&#x436;" horiz-adv-x="725" 
d="M388 448q3 18 -11 21l-45 12l3 27h105l4 -6l-33 -222h45q35 0 57 22.5t38 55.5l45 90q17 34 34.5 51.5t52.5 17.5q9 0 21 -2t22 -4l-5 -35q-18 3 -31 3q-22 0 -30.5 -11t-21.5 -37l-41 -83q-16 -33 -36 -58t-49 -33q21 -8 36 -23.5t29 -51.5l48 -125q6 -16 20 -19l47 -8
l-5 -30h-89q-20 60 -38.5 107.5t-35.5 83.5q-14 30 -31 39.5t-48 9.5h-40l-34 -240h-47l34 240h-40q-29 0 -47 -10t-39 -36q-31 -38 -62 -87.5t-66 -106.5h-93l3 30l51 8q14 3 23 17l81 127q22 35 42.5 51t46.5 24q-23 9 -36.5 33.5t-20.5 57.5l-17 83q-5 26 -13 37t-31 11
h-13t-16 -2l5 37q13 2 22.5 3t18.5 1q35 0 47.5 -17.5t20.5 -52.5l21 -90q9 -37 24 -57.5t50 -20.5h43z" />
    <glyph glyph-name="afii10073" unicode="&#x437;" horiz-adv-x="465" 
d="M275 518q75 0 115 -31.5t40 -88.5q0 -52 -33 -87.5t-92 -47.5v-3q45 -8 74.5 -34t29.5 -79q0 -39 -15 -68.5t-42 -49.5t-63.5 -30.5t-80.5 -10.5q-63 0 -110.5 19t-68.5 45l31 34q24 -23 61 -39.5t89 -16.5q26 0 52 6t48 19.5t35.5 35.5t13.5 54q0 92 -124 92h-93l7 42
h72q34 0 63 8t50.5 22.5t33.5 35.5t12 47q0 23 -8.5 39t-23.5 26t-34.5 14t-41.5 4q-29 0 -54.5 -3.5t-44.5 -9.5q-7 -2 -9 -5.5t-4 -9.5l-22 -71h-36l14 110q26 14 68.5 23t90.5 9z" />
    <glyph glyph-name="afii10074" unicode="&#x438;" horiz-adv-x="608" 
d="M420 0l15 107q-60 -51 -114.5 -85.5t-113.5 -34.5q-49 0 -80.5 26t-31.5 93q0 13 2 31.5t4 33.5l39 279q2 12 -0.5 15t-13.5 5l-54 8l4 30h120l1 -2l-45 -317q-4 -25 -5.5 -44.5t-1.5 -29.5q0 -42 15 -63.5t56 -21.5q30 0 65 17.5t67 40t57.5 45t37.5 32.5l39 285
q2 12 -0.5 15t-13.5 5l-65 8l5 30h130l2 -2l-63 -451q-3 -16 9 -17l58 -9l-4 -29h-120z" />
    <glyph glyph-name="afii10075" unicode="&#x439;" horiz-adv-x="608" 
d="M420 0l15 107q-60 -51 -114.5 -85.5t-113.5 -34.5q-49 0 -80.5 26t-31.5 93q0 13 2 31.5t4 33.5l39 279q2 12 -0.5 15t-13.5 5l-54 8l4 30h120l1 -2l-45 -317q-4 -25 -5.5 -44.5t-1.5 -29.5q0 -42 15 -63.5t56 -21.5q30 0 65 17.5t67 40t57.5 45t37.5 32.5l39 285
q2 12 -0.5 15t-13.5 5l-65 8l5 30h130l2 -2l-63 -451q-3 -16 9 -17l58 -9l-4 -29h-120zM505 704q-19 -60 -61.5 -95.5t-115.5 -35.5q-65 0 -96.5 38t-37.5 93l44 16q3 -23 8.5 -42.5t16.5 -34t28.5 -22.5t43.5 -8q48 0 78 25.5t48 80.5z" />
    <glyph glyph-name="afii10076" unicode="&#x43a;" horiz-adv-x="509" 
d="M228 277q35 0 60 21t45 60l45 90q17 34 34.5 51.5t52.5 17.5q20 0 43 -5l-5 -37q-18 3 -29 3q-22 0 -31.5 -11t-22.5 -37l-41 -82q-16 -33 -36.5 -56t-58.5 -35q19 -8 34.5 -22t30.5 -49l58 -128q3 -8 7.5 -13t12.5 -7l47 -8l-5 -30h-93q-21 57 -43 106.5t-41 84.5
q-15 29 -31.5 39.5t-46.5 10.5h-55l-34 -241h-49l64 448q3 18 -11 21l-45 12l3 27h108l2 -4l-32 -227h63z" />
    <glyph glyph-name="afii10077" unicode="&#x43b;" horiz-adv-x="567" 
d="M446 468h-169q-12 -85 -24 -144t-24 -111t-26.5 -92.5t-37.5 -68.5t-57.5 -42.5t-85.5 -14.5l-7 40q30 2 53.5 7t43 21.5t36 48.5t31.5 89q12 45 24 107t26 146q3 16 -11 19l-45 8l3 27h322l2 -4l-64 -446q-2 -12 0.5 -15t13.5 -5l54 -8l-5 -30h-117l-2 4z" />
    <glyph glyph-name="afii10078" unicode="&#x43c;" horiz-adv-x="737" 
d="M266 425l-7.5 -45t-10.5 -57t-13 -59t-13 -51q-12 -40 -26.5 -79.5t-37.5 -70t-57.5 -49.5t-85.5 -19l-7 40q30 2 53 8.5t42.5 24t36 49.5t33.5 84q14 45 30.5 115.5t27.5 154.5l-51 10l3 27h104l101 -344l221 344h59l2 -4l-64 -446q-2 -12 0.5 -15t13.5 -5l54 -8l-5 -30
h-117l-2 4l60 425h-2l-200 -306h-53z" />
    <glyph glyph-name="afii10079" unicode="&#x43d;" horiz-adv-x="594" 
d="M446 285l32 223h49l-65 -450q-2 -12 0.5 -15t13.5 -5l54 -8l-5 -30h-119l-2 4l16 102l20 138h-280l-35 -244h-46l-2 4l63 444q3 18 -11 21l-55 12l3 27h121l-32 -223h280z" />
    <glyph glyph-name="afii10080" unicode="&#x43e;" horiz-adv-x="546" 
d="M239 -12q-51 0 -87.5 14.5t-60 41.5t-35 64.5t-11.5 82.5q0 71 17 130.5t51.5 103.5t85.5 68.5t118 24.5q51 0 86.5 -15.5t58.5 -43t33.5 -65t10.5 -81.5q0 -76 -18.5 -136.5t-53 -102.5t-84 -64t-111.5 -22zM245 30q97 0 154 74t57 210q0 78 -37 119t-109 41
q-100 0 -158 -72t-58 -203q0 -81 37.5 -125t113.5 -44z" />
    <glyph glyph-name="afii10081" unicode="&#x43f;" horiz-adv-x="612" 
d="M421 0l-2 4l19 97l31 216q3 22 5 41t2 32q0 48 -16.5 65.5t-56.5 17.5q-28 0 -58.5 -12.5t-60.5 -31.5t-58 -40.5t-49 -38.5l-39 -292q-2 -12 0.5 -15t13.5 -5l71 -8l-5 -30h-205l6 31l51 7q11 2 14 5.5t5 14.5l53 388q3 18 -9 21l-56 14l3 27h119l-14 -103
q26 22 53.5 42.5t56.5 36t58 25t58 9.5q63 0 89 -30.5t26 -89.5q0 -12 -1.5 -30t-3.5 -32l-40 -278q-2 -12 0.5 -15t14.5 -5l59 -8l-5 -30h-129z" />
    <glyph glyph-name="afii10082" unicode="&#x440;" horiz-adv-x="567" 
d="M48 -212l-4 4l27 171l66 483q3 18 -9 21l-57 14l4 27h120l-14 -102q24 22 48.5 42t50 35.5t52.5 25t56 9.5q30 0 56 -10.5t44.5 -33t29 -58.5t10.5 -88q0 -55 -12.5 -115t-40.5 -110t-73 -82.5t-109 -32.5q-51 0 -89 19.5t-72 53.5l-29 -210q-2 -13 -0.5 -16.5t12.5 -4.5
l86 -6l-5 -36h-148zM141 114q12 -14 28 -29t35 -27.5t40.5 -20.5t44.5 -8q53 0 89 29t58.5 72.5t32.5 95.5t10 97q0 47 -7.5 76.5t-20 46t-30 22.5t-38.5 6q-25 0 -55 -14t-59.5 -34.5t-54.5 -42.5t-41 -38z" />
    <glyph glyph-name="afii10083" unicode="&#x441;" horiz-adv-x="478" 
d="M397 24q-26 -15 -67.5 -25.5t-86.5 -10.5q-102 0 -149.5 56t-47.5 150q0 89 24 150.5t64 100t92 56t109 17.5q55 0 85.5 -9.5t42.5 -13.5l-15 -114l-37 3l-3 69q0 9 -11 13t-29 7t-46 3q-42 0 -83 -15.5t-73 -49t-51.5 -86t-19.5 -126.5q0 -85 38 -128t107 -43
q42 0 81 10.5t61 22.5z" />
    <glyph glyph-name="afii10084" unicode="&#x442;" horiz-adv-x="899" 
d="M709 0l-2 4l15 70l35 243q5 35 7.5 57.5t2.5 36.5q0 31 -12 47.5t-48 16.5q-20 0 -40 -7t-44 -23t-54.5 -40.5t-71.5 -59.5l-41 -287q-2 -12 0.5 -15t13.5 -5l61 -8l-4 -30h-131l-3 4l20 92l32 221q4 26 6 52.5t2 38.5q0 42 -15 54.5t-47 12.5q-24 0 -53 -12.5t-58 -31.5
t-56.5 -41t-48.5 -42l-38 -290q-2 -12 0.5 -15t13.5 -5l70 -8l-5 -30h-203l6 31l51 7q11 2 14 5.5t5 14.5l52 388q3 17 -9 21l-56 14l3 27h119l-15 -107q66 57 116 87.5t101 30.5q60 0 84.5 -32t17.5 -92q20 17 44 38.5t51 40t57 31.5t60 13q58 0 80 -27.5t21 -75.5
q0 -11 -2 -33t-5 -42l-41 -282q-2 -12 0.5 -15t13.5 -5l62 -8l-5 -30h-129z" />
    <glyph glyph-name="afii10085" unicode="&#x443;" horiz-adv-x="491" 
d="M191 24l-96 429q-2 9 -5.5 12t-11.5 5l-41 11l7 27h96l3 -3l21 -123l63 -296l188 383l-62 12l3 27h129l3 -4l-293 -577q-19 -38 -36.5 -66.5t-36.5 -47t-43 -27.5t-57 -9q-40 0 -71 14.5t-42 25.5l26 37q3 -3 11.5 -8.5t21 -11t27 -9.5t27.5 -4q21 0 36 5t28 18t27 35.5
t33 58.5z" />
    <glyph glyph-name="afii10086" unicode="&#x444;" horiz-adv-x="721" 
d="M370 479q-43 -3 -90.5 -11.5t-87 -36.5t-65 -80.5t-25.5 -142.5q0 -55 19 -89.5t48.5 -54t66 -26.5t70.5 -9zM300 -12q-132 7 -189.5 65t-57.5 155q0 92 28 152.5t73.5 96t103.5 49.5t118 14l23 172q3 18 -9 21l-56 15l3 27h120l-33 -237q132 -7 189.5 -64t57.5 -155
q0 -92 -27.5 -152.5t-73 -95.5t-103.5 -49t-118 -14l-20 -142q-2 -12 0.5 -15t13.5 -5l71 -8l-5 -30h-221l6 31l65 7q13 2 16 5t5 15zM355 29q43 3 90 11.5t86.5 36t65 80t25.5 142.5q0 56 -19 90t-48.5 53t-65.5 26.5t-71 8.5z" />
    <glyph glyph-name="afii10087" unicode="&#x445;" horiz-adv-x="539" 
d="M382 0l-6 5l-31 69l-79 157l-151 -192l69 -9l-3 -30h-193l4 31l58 11q8 2 12 3.5t12 12.5l168 213l-92 185q-4 8 -8 12t-13 5l-39 4l5 31h85l3 -3l32 -76l63 -127l143 168l-60 8l5 30h166l-5 -30l-41 -10q-10 -2 -15.5 -6.5t-11.5 -12.5l-160 -184l105 -205q5 -10 10 -13
t13 -5l65 -12l-5 -30h-105z" />
    <glyph glyph-name="afii10088" unicode="&#x446;" horiz-adv-x="608" 
d="M435 107q-60 -51 -114.5 -85.5t-113.5 -34.5q-49 0 -80.5 26t-31.5 93q0 13 2 31.5t4 33.5l39 279q2 12 -0.5 15t-13.5 5l-54 8l4 30h120l1 -2l-45 -317q-4 -25 -5.5 -44.5t-1.5 -29.5q0 -42 15 -63.5t56 -21.5q30 0 65 17.5t67 40t57.5 45t37.5 32.5l39 285
q2 12 -0.5 15t-13.5 5l-65 8l5 30h130l2 -2l-61 -433q-3 -23 2 -31t23 -8h33l-21 -156l-39 4l7 115q-30 2 -45 18t-10 48z" />
    <glyph glyph-name="afii10089" unicode="&#x447;" horiz-adv-x="548" 
d="M424 448q3 17 -11 21l-55 12l3 27h118l2 -4l-64 -446q-2 -12 0.5 -15t13.5 -5l58 -8l-5 -30h-126l-2 4l19 98l22 159q-13 -11 -35.5 -26t-50 -28t-57.5 -22t-60 -9q-69 0 -89.5 36.5t-10.5 106.5l18 129q3 17 -11 21l-45 12l3 27h108l2 -4l-26 -185q-4 -31 -3 -50.5
t8 -31t20 -15.5t33 -4q23 0 49 7.5t52.5 20.5t53 31t50.5 38z" />
    <glyph glyph-name="afii10090" unicode="&#x448;" horiz-adv-x="898" 
d="M450 450q2 12 -0.5 15t-13.5 5l-64 8l4 30h127l4 -5l-45 -314q-4 -25 -5.5 -44.5t-1.5 -29.5q0 -41 10.5 -63t50.5 -22q27 0 59 16.5t62.5 38.5t56.5 45t39 35l39 285q2 12 -0.5 15t-13.5 5l-75 8l5 30h138l4 -5l-63 -448q-3 -16 9 -17l58 -9l-4 -29h-120l15 107
q-60 -51 -113 -85.5t-105 -34.5q-50 0 -76 26.5t-26 93.5q-53 -51 -109.5 -85.5t-108.5 -34.5q-42 0 -67 26t-25 93q0 13 2 31.5t4 33.5l39 279q2 12 -0.5 15t-13.5 5l-64 8l4 30h127l4 -5l-45 -314q-4 -25 -5.5 -44.5t-1.5 -29.5q0 -42 9 -63.5t42 -21.5q27 0 59.5 16.5
t63 38.5t55.5 45t36 35z" />
    <glyph glyph-name="afii10091" unicode="&#x449;" horiz-adv-x="898" 
d="M769 73q-3 -23 2 -31t23 -8h33l-21 -156l-39 4l7 115q-30 2 -45 18t-10 48l6 44q-60 -51 -113 -85.5t-105 -34.5q-50 0 -76 26.5t-26 93.5q-53 -51 -109.5 -85.5t-108.5 -34.5q-42 0 -67 26t-25 93q0 13 2 31.5t4 33.5l39 279q2 12 -0.5 15t-13.5 5l-64 8l4 30h128l3 -4
l-45 -315q-4 -25 -5.5 -44.5t-1.5 -29.5q0 -42 9 -63.5t42 -21.5q27 0 59.5 16.5t63 38.5t55.5 45t36 35l40 285q2 12 -0.5 15t-13.5 5l-64 8l4 30h127l4 -5l-45 -314q-4 -25 -5.5 -44.5t-1.5 -29.5q0 -41 10.5 -63t50.5 -22q27 0 59 16.5t62.5 38.5t56.5 45t39 35l39 285
q2 12 -0.5 15t-13.5 5l-75 8l5 30h138l4 -5z" />
    <glyph glyph-name="afii10092" unicode="&#x44a;" horiz-adv-x="560" 
d="M216 46q14 -5 40.5 -11t56.5 -6q29 0 56.5 7.5t50 24t36 43t13.5 63.5q0 29 -10.5 47t-27.5 28.5t-38 14t-42 3.5q-40 0 -67 -5.5t-41 -10.5zM279 508l2 -4l-30 -215q24 5 51 9t59 4q73 0 116 -35t43 -100q0 -49 -18 -83t-47.5 -55.5t-66.5 -31t-75 -9.5q-48 0 -86 8
t-65 19l64 453h-101q-11 0 -13 -8l-23 -78l-33 -2l18 128h205z" />
    <glyph glyph-name="afii10093" unicode="&#x44b;" horiz-adv-x="729" 
d="M168 289q24 5 51 8.5t59 3.5q73 0 116 -34.5t43 -99.5q0 -50 -18 -84.5t-48 -55.5t-68 -30t-78 -9q-45 0 -82 8t-64 19l62 435q3 16 -11 19l-45 12l3 27h108l2 -4zM133 46q14 -5 40.5 -10.5t56.5 -5.5q29 0 57 7.5t50 23.5t36 42.5t14 63.5q0 29 -11.5 47t-29 28
t-38.5 13.5t-40 3.5q-40 0 -67 -5t-41 -10zM538 0l-2 4l19 98l49 346q3 18 -11 21l-55 12l3 27h121l-65 -450q-2 -12 0.5 -15t13.5 -5l68 -8l-5 -30h-136z" />
    <glyph glyph-name="afii10094" unicode="&#x44c;" horiz-adv-x="484" 
d="M168 287q23 5 52.5 9.5t61.5 4.5q76 0 119 -34.5t43 -99.5q0 -49 -16.5 -83t-45 -55.5t-65 -31t-77.5 -9.5q-43 0 -88.5 9t-72.5 20l62 434q3 15 -11 18l-45 12l3 27h108l2 -4zM132 46q7 -3 20 -5.5t29 -5t33 -4t32 -1.5q29 0 56 7.5t47.5 23.5t32.5 41.5t12 62.5
q0 29 -10 47t-27 28.5t-39.5 14.5t-46.5 4q-33 0 -65 -5t-46 -10z" />
    <glyph glyph-name="afii10095" unicode="&#x44d;" horiz-adv-x="529" 
d="M198 31q37 0 74.5 10.5t70 35t56.5 64t34 97.5h-250l6 41h249q8 90 -34 142.5t-130 52.5q-29 0 -60 -4.5t-57 -12.5q-8 -3 -11 -14l-21 -69h-35l14 109q15 7 35.5 13.5t44 11t48 7.5t46.5 3q102 0 156 -57.5t54 -163.5q0 -80 -24 -138.5t-64 -96.5t-92.5 -56t-109.5 -18
q-34 0 -62.5 6.5t-50.5 15.5t-37 19t-22 18l27 36q20 -17 55.5 -34.5t89.5 -17.5z" />
    <glyph glyph-name="afii10096" unicode="&#x44e;" horiz-adv-x="761" 
d="M296 285q9 52 29.5 95t52 73.5t74 47.5t94.5 17q47 0 80 -15.5t54 -43t31 -65t10 -81.5q0 -76 -17.5 -136.5t-50.5 -102.5t-79.5 -64t-105.5 -22q-43 0 -76.5 14.5t-56.5 41.5t-35 64.5t-12 82.5q0 28 3 53h-131l-35 -244h-46l-2 4l63 444q3 18 -11 21l-55 12l3 27h121
l-32 -223h130zM474 30q90 0 143.5 74t53.5 210q0 78 -33.5 119t-98.5 41q-92 0 -147 -72t-55 -203q0 -81 34 -125t103 -44z" />
    <glyph glyph-name="afii10097" unicode="&#x44f;" horiz-adv-x="564" 
d="M443 460q-8 4 -22.5 7t-32 5.5t-35.5 3.5t-33 1q-64 0 -105.5 -26.5t-41.5 -90.5q0 -31 12 -50.5t31.5 -29.5t45.5 -13.5t53 -3.5h99zM14 32l53 8q9 2 12 4.5t7 9.5l64 110q16 26 31 44.5t41 28.5v0q-19 4 -38 12.5t-33 22.5t-23 35t-9 50q0 78 53.5 120t159.5 42
q17 0 40.5 -2t47.5 -6t45 -9.5t31 -11.5l-63 -439q-1 -10 8 -11l61 -9l-5 -31h-119l-3 4l17 99l16 117h-123q-26 0 -39 -7t-26 -26q-9 -14 -22 -35t-27.5 -46.5t-30 -52.5t-30.5 -53h-100z" />
    <glyph glyph-name="afii10071" unicode="&#x451;" horiz-adv-x="461" 
d="M419 612q-20 0 -31 10t-11 27q0 23 14 37.5t40 14.5q40 0 40 -37q0 -20 -14.5 -36t-37.5 -16zM222 612q-20 0 -31 10t-11 27q0 23 14.5 37.5t39.5 14.5q40 0 40 -37q0 -20 -14 -36t-38 -16zM392 24q-35 -19 -76.5 -27.5t-85.5 -8.5q-51 0 -86.5 14.5t-57 41t-31 63.5
t-9.5 81q0 60 18.5 119.5t53 106t84 75.5t112.5 29q36 0 60.5 -9.5t38.5 -24.5t20 -35t6 -41q0 -40 -19 -69.5t-49 -50.5t-68 -34.5t-76.5 -22t-73.5 -13.5t-59 -8q0 -43 5.5 -76t21 -55.5t43.5 -34.5t72 -12q43 0 78 8.5t66 23.5zM100 251q31 4 79.5 11.5t95 24t80 44
t33.5 72.5q0 32 -18 52t-60 20t-78 -18.5t-63 -49.5t-45 -71.5t-24 -84.5z" />
    <glyph glyph-name="afii10099" unicode="&#x452;" horiz-adv-x="569" 
d="M182 419q39 31 87.5 55t100.5 24q30 0 56 -9t45.5 -30t30.5 -56.5t11 -88.5q0 -104 -16.5 -201.5t-50.5 -172.5t-85.5 -120t-122.5 -45q-29 0 -55.5 6t-46.5 15l14 40q24 -10 45.5 -14.5t38.5 -4.5q58 0 101.5 42.5t72.5 111.5t43.5 156t14.5 176q0 45 -8 74.5
t-21.5 46.5t-32 23.5t-38.5 6.5q-29 0 -56 -8.5t-51.5 -21.5t-45 -28t-37.5 -27l-43 -311q-2 -12 0.5 -15t13.5 -5l71 -8l-5 -30h-206l6 31l50 7q13 2 16 5t5 15l73 531h-81l6 41h81l9 63q3 18 -9 21l-57 14l3 27h119l-18 -125h196l-6 -41h-195z" />
    <glyph glyph-name="afii10100" unicode="&#x453;" horiz-adv-x="436" 
d="M392 707l-36 44l-173 -150l20 -25zM261 478q-30 0 -52 -3.5t-41 -10.5q-6 -2 -8 -6.5t-4 -9.5l-21 -72h-37l14 107q26 15 66.5 25t84.5 10q149 0 149 -116q0 -39 -16 -66t-42 -45.5t-59.5 -31t-69.5 -23.5q-26 -8 -49.5 -17.5t-41 -23t-28 -31.5t-10.5 -43
q0 -45 28 -68.5t74 -23.5q55 0 94 24t68 52l27 -30q-15 -16 -35 -31.5t-44.5 -28t-52.5 -20t-60 -7.5q-66 0 -107 33t-41 96q0 39 15 65t40 44t56 30t63 22q28 9 53.5 18.5t45.5 23t32 33t12 47.5q0 36 -24 57t-79 21z" />
    <glyph glyph-name="afii10101" unicode="&#x454;" horiz-adv-x="502" 
d="M96 236q-4 -45 3.5 -82.5t26 -65.5t49.5 -43.5t75 -15.5q50 0 93 13.5t69 29.5l16 -39q-13 -7 -32 -15t-42.5 -15t-49 -11t-51.5 -4q-55 0 -94 16t-64 44.5t-37 68.5t-12 87q0 85 27 144.5t70.5 97t98.5 55t110 17.5q60 0 94.5 -9.5t46.5 -13.5l-15 -114l-37 3l-3 69
q0 9 -11 13t-30.5 7t-54.5 3q-37 0 -75.5 -10.5t-72 -34.5t-58.5 -62t-35 -92h250l-6 -41h-249z" />
    <glyph glyph-name="afii10102" unicode="&#x455;" horiz-adv-x="432" 
d="M357 378l-3 73q0 12 -9 15q-9 4 -28.5 7.5t-53.5 3.5q-27 0 -51 -6t-41.5 -18t-28 -30t-10.5 -42q0 -38 23.5 -57.5t66.5 -37.5q27 -11 53.5 -22.5t47.5 -28t34.5 -40t13.5 -58.5q0 -42 -15.5 -70.5t-41 -46t-57.5 -25t-65 -7.5q-68 0 -113 12t-58 19l17 120l36 -2l3 -78
q0 -6 3 -8.5t12 -6.5q15 -5 39 -10.5t59 -5.5q61 0 95.5 27t34.5 78q0 27 -9 44t-26.5 29.5t-42 22.5t-55.5 23q-46 19 -75 46.5t-29 76.5q0 39 16 66.5t42.5 44.5t60 24.5t69.5 7.5q54 0 89.5 -10t47.5 -15l-16 -118z" />
    <glyph glyph-name="afii10103" unicode="&#x456;" horiz-adv-x="265" 
d="M174 644q-20 0 -31 9.5t-11 26.5q0 21 14.5 36t40.5 15q19 0 29.5 -9.5t10.5 -26.5q0 -20 -14.5 -35.5t-38.5 -15.5zM74 0l-2 4l19 98l49 346q3 17 -11 21l-55 12l3 27h121l-65 -450q-2 -12 0.5 -15t13.5 -5l68 -8l-5 -30h-136z" />
    <glyph glyph-name="afii10104" unicode="&#x457;" horiz-adv-x="279" 
d="M228 612q-19 0 -30.5 9.5t-11.5 26.5q0 23 14.5 37.5t39.5 14.5q40 0 40 -37q0 -20 -14 -35.5t-38 -15.5zM102 612q-19 0 -30.5 9.5t-11.5 26.5q0 23 14.5 37.5t39.5 14.5q40 0 40 -37q0 -20 -14 -35.5t-38 -15.5zM80 0l-2 4l19 98l49 346q3 18 -11 21l-55 12l3 27h121
l-65 -450q-2 -12 0.5 -15t13.5 -5l68 -8l-5 -30h-136z" />
    <glyph glyph-name="afii10105" unicode="&#x458;" horiz-adv-x="265" 
d="M144 447q3 20 -9 21l-63 13l6 27h123l-82 -582q-11 -77 -41 -113t-96 -36q-38 0 -70 14t-43 25l25 36q11 -9 36 -21t51 -12q24 0 40 8.5t25.5 24t15 37.5t9.5 49zM181 644q-20 0 -31 9.5t-11 26.5q0 21 14.5 36t40.5 15q20 0 30 -9.5t10 -26.5q0 -20 -14 -35.5t-39 -15.5
z" />
    <glyph glyph-name="afii10106" unicode="&#x459;" horiz-adv-x="779" 
d="M424 46q7 -3 20 -5.5t28.5 -5t32 -4t31.5 -1.5q29 0 56 7.5t49 23.5t35 42.5t13 63.5q0 29 -10 47t-27 28.5t-40.5 14t-49.5 3.5q-40 0 -68.5 -5.5t-42.5 -10.5zM435 468h-159q-12 -85 -23.5 -144t-23.5 -111t-26.5 -92.5t-37.5 -68.5t-57.5 -42.5t-85.5 -14.5l-7 40
q30 2 53.5 7t43 21.5t36 48.5t31.5 89q12 45 24 107t26 146q3 16 -11 19l-45 8l3 27h311l2 -4l-30 -216q24 5 52 9t60 4q81 0 124.5 -34t43.5 -100q0 -49 -17.5 -83t-47 -55.5t-67 -31t-78.5 -9.5q-43 0 -87.5 9t-71.5 20z" />
    <glyph glyph-name="afii10107" unicode="&#x45a;" horiz-adv-x="807" 
d="M452 46q7 -3 20 -5.5t28.5 -5t32 -4t31.5 -1.5q29 0 56 7.5t49 23.5t35 42.5t13 63.5q0 29 -10 47t-27 28.5t-40.5 14.5t-49.5 4q-40 0 -68.5 -6t-42.5 -11zM469 508h46l2 -4l-30 -217q24 6 53 11t64 5q78 0 120.5 -35t42.5 -101q0 -49 -17.5 -83t-46.5 -55.5t-65.5 -31
t-75.5 -9.5q-47 0 -92 8.5t-72 19.5l33 228h-271l-35 -244h-46l-2 4l63 444q3 18 -11 21l-55 12l3 27h121l-32 -223h271z" />
    <glyph glyph-name="afii10108" unicode="&#x45b;" horiz-adv-x="607" 
d="M414 0l-2 3l20 101l29 193q4 24 5 48t1 37q0 35 -15.5 53t-52.5 18q-27 0 -56.5 -11t-59 -29t-58 -40.5t-54.5 -45.5l-36 -269q-2 -12 0.5 -15t13.5 -5l71 -8l-5 -30h-206l6 31l50 7q13 2 16 5t5 15l73 531h-81l6 41h81l9 63q3 18 -9 21l-57 14l3 27h119l-18 -125h196
l-6 -41h-195l-28 -205q59 48 113.5 81t111.5 33q61 0 87.5 -31.5t26.5 -88.5q0 -13 -1.5 -30t-3.5 -32l-38 -258q-2 -12 0.5 -15t13.5 -5l60 -8l-5 -30h-130z" />
    <glyph glyph-name="afii10109" unicode="&#x45c;" horiz-adv-x="509" 
d="M267 576l-20 25l173 150l36 -44zM228 277q35 0 60 21t45 60l45 90q17 34 34.5 51.5t52.5 17.5q20 0 43 -5l-5 -37q-18 3 -29 3q-22 0 -31.5 -11t-22.5 -37l-41 -82q-16 -33 -36.5 -56t-58.5 -35q19 -8 34.5 -22t30.5 -49l58 -128q3 -8 7.5 -13t12.5 -7l47 -8l-5 -30h-93
q-21 57 -43 106.5t-41 84.5q-15 29 -31.5 39.5t-46.5 10.5h-55l-34 -241h-49l64 448q3 18 -11 21l-45 12l3 27h108l2 -4l-32 -227h63z" />
    <glyph glyph-name="afii10110" unicode="&#x45e;" horiz-adv-x="491" 
d="M191 24l-96 429q-2 9 -5.5 12t-11.5 5l-41 11l7 27h96l3 -3l21 -123l63 -296l188 383l-62 12l3 27h129l3 -4l-293 -577q-19 -38 -36.5 -66.5t-36.5 -47t-43 -27.5t-57 -9q-40 0 -71 14.5t-42 25.5l26 37q3 -3 11.5 -8.5t21 -11t27 -9.5t27.5 -4q21 0 36 5t28 18t27 35.5
t33 58.5zM442 704q-19 -60 -61.5 -95.5t-115.5 -35.5q-65 0 -96.5 38t-37.5 93l44 16q3 -23 8.5 -42.5t16.5 -34t28.5 -22.5t43.5 -8q48 0 78 25.5t48 80.5z" />
    <glyph glyph-name="afii10193" unicode="&#x45f;" horiz-adv-x="608" 
d="M281 -38l-33 -139l-47 -3l20 133zM420 0l15 107q-60 -51 -114.5 -85.5t-113.5 -34.5q-49 0 -80.5 26t-31.5 93q0 13 2 31.5t4 33.5l39 279q2 12 -0.5 15t-13.5 5l-54 8l4 30h120l1 -2l-45 -317q-4 -25 -5.5 -44.5t-1.5 -29.5q0 -42 15 -63.5t56 -21.5q30 0 65 17.5t67 40
t57.5 45t37.5 32.5l39 285q2 12 -0.5 15t-13.5 5l-65 8l5 30h130l2 -2l-63 -451q-3 -16 9 -17l58 -9l-4 -29h-120z" />
    <glyph glyph-name="afii10050" unicode="&#x490;" horiz-adv-x="521" 
d="M497 724q16 0 20 13l32 98l36 2l-22 -154h-297l-86 -625q-2 -12 0 -15.5t13 -4.5l143 -8l-4 -30h-284l4 30l62 7q11 2 13.5 5.5t4.5 14.5l83 609q2 11 0 15t-13 5l-60 7l5 31h350z" />
    <glyph glyph-name="afii10098" unicode="&#x491;" horiz-adv-x="393" 
d="M349 508q12 0 15 10l21 64l37 2l-15 -112h-216l-57 -414q-2 -12 0.5 -15t13.5 -5l101 -8l-5 -30h-226l6 31l40 7q13 2 16 5t5 15l55 390q2 10 -0.5 13.5t-8.5 5.5l-47 14l3 27h262z" />
    <glyph glyph-name="thinspace" unicode="&#x2009;" horiz-adv-x="125" 
 />
    <glyph glyph-name="endash" unicode="&#x2013;" 
d="M3 262l7 41h499l-7 -41h-499z" />
    <glyph glyph-name="emdash" unicode="&#x2014;" horiz-adv-x="1000" 
d="M7 262l7 41h999l-7 -41h-999z" />
    <glyph glyph-name="quoteleft" unicode="&#x2018;" horiz-adv-x="162" 
d="M163 564q-31 4 -51 13t-20 32q0 12 4.5 21t12.5 20l69 101l29 -13l-43 -92q-3 -7 2 -10l25 -13z" />
    <glyph glyph-name="quoteright" unicode="&#x2019;" horiz-adv-x="168" 
d="M86 575l44 94q3 6 -3 9l-25 12l28 59q31 -4 51 -13.5t20 -32.5q0 -12 -4.5 -20.5t-12.5 -19.5l-69 -101z" />
    <glyph glyph-name="quotesinglbase" unicode="&#x201a;" horiz-adv-x="156" 
d="M-5 -100l44 93q3 6 -4 9l-25 12l28 59q32 -4 51.5 -13.5t19.5 -32.5q0 -12 -4.5 -20.5t-12.5 -19.5l-69 -101z" />
    <glyph glyph-name="quotedblleft" unicode="&#x201c;" horiz-adv-x="298" 
d="M299 564q-31 4 -51 13t-20 32q0 12 4.5 21t12.5 20l69 101l29 -13l-43 -92q-3 -7 2 -10l25 -13zM163 564q-31 4 -51 13t-20 32q0 12 4.5 21t12.5 20l69 101l29 -13l-43 -92q-3 -7 2 -10l25 -13z" />
    <glyph glyph-name="quotedblright" unicode="&#x201d;" horiz-adv-x="304" 
d="M222 575l44 94q3 6 -3 9l-25 12l28 59q31 -4 51 -13.5t20 -32.5q0 -12 -4.5 -20.5t-12.5 -19.5l-69 -101zM86 575l44 94q3 6 -3 9l-25 12l28 59q31 -4 51 -13.5t20 -32.5q0 -12 -4.5 -20.5t-12.5 -19.5l-69 -101z" />
    <glyph glyph-name="quotedblbase" unicode="&#x201e;" horiz-adv-x="291" 
d="M131 -100l44 93q3 6 -4 9l-25 12l28 59q32 -4 51.5 -13.5t19.5 -32.5q0 -12 -4.5 -20.5t-12.5 -19.5l-69 -101zM-5 -100l44 93q3 6 -4 9l-25 12l28 59q32 -4 51.5 -13.5t19.5 -32.5q0 -12 -4.5 -20.5t-12.5 -19.5l-69 -101z" />
    <glyph glyph-name="dagger" unicode="&#x2020;" horiz-adv-x="386" 
d="M124 -83l27 193l17 210l36 112h32l3 -112l-40 -211l-27 -192h-48zM118 422h-74l8 53h74l83 -10l-5 -33zM209 465l2 96l12 84h55l-12 -84l-24 -96h-33zM319 422l-83 10l6 33l85 10h74l-7 -53h-75z" />
    <glyph glyph-name="daggerdbl" unicode="&#x2021;" horiz-adv-x="386" 
d="M236 432l3 -112l-11 -78l-35 -112l85 10h74l-8 -53h-74l-83 10l5 33h-32l-6 -33h33l-2 -96l-12 -84h-55l12 84l24 96l-85 -10h-74l7 53h75l83 -10l-3 112l11 78l36 112l-86 -10h-74l8 53h74l83 -10l-5 -33h32zM209 465l2 96l12 84h55l-12 -84l-24 -96h-33zM319 422
l-83 10l6 33l85 10h74l-7 -53h-75z" />
    <glyph glyph-name="bullet" unicode="&#x2022;" horiz-adv-x="383" 
d="M334 280q0 -63 -33 -94t-94 -31q-60 0 -93.5 31t-33.5 94t33.5 94t93.5 31q61 0 94 -31t33 -94z" />
    <glyph glyph-name="ellipsis" unicode="&#x2026;" horiz-adv-x="541" 
d="M302 51q0 -26 -15.5 -44.5t-45.5 -18.5q-21 0 -33 10t-12 30q0 32 16.5 48t43.5 16q46 0 46 -41zM478 51q0 -26 -15.5 -44.5t-45.5 -18.5q-21 0 -33 10t-12 30q0 32 16.5 48t43.5 16q46 0 46 -41zM127 51q0 -26 -15.5 -44.5t-45.5 -18.5q-21 0 -33 10t-12 30
q0 32 16.5 48t43.5 16q46 0 46 -41z" />
    <glyph glyph-name="perthousand" unicode="&#x2030;" horiz-adv-x="1032" 
d="M192 295q-32 0 -54.5 10.5t-36.5 28.5t-20.5 41.5t-6.5 48.5q0 41 10.5 76.5t31.5 62t52 42t71 15.5q63 0 89.5 -35t26.5 -91q0 -42 -10.5 -78.5t-30.5 -63.5t-50.5 -42t-71.5 -15zM104 -17l466 638h49l-465 -638h-50zM196 335q39 0 61 17t33.5 41.5t14.5 51t3 44.5
q0 35 -17 62.5t-58 27.5q-33 0 -55 -16t-35 -39t-18.5 -50t-5.5 -49q0 -35 17.5 -62.5t59.5 -27.5zM489 -12q-33 0 -55 10.5t-35.5 28t-19.5 40.5t-6 48q0 41 10.5 77t31.5 63t52 42.5t71 15.5q62 0 88.5 -36t26.5 -92q0 -42 -10.5 -78.5t-31 -62.5t-51 -41t-71.5 -15z
M494 26q39 0 61.5 17t34 41.5t14.5 51t3 45.5q0 36 -17 64t-58 28q-33 0 -55 -16.5t-35 -40.5t-18.5 -51t-5.5 -48q0 -36 17 -63.5t59 -27.5zM808 -12q-32 0 -54.5 10.5t-36 28t-19.5 40.5t-6 48q0 41 10.5 77t31 63t51 42.5t70.5 15.5q63 0 90 -36t27 -92
q0 -42 -10.5 -78.5t-31 -62.5t-51 -41t-71.5 -15zM814 26q39 0 61 17t33.5 41.5t14.5 51t3 45.5q0 36 -17 64t-58 28q-33 0 -55 -16.5t-35 -40.5t-18.5 -51t-5.5 -48q0 -36 17 -63.5t60 -27.5z" />
    <glyph glyph-name="guilsinglleft" unicode="&#x2039;" horiz-adv-x="278" 
d="M138 103l-66 158l110 147h57l-95 -139q-5 -6 -5 -9.5t2 -8.5l52 -148h-55z" />
    <glyph glyph-name="guilsinglright" unicode="&#x203a;" horiz-adv-x="278" 
d="M56 103l95 144q8 11 4 20l-52 141h54l66 -153l-107 -152h-60z" />
    <glyph glyph-name="fraction" unicode="&#x2044;" horiz-adv-x="130" 
d="M-171 -12l457 736h48l-456 -736h-49z" />
    <glyph glyph-name="Euro" unicode="&#x20ac;" horiz-adv-x="496" 
d="M54 402h42q16 63 45 109t67.5 76t84.5 44t96 14q49 0 81.5 -10t48.5 -16l-18 -126l-32 5l-3 81q0 10 -14 14q-10 3 -29.5 6.5t-47.5 3.5q-79 0 -139 -47t-91 -154h235l-12 -41h-230q-4 -21 -6.5 -46t-3.5 -43h212l-13 -41h-199q3 -100 45.5 -152t117.5 -52q28 0 52.5 3
t39.5 9q6 2 7.5 5t3.5 9l21 81l36 4l-17 -124q-7 -3 -21.5 -7t-33.5 -8.5t-42.5 -7.5t-48.5 -3q-100 0 -152 64.5t-58 178.5h-64l12 41h52q1 18 3.5 43t7.5 46h-48z" />
    <glyph glyph-name="afii61352" unicode="&#x2116;" horiz-adv-x="1052" 
d="M650 155h308l-7 -39h-308zM802 205q-66 0 -96.5 35.5t-30.5 97.5q0 45 11.5 82.5t34.5 65.5t57.5 43.5t79.5 15.5q34 0 58 -10t39.5 -27t22.5 -40.5t7 -49.5q0 -100 -46.5 -156.5t-136.5 -56.5zM808 245q60 0 95 42t34 130q0 45 -22.5 66t-64.5 21q-59 0 -94 -40.5
t-35 -125.5q0 -93 87 -93zM478 0l-248 578l-73 -520q-2 -12 0 -15t13 -5l65 -8l-3 -30h-207l2 30l63 7q11 2 13.5 5.5t4.5 14.5l72 511q2 11 0 14.5t-13 5.5l-60 7l4 31h155l238 -572l69 515q2 11 0 14.5t-13 5.5l-61 7l4 30h209l-4 -30l-67 -8q-11 -2 -14 -5t-5 -14
l-79 -569h-65z" />
    <glyph glyph-name="trademark" unicode="&#x2122;" horiz-adv-x="818" 
d="M159 348v30l64 5v302h-94l-11 -58h-31v97h319v-97h-30l-10 58h-97v-302l70 -5v-30h-180zM728 348v29l52 5v256l-109 -209h-35l-108 208v-255l56 -5v-29h-144v29l44 5v305l-44 5v32h92l123 -244l126 244h87v-32l-44 -5v-305l46 -5v-29h-142z" />
    <glyph glyph-name="partialdiff" unicode="&#x2202;" horiz-adv-x="565" 
d="M459 330q6 30 9.5 69t3.5 81q0 28 -6 54.5t-19.5 47.5t-36 33.5t-55.5 12.5q-45 0 -89 -16t-75 -33l-19 37q42 24 91.5 39.5t94.5 15.5q52 0 83.5 -19.5t49 -49.5t23 -66.5t5.5 -70.5q0 -77 -16 -161t-52.5 -154.5t-94.5 -116t-142 -45.5q-41 0 -70.5 12t-48.5 33.5
t-28 50.5t-9 63q0 53 16.5 100.5t47 83.5t74 57.5t97.5 21.5q30 0 55 -7t46 -18.5t37.5 -26t27.5 -28.5zM446 280q-8 12 -22.5 27t-35 28t-46 21.5t-55.5 8.5q-48 0 -81.5 -21t-54.5 -53t-30.5 -69t-9.5 -69q0 -55 26 -88.5t80 -33.5t94 25.5t67.5 63t44 81t23.5 79.5z" />
    <glyph glyph-name="product" unicode="&#x220f;" horiz-adv-x="759" 
d="M440 -176l6 33l64 7q11 2 14 5.5t5 14.5l110 797h-393l-110 -796q-2 -12 0 -15t13 -5l66 -8l-5 -33h-211l5 33l64 7q11 2 14 5.5t5 14.5l108 777q2 11 0.5 14.5t-12.5 5.5l-62 7l4 36h652l-5 -36l-68 -8q-11 -2 -14 -5t-5 -14l-108 -776q-2 -12 0 -15t13 -5l66 -8l-5 -33
h-211z" />
    <glyph glyph-name="summation" unicode="&#x2211;" horiz-adv-x="627" 
d="M-16 -176l5 35l299 427l-161 399l5 39h514l-20 -137l-37 2l-3 79q-1 13 -16 13h-386l159 -403l-294 -416h406q8 0 11 1.5t5 9.5l28 87h37l-18 -136h-534z" />
    <glyph glyph-name="minus" unicode="&#x2212;" horiz-adv-x="570" 
d="M105 297l8 50h370l-8 -50h-370z" />
    <glyph glyph-name="radical" unicode="&#x221a;" horiz-adv-x="544" 
d="M239 0l-102 242q-2 5 -5.5 7.5t-11.5 0.5l-65 -22l-10 36l119 52l109 -262l279 688l47 -11l-297 -731h-63z" />
    <glyph glyph-name="infinity" unicode="&#x221e;" horiz-adv-x="683" 
d="M207 450q29 0 50.5 -7t39.5 -20t33.5 -29.5t31.5 -36.5q17 19 33 36t33.5 29.5t38 20t44.5 7.5q25 0 48.5 -7.5t41.5 -22.5t29 -37.5t11 -52.5q0 -67 -39 -103t-96 -36q-26 0 -48 7.5t-40 19.5t-33.5 27.5t-29.5 31.5q-12 -15 -27.5 -30t-34.5 -27.5t-42 -20.5t-49 -8
q-27 0 -50.5 8t-41 23.5t-27.5 40t-10 57.5q0 30 11 54t29.5 41t43 26t50.5 9zM209 236q37 0 66.5 26t53.5 56q-25 35 -52.5 62t-67.5 27q-34 0 -59 -21t-25 -65q0 -41 21 -63t63 -22zM514 404q-35 0 -62 -22.5t-63 -65.5q26 -36 55 -59t63 -23t57 27t23 63q0 33 -17.5 56.5
t-55.5 23.5z" />
    <glyph glyph-name="integral" unicode="&#x222b;" horiz-adv-x="546" 
d="M142 -129q38 -19 81 -19q44 0 57 19.5t11 59.5l-56 666q-3 36 6.5 61t27.5 40t42 22t50 7q27 0 49.5 -6.5t39.5 -14.5l-16 -41q-38 20 -80 20q-30 0 -51 -20.5t-18 -60.5l56 -666q6 -70 -25.5 -99t-91.5 -29q-26 0 -55 6.5t-43 15.5z" />
    <glyph glyph-name="approxequal" unicode="&#x2248;" horiz-adv-x="530" 
d="M493 318q-16 -39 -38.5 -66t-66.5 -27q-27 0 -57 7.5t-59.5 16.5t-57 16.5t-49.5 7.5q-25 0 -42 -15t-40 -44l-33 15q26 40 52 65t69 25q29 0 57.5 -7.5t57 -16.5t55 -16.5t50.5 -7.5q26 0 39 15t27 45zM519 493q-8 -19 -17 -36.5t-21 -30t-28 -20t-39 -7.5
q-27 0 -57 7.5t-59.5 17t-57 17t-49.5 7.5q-25 0 -41.5 -15t-39.5 -44l-35 15q26 40 53 65t70 25q29 0 57.5 -7.5t56.5 -16.5t54.5 -16.5t50.5 -7.5q26 0 39 15t27 45z" />
    <glyph glyph-name="notequal" unicode="&#x2260;" horiz-adv-x="570" 
d="M230 238l56 92h-170l9 52h200l69 104h59l-70 -104h107l-8 -52h-138l-57 -92h183l-8 -52h-214l-63 -95h-57l63 95h-94l7 52h126z" />
    <glyph glyph-name="lessequal" unicode="&#x2264;" horiz-adv-x="570" 
d="M101 247l11 62l384 163l17 -43l-366 -152l325 -142l-21 -42zM69 0l7 50h370l-7 -50h-370z" />
    <glyph glyph-name="greaterequal" unicode="&#x2265;" horiz-adv-x="570" 
d="M490 310l-11 -62l-384 -162l-17 43l366 152l-325 141l21 42zM463 50l-7 -50h-370l7 50h370z" />
    <glyph glyph-name="lozenge" unicode="&#x25ca;" horiz-adv-x="524" 
d="M206 -17l-111 324l202 324h49l113 -324l-204 -324h-49zM403 307l-90 264l-163 -264l89 -263z" />
    <glyph glyph-name="breve.cyr" 
d="M416 704q-19 -60 -61.5 -95.5t-115.5 -35.5q-65 0 -96.5 38t-37.5 93l44 16q3 -23 8.5 -42.5t16.5 -34t28.5 -22.5t43.5 -8q48 0 78 25.5t48 80.5z" />
    <glyph glyph-name="hyphen.case" horiz-adv-x="311" 
d="M32 322l8 51h271l-8 -51h-271z" />
    </font>
</defs>
</svg>
