<?xml version="1.0" standalone="no"?>
<!DOCTYPE svg PUBLIC "-//W3C//DTD SVG 1.1//EN" "http://www.w3.org/Graphics/SVG/1.1/DTD/svg11.dtd" >
<svg xmlns="http://www.w3.org/2000/svg">
<metadata>Generated by IcoMoon</metadata>
<defs>
<font id="ems-icons" horiz-adv-x="1024">
<font-face units-per-em="1024" ascent="960" descent="-64" />
<missing-glyph horiz-adv-x="1024" />
<glyph unicode="&#x20;" horiz-adv-x="512" d="" />
<glyph unicode="&#xe900;" glyph-name="brain" d="M1023.869 448.020c-0.077 75.686-38.745 146.103-102.56 186.771 0 0.341 0.188 0.614 0.188 0.956 0 175.779-156.273 324.253-341.245 324.253-26.959-0.076-52.282-12.936-68.25-34.661-15.968 21.724-41.291 34.585-68.248 34.661-184.972 0-341.245-148.474-341.245-324.253 0-0.341 0.17-0.614 0.188-0.956-63.816-40.668-102.485-111.085-102.561-186.771-2.615-74.749 32.683-145.765 93.842-188.8-27.904-79.805 14.156-167.125 93.945-195.036 12.201-4.268 24.893-6.973 37.775-8.050 18.389-82.702 100.326-134.835 183.011-116.442 44.628 9.928 82.499 39.25 103.293 79.973 38.571-75.431 130.973-105.306 206.387-66.727 40.684 20.811 69.97 58.684 79.882 103.299 84.233 7.043 146.809 81.050 139.769 165.301-1.077 12.885-3.78 25.581-8.049 37.786 61.141 43.008 96.449 113.978 93.877 188.698zM375.504-29.827c-65.963-0.026-119.456 53.439-119.482 119.415-0.017 43.501 23.608 83.574 61.676 104.61 8.245 4.567 11.228 14.954 6.663 23.202-4.565 8.247-14.95 11.23-23.195 6.663-48.43-26.87-78.66-77.723-79.135-133.113-65.239 9.752-110.221 70.554-100.471 135.806 8.704 58.254 58.56 101.468 117.447 101.803 16.717 0.003 33.058 4.949 46.973 14.217l34.806-34.814c6.779-6.548 17.58-6.361 24.127 0.418 6.386 6.613 6.386 17.099 0 23.712l-34.807 34.814c9.265 13.918 14.21 30.263 14.213 46.983 0 9.426-7.639 17.067-17.062 17.067s-17.063-7.641-17.063-17.067c0-28.276-22.917-51.198-51.186-51.198-52.982-0.060-102.184-27.453-130.151-72.462-49.093 37.291-76.931 96.177-74.596 157.792 0.122 103.627 84.080 187.604 187.685 187.727 9.423 0 17.062 7.641 17.062 17.065 0 9.426-7.639 17.067-17.062 17.067-28.928 0.005-57.574-5.683-84.305-16.742 10.271 147.143 148.698 272.732 306.114 272.732 28.269 0 51.186-22.922 51.186-51.198v-785.034c-0.075-65.946-53.504-119.386-119.436-119.463zM915.149 290.229c-27.967 45.008-77.17 72.402-130.15 72.462-9.424 0-17.063-7.641-17.063-17.065 0-9.426 7.639-17.067 17.063-17.067 65.959-0.449 119.067-54.296 118.62-120.272-0.401-58.762-43.469-108.508-101.559-117.303-0.474 55.39-30.706 106.243-79.135 133.113-8.245 4.567-18.63 1.584-23.195-6.665-4.567-8.247-1.584-18.633 6.661-23.2 57.696-31.98 78.549-104.687 46.575-162.394-31.973-57.709-104.663-78.565-162.359-46.585-37.944 21.033-61.505 60.991-61.542 104.383v477.846c25.445 0.017 49.966 9.551 68.743 26.726l38.748-38.671c6.779-6.548 17.58-6.361 24.125 0.418 6.388 6.613 6.388 17.099 0 23.712l-41.528 41.539c8.093 14.944 12.315 31.677 12.285 48.672 0 9.426-7.639 17.065-17.062 17.065s-17.063-7.639-17.063-17.065c0-37.702-30.556-68.265-68.248-68.265v273.056c0 28.276 22.917 51.198 51.186 51.198 157.416 0 295.842-125.589 306.113-272.732-26.732 11.059-55.376 16.748-84.304 16.742-9.424 0-17.062-7.641-17.062-17.067 0-9.424 7.637-17.065 17.062-17.065 103.605-0.123 187.563-84.099 187.684-187.727 2.335-61.614-25.503-120.501-74.595-157.792zM614.535 891.733c-37.709 0-68.275-29.987-68.275-66.979 0-9.248 7.641-16.745 17.068-16.745s17.068 7.497 17.068 16.745c0 18.495 15.283 33.489 34.138 33.489 9.426 0 17.068 7.497 17.068 16.745s-7.642 16.745-17.068 16.745zM768.176 724.287c0-9.248 7.642-16.744 17.068-16.744 9.428 0 17.068 7.496 17.068 16.744-0.056 46.217-38.233 83.668-85.344 83.723-9.426 0-17.068-7.497-17.068-16.745s7.642-16.745 17.068-16.745c28.281 0 51.207-22.49 51.207-50.234zM682.829 305.671c-28.285 0-51.214 22.49-51.214 50.234 0 9.248-7.642 16.746-17.072 16.746-9.428 0-17.070-7.497-17.070-16.746 0.003-16.404 4.951-32.442 14.22-46.097l-34.826-34.159c-6.781-6.426-6.968-17.026-0.418-23.678 6.552-6.651 17.359-6.833 24.139-0.41 0.142 0.135 0.282 0.271 0.418 0.41l34.826 34.161c13.921-9.093 30.271-13.945 46.996-13.949 9.429 0 17.072 7.496 17.072 16.744s-7.642 16.744-17.072 16.744zM648.673 37.757c-28.279 0-51.205 22.49-51.205 50.234 0 9.248-7.642 16.744-17.068 16.744-9.428 0-17.070-7.496-17.070-16.744 0.056-46.217 38.234-83.668 85.344-83.722 9.428 0 17.070 7.496 17.070 16.744s-7.642 16.744-17.070 16.744zM805.18 477.252c9.269 13.655 14.217 29.694 14.22 46.099 0 9.248-7.642 16.744-17.072 16.744-9.428 0-17.070-7.496-17.070-16.744 0-27.744-22.929-50.234-51.215-50.234-9.428 0-17.070-7.497-17.070-16.744 0-9.248 7.642-16.746 17.070-16.746 16.725 0.003 33.077 4.857 46.998 13.949l43.361-42.53c6.781-6.426 17.589-6.243 24.139 0.41 6.39 6.489 6.39 16.778 0 23.267l-43.361 42.53zM409.685 891.733c-9.426 0-17.068-7.497-17.068-16.745s7.642-16.745 17.068-16.745c18.854 0 34.138-14.994 34.138-33.489 0-9.248 7.641-16.745 17.068-16.745s17.068 7.497 17.068 16.745c0 36.991-30.568 66.979-68.275 66.979zM206.897 515.564c-6.666 6.537-17.471 6.537-24.137 0-11.86-11.585-19.957-26.354-23.269-42.447h-57.086c-9.428 0-17.071-7.497-17.071-16.746 0-9.247 7.643-16.744 17.071-16.744h57.086c3.312-16.092 11.409-30.863 23.269-42.448 6.548-6.651 17.357-6.835 24.137-0.411 6.782 6.426 6.97 17.026 0.42 23.678-0.138 0.138-0.276 0.276-0.42 0.411-19.992 19.615-19.992 51.413 0 71.030 6.665 6.538 6.665 17.138 0 23.677zM324.316 791.266c0 9.248-7.642 16.745-17.068 16.745-47.111-0.055-85.287-37.507-85.344-83.723 0-9.248 7.641-16.744 17.068-16.744 9.426 0 17.068 7.496 17.068 16.744 0 27.744 22.926 50.234 51.207 50.234 9.426 0 17.068 7.497 17.068 16.745zM375.542 154.969c-9.426 0-17.068-7.497-17.068-16.744s7.642-16.746 17.068-16.746c28.281 0 51.207-22.49 51.207-50.234 0-9.247 7.642-16.744 17.068-16.744 9.428 0 17.070 7.497 17.070 16.744-0.056 46.217-38.234 83.669-85.345 83.724zM426.761 523.349c9.428 0 17.070 7.497 17.070 16.746 0 9.247-7.642 16.744-17.070 16.744-37.714 0-68.285 29.988-68.285 66.978 0 9.248-7.644 16.746-17.072 16.746s-17.072-7.497-17.072-16.746c-0.020-16.691 4.222-33.121 12.343-47.788l-41.551-40.757c-7.069-6.118-7.743-16.701-1.504-23.634 6.238-6.934 17.026-7.595 24.095-1.475 0.529 0.457 1.029 0.947 1.495 1.466l38.719 37.977c18.796-16.877 43.349-26.243 68.832-26.257z" />
<glyph unicode="&#xe901;" glyph-name="carret-down" d="M0 740.571h1024l-512-585.143-512 585.143z" />
<glyph unicode="&#xe902;" glyph-name="change" d="M1024 174.824c0 15.22-11.906 27.529-26.641 27.529h-906.83l159.4 164.734c10.396 10.745 10.396 27.979 0 38.724-10.393 10.742-27.073 10.742-37.466 0l-204.665-211.514c-10.396-10.742-10.396-27.979 0-38.721l204.665-211.521c5.201-5.366 11.917-8.055 18.845-8.055 6.925 0 13.642 2.69 18.843 8.055 10.396 10.742 10.396 27.979 0 38.721l-159.399 164.734h907.045c14.298 0 26.204 12.090 26.204 27.313zM1016.177 740.551l-204.623 211.387c-10.394 10.749-27.064 10.749-37.458 0s-10.394-27.991 0-38.74l159.362-164.821h-906.825c-14.729 0-26.633-12.311-26.633-27.54 0-15.222 11.904-27.544 26.633-27.544h906.825l-159.362-164.36c-10.394-10.749-10.394-27.993 0-38.741 5.202-5.379 11.902-8.059 18.838-8.059 6.926 0 13.64 2.679 18.842 8.059l204.616 211.619c10.179 10.519 10.179 27.991-0.215 38.74z" />
<glyph unicode="&#xe903;" glyph-name="checkbox" d="M887.509 599.509c-9.515 0-17.088-7.68-17.088-17.088v-546.176h-836.246v836.246h836.246v-16.982c0-9.515 7.573-17.088 17.088-17.088 9.408 0 16.981 7.573 16.981 17.088v51.157h-904.491v-904.491h904.491v580.245c0 9.408-7.573 17.088-16.981 17.088zM1001.922 833.408c-6.677 6.678-17.429 6.678-24.085 0l-516.992-516.992-223.083 223.083c-6.677 6.677-17.515 6.677-24.171 0-6.678-6.741-6.678-17.493 0-24.171l235.157-235.157c3.328-3.328 7.68-5.013 12.096-5.013 4.331 0 8.661 1.685 11.989 5.013l529.088 529.089c6.656 6.656 6.656 17.494 0 24.149z" />
<glyph unicode="&#xe904;" glyph-name="check-circle" d="M742.209 610.679c11.244-11.028 11.677-29.355 0.969-40.936l-289.106-312.672c-6.864-7.424-18.637-7.287-25.327 0.294l-148.368 168.103c-10.443 11.831-9.596 30.143 1.891 40.902 11.487 10.755 29.265 9.882 39.708-1.949l120.228-136.219 260.263 281.477c10.708 11.581 28.501 12.028 39.741 1z" />
<glyph unicode="&#xe905;" glyph-name="chevron-left" d="M723.487-53.395c7.045-7.062 15.852-10.605 25.515-10.605 9.708 0 18.456 3.543 25.504 10.605 14.080 14.135 14.080 37.076 0 51.21l-448.531 450.212 448.531 450.161c14.080 14.146 14.080 37.12 0 51.211-14.039 14.135-36.925 14.135-51.019 0l-473.992-475.771c-14.082-14.135-14.082-37.106 0-51.21l473.992-475.812z" />
<glyph unicode="&#xe906;" glyph-name="chevron-right" d="M300.514-53.395c-7.047-7.062-15.852-10.605-25.515-10.605-9.707 0-18.457 3.543-25.504 10.605-14.082 14.135-14.082 37.076 0 51.21l448.532 450.212-448.532 450.161c-14.082 14.146-14.082 37.12 0 51.211 14.038 14.135 36.926 14.135 51.019 0l473.992-475.771c14.080-14.135 14.080-37.106 0-51.21l-473.992-475.812z" />
<glyph unicode="&#xe907;" glyph-name="close-circle" d="M317.282 642.718c13.442 13.443 35.237 13.443 48.679 0l340.756-340.758c13.445-13.442 13.445-35.236 0-48.678-13.442-13.445-35.236-13.445-48.678 0l-340.758 340.756c-13.443 13.442-13.443 35.236 0 48.679zM317.282 253.283c-13.443 13.442-13.443 35.236 0 48.678l340.758 340.758c13.442 13.443 35.236 13.443 48.678 0 13.445-13.442 13.445-35.237 0-48.679l-340.756-340.756c-13.442-13.445-35.236-13.445-48.679 0z" />
<glyph unicode="&#xe908;" glyph-name="code" d="M1009.705 479.357l-238.925 168.587c-15.36 10.84-36.656 7.33-47.613-7.821-10.96-15.168-7.409-36.227 7.934-47.050l200.047-141.152-200.047-141.152c-15.343-10.822-18.895-31.882-7.934-47.032 6.656-9.219 17.149-14.124 27.803-14.124 6.859 0 13.8 2.036 19.809 6.281l238.925 168.591c8.969 6.328 14.297 16.546 14.297 27.436s-5.328 21.105-14.297 27.436zM401.475 192.741l155.257 536.859 65.645-18.531-155.274-536.859-65.628 18.531zM292.917 310.769l-200.046 141.152 200.046 141.152c15.326 10.823 18.879 31.882 7.919 47.050-10.957 15.152-32.254 18.662-47.613 7.821l-238.926-168.587c-8.967-6.332-14.297-16.546-14.297-27.436s5.33-21.108 14.297-27.436l238.926-168.591c6.026-4.244 12.948-6.281 19.821-6.281 10.643 0 21.135 4.905 27.791 14.124 10.972 15.15 7.407 36.21-7.919 47.032z" />
<glyph unicode="&#xe909;" glyph-name="comment-bg" d="M955.443 704.799c-45.707 56.113-107.805 100.536-186.302 133.269-81.633 33.146-169.043 49.718-257.141 48.749-67.347 0.268-134.36-9.483-198.838-28.933-58.372-16.902-113.578-43.263-163.419-78.033-44.036-30.926-81.198-70.628-109.151-116.61-26.393-42.751-40.442-91.971-40.592-142.212 0.176-57.555 18.253-113.63 51.726-160.45 36.943-52.16 85.311-95.194 141.414-125.817-4.060-14.791-9.038-29.316-14.904-43.488-5.67-13.678-10.813-24.9-15.43-33.668-5.394-10.15-11.549-19.885-18.412-29.109-7.89-10.635-13.823-18.147-17.797-22.535-4.033-4.381-10.52-11.659-19.726-21.658-9.235-10.108-15.167-16.684-17.797-19.727-1.658-1.565-3.182-3.262-4.559-5.083-2.63-3.24-4.033-4.908-4.033-4.908l-3.506-5.083c-1.929-2.896-2.806-4.652-2.63-5.442-0.002-1.953-0.39-3.891-1.14-5.698-0.471-1.075-0.685-2.245-0.624-3.416s0.395-2.311 0.974-3.335v-0.614c1.336-6.546 4.898-12.434 10.082-16.655 2.39-1.989 5.167-3.467 8.155-4.323 2.989-0.863 6.123-1.090 9.204-0.68 22.031 2.465 43.838 6.627 65.227 12.456 97.475 24.247 187.666 71.651 262.926 138.176 27.513-3.030 55.17-4.581 82.85-4.647 88.109-0.914 175.52 15.72 257.141 48.924 78.438 32.557 140.537 76.922 186.302 133.094 45.707 56.113 68.557 117.341 68.557 183.684s-22.85 127.599-68.557 183.771z" />
<glyph unicode="&#xe90b;" glyph-name="diagram-up" d="M40.502-31.492h195.312c8.904 0 16.122-7.277 16.122-16.254s-7.218-16.254-16.122-16.254h-195.312c-8.904 0-16.122 7.277-16.122 16.254s7.218 16.254 16.122 16.254zM316.279-31.492h667.76c8.605 0 15.581-7.277 15.581-16.254s-6.976-16.254-15.581-16.254h-667.76c-8.605 0-15.581 7.277-15.581 16.254s6.976 16.254 15.581 16.254zM997.743 814.491l-71.028 136.088c-4.379 8.408-15.040 11.823-23.817 7.627l-0.013-0.006-142.056-68.044c-8.776-4.2-12.338-14.421-7.955-22.829s15.053-11.821 23.83-7.621l102.884 49.247-28.074-76.787c-121.461-331.386-431.306-565.423-794.883-602.052-9.649-0.972-16.754-9.011-15.932-18.273v0c0.845-9.525 9.733-16.685 19.658-15.685 377.255 38.025 698.732 280.906 824.701 624.782l28.659 78.455 52.242-100.11c4.384-8.408 15.053-11.821 23.828-7.621 8.779 4.2 12.34 14.419 7.956 22.829zM170.667 147.302h-113.778c-8.976 0-16.254-7.581-16.254-16.932v-96.168c0-9.351 7.278-16.932 16.254-16.932h113.778c8.976 0 16.254 7.581 16.254 16.932v96.168c0 9.351-7.278 16.932-16.254 16.932zM154.413 49.778h-81.27v65.016h81.27v-65.016zM365.714 196.063h-113.778c-8.975 0-16.254-7.279-16.254-16.254v-146.286c0-8.975 7.279-16.254 16.254-16.254h113.778c8.977 0 16.254 7.279 16.254 16.254v146.286c0 8.975-7.277 16.254-16.254 16.254zM349.46 49.778h-81.27v113.778h81.27v-113.778zM560.762 261.079h-113.778c-8.975 0-16.254-6.823-16.254-15.238v-213.333c0-8.415 7.279-15.238 16.254-15.238h113.778c8.975 0 16.254 6.823 16.254 15.238v213.333c0 8.415-7.279 15.238-16.254 15.238zM544.508 49.778h-81.27v178.794h81.27v-178.794zM755.81 374.857h-113.778c-8.975 0-16.254-6.962-16.254-15.547v-326.493c0-8.585 7.279-15.547 16.254-15.547h113.778c8.975 0 16.254 6.962 16.254 15.547v326.493c0 8.585-7.279 15.547-16.254 15.547zM739.556 49.778h-81.27v292.571h81.27v-292.571zM967.111 602.413h-113.778c-8.975 0-16.254-7.080-16.254-15.815v-553.513c0-8.735 7.279-15.815 16.254-15.815h113.778c8.977 0 16.254 7.080 16.254 15.815v553.513c0 8.735-7.277 15.815-16.254 15.815zM950.857 49.778h-81.27v520.127h81.27v-520.127z" />
<glyph unicode="&#xe90c;" glyph-name="eye" d="M76.351 600.702c-29.175 0-55.633-15.752-75.156-41.337-0.776-1.029-1.195-2.278-1.195-3.56s0.419-2.531 1.195-3.56c19.523-25.616 45.981-41.367 75.156-41.367s55.633 15.752 75.156 41.337c0.776 1.029 1.195 2.278 1.195 3.56s-0.419 2.531-1.195 3.56c-19.523 25.616-45.981 41.367-75.156 41.367zM78.444 524.163c-4.56-0.291-9.131 0.381-13.407 1.971s-8.159 4.062-11.39 7.251c-3.231 3.189-5.736 7.021-7.348 11.24s-2.293 8.73-1.998 13.23c0.522 7.671 3.846 14.894 9.355 20.33s12.829 8.716 20.602 9.231c4.56 0.291 9.131-0.381 13.407-1.971s8.159-4.062 11.39-7.251c3.231-3.189 5.736-7.021 7.348-11.24s2.292-8.73 1.998-13.23c-1.031-15.752-13.995-28.544-29.956-29.561zM77.475 538.774c-2.454-0.16-4.914 0.199-7.216 1.053s-4.392 2.184-6.132 3.9c-1.739 1.716-3.086 3.779-3.952 6.051s-1.23 4.7-1.067 7.121c0.285 4.134 2.078 8.026 5.047 10.956s6.913 4.699 11.103 4.98c2.454 0.161 4.915-0.198 7.217-1.052s4.393-2.184 6.133-3.9c1.739-1.716 3.088-3.779 3.954-6.051s1.23-4.7 1.067-7.122c-0.285-4.135-2.079-8.027-5.048-10.957s-6.915-4.699-11.105-4.979zM464.802 570.847c1.524 1.524 2.286 3.348 2.286 5.474s-0.762 3.93-2.286 5.414c-1.483 1.524-3.288 2.286-5.413 2.286s-3.95-0.762-5.474-2.286c-1.484-1.484-2.226-3.288-2.226-5.414s0.742-3.95 2.226-5.474c1.523-1.484 3.349-2.226 5.474-2.226s3.93 0.742 5.413 2.226zM531.268 541.674c0-2.125-0.742-3.93-2.226-5.414l-29.533-29.594c-1.564-1.483-3.389-2.225-5.474-2.225-2.125 0-3.93 0.742-5.414 2.225l-43.007 43.068c-1.524 1.484-2.828 3.509-3.91 6.075-1.043 2.566-1.564 4.912-1.564 7.038v25.023c0 2.085 0.762 3.89 2.286 5.414s3.328 2.286 5.413 2.286h25.023c2.125 0 4.471-0.541 7.037-1.624 2.567-1.043 4.612-2.326 6.136-3.85l43.007-42.947c1.484-1.564 2.226-3.389 2.226-5.474zM554.366 541.674c0-2.125-0.742-3.93-2.225-5.414l-29.534-29.594c-1.564-1.483-3.388-2.225-5.474-2.225-1.443 0-2.626 0.28-3.549 0.842s-1.984 1.464-3.188 2.707l28.271 28.27c1.483 1.484 2.225 3.288 2.225 5.414 0 2.085-0.742 3.91-2.225 5.474l-43.008 42.947c-1.523 1.524-3.569 2.807-6.135 3.85-2.566 1.083-4.913 1.624-7.038 1.624h13.474c2.125 0 4.471-0.541 7.038-1.624 2.566-1.043 4.612-2.326 6.135-3.85l43.008-42.947c1.483-1.564 2.225-3.389 2.225-5.474zM709.599 545.524c-6.095 9.464-13.734 16.541-22.917 21.233 2.446-4.17 3.669-8.682 3.669-13.534 0-7.419-2.647-13.775-7.94-19.068-5.253-5.253-11.588-7.88-19.007-7.88s-13.775 2.627-19.068 7.88c-5.253 5.293-7.879 11.649-7.879 19.068 0 4.852 1.223 9.363 3.669 13.534-9.184-4.692-16.822-11.769-22.918-21.233 5.334-8.221 12.010-14.777 20.030-19.669 8.060-4.852 16.782-7.279 26.166-7.279s18.085 2.426 26.105 7.279c8.060 4.892 14.757 11.449 20.090 19.669zM665.448 566.576c0.561 0.561 0.843 1.243 0.843 2.045s-0.281 1.484-0.843 2.045c-0.561 0.561-1.242 0.842-2.044 0.842-5.013 0-9.324-1.804-12.933-5.414-3.569-3.569-5.353-7.86-5.353-12.872 0-0.802 0.28-1.484 0.842-2.045s1.243-0.842 2.045-0.842c0.802 0 1.484 0.281 2.045 0.842s0.842 1.243 0.842 2.045c0 3.449 1.223 6.396 3.669 8.842s5.393 3.669 8.842 3.669c0.802 0 1.483 0.281 2.044 0.842zM716.095 549.674c0.802-1.404 1.204-2.787 1.204-4.15s-0.402-2.747-1.204-4.15c-5.614-9.223-13.173-16.622-22.676-22.196-9.464-5.534-19.469-8.301-30.015-8.301s-20.572 2.787-30.075 8.361c-9.464 5.574-17.003 12.952-22.617 22.135-0.802 1.404-1.203 2.787-1.203 4.15s0.401 2.747 1.203 4.15c5.614 9.183 13.153 16.561 22.617 22.135 9.503 5.574 19.529 8.361 30.075 8.361s20.551-2.787 30.015-8.361c9.503-5.574 17.062-12.952 22.676-22.135zM871.764 568.682c4.812-5.895 7.218-12.331 7.218-19.308s-2.406-13.434-7.218-19.368c-4.812-5.895-11.348-10.567-19.609-14.015-8.261-3.409-17.283-5.113-27.068-5.113-2.807 0-5.715 0.161-8.722 0.481-7.94-7.018-17.163-11.87-27.67-14.557-1.964-0.561-4.25-1.002-6.857-1.323-0.682-0.080-1.303 0.101-1.865 0.542-0.521 0.441-0.861 1.022-1.022 1.744v0.060c-0.12 0.16-0.14 0.401-0.060 0.721 0.12 0.321 0.161 0.522 0.12 0.602 0 0.080 0.101 0.28 0.301 0.602 0.2 0.28 0.321 0.461 0.361 0.541 0.040 0.040 0.181 0.2 0.42 0.481s0.402 0.461 0.481 0.542c0.281 0.321 0.903 1.022 1.865 2.105 0.962 1.043 1.644 1.805 2.045 2.286 0.441 0.441 1.063 1.223 1.865 2.346 0.842 1.123 1.504 2.145 1.985 3.068s1.022 2.105 1.624 3.549c0.601 1.443 1.123 2.967 1.564 4.571-6.296 3.569-11.268 7.98-14.918 13.233-3.608 5.253-5.413 10.887-5.413 16.902 0 5.213 1.424 10.185 4.27 14.917 2.847 4.772 6.677 8.882 11.489 12.331s10.546 6.175 17.203 8.18c6.657 2.045 13.634 3.068 20.933 3.068 9.785 0 18.807-1.724 27.068-5.173 8.26-3.409 14.797-8.080 19.609-14.015zM960.458 601.404c0.844 1.684 1.895 2.737 3.575 3.368 1.689 0.421 3.162 0.421 4.842 0 1.689-0.632 2.946-1.684 3.791-3.368l13.689-27.789 30.729-4.421c1.689-0.421 3.162-1.263 4.213-2.526 1.051-1.474 1.473-2.947 1.473-4.632s-0.629-3.158-1.895-4.421l-22.312-21.684 5.264-30.737c0.207-1.684-0.216-3.368-1.051-4.842-0.844-1.473-2.111-2.316-3.791-2.737-1.689-0.42-3.368-0.21-4.842 0.632l-27.585 14.315-27.576-14.315c-1.68-0.843-3.153-1.053-4.842-0.632-1.68 0.421-3.153 1.264-3.997 2.737s-1.267 3.158-0.844 4.842l5.264 30.737-22.312 21.684c-1.267 1.263-2.111 2.737-2.111 4.421s0.422 3.158 1.473 4.632c1.051 1.263 2.533 2.105 4.419 2.526l30.738 4.421 13.689 27.789zM540.231 348.772c0 1.805-1.925 2.527-3.368 2.767l-30.196 4.391-13.533 27.369c-0.542 1.143-1.565 2.466-2.948 2.466s-2.406-1.323-2.947-2.466l-13.534-27.369-30.195-4.391c-1.504-0.241-3.368-0.963-3.368-2.767 0-1.082 0.782-2.105 1.504-2.887l21.895-21.293-5.173-30.076c-0.060-0.42-0.12-0.781-0.12-1.203 0-1.564 0.782-3.007 2.527-3.007 0.842 0 1.624 0.301 2.406 0.722l27.008 14.195 27.008-14.195c0.722-0.421 1.564-0.722 2.406-0.722 1.744 0 2.466 1.443 2.466 3.007 0 0.421 0 0.782-0.060 1.203l-5.173 30.076 21.835 21.293c0.781 0.782 1.564 1.805 1.564 2.887z" />
<glyph unicode="&#xe90d;" glyph-name="facebook" d="M642.065 476.512l-4.202-45.575h-86.852c0-129.929 0-290.137 0-290.137h-117.023c0 0 0 158.618 0 290.137h-58.522v116.040h58.033v52.456c0 47.466 22.801 121.634 123.146 121.634l90.402-0.38v-99.432c0 0-54.985 0-65.642 0-10.67 0-25.876-5.263-25.876-27.873v-46.404h93.003l-6.468-70.465z" />
<glyph unicode="&#xe90e;" glyph-name="facebook-bg" d="M512.003 960c-282.768 0-512.003-229.24-512.003-512 0-282.771 229.235-512 512.003-512 282.764 0 511.997 229.229 511.997 512 0 282.76-229.233 512-511.997 512zM646.81 494.186l-4.355-47.636h-90.023c0-135.799 0-303.247 0-303.247h-121.289c0 0 0 165.786 0 303.247h-60.655v121.286h60.146v54.825c0 49.613 23.637 127.133 127.638 127.133l93.703-0.397v-103.926c0 0-56.989 0-68.035 0-11.059 0-26.822-5.501-26.822-29.134v-48.5h96.396l-6.704-73.649z" />
<glyph unicode="&#xe90f;" glyph-name="gears" d="M252.112 615.206c-5.367-15.604-8.088-31.969-8.088-48.637 0-82.384 67.024-149.41 149.408-149.41 31.689 0 61.954 9.789 87.53 28.308 7.233 5.236 17.343 3.62 22.581-3.613 5.236-7.233 3.62-17.341-3.613-22.581-31.128-22.54-67.953-34.452-106.494-34.452-100.214 0-181.746 81.529-181.746 181.745 0 20.256 3.314 40.16 9.847 59.156 2.906 8.443 12.102 12.933 20.55 10.028 8.441-2.903 12.93-12.1 10.025-20.545zM533.478 476.728c2.36-1.212 4.881-1.785 7.364-1.785 5.873 0 11.537 3.21 14.401 8.793 13.041 25.431 19.934 54.072 19.934 82.83 0 100.215-81.529 181.746-181.746 181.746-47.674 0-92.727-18.324-126.86-51.601-6.393-6.233-6.523-16.469-0.29-22.861s16.468-6.526 22.863-0.292c28.058 27.353 65.094 42.417 104.286 42.417 82.384 0 149.408-67.024 149.408-149.41 0-23.987-5.507-46.892-16.37-68.076-4.074-7.941-0.935-17.686 7.011-21.762zM525.571 325.586c-3.828 8.064-13.472 11.503-21.54 7.675-13.124-6.229-26.883-11.377-40.895-15.295-5.861-1.642-10.305-6.431-11.496-12.401l-17.104-85.516c-1.688-8.445-9.165-14.573-17.777-14.573h-46.659c-8.612 0-16.085 6.129-17.777 14.573l-17.104 85.516c-1.193 5.97-5.637 10.759-11.496 12.401-19.797 5.54-38.898 13.455-56.781 23.528-5.306 2.987-11.841 2.741-16.905-0.635l-72.573-48.379c-7.163-4.775-16.784-3.823-22.874 2.265l-32.993 32.992c-6.090 6.091-7.041 15.71-2.266 22.876l48.38 72.573c3.378 5.065 3.624 11.599 0.634 16.903-10.074 17.884-17.99 36.99-23.528 56.783-1.64 5.861-6.431 10.303-12.4 11.496l-85.516 17.104c-8.444 1.688-14.573 9.165-14.573 17.777v46.657c0 8.614 6.129 16.087 14.573 17.777l85.516 17.104c5.969 1.195 10.76 5.637 12.4 11.498 5.54 19.796 13.457 38.898 23.528 56.781 2.988 5.303 2.742 11.837-0.634 16.903l-48.376 72.564c-4.775 7.166-3.824 16.786 2.266 22.876l32.992 32.992c6.090 6.090 15.711 7.041 22.875 2.266l72.573-48.38c5.064-3.377 11.6-3.621 16.903-0.634 17.882 10.072 36.987 17.988 56.783 23.528 5.861 1.641 10.305 6.431 11.496 12.4l17.104 85.516c1.688 8.444 9.165 14.573 17.777 14.573h46.657c8.614 0 16.087-6.129 17.777-14.573l17.104-85.516c1.195-5.969 5.639-10.76 11.498-12.4 19.796-5.54 38.898-13.456 56.781-23.528 5.306-2.988 11.839-2.742 16.905 0.634l72.573 48.38c7.163 4.775 16.782 3.822 22.874-2.266l32.992-32.992c6.091-6.090 7.042-15.709 2.266-22.876l-48.381-72.573c-3.377-5.065-3.623-11.597-0.633-16.903 10.071-17.882 17.987-36.987 23.528-56.781 1.64-5.862 6.431-10.305 12.401-11.498l85.514-17.104c8.445-1.688 14.573-9.163 14.573-17.777v-46.657c0-8.612-6.129-16.087-14.573-17.777l-85.514-17.104c-5.97-1.195-10.761-5.637-12.401-11.5-4.019-14.36-9.32-28.445-15.761-41.868-3.864-8.049-0.468-17.707 7.581-21.571 8.050-3.866 17.71-0.468 21.572 7.583 5.811 12.114 10.801 24.707 14.882 37.553l75.984 15.196c23.497 4.704 40.559 25.516 40.559 49.488v46.659c0 23.972-17.062 44.781-40.567 49.485l-75.983 15.196c-4.983 15.688-11.3 30.94-18.867 45.539l42.984 64.478c13.298 19.946 10.646 46.727-6.304 63.678l-32.993 32.992c-16.952 16.951-43.733 19.6-63.677 6.306l-64.478-42.984c-14.599 7.567-29.848 13.883-45.537 18.868l-15.196 75.981c-4.7 23.502-25.513 40.563-49.485 40.563h-46.659c-23.972 0-44.781-17.061-49.485-40.568l-15.196-75.981c-15.688-4.984-30.94-11.301-45.539-18.867l-64.474 42.984c-19.942 13.297-46.726 10.648-63.677-6.306l-32.992-32.992c-16.951-16.951-19.603-43.73-6.306-63.677l42.984-64.478c-7.567-14.599-13.883-29.85-18.867-45.539l-75.983-15.196c-23.504-4.7-40.565-25.511-40.565-49.485v-46.657c0-23.972 17.061-44.783 40.568-49.487l75.981-15.196c4.982-15.686 11.301-30.938 18.867-45.539l-42.984-64.478c-13.297-19.944-10.645-46.727 6.306-63.677l32.992-32.992c16.951-16.951 43.733-19.601 63.677-6.306l64.478 42.984c14.599-7.567 29.85-13.884 45.539-18.867l15.196-75.983c4.7-23.501 25.511-40.562 49.485-40.562h46.657c23.972 0 44.783 17.062 49.487 40.569l15.196 75.979c12.459 3.959 24.685 8.772 36.456 14.36 8.066 3.83 11.501 13.474 7.671 21.542zM759.916 258.29c32.096 0 58.206-26.11 58.206-58.206 0-8.929 7.24-16.169 16.169-16.169s16.169 7.24 16.169 16.169c0 49.925-40.617 90.544-90.544 90.544-49.925 0-90.542-40.619-90.542-90.544 0-49.927 40.617-90.544 90.542-90.544 20.222 0 39.351 6.521 55.318 18.859 7.066 5.461 8.368 15.614 2.91 22.682-5.461 7.067-15.616 8.371-22.682 2.91-10.254-7.922-22.547-12.111-35.546-12.111-32.096 0-58.206 26.11-58.206 58.206s26.11 58.204 58.206 58.204zM393.431 468.062c-54.316 0-98.505 44.191-98.505 98.507s44.191 98.505 98.505 98.505c54.316 0 98.507-44.191 98.507-98.505 0-54.316-44.189-98.507-98.507-98.507zM393.431 500.398c36.487 0 66.171 29.686 66.171 66.171 0 36.483-29.686 66.169-66.171 66.169-36.483 0-66.169-29.686-66.169-66.169 0-36.485 29.682-66.171 66.169-66.171zM992.884 253.368l-46.756 9.351c-2.847 8.474-6.277 16.748-10.252 24.747l26.452 39.675c10.197 15.299 8.165 35.84-4.837 48.838l-21.68 21.681c-13.001 13-33.543 15.034-48.84 4.835l-39.675-26.452c-7.999 3.977-16.273 7.405-24.747 10.254l-9.349 46.754c-3.608 18.031-19.569 31.118-37.956 31.118h-30.66c-18.386 0-34.348-13.087-37.956-31.118l-9.349-46.754c-8.474-2.848-16.748-6.277-24.747-10.254l-39.675 26.452c-15.299 10.197-35.84 8.166-48.84-4.835l-21.68-21.681c-13.001-13.001-15.036-33.541-4.837-48.838l26.452-39.677c-5.466-10.996-9.897-22.513-13.21-34.353-2.406-8.6 2.615-17.521 11.215-19.929 8.6-2.406 17.519 2.615 19.927 11.215 3.521 12.583 8.552 24.724 14.954 36.086 2.987 5.306 2.741 11.839-0.635 16.903l-31.793 47.691c-1.678 2.517-1.343 5.898 0.795 8.038l21.681 21.681c2.14 2.138 5.521 2.471 8.038 0.795l47.691-31.793c5.064-3.377 11.599-3.622 16.903-0.633 11.363 6.4 23.503 11.431 36.086 14.952 5.862 1.64 10.305 6.431 11.498 12.401l11.237 56.194c0.594 2.966 3.222 5.12 6.246 5.12h30.662c3.024 0 5.652-2.154 6.245-5.12l11.238-56.197c1.195-5.968 5.637-10.759 11.496-12.399 12.583-3.521 24.726-8.552 36.086-14.954 5.304-2.987 11.841-2.741 16.905 0.635l47.689 31.793c2.519 1.678 5.898 1.345 8.040-0.795l21.68-21.681c2.138-2.14 2.473-5.521 0.795-8.038l-31.793-47.691c-3.377-5.065-3.623-11.599-0.633-16.903 6.4-11.363 11.433-23.503 14.952-36.086 1.642-5.862 6.431-10.305 12.401-11.498l56.195-11.238c2.966-0.592 5.12-3.22 5.12-6.245v-30.662c0-3.024-2.154-5.652-5.12-6.245l-56.197-11.238c-5.97-1.195-10.761-5.637-12.401-11.496-3.521-12.585-8.552-24.726-14.952-36.086-2.988-5.306-2.743-11.841 0.633-16.905l31.793-47.689c1.678-2.519 1.343-5.9-0.795-8.040l-21.681-21.68c-2.138-2.142-5.518-2.473-8.038-0.797l-47.689 31.793c-5.065 3.377-11.602 3.623-16.905 0.635-11.363-6.4-23.503-11.433-36.086-14.952-5.861-1.642-10.305-6.431-11.496-12.401l-11.238-56.195c-0.592-2.966-3.22-5.12-6.246-5.12h-30.66c-3.026 0-5.652 2.154-6.246 5.12l-11.238 56.197c-1.193 5.97-5.637 10.761-11.496 12.401-12.583 3.521-24.724 8.552-36.086 14.952-5.306 2.988-11.843 2.743-16.905-0.633l-47.689-31.793c-2.519-1.678-5.898-1.345-8.038 0.795l-21.681 21.68c-2.138 2.142-2.473 5.521-0.795 8.040l31.793 47.689c3.377 5.067 3.623 11.599 0.633 16.905-6.4 11.363-11.431 23.503-14.952 36.086-1.64 5.861-6.431 10.305-12.401 11.496l-56.194 11.238c-2.968 0.592-5.12 3.22-5.12 6.245v30.662c0 3.026 2.152 5.652 5.12 6.246l3.441 0.688c8.757 1.753 14.435 10.269 12.682 19.026s-10.26 14.426-19.028 12.682l-3.441-0.686c-18.026-3.61-31.113-19.57-31.113-37.958v-30.662c0-18.384 13.087-34.348 31.118-37.955l46.754-9.349c2.848-8.475 6.277-16.749 10.254-24.747l-26.452-39.675c-10.199-15.3-8.166-35.84 4.835-48.84l21.681-21.68c13.001-13.003 33.541-15.036 48.838-4.837l39.677 26.452c7.997-3.975 16.271-7.405 24.745-10.252l9.351-46.756c3.606-18.029 19.567-31.114 37.955-31.114h30.662c18.384 0 34.348 13.085 37.955 31.116l9.349 46.756c8.475 2.847 16.749 6.277 24.747 10.252l39.675-26.452c15.3-10.197 35.84-8.165 48.84 4.837l21.68 21.68c13.003 13.001 15.036 33.543 4.837 48.84l-26.452 39.675c3.975 7.999 7.405 16.273 10.252 24.747l46.756 9.349c18.029 3.608 31.114 19.569 31.114 37.956v30.66c0 18.386-13.085 34.347-31.116 37.953z" />
<glyph unicode="&#xe910;" glyph-name="hourglass" d="M937.984-29.867h-53.248v68.267h-88.747v174.421c0 46.080-23.784 88.917-63.72 114.517l-188.32 120.661 188.32 120.661c39.936 25.6 63.72 68.437 63.72 114.517v174.421h88.747v68.267h53.248c9.762 0 17.749 7.68 17.749 17.067s-7.987 17.067-17.749 17.067h-851.968c-9.762 0-17.749-7.68-17.749-17.067s7.987-17.067 17.749-17.067h53.248v-68.267h88.747v-174.421c0-46.080 23.784-88.917 63.72-114.517l188.32-120.661-188.32-120.661c-39.936-25.6-63.72-68.437-63.72-114.517v-174.421h-88.747v-68.267h-53.248c-9.762 0-17.749-7.68-17.749-17.067s7.987-17.067 17.749-17.067h851.968c9.762 0 17.749 7.68 17.749 17.067s-7.987 17.067-17.749 17.067zM174.763 891.733v34.133h674.475v-34.133h-674.475zM311.433 597.163c-29.996 19.285-47.923 51.371-47.923 86.016v174.421h496.981v-174.421c0-34.645-17.927-66.901-47.923-86.016l-200.567-128.683-200.567 128.683zM263.509 212.821c0 34.645 17.927 66.901 47.923 86.016l200.567 128.683 200.567-128.512c29.996-19.285 47.923-51.371 47.923-86.016v-174.592h-496.981v174.421zM174.763 4.267h674.475v-34.133h-674.475v34.133zM341.57 639.492l0.049-0.032 81.836-52.517c-0.079-0.014-0.14-0.020-0.188-0.020-0.031 0.003-0.28 0.038-0.703 0.29l-82.161 52.611c-0.010 0.006-0.020 0.013-0.030 0.020-15.41 9.979-24.297 26.2-24.297 43.335v37.661c0.13 0.114 0.353 0.227 0.683 0.227s0.553-0.113 0.683-0.227v-37.661c0-17.784 9.157-34.006 24.13-43.687zM683.667 241.456l0.020-0.014c15.295-9.759 24.241-26.088 24.241-43.298v-37.663c-0.13-0.113-0.352-0.225-0.683-0.225s-0.553 0.113-0.683 0.225v37.663c0 17.729-9.117 34.031-24.241 43.585l-82.084 52.562c0.065 0.027 0.14 0.048 0.225 0.065 0.362 0.072 0.608-0.010 0.768-0.113v0l0.079-0.051 82.357-52.736z" />
<glyph unicode="&#xe911;" glyph-name="instagram" d="M682.667 550.4c18.852 0 34.133 15.281 34.133 34.133s-15.281 34.133-34.133 34.133c-18.852 0-34.133-15.281-34.133-34.133s15.281-34.133 34.133-34.133z" />
<glyph unicode="&#xe912;" glyph-name="instagram-bg" d="M719.551 605.020c-4.826 12.428-10.598 21.297-19.913 30.614-9.318 9.316-18.186 15.086-30.614 19.916-9.38 3.646-23.477 7.982-49.435 9.168-28.075 1.281-36.495 1.551-107.585 1.551s-79.51-0.27-107.585-1.551c-25.958-1.185-40.055-5.521-49.439-9.168-12.428-4.83-21.295-10.6-30.611-19.916s-15.086-18.186-19.916-30.614c-3.646-9.38-7.983-23.477-9.168-49.435-1.28-28.075-1.551-36.495-1.551-107.585s0.271-79.51 1.551-107.585c1.185-25.955 5.521-40.055 9.168-49.435 4.83-12.428 10.6-21.296 19.916-30.614 9.316-9.315 18.184-15.087 30.611-19.913 9.383-3.649 23.48-7.984 49.439-9.168 28.071-1.28 36.492-1.553 107.585-1.553s79.514 0.273 107.585 1.553c25.958 1.184 40.055 5.519 49.435 9.168 12.428 4.826 21.296 10.598 30.614 19.917 9.315 9.315 15.087 18.183 19.913 30.611 3.649 9.38 7.987 23.48 9.168 49.435 1.283 28.075 1.553 36.495 1.553 107.585s-0.27 79.51-1.553 107.585c-1.181 25.958-5.519 40.055-9.168 49.435zM512.003 311.282c-75.51 0-136.718 61.211-136.718 136.718s61.208 136.718 136.718 136.718c75.506 0 136.718-61.211 136.718-136.718s-61.211-136.718-136.718-136.718zM654.121 558.172c-17.644 0-31.949 14.302-31.949 31.949 0 17.644 14.305 31.948 31.949 31.948 17.647 0 31.952-14.304 31.952-31.948 0-17.647-14.305-31.949-31.952-31.949zM511.997 359.253c49.015 0 88.747 39.735 88.747 88.747s-39.731 88.747-88.747 88.747c-49.012 0-88.747-39.735-88.747-88.747s39.735-88.747 88.747-88.747zM512.003 960c-282.772 0-512.003-229.229-512.003-511.99 0-282.778 229.231-512.010 512.003-512.010 282.761 0 511.997 229.233 511.997 512.010 0 282.761-229.236 511.99-511.997 511.99zM776.639 338.231c-1.294-28.341-5.792-47.691-12.377-64.628-6.803-17.507-15.906-32.355-30.706-47.155-14.804-14.804-29.652-23.907-47.159-30.71-16.937-6.581-36.287-11.083-64.628-12.377-28.396-1.294-37.461-1.601-109.769-1.601s-81.374 0.307-109.769 1.601c-28.341 1.294-47.695 5.796-64.629 12.377-17.507 6.803-32.356 15.906-47.158 30.71-14.801 14.8-23.904 29.648-30.708 47.155-6.583 16.937-11.082 36.287-12.376 64.628-1.295 28.396-1.601 37.465-1.601 109.769 0 72.308 0.306 81.374 1.601 109.773 1.294 28.337 5.794 47.691 12.376 64.625 6.804 17.508 15.906 32.356 30.708 47.158s29.65 23.904 47.158 30.709c16.935 6.581 36.288 11.081 64.629 12.375 28.396 1.295 37.461 1.601 109.769 1.601s81.374-0.306 109.769-1.601c28.341-1.294 47.691-5.794 64.628-12.375 17.507-6.805 32.355-15.907 47.159-30.709 14.8-14.801 23.904-29.65 30.706-47.158 6.584-16.934 11.083-36.287 12.377-64.625 1.297-28.399 1.601-37.465 1.601-109.773 0-72.305-0.304-81.374-1.601-109.769z" />
<glyph unicode="&#xe913;" glyph-name="like" d="M640 652.8c-57.545 0-93.976-31.608-114.405-58.126-5.301-6.878-9.81-13.78-13.595-20.272-3.785 6.492-8.294 13.394-13.595 20.272-20.429 26.518-56.859 58.126-114.405 58.126-40.916 0-78.284-15.481-105.221-43.592-25.694-26.815-39.845-62.727-39.845-101.12 0-41.793 17.742-80.667 55.835-122.33 34.045-37.239 83.023-75.622 139.739-120.071 21.132-16.565 42.988-33.693 66.256-52.415l0.7-0.563c3.014-2.427 6.775-3.642 10.537-3.642s7.523 1.215 10.54 3.642l0.696 0.563c23.269 18.722 45.124 35.85 66.26 52.415 56.713 44.445 105.69 82.831 139.735 120.071 38.093 41.667 55.835 80.538 55.835 122.33 0 38.393-14.152 74.305-39.847 101.123-26.935 28.108-64.304 43.588-105.219 43.588z" />
<glyph unicode="&#xe914;" d="M1006.933 448c0-273.344-221.589-494.933-494.933-494.933s-494.933 221.589-494.933 494.933c0 273.344 221.589 494.933 494.933 494.933s494.933-221.589 494.933-494.933z" />
<glyph unicode="&#xe915;" d="M640 652.8c-57.545 0-93.976-31.608-114.405-58.126-5.301-6.878-9.81-13.78-13.595-20.272-3.785 6.492-8.294 13.394-13.595 20.272-20.429 26.518-56.859 58.126-114.405 58.126-40.916 0-78.284-15.481-105.221-43.592-25.694-26.815-39.845-62.727-39.845-101.12 0-41.793 17.742-80.667 55.835-122.33 34.045-37.239 83.023-75.622 139.739-120.071 21.132-16.565 42.988-33.693 66.256-52.415l0.7-0.563c3.014-2.427 6.775-3.642 10.537-3.642s7.523 1.215 10.54 3.642l0.696 0.563c23.269 18.722 45.124 35.85 66.26 52.415 56.713 44.445 105.69 82.831 139.735 120.071 38.093 41.667 55.835 80.538 55.835 122.33 0 38.393-14.152 74.305-39.847 101.123-26.935 28.108-64.304 43.588-105.219 43.588z" />
<glyph unicode="&#xe916;" glyph-name="magnet" d="M733.865 721.062c4.364 0 8.74 1.671 12.059 4.999l85.342 85.333c3.884 3.877 5.663 9.384 4.775 14.795-0.87 5.43-4.297 10.087-9.221 12.55l-47.078 23.525 68.584 68.592c6.67 6.67 6.67 17.463 0 24.132s-17.461 6.67-24.131 0l-85.332-85.331c-3.896-3.878-5.664-9.385-4.774-14.796 0.867-5.429 4.294-10.067 9.207-12.549l47.089-23.535-68.591-68.583c-6.671-6.67-6.671-17.461 0-24.132 3.328-3.328 7.704-4.999 12.070-4.999zM904.525 652.793c4.374 0 8.742 1.678 12.071 4.999l85.33 85.342c3.898 3.866 5.666 9.383 4.779 14.792-0.872 5.42-4.299 10.081-9.211 12.541l-47.090 23.535 68.596 68.595c6.67 6.67 6.67 17.459 0 24.13-6.682 6.67-17.463 6.67-24.144 0l-85.33-85.332c-3.886-3.877-5.663-9.385-4.775-14.794 0.869-5.431 4.297-10.078 9.219-12.549l47.078-23.533-68.584-68.584c-6.68-6.682-6.68-17.461 0-24.131 3.331-3.331 7.695-5.009 12.061-5.009zM772.992 204.066l-85.332-85.333c-108.32-108.319-188.308-148.603-295.134-148.603-197.625 0-358.396 160.771-358.396 358.397 0 98.592 48.604 195.144 148.603 295.134l295.127 295.135 146.54-146.532-146.54-146.531-107.392 107.392c-6.68 6.678-17.463 6.678-24.132 0-6.68-6.67-6.68-17.463 0-24.132l119.462-119.462c6.67-6.67 17.463-6.67 24.132 0l170.662 170.663c6.678 6.67 6.678 17.461 0 24.131l-170.662 170.673c-6.67 6.67-17.463 6.67-24.132 0l-307.196-307.205c-106.717-106.72-158.601-211.142-158.601-319.266 0-216.433 176.094-392.527 392.527-392.527 133.787 0 221.356 60.682 319.266 158.601l85.34 85.333c6.67 6.67 6.67 17.461 0 24.132-6.678 6.67-17.461 6.67-24.141 0zM814.193 367.667l68.27 68.262c6.67 6.67 6.67 17.459 0 24.129-6.68 6.671-17.459 6.671-24.139 0l-68.263-68.262c-6.67-6.68-6.67-17.459 0-24.129 3.33-3.331 7.695-5.001 12.071-5.001 4.367 0 8.733 1.669 12.061 5.001zM431.667 726.060c3.331-3.328 7.695-4.999 12.061-4.999 4.374 0 8.74 1.671 12.070 4.999l22.071 22.074 22.062-22.074c3.33-3.328 7.706-4.999 12.070-4.999s8.74 1.671 12.070 4.999c6.67 6.671 6.67 17.463 0 24.132l-22.069 22.071 22.069 22.060c6.67 6.68 6.67 17.459 0 24.14-6.68 6.67-17.459 6.67-24.139 0l-22.062-22.070-22.071 22.070c-6.67 6.67-17.461 6.67-24.131 0-6.678-6.68-6.678-17.459 0-24.14l22.071-22.060-22.071-22.071c-6.678-6.67-6.678-17.461 0-24.132zM848.323 596.591c-6.67 6.678-17.461 6.678-24.131 0l-358.397-358.395c-32.393-32.374-59.412-46.203-90.329-46.203-75.94 0-119.473 43.537-119.473 119.475 0 30.916 13.829 57.936 46.201 90.329l136.532 136.533c6.68 6.659 6.68 17.461 0 24.131-6.67 6.659-17.461 6.659-24.131 0l-136.542-136.532c-26.151-26.182-56.19-62.853-56.19-114.461 0-94.739 58.866-153.605 153.603-153.605 51.618 0 88.279 30.039 114.461 56.202l346.336 346.334 146.531-146.54-146.531-146.534-90.332 90.341c-6.68 6.67-17.461 6.67-24.131 0-6.68-6.678-6.68-17.459 0-24.139l102.391-102.391c6.682-6.68 17.461-6.68 24.131 0l170.673 170.662c6.671 6.67 6.671 17.463 0 24.132l-170.673 170.662z" />
<glyph unicode="&#xe917;" glyph-name="mail" d="M922.615 853.333h-821.319c-55.856 0-101.297-45.431-101.297-101.371v-607.988c0-55.94 45.441-101.308 101.297-101.308h821.406c55.855 0 101.297 45.367 101.297 101.308v607.988c0 55.939-45.527 101.371-101.385 101.371zM981.271 143.974c0-32.326-26.366-58.65-58.656-58.65h-821.319c-32.29 0-58.656 26.323-58.656 58.65v607.988c0 32.324 26.366 58.712 58.656 58.712h821.406c32.29 0 58.656-26.388 58.656-58.712l-0.087-607.988zM660.171 455.497l210.125 210.13c8.399 8.298 8.399 21.838 0 30.136-8.29 8.298-21.764 8.298-30.078 0l-328.218-328.204-321.774 321.856c-8.399 8.298-21.875 8.298-30.186 0s-8.311-21.839 0-30.136l209.214-209.199-205.829-205.818c-8.311-8.386-8.311-21.926 0-30.138 4.167-4.139 9.592-6.261 15.104-6.261 5.425 0 10.915 2.123 15.082 6.261l205.806 205.732 97.478-97.493c4.166-4.139 9.591-6.261 15.104-6.261 5.425 0 10.938 2.123 15.081 6.261l102.991 102.995 211.253-211.234c4.145-4.139 9.57-6.261 15.083-6.261 5.425 0 10.85 2.123 15.083 6.261 8.311 8.297 8.311 21.839 0 30.138l-211.319 211.234z" />
<glyph unicode="&#xe918;" glyph-name="mailbox" d="M955.733 243.2c9.421 0 17.067 7.629 17.067 17.067v324.267c0 112.93-91.87 204.8-204.8 204.8h-153.6v34.133h119.467c9.421 0 17.067 7.629 17.067 17.067v102.4c0 9.438-7.646 17.067-17.067 17.067h-136.533c-9.421 0-17.067-7.629-17.067-17.067v-153.6h-324.267c-112.93 0-204.8-91.87-204.8-204.8v-324.267c0-9.438 7.646-17.067 17.067-17.067h358.4v-290.133c0-9.438 7.646-17.067 17.067-17.067h136.533c9.421 0 17.067 7.629 17.067 17.067v290.133h358.4zM716.8 857.6h-102.4v68.267h102.4v-68.267zM580.267 755.2v-68.267c0-9.438 7.646-17.067 17.067-17.067s17.067 7.629 17.067 17.067v68.267h153.6c94.106 0 170.667-76.561 170.667-170.667v-307.2h-477.867v307.2c0 71.159-36.485 133.948-91.723 170.667h211.19zM85.333 584.533c0 94.106 76.561 170.667 170.667 170.667s170.667-76.561 170.667-170.667v-307.2h-341.333v307.2zM563.2-29.867h-102.4v273.067h102.4v-273.067zM750.933 311.467h136.533c9.421 0 17.067 7.629 17.067 17.067v102.4c0 9.438-7.646 17.067-17.067 17.067s-17.067-7.629-17.067-17.067v-85.333h-119.467c-9.421 0-17.067-7.629-17.067-17.067s7.646-17.067 17.067-17.067zM768 686.933c56.474 0 102.4-45.926 102.4-102.4v-51.2c0-9.438 7.646-17.067 17.067-17.067s17.067 7.629 17.067 17.067v51.2c0 75.281-61.252 136.533-136.533 136.533-9.421 0-17.067-7.629-17.067-17.067s7.646-17.067 17.067-17.067zM85.333-29.867h-68.267c-9.421 0-17.067-7.629-17.067-17.067s7.646-17.067 17.067-17.067h68.267c9.421 0 17.067 7.629 17.067 17.067s-7.646 17.067-17.067 17.067zM1006.933-29.867h-324.267c-9.421 0-17.067-7.629-17.067-17.067s7.646-17.067 17.067-17.067h324.267c9.421 0 17.067 7.629 17.067 17.067s-7.646 17.067-17.067 17.067zM375.467-29.867h-170.667c-9.421 0-17.067-7.629-17.067-17.067s7.646-17.067 17.067-17.067h170.667c9.421 0 17.067 7.629 17.067 17.067s-7.646 17.067-17.067 17.067zM273.067 345.6h-119.467v119.467c0 9.438-7.646 17.067-17.067 17.067s-17.067-7.629-17.067-17.067v-136.533c0-9.438 7.646-17.067 17.067-17.067h136.533c9.421 0 17.067 7.629 17.067 17.067s-7.646 17.067-17.067 17.067z" />
<glyph unicode="&#xe919;" glyph-name="next-arrow" d="M358.4 448.116c0-10.465 8.547-18.947 19.091-18.947h222.933l-53.755-51.424c-6.955-6.653-7.154-17.644-0.445-24.54l2.243-2.306c6.705-6.895 17.777-7.086 24.721-0.428l87.078 83.487c7.028 6.738 7.125 17.886 0.215 24.745l-87.274 86.617c-6.844 6.791-17.946 6.772-24.765-0.044l-2.284-2.284c-6.786-6.782-6.767-17.734 0.043-24.491l51.828-51.439-220.537 0.002c-10.544 0-19.091-8.484-19.091-18.947z" />
<glyph unicode="&#xe91a;" glyph-name="pinch" horiz-adv-x="1041" d="M68.313 840.526v-375.457c0-9.424 7.628-17.070 17.060-17.070 9.445 0 17.072 7.646 17.072 17.070v375.457c0 9.423-7.627 17.070-17.072 17.070-9.432 0-17.060-7.648-17.060-17.070zM29.142 862.596l56.202 56.2 56.19-56.2c3.33-3.33 7.705-5 12.070-5 4.375 0 8.742 1.67 12.072 5 6.669 6.67 6.669 17.46 0 24.13l-68.272 68.272c-6.65 6.67-17.46 6.67-24.13 0l-68.272-68.272c-6.67-6.67-6.67-17.46 0-24.13 6.68-6.67 17.48-6.67 24.14 0zM1022.809 164.231c-18.603 46.338-22.782 80.184-26.846 112.899-5.48 44.112-11.133 89.754-51.611 159.87l-110.937 192.159c-17.85 30.928-62.275 42.87-93.269 24.991-10.363-5.997-18.995-14.973-24.933-25.706-11.486 16.536-28.242 28.351-47.899 33.625-22.002 5.898-45.010 2.84-64.758-8.516-18.767-10.839-31.874-27.793-38.233-46.882-26.706 22.048-65.41 26.482-97.085 8.151-18.273-10.564-31.741-27.136-38.313-47.029l-147.526 210.563c-43.242 58.927-85.743 46.895-107.226 34.472-19.816-11.435-32.9-29.668-36.846-51.307-3.625-19.912 0.663-41.777 12.44-62.14l262.487-414.118c5.050-7.967 15.599-10.322 23.545-5.282 7.97 5.048 10.342 15.596 5.296 23.545l-262.147 413.542c-7.354 12.742-10.216 26.366-8.038 38.328 2.15 11.796 9.18 21.436 20.333 27.87 7.675 4.446 31.073 17.94 62.411-24.794l183.171-261.484c5.226-7.45 15.43-9.52 23.144-4.588 7.706 4.9 10.185 15.008 5.606 22.919-6.835 11.848-8.651 25.634-5.115 38.866 3.535 13.206 12.018 24.25 23.846 31.075 24.433 14.102 55.857 5.722 69.951-18.739l17.031-29.493c0.019-0.029 0.019-0.048 0.038-0.067 4.709-8.175 15.159-10.938 23.311-6.241 8.154 4.705 10.957 15.136 6.25 23.311l-0.038 0.046c-14.083 24.446-5.666 55.793 18.77 69.893 11.834 6.827 25.692 8.643 38.847 5.117 13.211-3.555 24.257-12.010 31.082-23.857l25.597-44.344c4.726-8.154 15.176-10.938 23.33-6.24 8.153 4.707 10.955 15.136 6.25 23.31l-0.039 0.031c-4.287 7.46-5.342 16.884-2.9 25.839 2.459 8.945 8.064 16.502 15.428 20.753 14.913 8.643 38.038 2.429 46.64-12.491l110.937-192.148c37.031-64.119 42.013-104.393 47.285-147.011 3.925-31.611 7.96-64.188 23.74-107.558l-330.32-190.701c-72.986 75.537-258.64 199.989-365.329 199.989l-170.692 0.273c-7.782 0-17.070 2.724-17.070 15.712 0 51.045 35.087 86.69 85.332 86.69h153.602c9.434 0 17.068 7.648 17.068 17.060 0 9.424-7.634 17.072-17.068 17.072h-153.602c-69.22 0-119.462-50.813-119.462-120.822 0-29.344 21.045-49.841 51.16-49.841l170.704-0.283c93.065 0 283.513-123.846 349.285-198.721 3.33-3.787 8.035-5.799 12.82-5.799 2.91 0 5.869 0.753 8.527 2.285l354.732 204.803c7.356 4.246 10.46 13.263 7.306 21.142zM85.342 345.595c4.365 0 8.73 1.671 12.060 5.001l68.272 68.27c6.67 6.67 6.67 17.463 0 24.132-6.662 6.67-17.463 6.67-24.142 0l-56.19-56.202-56.202 56.202c-6.66 6.67-17.459 6.67-24.13 0-6.68-6.68-6.68-17.463 0-24.132l68.262-68.27c3.33-3.33 7.695-5.001 12.070-5.001z" />
<glyph unicode="&#xe91b;" glyph-name="pinterest" d="M743.188 480.051c-22.217-100.253-90.726-168.878-183.552-168.878-38.277 0-74.305 20.559-86.62 43.957 0 0-20.582-81.251-24.924-96.997-15.357-55.433-60.512-110.957-64.007-115.48-2.454-3.154-7.888-2.161-8.451 2.045-0.993 7.042-12.465 77.008 1.055 134.103 6.796 28.692 45.609 192.28 45.609 192.28s-5.588 11.24-8.929 29.495c-1.382 7.66-2.4 16.544-2.4 26.395 0 52.282 30.478 91.307 68.42 91.307 32.222 0 47.807-24.081 47.807-52.954 0-16.893-5.67-38.171-12.599-61.034-6.294-20.794-13.633-42.889-18.732-64.201-8.888-37.444 18.889-67.956 56.026-67.956 52.087 0 90.989 51.75 105.81 122.487 4.284 20.405 6.55 42.38 6.55 65.157 0 77.316-52.333 135.228-147.535 135.228-107.5 0-174.585-79.857-174.585-169.048 0-12.281 1.519-23.064 4.185-32.73 4.017-14.51 10.663-26.409 19.261-36.461 6.557-7.724 7.427-10.8 5.1-19.644-1.751-6.571-5.618-22.163-7.253-28.361-2.348-8.98-9.609-12.138-17.783-8.854-34.358 14.008-55.994 44.36-65.98 81.923-4.422 16.51-6.594 34.389-6.594 52.92 0 100.227 84.958 220.427 253.372 220.45 135.407 0 224.495-97.481 224.495-202.165 0-25.679-2.656-50.142-7.745-72.984z" />
<glyph unicode="&#xe91c;" glyph-name="pinterest-bg" d="M511.997 960c-282.771 0-511.997-229.229-511.997-512s229.226-512 511.997-512c282.778 0 512.003 229.229 512.003 512s-229.226 512-512.003 512zM746.718 479.638c-22.555-98.959-92.109-166.697-186.354-166.697-38.861 0-75.438 20.292-87.945 43.39 0 0-20.893-80.203-25.303-95.744-15.592-54.719-61.433-109.524-64.986-113.988-2.492-3.113-8.004-2.133-8.578 2.017-1.010 6.95-12.657 76.015 1.072 132.369 6.898 28.32 46.305 189.798 46.305 189.798s-5.676 11.093-9.069 29.112c-1.399 7.561-2.437 16.333-2.437 26.054 0 51.61 30.945 90.126 69.468 90.126 32.713 0 48.538-23.767 48.538-52.268 0-16.674-5.758-37.676-12.79-60.245-6.393-20.524-13.844-42.336-19.019-63.372-9.025-36.96 19.18-67.079 56.88-67.079 52.883 0 92.378 51.081 107.428 120.904 4.349 20.145 6.649 41.834 6.649 64.317 0 76.317-53.132 133.481-149.787 133.481-109.141 0-177.253-78.823-177.253-166.864 0-12.124 1.545-22.767 4.248-32.311 4.079-14.319 10.827-26.064 19.558-35.987 6.656-7.625 7.54-10.66 5.175-19.388-1.775-6.489-5.704-21.876-7.363-27.996-2.383-8.868-9.755-11.984-18.057-8.742-34.881 13.827-56.847 43.786-66.986 80.865-4.49 16.295-6.695 33.946-6.695 52.234 0 98.934 86.256 217.582 257.243 217.604 137.472 0 227.922-96.221 227.922-199.551 0-25.347-2.693-49.497-7.864-72.042z" />
<glyph unicode="&#xe91d;" glyph-name="prev-arrow" d="M665.6 447.884c0 10.465-8.547 18.947-19.091 18.947h-222.933l53.755 51.424c6.955 6.653 7.154 17.644 0.445 24.54l-2.243 2.306c-6.705 6.895-17.777 7.086-24.721 0.428l-87.078-83.487c-7.028-6.738-7.125-17.886-0.215-24.745l87.274-86.617c6.844-6.791 17.946-6.772 24.765 0.044l2.284 2.284c6.786 6.782 6.767 17.734-0.043 24.492l-51.828 51.437h220.537c10.544 0 19.091 8.482 19.091 18.946z" />
<glyph unicode="&#xe91e;" glyph-name="right-arrow" d="M0 448.029c0-13.978 11.158-25.162 25.105-25.162h913.182l-187.404-187.824c-9.889-9.909-9.889-25.667 0-35.58s25.612-9.913 35.501 0l230.262 230.775c4.817 4.829 7.353 11.437 7.353 17.791s-2.536 12.962-7.353 17.791l-230.262 230.775c-9.889 9.912-25.612 9.912-35.501 0s-9.889-25.67 0-35.582l187.404-187.822h-913.182c-13.947-0.025-25.105-11.183-25.105-25.162z" />
<glyph unicode="&#xe91f;" glyph-name="robot-arm" d="M452.186 704c23.074 0 45.107 13.454 54.88 35.927v0.010c13.109 30.212-0.807 65.45-31.017 78.562-14.63 6.345-30.875 6.623-45.708 0.768-14.851-5.855-26.523-17.135-32.867-31.785-13.119-30.198 0.795-65.437 31.005-78.552 7.729-3.345 15.776-4.931 23.707-4.931zM425.53 775.316c3.108 7.14 8.796 12.635 16.038 15.493 3.466 1.374 7.081 2.052 10.697 2.052 3.944 0 7.878-0.808 11.593-2.429 14.74-6.393 21.533-23.579 15.138-38.318-6.405-14.737-23.596-21.517-38.327-15.123-14.74 6.403-21.533 23.589-15.14 38.325zM305.377 408.892c-14.635 6.352-30.86 6.632-45.693 0.778-14.831-5.856-26.498-17.147-32.852-31.773-6.349-14.636-6.618-30.855-0.765-45.701 5.852-14.836 17.132-26.505 31.764-32.857 7.716-3.357 15.759-4.939 23.682-4.939 23.076 0 45.097 13.452 54.851 35.944 6.351 14.626 6.618 30.855 0.768 45.693-5.854 14.845-17.133 26.513-31.756 32.855zM308.313 342.521c-6.391-14.725-23.572-21.516-38.315-15.116-7.137 3.098-12.631 8.784-15.488 16.022s-2.72 15.153 0.377 22.294c3.094 7.137 8.789 12.634 16.015 15.491 3.466 1.374 7.089 2.050 10.703 2.050 3.941 0 7.863-0.806 11.597-2.418 7.127-3.098 12.631-8.791 15.488-16.031 2.86-7.238 2.72-15.153-0.377-22.292zM841.221 625.232c19.905 26.266 14.734 63.821-11.518 83.729-26.264 19.897-63.824 14.726-83.731-11.539-19.896-26.255-14.727-63.819 11.535-83.717 10.772-8.16 23.446-12.105 36.017-12.105 18.084 0 35.958 8.151 47.696 23.632zM816.829 643.726c-4.704-6.205-11.537-10.211-19.249-11.276-7.711-1.058-15.382 0.945-21.589 5.658-12.802 9.706-15.322 28.020-5.62 40.832 5.729 7.552 14.447 11.539 23.264 11.539 6.141 0 12.317-1.932 17.577-5.908 12.803-9.714 15.333-28.039 5.618-40.844zM1018.010 503.622l-20.565 39.644c-9.093 17.529-21.642 32.473-37.304 44.414-6.574 5.014-15.988 3.77-21.026-2.767-5.040-6.54-3.801-15.918 2.782-20.922 12.117-9.24 21.835-20.823 28.896-34.423l20.557-39.636c2.891-5.567 6.798-22.688-10.155-31.648-16.954-8.967-28.928 4.529-31.817 10.107l-20.557 39.642c-14.228 27.441-48.563 38.839-75.841 24.088-39.247-21.229-31.113-62.186-24.218-75.469l20.559-39.642c5.975-11.505 1.415-25.711-10.158-31.648-11.563-5.937-25.841-1.41-31.807 10.105l-20.565 39.644c-16.456 31.746-15.176 69.154 2.92 99.625 35.116-4.275 137.743 14.37 137.743 124.984 0 69.221-56.602 125.54-126.17 125.54-17.901 0-34.944-3.761-50.393-10.485l-183.741 57.055c-13.426 21.922-33.181 39.167-57.204 49.545-29.826 12.875-63.135 13.778-93.821 2.537-7.772-2.838-11.757-11.427-8.885-19.16 2.86-7.736 11.472-11.701 19.258-8.843 23.407 8.569 48.797 7.89 71.492-1.916 48.701-21.027 71.125-77.547 49.983-126.004l-178.313-408.759c-21.144-48.447-77.959-70.755-126.641-49.729-48.7 21.036-71.122 77.556-49.99 126.005l178.321 408.757c3.76 8.63 8.75 16.607 14.824 23.718 5.371 6.279 4.589 15.694-1.72 21.026-6.308 5.346-15.77 4.577-21.142-1.709-7.977-9.347-14.539-19.822-19.471-31.142l-148.429-340.246c-71.952-33.241-118.007-104.404-118.007-183.487v-122.684c-43.183-3.002-77.403-38.903-77.403-82.621 0-45.676 37.352-82.852 83.272-82.852h394.796c45.918 0 83.27 37.176 83.27 82.852 0 43.718-34.217 79.619-77.402 82.621v122.684c0 43.46-14.345 86.021-40.556 120.856l99.178 227.338 151.555-47.049c15.008-23.991 37.919-42.597 65.097-52.186-18.789-37.584-18.809-81.922 0.928-119.962l20.545-39.646c9.521-18.335 38.164-39.458 72.228-22.938 12.879 6.248 42.54 29.508 23.067 71.861l-20.569 39.646c-3.202 6.199-6.521 25.011 11.319 35.251 12.549 7.209 28.79 1.565 35.43-11.252l20.557-39.642c13.556-26.138 45.957-36.429 72.228-22.943 12.732 6.54 22.137 17.606 26.482 31.181 4.366 13.573 3.145 28.023-3.417 40.684zM453.936 292.424v-122.45h-52.958c-8.282 0-15-6.683-15-14.925 0-8.238 6.717-14.925 15-14.925h77.090c29.375 0 53.27-23.777 53.27-53.012 0-29.22-23.895-52.995-53.27-52.995h-394.796c-29.375 0-53.272 23.776-53.272 53.002 0 29.228 23.897 53.006 53.272 53.006h258.751c8.289 0 15 6.687 15 14.925 0 8.241-6.711 14.925-15 14.925h-234.62v122.45c0 54.277 25.478 104.189 67.45 136.373l-9.336-21.408c-27.724-63.546 1.68-137.682 65.548-165.279 16.328-7.043 115.215-44.102 166.103 65.229l32.032 73.438c16.055-26.614 24.735-57.213 24.735-88.352zM678.81 629.588l-124.239 38.576 20.917 47.944c11.095 25.408 13.321 53.189 6.719 79.772l135.636-42.103c-26.182-23.028-42.743-56.647-42.743-94.055 0-10.388 1.307-20.473 3.71-30.133zM705.099 659.721c0 52.762 43.145 95.69 96.172 95.69 53.038 0 96.172-42.929 96.172-95.69 0-52.772-43.134-95.689-96.172-95.689-53.028 0-96.172 42.918-96.172 95.689z" />
<glyph unicode="&#xe920;" glyph-name="scale-minus" d="M716.8 482.133h-409.6c-18.851 0-34.133-15.281-34.133-34.133s15.282-34.133 34.133-34.133h409.6c18.852 0 34.133 15.281 34.133 34.133s-15.281 34.133-34.133 34.133z" />
<glyph unicode="&#xe921;" glyph-name="scale-plus" d="M716.8 482.133h-409.6c-18.851 0-34.133-15.281-34.133-34.133s15.282-34.133 34.133-34.133h409.6c18.852 0 34.133 15.281 34.133 34.133s-15.281 34.133-34.133 34.133zM477.867 652.8v-409.6c0-18.852 15.281-34.133 34.133-34.133s34.133 15.281 34.133 34.133v409.6c0 18.851-15.281 34.133-34.133 34.133s-34.133-15.282-34.133-34.133z" />
<glyph unicode="&#xe922;" glyph-name="search" d="M175.625 847.425c9.426 0 17.067 7.641 17.067 17.067s-7.641 17.067-17.067 17.067c-9.425 0-17.066-7.641-17.066-17.067s7.641-17.067 17.066-17.067zM1018.834-33.893l-284.358 284.349c69.431 75.416 111.925 175.997 111.925 286.343 0 233.351-189.851 423.2-423.2 423.2-67.893 0-132.743-15.6-192.742-46.35-8.392-4.3-11.699-14.583-7.409-22.967 4.301-8.383 14.575-11.717 22.975-7.4 55.134 28.25 114.751 42.583 177.176 42.583 214.533 0 389.067-174.534 389.067-389.067 0-101.185-38.854-193.446-102.39-262.719-6.895-6.893-17.867-17.865-23.968-23.965-69.272-63.532-161.529-102.383-262.709-102.383-214.533 0-389.067 174.534-389.067 389.067 0 98.401 36.808 192.283 103.633 264.384 6.408 6.917 6 17.717-0.917 24.117-6.892 6.417-17.7 6-24.117-0.917-72.7-78.416-112.733-180.55-112.733-287.584 0-233.349 189.85-423.2 423.2-423.2 110.341 0 210.92 42.491 286.334 111.918l284.358-284.351c3.446-3.444 7.958-5.166 12.471-5.166s9.025 1.722 12.471 5.166c6.888 6.89 6.888 18.051 0 24.941z" />
<glyph unicode="&#xe923;" glyph-name="search-art" d="M573.536 765.553c-48.364 48.35-112.664 74.981-181.062 74.981-68.396 0-132.698-26.628-181.064-74.981-99.836-99.814-99.836-262.223 0-362.039 48.365-48.35 112.667-74.981 181.064-74.981 68.398 0 132.698 26.629 181.062 74.981s74.998 112.64 74.998 181.019c0 68.379-26.634 132.666-74.998 181.019zM232.032 744.936c42.854 42.844 99.837 66.44 160.44 66.44 60.605 0 117.584-23.596 160.439-66.44 33.824-33.814 55.642-76.43 63.34-122.675l-79.483-77.71c-7.528 4.248-16.207 6.683-25.45 6.683-17.99 0-33.872-9.192-43.203-23.122l-116.825 36.647c0.005 0.338 0.024 0.674 0.024 1.015 0 28.645-23.31 51.953-51.965 51.953-28.653 0-51.965-23.308-51.965-51.953 0-9.364 2.504-18.152 6.859-25.748l-61.297-63.524c-46.512 85.975-33.496 195.869 39.084 268.433zM534.122 499.282c0-12.57-10.23-22.798-22.803-22.798s-22.803 10.228-22.803 22.798c0 12.57 10.23 22.798 22.803 22.798s22.803-10.228 22.803-22.798zM322.154 565.777c0-12.57-10.23-22.798-22.803-22.798-12.575 0-22.804 10.228-22.804 22.798s10.23 22.798 22.804 22.798c12.573 0 22.803-10.228 22.803-22.798zM552.912 424.129c-42.854-42.844-99.833-66.441-160.439-66.441-60.604 0-117.586 23.596-160.44 66.441-8.511 8.509-16.196 17.538-23.071 26.977l66.268 68.676c7.214-3.799 15.418-5.958 24.122-5.958 17.992 0 33.874 9.192 43.204 23.122l116.825-36.649c-0.005-0.338-0.026-0.674-0.026-1.014 0-28.646 23.311-51.953 51.965-51.953s51.966 23.306 51.966 51.953c0 8.827-2.22 17.143-6.12 24.429l62.206 60.817c-0.003-60.593-23.607-117.557-66.461-160.401zM459.962 762.585v0c2.838 8.426-1.782 17.685-10.127 19.945-58.926 15.961-121.989 3.493-170.837-33.773-6.946-5.297-7.914-15.676-2.251-22.412 5.118-6.089 13.872-7.014 20.157-2.232 41.515 31.572 95.053 42.146 145.133 28.662 7.554-2.034 15.358 2.186 17.925 9.81zM505.141 751.526c-0.218 0.16-0.437 0.319-0.655 0.48-7.892 5.743-18.99 3.514-24.061-4.844l-0.14-0.229c-4.56-7.518-2.476-17.205 4.617-22.378 0.085-0.061 0.169-0.125 0.254-0.186 7.088-5.188 16.915-4.192 22.636 2.483l0.174 0.205c6.356 7.417 5.045 18.698-2.825 24.468zM765.67 347.793l-21.448-21.42-53.212 56.808c62.981 91.947 78.141 206.978 45.471 310.042l42.22 41.233c7.426-4.006 15.918-6.284 24.934-6.284 29.025 0 52.64 23.586 52.64 52.576 0 8.586-2.082 16.69-5.753 23.856l90.631 88.517v-45.751h29.542v95.563h-95.679v-29.505h44.675l-89.436-87.349c-7.817 4.597-16.911 7.246-26.621 7.246-29.025 0-52.64-23.586-52.64-52.576 0-9.277 2.427-17.994 6.668-25.568l-32.357-31.601c-17.417 41.429-42.964 80.228-76.687 113.911-139.496 139.321-366.464 139.317-505.96 0-124.262-124.109-137.829-317.544-40.71-456.793l-24.872-25.75c-7.309 3.843-15.62 6.030-24.437 6.030-29.026 0.002-52.639-23.584-52.639-52.574s23.614-52.577 52.641-52.577c29.027 0 52.641 23.588 52.641 52.577 0 9.479-2.537 18.369-6.95 26.057l21.731 22.497c7.080-8.528 14.596-16.814 22.591-24.801 69.749-69.659 161.364-104.489 252.981-104.489 70.328 0 140.648 20.55 201.083 61.6l53.338-56.943-22.18-22.153 258.328-257.108 137.795 137.619-258.33 257.108zM803.635 803.819c12.737 0 23.1-10.35 23.1-23.071s-10.363-23.071-23.1-23.071c-12.739 0-23.1 10.351-23.1 23.071s10.361 23.071 23.1 23.071zM52.641 285.334c-12.737 0-23.1 10.349-23.1 23.071 0 12.72 10.363 23.071 23.1 23.071s23.1-10.351 23.1-23.071c0-12.721-10.363-23.071-23.1-23.071zM163.546 353.021c-127.974 127.816-127.974 335.787 0 463.605 63.985 63.908 148.036 95.86 232.090 95.86 84.052 0 168.103-31.954 232.090-95.86 127.974-127.815 127.974-335.79 0-463.605-127.971-127.814-336.208-127.814-464.179 0zM620.597 306.968c9.67 7.822 19.029 16.212 28.020 25.19 8.687 8.677 16.833 17.693 24.436 27.005l50.27-53.664-52.361-52.296-50.365 53.765zM886.175-5.245l-216.477 215.456 96.012 95.892 216.477-215.453-96.012-95.896zM716.8 219.313l22.178-20.238 22.697 20.716 86.548-78.991 22.176 20.236-108.725 99.231-44.875-40.953zM875.235 118.898v0c6.446 6.446 16.896 6.446 23.342 0l1.121-1.121c6.446-6.446 6.446-16.898 0-23.342-6.444-6.446-16.896-6.446-23.342 0l-1.121 1.121c-6.446 6.446-6.446 16.896 0 23.342zM170.667 209.067c9.426 0 17.067-7.013 17.067-15.664v-2.806c0-8.651-7.641-15.664-17.067-15.664s-17.067 7.013-17.067 15.664v2.806c0 8.651 7.641 15.664 17.067 15.664zM170.667 38.4c9.426 0 17.067-7.013 17.067-15.664v-2.806c0-8.651-7.641-15.664-17.067-15.664s-17.067 7.013-17.067 15.664v2.806c0 8.651 7.641 15.664 17.067 15.664zM426.667 157.867v0c9.426 0 17.067-7.014 17.067-15.665v-2.802c0-8.651-7.641-15.665-17.067-15.665v0c-9.426 0-17.067 7.014-17.067 15.665v2.802c0 8.651 7.641 15.665 17.067 15.665zM836.267 413.867c9.426 0 17.067-7.013 17.067-15.664v-2.806c0-8.651-7.641-15.664-17.067-15.664s-17.067 7.013-17.067 15.664v2.806c0 8.651 7.641 15.664 17.067 15.664zM870.4 669.867v0c9.426 0 17.067-7.013 17.067-15.664v-2.806c0-8.651-7.641-15.664-17.067-15.664v0c-9.426 0-17.067 7.013-17.067 15.664v2.806c0 8.651 7.641 15.664 17.067 15.664zM972.8 533.333c9.426 0 17.067-7.013 17.067-15.664v-2.806c0-8.651-7.641-15.664-17.067-15.664s-17.067 7.013-17.067 15.664v2.806c0 8.651 7.641 15.664 17.067 15.664z" />
<glyph unicode="&#xe924;" glyph-name="sectors" d="M282.933 753.193c-90.013-48.864-152.248-129.638-179.985-233.58-2.313-8.68 2.905-17.574 11.652-19.866 1.409-0.365 2.817-0.548 4.201-0.548 7.258 0 13.892 4.816 15.837 12.099 25.376 95.119 82.105 168.911 164.042 213.396 7.939 4.308 10.853 14.186 6.499 22.055-4.338 7.871-14.269 10.767-22.246 6.443zM102.4 430.933c9.426 0 17.067 7.641 17.067 17.067s-7.641 17.067-17.067 17.067c-9.426 0-17.067-7.641-17.067-17.067s7.641-17.067 17.067-17.067zM631.467 499.2c9.426 0 17.067 7.641 17.067 17.067s-7.641 17.067-17.067 17.067c-9.426 0-17.067-7.641-17.067-17.067s7.641-17.067 17.067-17.067zM998.011 609.623c-9.682 25.465-20.536 48.654-32.133 70.192-0.246 0.667-0.676 1.237-1.012 1.872-18.171 33.435-38.339 62.348-59.771 87.267-0.582 0.879-2.645 3.163-3.065 3.506-143.287 163.235-338.499 153.417-340.902 153.242-8.433-0.541-14.995-7.556-14.995-16.022v-439.984c0-4.256 1.681-8.332 4.685-11.343l311.736-312.842c3.121-3.135 7.228-4.71 11.336-4.71 4.004 0 8.016 1.497 11.122 4.499 2.12 2.046 210.572 207.695 112.998 464.324zM578.173 893.696c21.427-0.611 63.845-4.192 114.179-20.45l-114.179-114.415v134.865zM578.173 713.431l147.294 147.596c21.315-8.88 43.443-20.18 65.591-34.472l-212.884-213.335c0 0 0 95.708 0 100.21zM578.173 476.334v91.486l239.527 240.032c17.7-13.53 35.164-29.212 51.987-47.313l-182.653-183.030c-6.258-6.272-6.258-16.43 0-22.702 3.128-3.135 7.228-4.702 11.325-4.702 4.099 0 8.199 1.567 11.327 4.702l180.97 181.345c14.159-17.696 27.65-37.402 40.231-59.283l-276.463-277.055-76.252 76.52zM677.062 377.098l269.657 270.232c7.579-15.411 14.735-31.741 21.349-49.137 2.797-7.354 5.243-14.65 7.506-21.912l-248.673-249.199-49.838 50.016zM873.53 179.939l-51.681 51.86 161.978 162.326c-22.299-106.336-84.983-185.651-110.297-214.187zM991.107 446.826l-191.896-192.309-49.674 49.85 235.327 235.824c6.618-32.736 6.895-92.713 6.243-93.365zM780.348 131.381c-65.476 66.272-274.896 278.743-308.968 313.308v430.741c0 9.003-7.212 16.303-16.108 16.303-251.034 0-455.272-206.718-455.272-460.8s204.239-460.8 455.272-460.8c123.354 0 238.843 49.116 325.193 138.313 6.182 6.385 6.127 16.613-0.118 22.934zM32.215 430.933c0 230.647 181.115 419.286 406.95 427.891v-420.879c0-1.289 0.437-2.487 0.729-3.719l-0.288-0.070 99.806-422.946c-27.394-5.557-55.528-8.472-84.139-8.472-233.276 0-423.057 192.087-423.057 428.194zM570.732 18.843l-86.525 366.667c67.331-68.306 201.281-204.184 261.881-265.561-50.26-48.247-110.208-82.531-175.357-101.106z" />
<glyph unicode="&#xe925;" glyph-name="send-mail" d="M767.65 945.109c-9.141 8.874-21.284 13.984-34.019 14.313-0.654 0.225-1.321 0.407-1.999 0.546-2.275 0.14-4.555-0.181-6.704-0.943-11.177-1.177-21.634-6.079-29.687-13.917l-136.895-136.904c-37.362 10.145-75.899 15.309-114.613 15.358-38.869-0.325-77.539-5.581-115.084-15.642-18.772-4.984-37.21-11.139-55.211-18.43-8.934-3.771-17.553-8.291-26.337-12.417-8.871-3.948-17.442-8.54-25.643-13.74l-24.876-15.143-23.376-17.353-11.643-8.738-10.783-9.779-21.457-19.671c-13.513-13.935-26.184-28.662-37.948-44.102-5.707-7.844-11.87-15.38-17.176-23.497l-15.138-24.88c-3.225-4.963-6.099-10.144-8.6-15.507-2.102-4.105-2.469-8.88-1.020-13.257 1.45-4.376 4.595-7.987 8.731-10.025 8.295-4.026 18.288-0.715 22.54 7.468 2.289 4.96 4.944 9.742 7.943 14.309l13.959 22.979c4.894 7.496 10.625 14.43 15.881 21.681 10.863 14.261 22.557 27.868 35.023 40.75l19.839 18.149 9.938 9.057 10.774 8.044 21.567 16.049 22.979 13.957c7.555 4.823 15.468 9.061 23.67 12.675 8.11 3.792 16.046 8.001 24.289 11.484 16.609 6.711 33.621 12.378 50.937 16.971 34.656 9.284 70.347 14.148 106.223 14.472 29.104 0.015 58.127-3.092 86.569-9.267l-60.14-60.143c-8.429 0.681-17.181 1.137-26.429 1.137-188.513 0-341.333-152.837-341.333-341.371s152.82-341.371 341.333-341.371c188.513 0 341.333 152.837 341.333 341.371 0 9.252-0.456 18.004-1.138 26.435l60.14 60.146c33.138-153.248-24.096-311.97-147.408-408.791s-291.067-114.755-432.055-46.188c-140.989 68.569-230.474 211.606-230.472 368.398 0.382 21.849 2.292 43.643 5.715 65.225 1.051 9.243-5.15 17.751-14.27 19.582-4.476 0.865-9.112-0.167-12.796-2.854-3.685-2.685-6.088-6.782-6.634-11.308-3.712-23.375-5.766-46.981-6.148-70.646 0-245.093 198.666-443.781 443.733-443.781s443.733 198.688 443.733 443.781c-0.049 38.719-5.212 77.261-15.357 114.627l136.89 136.909c9.603 9.6 15 22.624 15 36.204 0 13.582-5.396 26.605-15 36.205l-241.35 241.384zM642.43 312.979l13.172 250.728 51.639 3.511c8.527 0.568 15.316 7.359 15.884 15.886l3.509 51.635 250.694 13.175-334.897-334.935zM608.002 308.197l-236.18 236.215 249.482 16.964-13.302-253.179zM534.607 333.321c-20.043-39.516-63.27-61.607-107.032-54.702-43.764 6.905-78.090 41.236-84.994 85.004s15.188 86.999 54.7 107.044l137.325-137.346zM331.085 550.671c1.655-10.592 6.62-20.386 14.182-27.983l26.993-26.998c-48.096-29.478-73.057-85.548-62.778-141.020s53.675-98.872 109.14-109.155c55.465-10.283 111.531 14.679 141.007 62.78l26.998-26.999c7.612-7.574 17.43-12.541 28.042-14.181-45.705-69.465-128.881-104.383-210.468-88.358-81.589 16.026-145.381 79.811-161.422 161.405-16.039 81.592 18.857 164.784 88.306 210.509zM982.103 682.346l-253.138-13.303 16.956 249.517 236.182-236.213zM711.328 912.918l-21.262-312.637-312.631-21.275 111.003 111.008c0.247 0.234 0.474 0.461 0.707 0.708l222.182 222.196zM443.733 72.549c-168.289-0.077-305.285 135.335-307.182 303.633s132.011 306.765 300.261 310.482l-87.504-87.509c-98.594-42.426-156.785-145.411-142.261-251.767s98.196-189.964 204.554-204.396c106.358-14.432 209.282 43.856 251.616 142.498l87.366 87.376c-3.852-166.796-140.029-300.073-306.85-300.317z" />
<glyph unicode="&#xe926;" glyph-name="sign-out" d="M997.053 16.842h-538.947c-14.88 0-26.947 12.054-26.947 26.947v274.696c0 14.883 12.067 26.947 26.947 26.947s26.947-12.064 26.947-26.947v-247.749h485.053v754.526h-485.053v-245.803c0-14.88-12.067-26.947-26.947-26.947s-26.947 12.067-26.947 26.947v272.75c0 14.882 12.067 26.947 26.947 26.947h538.947c14.88 0 26.947-12.066 26.947-26.947v-808.421c0-14.894-12.067-26.947-26.947-26.947zM0 448.1c0-13.735 9.4-24.84 21.031-24.84h715.92l-125.842-148.634c-8.208-9.693-8.208-25.242 0-34.937 8.205-9.69 21.372-9.69 29.577 0l161.579 190.839c8.205 9.693 8.205 25.244 0 34.937l-161.579 190.847c-4.104 4.842-9.407 7.268-14.878 7.268-5.468 0-10.771-2.426-14.875-7.268-8.208-9.691-8.208-25.244 0-34.935l125.842-148.633h-716.089c-11.287 0-20.687-10.908-20.687-24.643z" />
<glyph unicode="&#xe927;" glyph-name="spinner" d="M503.972 960c-244.172-0.261-445.181-192.065-456.891-435.948-11.711-243.881 169.985-454.058 413.012-477.731l-77.541-77.521c-4.965-4.789-6.95-11.878-5.208-18.549s6.959-11.888 13.63-13.63c6.671-1.741 13.761 0.244 18.549 5.208l107.92 107.911c1.778 1.78 3.186 3.895 4.135 6.224 1.929 4.668 1.929 9.903 0 14.571-0.95 2.329-2.357 4.444-4.135 6.224l-107.92 107.911c-7.483 7.239-19.389 7.136-26.747-0.223-7.362-7.36-7.464-19.266-0.225-26.747l72.501-72.51c-201.251 23.701-356.788 187.865-369.607 390.094s120.749 384.717 317.389 433.638c196.64 48.92 400.146-49.712 483.581-234.38 83.428-184.668 22.928-402.568-143.76-517.801-5.775-3.8-9.045-10.443-8.533-17.347s4.723-12.995 11.001-15.904c6.28-2.906 13.649-2.189 19.249 1.882 164.851 113.93 236.484 321.804 176.795 513.097-59.681 191.292-236.812 321.562-437.196 321.534z" />
<glyph unicode="&#xe928;" glyph-name="spinner-arrows" d="M98.595 166.384l70.208-70.384h-137.376v-32h176l16 16v176h-32v-137.44l-67.936 67.952c-137.104 183.248-118.336 443.392 43.856 605.584 87.632 87.632 204.144 135.904 328.080 135.904v32c-132.48 0-257.024-51.6-350.704-145.28-173.664-173.664-193.504-452.384-46.128-648.336zM854.050 800h137.376v32h-176l-16-16v-176h32v137.44l67.936-67.952c137.104-183.248 118.336-443.392-43.856-605.584-87.632-87.632-204.144-135.904-328.080-135.904v-32c132.48 0 257.024 51.6 350.704 145.28 173.664 173.664 193.504 452.368 46.128 648.336l-70.208 70.384z" />
<glyph unicode="&#xe929;" glyph-name="spinner-clock" d="M166.872 101.298c-183.713 184.105-190.646 479.973-15.774 672.485s470.031 213.964 670.908 48.748l-0.015 116.792c-0.134 7.347 3.711 14.182 10.047 17.894s14.197 3.712 20.534 0c6.334-3.712 10.181-10.547 10.047-17.894l0.007-162.564c0-2.681-0.534-5.333-1.573-7.803-2.063-4.969-6.005-8.912-10.974-10.975-2.47-1.039-5.122-1.572-7.804-1.572l-162.562 0.008c-11.088 0.182-19.978 9.227-19.978 20.314s8.889 20.132 19.978 20.315l109.219 0.007c-169.433 133.73-410.229 127.233-572.205-15.431-161.975-142.664-198.821-380.717-87.559-565.671 111.262-184.956 338.832-263.948 540.77-187.699 201.928 76.254 320.48 285.945 281.727 498.288-1.487 7.212 1.053 14.677 6.639 19.493 5.586 4.813 13.346 6.232 20.265 3.691 6.917-2.54 11.927-8.631 13.078-15.916 38.356-209.976-64.261-420.503-253.301-519.626-189.033-99.128-420.567-63.834-571.476 87.118zM603.604 303.26c-5.076 0-10.15 1.936-14.021 5.808l-109.076 109.076c-3.718 3.718-5.81 8.755-5.81 14.021v218.171c0 10.962 8.87 19.831 19.831 19.831s19.831-8.87 19.831-19.831v-209.959l103.266-103.263c7.746-7.748 7.746-20.297 0-28.045-3.874-3.872-8.948-5.808-14.021-5.808z" />
<glyph unicode="&#xe92a;" glyph-name="tag-bg" d="M976.557 939.231c-5.44 16.149-22.477 24.658-38.035 19.036-15.571-5.622-23.795-23.265-18.374-39.414 45.99-136.714-45.299-238.767-114.848-293.448l-28.173 41.697c-9.421 13.937-30.579 25.549-46.989 25.805l-157.769-0.737c-16.4 0.266-40.85-7.526-54.3-17.295l-464.84-337.327c-22.51-16.343-27.99-48.499-12.23-71.846l211.27-312.71c15.77-23.347 41.11-20.55 63.62-4.218l464.828 337.318c13.453 9.779 28.851 30.925 34.259 47.001l49.402 161.086c5.382 16.087 2.099 40.643-7.328 54.589l-17.171 25.405c93.51 74.004 190.528 204.934 136.678 365.057zM760.288 460.203c-36.032-26.132-85.69-17.050-110.909 20.276-25.23 37.356-16.48 88.801 19.57 114.964 28.588 20.756 65.733 19.241 92.46-0.901-13.459-8.397-22.688-13.23-24.448-14.090-14.899-7.291-21.274-25.723-14.259-41.165 5.101-11.213 15.84-17.777 27.046-17.777 4.262 0 8.589 0.963 12.71 2.97 9.581 4.68 19.891 10.332 30.643 16.916 4.845-30.372-6.842-62.352-32.813-81.194z" />
<glyph unicode="&#xe92c;" glyph-name="telegram" d="M734.444 686.933c-1.939 0-3.936-0.346-5.929-1.097l-513.057-193.152c-14.495-5.458-14.11-25.904 0.579-30.822l118.954-39.823 71.729-142.24c0.017-0.041 0.041-0.075 0.058-0.116l0.191-0.379 0.051 0.024c1.3-2.625 4.004-4.321 6.895-4.321 1.696 0 3.43 0.563 4.936 1.826l67.198 56.457-75.032 56.416 5.871-74.097-53.937 110.65 286.682 170.612-238.616-207.165 185.757-139.667c6.219-4.676 13.343-6.837 20.337-6.837 14.735 0 28.904 9.581 32.894 25.392l100.417 397.966c2.72 10.783-5.789 20.375-15.978 20.375z" />
<glyph unicode="&#xe92d;" glyph-name="telegram-bg" d="M512 960c-282.77 0-512-229.23-512-512s229.23-512 512-512c282.771 0 512 229.229 512 512s-229.229 512-512 512zM748.786 652.251l-100.857-403.415c-4.007-16.029-18.237-25.74-33.034-25.74-7.025 0-14.182 2.188-20.425 6.929l-111.21 84.391-67.492-57.228c-1.509-1.28-3.253-1.853-4.956-1.853-2.905 0-5.622 1.72-6.926 4.383l-0.051-0.024-0.191 0.382c-0.020 0.044-0.044 0.079-0.061 0.119l-72.041 144.186-119.472 40.369c-14.755 4.987-15.14 25.713-0.583 31.246l515.298 195.798c2.004 0.76 4.007 1.111 5.953 1.111 10.237 0 18.78-9.723 16.049-20.655zM359.625 408.658l54.173-112.166-5.898 75.114 239.66 210.002-287.935-172.95z" />
<glyph unicode="&#xe92e;" glyph-name="twitter" d="M819.2 630.355c-21.33-9.604-44.257-16.061-68.355-18.976 24.6 14.923 43.438 38.553 52.361 66.759-22.996-13.85-48.51-23.894-75.629-29.304-21.681 23.445-52.63 38.099-86.863 38.099-65.737 0-119.030-54.033-119.030-120.641 0-9.469 1.058-18.627 3.048-27.491-98.918 5.031-186.65 53.077-245.348 126.054-10.23-17.811-16.139-38.544-16.139-60.648 0-41.837 21.067-78.763 52.969-100.4-19.487 0.625-37.872 6.052-53.925 15.080 0-0.502 0-1.017 0-1.505 0-15.445 2.928-30.157 8.146-43.725 14.543-37.83 47.274-66.41 87.365-74.612-10.018-2.717-20.503-4.229-31.399-4.229-7.643 0-15.098 0.765-22.389 2.198 15.183-47.92 59.133-82.818 111.207-83.777-40.759-32.386-92.054-51.664-147.858-51.664-9.623 0-19.076 0.573-28.427 1.69 52.73-34.222 115.33-54.197 182.501-54.197 186.105 0 300.462 132.724 330.629 270.415 5.338 24.334 8.096 48.845 8.096 72.823 0 5.202-0.096 10.435-0.317 15.606 23.238 17.002 43.431 38.243 59.358 62.445z" />
<glyph unicode="&#xe92f;" glyph-name="twitter-bg" d="M512.017 960c-282.763 0-512.017-229.233-512.017-512 0-282.764 229.254-512 512.017-512s511.983 229.236 511.983 512c0 282.767-229.219 512-511.983 512zM753.213 540.798c0.232-5.246 0.331-10.561 0.331-15.841 0-24.351-2.884-49.234-8.462-73.94-31.532-139.803-151.064-274.562-345.59-274.562-70.209 0-135.643 20.279-190.759 55.026 9.773-1.133 19.655-1.713 29.713-1.713 58.329 0 111.945 19.572 154.547 52.456-54.428 0.973-100.368 36.407-116.237 85.060 7.621-1.454 15.414-2.232 23.402-2.232 11.389 0 22.349 1.536 32.819 4.294-41.905 8.329-76.117 37.345-91.318 75.756-5.454 13.78-8.515 28.716-8.515 44.397 0 0.495 0 1.017 0 1.526 16.78-9.165 35.996-14.677 56.365-15.312-33.346 21.972-55.366 59.464-55.366 101.939 0 22.446 6.176 43.495 16.869 61.579 61.355-74.096 153.056-122.879 256.449-127.986-2.079 8.998-3.185 18.299-3.185 27.911 0 67.628 55.706 122.491 124.413 122.491 35.785 0 68.13-14.879 90.795-38.683 28.348 5.493 55.016 15.691 79.053 29.753-9.329-28.638-29.017-52.63-54.733-67.781 25.19 2.959 49.155 9.516 71.451 19.265-16.647-24.569-37.755-46.138-62.044-63.403z" />
<glyph unicode="&#xe930;" glyph-name="update" d="M188.071 701.79h-127.712c-10.268 0-18.576 8.035-18.576 17.966v123.508c0 9.93 8.309 17.965 18.576 17.965s18.576-8.035 18.576-17.965v-105.544h109.136c10.267 0 18.575-8.035 18.575-17.964 0-9.931-8.308-17.966-18.575-17.966zM596.77 331.244c-4.753 0-9.506 1.754-13.135 5.263l-102.168 98.807c-3.483 3.369-5.443 7.929-5.443 12.701v197.632c0 9.929 8.308 17.964 18.575 17.964 10.269 0 18.577-8.035 18.577-17.964v-190.193l96.727-93.544c7.257-7.018 7.257-18.386 0-25.404-3.628-3.509-8.381-5.263-13.135-5.263zM494.577 108.928c-193.328 0-350.627 152.124-350.627 339.089s157.299 339.087 350.644 339.087c193.328 0 350.626-152.124 350.626-339.087 0-186.965-157.298-339.089-350.643-339.089zM494.594 751.174c-172.863 0-313.491-135.999-313.491-303.157s140.628-303.159 313.474-303.159c172.863 0 313.491 136.001 313.491 303.159s-140.628 303.157-313.474 303.157zM494.56-64c-82.848 0-162.196 18-235.848 53.473-9.18 4.439-12.916 15.212-8.346 24.105 4.608 8.842 15.71 12.474 24.926 8.071 68.446-33 142.223-49.719 219.267-49.719 271.442 0 492.288 213.56 492.288 476.052 0 262.508-220.827 476.087-492.269 476.087-142.841 0-273.908-59.158-369.021-166.597l-52.064-50.42c-7.256-7.018-19.012-7.018-26.268 0-7.256 7.016-7.256 18.386 0 25.404l51.085 49.403c101.317 114.509 242.399 178.14 396.268 178.14 291.922 0 529.422-229.685 529.422-512.017 0-282.317-237.5-511.983-529.44-511.983zM114.4 107.733c-5.279 0-10.54 2.157-14.204 6.368-47.075 53.861-74.831 99.176-99.013 161.597-3.592 9.281 1.27 19.649 10.885 23.122 9.597 3.475 20.318-1.246 23.91-10.527 22.549-58.228 48.509-100.56 92.591-150.999 6.621-7.579 5.642-18.913-2.195-25.317-3.483-2.859-7.746-4.244-11.973-4.244zM186.68 29.199c14.107 0 25.544 11.059 25.544 24.702s-11.436 24.702-25.544 24.702c-14.107 0-25.543-11.059-25.543-24.702s11.436-24.702 25.543-24.702z" />
<glyph unicode="&#xe931;" glyph-name="vk" d="M789.367 275.794c-3.345-20.507-37.789-16.845-68.332-17.835-28.232-0.898-55.832 0.956-68.321 5.946-20.654 8.243-74.868 80.049-89.153 77.271-31.741-6.178-20.248-72.646-29.706-77.271-13.561-6.632-57.569-4.642-74.271-2.956-89.388 15.039-141.203 74.923-190.147 151.562-59.843 93.716-95.277 164-80.221 172.38 16.514 9.178 62.759 7.236 109.936 5.949 14.037-0.399 54.854-102.059 65.35-118.91 42.537-68.134 55.9-17.79 56.46-11.878 11.54 122.153-18.36 116.613-35.659 118.886 13.039 39.598 103.98 32.693 103.98 32.693s30.42-7.363 41.588-14.855c4.618-3.089 9.752-12.971 8.936-44.582-1.249-47.636-6.083-112.609 14.851-112.93 16.155-0.253 41.718 37.741 62.403 77.274 18.272 34.949 32.362 68.861 38.598 71.315 6.741 2.652 35.946 2.819 65.376 2.987 28.791 0.14 57.829 0.396 65.359-5.949 15.22-12.844-11.233-54.531-35.642-89.153-20.040-28.433-58.621-65.877-56.46-86.166 3-28.355 102.543-87.948 95.075-133.779z" />
<glyph unicode="&#xe932;" glyph-name="vk-bg" d="M511.997 960c-282.762 0-511.997-229.224-511.997-512 0-282.784 229.235-512 511.997-512 282.778 0 512.003 229.216 512.003 512 0 282.776-229.226 512-512.003 512zM798.031 270.415c-3.451-21.149-38.973-17.374-70.468-18.391-29.116-0.928-57.58 0.986-70.458 6.13-21.296 8.503-77.206 82.551-91.938 79.684-32.734-6.373-20.879-74.916-30.635-79.684-13.984-6.84-59.368-4.785-76.592-3.048-92.18 15.51-145.616 77.264-196.088 156.3-61.713 96.645-98.254 169.124-82.728 177.763 17.030 9.469 64.72 7.462 113.371 6.137 14.475-0.41 56.57-105.247 67.393-122.627 43.865-70.26 57.644-18.343 58.221-12.247 11.902 125.969-18.934 120.259-36.772 122.6 13.445 40.836 107.23 33.717 107.23 33.717s31.369-7.595 42.889-15.322c4.762-3.185 10.056-13.373 9.213-45.974-1.287-49.125-6.274-116.128 15.316-116.46 16.664-0.259 43.025 38.922 64.355 79.691 18.842 36.038 33.376 71.011 39.806 73.544 6.946 2.734 37.065 2.908 67.417 3.079 29.693 0.143 59.634 0.406 67.403-6.137 15.691-13.244-11.585-56.235-36.758-91.935-20.664-29.324-60.454-67.939-58.225-88.859 3.092-29.242 105.748-90.696 98.048-137.96z" />
<glyph unicode="&#xe933;" glyph-name="write-text" d="M782.048 370.118c-21.091 9.733-46.935 15.092-72.769 15.092-25.598 0-46.273-5.304-61.447-15.771-17.058-11.764-26.078-29.276-26.078-50.64v-1.362c0-36.057 29.153-60.286 72.544-60.286 57.146 0 97.056 32.911 97.056 80.036v18.386c-0.002 6.25-3.633 11.928-9.306 14.546zM759.318 337.188c0-28.711-26.129-48.002-65.022-48.002-37.588 0-40.509 21.623-40.509 28.252v1.362c0 29.911 34.767 34.379 55.491 34.379 17.556 0 34.961-2.932 50.041-8.349v-7.642zM1024 731.7v32.033h-141.976v-32.033h54.972v-558.728h-54.972v-32.034h141.976v32.034h-54.972v558.728h54.972zM265.738 571.53c-2.497 5.948-8.318 9.815-14.768 9.815s-12.271-3.867-14.768-9.815l-66.058-157.319c-2.078-4.944-1.542-10.602 1.429-15.070 2.968-4.465 7.974-7.149 13.339-7.149h132.122c5.366 0 10.371 2.685 13.339 7.153 2.97 4.465 3.507 10.122 1.428 15.066l-66.063 157.319zM209.007 424.028l41.962 99.934 41.965-99.934h-83.927zM889.424 420.272c0 55.468-14.868 98.461-44.189 127.783-30.225 30.227-75.51 45.551-134.591 45.551-47.384 0-85.035-6.196-122.086-20.090-22.912-8.593-38.308-30.769-38.308-55.178 0-32.657 25.876-58.237 58.912-58.237 6.651 0 12.425 1.012 19.888 3.487 20.535 6.361 42.327 9.45 66.608 9.45 23.204 0 53.041-3.956 60.537-34.691-18.995 4.98-42.023 8.839-71.434 8.839-48.324 0-87.18-10.59-115.492-31.476-31.157-22.985-47.626-57.907-47.626-100.995v-1.362c0-39.11 14.744-72.038 42.638-95.23 25.185-20.943 60.235-32.474 98.693-32.474 40.161 0 74.508 11.107 102.46 33.079 10.404-17.251 30.372-30.355 57.581-30.355 37.239 0 66.413 28.875 66.413 65.732v166.168h-0.003zM857.39 254.102c0-18.898-15.101-33.7-34.381-33.7-16.205 0-33.695 10.279-33.695 26.887v0.679c0 6.627-4.081 12.571-10.269 14.949-6.19 2.381-13.198 0.698-17.64-4.221-24.909-27.604-57.108-41.021-98.437-41.021-80.672 0-109.297 51.538-109.297 95.671v1.364c0 87.388 82.128 100.437 131.084 100.437 37.584 0 62.601-6.787 84.036-14.121 4.895-1.674 10.291-0.882 14.498 2.125s6.704 7.859 6.704 13.032v6.129c0 52.593-34.386 82.756-94.338 82.756-27.61 0-52.553-3.577-76.257-10.936-0.108-0.034-0.215-0.068-0.319-0.102-4.78-1.594-7.171-1.896-9.921-1.896-15.072 0-26.878 11.511-26.878 26.204 0 11.133 7.043 21.255 17.521 25.187 33.289 12.481 67.473 18.046 110.838 18.046 50.28 0 87.943-12.169 111.942-36.169 23.096-23.096 34.807-58.467 34.807-105.131v-166.168h0.002zM330.969 657.682c-14.718 32.9-41.433 51.021-75.226 51.021h-6.132c-33.731 0-61.404-18.594-75.943-51.076l-166.135-375.171c-3.731-8.216-7.532-18.084-7.532-29.037 0-36.477 28.275-65.048 64.372-65.048 27.989 0 51.559 15.826 63.087 42.424l29.225 68.579h188.6l27.901-65.309c12.885-29.469 35.992-45.698 65.070-45.698 36.862 0 65.737 29.172 65.737 66.412 0 8.59-2.188 17.403-6.823 27.599l-166.2 375.305zM438.255 220.402c-16.241 0-27.923 8.668-35.666 26.375l-32.005 74.906c-2.521 5.9-8.317 9.725-14.727 9.725h-209.761c-6.419 0-12.22-3.831-14.733-9.738l-33.334-78.227c-6.441-14.858-18.391-23.040-33.656-23.040-18.133 0-32.339 14.503-32.339 33.015 0 4.898 2.507 11.042 4.692 15.848 0.021 0.048 0.043 0.094 0.062 0.142l166.144 375.187c6.548 14.631 19.966 32.072 46.679 32.072h6.132c20.994 0 36.466-10.789 45.959-32.012l166.238-375.389c2.741-6.028 4.017-10.631 4.017-14.488 0.002-19.275-14.804-34.376-33.702-34.376z" />
<glyph unicode="&#xe934;" glyph-name="zoom-minus" d="M398.445 163.055c97.201 0 185.552 34.471 254.488 92.751l309.234-309.238c7.079-7.021 15.882-10.568 25.62-10.568 9.708 0 18.555 3.546 25.634 10.568 14.104 14.162 14.104 37.154 0 51.258l-309.231 309.234c57.416 68.939 92.747 158.153 92.747 254.491 0 219.976-178.473 398.449-398.493 398.449-219.112 0-398.445-179.334-398.445-398.449 0-220.023 179.333-398.496 398.445-398.496zM398.445 887.562c180.241 0 326.065-146.677 326.065-326.010 0-180.241-145.824-326.069-326.065-326.069-180.193 0-326.007 146.688-326.007 326.069 0 179.333 146.675 326.010 326.007 326.010zM204.8 567.467c0 9.424 7.641 17.067 17.067 17.067h341.333c9.424 0 17.067-7.642 17.067-17.067s-7.642-17.067-17.067-17.067h-341.333c-9.426 0-17.067 7.642-17.067 17.067z" />
<glyph unicode="&#xe935;" glyph-name="zoom-other" d="M175.625 847.425c9.426 0 17.067 7.641 17.067 17.067s-7.641 17.067-17.067 17.067c-9.425 0-17.066-7.641-17.066-17.067s7.641-17.067 17.066-17.067zM595.808 553.866h-155.54v155.534c0 9.433-7.642 17.067-17.067 17.067s-17.067-7.634-17.067-17.067v-155.534h-155.542c-9.424 0-17.067-7.632-17.067-17.067 0-9.433 7.642-17.067 17.067-17.067h155.542v-155.534c0-9.433 7.641-17.067 17.067-17.067 9.424 0 17.067 7.634 17.067 17.067v155.534h155.54c9.426 0 17.067 7.634 17.067 17.067s-7.641 17.067-17.067 17.067zM1018.834-33.893l-284.358 284.349c69.431 75.416 111.925 175.997 111.925 286.343 0 233.351-189.851 423.2-423.2 423.2-67.893 0-132.743-15.6-192.742-46.35-8.392-4.3-11.699-14.583-7.409-22.967 4.301-8.383 14.575-11.717 22.975-7.4 55.134 28.25 114.751 42.583 177.176 42.583 214.533 0 389.067-174.534 389.067-389.067 0-101.185-38.854-193.446-102.39-262.719-6.895-6.893-17.867-17.865-23.968-23.965-69.272-63.532-161.529-102.383-262.709-102.383-214.533 0-389.067 174.534-389.067 389.067 0 98.401 36.808 192.283 103.633 264.384 6.408 6.917 6 17.717-0.917 24.117-6.892 6.417-17.7 6-24.117-0.917-72.7-78.416-112.733-180.55-112.733-287.584 0-233.349 189.85-423.2 423.2-423.2 110.341 0 210.92 42.491 286.334 111.918l284.358-284.351c3.446-3.444 7.958-5.166 12.471-5.166s9.025 1.722 12.471 5.166c6.888 6.89 6.888 18.051 0 24.941z" />
<glyph unicode="&#xe936;" glyph-name="zoom-plus" d="M398.445 163.055c97.201 0 185.552 34.471 254.488 92.751l309.234-309.238c7.079-7.021 15.882-10.568 25.62-10.568 9.708 0 18.555 3.546 25.634 10.568 14.104 14.162 14.104 37.154 0 51.258l-309.231 309.234c57.416 68.939 92.747 158.153 92.747 254.491 0 219.976-178.473 398.449-398.493 398.449-219.112 0-398.445-179.334-398.445-398.449 0-220.023 179.333-398.496 398.445-398.496zM398.445 887.562c180.241 0 326.065-146.677 326.065-326.010 0-180.241-145.824-326.069-326.065-326.069-180.193 0-326.007 146.688-326.007 326.069 0 179.333 146.675 326.010 326.007 326.010zM204.8 567.467c0 9.424 7.641 17.067 17.067 17.067h341.333c9.424 0 17.067-7.642 17.067-17.067s-7.642-17.067-17.067-17.067h-341.333c-9.426 0-17.067 7.642-17.067 17.067zM392.533 379.733c-9.424 0-17.067 7.642-17.067 17.067v341.333c0 9.426 7.642 17.067 17.067 17.067s17.067-7.641 17.067-17.067v-341.333c0-9.424-7.642-17.067-17.067-17.067z" />
</font>
</defs>
</svg>
