<?xml version="1.0" standalone="no"?>
<!DOCTYPE svg PUBLIC "-//W3C//DTD SVG 1.1//EN" "http://www.w3.org/Graphics/SVG/1.1/DTD/svg11.dtd" >
<svg xmlns="http://www.w3.org/2000/svg" xmlns:xlink="http://www.w3.org/1999/xlink" version="1.1">
<metadata>
Created by FontForge 20170731 at Tue Nov 30 18:19:06 2010
 By ,,,
Copyright (c) Mark Simonson, 2005. All rights reserved.
</metadata>
<defs>
<font id="ProximaNova-ExtrabldIt" horiz-adv-x="589" >
  <font-face 
    font-family="Proxima Nova Th"
    font-weight="800"
    font-style="italic"
    font-stretch="normal"
    units-per-em="1000"
    panose-1="2 0 5 6 3 0 0 2 0 4"
    ascent="790"
    descent="-210"
    x-height="483"
    cap-height="667"
    bbox="-226 -290 1185 904"
    underline-thickness="20"
    underline-position="-173"
    unicode-range="U+000D-FB04"
  />
<missing-glyph horiz-adv-x="471" 
d="M431 -90h-351v842h351v-842zM399 -60v782h-288v-782h288z" />
    <glyph glyph-name="f_f_j" unicode="ffj" horiz-adv-x="965" 
d="M538 0h-154l77 349h-80l30 134h79l6 26q18 76 68 122t126 46q70 0 114 -27l-51 -102q-17 12 -43 12q-48 0 -60 -51l-6 -26h99l-30 -134h-98zM652 -196q-98 0 -144 40l62 110q21 -24 59 -24q54 0 71 74l107 479h154l-107 -479q-43 -200 -202 -200zM903 526
q-35 0 -57.5 22.5t-22.5 53.5q0 46 31.5 73.5t68.5 27.5q34 0 56.5 -22t22.5 -53q0 -46 -31 -74t-68 -28zM189 0h-154l77 350h-80l30 133h79l6 26q17 75 66.5 121.5t131.5 46.5q89 0 138 -50l-73 -87q-20 20 -52 20q-46 0 -57 -54l-6 -23h99l-30 -133h-98z" />
    <glyph glyph-name="f_j" unicode="fj" horiz-adv-x="615" 
d="M189 0h-154l77 349h-80l30 134h79l6 26q18 76 68 122t126 46q70 0 114 -27l-51 -102q-17 12 -43 12q-48 0 -60 -51l-6 -26h99l-30 -134h-98zM303 -196q-98 0 -144 40l62 110q21 -24 59 -24q54 0 71 74l107 479h154l-107 -479q-43 -200 -202 -200zM554 526
q-35 0 -57.5 22.5t-22.5 53.5q0 46 31.5 73.5t68.5 27.5q34 0 56.5 -22t22.5 -53q0 -46 -31 -74t-68 -28z" />
    <glyph glyph-name="f_f" unicode="ff" horiz-adv-x="698" 
d="M189 0h-154l77 350h-80l30 133h79l6 26q17 75 66.5 121.5t131.5 46.5q89 0 138 -50l-73 -87q-20 20 -52 20q-46 0 -57 -54l-6 -23h99l-30 -133h-98zM538 0h-154l77 350h-80l30 133h79l6 26q17 75 66.5 121.5t131.5 46.5q89 0 138 -50l-73 -87q-20 20 -52 20
q-46 0 -57 -54l-6 -23h99l-30 -133h-98z" />
    <glyph glyph-name="fi" unicode="fi" horiz-adv-x="615" 
d="M189 0h-154l77 349h-80l30 134h79l6 26q18 76 68 122t126 46q70 0 114 -27l-51 -102q-17 12 -43 12q-48 0 -60 -51l-6 -26h99l-30 -134h-98zM554 526q-35 0 -57.5 22.5t-22.5 53.5q0 46 31.5 73.5t68.5 27.5q34 0 56.5 -22t22.5 -53q0 -46 -31 -74t-68 -28zM505 0h-154
l107 483h154z" />
    <glyph glyph-name="fl" unicode="fl" horiz-adv-x="615" 
d="M189 0h-154l77 349h-80l30 134h79l6 26q18 76 68 122t126 46q70 0 114 -27l-51 -102q-17 12 -43 12q-48 0 -60 -51l-6 -26h99l-30 -134h-98zM505 0h-154l147 667h154z" />
    <glyph glyph-name="f_f_i" unicode="ffi" horiz-adv-x="965" 
d="M538 0h-154l77 349h-80l30 134h79l6 26q18 76 68 122t126 46q70 0 114 -27l-51 -102q-17 12 -43 12q-48 0 -60 -51l-6 -26h99l-30 -134h-98zM903 526q-35 0 -57.5 22.5t-22.5 53.5q0 46 31.5 73.5t68.5 27.5q34 0 56.5 -22t22.5 -53q0 -46 -31 -74t-68 -28zM854 0h-154
l107 483h154zM189 0h-154l77 350h-80l30 133h79l6 26q17 75 66.5 121.5t131.5 46.5q89 0 138 -50l-73 -87q-20 20 -52 20q-46 0 -57 -54l-6 -23h99l-30 -133h-98z" />
    <glyph glyph-name="f_f_l" unicode="ffl" horiz-adv-x="965" 
d="M538 0h-154l77 349h-80l30 134h79l6 26q18 76 68 122t126 46q70 0 114 -27l-51 -102q-17 12 -43 12q-48 0 -60 -51l-6 -26h99l-30 -134h-98zM854 0h-154l147 667h154zM189 0h-154l77 350h-80l30 133h79l6 26q17 75 66.5 121.5t131.5 46.5q89 0 138 -50l-73 -87
q-20 20 -52 20q-46 0 -57 -54l-6 -23h99l-30 -133h-98z" />
    <glyph glyph-name="f_b" unicode="fb" horiz-adv-x="940" 
d="M189 0h-154l77 349h-80l30 134h79l6 26q18 76 68 122t126 46q70 0 114 -27l-51 -102q-17 12 -43 12q-48 0 -60 -51l-6 -26h99l-30 -134h-98zM664 -12q-98 0 -147 69l-12 -57h-154l147 667h154l-53 -240q59 68 138 68q83 0 132.5 -53t49.5 -148q0 -73 -27.5 -141
t-87.5 -116.5t-140 -48.5zM638 124q52 0 87 40.5t35 97.5q0 43 -27 70t-67 27q-50 0 -92 -45l-32 -146q34 -44 96 -44z" />
    <glyph glyph-name="f_h" unicode="fh" horiz-adv-x="943" 
d="M189 0h-154l77 349h-80l30 134h79l6 26q18 76 68 122t126 46q70 0 114 -27l-51 -102q-17 12 -43 12q-48 0 -60 -51l-6 -26h99l-30 -134h-98zM833 0h-154l59 274q5 23 5 32q0 53 -73 53q-49 0 -96 -47l-68 -312h-154l147 667h154l-55 -243q77 71 157 71q72 0 113.5 -34.5
t41.5 -90.5q0 -15 -5 -40z" />
    <glyph glyph-name="f_k" unicode="fk" horiz-adv-x="895" 
d="M189 0h-154l77 349h-80l30 134h79l6 26q18 76 68 122t126 46q70 0 114 -27l-51 -102q-17 12 -43 12q-48 0 -60 -51l-6 -26h99l-30 -134h-98zM847 0h-185l-70 174l-62 -58l-25 -116h-154l147 667h154l-82 -369l183 185h192l-227 -220z" />
    <glyph glyph-name=".notdef" horiz-adv-x="471" 
d="M431 -90h-351v842h351v-842zM399 -60v782h-288v-782h288z" />
    <glyph glyph-name=".null" horiz-adv-x="0" 
 />
    <glyph glyph-name=".null" horiz-adv-x="0" 
 />
    <glyph glyph-name="nonmarkingreturn" horiz-adv-x="333" 
 />
    <glyph glyph-name="CR" unicode="&#xd;" horiz-adv-x="0" 
 />
    <glyph glyph-name="space" unicode=" " horiz-adv-x="256" 
 />
    <glyph glyph-name="exclam" unicode="!" horiz-adv-x="270" 
d="M200 233h-138l73 434h184zM90 -12q-36 0 -60.5 25t-24.5 61q0 42 30.5 72t72.5 30q35 0 60 -25.5t25 -61.5q0 -41 -31 -71t-72 -30z" />
    <glyph glyph-name="quotedbl" unicode="&#x22;" horiz-adv-x="438" 
d="M176 357h-65q3 205 3 227q1 40 28 66.5t65 26.5q29 0 50 -21t21 -52q0 -17 -8 -33zM376 357h-64q2 205 3 227q0 40 26.5 66.5t65.5 26.5q29 0 50 -21t21 -52q0 -17 -8 -33z" />
    <glyph glyph-name="numbersign" unicode="#" horiz-adv-x="632" 
d="M304 0h-111l91 164h-87l-90 -164h-110l91 164h-92l52 95h93l82 148h-93l51 94h94l92 166h110l-91 -166h86l91 166h111l-92 -166h93l-50 -94h-95l-83 -148h96l-51 -95h-98zM336 259l83 148h-86l-82 -148h85z" />
    <glyph glyph-name="dollar" unicode="$" horiz-adv-x="625" 
d="M187 -100l22 100q-137 28 -207 115l105 124q35 -46 97 -74.5t130 -28.5q38 0 57.5 16t19.5 37q0 17 -24 31.5t-59.5 25.5t-77.5 28t-77.5 37.5t-59.5 56t-24 81.5q0 90 73 158.5t197 69.5l21 91h111l-24 -104q107 -27 174 -97l-105 -120q-37 40 -92.5 61.5t-108.5 21.5
q-29 0 -47 -13.5t-18 -33.5q0 -19 33.5 -35t80.5 -32t94.5 -37.5t81 -61.5t33.5 -94q0 -101 -74.5 -168t-198.5 -67h-3l-19 -88h-111z" />
    <glyph glyph-name="percent" unicode="%" horiz-adv-x="771" 
d="M162 0h-86l573 667h87zM542 -12q-68 0 -116.5 38t-48.5 102q0 85 55 139.5t133 54.5q69 0 117.5 -38t48.5 -102q0 -84 -55.5 -139t-133.5 -55zM546 80q33 0 55.5 25.5t22.5 66.5q0 25 -17.5 41.5t-44.5 16.5q-33 0 -56 -25t-23 -67q0 -25 17.5 -41.5t45.5 -16.5zM244 343
q-68 0 -116.5 38t-48.5 102q0 85 55 139.5t133 54.5q69 0 117.5 -38t48.5 -102q0 -85 -55.5 -139.5t-133.5 -54.5zM248 435q33 0 55.5 25t22.5 67q0 25 -17.5 41.5t-44.5 16.5q-33 0 -56 -25.5t-23 -66.5q0 -26 17.5 -42t45.5 -16z" />
    <glyph glyph-name="ampersand" unicode="&#x26;" horiz-adv-x="649" 
d="M581 0h-179q-8 10 -22 30q-79 -42 -157 -42q-101 0 -162 44t-61 136q0 88 51 138t138 81q-15 57 -15 100q0 81 61 135.5t151 54.5q79 0 133.5 -37.5t54.5 -105.5q0 -42 -16 -73.5t-50 -53.5t-62 -34t-77 -28l30 -56q31 -56 38 -69q49 50 82 110l108 -68
q-66 -89 -127 -145q41 -62 81 -117zM249 107q30 0 66 17q-38 60 -47 78q-30 56 -42 85q-59 -38 -59 -100q0 -38 23.5 -59t58.5 -21zM327 488q0 -25 8 -55q51 17 77.5 36.5t26.5 49.5q0 24 -13 36.5t-34 12.5q-26 0 -45.5 -21t-19.5 -59z" />
    <glyph glyph-name="quotesingle" unicode="'" horiz-adv-x="239" 
d="M176 357h-65q3 205 3 227q1 40 28 66.5t65 26.5q29 0 50 -21t21 -52q0 -17 -8 -33z" />
    <glyph glyph-name="parenleft" unicode="(" horiz-adv-x="322" 
d="M223 -135l-113 -64q-42 57 -64.5 141t-22.5 173q0 156 76 310t205 260l81 -82q-95 -110 -148.5 -247t-53.5 -280q0 -102 40 -211z" />
    <glyph glyph-name="parenright" unicode=")" horiz-adv-x="322" 
d="M98 621l112 64q43 -57 65.5 -140.5t22.5 -173.5q0 -156 -76.5 -309.5t-204.5 -260.5l-81 82q95 109 148 246t53 280q0 101 -39 212z" />
    <glyph glyph-name="asterisk" unicode="*" horiz-adv-x="357" 
d="M239 355h-74l30 111l-104 -46l-20 65l105 38l-84 58l50 57l76 -66l19 105h74l-31 -112l103 47l22 -65l-104 -38l83 -58l-51 -57l-77 65z" />
    <glyph glyph-name="plus" unicode="+" horiz-adv-x="507" 
d="M489 291h-174l-44 -198h-102l44 198h-174l21 92h174l42 191h101l-42 -191h174z" />
    <glyph glyph-name="comma" unicode="," horiz-adv-x="270" 
d="M197 83q0 -62 -46 -123.5t-116 -95.5l-53 55q79 34 105 84q-3 -1 -12 -1q-30 0 -50.5 19.5t-20.5 55.5q0 40 31.5 69.5t71.5 29.5q37 0 63.5 -24.5t26.5 -68.5z" />
    <glyph glyph-name="hyphen" unicode="-" horiz-adv-x="300" 
d="M255 178h-240l29 129h240z" />
    <glyph glyph-name="period" unicode="." horiz-adv-x="270" 
d="M90 -12q-36 0 -60.5 25t-24.5 61q0 42 30.5 72t72.5 30q35 0 60 -25.5t25 -61.5q0 -41 -31 -71t-72 -30z" />
    <glyph glyph-name="slash" unicode="/" horiz-adv-x="346" 
d="M52 -20h-113l393 707h114z" />
    <glyph glyph-name="zero" unicode="0" horiz-adv-x="624" 
d="M287 -12q-113 0 -182 71.5t-69 201.5q0 171 97 293.5t243 122.5q113 0 181.5 -71t68.5 -201q0 -171 -96.5 -294t-242.5 -123zM303 140q46 0 81.5 44.5t52 105.5t16.5 123q0 52 -23 82t-71 30q-46 0 -82 -44.5t-52.5 -105t-16.5 -121.5q0 -53 23.5 -83.5t71.5 -30.5z" />
    <glyph glyph-name="one" unicode="1" horiz-adv-x="447" 
d="M333 0h-172l98 447l-136 -113l-76 103l284 230h149z" />
    <glyph glyph-name="two" unicode="2" horiz-adv-x="607" 
d="M513 0h-523l34 157q241 131 326 190.5t85 113.5q0 30 -30 48t-78 18q-89 0 -164 -58l-69 124q46 39 112 61.5t135 22.5q115 0 194.5 -55t79.5 -149q0 -88 -78 -166t-235 -157h245z" />
    <glyph glyph-name="three" unicode="3" horiz-adv-x="602" 
d="M292 -12q-99 0 -183.5 36t-125.5 103l111 105q33 -44 88.5 -68t108.5 -24q49 0 73.5 19t24.5 50q0 52 -109 52q-79 0 -89 -1l35 153q11 -1 94 -1q115 0 115 56q0 28 -31.5 43t-88.5 15q-92 0 -159 -49l-59 116q94 84 235 84q130 0 205.5 -47t75.5 -130q0 -60 -55.5 -106
t-124.5 -56q126 -31 126 -148q0 -88 -78.5 -145t-188.5 -57z" />
    <glyph glyph-name="four" unicode="4" horiz-adv-x="616" 
d="M460 0h-173l27 122h-320l33 148l332 397h248l-88 -394h81l-33 -151h-81zM347 273l55 244l-208 -244h153z" />
    <glyph glyph-name="five" unicode="5" horiz-adv-x="617" 
d="M304 -12q-198 0 -294 126l120 110q59 -84 176 -84q50 0 78 24t28 59q0 33 -31 52t-83 19q-66 0 -114 -37l-110 42l80 368h484l-33 -150h-312l-27 -126q52 42 129 42q85 0 140.5 -51t55.5 -139q0 -107 -80 -181t-207 -74z" />
    <glyph glyph-name="six" unicode="6" horiz-adv-x="617" 
d="M310 -12q-130 0 -204 70t-74 195q0 178 101.5 301t271.5 123q142 0 234 -86l-103 -122q-51 56 -142 56q-58 0 -103 -35t-64 -85q-6 -10 -10 -30q27 28 71.5 45.5t92.5 17.5q92 0 153.5 -51.5t61.5 -136.5q0 -108 -84.5 -185t-201.5 -77zM310 140q45 0 75.5 25t30.5 64
q0 32 -34.5 52t-83.5 20q-54 0 -97 -34q-2 -14 -2 -28q0 -46 32 -72.5t79 -26.5z" />
    <glyph glyph-name="seven" unicode="7" horiz-adv-x="560" 
d="M257 0h-197l337 517h-316l33 150h523l-27 -119z" />
    <glyph glyph-name="eight" unicode="8" horiz-adv-x="618" 
d="M292 -12q-119 0 -202 46t-83 137q0 62 45.5 113.5t130.5 76.5q-41 20 -67 54.5t-26 76.5q0 62 42.5 105.5t102.5 61.5t130 18t130.5 -17.5t103 -58t42.5 -98.5q0 -63 -45 -110.5t-120 -64.5q104 -58 104 -148q0 -89 -85.5 -140.5t-202.5 -51.5zM346 410q49 3 80 20t31 42
q0 27 -29 44.5t-73 17.5q-38 0 -65 -17t-27 -43q0 -22 25 -39t58 -25zM298 131q45 0 76 18t31 46q0 51 -92 73q-53 -2 -88.5 -21.5t-35.5 -51.5q0 -31 29 -47.5t80 -16.5z" />
    <glyph glyph-name="nine" unicode="9" horiz-adv-x="617" 
d="M345 678q130 0 204 -70t74 -195q0 -179 -101.5 -301.5t-271.5 -122.5q-143 0 -234 86l103 123q51 -57 142 -57q58 0 102.5 34.5t64.5 85.5q7 17 9 29q-27 -28 -71 -45t-92 -17q-92 0 -154 51.5t-62 136.5q0 108 85 185t202 77zM345 526q-46 0 -76.5 -25t-30.5 -64
q0 -32 34.5 -52t83.5 -20q54 0 98 34q1 7 1 28q0 45 -32 72t-78 27z" />
    <glyph glyph-name="colon" unicode=":" horiz-adv-x="270" 
d="M90 -12q-36 0 -60.5 25t-24.5 61q0 42 30.5 72t72.5 30q35 0 60 -25.5t25 -61.5q0 -41 -31 -71t-72 -30zM159 302q-36 0 -61 25.5t-25 61.5q0 41 31 71.5t72 30.5q36 0 61 -25.5t25 -61.5q0 -42 -30.5 -72t-72.5 -30z" />
    <glyph glyph-name="semicolon" unicode=";" horiz-adv-x="270" 
d="M197 83q0 -62 -46 -123.5t-116 -95.5l-53 55q79 34 105 84q-3 -1 -12 -1q-30 0 -50.5 19.5t-20.5 55.5q0 40 31.5 69.5t71.5 29.5q37 0 63.5 -24.5t26.5 -68.5zM159 302q-36 0 -61 25.5t-25 61.5q0 41 31 71.5t72 30.5q36 0 61 -25.5t25 -61.5q0 -42 -30.5 -72t-72.5 -30
z" />
    <glyph glyph-name="less" unicode="&#x3c;" horiz-adv-x="507" 
d="M443 90l-407 189l25 111l491 190l-25 -114l-375 -137l315 -134z" />
    <glyph glyph-name="equal" unicode="=" horiz-adv-x="507" 
d="M508 381h-449l20 92h449zM467 195h-449l20 92h449z" />
    <glyph glyph-name="greater" unicode="&#x3e;" horiz-adv-x="507" 
d="M485 279l-491 -189l26 114l375 134l-315 137l23 105l407 -190z" />
    <glyph glyph-name="question" unicode="?" horiz-adv-x="453" 
d="M300 248l-141 -34q-14 30 -14 70q0 41 18 71.5t43 48t50.5 30.5t43.5 26.5t18 29.5q0 37 -62 37q-57 0 -105 -40l-72 119q89 71 204 71q91 0 154 -40t63 -108q0 -42 -15.5 -74t-38.5 -50t-50 -35t-50 -29t-38.5 -30t-15.5 -41q0 -13 8 -22zM182 -12q-35 0 -60 25.5
t-25 60.5q0 42 30.5 72t72.5 30q35 0 60 -25.5t25 -61.5q0 -41 -30.5 -71t-72.5 -30z" />
    <glyph glyph-name="at" unicode="@" horiz-adv-x="783" 
d="M372 -70q-136 0 -226.5 90.5t-90.5 223.5q0 158 120 276t277 118q141 0 228 -87.5t87 -213.5q0 -62 -20 -112t-52 -79.5t-68 -45t-70 -15.5q-83 0 -101 70l-1 7q-26 -37 -62.5 -57t-74.5 -20q-72 0 -114 48t-42 123q0 97 67.5 169t154.5 72q86 0 123 -61l10 48h136
l-49 -230q-2 -10 -2 -26q0 -41 32 -41q33 0 60 39.5t27 110.5q0 118 -74 188.5t-199 70.5q-141 0 -246 -104.5t-105 -244.5q0 -118 79.5 -197t200.5 -79q94 0 180 54l23 -32q-98 -63 -208 -63zM375 192q52 0 92 53l22 106q-22 40 -70 40q-51 0 -84 -37t-33 -86
q0 -35 19.5 -55.5t53.5 -20.5z" />
    <glyph glyph-name="A" unicode="A" horiz-adv-x="697" 
d="M654 0h-187l-12 96h-263l-53 -96h-204l398 667h216zM442 246l-30 251l-140 -251h170z" />
    <glyph glyph-name="B" unicode="B" horiz-adv-x="680" 
d="M397 0h-391l147 667h348q89 0 138 -48t49 -115q0 -65 -45.5 -116t-105.5 -56q45 -12 70 -50t25 -83q0 -36 -13 -70t-39.5 -63.5t-73.5 -47.5t-109 -18zM434 411q37 0 53.5 18.5t16.5 44.5q0 21 -14.5 34.5t-37.5 13.5h-158l-25 -111h165zM382 145q36 0 57 19.5t21 48.5
q0 23 -15 37.5t-40 14.5h-168l-27 -120h172z" />
    <glyph glyph-name="C" unicode="C" horiz-adv-x="692" 
d="M374 -12q-145 0 -241.5 83.5t-96.5 219.5q0 171 114.5 279t279.5 108q125 0 202 -58.5t107 -146.5l-166 -54q-14 50 -54.5 78.5t-96.5 28.5q-87 0 -147 -65.5t-60 -158.5q0 -69 46.5 -115.5t122.5 -46.5q41 0 82 21.5t63 55.5l134 -88q-55 -75 -133 -108t-156 -33z" />
    <glyph glyph-name="D" unicode="D" horiz-adv-x="727" 
d="M285 0h-279l147 667h275q117 0 206.5 -81t89.5 -206q0 -54 -14 -105.5t-47 -102t-82 -88.5t-125.5 -61t-170.5 -23zM312 150h5q104 0 166.5 63t62.5 155q0 63 -42 106t-107 43h-105l-81 -367h101z" />
    <glyph glyph-name="E" unicode="E" 
d="M495 0h-489l147 667h489l-34 -150h-316l-23 -104h310l-33 -150h-310l-25 -113h317z" />
    <glyph glyph-name="F" unicode="F" horiz-adv-x="582" 
d="M178 0h-172l147 667h489l-34 -150h-316l-23 -104h310l-33 -150h-310z" />
    <glyph glyph-name="G" unicode="G" horiz-adv-x="723" 
d="M374 -12q-143 0 -240.5 82.5t-97.5 220.5q0 167 115.5 277t295.5 110q105 0 177.5 -51t103.5 -124l-158 -66q-13 37 -54.5 63t-93.5 26q-85 0 -146 -65t-61 -159q0 -68 45.5 -115t123.5 -47q60 0 112 40l11 53h-150l34 150h321l-59 -266q-49 -61 -121 -95t-158 -34z" />
    <glyph glyph-name="H" unicode="H" horiz-adv-x="741" 
d="M627 0h-172l59 268h-277l-59 -268h-172l147 667h172l-55 -249h277l55 249h172z" />
    <glyph glyph-name="I" unicode="I" horiz-adv-x="292" 
d="M178 0h-172l147 667h172z" />
    <glyph glyph-name="J" unicode="J" horiz-adv-x="492" 
d="M168 -12q-133 0 -201 71l91 129q36 -48 97 -48q83 0 102 91l96 436h172l-97 -438q-27 -125 -89 -183t-171 -58z" />
    <glyph glyph-name="K" unicode="K" horiz-adv-x="654" 
d="M609 0h-202l-124 257l-62 -62l-43 -195h-172l147 667h172l-57 -261l253 261h221l-327 -312z" />
    <glyph glyph-name="L" unicode="L" horiz-adv-x="529" 
d="M446 0h-440l147 667h172l-114 -517h268z" />
    <glyph glyph-name="M" unicode="M" horiz-adv-x="877" 
d="M763 0h-172l97 441l-266 -441h-76l-71 441l-97 -441h-172l147 667h233l58 -369l221 369h245z" />
    <glyph glyph-name="N" unicode="N" horiz-adv-x="740" 
d="M626 0h-166l-194 398l-88 -398h-172l147 667h177l186 -379l84 379h173z" />
    <glyph glyph-name="O" unicode="O" horiz-adv-x="766" 
d="M374 -12q-146 0 -242 84t-96 219q0 162 113 274.5t281 112.5q145 0 241.5 -83.5t96.5 -217.5q0 -163 -113 -276t-281 -113zM384 140q87 0 146 65.5t59 158.5q0 72 -47 117t-122 45q-87 0 -146 -65.5t-59 -158.5q0 -72 47 -117t122 -45z" />
    <glyph glyph-name="P" unicode="P" horiz-adv-x="643" 
d="M178 0h-172l147 667h323q86 0 141 -55.5t55 -135.5q0 -40 -14.5 -81t-45 -81t-89 -65t-136.5 -25h-160zM260 374h136q42 0 70 23.5t28 59.5q0 28 -19 44t-50 16h-133z" />
    <glyph glyph-name="Q" unicode="Q" horiz-adv-x="766" 
d="M374 -12q-146 0 -242 84t-96 219q0 162 113 274.5t281 112.5q145 0 241.5 -83.5t96.5 -217.5q0 -93 -39.5 -173.5t-109.5 -134.5l31 -51l-137 -63l-29 47q-54 -14 -110 -14zM384 140h17l-47 78l138 64l42 -72q55 65 55 154q0 72 -47 117t-122 45q-87 0 -146 -65.5
t-59 -158.5q0 -72 47 -117t122 -45z" />
    <glyph glyph-name="R" unicode="R" horiz-adv-x="661" 
d="M575 0h-190l-62 224h-96l-49 -224h-172l147 667h304q89 0 152.5 -54t63.5 -141t-51 -151.5t-127 -84.5zM394 374h3q44 0 70.5 21.5t26.5 58.5q0 27 -21 45t-50 18h-131l-32 -143h134z" />
    <glyph glyph-name="S" unicode="S" horiz-adv-x="606" 
d="M308 -12q-101 0 -186 34.5t-132 92.5l105 124q35 -46 97 -74.5t130 -28.5q38 0 57.5 16t19.5 37q0 17 -24 31.5t-59.5 25.5t-77.5 28t-77.5 37.5t-59.5 56t-24 81.5q0 91 73.5 159.5t199.5 68.5q82 0 155.5 -28.5t123.5 -81.5l-105 -120q-37 40 -92.5 61.5t-108.5 21.5
q-29 0 -47 -13.5t-18 -33.5q0 -19 33.5 -35t80.5 -32t94.5 -37.5t81 -61.5t33.5 -94q0 -101 -74.5 -168t-198.5 -67z" />
    <glyph glyph-name="T" unicode="T" 
d="M327 0h-172l113 517h-187l34 150h545l-33 -150h-187z" />
    <glyph glyph-name="U" unicode="U" horiz-adv-x="750" 
d="M366 -12q-149 0 -227.5 64.5t-78.5 173.5q0 19 5 44l88 397h175l-87 -393q-3 -7 -3 -28q1 -45 34.5 -76.5t93.5 -31.5q126 0 156 136l87 393h174l-87 -396q-30 -133 -107.5 -208t-222.5 -75z" />
    <glyph glyph-name="V" unicode="V" horiz-adv-x="697" 
d="M402 0h-216l-104 667h186l59 -481l270 481h204z" />
    <glyph glyph-name="W" unicode="W" horiz-adv-x="936" 
d="M697 0h-182l-9 418l-193 -418h-182l-44 667h189l3 -445l212 445h131l16 -445l199 445h198z" />
    <glyph glyph-name="X" unicode="X" horiz-adv-x="676" 
d="M632 0h-194l-103 214l-187 -214h-213l315 352l-153 315h194l92 -200l168 200h213l-295 -335z" />
    <glyph glyph-name="Y" unicode="Y" horiz-adv-x="655" 
d="M360 0h-172l59 269l-165 398h185l91 -246l197 246h204l-340 -398z" />
    <glyph glyph-name="Z" unicode="Z" horiz-adv-x="596" 
d="M503 0h-518l30 137l359 380h-275l33 150h511l-30 -137l-360 -380h283z" />
    <glyph glyph-name="bracketleft" unicode="[" horiz-adv-x="298" 
d="M184 -190h-231l194 868h230l-22 -99h-122l-148 -670h121z" />
    <glyph glyph-name="backslash" unicode="\" horiz-adv-x="346" 
d="M178 -20l-80 707h109l80 -707h-109z" />
    <glyph glyph-name="bracketright" unicode="]" horiz-adv-x="298" 
d="M151 -190h-229l21 99h122l149 670h-122l22 99h230z" />
    <glyph glyph-name="asciicircum" unicode="^" horiz-adv-x="445" 
d="M445 333h-104l-43 231l-144 -231h-116l223 334h111z" />
    <glyph glyph-name="underscore" unicode="_" horiz-adv-x="564" 
d="M481 -139h-569l23 99h569z" />
    <glyph glyph-name="grave" unicode="`" horiz-adv-x="263" 
d="M332 556h-104l-127 144h136z" />
    <glyph glyph-name="a" unicode="a" horiz-adv-x="591" 
d="M274 495q99 0 147 -69l13 57h153l-107 -483h-153l12 56q-59 -68 -138 -68q-83 0 -132 52.5t-49 147.5q0 73 27.5 141.5t87 117t139.5 48.5zM301 359q-53 0 -87.5 -40.5t-34.5 -98.5q0 -43 27 -69.5t67 -26.5q53 0 91 45l33 146q-34 44 -96 44z" />
    <glyph glyph-name="b" unicode="b" horiz-adv-x="591" 
d="M315 -12q-98 0 -147 69l-12 -57h-154l147 667h154l-53 -240q60 68 138 68q83 0 132.5 -53t49.5 -148q0 -73 -27.5 -141t-87.5 -116.5t-140 -48.5zM289 124q52 0 87 40.5t35 97.5q0 43 -27 70t-67 27q-50 0 -92 -45l-32 -146q34 -44 96 -44z" />
    <glyph glyph-name="c" unicode="c" horiz-adv-x="500" 
d="M267 -12q-112 0 -179 61.5t-67 160.5q0 120 82.5 202.5t203.5 82.5q146 0 205 -98l-115 -87q-30 49 -91 49q-56 0 -92.5 -40.5t-36.5 -99.5q0 -44 30 -69.5t75 -25.5q53 0 91 43l83 -101q-30 -32 -79 -55t-110 -23z" />
    <glyph glyph-name="d" unicode="d" horiz-adv-x="591" 
d="M274 495q99 0 147 -69l54 241h153l-148 -667h-153l12 56q-59 -68 -138 -68q-83 0 -132 52.5t-49 147.5q0 73 27.5 141.5t87 117t139.5 48.5zM301 359q-53 0 -87.5 -40.5t-34.5 -98.5q0 -43 27 -69.5t67 -26.5q53 0 91 45l33 146q-34 44 -96 44z" />
    <glyph glyph-name="e" unicode="e" horiz-adv-x="548" 
d="M278 -12q-117 0 -187 58t-70 161q0 119 80.5 203.5t202.5 84.5q95 0 158.5 -58t63.5 -160q0 -41 -10 -84h-342v-6q0 -24 31.5 -52t84.5 -28q72 0 113 30l47 -102q-69 -47 -172 -47zM189 293h200q1 1 1 7q0 28 -23.5 52t-69.5 24q-41 0 -71 -26t-37 -57z" />
    <glyph glyph-name="f" unicode="f" horiz-adv-x="349" 
d="M189 0h-154l77 350h-80l30 133h79l6 26q17 75 66.5 121.5t131.5 46.5q89 0 138 -50l-73 -87q-20 20 -52 20q-46 0 -57 -54l-6 -23h99l-30 -133h-98z" />
    <glyph glyph-name="g" unicode="g" horiz-adv-x="590" 
d="M212 -196q-157 0 -242 85l87 102q22 -29 64.5 -45t87.5 -16q100 0 126 113l8 35q-57 -70 -140 -70q-79 0 -131 48t-52 147q0 115 69 203.5t182 88.5q41 0 81.5 -18.5t66.5 -50.5l14 57h153l-98 -440q-15 -70 -45.5 -119.5t-70.5 -74t-78.5 -35t-81.5 -10.5zM276 144
q51 0 91 45l27 121q-32 49 -102 49q-49 0 -81 -35t-32 -91q0 -39 27 -64t70 -25z" />
    <glyph glyph-name="h" unicode="h" horiz-adv-x="594" 
d="M484 0h-154l59 274q5 23 5 32q0 53 -73 53q-49 0 -96 -47l-68 -312h-154l147 667h154l-55 -243q77 71 157 71q72 0 113.5 -34.5t41.5 -90.5q0 -15 -5 -40z" />
    <glyph glyph-name="i" unicode="i" horiz-adv-x="266" 
d="M205 526q-35 0 -57.5 22.5t-22.5 53.5q0 46 31.5 73.5t68.5 27.5q34 0 56.5 -22t22.5 -53q0 -46 -31 -74t-68 -28zM156 0h-154l107 483h154z" />
    <glyph glyph-name="j" unicode="j" horiz-adv-x="266" 
d="M-46 -196q-98 0 -144 40l62 110q21 -24 59 -24q54 0 71 74l107 479h154l-107 -479q-43 -200 -202 -200zM205 526q-35 0 -57.5 22.5t-22.5 53.5q0 46 31.5 73.5t68.5 27.5q34 0 56.5 -22t22.5 -53q0 -46 -31 -74t-68 -28z" />
    <glyph glyph-name="k" unicode="k" horiz-adv-x="546" 
d="M498 0h-185l-70 174l-62 -58l-25 -116h-154l147 667h154l-82 -369l183 185h192l-227 -220z" />
    <glyph glyph-name="l" unicode="l" horiz-adv-x="266" 
d="M156 0h-154l147 667h154z" />
    <glyph glyph-name="m" unicode="m" horiz-adv-x="875" 
d="M764 0h-153l60 273q0 1 2.5 14t2.5 20q0 25 -18 38.5t-45 13.5q-45 0 -84 -47l-69 -312h-154l60 273q6 30 6 36q0 23 -16.5 36.5t-46.5 13.5q-43 0 -84 -47l-69 -312h-154l107 483h154l-14 -59q68 71 145 71q35 0 63.5 -11.5t44 -27.5t24 -29.5t8.5 -21.5v-1
q75 91 165 91q60 0 102 -33.5t42 -91.5q0 -5 -5 -40z" />
    <glyph glyph-name="n" unicode="n" horiz-adv-x="593" 
d="M483 0h-154l60 271q5 23 5 35q0 27 -19 40t-47 13q-56 0 -103 -47l-69 -312h-154l107 483h154l-14 -59q77 71 157 71q72 0 113.5 -34.5t41.5 -90.5q0 -15 -5 -40z" />
    <glyph glyph-name="o" unicode="o" horiz-adv-x="576" 
d="M269 -12q-118 0 -183.5 62.5t-65.5 159.5q0 115 81 200t203 85q118 0 183.5 -62.5t65.5 -160.5q0 -115 -81 -199.5t-203 -84.5zM275 124q52 0 86.5 42t34.5 99q0 44 -26 69t-71 25q-53 0 -87 -42t-34 -99q0 -44 26 -69t71 -25z" />
    <glyph glyph-name="p" unicode="p" 
d="M315 -12q-98 0 -147 69l-53 -241h-154l148 667h154l-13 -56q60 68 138 68q83 0 132.5 -53t49.5 -148q0 -73 -27.5 -141t-87.5 -116.5t-140 -48.5zM289 124q52 0 87 40.5t35 97.5q0 43 -27 70t-67 27q-50 0 -92 -45l-32 -146q34 -44 96 -44z" />
    <glyph glyph-name="q" unicode="q" 
d="M274 495q99 0 147 -69l13 57h153l-148 -667h-153l53 240q-59 -68 -138 -68q-83 0 -132 52.5t-49 147.5q0 73 27.5 141.5t87 117t139.5 48.5zM301 359q-53 0 -87.5 -40.5t-34.5 -98.5q0 -43 27 -69.5t67 -26.5q53 0 91 45l33 146q-34 44 -96 44z" />
    <glyph glyph-name="r" unicode="r" horiz-adv-x="375" 
d="M156 0h-154l107 483h154l-13 -58q66 71 167 71l-34 -151q-28 7 -50 7q-64 0 -110 -48z" />
    <glyph glyph-name="s" unicode="s" horiz-adv-x="484" 
d="M225 -12q-68 0 -131.5 23t-107.5 65l81 99q26 -27 75.5 -51t96.5 -24q23 0 37 10t14 25q0 20 -37.5 35t-82.5 26.5t-82.5 44.5t-37.5 84q0 70 55.5 120t151.5 50q61 0 118 -20.5t97 -57.5l-74 -95q-21 23 -61 41.5t-80 18.5q-25 0 -39.5 -10t-14.5 -24t25 -24.5
t60.5 -20.5t70.5 -25t60 -44.5t25 -71.5q0 -75 -59.5 -124.5t-159.5 -49.5z" />
    <glyph glyph-name="t" unicode="t" horiz-adv-x="360" 
d="M221 -12q-73 0 -116.5 28.5t-43.5 85.5q0 15 3 35l47 213h-80l30 133h80l29 132h154l-29 -132h98l-30 -133h-98l-36 -164q-3 -12 -3 -22q0 -40 46 -40q20 0 30 8l2 -123q-27 -21 -83 -21z" />
    <glyph glyph-name="u" unicode="u" horiz-adv-x="592" 
d="M109 483h153l-61 -279q-4 -18 -4 -26q0 -54 71 -54q49 0 99 48l68 311h154l-107 -483h-154l14 59q-77 -71 -157 -71q-72 0 -113.5 34.5t-41.5 90.5q0 15 5 40z" />
    <glyph glyph-name="v" unicode="v" horiz-adv-x="524" 
d="M290 0h-164l-83 483h158l40 -306l179 306h167z" />
    <glyph glyph-name="w" unicode="w" horiz-adv-x="787" 
d="M596 0h-166l-25 299l-156 -299h-166l-36 483h154l11 -296l162 296h137l29 -296l143 296h163z" />
    <glyph glyph-name="x" unicode="x" horiz-adv-x="512" 
d="M464 0h-164l-61 146l-126 -146h-173l219 248l-102 235h165l53 -131l111 131h174l-207 -235z" />
    <glyph glyph-name="y" unicode="y" horiz-adv-x="524" 
d="M-48 -184l49 132q17 -7 50 -7q37 0 55 26l19 31l-82 485h158l40 -306l179 306h167l-341 -552q-43 -70 -90 -98.5t-115 -28.5q-51 0 -89 12z" />
    <glyph glyph-name="z" unicode="z" horiz-adv-x="483" 
d="M391 0h-407l24 113l242 236h-189l30 134h403l-25 -109l-246 -241h197z" />
    <glyph glyph-name="braceleft" unicode="{" horiz-adv-x="302" 
d="M188 -190h-44q-63 0 -107.5 39.5t-44.5 99.5q0 17 4 32l35 156q2 12 2 18q0 21 -11 34.5t-29 13.5l19 82q52 0 66 66l35 155q38 172 208 172h60l-22 -99h-60q-61 0 -78 -73l-41 -183q-16 -76 -65 -90q29 -17 29 -57q0 -18 -4 -34l-36 -160q-2 -12 -2 -18
q0 -24 15.5 -39.5t39.5 -15.5h54z" />
    <glyph glyph-name="bar" unicode="|" horiz-adv-x="219" 
d="M179 -20h-99v707h99v-707z" />
    <glyph glyph-name="braceright" unicode="}" horiz-adv-x="302" 
d="M113 678h44q63 0 107.5 -39.5t44.5 -99.5q0 -18 -4 -33l-35 -155q-2 -12 -2 -18q0 -22 10.5 -35t29.5 -13l-19 -82q-52 0 -66 -66l-34 -155q-39 -172 -209 -172h-60l22 99h60q61 0 78 72l41 184q16 76 65 90q-29 17 -29 57q0 18 4 34l36 160q2 12 2 17q0 25 -15.5 40.5
t-39.5 15.5h-54z" />
    <glyph glyph-name="asciitilde" unicode="~" horiz-adv-x="514" 
d="M481 667l98 -12q-54 -248 -194 -248q-35 0 -57.5 12.5t-31 31.5t-13.5 40.5t-6 40.5t-7 31.5t-18 12.5q-25 0 -51 -52.5t-38 -117.5l-100 12q51 249 195 249q41 0 65 -17.5t31 -42.5t9.5 -50t8 -42.5t19.5 -17.5q26 0 52.5 53.5t37.5 116.5z" />
    <glyph glyph-name="nbspace" unicode="&#xa0;" horiz-adv-x="256" 
 />
    <glyph glyph-name="exclamdown" unicode="&#xa1;" horiz-adv-x="270" 
d="M66 250h138l-73 -434h-184zM176 495q36 0 61 -25.5t25 -61.5q0 -41 -31 -71t-72 -30q-36 0 -61 25.5t-25 60.5q0 42 30.5 72t72.5 30z" />
    <glyph glyph-name="cent" unicode="&#xa2;" horiz-adv-x="500" 
d="M158 -100l22 100q-75 21 -117 77t-42 133q0 115 77 196.5t192 87.5l16 71h109l-18 -83q76 -23 115 -85l-115 -87q-30 49 -91 49q-56 0 -92.5 -40.5t-36.5 -99.5q0 -44 30 -69.5t75 -25.5q53 0 91 43l83 -101q-66 -70 -170 -77l-19 -89h-109z" />
    <glyph glyph-name="sterling" unicode="&#xa3;" horiz-adv-x="565" 
d="M29 269l22 96h61q-23 54 -23 95q0 91 80 154t192 63q94 0 161 -36.5t89 -104.5l-155 -63q-6 31 -29.5 48t-57.5 17q-40 0 -66.5 -28t-26.5 -71q0 -20 18 -74h139l-22 -96h-112q-10 -36 -34 -65.5t-48 -41.5q25 7 43 7q28 0 69 -14.5t67 -14.5q43 0 76 35l36 -136
q-44 -51 -127 -51q-47 0 -124 21.5t-100 21.5q-50 0 -110 -38l-32 115q56 25 90.5 66.5t34.5 88.5v6h-111z" />
    <glyph glyph-name="currency" unicode="&#xa4;" horiz-adv-x="635" 
d="M319 85q-81 0 -142 33l-98 -79l-79 98l88 72q-20 43 -20 95q0 102 68 181l-55 72l101 81l60 -79q53 22 112 22q83 0 145 -36l94 76l78 -95l-88 -72q21 -47 21 -94q0 -102 -69 -181l55 -68l-101 -81l-60 75q-52 -20 -110 -20zM224 314q0 -41 27.5 -67.5t75.5 -26.5
q52 0 87 37.5t35 90.5q0 42 -27 69.5t-78 27.5q-53 0 -86.5 -38.5t-33.5 -92.5z" />
    <glyph glyph-name="yen" unicode="&#xa5;" horiz-adv-x="655" 
d="M361 0h-172l24 111h-219l20 92h219l15 66h-219l21 92h160l-127 306h185l91 -246l197 246h204l-262 -306h160l-21 -92h-217l-15 -66h217l-20 -92h-217z" />
    <glyph glyph-name="brokenbar" unicode="&#xa6;" horiz-adv-x="219" 
d="M179 -20h-99v316h99v-316zM179 371h-99v316h99v-316z" />
    <glyph glyph-name="section" unicode="&#xa7;" horiz-adv-x="492" 
d="M482 338q0 -49 -31.5 -90t-80.5 -59q57 -34 57 -98q0 -75 -60.5 -123.5t-153.5 -48.5q-160 0 -250 85l82 91q29 -32 75 -51.5t93 -19.5q27 0 44 13t17 30q0 19 -24.5 33t-59 25t-69 26t-59 44t-24.5 71q0 104 118 144q-64 32 -64 104q0 73 59 118t149 45q145 0 221 -73
l-77 -84q-22 23 -60 37t-78 14q-31 0 -46.5 -11.5t-15.5 -29.5t24.5 -30.5t59.5 -23t70 -25t59.5 -43.5t24.5 -70zM323 303q0 42 -57 58q-74 -12 -74 -65q0 -39 70 -60q30 8 45.5 26.5t15.5 40.5z" />
    <glyph glyph-name="dieresis" unicode="&#xa8;" horiz-adv-x="306" 
d="M421 623q0 -34 -27 -60.5t-62 -26.5q-29 0 -49 20t-20 50q0 34 27 60.5t62 26.5q29 0 49 -20t20 -50zM208 623q0 -34 -27 -60.5t-62 -26.5q-30 0 -50 20t-20 50q0 34 27 60.5t62 26.5q30 0 50 -20t20 -50z" />
    <glyph glyph-name="copyright" unicode="&#xa9;" horiz-adv-x="778" 
d="M754 334q0 -143 -101.5 -244t-244.5 -101q-142 0 -243 101t-101 244t100.5 244t243.5 101t244.5 -101t101.5 -244zM715 334q0 126 -90.5 216t-216.5 90t-215.5 -90t-89.5 -216t89.5 -216t215.5 -90t216.5 90t90.5 216zM507 216l28 -37q-64 -55 -141 -55
q-86 0 -138.5 51.5t-52.5 131.5q0 100 69.5 168.5t162.5 68.5q110 0 161 -81l-42 -29q-37 67 -122 67q-68 0 -123.5 -56t-55.5 -136q0 -59 38.5 -100.5t103.5 -41.5q61 0 112 49z" />
    <glyph glyph-name="ordfeminine" unicode="&#xaa;" horiz-adv-x="415" 
d="M270 562q-35 0 -59.5 -29t-24.5 -69q0 -29 16.5 -44t42.5 -15q33 0 56 25l25 111q-19 21 -56 21zM348 640h109l-69 -314h-110l7 35q-37 -43 -89 -43t-87.5 35t-35.5 97q0 84 49 141t118 57q68 0 100 -43z" />
    <glyph glyph-name="guillemotleft" unicode="&#xab;" horiz-adv-x="571" 
d="M284 63h-135l-120 180l200 177h143l-204 -182zM496 63h-135l-120 180l200 177h143l-204 -182z" />
    <glyph glyph-name="logicalnot" unicode="&#xac;" horiz-adv-x="521" 
d="M528 473l-61 -278h-94l40 186h-354l20 92h449z" />
    <glyph glyph-name="uni00AD" unicode="&#xad;" horiz-adv-x="300" 
d="M255 178h-240l29 129h240z" />
    <glyph glyph-name="registered" unicode="&#xae;" horiz-adv-x="494" 
d="M508 465q0 -88 -62.5 -150t-150.5 -62t-149.5 62t-61.5 150t62 150t150 62t150 -61.5t62 -150.5zM474 465q0 75 -52 126.5t-127 51.5q-74 0 -126 -51.5t-52 -126.5q0 -74 52 -126.5t126 -52.5t126.5 52.5t52.5 126.5zM370 343h-42l-42 96h-42l-21 -96h-36l53 243h94
q32 0 52 -18.5t20 -45.5q0 -34 -24.5 -58t-55.5 -24zM368 520q0 36 -42 36h-56l-19 -86h63q25 0 39.5 14.5t14.5 35.5z" />
    <glyph glyph-name="macron" unicode="&#xaf;" horiz-adv-x="363" 
d="M431 556h-362l19 85h362z" />
    <glyph glyph-name="degree" unicode="&#xb0;" horiz-adv-x="321" 
d="M367 535q0 -59 -42 -100.5t-101 -41.5t-100 41.5t-41 100.5t41.5 100.5t99.5 41.5q59 0 101 -41.5t42 -100.5zM287 535q0 25 -18.5 44t-44.5 19q-25 0 -43 -18.5t-18 -44.5t17.5 -44t42.5 -18q26 0 45 18.5t19 43.5z" />
    <glyph glyph-name="plusminus" unicode="&#xb1;" horiz-adv-x="507" 
d="M496 327h-174l-44 -198h-101l44 198h-174l20 92h174l43 190h101l-43 -190h174zM424 0h-449l20 92h449z" />
    <glyph glyph-name="twosuperior" unicode="&#xb2;" horiz-adv-x="402" 
d="M409 421h-326l19 86q158 91 203.5 125.5t45.5 63.5q0 19 -16 30t-43 11q-67 0 -112 -43l-46 76q30 27 75 42t88 15q76 0 124 -33t48 -87q0 -49 -47 -94t-153 -102h160z" />
    <glyph glyph-name="threesuperior" unicode="&#xb3;" horiz-adv-x="402" 
d="M438 532q0 -47 -44.5 -82.5t-118.5 -35.5q-63 0 -114 20t-74 54l69 70q40 -54 113 -54q28 0 42 12t14 29q0 34 -84 34q-29 0 -35 -1l19 89q10 -1 67 -1q62 0 62 36q0 17 -21 26t-52 9q-59 0 -102 -34l-36 71q61 53 150 53q82 0 129.5 -29t47.5 -80q0 -38 -28.5 -66.5
t-81.5 -32.5q35 -9 56.5 -31t21.5 -56z" />
    <glyph glyph-name="acute" unicode="&#xb4;" horiz-adv-x="263" 
d="M364 700l-191 -144h-106l159 144h138z" />
    <glyph glyph-name="mu" unicode="&#xb5;" horiz-adv-x="606" 
d="M156 5l-43 -189h-153l151 667h154l-63 -280q-9 -38 8 -58.5t53 -20.5q56 0 103 47l69 312h153l-70 -321q-4 -18 4 -28t24 -10q12 0 20 3l-19 -130q-29 -9 -71 -9q-113 0 -123 87q-63 -87 -146 -87q-37 0 -51 17z" />
    <glyph glyph-name="paragraph" unicode="&#xb6;" horiz-adv-x="449" 
d="M338 -100h-71l154 696h-73l-155 -696h-71l94 423q-57 0 -97 44.5t-40 111.5q0 73 56.5 130.5t137.5 57.5h235z" />
    <glyph glyph-name="periodcentered" unicode="&#xb7;" horiz-adv-x="270" 
d="M126 151q-36 0 -61 25.5t-25 61.5q0 41 31 71.5t72 30.5q36 0 60.5 -25.5t24.5 -61.5q0 -42 -30.5 -72t-71.5 -30z" />
    <glyph glyph-name="cedilla" unicode="&#xb8;" horiz-adv-x="229" 
d="M35 -198q-81 0 -124 43l39 54q39 -36 85 -36q44 0 44 30q0 20 -26 20q-16 0 -27 -13l-46 30l49 81h71l-39 -60q16 10 30 10q26 0 43 -17.5t17 -46.5q0 -43 -33.5 -69t-82.5 -26z" />
    <glyph glyph-name="onesuperior" unicode="&#xb9;" horiz-adv-x="311" 
d="M290 421h-114l55 251l-82 -66l-51 69l182 146h98z" />
    <glyph glyph-name="ordmasculine" unicode="&#xba;" horiz-adv-x="405" 
d="M241 318q-77 0 -122.5 41.5t-45.5 105.5q0 78 58 130.5t136 52.5q77 0 122.5 -41.5t45.5 -106.5q0 -78 -58 -130t-136 -52zM244 405q38 0 58 29.5t20 67.5q0 27 -15.5 42t-42.5 15q-38 0 -58 -29.5t-20 -67.5q0 -27 15.5 -42t42.5 -15z" />
    <glyph glyph-name="guillemotright" unicode="&#xbb;" horiz-adv-x="571" 
d="M77 420h135l120 -180l-200 -177h-143l204 182zM289 420h135l120 -180l-200 -177h-143l204 182z" />
    <glyph glyph-name="onequarter" unicode="&#xbc;" horiz-adv-x="865" 
d="M256 267h-114l55 251l-82 -66l-51 69l182 146h98zM809 78h-50l-16 -78h-113l16 78h-196l17 77l204 245h160l-52 -233h50zM666 167l30 134l-114 -134h84zM760 667l-575 -667h-86l573 667h88z" />
    <glyph glyph-name="onehalf" unicode="&#xbd;" horiz-adv-x="897" 
d="M256 267h-114l55 251l-82 -66l-51 69l182 146h98zM810 0h-326l19 86q158 91 203.5 125.5t45.5 63.5q0 19 -16 30t-43 11q-67 0 -112 -43l-46 76q30 27 75 42t88 15q76 0 124 -33t48 -87q0 -49 -47 -94t-153 -102h160zM760 667l-575 -667h-86l573 667h88z" />
    <glyph glyph-name="threequarters" unicode="&#xbe;" horiz-adv-x="942" 
d="M886 78h-50l-16 -78h-113l16 78h-196l17 77l204 245h160l-52 -233h50zM743 167l30 134l-114 -134h84zM837 667l-575 -667h-86l573 667h88zM404 378q0 -47 -44.5 -82.5t-118.5 -35.5q-63 0 -114 20t-74 54l69 70q40 -54 113 -54q28 0 42 12t14 29q0 34 -84 34
q-29 0 -35 -1l19 89q10 -1 67 -1q62 0 62 36q0 17 -21 26t-52 9q-59 0 -102 -34l-36 71q61 53 150 53q82 0 129.5 -29t47.5 -80q0 -38 -28.5 -66.5t-81.5 -32.5q35 -9 56.5 -31t21.5 -56z" />
    <glyph glyph-name="questiondown" unicode="&#xbf;" horiz-adv-x="399" 
d="M152 234l141 34q13 -27 13 -70q0 -41 -17.5 -71.5t-43 -48t-51 -30.5t-43 -26.5t-17.5 -29.5q0 -37 62 -37q57 0 105 40l72 -119q-89 -71 -204 -71q-91 0 -154 39.5t-63 108.5q0 42 15.5 74t38.5 50t50 35t50 29t38.5 30t15.5 41q0 13 -8 22zM269 494q36 0 61 -25.5
t25 -60.5q0 -42 -30.5 -72t-72.5 -30q-36 0 -60.5 25.5t-24.5 61.5q0 41 30.5 71t71.5 30z" />
    <glyph glyph-name="Agrave" unicode="&#xc0;" horiz-adv-x="697" 
d="M654 0h-187l-12 96h-263l-53 -96h-204l398 667h216zM442 246l-30 251l-140 -251h170zM521 723h-104l-127 144h136z" />
    <glyph glyph-name="Aacute" unicode="&#xc1;" horiz-adv-x="697" 
d="M654 0h-187l-12 96h-263l-53 -96h-204l398 667h216zM442 246l-30 251l-140 -251h170zM683 867l-191 -144h-106l159 144h138z" />
    <glyph glyph-name="Acircumflex" unicode="&#xc2;" horiz-adv-x="697" 
d="M614 723h-90l-51 81l-84 -81h-93l122 144h135zM654 0h-187l-12 96h-263l-53 -96h-204l398 667h216zM442 246l-30 251l-140 -251h170z" />
    <glyph glyph-name="Atilde" unicode="&#xc3;" horiz-adv-x="697" 
d="M654 0h-187l-12 96h-263l-53 -96h-204l398 667h216zM442 246l-30 251l-140 -251h170zM525 721q-38 0 -71 27.5t-51 27.5q-26 0 -36 -49h-79q13 69 41.5 101.5t82.5 32.5q23 0 42 -8.5t29.5 -19t24 -19t26.5 -8.5q25 0 37 49h79q-15 -69 -43.5 -101.5t-81.5 -32.5z" />
    <glyph glyph-name="Adieresis" unicode="&#xc4;" horiz-adv-x="697" 
d="M653 790q0 -34 -27 -60.5t-62 -26.5q-29 0 -49 20t-20 50q0 34 27 60.5t62 26.5q29 0 49 -20t20 -50zM440 790q0 -34 -27 -60.5t-62 -26.5q-30 0 -50 20t-20 50q0 34 27 60.5t62 26.5q30 0 50 -20t20 -50zM654 0h-187l-12 96h-263l-53 -96h-204l398 667h216zM442 246
l-30 251l-140 -251h170z" />
    <glyph glyph-name="Aring" unicode="&#xc5;" horiz-adv-x="697" 
d="M654 0h-187l-12 96h-263l-53 -96h-204l398 667h216zM442 246l-30 251l-140 -251h170zM459 687q-44 0 -71.5 27.5t-27.5 71.5q0 48 35.5 83t83.5 35q44 0 71.5 -27.5t27.5 -71.5q0 -48 -35.5 -83t-83.5 -35zM466 756q17 0 30 12.5t13 30.5q0 17 -10.5 27t-26.5 10
q-17 0 -30 -13t-13 -30t10.5 -27t26.5 -10z" />
    <glyph glyph-name="AE" unicode="&#xc6;" horiz-adv-x="979" 
d="M889 0h-489l21 96h-217l-74 -96h-201l547 667h560l-34 -150h-316l-23 -104h310l-34 -150h-309l-25 -113h317zM454 246l53 243l-189 -243h136z" />
    <glyph glyph-name="Ccedilla" unicode="&#xc7;" horiz-adv-x="692" 
d="M302 -198q-81 0 -124 43l39 54q39 -36 85 -36q44 0 44 30q0 20 -26 20q-16 0 -27 -13l-46 30l40 67q-112 23 -181.5 101t-69.5 193q0 171 114.5 279t279.5 108q125 0 202 -58.5t107 -146.5l-166 -54q-14 50 -54.5 78.5t-96.5 28.5q-87 0 -147 -65.5t-60 -158.5
q0 -69 46.5 -115.5t122.5 -46.5q41 0 82 21.5t63 55.5l134 -88q-55 -75 -133 -108t-156 -33q-15 0 -22 1l-24 -38q16 10 30 10q26 0 43 -17.5t17 -46.5q0 -43 -33.5 -69t-82.5 -26z" />
    <glyph glyph-name="Egrave" unicode="&#xc8;" 
d="M495 0h-489l147 667h489l-34 -150h-316l-23 -104h310l-33 -150h-310l-25 -113h317zM476 723h-104l-127 144h136z" />
    <glyph glyph-name="Eacute" unicode="&#xc9;" 
d="M638 867l-191 -144h-106l159 144h138zM495 0h-489l147 667h489l-34 -150h-316l-23 -104h310l-33 -150h-310l-25 -113h317z" />
    <glyph glyph-name="Ecircumflex" unicode="&#xca;" 
d="M568 723h-90l-51 81l-84 -81h-93l122 144h135zM495 0h-489l147 667h489l-34 -150h-316l-23 -104h310l-33 -150h-310l-25 -113h317z" />
    <glyph glyph-name="Edieresis" unicode="&#xcb;" 
d="M609 790q0 -34 -27 -60.5t-62 -26.5q-29 0 -49 20t-20 50q0 34 27 60.5t62 26.5q29 0 49 -20t20 -50zM396 790q0 -34 -27 -60.5t-62 -26.5q-30 0 -50 20t-20 50q0 34 27 60.5t62 26.5q30 0 50 -20t20 -50zM495 0h-489l147 667h489l-34 -150h-316l-23 -104h310l-33 -150
h-310l-25 -113h317z" />
    <glyph glyph-name="Igrave" unicode="&#xcc;" horiz-adv-x="292" 
d="M178 0h-172l147 667h172zM318 723h-104l-127 144h136z" />
    <glyph glyph-name="Iacute" unicode="&#xcd;" horiz-adv-x="292" 
d="M178 0h-172l147 667h172zM479 867l-191 -144h-106l159 144h138z" />
    <glyph glyph-name="Icircumflex" unicode="&#xce;" horiz-adv-x="292" 
d="M410 723h-90l-51 81l-84 -81h-93l122 144h135zM178 0h-172l147 667h172z" />
    <glyph glyph-name="Idieresis" unicode="&#xcf;" horiz-adv-x="292" 
d="M450 790q0 -34 -27 -60.5t-62 -26.5q-29 0 -49 20t-20 50q0 34 27 60.5t62 26.5q29 0 49 -20t20 -50zM237 790q0 -34 -27 -60.5t-62 -26.5q-30 0 -50 20t-20 50q0 34 27 60.5t62 26.5q30 0 50 -20t20 -50zM178 0h-172l147 667h172z" />
    <glyph glyph-name="Eth" unicode="&#xd0;" horiz-adv-x="750" 
d="M308 0h-279l58 265h-75l30 137h75l59 265h275q117 0 206.5 -81t89.5 -206q0 -54 -14 -105.5t-47 -102t-82 -88.5t-125.5 -61t-170.5 -23zM343 150q103 1 164.5 64t61.5 154q0 63 -42 106t-107 43h-105l-26 -115h139l-30 -137h-139l-25 -115h109z" />
    <glyph glyph-name="Ntilde" unicode="&#xd1;" horiz-adv-x="740" 
d="M546 721q-38 0 -71 27.5t-51 27.5q-26 0 -36 -49h-79q13 69 41.5 101.5t82.5 32.5q23 0 42 -8.5t29.5 -19t24 -19t26.5 -8.5q25 0 37 49h79q-15 -69 -43.5 -101.5t-81.5 -32.5zM626 0h-166l-194 398l-88 -398h-172l147 667h177l186 -379l84 379h173z" />
    <glyph glyph-name="Ograve" unicode="&#xd2;" horiz-adv-x="766" 
d="M556 723h-104l-127 144h136zM374 -12q-146 0 -242 84t-96 219q0 162 113 274.5t281 112.5q145 0 241.5 -83.5t96.5 -217.5q0 -163 -113 -276t-281 -113zM384 140q87 0 146 65.5t59 158.5q0 72 -47 117t-122 45q-87 0 -146 -65.5t-59 -158.5q0 -72 47 -117t122 -45z" />
    <glyph glyph-name="Oacute" unicode="&#xd3;" horiz-adv-x="766" 
d="M716 867l-191 -144h-106l159 144h138zM374 -12q-146 0 -242 84t-96 219q0 162 113 274.5t281 112.5q145 0 241.5 -83.5t96.5 -217.5q0 -163 -113 -276t-281 -113zM384 140q87 0 146 65.5t59 158.5q0 72 -47 117t-122 45q-87 0 -146 -65.5t-59 -158.5q0 -72 47 -117
t122 -45z" />
    <glyph glyph-name="Ocircumflex" unicode="&#xd4;" horiz-adv-x="766" 
d="M648 723h-90l-51 81l-84 -81h-93l122 144h135zM374 -12q-146 0 -242 84t-96 219q0 162 113 274.5t281 112.5q145 0 241.5 -83.5t96.5 -217.5q0 -163 -113 -276t-281 -113zM384 140q87 0 146 65.5t59 158.5q0 72 -47 117t-122 45q-87 0 -146 -65.5t-59 -158.5
q0 -72 47 -117t122 -45z" />
    <glyph glyph-name="Otilde" unicode="&#xd5;" horiz-adv-x="766" 
d="M374 -12q-146 0 -242 84t-96 219q0 162 113 274.5t281 112.5q145 0 241.5 -83.5t96.5 -217.5q0 -163 -113 -276t-281 -113zM384 140q87 0 146 65.5t59 158.5q0 72 -47 117t-122 45q-87 0 -146 -65.5t-59 -158.5q0 -72 47 -117t122 -45zM560 721q-38 0 -71 27.5t-51 27.5
q-26 0 -36 -49h-79q13 69 41.5 101.5t82.5 32.5q23 0 42 -8.5t29.5 -19t24 -19t26.5 -8.5q25 0 37 49h79q-15 -69 -43.5 -101.5t-81.5 -32.5z" />
    <glyph glyph-name="Odieresis" unicode="&#xd6;" horiz-adv-x="766" 
d="M687 790q0 -34 -27 -60.5t-62 -26.5q-29 0 -49 20t-20 50q0 34 27 60.5t62 26.5q29 0 49 -20t20 -50zM474 790q0 -34 -27 -60.5t-62 -26.5q-30 0 -50 20t-20 50q0 34 27 60.5t62 26.5q30 0 50 -20t20 -50zM374 -12q-146 0 -242 84t-96 219q0 162 113 274.5t281 112.5
q145 0 241.5 -83.5t96.5 -217.5q0 -163 -113 -276t-281 -113zM384 140q87 0 146 65.5t59 158.5q0 72 -47 117t-122 45q-87 0 -146 -65.5t-59 -158.5q0 -72 47 -117t122 -45z" />
    <glyph glyph-name="multiply" unicode="&#xd7;" horiz-adv-x="507" 
d="M369 134l-104 134l-171 -139l-57 70l173 141l-105 134l73 60l103 -134l171 139l57 -70l-171 -141l104 -134z" />
    <glyph glyph-name="Oslash" unicode="&#xd8;" horiz-adv-x="766" 
d="M374 -12q-124 0 -213 61l-51 -49h-120l109 106q-63 77 -63 185q0 162 113 274.5t281 112.5q115 0 201 -54l44 43h120l-99 -97q72 -80 72 -193q0 -163 -113 -276t-281 -113zM384 140q87 0 146 65.5t59 158.5q0 45 -21 82l-285 -278q42 -28 101 -28zM215 302q0 -38 14 -69
l279 272q-40 21 -88 21q-87 0 -146 -65.5t-59 -158.5z" />
    <glyph glyph-name="Ugrave" unicode="&#xd9;" horiz-adv-x="750" 
d="M366 -12q-149 0 -227.5 64.5t-78.5 173.5q0 19 5 44l88 397h175l-87 -393q-3 -7 -3 -28q1 -45 34.5 -76.5t93.5 -31.5q126 0 156 136l87 393h174l-87 -396q-30 -133 -107.5 -208t-222.5 -75zM547 723h-104l-127 144h136z" />
    <glyph glyph-name="Uacute" unicode="&#xda;" horiz-adv-x="750" 
d="M707 867l-191 -144h-106l159 144h138zM366 -12q-149 0 -227.5 64.5t-78.5 173.5q0 19 5 44l88 397h175l-87 -393q-3 -7 -3 -28q1 -45 34.5 -76.5t93.5 -31.5q126 0 156 136l87 393h174l-87 -396q-30 -133 -107.5 -208t-222.5 -75z" />
    <glyph glyph-name="Ucircumflex" unicode="&#xdb;" horiz-adv-x="750" 
d="M638 723h-90l-51 81l-84 -81h-93l122 144h135zM366 -12q-149 0 -227.5 64.5t-78.5 173.5q0 19 5 44l88 397h175l-87 -393q-3 -7 -3 -28q1 -45 34.5 -76.5t93.5 -31.5q126 0 156 136l87 393h174l-87 -396q-30 -133 -107.5 -208t-222.5 -75z" />
    <glyph glyph-name="Udieresis" unicode="&#xdc;" horiz-adv-x="750" 
d="M679 790q0 -34 -27 -60.5t-62 -26.5q-29 0 -49 20t-20 50q0 34 27 60.5t62 26.5q29 0 49 -20t20 -50zM466 790q0 -34 -27 -60.5t-62 -26.5q-30 0 -50 20t-20 50q0 34 27 60.5t62 26.5q30 0 50 -20t20 -50zM366 -12q-149 0 -227.5 64.5t-78.5 173.5q0 19 5 44l88 397h175
l-87 -393q-3 -7 -3 -28q1 -45 34.5 -76.5t93.5 -31.5q126 0 156 136l87 393h174l-87 -396q-30 -133 -107.5 -208t-222.5 -75z" />
    <glyph glyph-name="Yacute" unicode="&#xdd;" horiz-adv-x="655" 
d="M360 0h-172l59 269l-165 398h185l91 -246l197 246h204l-340 -398zM661 867l-191 -144h-106l159 144h138z" />
    <glyph glyph-name="Thorn" unicode="&#xde;" horiz-adv-x="643" 
d="M178 0h-172l147 667h172l-22 -102h156q82 0 136.5 -56.5t54.5 -134.5q0 -44 -16 -87t-48 -81t-89 -61t-131 -23h-161zM374 273q44 0 70.5 24t26.5 58q0 28 -19 44t-50 16h-133l-31 -142h136z" />
    <glyph glyph-name="germandbls" unicode="&#xdf;" horiz-adv-x="665" 
d="M635 161q0 -71 -60.5 -122t-150.5 -51q-138 0 -220 86l81 95q58 -65 142 -65q23 0 39 11t16 26q0 17 -32.5 30.5t-71 23t-71 38.5t-32.5 75q0 47 23.5 81.5t52.5 50t52.5 32.5t23.5 34q0 19 -20 32t-49 13q-80 0 -99 -88l-102 -463h-154l102 463q21 95 87 154.5t181 59.5
q88 0 153 -41.5t65 -107.5q0 -37 -17 -66t-41 -46t-48 -30.5t-41 -26.5t-17 -27q0 -11 21.5 -19.5t52 -18t61 -23t52 -42t21.5 -68.5z" />
    <glyph glyph-name="agrave" unicode="&#xe0;" horiz-adv-x="591" 
d="M274 495q99 0 147 -69l13 57h153l-107 -483h-153l12 56q-59 -68 -138 -68q-83 0 -132 52.5t-49 147.5q0 73 27.5 141.5t87 117t139.5 48.5zM301 359q-53 0 -87.5 -40.5t-34.5 -98.5q0 -43 27 -69.5t67 -26.5q53 0 91 45l33 146q-34 44 -96 44zM427 556h-104l-127 144h136
z" />
    <glyph glyph-name="aacute" unicode="&#xe1;" horiz-adv-x="591" 
d="M274 495q99 0 147 -69l13 57h153l-107 -483h-153l12 56q-59 -68 -138 -68q-83 0 -132 52.5t-49 147.5q0 73 27.5 141.5t87 117t139.5 48.5zM301 359q-53 0 -87.5 -40.5t-34.5 -98.5q0 -43 27 -69.5t67 -26.5q53 0 91 45l33 146q-34 44 -96 44zM587 700l-191 -144h-106
l159 144h138z" />
    <glyph glyph-name="acircumflex" unicode="&#xe2;" horiz-adv-x="591" 
d="M274 495q99 0 147 -69l13 57h153l-107 -483h-153l12 56q-59 -68 -138 -68q-83 0 -132 52.5t-49 147.5q0 73 27.5 141.5t87 117t139.5 48.5zM301 359q-53 0 -87.5 -40.5t-34.5 -98.5q0 -43 27 -69.5t67 -26.5q53 0 91 45l33 146q-34 44 -96 44zM518 556h-90l-51 81
l-84 -81h-93l122 144h135z" />
    <glyph glyph-name="atilde" unicode="&#xe3;" horiz-adv-x="591" 
d="M274 495q99 0 147 -69l13 57h153l-107 -483h-153l12 56q-59 -68 -138 -68q-83 0 -132 52.5t-49 147.5q0 73 27.5 141.5t87 117t139.5 48.5zM301 359q-53 0 -87.5 -40.5t-34.5 -98.5q0 -43 27 -69.5t67 -26.5q53 0 91 45l33 146q-34 44 -96 44zM431 554q-38 0 -71 27.5
t-51 27.5q-26 0 -36 -49h-79q13 69 41.5 101.5t82.5 32.5q30 0 51.5 -14t38 -27.5t32.5 -13.5q25 0 37 49h79q-15 -69 -43.5 -101.5t-81.5 -32.5z" />
    <glyph glyph-name="adieresis" unicode="&#xe4;" horiz-adv-x="591" 
d="M274 495q99 0 147 -69l13 57h153l-107 -483h-153l12 56q-59 -68 -138 -68q-83 0 -132 52.5t-49 147.5q0 73 27.5 141.5t87 117t139.5 48.5zM301 359q-53 0 -87.5 -40.5t-34.5 -98.5q0 -43 27 -69.5t67 -26.5q53 0 91 45l33 146q-34 44 -96 44zM557 623q0 -34 -27 -60.5
t-62 -26.5q-29 0 -49 20t-20 50q0 34 27 60.5t62 26.5q29 0 49 -20t20 -50zM344 623q0 -34 -27 -60.5t-62 -26.5q-30 0 -50 20t-20 50q0 34 27 60.5t62 26.5q30 0 50 -20t20 -50z" />
    <glyph glyph-name="aring" unicode="&#xe5;" horiz-adv-x="591" 
d="M274 495q99 0 147 -69l13 57h153l-107 -483h-153l12 56q-59 -68 -138 -68q-83 0 -132 52.5t-49 147.5q0 73 27.5 141.5t87 117t139.5 48.5zM301 359q-53 0 -87.5 -40.5t-34.5 -98.5q0 -43 27 -69.5t67 -26.5q53 0 91 45l33 146q-34 44 -96 44zM366 520q-44 0 -71.5 27.5
t-27.5 71.5q0 48 35.5 83t83.5 35q44 0 71.5 -27.5t27.5 -71.5q0 -48 -35.5 -83t-83.5 -35zM373 589q17 0 30 12.5t13 30.5q0 16 -10 26.5t-27 10.5t-30 -13t-13 -30q0 -16 10 -26.5t27 -10.5z" />
    <glyph glyph-name="ae" unicode="&#xe6;" horiz-adv-x="902" 
d="M301 359q-53 0 -87.5 -40.5t-34.5 -98.5q0 -43 27 -69.5t67 -26.5q53 0 91 45l33 146q-34 44 -96 44zM495 66l-15 -66h-153l12 56q-59 -68 -138 -68q-83 0 -132 52.5t-49 147.5q0 73 27.5 141.5t87 117t139.5 48.5q99 0 147 -69l13 57h153l-10 -47q59 59 133 59
q171 0 171 -206q0 -49 -11 -96h-341v-6q0 -23 33.5 -50t89.5 -27q65 0 106 30l47 -105q-73 -47 -150 -47q-117 0 -160 78zM545 293h199v6q0 29 -23 53t-68 24q-41 0 -70.5 -26t-37.5 -57z" />
    <glyph glyph-name="ccedilla" unicode="&#xe7;" horiz-adv-x="500" 
d="M213 -198q-81 0 -124 43l39 54q39 -36 85 -36q44 0 44 30q0 20 -26 20q-16 0 -27 -13l-46 30l39 65q-82 18 -129 75.5t-47 139.5q0 120 82.5 202.5t203.5 82.5q146 0 205 -98l-115 -87q-30 49 -91 49q-56 0 -92.5 -40.5t-36.5 -99.5q0 -44 30 -69.5t75 -25.5q53 0 91 43
l83 -101q-30 -32 -79 -55t-110 -23h-4l-24 -37q16 10 30 10q26 0 43 -17.5t17 -46.5q0 -43 -33.5 -69t-82.5 -26z" />
    <glyph glyph-name="egrave" unicode="&#xe8;" horiz-adv-x="548" 
d="M278 -12q-117 0 -187 58t-70 161q0 119 80.5 203.5t202.5 84.5q95 0 158.5 -58t63.5 -160q0 -41 -10 -84h-342v-6q0 -24 31.5 -52t84.5 -28q72 0 113 30l47 -102q-69 -47 -172 -47zM189 293h200q1 1 1 7q0 28 -23.5 52t-69.5 24q-41 0 -71 -26t-37 -57zM425 556h-104
l-127 144h136z" />
    <glyph glyph-name="eacute" unicode="&#xe9;" horiz-adv-x="548" 
d="M585 700l-191 -144h-106l159 144h138zM278 -12q-117 0 -187 58t-70 161q0 119 80.5 203.5t202.5 84.5q95 0 158.5 -58t63.5 -160q0 -41 -10 -84h-342v-6q0 -24 31.5 -52t84.5 -28q72 0 113 30l47 -102q-69 -47 -172 -47zM189 293h200q1 1 1 7q0 28 -23.5 52t-69.5 24
q-41 0 -71 -26t-37 -57z" />
    <glyph glyph-name="ecircumflex" unicode="&#xea;" horiz-adv-x="548" 
d="M516 556h-90l-51 81l-84 -81h-93l122 144h135zM278 -12q-117 0 -187 58t-70 161q0 119 80.5 203.5t202.5 84.5q95 0 158.5 -58t63.5 -160q0 -41 -10 -84h-342v-6q0 -24 31.5 -52t84.5 -28q72 0 113 30l47 -102q-69 -47 -172 -47zM189 293h200q1 1 1 7q0 28 -23.5 52
t-69.5 24q-41 0 -71 -26t-37 -57z" />
    <glyph glyph-name="edieresis" unicode="&#xeb;" horiz-adv-x="548" 
d="M556 623q0 -34 -27 -60.5t-62 -26.5q-29 0 -49 20t-20 50q0 34 27 60.5t62 26.5q29 0 49 -20t20 -50zM343 623q0 -34 -27 -60.5t-62 -26.5q-30 0 -50 20t-20 50q0 34 27 60.5t62 26.5q30 0 50 -20t20 -50zM278 -12q-117 0 -187 58t-70 161q0 119 80.5 203.5t202.5 84.5
q95 0 158.5 -58t63.5 -160q0 -41 -10 -84h-342v-6q0 -24 31.5 -52t84.5 -28q72 0 113 30l47 -102q-69 -47 -172 -47zM189 293h200q1 1 1 7q0 28 -23.5 52t-69.5 24q-41 0 -71 -26t-37 -57z" />
    <glyph glyph-name="igrave" unicode="&#xec;" horiz-adv-x="266" 
d="M156 0h-154l107 483h154zM270 556h-104l-127 144h136z" />
    <glyph glyph-name="iacute" unicode="&#xed;" horiz-adv-x="266" 
d="M429 700l-191 -144h-106l159 144h138zM156 0h-154l107 483h154z" />
    <glyph glyph-name="icircumflex" unicode="&#xee;" horiz-adv-x="266" 
d="M361 556h-90l-51 81l-84 -81h-93l122 144h135zM156 0h-154l107 483h154z" />
    <glyph glyph-name="idieresis" unicode="&#xef;" horiz-adv-x="266" 
d="M401 623q0 -34 -27 -60.5t-62 -26.5q-29 0 -49 20t-20 50q0 34 27 60.5t62 26.5q29 0 49 -20t20 -50zM188 623q0 -34 -27 -60.5t-62 -26.5q-30 0 -50 20t-20 50q0 34 27 60.5t62 26.5q30 0 50 -20t20 -50zM156 0h-154l107 483h154z" />
    <glyph glyph-name="eth" unicode="&#xf0;" horiz-adv-x="576" 
d="M141 471l-16 69l117 34q-5 5 -47 38l107 111q64 -49 111 -99l107 32l17 -67l-74 -22q98 -124 98 -260q0 -134 -78.5 -226.5t-210.5 -92.5q-115 0 -185 57.5t-70 154.5q0 105 69 177.5t171 72.5q119 0 163 -109q-12 77 -117 178zM275 124q50 0 82 31t32 79q0 35 -27.5 58
t-75.5 23q-49 0 -80 -31.5t-31 -77.5q0 -39 26 -60.5t74 -21.5z" />
    <glyph glyph-name="ntilde" unicode="&#xf1;" horiz-adv-x="593" 
d="M483 0h-154l60 271q5 23 5 35q0 27 -19 40t-47 13q-56 0 -103 -47l-69 -312h-154l107 483h154l-14 -59q77 71 157 71q72 0 113.5 -34.5t41.5 -90.5q0 -15 -5 -40zM436 554q-38 0 -71 27.5t-51 27.5q-26 0 -36 -49h-79q13 69 41.5 101.5t82.5 32.5q30 0 51.5 -14t38 -27.5
t32.5 -13.5q25 0 37 49h79q-15 -69 -43.5 -101.5t-81.5 -32.5z" />
    <glyph glyph-name="ograve" unicode="&#xf2;" horiz-adv-x="576" 
d="M269 -12q-118 0 -183.5 62.5t-65.5 159.5q0 115 81 200t203 85q118 0 183.5 -62.5t65.5 -160.5q0 -115 -81 -199.5t-203 -84.5zM275 124q52 0 86.5 42t34.5 99q0 44 -26 69t-71 25q-53 0 -87 -42t-34 -99q0 -44 26 -69t71 -25zM426 556h-104l-127 144h136z" />
    <glyph glyph-name="oacute" unicode="&#xf3;" horiz-adv-x="576" 
d="M584 700l-191 -144h-106l159 144h138zM269 -12q-118 0 -183.5 62.5t-65.5 159.5q0 115 81 200t203 85q118 0 183.5 -62.5t65.5 -160.5q0 -115 -81 -199.5t-203 -84.5zM275 124q52 0 86.5 42t34.5 99q0 44 -26 69t-71 25q-53 0 -87 -42t-34 -99q0 -44 26 -69t71 -25z" />
    <glyph glyph-name="ocircumflex" unicode="&#xf4;" horiz-adv-x="576" 
d="M516 556h-90l-51 81l-84 -81h-93l122 144h135zM269 -12q-118 0 -183.5 62.5t-65.5 159.5q0 115 81 200t203 85q118 0 183.5 -62.5t65.5 -160.5q0 -115 -81 -199.5t-203 -84.5zM275 124q52 0 86.5 42t34.5 99q0 44 -26 69t-71 25q-53 0 -87 -42t-34 -99q0 -44 26 -69
t71 -25z" />
    <glyph glyph-name="otilde" unicode="&#xf5;" horiz-adv-x="576" 
d="M269 -12q-118 0 -183.5 62.5t-65.5 159.5q0 115 81 200t203 85q118 0 183.5 -62.5t65.5 -160.5q0 -115 -81 -199.5t-203 -84.5zM275 124q52 0 86.5 42t34.5 99q0 44 -26 69t-71 25q-53 0 -87 -42t-34 -99q0 -44 26 -69t71 -25zM429 554q-38 0 -71 27.5t-51 27.5
q-26 0 -36 -49h-79q13 69 41.5 101.5t82.5 32.5q30 0 51.5 -14t38 -27.5t32.5 -13.5q25 0 37 49h79q-15 -69 -43.5 -101.5t-81.5 -32.5z" />
    <glyph glyph-name="odieresis" unicode="&#xf6;" horiz-adv-x="576" 
d="M555 623q0 -34 -27 -60.5t-62 -26.5q-29 0 -49 20t-20 50q0 34 27 60.5t62 26.5q29 0 49 -20t20 -50zM342 623q0 -34 -27 -60.5t-62 -26.5q-30 0 -50 20t-20 50q0 34 27 60.5t62 26.5q30 0 50 -20t20 -50zM269 -12q-118 0 -183.5 62.5t-65.5 159.5q0 115 81 200t203 85
q118 0 183.5 -62.5t65.5 -160.5q0 -115 -81 -199.5t-203 -84.5zM275 124q52 0 86.5 42t34.5 99q0 44 -26 69t-71 25q-53 0 -87 -42t-34 -99q0 -44 26 -69t71 -25z" />
    <glyph glyph-name="divide" unicode="&#xf7;" horiz-adv-x="511" 
d="M492 291h-453l21 92h453zM230 95q-25 0 -43.5 18.5t-18.5 44.5q0 30 22 52t53 22q25 0 43.5 -18.5t18.5 -44.5q0 -30 -22.5 -52t-52.5 -22zM307 441q-25 0 -43.5 18.5t-18.5 44.5q0 30 22 52t53 22q25 0 43.5 -18.5t18.5 -44.5q0 -30 -22.5 -52t-52.5 -22z" />
    <glyph glyph-name="oslash" unicode="&#xf8;" horiz-adv-x="576" 
d="M67 0h-95l87 80q-39 54 -39 130q0 115 81 200t203 85q98 0 162 -45l37 33h98l-88 -80q40 -53 40 -131q0 -115 -81 -199.5t-203 -84.5q-99 0 -164 46zM275 124q52 0 86.5 42t34.5 99q0 17 -4 29l-173 -157q22 -13 56 -13zM178 218q0 -14 3 -28l172 156q-24 13 -54 13
q-53 0 -87 -42t-34 -99z" />
    <glyph glyph-name="ugrave" unicode="&#xf9;" horiz-adv-x="592" 
d="M109 483h153l-61 -279q-4 -18 -4 -26q0 -54 71 -54q49 0 99 48l68 311h154l-107 -483h-154l14 59q-77 -71 -157 -71q-72 0 -113.5 34.5t-41.5 90.5q0 15 5 40zM432 556h-104l-127 144h136z" />
    <glyph glyph-name="uacute" unicode="&#xfa;" horiz-adv-x="592" 
d="M593 700l-191 -144h-106l159 144h138zM109 483h153l-61 -279q-4 -18 -4 -26q0 -54 71 -54q49 0 99 48l68 311h154l-107 -483h-154l14 59q-77 -71 -157 -71q-72 0 -113.5 34.5t-41.5 90.5q0 15 5 40z" />
    <glyph glyph-name="ucircumflex" unicode="&#xfb;" horiz-adv-x="592" 
d="M523 556h-90l-51 81l-84 -81h-93l122 144h135zM109 483h153l-61 -279q-4 -18 -4 -26q0 -54 71 -54q49 0 99 48l68 311h154l-107 -483h-154l14 59q-77 -71 -157 -71q-72 0 -113.5 34.5t-41.5 90.5q0 15 5 40z" />
    <glyph glyph-name="udieresis" unicode="&#xfc;" horiz-adv-x="592" 
d="M564 623q0 -34 -27 -60.5t-62 -26.5q-29 0 -49 20t-20 50q0 34 27 60.5t62 26.5q29 0 49 -20t20 -50zM351 623q0 -34 -27 -60.5t-62 -26.5q-30 0 -50 20t-20 50q0 34 27 60.5t62 26.5q30 0 50 -20t20 -50zM109 483h153l-61 -279q-4 -18 -4 -26q0 -54 71 -54q49 0 99 48
l68 311h154l-107 -483h-154l14 59q-77 -71 -157 -71q-72 0 -113.5 34.5t-41.5 90.5q0 15 5 40z" />
    <glyph glyph-name="yacute" unicode="&#xfd;" horiz-adv-x="524" 
d="M-48 -184l49 132q17 -7 50 -7q37 0 55 26l19 31l-82 485h158l40 -306l179 306h167l-341 -552q-43 -70 -90 -98.5t-115 -28.5q-51 0 -89 12zM553 700l-191 -144h-106l159 144h138z" />
    <glyph glyph-name="thorn" unicode="&#xfe;" 
d="M315 -12q-98 0 -147 69l-53 -241h-154l188 851h154l-53 -240q60 68 138 68q83 0 132.5 -53t49.5 -148q0 -73 -27.5 -141t-87.5 -116.5t-140 -48.5zM289 124q52 0 87 40.5t35 97.5q0 43 -27 70t-67 27q-50 0 -92 -45l-32 -146q34 -44 96 -44z" />
    <glyph glyph-name="ydieresis" unicode="&#xff;" horiz-adv-x="524" 
d="M-48 -184l49 132q17 -7 50 -7q37 0 55 26l19 31l-82 485h158l40 -306l179 306h167l-341 -552q-43 -70 -90 -98.5t-115 -28.5q-51 0 -89 12zM525 623q0 -34 -27 -60.5t-62 -26.5q-29 0 -49 20t-20 50q0 34 27 60.5t62 26.5q29 0 49 -20t20 -50zM312 623q0 -34 -27 -60.5
t-62 -26.5q-30 0 -50 20t-20 50q0 34 27 60.5t62 26.5q30 0 50 -20t20 -50z" />
    <glyph glyph-name="Amacron" unicode="&#x100;" horiz-adv-x="697" 
d="M654 0h-187l-12 96h-263l-53 -96h-204l398 667h216zM442 246l-30 251l-140 -251h170zM638 723h-362l19 85h362z" />
    <glyph glyph-name="amacron" unicode="&#x101;" horiz-adv-x="591" 
d="M274 495q99 0 147 -69l13 57h153l-107 -483h-153l12 56q-59 -68 -138 -68q-83 0 -132 52.5t-49 147.5q0 73 27.5 141.5t87 117t139.5 48.5zM301 359q-53 0 -87.5 -40.5t-34.5 -98.5q0 -43 27 -69.5t67 -26.5q53 0 91 45l33 146q-34 44 -96 44zM541 556h-362l19 85h362z
" />
    <glyph glyph-name="Abreve" unicode="&#x102;" horiz-adv-x="697" 
d="M654 0h-187l-12 96h-263l-53 -96h-204l398 667h216zM442 246l-30 251l-140 -251h170zM640 783q-85 -88 -194 -88q-53 0 -94 23.5t-63 64.5l75 54q29 -58 97 -58q69 0 122 58z" />
    <glyph glyph-name="abreve" unicode="&#x103;" horiz-adv-x="591" 
d="M274 495q99 0 147 -69l13 57h153l-107 -483h-153l12 56q-59 -68 -138 -68q-83 0 -132 52.5t-49 147.5q0 73 27.5 141.5t87 117t139.5 48.5zM301 359q-53 0 -87.5 -40.5t-34.5 -98.5q0 -43 27 -69.5t67 -26.5q53 0 91 45l33 146q-34 44 -96 44zM545 616q-85 -88 -194 -88
q-53 0 -94 23.5t-63 64.5l75 54q29 -58 97 -58q69 0 122 58z" />
    <glyph glyph-name="Aogonek" unicode="&#x104;" horiz-adv-x="697" 
d="M638 -95l49 -43q-40 -48 -96 -48q-42 0 -70.5 20.5t-28.5 58.5q0 63 54 107h-79l-12 96h-263l-53 -96h-204l398 667h216l105 -667q-90 -40 -90 -96q0 -13 8.5 -21t22.5 -8q25 0 43 30zM442 246l-30 251l-140 -251h170z" />
    <glyph glyph-name="aogonek" unicode="&#x105;" horiz-adv-x="591" 
d="M464 -95l49 -43q-40 -48 -96 -48q-42 0 -70.5 20.5t-28.5 58.5q0 63 54 107h-45l12 56q-59 -68 -138 -68q-83 0 -132 52.5t-49 147.5q0 73 27.5 141.5t87 117t139.5 48.5q99 0 147 -69l13 57h153l-107 -483q-90 -40 -90 -96q0 -13 8.5 -21t22.5 -8q25 0 43 30zM301 359
q-53 0 -87.5 -40.5t-34.5 -98.5q0 -43 27 -69.5t67 -26.5q53 0 91 45l33 146q-34 44 -96 44z" />
    <glyph glyph-name="Cacute" unicode="&#x106;" horiz-adv-x="692" 
d="M719 872l-191 -144h-106l159 144h138zM374 -12q-145 0 -241.5 83.5t-96.5 219.5q0 171 114.5 279t279.5 108q125 0 202 -58.5t107 -146.5l-166 -54q-14 50 -54.5 78.5t-96.5 28.5q-87 0 -147 -65.5t-60 -158.5q0 -69 46.5 -115.5t122.5 -46.5q41 0 82 21.5t63 55.5
l134 -88q-55 -75 -133 -108t-156 -33z" />
    <glyph glyph-name="cacute" unicode="&#x107;" horiz-adv-x="500" 
d="M590 700l-191 -144h-106l159 144h138zM267 -12q-112 0 -179 61.5t-67 160.5q0 120 82.5 202.5t203.5 82.5q146 0 205 -98l-115 -87q-30 49 -91 49q-56 0 -92.5 -40.5t-36.5 -99.5q0 -44 30 -69.5t75 -25.5q53 0 91 43l83 -101q-30 -32 -79 -55t-110 -23z" />
    <glyph glyph-name="Ccircumflex" unicode="&#x108;" horiz-adv-x="692" 
d="M648 723h-90l-51 81l-84 -81h-93l122 144h135zM374 -12q-145 0 -241.5 83.5t-96.5 219.5q0 171 114.5 279t279.5 108q125 0 202 -58.5t107 -146.5l-166 -54q-14 50 -54.5 78.5t-96.5 28.5q-87 0 -147 -65.5t-60 -158.5q0 -69 46.5 -115.5t122.5 -46.5q41 0 82 21.5
t63 55.5l134 -88q-55 -75 -133 -108t-156 -33z" />
    <glyph glyph-name="ccircumflex" unicode="&#x109;" horiz-adv-x="500" 
d="M522 556h-90l-51 81l-84 -81h-93l122 144h135zM267 -12q-112 0 -179 61.5t-67 160.5q0 120 82.5 202.5t203.5 82.5q146 0 205 -98l-115 -87q-30 49 -91 49q-56 0 -92.5 -40.5t-36.5 -99.5q0 -44 30 -69.5t75 -25.5q53 0 91 43l83 -101q-30 -32 -79 -55t-110 -23z" />
    <glyph glyph-name="Cdotaccent" unicode="&#x10a;" horiz-adv-x="692" 
d="M374 -12q-145 0 -241.5 83.5t-96.5 219.5q0 171 114.5 279t279.5 108q125 0 202 -58.5t107 -146.5l-166 -54q-14 50 -54.5 78.5t-96.5 28.5q-87 0 -147 -65.5t-60 -158.5q0 -69 46.5 -115.5t122.5 -46.5q41 0 82 21.5t63 55.5l134 -88q-55 -75 -133 -108t-156 -33z
M582 790q0 -34 -27 -60.5t-62 -26.5q-30 0 -50 20t-20 50q0 34 27 60.5t62 26.5q30 0 50 -20t20 -50z" />
    <glyph glyph-name="cdotaccent" unicode="&#x10b;" horiz-adv-x="500" 
d="M267 -12q-112 0 -179 61.5t-67 160.5q0 120 82.5 202.5t203.5 82.5q146 0 205 -98l-115 -87q-30 49 -91 49q-56 0 -92.5 -40.5t-36.5 -99.5q0 -44 30 -69.5t75 -25.5q53 0 91 43l83 -101q-30 -32 -79 -55t-110 -23zM456 623q0 -34 -27 -60.5t-62 -26.5q-30 0 -50 20
t-20 50q0 34 27 60.5t62 26.5q30 0 50 -20t20 -50z" />
    <glyph glyph-name="Ccaron" unicode="&#x10c;" horiz-adv-x="692" 
d="M559 723h-135l-61 144h89l51 -81l84 81h94zM374 -12q-145 0 -241.5 83.5t-96.5 219.5q0 171 114.5 279t279.5 108q125 0 202 -58.5t107 -146.5l-166 -54q-14 50 -54.5 78.5t-96.5 28.5q-87 0 -147 -65.5t-60 -158.5q0 -69 46.5 -115.5t122.5 -46.5q41 0 82 21.5t63 55.5
l134 -88q-55 -75 -133 -108t-156 -33z" />
    <glyph glyph-name="ccaron" unicode="&#x10d;" horiz-adv-x="500" 
d="M433 556h-135l-61 144h89l51 -81l84 81h94zM267 -12q-112 0 -179 61.5t-67 160.5q0 120 82.5 202.5t203.5 82.5q146 0 205 -98l-115 -87q-30 49 -91 49q-56 0 -92.5 -40.5t-36.5 -99.5q0 -44 30 -69.5t75 -25.5q53 0 91 43l83 -101q-30 -32 -79 -55t-110 -23z" />
    <glyph glyph-name="Dcaron" unicode="&#x10e;" horiz-adv-x="727" 
d="M543 723h-135l-61 144h89l51 -81l84 81h94zM285 0h-279l147 667h275q117 0 206.5 -81t89.5 -206q0 -54 -14 -105.5t-47 -102t-82 -88.5t-125.5 -61t-170.5 -23zM312 150h5q104 0 166.5 63t62.5 155q0 63 -42 106t-107 43h-105l-81 -367h101z" />
    <glyph glyph-name="dcaron" unicode="&#x10f;" horiz-adv-x="713" 
d="M796 608q0 -48 -35.5 -96t-89.5 -74l-41 41q63 29 82 67q-2 -1 -9 -1q-23 0 -38.5 15.5t-15.5 42.5q0 30 24.5 53t54.5 23q28 0 48 -19t20 -52zM274 495q99 0 147 -69l54 241h153l-148 -667h-153l12 56q-59 -68 -138 -68q-83 0 -132 52.5t-49 147.5q0 73 27.5 141.5
t87 117t139.5 48.5zM301 359q-53 0 -87.5 -40.5t-34.5 -98.5q0 -43 27 -69.5t67 -26.5q53 0 91 45l33 146q-34 44 -96 44z" />
    <glyph glyph-name="Dcroat" unicode="&#x110;" horiz-adv-x="750" 
d="M308 0h-279l58 265h-75l30 137h75l59 265h275q117 0 206.5 -81t89.5 -206q0 -54 -14 -105.5t-47 -102t-82 -88.5t-125.5 -61t-170.5 -23zM343 150q103 1 164.5 64t61.5 154q0 63 -42 106t-107 43h-105l-26 -115h139l-30 -137h-139l-25 -115h109z" />
    <glyph glyph-name="dcroat" unicode="&#x111;" horiz-adv-x="596" 
d="M274 495q99 0 147 -69l22 98h-142l18 85h143l13 58h153l-13 -58h50l-18 -85h-51l-116 -524h-153l12 56q-59 -68 -138 -68q-83 0 -132 52.5t-49 147.5q0 73 27.5 141.5t87 117t139.5 48.5zM301 359q-53 0 -87.5 -40.5t-34.5 -98.5q0 -43 27 -69.5t67 -26.5q53 0 91 45
l33 146q-34 44 -96 44z" />
    <glyph glyph-name="Emacron" unicode="&#x112;" 
d="M495 0h-489l147 667h489l-34 -150h-316l-23 -104h310l-33 -150h-310l-25 -113h317zM591 723h-362l19 85h362z" />
    <glyph glyph-name="emacron" unicode="&#x113;" horiz-adv-x="548" 
d="M278 -12q-117 0 -187 58t-70 161q0 119 80.5 203.5t202.5 84.5q95 0 158.5 -58t63.5 -160q0 -41 -10 -84h-342v-6q0 -24 31.5 -52t84.5 -28q72 0 113 30l47 -102q-69 -47 -172 -47zM189 293h200q1 1 1 7q0 28 -23.5 52t-69.5 24q-41 0 -71 -26t-37 -57zM538 556h-362
l19 85h362z" />
    <glyph glyph-name="Ebreve" unicode="&#x114;" 
d="M495 0h-489l147 667h489l-34 -150h-316l-23 -104h310l-33 -150h-310l-25 -113h317zM596 783q-85 -88 -194 -88q-53 0 -94 23.5t-63 64.5l75 54q29 -58 97 -58q69 0 122 58z" />
    <glyph glyph-name="ebreve" unicode="&#x115;" horiz-adv-x="548" 
d="M278 -12q-117 0 -187 58t-70 161q0 119 80.5 203.5t202.5 84.5q95 0 158.5 -58t63.5 -160q0 -41 -10 -84h-342v-6q0 -24 31.5 -52t84.5 -28q72 0 113 30l47 -102q-69 -47 -172 -47zM189 293h200q1 1 1 7q0 28 -23.5 52t-69.5 24q-41 0 -71 -26t-37 -57zM543 616
q-85 -88 -194 -88q-53 0 -94 23.5t-63 64.5l75 54q29 -58 97 -58q69 0 122 58z" />
    <glyph glyph-name="Edotaccent" unicode="&#x116;" 
d="M495 0h-489l147 667h489l-34 -150h-316l-23 -104h310l-33 -150h-310l-25 -113h317zM504 797q0 -34 -27 -60.5t-62 -26.5q-30 0 -50 20t-20 50q0 34 27 60.5t62 26.5q30 0 50 -20t20 -50z" />
    <glyph glyph-name="edotaccent" unicode="&#x117;" horiz-adv-x="548" 
d="M278 -12q-117 0 -187 58t-70 161q0 119 80.5 203.5t202.5 84.5q95 0 158.5 -58t63.5 -160q0 -41 -10 -84h-342v-6q0 -24 31.5 -52t84.5 -28q72 0 113 30l47 -102q-69 -47 -172 -47zM189 293h200q1 1 1 7q0 28 -23.5 52t-69.5 24q-41 0 -71 -26t-37 -57zM451 623
q0 -34 -27 -60.5t-62 -26.5q-30 0 -50 20t-20 50q0 34 27 60.5t62 26.5q30 0 50 -20t20 -50z" />
    <glyph glyph-name="Eogonek" unicode="&#x118;" 
d="M495 0q-90 -40 -90 -96q0 -13 8.5 -21t22.5 -8q25 0 43 30l49 -43q-40 -48 -96 -48q-42 0 -70.5 20.5t-28.5 58.5q0 63 54 107h-381l147 667h489l-34 -150h-316l-23 -104h310l-33 -150h-310l-25 -113h317z" />
    <glyph glyph-name="eogonek" unicode="&#x119;" horiz-adv-x="548" 
d="M354 -95l49 -43q-40 -48 -96 -48q-42 0 -70.5 20.5t-28.5 58.5q0 53 42 96q-105 7 -167 64t-62 154q0 119 80.5 203.5t202.5 84.5q95 0 158.5 -58t63.5 -160q0 -41 -10 -84h-342v-6q0 -24 31.5 -52t84.5 -28q72 0 113 30l47 -102q-31 -21 -80 -35q-90 -40 -90 -96
q0 -13 8.5 -21t22.5 -8q25 0 43 30zM189 293h200q1 1 1 7q0 28 -23.5 52t-69.5 24q-41 0 -71 -26t-37 -57z" />
    <glyph glyph-name="Ecaron" unicode="&#x11a;" 
d="M480 723h-135l-61 144h89l51 -81l84 81h94zM495 0h-489l147 667h489l-34 -150h-316l-23 -104h310l-33 -150h-310l-25 -113h317z" />
    <glyph glyph-name="ecaron" unicode="&#x11b;" horiz-adv-x="548" 
d="M426 556h-135l-61 144h89l51 -81l84 81h94zM278 -12q-117 0 -187 58t-70 161q0 119 80.5 203.5t202.5 84.5q95 0 158.5 -58t63.5 -160q0 -41 -10 -84h-342v-6q0 -24 31.5 -52t84.5 -28q72 0 113 30l47 -102q-69 -47 -172 -47zM189 293h200q1 1 1 7q0 28 -23.5 52
t-69.5 24q-41 0 -71 -26t-37 -57z" />
    <glyph glyph-name="Gcircumflex" unicode="&#x11c;" horiz-adv-x="723" 
d="M657 723h-90l-51 81l-84 -81h-93l122 144h135zM374 -12q-143 0 -240.5 82.5t-97.5 220.5q0 167 115.5 277t295.5 110q105 0 177.5 -51t103.5 -124l-158 -66q-13 37 -54.5 63t-93.5 26q-85 0 -146 -65t-61 -159q0 -68 45.5 -115t123.5 -47q60 0 112 40l11 53h-150l34 150
h321l-59 -266q-49 -61 -121 -95t-158 -34z" />
    <glyph glyph-name="gcircumflex" unicode="&#x11d;" horiz-adv-x="590" 
d="M513 547h-90l-51 81l-84 -81h-93l122 144h135zM212 -196q-157 0 -242 85l87 102q22 -29 64.5 -45t87.5 -16q100 0 126 113l8 35q-57 -70 -140 -70q-79 0 -131 48t-52 147q0 115 69 203.5t182 88.5q41 0 81.5 -18.5t66.5 -50.5l14 57h153l-98 -440q-15 -70 -45.5 -119.5
t-70.5 -74t-78.5 -35t-81.5 -10.5zM276 144q51 0 91 45l27 121q-32 49 -102 49q-49 0 -81 -35t-32 -91q0 -39 27 -64t70 -25z" />
    <glyph glyph-name="Gbreve" unicode="&#x11e;" horiz-adv-x="723" 
d="M374 -12q-143 0 -240.5 82.5t-97.5 220.5q0 167 115.5 277t295.5 110q105 0 177.5 -51t103.5 -124l-158 -66q-13 37 -54.5 63t-93.5 26q-85 0 -146 -65t-61 -159q0 -68 45.5 -115t123.5 -47q60 0 112 40l11 53h-150l34 150h321l-59 -266q-49 -61 -121 -95t-158 -34z
M684 783q-85 -88 -194 -88q-53 0 -94 23.5t-63 64.5l75 54q29 -58 97 -58q69 0 122 58z" />
    <glyph glyph-name="gbreve" unicode="&#x11f;" horiz-adv-x="590" 
d="M212 -196q-157 0 -242 85l87 102q22 -29 64.5 -45t87.5 -16q100 0 126 113l8 35q-57 -70 -140 -70q-79 0 -131 48t-52 147q0 115 69 203.5t182 88.5q41 0 81.5 -18.5t66.5 -50.5l14 57h153l-98 -440q-15 -70 -45.5 -119.5t-70.5 -74t-78.5 -35t-81.5 -10.5zM276 144
q51 0 91 45l27 121q-32 49 -102 49q-49 0 -81 -35t-32 -91q0 -39 27 -64t70 -25zM541 616q-85 -88 -194 -88q-53 0 -94 23.5t-63 64.5l75 54q29 -58 97 -58q69 0 122 58z" />
    <glyph glyph-name="Gdotaccent" unicode="&#x120;" horiz-adv-x="723" 
d="M374 -12q-143 0 -240.5 82.5t-97.5 220.5q0 167 115.5 277t295.5 110q105 0 177.5 -51t103.5 -124l-158 -66q-13 37 -54.5 63t-93.5 26q-85 0 -146 -65t-61 -159q0 -68 45.5 -115t123.5 -47q60 0 112 40l11 53h-150l34 150h321l-59 -266q-49 -61 -121 -95t-158 -34z
M590 790q0 -34 -27 -60.5t-62 -26.5q-30 0 -50 20t-20 50q0 34 27 60.5t62 26.5q30 0 50 -20t20 -50z" />
    <glyph glyph-name="gdotaccent" unicode="&#x121;" horiz-adv-x="590" 
d="M212 -196q-157 0 -242 85l87 102q22 -29 64.5 -45t87.5 -16q100 0 126 113l8 35q-57 -70 -140 -70q-79 0 -131 48t-52 147q0 115 69 203.5t182 88.5q41 0 81.5 -18.5t66.5 -50.5l14 57h153l-98 -440q-15 -70 -45.5 -119.5t-70.5 -74t-78.5 -35t-81.5 -10.5zM276 144
q51 0 91 45l27 121q-32 49 -102 49q-49 0 -81 -35t-32 -91q0 -39 27 -64t70 -25zM448 623q0 -34 -27 -60.5t-62 -26.5q-30 0 -50 20t-20 50q0 34 27 60.5t62 26.5q30 0 50 -20t20 -50z" />
    <glyph glyph-name="Gcommaaccent" unicode="&#x122;" horiz-adv-x="723" 
d="M381 -120q0 -48 -35.5 -96t-89.5 -74l-41 41q63 29 82 67q-2 -1 -9 -1q-23 0 -38.5 15.5t-15.5 42.5q0 30 24.5 53t54.5 23q28 0 48 -19t20 -52zM374 -12q-143 0 -240.5 82.5t-97.5 220.5q0 167 115.5 277t295.5 110q105 0 177.5 -51t103.5 -124l-158 -66
q-13 37 -54.5 63t-93.5 26q-85 0 -146 -65t-61 -159q0 -68 45.5 -115t123.5 -47q60 0 112 40l11 53h-150l34 150h321l-59 -266q-49 -61 -121 -95t-158 -34z" />
    <glyph glyph-name="gcommaaccent" unicode="&#x123;" horiz-adv-x="590" 
d="M295 609q0 49 36.5 98t91.5 75l41 -43q-63 -26 -84 -67h9q24 0 40 -15t16 -43q0 -32 -24.5 -55t-55.5 -23q-29 0 -49.5 19.5t-20.5 53.5zM212 -196q-157 0 -242 85l87 102q22 -29 64.5 -45t87.5 -16q100 0 126 113l8 35q-57 -70 -140 -70q-79 0 -131 48t-52 147
q0 115 69 203.5t182 88.5q41 0 81.5 -18.5t66.5 -50.5l14 57h153l-98 -440q-15 -70 -45.5 -119.5t-70.5 -74t-78.5 -35t-81.5 -10.5zM276 144q51 0 91 45l27 121q-32 49 -102 49q-49 0 -81 -35t-32 -91q0 -39 27 -64t70 -25z" />
    <glyph glyph-name="Hcircumflex" unicode="&#x124;" horiz-adv-x="741" 
d="M635 723h-90l-51 81l-84 -81h-93l122 144h135zM627 0h-172l59 268h-277l-59 -268h-172l147 667h172l-55 -249h277l55 249h172z" />
    <glyph glyph-name="hcircumflex" unicode="&#x125;" horiz-adv-x="594" 
d="M563 723h-90l-51 81l-84 -81h-93l122 144h135zM484 0h-154l59 274q5 23 5 32q0 53 -73 53q-49 0 -96 -47l-68 -312h-154l147 667h154l-55 -243q77 71 157 71q72 0 113.5 -34.5t41.5 -90.5q0 -15 -5 -40z" />
    <glyph glyph-name="Hbar" unicode="&#x126;" horiz-adv-x="748" 
d="M630 0h-172l59 268h-277l-59 -268h-172l110 501h-59l19 85h59l18 81h172l-18 -81h277l18 81h172l-18 -81h59l-19 -85h-59zM273 418h277l18 83h-277z" />
    <glyph glyph-name="hbar" unicode="&#x127;" horiz-adv-x="597" 
d="M487 0h-154l59 274q5 23 5 32q0 53 -73 53q-49 0 -96 -47l-68 -312h-154l115 525h-52l19 84h52l13 58h154l-13 -58h140l-19 -84h-140l-23 -101q77 71 157 71q72 0 113.5 -34.5t41.5 -90.5q0 -15 -5 -40z" />
    <glyph glyph-name="Itilde" unicode="&#x128;" horiz-adv-x="292" 
d="M178 0h-172l147 667h172zM323 721q-38 0 -71 27.5t-51 27.5q-26 0 -36 -49h-79q13 69 41.5 101.5t82.5 32.5q23 0 42 -8.5t29.5 -19t24 -19t26.5 -8.5q25 0 37 49h79q-15 -69 -43.5 -101.5t-81.5 -32.5z" />
    <glyph glyph-name="itilde" unicode="&#x129;" horiz-adv-x="266" 
d="M156 0h-154l107 483h154zM274 554q-38 0 -71 27.5t-51 27.5q-26 0 -36 -49h-79q13 69 41.5 101.5t82.5 32.5q30 0 51.5 -14t38 -27.5t32.5 -13.5q25 0 37 49h79q-15 -69 -43.5 -101.5t-81.5 -32.5z" />
    <glyph glyph-name="Imacron" unicode="&#x12a;" horiz-adv-x="292" 
d="M178 0h-172l147 667h172zM433 723h-362l19 85h362z" />
    <glyph glyph-name="imacron" unicode="&#x12b;" horiz-adv-x="266" 
d="M156 0h-154l107 483h154zM383 556h-362l19 85h362z" />
    <glyph glyph-name="Ibreve" unicode="&#x12c;" horiz-adv-x="292" 
d="M178 0h-172l147 667h172zM437 783q-85 -88 -194 -88q-53 0 -94 23.5t-63 64.5l75 54q29 -58 97 -58q69 0 122 58z" />
    <glyph glyph-name="ibreve" unicode="&#x12d;" horiz-adv-x="266" 
d="M156 0h-154l107 483h154zM389 616q-85 -88 -194 -88q-53 0 -94 23.5t-63 64.5l75 54q29 -58 97 -58q69 0 122 58z" />
    <glyph glyph-name="Iogonek" unicode="&#x12e;" horiz-adv-x="292" 
d="M163 -95l49 -43q-40 -48 -96 -48q-42 0 -70.5 20.5t-28.5 58.5q0 63 54 107h-65l147 667h172l-147 -667h1q-90 -40 -90 -96q0 -13 8.5 -21t22.5 -8q25 0 43 30z" />
    <glyph glyph-name="iogonek" unicode="&#x12f;" horiz-adv-x="266" 
d="M140 -95l49 -43q-40 -48 -96 -48q-42 0 -70.5 20.5t-28.5 58.5q0 63 54 107h-46l107 483h154l-107 -483q-90 -40 -90 -96q0 -13 8.5 -21t22.5 -8q25 0 43 30zM205 526q-35 0 -57.5 22.5t-22.5 53.5q0 46 31.5 73.5t68.5 27.5q34 0 56.5 -22t22.5 -53q0 -46 -31 -74
t-68 -28z" />
    <glyph glyph-name="Idotaccent" unicode="&#x130;" horiz-adv-x="292" 
d="M178 0h-172l147 667h172zM344 790q0 -34 -27 -60.5t-62 -26.5q-30 0 -50 20t-20 50q0 34 27 60.5t62 26.5q30 0 50 -20t20 -50z" />
    <glyph glyph-name="dotlessi" unicode="&#x131;" horiz-adv-x="266" 
d="M156 0h-154l107 483h154z" />
    <glyph glyph-name="IJ" unicode="&#x132;" horiz-adv-x="784" 
d="M178 0h-172l147 667h172zM460 -12q-133 0 -201 71l91 129q36 -48 97 -48q83 0 102 91l96 436h172l-97 -438q-27 -125 -89 -183t-171 -58z" />
    <glyph glyph-name="ij" unicode="&#x133;" horiz-adv-x="533" 
d="M205 526q-35 0 -57.5 22.5t-22.5 53.5q0 46 31.5 73.5t68.5 27.5q34 0 56.5 -22t22.5 -53q0 -46 -31 -74t-68 -28zM156 0h-154l107 483h154zM220 -196q-98 0 -144 40l62 110q21 -24 59 -24q54 0 71 74l107 479h154l-107 -479q-43 -200 -202 -200zM471 526
q-35 0 -57.5 22.5t-22.5 53.5q0 46 31.5 73.5t68.5 27.5q34 0 56.5 -22t22.5 -53q0 -46 -31 -74t-68 -28z" />
    <glyph glyph-name="Jcircumflex" unicode="&#x134;" horiz-adv-x="492" 
d="M610 723h-90l-51 81l-84 -81h-93l122 144h135zM168 -12q-133 0 -201 71l91 129q36 -48 97 -48q83 0 102 91l96 436h172l-97 -438q-27 -125 -89 -183t-171 -58z" />
    <glyph glyph-name="jcircumflex" unicode="&#x135;" horiz-adv-x="266" 
d="M362 556h-90l-51 81l-84 -81h-93l122 144h135zM-46 -196q-98 0 -144 40l62 110q21 -24 59 -24q54 0 71 74l107 479h154l-107 -479q-43 -200 -202 -200z" />
    <glyph glyph-name="Kcommaaccent" unicode="&#x136;" horiz-adv-x="654" 
d="M330 -120q0 -48 -35.5 -96t-89.5 -74l-41 41q63 29 82 67q-2 -1 -9 -1q-23 0 -38.5 15.5t-15.5 42.5q0 30 24.5 53t54.5 23q28 0 48 -19t20 -52zM609 0h-202l-124 257l-62 -62l-43 -195h-172l147 667h172l-57 -261l253 261h221l-327 -312z" />
    <glyph glyph-name="kcommaaccent" unicode="&#x137;" horiz-adv-x="546" 
d="M272 -120q0 -48 -35.5 -96t-89.5 -74l-41 41q63 29 82 67q-2 -1 -9 -1q-23 0 -38.5 15.5t-15.5 42.5q0 30 24.5 53t54.5 23q28 0 48 -19t20 -52zM498 0h-185l-70 174l-62 -58l-25 -116h-154l147 667h154l-82 -369l183 185h192l-227 -220z" />
    <glyph glyph-name="kgreenlandic" unicode="&#x138;" horiz-adv-x="546" 
d="M498 0h-185l-70 174l-62 -58l-25 -116h-154l107 483h154l-42 -185l183 185h192l-227 -220z" />
    <glyph glyph-name="Lacute" unicode="&#x139;" horiz-adv-x="529" 
d="M613 867l-191 -144h-106l159 144h138zM446 0h-440l147 667h172l-114 -517h268z" />
    <glyph glyph-name="lacute" unicode="&#x13a;" horiz-adv-x="266" 
d="M467 867l-191 -144h-106l159 144h138zM156 0h-154l147 667h154z" />
    <glyph glyph-name="Lcommaaccent" unicode="&#x13b;" horiz-adv-x="529" 
d="M269 -120q0 -48 -35.5 -96t-89.5 -74l-41 41q63 29 82 67q-2 -1 -9 -1q-23 0 -38.5 15.5t-15.5 42.5q0 30 24.5 53t54.5 23q28 0 48 -19t20 -52zM446 0h-440l147 667h172l-114 -517h268z" />
    <glyph glyph-name="lcommaaccent" unicode="&#x13c;" horiz-adv-x="266" 
d="M124 -120q0 -48 -35.5 -96t-89.5 -74l-41 41q63 29 82 67q-2 -1 -9 -1q-23 0 -38.5 15.5t-15.5 42.5q0 30 24.5 53t54.5 23q28 0 48 -19t20 -52zM156 0h-154l147 667h154z" />
    <glyph glyph-name="Lcaron" unicode="&#x13d;" horiz-adv-x="529" 
d="M531 610q0 -48 -35.5 -96t-89.5 -74l-41 41q63 29 82 67q-2 -1 -9 -1q-23 0 -38.5 15.5t-15.5 42.5q0 30 24.5 53t54.5 23q28 0 48 -19t20 -52zM446 0h-440l147 667h172l-114 -517h268z" />
    <glyph glyph-name="lcaron" unicode="&#x13e;" horiz-adv-x="386" 
d="M481 610q0 -48 -35.5 -96t-89.5 -74l-41 41q63 29 82 67q-2 -1 -9 -1q-23 0 -38.5 15.5t-15.5 42.5q0 30 24.5 53t54.5 23q28 0 48 -19t20 -52zM156 0h-154l147 667h154z" />
    <glyph glyph-name="Ldot" unicode="&#x13f;" horiz-adv-x="570" 
d="M446 0h-440l147 667h172l-114 -517h268zM445 249q-36 0 -61 25.5t-25 61.5q0 41 31 71.5t72 30.5q36 0 60.5 -25.5t24.5 -61.5q0 -42 -30.5 -72t-71.5 -30z" />
    <glyph glyph-name="ldot" unicode="&#x140;" horiz-adv-x="423" 
d="M156 0h-154l147 667h154zM336 151q-36 0 -61 25.5t-25 61.5q0 41 31 71.5t72 30.5q36 0 60.5 -25.5t24.5 -61.5q0 -42 -30.5 -72t-71.5 -30z" />
    <glyph glyph-name="Lslash" unicode="&#x141;" horiz-adv-x="544" 
d="M-4 177l30 138l71 37l70 315h172l-48 -215l75 38l-30 -139l-75 -39l-36 -162h268l-33 -150h-440l47 213z" />
    <glyph glyph-name="lslash" unicode="&#x142;" horiz-adv-x="319" 
d="M-5 192l25 109l84 43l71 323h154l-52 -235l86 44l-25 -109l-85 -43l-71 -324h-154l52 235z" />
    <glyph glyph-name="Nacute" unicode="&#x143;" horiz-adv-x="740" 
d="M704 867l-191 -144h-106l159 144h138zM626 0h-166l-194 398l-88 -398h-172l147 667h177l186 -379l84 379h173z" />
    <glyph glyph-name="nacute" unicode="&#x144;" horiz-adv-x="593" 
d="M591 700l-191 -144h-106l159 144h138zM483 0h-154l60 271q5 23 5 35q0 27 -19 40t-47 13q-56 0 -103 -47l-69 -312h-154l107 483h154l-14 -59q77 71 157 71q72 0 113.5 -34.5t41.5 -90.5q0 -15 -5 -40z" />
    <glyph glyph-name="Ncommaaccent" unicode="&#x145;" horiz-adv-x="740" 
d="M362 -120q0 -48 -35.5 -96t-89.5 -74l-41 41q63 29 82 67q-2 -1 -9 -1q-23 0 -38.5 15.5t-15.5 42.5q0 30 24.5 53t54.5 23q28 0 48 -19t20 -52zM626 0h-166l-194 398l-88 -398h-172l147 667h177l186 -379l84 379h173z" />
    <glyph glyph-name="ncommaaccent" unicode="&#x146;" horiz-adv-x="593" 
d="M286 -120q0 -48 -35.5 -96t-89.5 -74l-41 41q63 29 82 67q-2 -1 -9 -1q-23 0 -38.5 15.5t-15.5 42.5q0 30 24.5 53t54.5 23q28 0 48 -19t20 -52zM483 0h-154l60 271q5 23 5 35q0 27 -19 40t-47 13q-56 0 -103 -47l-69 -312h-154l107 483h154l-14 -59q77 71 157 71
q72 0 113.5 -34.5t41.5 -90.5q0 -15 -5 -40z" />
    <glyph glyph-name="Ncaron" unicode="&#x147;" horiz-adv-x="740" 
d="M546 723h-135l-61 144h89l51 -81l84 81h94zM626 0h-166l-194 398l-88 -398h-172l147 667h177l186 -379l84 379h173z" />
    <glyph glyph-name="ncaron" unicode="&#x148;" horiz-adv-x="593" 
d="M434 556h-135l-61 144h89l51 -81l84 81h94zM483 0h-154l60 271q5 23 5 35q0 27 -19 40t-47 13q-56 0 -103 -47l-69 -312h-154l107 483h154l-14 -59q77 71 157 71q72 0 113.5 -34.5t41.5 -90.5q0 -15 -5 -40z" />
    <glyph glyph-name="napostrophe" unicode="&#x149;" horiz-adv-x="593" 
d="M281 704q0 -48 -35.5 -96t-89.5 -74l-41 41q63 29 82 67q-2 -1 -9 -1q-23 0 -38.5 15.5t-15.5 42.5q0 30 24.5 53t54.5 23q28 0 48 -19t20 -52zM483 0h-154l60 271q5 23 5 35q0 27 -19 40t-47 13q-56 0 -103 -47l-69 -312h-154l107 483h154l-14 -59q77 71 157 71
q72 0 113.5 -34.5t41.5 -90.5q0 -15 -5 -40z" />
    <glyph glyph-name="Eng" unicode="&#x14a;" horiz-adv-x="740" 
d="M374 -196q-133 0 -200 71l87 114q15 -21 41.5 -35t55.5 -14q71 0 96 71l-188 387l-88 -398h-172l147 667h177l186 -379l84 379h173l-139 -623q-28 -125 -91 -182.5t-169 -57.5z" />
    <glyph glyph-name="eng" unicode="&#x14b;" horiz-adv-x="593" 
d="M556 330l-73 -326q-43 -200 -202 -200q-98 0 -144 40l64 120q24 -24 59 -24q55 0 69 64l62 276q3 14 3 24q0 28 -17 41.5t-41 13.5q-64 0 -111 -47l-69 -312h-154l107 483h154l-14 -59q77 71 157 71q69 0 112 -33.5t43 -91.5q0 -17 -5 -40z" />
    <glyph glyph-name="Omacron" unicode="&#x14c;" horiz-adv-x="766" 
d="M670 723h-362l19 85h362zM374 -12q-146 0 -242 84t-96 219q0 162 113 274.5t281 112.5q145 0 241.5 -83.5t96.5 -217.5q0 -163 -113 -276t-281 -113zM384 140q87 0 146 65.5t59 158.5q0 72 -47 117t-122 45q-87 0 -146 -65.5t-59 -158.5q0 -72 47 -117t122 -45z" />
    <glyph glyph-name="omacron" unicode="&#x14d;" horiz-adv-x="576" 
d="M538 556h-362l19 85h362zM269 -12q-118 0 -183.5 62.5t-65.5 159.5q0 115 81 200t203 85q118 0 183.5 -62.5t65.5 -160.5q0 -115 -81 -199.5t-203 -84.5zM275 124q52 0 86.5 42t34.5 99q0 44 -26 69t-71 25q-53 0 -87 -42t-34 -99q0 -44 26 -69t71 -25z" />
    <glyph glyph-name="Obreve" unicode="&#x14e;" horiz-adv-x="766" 
d="M374 -12q-146 0 -242 84t-96 219q0 162 113 274.5t281 112.5q145 0 241.5 -83.5t96.5 -217.5q0 -163 -113 -276t-281 -113zM384 140q87 0 146 65.5t59 158.5q0 72 -47 117t-122 45q-87 0 -146 -65.5t-59 -158.5q0 -72 47 -117t122 -45zM674 783q-85 -88 -194 -88
q-53 0 -94 23.5t-63 64.5l75 54q29 -58 97 -58q69 0 122 58z" />
    <glyph glyph-name="obreve" unicode="&#x14f;" horiz-adv-x="576" 
d="M269 -12q-118 0 -183.5 62.5t-65.5 159.5q0 115 81 200t203 85q118 0 183.5 -62.5t65.5 -160.5q0 -115 -81 -199.5t-203 -84.5zM275 124q52 0 86.5 42t34.5 99q0 44 -26 69t-71 25q-53 0 -87 -42t-34 -99q0 -44 26 -69t71 -25zM542 616q-85 -88 -194 -88q-53 0 -94 23.5
t-63 64.5l75 54q29 -58 97 -58q69 0 122 58z" />
    <glyph glyph-name="Ohungarumlaut" unicode="&#x150;" horiz-adv-x="766" 
d="M581 867l-147 -144h-89l116 144h120zM734 867l-147 -144h-89l115 144h121zM374 -12q-146 0 -242 84t-96 219q0 162 113 274.5t281 112.5q145 0 241.5 -83.5t96.5 -217.5q0 -163 -113 -276t-281 -113zM384 140q87 0 146 65.5t59 158.5q0 72 -47 117t-122 45
q-87 0 -146 -65.5t-59 -158.5q0 -72 47 -117t122 -45z" />
    <glyph glyph-name="ohungarumlaut" unicode="&#x151;" horiz-adv-x="576" 
d="M449 700l-147 -144h-89l116 144h120zM602 700l-147 -144h-89l115 144h121zM269 -12q-118 0 -183.5 62.5t-65.5 159.5q0 115 81 200t203 85q118 0 183.5 -62.5t65.5 -160.5q0 -115 -81 -199.5t-203 -84.5zM275 124q52 0 86.5 42t34.5 99q0 44 -26 69t-71 25q-53 0 -87 -42
t-34 -99q0 -44 26 -69t71 -25z" />
    <glyph glyph-name="OE" unicode="&#x152;" horiz-adv-x="1073" 
d="M983 0h-489l13 62q-71 -74 -192 -74q-116 0 -197.5 86t-81.5 217q0 170 111 278t268 108q140 0 208 -94l18 84h489l-33 -150h-317l-22 -104h309l-33 -150h-310l-25 -113h317zM544 228l42 190q-18 51 -59.5 79t-98.5 28q-94 0 -153.5 -65.5t-59.5 -157.5
q0 -73 45.5 -117.5t115.5 -44.5q104 0 168 88z" />
    <glyph glyph-name="oe" unicode="&#x153;" horiz-adv-x="916" 
d="M886 193h-338v-6q0 -26 31.5 -53t82.5 -27q71 0 112 30l46 -102q-68 -47 -170 -47q-67 0 -118 27t-75 64q-31 -29 -50.5 -44.5t-58 -31t-81.5 -15.5q-111 0 -179 59t-68 163q0 112 79 198.5t203 86.5q63 0 112 -27.5t74 -64.5q27 27 48.5 44t60 32.5t80.5 15.5
q92 0 155.5 -56.5t63.5 -161.5q0 -34 -10 -84zM563 293h196q1 2 1 6q0 30 -22.5 53.5t-67.5 23.5q-41 0 -71 -26.5t-36 -56.5zM392 265q0 47 -26.5 70.5t-68.5 23.5q-50 0 -84.5 -40.5t-34.5 -100.5q0 -45 25 -69.5t70 -24.5q51 0 85 41.5t34 99.5z" />
    <glyph glyph-name="Racute" unicode="&#x154;" horiz-adv-x="661" 
d="M670 867l-191 -144h-106l159 144h138zM575 0h-190l-62 224h-96l-49 -224h-172l147 667h304q89 0 152.5 -54t63.5 -141t-51 -151.5t-127 -84.5zM394 374h3q44 0 70.5 21.5t26.5 58.5q0 27 -21 45t-50 18h-131l-32 -143h134z" />
    <glyph glyph-name="racute" unicode="&#x155;" horiz-adv-x="375" 
d="M516 700l-191 -144h-106l159 144h138zM156 0h-154l107 483h154l-13 -58q66 71 167 71l-34 -151q-28 7 -50 7q-64 0 -110 -48z" />
    <glyph glyph-name="Rcommaaccent" unicode="&#x156;" horiz-adv-x="661" 
d="M326 -120q0 -48 -35.5 -96t-89.5 -74l-41 41q63 29 82 67q-2 -1 -9 -1q-23 0 -38.5 15.5t-15.5 42.5q0 30 24.5 53t54.5 23q28 0 48 -19t20 -52zM575 0h-190l-62 224h-96l-49 -224h-172l147 667h304q89 0 152.5 -54t63.5 -141t-51 -151.5t-127 -84.5zM394 374h3
q44 0 70.5 21.5t26.5 58.5q0 27 -21 45t-50 18h-131l-32 -143h134z" />
    <glyph glyph-name="rcommaaccent" unicode="&#x157;" horiz-adv-x="375" 
d="M211 -120q0 -48 -35.5 -96t-89.5 -74l-41 41q63 29 82 67q-2 -1 -9 -1q-23 0 -38.5 15.5t-15.5 42.5q0 30 24.5 53t54.5 23q28 0 48 -19t20 -52zM156 0h-154l107 483h154l-13 -58q66 71 167 71l-34 -151q-28 7 -50 7q-64 0 -110 -48z" />
    <glyph glyph-name="Rcaron" unicode="&#x158;" horiz-adv-x="661" 
d="M510 723h-135l-61 144h89l51 -81l84 81h94zM575 0h-190l-62 224h-96l-49 -224h-172l147 667h304q89 0 152.5 -54t63.5 -141t-51 -151.5t-127 -84.5zM394 374h3q44 0 70.5 21.5t26.5 58.5q0 27 -21 45t-50 18h-131l-32 -143h134z" />
    <glyph glyph-name="rcaron" unicode="&#x159;" horiz-adv-x="375" 
d="M359 556h-135l-61 144h89l51 -81l84 81h94zM156 0h-154l107 483h154l-13 -58q66 71 167 71l-34 -151q-28 7 -50 7q-64 0 -110 -48z" />
    <glyph glyph-name="Sacute" unicode="&#x15a;" horiz-adv-x="606" 
d="M644 867l-191 -144h-106l159 144h138zM308 -12q-101 0 -186 34.5t-132 92.5l105 124q35 -46 97 -74.5t130 -28.5q38 0 57.5 16t19.5 37q0 17 -24 31.5t-59.5 25.5t-77.5 28t-77.5 37.5t-59.5 56t-24 81.5q0 91 73.5 159.5t199.5 68.5q82 0 155.5 -28.5t123.5 -81.5
l-105 -120q-37 40 -92.5 61.5t-108.5 21.5q-29 0 -47 -13.5t-18 -33.5q0 -19 33.5 -35t80.5 -32t94.5 -37.5t81 -61.5t33.5 -94q0 -101 -74.5 -168t-198.5 -67z" />
    <glyph glyph-name="sacute" unicode="&#x15b;" horiz-adv-x="484" 
d="M546 700l-191 -144h-106l159 144h138zM225 -12q-68 0 -131.5 23t-107.5 65l81 99q26 -27 75.5 -51t96.5 -24q23 0 37 10t14 25q0 20 -37.5 35t-82.5 26.5t-82.5 44.5t-37.5 84q0 70 55.5 120t151.5 50q61 0 118 -20.5t97 -57.5l-74 -95q-21 23 -61 41.5t-80 18.5
q-25 0 -39.5 -10t-14.5 -24t25 -24.5t60.5 -20.5t70.5 -25t60 -44.5t25 -71.5q0 -75 -59.5 -124.5t-159.5 -49.5z" />
    <glyph glyph-name="Scircumflex" unicode="&#x15c;" horiz-adv-x="606" 
d="M575 723h-90l-51 81l-84 -81h-93l122 144h135zM308 -12q-101 0 -186 34.5t-132 92.5l105 124q35 -46 97 -74.5t130 -28.5q38 0 57.5 16t19.5 37q0 17 -24 31.5t-59.5 25.5t-77.5 28t-77.5 37.5t-59.5 56t-24 81.5q0 91 73.5 159.5t199.5 68.5q82 0 155.5 -28.5
t123.5 -81.5l-105 -120q-37 40 -92.5 61.5t-108.5 21.5q-29 0 -47 -13.5t-18 -33.5q0 -19 33.5 -35t80.5 -32t94.5 -37.5t81 -61.5t33.5 -94q0 -101 -74.5 -168t-198.5 -67z" />
    <glyph glyph-name="scircumflex" unicode="&#x15d;" horiz-adv-x="484" 
d="M476 556h-90l-51 81l-84 -81h-93l122 144h135zM225 -12q-68 0 -131.5 23t-107.5 65l81 99q26 -27 75.5 -51t96.5 -24q23 0 37 10t14 25q0 20 -37.5 35t-82.5 26.5t-82.5 44.5t-37.5 84q0 70 55.5 120t151.5 50q61 0 118 -20.5t97 -57.5l-74 -95q-21 23 -61 41.5t-80 18.5
q-25 0 -39.5 -10t-14.5 -24t25 -24.5t60.5 -20.5t70.5 -25t60 -44.5t25 -71.5q0 -75 -59.5 -124.5t-159.5 -49.5z" />
    <glyph glyph-name="Scedilla" unicode="&#x15e;" horiz-adv-x="606" 
d="M233 -198q-81 0 -124 43l39 54q39 -36 85 -36q44 0 44 30q0 20 -26 20q-16 0 -27 -13l-46 30l39 66q-150 25 -227 119l105 124q35 -46 97 -74.5t130 -28.5q38 0 57.5 16t19.5 37q0 17 -24 31.5t-59.5 25.5t-77.5 28t-77.5 37.5t-59.5 56t-24 81.5q0 91 73.5 159.5
t199.5 68.5q82 0 155.5 -28.5t123.5 -81.5l-105 -120q-37 40 -92.5 61.5t-108.5 21.5q-29 0 -47 -13.5t-18 -33.5q0 -19 33.5 -35t80.5 -32t94.5 -37.5t81 -61.5t33.5 -94q0 -101 -74.5 -168t-198.5 -67q-17 0 -25 1l-24 -38q16 10 30 10q26 0 43 -17.5t17 -46.5
q0 -43 -33.5 -69t-82.5 -26z" />
    <glyph glyph-name="scedilla" unicode="&#x15f;" horiz-adv-x="484" 
d="M169 -198q-81 0 -124 43l39 54q39 -36 85 -36q44 0 44 30q0 20 -26 20q-16 0 -27 -13l-46 30l39 65q-102 18 -167 81l81 99q26 -27 75.5 -51t96.5 -24q23 0 37 10t14 25q0 20 -37.5 35t-82.5 26.5t-82.5 44.5t-37.5 84q0 70 55.5 120t151.5 50q61 0 118 -20.5t97 -57.5
l-74 -95q-21 23 -61 41.5t-80 18.5q-25 0 -39.5 -10t-14.5 -24t25 -24.5t60.5 -20.5t70.5 -25t60 -44.5t25 -71.5q0 -75 -59.5 -124.5t-159.5 -49.5h-6l-24 -37q16 10 30 10q26 0 43 -17.5t17 -46.5q0 -43 -33.5 -69t-82.5 -26z" />
    <glyph glyph-name="Scaron" unicode="&#x160;" horiz-adv-x="606" 
d="M485 723h-135l-61 144h89l51 -81l84 81h94zM308 -12q-101 0 -186 34.5t-132 92.5l105 124q35 -46 97 -74.5t130 -28.5q38 0 57.5 16t19.5 37q0 17 -24 31.5t-59.5 25.5t-77.5 28t-77.5 37.5t-59.5 56t-24 81.5q0 91 73.5 159.5t199.5 68.5q82 0 155.5 -28.5t123.5 -81.5
l-105 -120q-37 40 -92.5 61.5t-108.5 21.5q-29 0 -47 -13.5t-18 -33.5q0 -19 33.5 -35t80.5 -32t94.5 -37.5t81 -61.5t33.5 -94q0 -101 -74.5 -168t-198.5 -67z" />
    <glyph glyph-name="scaron" unicode="&#x161;" horiz-adv-x="484" 
d="M387 556h-135l-61 144h89l51 -81l84 81h94zM225 -12q-68 0 -131.5 23t-107.5 65l81 99q26 -27 75.5 -51t96.5 -24q23 0 37 10t14 25q0 20 -37.5 35t-82.5 26.5t-82.5 44.5t-37.5 84q0 70 55.5 120t151.5 50q61 0 118 -20.5t97 -57.5l-74 -95q-21 23 -61 41.5t-80 18.5
q-25 0 -39.5 -10t-14.5 -24t25 -24.5t60.5 -20.5t70.5 -25t60 -44.5t25 -71.5q0 -75 -59.5 -124.5t-159.5 -49.5z" />
    <glyph glyph-name="Tcommaaccent" unicode="&#x162;" 
d="M288 -120q0 -48 -35.5 -96t-89.5 -74l-41 41q63 29 82 67q-2 -1 -9 -1q-23 0 -38.5 15.5t-15.5 42.5q0 30 24.5 53t54.5 23q28 0 48 -19t20 -52zM327 0h-172l113 517h-187l34 150h545l-33 -150h-187z" />
    <glyph glyph-name="tcommaaccent" unicode="&#x163;" horiz-adv-x="360" 
d="M161 -120q0 -48 -35.5 -96t-89.5 -74l-41 41q63 29 82 67q-2 -1 -9 -1q-23 0 -38.5 15.5t-15.5 42.5q0 30 24.5 53t54.5 23q28 0 48 -19t20 -52zM221 -12q-73 0 -116.5 28.5t-43.5 85.5q0 15 3 35l47 213h-80l30 133h80l29 132h154l-29 -132h98l-30 -133h-98l-36 -164
q-3 -12 -3 -22q0 -40 46 -40q20 0 30 8l2 -123q-27 -21 -83 -21z" />
    <glyph glyph-name="Tcaron" unicode="&#x164;" 
d="M465 723h-135l-61 144h89l51 -81l84 81h94zM327 0h-172l113 517h-187l34 150h545l-33 -150h-187z" />
    <glyph glyph-name="tcaron" unicode="&#x165;" horiz-adv-x="391" 
d="M518 704q0 -48 -35.5 -96t-89.5 -74l-41 41q63 29 82 67q-2 -1 -9 -1q-23 0 -38.5 15.5t-15.5 42.5q0 30 24.5 53t54.5 23q28 0 48 -19t20 -52zM221 -12q-73 0 -116.5 28.5t-43.5 85.5q0 15 3 35l47 213h-80l30 133h80l29 132h154l-29 -132h98l-30 -133h-98l-36 -164
q-3 -12 -3 -22q0 -40 46 -40q20 0 30 8l2 -123q-27 -21 -83 -21z" />
    <glyph glyph-name="Tbar" unicode="&#x166;" 
d="M327 0h-172l54 247h-125l19 85h124l41 185h-187l34 150h545l-33 -150h-187l-41 -185h125l-18 -85h-125z" />
    <glyph glyph-name="tbar" unicode="&#x167;" horiz-adv-x="360" 
d="M221 -12q-73 0 -116.5 28.5t-43.5 85.5q0 15 3 35l14 63h-80l18 85h80l15 65h-80l30 133h80l29 132h154l-29 -132h98l-30 -133h-98l-15 -65h67l-18 -85h-67l-3 -14q-3 -12 -3 -22q0 -40 46 -40q20 0 30 8l2 -123q-27 -21 -83 -21z" />
    <glyph glyph-name="Utilde" unicode="&#x168;" horiz-adv-x="750" 
d="M366 -12q-149 0 -227.5 64.5t-78.5 173.5q0 19 5 44l88 397h175l-87 -393q-3 -7 -3 -28q1 -45 34.5 -76.5t93.5 -31.5q126 0 156 136l87 393h174l-87 -396q-30 -133 -107.5 -208t-222.5 -75zM552 721q-38 0 -71 27.5t-51 27.5q-26 0 -36 -49h-79q13 69 41.5 101.5
t82.5 32.5q23 0 42 -8.5t29.5 -19t24 -19t26.5 -8.5q25 0 37 49h79q-15 -69 -43.5 -101.5t-81.5 -32.5z" />
    <glyph glyph-name="utilde" unicode="&#x169;" horiz-adv-x="592" 
d="M109 483h153l-61 -279q-4 -18 -4 -26q0 -54 71 -54q49 0 99 48l68 311h154l-107 -483h-154l14 59q-77 -71 -157 -71q-72 0 -113.5 34.5t-41.5 90.5q0 15 5 40zM436 554q-38 0 -71 27.5t-51 27.5q-26 0 -36 -49h-79q13 69 41.5 101.5t82.5 32.5q30 0 51.5 -14t38 -27.5
t32.5 -13.5q25 0 37 49h79q-15 -69 -43.5 -101.5t-81.5 -32.5z" />
    <glyph glyph-name="Umacron" unicode="&#x16a;" horiz-adv-x="750" 
d="M366 -12q-149 0 -227.5 64.5t-78.5 173.5q0 19 5 44l88 397h175l-87 -393q-3 -7 -3 -28q1 -45 34.5 -76.5t93.5 -31.5q126 0 156 136l87 393h174l-87 -396q-30 -133 -107.5 -208t-222.5 -75zM662 723h-362l19 85h362z" />
    <glyph glyph-name="umacron" unicode="&#x16b;" horiz-adv-x="592" 
d="M109 483h153l-61 -279q-4 -18 -4 -26q0 -54 71 -54q49 0 99 48l68 311h154l-107 -483h-154l14 59q-77 -71 -157 -71q-72 0 -113.5 34.5t-41.5 90.5q0 15 5 40zM546 556h-362l19 85h362z" />
    <glyph glyph-name="Ubreve" unicode="&#x16c;" horiz-adv-x="750" 
d="M366 -12q-149 0 -227.5 64.5t-78.5 173.5q0 19 5 44l88 397h175l-87 -393q-3 -7 -3 -28q1 -45 34.5 -76.5t93.5 -31.5q126 0 156 136l87 393h174l-87 -396q-30 -133 -107.5 -208t-222.5 -75zM666 783q-85 -88 -194 -88q-53 0 -94 23.5t-63 64.5l75 54q29 -58 97 -58
q69 0 122 58z" />
    <glyph glyph-name="ubreve" unicode="&#x16d;" horiz-adv-x="592" 
d="M109 483h153l-61 -279q-4 -18 -4 -26q0 -54 71 -54q49 0 99 48l68 311h154l-107 -483h-154l14 59q-77 -71 -157 -71q-72 0 -113.5 34.5t-41.5 90.5q0 15 5 40zM550 616q-85 -88 -194 -88q-53 0 -94 23.5t-63 64.5l75 54q29 -58 97 -58q69 0 122 58z" />
    <glyph glyph-name="Uring" unicode="&#x16e;" horiz-adv-x="750" 
d="M486 687q-44 0 -71.5 27.5t-27.5 71.5q0 48 35.5 83t83.5 35q44 0 71.5 -27.5t27.5 -71.5q0 -48 -35.5 -83t-83.5 -35zM493 756q17 0 30 12.5t13 30.5q0 17 -10 27t-27 10t-30 -13t-13 -30t10 -27t27 -10zM366 -12q-149 0 -227.5 64.5t-78.5 173.5q0 19 5 44l88 397h175
l-87 -393q-3 -7 -3 -28q1 -45 34.5 -76.5t93.5 -31.5q126 0 156 136l87 393h174l-87 -396q-30 -133 -107.5 -208t-222.5 -75z" />
    <glyph glyph-name="uring" unicode="&#x16f;" horiz-adv-x="592" 
d="M372 525q-44 0 -71.5 27.5t-27.5 71.5q0 48 35.5 83t83.5 35q44 0 71.5 -27.5t27.5 -71.5q0 -48 -35.5 -83t-83.5 -35zM379 594q17 0 30 12.5t13 30.5q0 17 -10 27t-27 10t-30 -13t-13 -30t10 -27t27 -10zM109 483h153l-61 -279q-4 -18 -4 -26q0 -54 71 -54q49 0 99 48
l68 311h154l-107 -483h-154l14 59q-77 -71 -157 -71q-72 0 -113.5 34.5t-41.5 90.5q0 15 5 40z" />
    <glyph glyph-name="Uhungarumlaut" unicode="&#x170;" horiz-adv-x="750" 
d="M366 -12q-149 0 -227.5 64.5t-78.5 173.5q0 19 5 44l88 397h175l-87 -393q-3 -7 -3 -28q1 -45 34.5 -76.5t93.5 -31.5q126 0 156 136l87 393h174l-87 -396q-30 -133 -107.5 -208t-222.5 -75zM574 867l-147 -144h-89l116 144h120zM727 867l-147 -144h-89l115 144h121z" />
    <glyph glyph-name="uhungarumlaut" unicode="&#x171;" horiz-adv-x="592" 
d="M109 483h153l-61 -279q-4 -18 -4 -26q0 -54 71 -54q49 0 99 48l68 311h154l-107 -483h-154l14 59q-77 -71 -157 -71q-72 0 -113.5 34.5t-41.5 90.5q0 15 5 40zM457 700l-147 -144h-89l116 144h120zM610 700l-147 -144h-89l115 144h121z" />
    <glyph glyph-name="Uogonek" unicode="&#x172;" horiz-adv-x="750" 
d="M452 -95l49 -43q-40 -48 -96 -48q-42 0 -70.5 20.5t-28.5 58.5q0 54 41 95q-140 4 -213.5 68.5t-73.5 169.5q0 19 5 44l88 397h175l-87 -393q-3 -7 -3 -28q1 -45 34.5 -76.5t93.5 -31.5q126 0 156 136l87 393h174l-87 -396q-51 -228 -230 -271q-88 -39 -88 -96
q0 -13 8.5 -21t22.5 -8q25 0 43 30z" />
    <glyph glyph-name="uogonek" unicode="&#x173;" horiz-adv-x="592" 
d="M109 483h153l-61 -279q-4 -18 -4 -26q0 -54 71 -54q49 0 99 48l68 311h154l-107 -483q-90 -40 -90 -96q0 -13 8.5 -21t22.5 -8q25 0 43 30l49 -43q-40 -48 -96 -48q-42 0 -70.5 20.5t-28.5 58.5q0 63 54 107h-46l14 59q-77 -71 -157 -71q-72 0 -113.5 34.5t-41.5 90.5
q0 15 5 40z" />
    <glyph glyph-name="Wcircumflex" unicode="&#x174;" horiz-adv-x="936" 
d="M729 723h-90l-51 81l-84 -81h-93l122 144h135zM697 0h-182l-9 418l-193 -418h-182l-44 667h189l3 -445l212 445h131l16 -445l199 445h198z" />
    <glyph glyph-name="wcircumflex" unicode="&#x175;" horiz-adv-x="787" 
d="M618 556h-90l-51 81l-84 -81h-93l122 144h135zM596 0h-166l-25 299l-156 -299h-166l-36 483h154l11 -296l162 296h137l29 -296l143 296h163z" />
    <glyph glyph-name="Ycircumflex" unicode="&#x176;" horiz-adv-x="655" 
d="M594 723h-90l-51 81l-84 -81h-93l122 144h135zM360 0h-172l59 269l-165 398h185l91 -246l197 246h204l-340 -398z" />
    <glyph glyph-name="ycircumflex" unicode="&#x177;" horiz-adv-x="524" 
d="M-48 -184l49 132q17 -7 50 -7q37 0 55 26l19 31l-82 485h158l40 -306l179 306h167l-341 -552q-43 -70 -90 -98.5t-115 -28.5q-51 0 -89 12zM486 556h-90l-51 81l-84 -81h-93l122 144h135z" />
    <glyph glyph-name="Ydieresis" unicode="&#x178;" horiz-adv-x="655" 
d="M633 790q0 -34 -27 -60.5t-62 -26.5q-29 0 -49 20t-20 50q0 34 27 60.5t62 26.5q29 0 49 -20t20 -50zM420 790q0 -34 -27 -60.5t-62 -26.5q-30 0 -50 20t-20 50q0 34 27 60.5t62 26.5q30 0 50 -20t20 -50zM360 0h-172l59 269l-165 398h185l91 -246l197 246h204l-340 -398
z" />
    <glyph glyph-name="Zacute" unicode="&#x179;" horiz-adv-x="596" 
d="M627 867l-191 -144h-106l159 144h138zM503 0h-518l30 137l359 380h-275l33 150h511l-30 -137l-360 -380h283z" />
    <glyph glyph-name="zacute" unicode="&#x17a;" horiz-adv-x="483" 
d="M534 700l-191 -144h-106l159 144h138zM391 0h-407l24 113l242 236h-189l30 134h403l-25 -109l-246 -241h197z" />
    <glyph glyph-name="Zdotaccent" unicode="&#x17b;" horiz-adv-x="596" 
d="M503 0h-518l30 137l359 380h-275l33 150h511l-30 -137l-360 -380h283zM492 790q0 -34 -27 -60.5t-62 -26.5q-30 0 -50 20t-20 50q0 34 27 60.5t62 26.5q30 0 50 -20t20 -50z" />
    <glyph glyph-name="zdotaccent" unicode="&#x17c;" horiz-adv-x="483" 
d="M391 0h-407l24 113l242 236h-189l30 134h403l-25 -109l-246 -241h197zM400 623q0 -34 -27 -60.5t-62 -26.5q-30 0 -50 20t-20 50q0 34 27 60.5t62 26.5q30 0 50 -20t20 -50z" />
    <glyph glyph-name="Zcaron" unicode="&#x17d;" horiz-adv-x="596" 
d="M470 723h-135l-61 144h89l51 -81l84 81h94zM503 0h-518l30 137l359 380h-275l33 150h511l-30 -137l-360 -380h283z" />
    <glyph glyph-name="zcaron" unicode="&#x17e;" horiz-adv-x="483" 
d="M376 556h-135l-61 144h89l51 -81l84 81h94zM391 0h-407l24 113l242 236h-189l30 134h403l-25 -109l-246 -241h197z" />
    <glyph glyph-name="longs" unicode="&#x17f;" horiz-adv-x="349" 
d="M189 0h-154l77 350h-80l30 133h79l6 26q18 75 67.5 121.5t130.5 46.5q89 0 138 -50l-73 -87q-20 20 -52 20q-45 0 -57 -51z" />
    <glyph glyph-name="florin" unicode="&#x192;" horiz-adv-x="465" 
d="M120 -161h-175l87 392h-48v134h77l32 146q16 77 64 121.5t125 44.5q93 0 150 -51l-62 -121q-16 22 -48 22q-47 0 -61 -55l-24 -107h100v-134h-129z" />
    <glyph glyph-name="Ohorn" unicode="&#x1a0;" horiz-adv-x="766" 
d="M374 -12q-146 0 -242 84t-96 219q0 162 113 274.5t281 112.5q166 0 263 -105q47 25 61 55q-2 -1 -8 -1q-20 0 -34 13.5t-14 37.5q0 28 21 48t48 20q25 0 43 -17.5t18 -46.5q0 -42 -29.5 -83t-75.5 -65q45 -68 45 -157q0 -163 -113 -276t-281 -113zM384 140q87 0 146 65.5
t59 158.5q0 72 -47 117t-122 45q-87 0 -146 -65.5t-59 -158.5q0 -72 47 -117t122 -45z" />
    <glyph glyph-name="ohorn" unicode="&#x1a1;" horiz-adv-x="576" 
d="M613 549q0 -41 -28 -81t-72 -64q40 -57 40 -132q0 -115 -81 -199.5t-203 -84.5q-118 0 -183.5 62.5t-65.5 159.5q0 115 81 200t203 85q109 0 174 -54q46 24 60 54q-1 -1 -7 -1q-21 0 -34.5 13.5t-13.5 37.5q0 28 21 47.5t48 19.5q25 0 43 -17t18 -46zM275 124
q52 0 86.5 42t34.5 99q0 44 -26 69t-71 25q-53 0 -87 -42t-34 -99q0 -44 26 -69t71 -25z" />
    <glyph glyph-name="Uhorn" unicode="&#x1af;" horiz-adv-x="750" 
d="M902 742q0 -53 -39 -97t-100 -68l-67 -306q-30 -133 -107.5 -208t-222.5 -75q-149 0 -227.5 64.5t-78.5 173.5q0 19 5 44l88 397h175l-87 -393q-3 -7 -3 -28q1 -45 34.5 -76.5t93.5 -31.5q126 0 156 136l87 393h174l-7 -29q39 22 51 50q-1 -1 -7 -1q-21 0 -34.5 13.5
t-13.5 37.5q0 27 21 47t48 20q25 0 43 -17t18 -46z" />
    <glyph glyph-name="uhorn" unicode="&#x1b0;" horiz-adv-x="592" 
d="M681 565q0 -89 -107 -149l-92 -416h-154l14 59q-75 -71 -157 -71q-72 0 -113.5 34.5t-41.5 90.5q0 15 5 40l73 330h154l-62 -280q-3 -13 -3 -25q0 -54 74 -54q46 0 95 47l69 312h149q13 11 22 28q-2 -1 -8 -1q-20 0 -34 14t-14 38q0 27 21.5 47t48.5 20q25 0 43 -17
t18 -47z" />
    <glyph glyph-name="AEacute" unicode="&#x1fc;" horiz-adv-x="979" 
d="M876 867l-191 -144h-106l159 144h138zM889 0h-489l21 96h-217l-74 -96h-201l547 667h560l-34 -150h-316l-23 -104h310l-34 -150h-309l-25 -113h317zM454 246l53 243l-189 -243h136z" />
    <glyph glyph-name="aeacute" unicode="&#x1fd;" horiz-adv-x="902" 
d="M758 700l-191 -144h-106l159 144h138zM301 359q-53 0 -87.5 -40.5t-34.5 -98.5q0 -43 27 -69.5t67 -26.5q53 0 91 45l33 146q-34 44 -96 44zM495 66l-15 -66h-153l12 56q-59 -68 -138 -68q-83 0 -132 52.5t-49 147.5q0 73 27.5 141.5t87 117t139.5 48.5q99 0 147 -69
l13 57h153l-10 -47q59 59 133 59q171 0 171 -206q0 -49 -11 -96h-341v-6q0 -23 33.5 -50t89.5 -27q65 0 106 30l47 -105q-73 -47 -150 -47q-117 0 -160 78zM545 293h199v6q0 29 -23 53t-68 24q-41 0 -70.5 -26t-37.5 -57z" />
    <glyph glyph-name="Oslashacute" unicode="&#x1fe;" horiz-adv-x="766" 
d="M717 867l-191 -144h-106l159 144h138zM374 -12q-124 0 -213 61l-51 -49h-120l109 106q-63 77 -63 185q0 162 113 274.5t281 112.5q115 0 201 -54l44 43h120l-99 -97q72 -80 72 -193q0 -163 -113 -276t-281 -113zM384 140q87 0 146 65.5t59 158.5q0 45 -21 82l-285 -278
q42 -28 101 -28zM215 302q0 -38 14 -69l279 272q-40 21 -88 21q-87 0 -146 -65.5t-59 -158.5z" />
    <glyph glyph-name="oslashacute" unicode="&#x1ff;" horiz-adv-x="576" 
d="M585 700l-191 -144h-106l159 144h138zM67 0h-95l87 80q-39 54 -39 130q0 115 81 200t203 85q98 0 162 -45l37 33h98l-88 -80q40 -53 40 -131q0 -115 -81 -199.5t-203 -84.5q-99 0 -164 46zM275 124q52 0 86.5 42t34.5 99q0 17 -4 29l-173 -157q22 -13 56 -13zM178 218
q0 -14 3 -28l172 156q-24 13 -54 13q-53 0 -87 -42t-34 -99z" />
    <glyph glyph-name="Scommaaccent" unicode="&#x218;" horiz-adv-x="606" 
d="M291 -120q0 -48 -35.5 -96t-89.5 -74l-41 41q63 29 82 67q-2 -1 -9 -1q-23 0 -38.5 15.5t-15.5 42.5q0 30 24.5 53t54.5 23q28 0 48 -19t20 -52zM308 -12q-101 0 -186 34.5t-132 92.5l105 124q35 -46 97 -74.5t130 -28.5q38 0 57.5 16t19.5 37q0 17 -24 31.5t-59.5 25.5
t-77.5 28t-77.5 37.5t-59.5 56t-24 81.5q0 91 73.5 159.5t199.5 68.5q82 0 155.5 -28.5t123.5 -81.5l-105 -120q-37 40 -92.5 61.5t-108.5 21.5q-29 0 -47 -13.5t-18 -33.5q0 -19 33.5 -35t80.5 -32t94.5 -37.5t81 -61.5t33.5 -94q0 -101 -74.5 -168t-198.5 -67z" />
    <glyph glyph-name="scommaaccent" unicode="&#x219;" horiz-adv-x="484" 
d="M239 -120q0 -48 -35.5 -96t-89.5 -74l-41 41q63 29 82 67q-2 -1 -9 -1q-23 0 -38.5 15.5t-15.5 42.5q0 30 24.5 53t54.5 23q28 0 48 -19t20 -52zM225 -12q-68 0 -131.5 23t-107.5 65l81 99q26 -27 75.5 -51t96.5 -24q23 0 37 10t14 25q0 20 -37.5 35t-82.5 26.5
t-82.5 44.5t-37.5 84q0 70 55.5 120t151.5 50q61 0 118 -20.5t97 -57.5l-74 -95q-21 23 -61 41.5t-80 18.5q-25 0 -39.5 -10t-14.5 -24t25 -24.5t60.5 -20.5t70.5 -25t60 -44.5t25 -71.5q0 -75 -59.5 -124.5t-159.5 -49.5z" />
    <glyph glyph-name="uni021A" unicode="&#x21a;" 
d="M288 -120q0 -48 -35.5 -96t-89.5 -74l-41 41q63 29 82 67q-2 -1 -9 -1q-23 0 -38.5 15.5t-15.5 42.5q0 30 24.5 53t54.5 23q28 0 48 -19t20 -52zM327 0h-172l113 517h-187l34 150h545l-33 -150h-187z" />
    <glyph glyph-name="uni021B" unicode="&#x21b;" horiz-adv-x="360" 
d="M160 -120q0 -48 -35.5 -96t-89.5 -74l-41 41q63 29 82 67q-2 -1 -9 -1q-23 0 -38.5 15.5t-15.5 42.5q0 30 24.5 53t54.5 23q28 0 48 -19t20 -52zM221 -12q-73 0 -116.5 28.5t-43.5 85.5q0 15 3 35l47 213h-80l30 133h80l29 132h154l-29 -132h98l-30 -133h-98l-36 -164
q-3 -12 -3 -22q0 -40 46 -40q20 0 30 8l2 -123q-27 -21 -83 -21z" />
    <glyph glyph-name="uni0237" unicode="&#x237;" horiz-adv-x="266" 
d="M-46 -196q-98 0 -144 40l62 110q21 -24 59 -24q54 0 71 74l107 479h154l-107 -479q-43 -200 -202 -200z" />
    <glyph glyph-name="hsuperior" unicode="&#x2b0;" horiz-adv-x="417" 
d="M389 326h-109l39 179q2 12 2 17q0 34 -45 34q-30 0 -62 -32l-43 -198h-110l96 434h110l-35 -157q45 45 101 45q50 0 78 -22.5t28 -62.5q0 -12 -4 -29z" />
    <glyph glyph-name="uni02BC" unicode="&#x2bc;" horiz-adv-x="268" 
d="M308 584q0 -62 -46 -124t-117 -96l-52 55q78 34 105 84q-4 -1 -12 -1q-30 0 -51 19.5t-21 55.5q0 40 32 70t72 30q37 0 63.5 -25t26.5 -68z" />
    <glyph glyph-name="circumflex" unicode="&#x2c6;" horiz-adv-x="318" 
d="M387 556h-90l-51 81l-84 -81h-93l122 144h135z" />
    <glyph glyph-name="caron" unicode="&#x2c7;" horiz-adv-x="318" 
d="M297 556h-135l-61 144h89l51 -81l84 81h94z" />
    <glyph glyph-name="uni02C9" unicode="&#x2c9;" horiz-adv-x="363" 
d="M439 591h-362l18 85h362z" />
    <glyph glyph-name="uni02CB" unicode="&#x2cb;" horiz-adv-x="263" 
d="M332 556h-104l-127 144h136z" />
    <glyph glyph-name="breve" unicode="&#x2d8;" horiz-adv-x="351" 
d="M432 616q-85 -88 -194 -88q-53 0 -94 23.5t-63 64.5l75 54q29 -58 97 -58q69 0 122 58z" />
    <glyph glyph-name="dotaccent" unicode="&#x2d9;" horiz-adv-x="206" 
d="M265 623q0 -34 -27 -60.5t-62 -26.5q-30 0 -50 20t-20 50q0 34 27 60.5t62 26.5q30 0 50 -20t20 -50z" />
    <glyph glyph-name="ring" unicode="&#x2da;" horiz-adv-x="215" 
d="M183 525q-44 0 -71.5 27.5t-27.5 71.5q0 48 35.5 83t83.5 35q44 0 71.5 -27.5t27.5 -71.5q0 -48 -35.5 -83t-83.5 -35zM190 594q17 0 30 12.5t13 30.5q0 17 -10.5 27t-26.5 10q-17 0 -30 -13t-13 -30t10.5 -27t26.5 -10z" />
    <glyph glyph-name="ogonek" unicode="&#x2db;" horiz-adv-x="203" 
d="M70 -95l49 -43q-40 -48 -96 -48q-42 0 -70.5 20.5t-28.5 58.5q0 42 28.5 80.5t82.5 60.5l51 -34q-90 -40 -90 -96q0 -13 8.5 -21t22.5 -8q25 0 43 30z" />
    <glyph glyph-name="tilde" unicode="&#x2dc;" horiz-adv-x="334" 
d="M307 554q-38 0 -71 27.5t-51 27.5q-26 0 -36 -49h-79q13 69 41.5 101.5t82.5 32.5q30 0 51.5 -14t38 -27.5t32.5 -13.5q25 0 37 49h79q-15 -69 -43.5 -101.5t-81.5 -32.5z" />
    <glyph glyph-name="hungarumlaut" unicode="&#x2dd;" horiz-adv-x="355" 
d="M303 700l-147 -144h-89l116 144h120zM456 700l-147 -144h-89l115 144h121z" />
    <glyph glyph-name="hookabovecomb" unicode="&#x309;" horiz-adv-x="203" 
d="M228 720l-46 22q28 48 86 48q30 0 53.5 -16.5t23.5 -47.5q0 -30 -22 -59h-64q27 25 27 51q0 10 -7 17t-18 7q-19 0 -33 -22z" />
    <glyph glyph-name="uni037E" unicode="&#x37e;" horiz-adv-x="270" 
d="M197 83q0 -62 -46 -123.5t-116 -95.5l-53 55q79 34 105 84q-3 -1 -12 -1q-30 0 -50.5 19.5t-20.5 55.5q0 40 31.5 69.5t71.5 29.5q37 0 63.5 -24.5t26.5 -68.5zM159 302q-36 0 -61 25.5t-25 61.5q0 41 31 71.5t72 30.5q36 0 61 -25.5t25 -61.5q0 -42 -30.5 -72t-72.5 -30
z" />
    <glyph glyph-name="tonos" unicode="&#x384;" horiz-adv-x="593" 
d="M248 547h-64l70 218h120z" />
    <glyph glyph-name="dieresistonos" unicode="&#x385;" horiz-adv-x="593" 
d="M379 547h-66l71 218h120zM618 623q0 -34 -27 -60.5t-62 -26.5q-30 0 -50 20t-20 50q0 34 27 60.5t62 26.5q30 0 50 -20t20 -50zM303 623q0 -34 -27.5 -60.5t-61.5 -26.5q-30 0 -50 20t-20 50q0 34 27 60.5t62 26.5q29 0 49.5 -20t20.5 -50z" />
    <glyph glyph-name="Alphatonos" unicode="&#x386;" horiz-adv-x="697" 
d="M182 547h-64l70 218h120zM654 0h-187l-12 96h-263l-53 -96h-204l398 667h216zM442 246l-30 251l-140 -251h170z" />
    <glyph glyph-name="Epsilontonos" unicode="&#x388;" horiz-adv-x="636" 
d="M114 547h-64l70 218h120zM541 0h-489l147 667h489l-34 -150h-316l-23 -104h310l-33 -150h-310l-25 -113h317z" />
    <glyph glyph-name="Etatonos" unicode="&#x389;" horiz-adv-x="787" 
d="M114 547h-64l70 218h120zM673 0h-172l59 268h-277l-59 -268h-172l147 667h172l-55 -249h277l55 249h172z" />
    <glyph glyph-name="Iotatonos" unicode="&#x38a;" horiz-adv-x="338" 
d="M114 547h-64l70 218h120zM224 0h-172l147 667h172z" />
    <glyph glyph-name="Omicrontonos" unicode="&#x38c;" horiz-adv-x="766" 
d="M119 547h-64l70 218h120zM374 -12q-146 0 -242 84t-96 219q0 162 113 274.5t281 112.5q145 0 241.5 -83.5t96.5 -217.5q0 -163 -113 -276t-281 -113zM384 140q87 0 146 65.5t59 158.5q0 72 -47 117t-122 45q-87 0 -146 -65.5t-59 -158.5q0 -72 47 -117t122 -45z" />
    <glyph glyph-name="Upsilontonos" unicode="&#x38e;" horiz-adv-x="752" 
d="M114 547h-64l70 218h120zM458 0h-172l59 269l-165 398h185l91 -246l197 246h204l-340 -398z" />
    <glyph glyph-name="Omegatonos" unicode="&#x38f;" horiz-adv-x="777" 
d="M119 547h-64l70 218h120zM35 150h129q-102 81 -102 210q0 56 24 111t69.5 102t120 76t165.5 29q147 0 245.5 -74t98.5 -200q0 -88 -50.5 -153t-116.5 -101h95l-33 -150h-283l33 150q79 19 124.5 79t45.5 138q0 71 -44 114.5t-123 43.5q-92 0 -148.5 -66.5t-56.5 -153.5
q0 -106 90 -155l-33 -150h-284z" />
    <glyph glyph-name="iotadieresistonos" unicode="&#x390;" horiz-adv-x="280" 
d="M224 547h-66l71 218h120zM463 623q0 -34 -27 -60.5t-62 -26.5q-30 0 -50 20t-20 50q0 34 27 60.5t62 26.5q30 0 50 -20t20 -50zM148 623q0 -34 -27.5 -60.5t-61.5 -26.5q-30 0 -50 20t-20 50q0 34 27 60.5t62 26.5q29 0 49.5 -20t20.5 -50zM150 -12q-74 0 -104.5 36
t-14.5 106l81 353h153l-73 -321q-4 -18 4 -28t24 -10q12 0 20 3l-19 -130q-29 -9 -71 -9z" />
    <glyph glyph-name="Alpha" unicode="&#x391;" horiz-adv-x="697" 
d="M654 0h-187l-12 96h-263l-53 -96h-204l398 667h216zM442 246l-30 251l-140 -251h170z" />
    <glyph glyph-name="Beta" unicode="&#x392;" horiz-adv-x="680" 
d="M397 0h-391l147 667h348q89 0 138 -48t49 -115q0 -65 -45.5 -116t-105.5 -56q45 -12 70 -50t25 -83q0 -36 -13 -70t-39.5 -63.5t-73.5 -47.5t-109 -18zM434 411q37 0 53.5 18.5t16.5 44.5q0 21 -14.5 34.5t-37.5 13.5h-158l-25 -111h165zM382 145q36 0 57 19.5t21 48.5
q0 23 -15 37.5t-40 14.5h-168l-27 -120h172z" />
    <glyph glyph-name="Gamma" unicode="&#x393;" horiz-adv-x="582" 
d="M178 0h-172l147 667h489l-34 -150h-316z" />
    <glyph glyph-name="uni0394" unicode="&#x394;" horiz-adv-x="697" 
d="M654 0h-719l398 667h216zM454 150l-42 347l-193 -347h235z" />
    <glyph glyph-name="Epsilon" unicode="&#x395;" 
d="M495 0h-489l147 667h489l-34 -150h-316l-23 -104h310l-33 -150h-310l-25 -113h317z" />
    <glyph glyph-name="Zeta" unicode="&#x396;" horiz-adv-x="596" 
d="M503 0h-518l30 137l359 380h-275l33 150h511l-30 -137l-360 -380h283z" />
    <glyph glyph-name="Eta" unicode="&#x397;" horiz-adv-x="741" 
d="M627 0h-172l59 268h-277l-59 -268h-172l147 667h172l-55 -249h277l55 249h172z" />
    <glyph glyph-name="Theta" unicode="&#x398;" horiz-adv-x="766" 
d="M518 263h-269l34 150h268zM374 -12q-146 0 -242 84t-96 219q0 162 113 274.5t281 112.5q145 0 241.5 -83.5t96.5 -217.5q0 -163 -113 -276t-281 -113zM384 140q87 0 146 65.5t59 158.5q0 72 -47 117t-122 45q-87 0 -146 -65.5t-59 -158.5q0 -72 47 -117t122 -45z" />
    <glyph glyph-name="Iota" unicode="&#x399;" horiz-adv-x="292" 
d="M178 0h-172l147 667h172z" />
    <glyph glyph-name="Kappa" unicode="&#x39a;" horiz-adv-x="654" 
d="M609 0h-202l-124 257l-62 -62l-43 -195h-172l147 667h172l-57 -261l253 261h221l-327 -312z" />
    <glyph glyph-name="Lambda" unicode="&#x39b;" horiz-adv-x="697" 
d="M654 0h-187l-55 497l-273 -497h-204l398 667h216z" />
    <glyph glyph-name="Mu" unicode="&#x39c;" horiz-adv-x="877" 
d="M763 0h-172l97 441l-266 -441h-76l-71 441l-97 -441h-172l147 667h233l58 -369l221 369h245z" />
    <glyph glyph-name="Nu" unicode="&#x39d;" horiz-adv-x="740" 
d="M626 0h-166l-194 398l-88 -398h-172l147 667h177l186 -379l84 379h173z" />
    <glyph glyph-name="Xi" unicode="&#x39e;" horiz-adv-x="631" 
d="M650 517h-546l34 150h545zM537 0h-546l34 150h545zM587 263h-532l33 150h533z" />
    <glyph glyph-name="Omicron" unicode="&#x39f;" horiz-adv-x="766" 
d="M374 -12q-146 0 -242 84t-96 219q0 162 113 274.5t281 112.5q145 0 241.5 -83.5t96.5 -217.5q0 -163 -113 -276t-281 -113zM384 140q87 0 146 65.5t59 158.5q0 72 -47 117t-122 45q-87 0 -146 -65.5t-59 -158.5q0 -72 47 -117t122 -45z" />
    <glyph glyph-name="Pi" unicode="&#x3a0;" horiz-adv-x="741" 
d="M627 0h-172l114 517h-277l-114 -517h-172l147 667h621z" />
    <glyph glyph-name="Rho" unicode="&#x3a1;" horiz-adv-x="643" 
d="M178 0h-172l147 667h323q86 0 141 -55.5t55 -135.5q0 -40 -14.5 -81t-45 -81t-89 -65t-136.5 -25h-160zM260 374h136q42 0 70 23.5t28 59.5q0 28 -19 44t-50 16h-133z" />
    <glyph glyph-name="Sigma" unicode="&#x3a3;" horiz-adv-x="584" 
d="M328 517l149 -182l-229 -185h276l-33 -150h-490l37 167l231 189l-149 178l29 133h489l-33 -150h-277z" />
    <glyph glyph-name="Tau" unicode="&#x3a4;" 
d="M327 0h-172l113 517h-187l34 150h545l-33 -150h-187z" />
    <glyph glyph-name="Upsilon" unicode="&#x3a5;" horiz-adv-x="655" 
d="M360 0h-172l59 269l-165 398h185l91 -246l197 246h204l-340 -398z" />
    <glyph glyph-name="Phi" unicode="&#x3a6;" horiz-adv-x="880" 
d="M472 0h-173l16 70q-138 17 -206 76.5t-68 167.5q0 120 109 197.5t286 88.5l15 67h173l-16 -72q138 -17 206 -76.5t68 -167.5q0 -120 -109 -197.5t-286 -88.5zM703 351q0 76 -130 94l-51 -225q89 10 135 44t46 87zM221 314q0 -77 128 -93l51 224q-179 -21 -179 -131z" />
    <glyph glyph-name="Chi" unicode="&#x3a7;" horiz-adv-x="676" 
d="M632 0h-194l-103 214l-187 -214h-213l315 352l-153 315h194l92 -200l168 200h213l-295 -335z" />
    <glyph glyph-name="Psi" unicode="&#x3a8;" horiz-adv-x="902" 
d="M483 0h-172l30 131q-246 35 -246 222q0 41 10 82l53 232h175l-59 -255q-4 -18 -4 -32q0 -76 105 -97l88 384h172l-88 -384q134 26 159 129l58 255h176l-65 -287q-23 -100 -120 -171t-244 -83z" />
    <glyph glyph-name="uni03A9" unicode="&#x3a9;" horiz-adv-x="766" 
d="M23 150h129q-102 81 -102 210q0 56 24 111t69.5 102t120 76t165.5 29q147 0 245.5 -74t98.5 -200q0 -88 -50.5 -153t-116.5 -101h95l-33 -150h-283l33 150q79 19 124.5 79t45.5 138q0 71 -44 114.5t-123 43.5q-92 0 -148.5 -66.5t-56.5 -153.5q0 -106 90 -155l-33 -150
h-284z" />
    <glyph glyph-name="Iotadieresis" unicode="&#x3aa;" horiz-adv-x="292" 
d="M178 0h-172l147 667h172zM454 807q0 -34 -27 -60.5t-62 -26.5q-29 0 -49 20t-20 50q0 34 27 60.5t62 26.5q29 0 49 -20t20 -50zM241 807q0 -34 -27 -60.5t-62 -26.5q-30 0 -50 20t-20 50q0 34 27 60.5t62 26.5q30 0 50 -20t20 -50z" />
    <glyph glyph-name="Upsilondieresis" unicode="&#x3ab;" horiz-adv-x="655" 
d="M360 0h-172l59 269l-165 398h185l91 -246l197 246h204l-340 -398zM637 807q0 -34 -27 -60.5t-62 -26.5q-29 0 -49 20t-20 50q0 34 27 60.5t62 26.5q29 0 49 -20t20 -50zM424 807q0 -34 -27 -60.5t-62 -26.5q-30 0 -50 20t-20 50q0 34 27 60.5t62 26.5q30 0 50 -20t20 -50
z" />
    <glyph glyph-name="alphatonos" unicode="&#x3ac;" horiz-adv-x="605" 
d="M390 547h-64l70 218h120zM565 127l-19 -130q-28 -9 -71 -9q-111 0 -122 84q-40 -46 -75.5 -65t-76.5 -19q-83 0 -132 52.5t-49 147.5q0 73 27.5 141.5t87 117t139.5 48.5q99 0 147 -69l13 57h153l-70 -321q-4 -18 4 -28t24 -10q13 0 20 3zM273 124q51 0 91 45l33 146
q-34 44 -96 44q-53 0 -87.5 -40.5t-34.5 -98.5q0 -43 27 -69.5t67 -26.5z" />
    <glyph glyph-name="epsilontonos" unicode="&#x3ad;" horiz-adv-x="498" 
d="M352 547h-64l70 218h120zM221 -12q-113 0 -168 35.5t-55 94.5q0 55 53.5 90.5t108.5 39.5q-46 8 -73 34.5t-27 60.5q0 66 71 109t183 43q135 0 212 -82l-91 -84q-47 48 -125 48q-43 0 -69 -12t-26 -30q0 -34 70 -34h94l-26 -115h-94q-47 0 -72 -12.5t-25 -33.5
q0 -34 72 -34q92 0 170 50l51 -95q-103 -73 -234 -73z" />
    <glyph glyph-name="etatonos" unicode="&#x3ae;" horiz-adv-x="593" 
d="M392 547h-64l70 218h120zM441 -184h-154l104 464q3 14 3 26q0 53 -73 53q-49 0 -96 -47l-69 -312h-154l107 483h154l-14 -59q77 71 157 71q72 0 113.5 -34.5t41.5 -90.5q0 -15 -5 -40z" />
    <glyph glyph-name="iotatonos" unicode="&#x3af;" horiz-adv-x="280" 
d="M233 547h-64l70 218h120zM150 -12q-74 0 -104.5 36t-14.5 106l81 353h153l-73 -321q-4 -18 4 -28t24 -10q12 0 20 3l-19 -130q-29 -9 -71 -9z" />
    <glyph glyph-name="upsilondieresistonos" unicode="&#x3b0;" horiz-adv-x="584" 
d="M388 547h-66l71 218h120zM627 623q0 -34 -27 -60.5t-62 -26.5q-30 0 -50 20t-20 50q0 34 27 60.5t62 26.5q30 0 50 -20t20 -50zM312 623q0 -34 -27.5 -60.5t-61.5 -26.5q-30 0 -50 20t-20 50q0 34 27 60.5t62 26.5q29 0 49.5 -20t20.5 -50zM261 -12q-123 0 -177.5 66.5
t-29.5 171.5l58 257h154l-59 -259q-10 -45 7 -72.5t60 -27.5q65 0 104.5 57t39.5 144q0 69 -21 115l152 55q28 -56 28 -151q0 -154 -87 -255t-229 -101z" />
    <glyph glyph-name="alpha" unicode="&#x3b1;" horiz-adv-x="605" 
d="M565 127l-19 -130q-28 -9 -71 -9q-111 0 -122 84q-40 -46 -75.5 -65t-76.5 -19q-83 0 -132 52.5t-49 147.5q0 73 27.5 141.5t87 117t139.5 48.5q99 0 147 -69l13 57h153l-70 -321q-4 -18 4 -28t24 -10q13 0 20 3zM273 124q51 0 91 45l33 146q-34 44 -96 44
q-53 0 -87.5 -40.5t-34.5 -98.5q0 -43 27 -69.5t67 -26.5z" />
    <glyph glyph-name="beta" unicode="&#x3b2;" horiz-adv-x="591" 
d="M325 -12q-103 0 -157 66l-54 -238h-154l143 629q18 81 69.5 135.5t109 75.5t119.5 21q102 0 157.5 -41.5t55.5 -116.5q0 -65 -53.5 -114t-126.5 -61q53 -11 87 -44.5t34 -95.5q0 -92 -72 -154t-158 -62zM257 445l-64 -279q30 -42 98 -42q50 0 80 25t30 61
q0 27 -20.5 42.5t-59.5 15.5h-42l31 137h37q47 0 74 22.5t27 57.5q0 55 -74 55q-42 0 -74.5 -26.5t-42.5 -68.5z" />
    <glyph glyph-name="gamma" unicode="&#x3b3;" horiz-adv-x="524" 
d="M242 -184h-153l21 93q36 171 14.5 321.5t-88.5 252.5h172q33 -58 50 -148.5t9 -160.5q40 49 83.5 140.5t61.5 168.5h153q-27 -118 -106.5 -252.5t-173.5 -225.5z" />
    <glyph glyph-name="delta" unicode="&#x3b4;" horiz-adv-x="576" 
d="M259 -12q-120 0 -180.5 58.5t-60.5 151.5q0 75 45.5 135t112.5 91q-35 33 -35 87q0 69 68 118.5t175 49.5q118 0 190 -64l-82 -107q-20 22 -55 36.5t-76 14.5q-29 0 -49 -10.5t-20 -25.5q0 -14 27.5 -25t66 -24.5t77.5 -34.5t66.5 -65.5t27.5 -107.5q0 -106 -85.5 -192
t-212.5 -86zM405 248q0 44 -28.5 68.5t-83.5 45.5q-53 -22 -83.5 -62t-30.5 -81q0 -43 26 -69t73 -26q52 0 89.5 38t37.5 86z" />
    <glyph glyph-name="epsilon" unicode="&#x3b5;" horiz-adv-x="498" 
d="M221 -12q-113 0 -168 35.5t-55 94.5q0 55 53.5 90.5t108.5 39.5q-46 8 -73 34.5t-27 60.5q0 66 71 109t183 43q135 0 212 -82l-91 -84q-47 48 -125 48q-43 0 -69 -12t-26 -30q0 -34 70 -34h94l-26 -115h-94q-47 0 -72 -12.5t-25 -33.5q0 -34 72 -34q92 0 170 50l51 -95
q-103 -73 -234 -73z" />
    <glyph glyph-name="zeta" unicode="&#x3b6;" horiz-adv-x="484" 
d="M244 -23q0 11 -18 11q-101 0 -157.5 47.5t-56.5 130.5q0 106 83.5 204.5t221.5 162.5h-209l30 134h408l-25 -109q-137 -64 -241.5 -164.5t-104.5 -194.5q0 -75 101 -75q137 0 137 -86q0 -70 -100 -195h-166q34 34 65.5 74.5t31.5 59.5z" />
    <glyph glyph-name="eta" unicode="&#x3b7;" horiz-adv-x="593" 
d="M441 -184h-154l104 464q3 14 3 26q0 53 -73 53q-49 0 -96 -47l-69 -312h-154l107 483h154l-14 -59q77 71 157 71q72 0 113.5 -34.5t41.5 -90.5q0 -15 -5 -40z" />
    <glyph glyph-name="theta" unicode="&#x3b8;" horiz-adv-x="576" 
d="M269 -12q-106 0 -170.5 71.5t-64.5 201.5q0 171 91.5 294.5t227.5 123.5q106 0 169.5 -71.5t63.5 -202.5q0 -171 -90.5 -294t-226.5 -123zM278 124q38 0 70 40t54 104h-213q-1 -11 -1 -30q0 -52 22.5 -83t67.5 -31zM342 543q-38 0 -70 -39.5t-54 -101.5h212q0 5 0.5 14.5
t0.5 13.5q0 52 -22 82.5t-67 30.5z" />
    <glyph glyph-name="iota" unicode="&#x3b9;" horiz-adv-x="280" 
d="M150 -12q-74 0 -104.5 36t-14.5 106l81 353h153l-73 -321q-4 -18 4 -28t24 -10q12 0 20 3l-19 -130q-29 -9 -71 -9z" />
    <glyph glyph-name="kappa" unicode="&#x3ba;" horiz-adv-x="546" 
d="M498 0h-185l-70 174l-62 -58l-25 -116h-154l107 483h154l-42 -185l183 185h192l-227 -220z" />
    <glyph glyph-name="lambda" unicode="&#x3bb;" horiz-adv-x="524" 
d="M135 534l9 137q29 8 68 8q77 -3 120.5 -29.5t54.5 -97.5l93 -552h-158l-41 306l-178 -306h-167l304 490l-5 26q-7 27 -59 27q-23 0 -41 -9z" />
    <glyph glyph-name="uni03BC" unicode="&#x3bc;" horiz-adv-x="606" 
d="M156 5l-43 -189h-153l151 667h154l-63 -280q-9 -38 8 -58.5t53 -20.5q56 0 103 47l69 312h153l-70 -321q-4 -18 4 -28t24 -10q12 0 20 3l-19 -130q-29 -9 -71 -9q-113 0 -123 87q-63 -87 -146 -87q-37 0 -51 17z" />
    <glyph glyph-name="nu" unicode="&#x3bd;" horiz-adv-x="524" 
d="M280 0h-154l-80 483h162l42 -330q55 65 98.5 156t63.5 174h153q-26 -119 -107.5 -255.5t-177.5 -227.5z" />
    <glyph glyph-name="xi" unicode="&#x3be;" horiz-adv-x="484" 
d="M227 -12q-111 0 -167.5 40.5t-56.5 112.5q0 63 42.5 106.5t108.5 62.5q-36 6 -58.5 29.5t-22.5 63.5q0 38 34.5 75.5t84.5 54.5h-79l31 134h400l-31 -134h-191q-34 -9 -56.5 -30t-22.5 -49q0 -51 89 -51h148l-30 -132h-147q-63 0 -97.5 -23t-34.5 -65q0 -59 105 -59
q137 0 137 -86q0 -70 -100 -195h-161q30 32 61 74t31 60q0 11 -17 11z" />
    <glyph glyph-name="omicron" unicode="&#x3bf;" horiz-adv-x="576" 
d="M269 -12q-118 0 -183.5 62.5t-65.5 159.5q0 115 81 200t203 85q118 0 183.5 -62.5t65.5 -160.5q0 -115 -81 -199.5t-203 -84.5zM275 124q52 0 86.5 42t34.5 99q0 44 -26 69t-71 25q-53 0 -87 -42t-34 -99q0 -44 26 -69t71 -25z" />
    <glyph glyph-name="pi" unicode="&#x3c0;" horiz-adv-x="656" 
d="M514 0h-153l79 349h-173l-80 -349h-153l79 349h-80l31 134h640l-30 -134h-80z" />
    <glyph glyph-name="rho" unicode="&#x3c1;" 
d="M315 -12q-43 0 -83.5 18t-62.5 51l-55 -241h-154l96 426q26 117 102.5 185t191.5 68q102 0 161 -60t59 -157q0 -48 -16.5 -97.5t-47.5 -93t-81 -71.5t-110 -28zM289 124q52 0 87 40.5t35 97.5q0 42 -23.5 69.5t-61.5 27.5q-45 0 -75 -32.5t-42 -84.5l-16 -74
q34 -44 96 -44z" />
    <glyph glyph-name="sigma1" unicode="&#x3c2;" horiz-adv-x="497" 
d="M238 -12q-86 0 -151.5 62t-65.5 160q0 120 82.5 202.5t203.5 82.5q146 0 205 -98l-115 -87q-30 49 -91 49q-56 0 -92.5 -40.5t-36.5 -99.5q0 -95 131 -95q53 0 84 -24t31 -67q0 -65 -100 -190h-165q32 29 64.5 72t32.5 61q0 12 -17 12z" />
    <glyph glyph-name="sigma" unicode="&#x3c3;" horiz-adv-x="576" 
d="M538 251q0 -104 -76.5 -183.5t-192.5 -79.5q-118 0 -183 62.5t-65 159.5q0 116 88 194.5t221 78.5h284l-31 -136h-77q32 -36 32 -96zM396 263q0 58 -32 84h-49q-62 0 -99.5 -37t-37.5 -92q0 -44 26 -69t71 -25q52 0 86.5 42t34.5 97z" />
    <glyph glyph-name="tau" unicode="&#x3c4;" horiz-adv-x="488" 
d="M274 -12q-76 0 -111 36t-19 108l49 217h-150l31 134h453l-31 -134h-150l-39 -178q-5 -21 5.5 -34t30.5 -13q28 0 38 10l4 -117q-36 -29 -111 -29z" />
    <glyph glyph-name="upsilon" unicode="&#x3c5;" horiz-adv-x="584" 
d="M261 -12q-123 0 -177.5 66.5t-29.5 171.5l58 257h154l-59 -259q-10 -45 7 -72.5t60 -27.5q65 0 104.5 57t39.5 144q0 69 -21 115l152 55q28 -56 28 -151q0 -154 -87 -255t-229 -101z" />
    <glyph glyph-name="phi" unicode="&#x3c6;" horiz-adv-x="820" 
d="M804 269q0 -117 -98.5 -193.5t-275.5 -85.5l-39 -174h-154l40 178q-257 30 -257 228q0 179 252 273l37 -120q-60 -20 -93 -58.5t-33 -80.5q0 -91 125 -108l83 367h76q166 0 251.5 -57.5t85.5 -168.5zM513 355l-52 -228q180 19 180 129q0 46 -34.5 71t-93.5 28z" />
    <glyph glyph-name="chi" unicode="&#x3c7;" horiz-adv-x="512" 
d="M422 -184h-164l-47 200l-141 -200h-172l243 343l-81 324h164l42 -180l124 180h173l-228 -324z" />
    <glyph glyph-name="psi" unicode="&#x3c8;" horiz-adv-x="820" 
d="M391 -184h-154l40 179q-223 30 -223 201q0 34 9 70l49 217h154l-53 -234q-4 -18 -4 -28q0 -71 99 -91l123 537h154l-123 -537q129 24 151 119l53 234h154l-58 -254q-23 -100 -109 -165t-223 -74z" />
    <glyph glyph-name="omega" unicode="&#x3c9;" horiz-adv-x="875" 
d="M860 311q0 -130 -79 -226.5t-197 -96.5q-145 0 -171 132q-43 -67 -89.5 -99.5t-115.5 -32.5q-86 0 -138.5 57.5t-52.5 143.5q0 87 48.5 168t124.5 138l100 -87q-113 -96 -113 -199q0 -38 17.5 -61.5t51.5 -23.5q42 0 72.5 33t42.5 85l27 121h154l-27 -121
q-12 -51 4.5 -84.5t59.5 -33.5q54 0 88 49.5t34 118.5q0 71 -35 121l134 82q60 -69 60 -184z" />
    <glyph glyph-name="iotadieresis" unicode="&#x3ca;" horiz-adv-x="280" 
d="M404 623q0 -34 -27 -60.5t-62 -26.5q-29 0 -49 20t-20 50q0 34 27 60.5t62 26.5q29 0 49 -20t20 -50zM191 623q0 -34 -27 -60.5t-62 -26.5q-30 0 -50 20t-20 50q0 34 27 60.5t62 26.5q30 0 50 -20t20 -50zM150 -12q-74 0 -104.5 36t-14.5 106l81 353h153l-73 -321
q-4 -18 4 -28t24 -10q12 0 20 3l-19 -130q-29 -9 -71 -9z" />
    <glyph glyph-name="upsilondieresis" unicode="&#x3cb;" horiz-adv-x="584" 
d="M568 623q0 -34 -27 -60.5t-62 -26.5q-29 0 -49 20t-20 50q0 34 27 60.5t62 26.5q29 0 49 -20t20 -50zM355 623q0 -34 -27 -60.5t-62 -26.5q-30 0 -50 20t-20 50q0 34 27 60.5t62 26.5q30 0 50 -20t20 -50zM261 -12q-123 0 -177.5 66.5t-29.5 171.5l58 257h154l-59 -259
q-10 -45 7 -72.5t60 -27.5q65 0 104.5 57t39.5 144q0 69 -21 115l152 55q28 -56 28 -151q0 -154 -87 -255t-229 -101z" />
    <glyph glyph-name="omicrontonos" unicode="&#x3cc;" horiz-adv-x="576" 
d="M383 547h-64l70 218h120zM269 -12q-118 0 -183.5 62.5t-65.5 159.5q0 115 81 200t203 85q118 0 183.5 -62.5t65.5 -160.5q0 -115 -81 -199.5t-203 -84.5zM275 124q52 0 86.5 42t34.5 99q0 44 -26 69t-71 25q-53 0 -87 -42t-34 -99q0 -44 26 -69t71 -25z" />
    <glyph glyph-name="upsilontonos" unicode="&#x3cd;" horiz-adv-x="584" 
d="M395 547h-64l70 218h120zM261 -12q-123 0 -177.5 66.5t-29.5 171.5l58 257h154l-59 -259q-10 -45 7 -72.5t60 -27.5q65 0 104.5 57t39.5 144q0 69 -21 115l152 55q28 -56 28 -151q0 -154 -87 -255t-229 -101z" />
    <glyph glyph-name="omegatonos" unicode="&#x3ce;" horiz-adv-x="875" 
d="M534 547h-64l70 218h120zM860 311q0 -130 -79 -226.5t-197 -96.5q-145 0 -171 132q-43 -67 -89.5 -99.5t-115.5 -32.5q-86 0 -138.5 57.5t-52.5 143.5q0 87 48.5 168t124.5 138l100 -87q-113 -96 -113 -199q0 -38 17.5 -61.5t51.5 -23.5q42 0 72.5 33t42.5 85l27 121h154
l-27 -121q-12 -51 4.5 -84.5t59.5 -33.5q54 0 88 49.5t34 118.5q0 71 -35 121l134 82q60 -69 60 -184z" />
    <glyph glyph-name="afii10023" unicode="&#x401;" 
d="M612 790q0 -34 -27 -60.5t-62 -26.5q-29 0 -49 20t-20 50q0 34 27 60.5t62 26.5q29 0 49 -20t20 -50zM399 790q0 -34 -27 -60.5t-62 -26.5q-30 0 -50 20t-20 50q0 34 27 60.5t62 26.5q30 0 50 -20t20 -50zM495 0h-489l147 667h489l-34 -150h-316l-23 -104h310l-33 -150
h-310l-25 -113h317z" />
    <glyph glyph-name="afii10051" unicode="&#x402;" horiz-adv-x="791" 
d="M468 -12l32 144q35 0 59 18t30 47l1 7q7 36 -17 55t-74 19q-62 0 -116 -19l-56 -259h-172l113 517h-188l34 150h545l-33 -150h-186l-23 -107q80 18 139 18q127 0 178 -61.5t30 -162.5l-2 -7q-19 -94 -101 -151.5t-193 -57.5z" />
    <glyph glyph-name="afii10052" unicode="&#x403;" horiz-adv-x="582" 
d="M645 867l-191 -144h-106l159 144h138zM178 0h-172l147 667h489l-34 -150h-316z" />
    <glyph glyph-name="afii10053" unicode="&#x404;" horiz-adv-x="692" 
d="M374 -12q-145 0 -241.5 83.5t-96.5 219.5q0 171 114.5 279t279.5 108q125 0 202 -58.5t107 -146.5l-166 -54q-14 50 -54.5 78.5t-96.5 28.5q-57 0 -105 -31t-75 -82h279l-34 -150h-268q12 -55 56 -89t109 -34q41 0 82 21.5t63 55.5l134 -88q-55 -75 -133 -108t-156 -33z
" />
    <glyph glyph-name="afii10054" unicode="&#x405;" horiz-adv-x="606" 
d="M308 -12q-101 0 -186 34.5t-132 92.5l105 124q35 -46 97 -74.5t130 -28.5q38 0 57.5 16t19.5 37q0 17 -24 31.5t-59.5 25.5t-77.5 28t-77.5 37.5t-59.5 56t-24 81.5q0 91 73.5 159.5t199.5 68.5q82 0 155.5 -28.5t123.5 -81.5l-105 -120q-37 40 -92.5 61.5t-108.5 21.5
q-29 0 -47 -13.5t-18 -33.5q0 -19 33.5 -35t80.5 -32t94.5 -37.5t81 -61.5t33.5 -94q0 -101 -74.5 -168t-198.5 -67z" />
    <glyph glyph-name="afii10055" unicode="&#x406;" horiz-adv-x="292" 
d="M178 0h-172l147 667h172z" />
    <glyph glyph-name="afii10056" unicode="&#x407;" horiz-adv-x="292" 
d="M450 790q0 -34 -27 -60.5t-62 -26.5q-29 0 -49 20t-20 50q0 34 27 60.5t62 26.5q29 0 49 -20t20 -50zM237 790q0 -34 -27 -60.5t-62 -26.5q-30 0 -50 20t-20 50q0 34 27 60.5t62 26.5q30 0 50 -20t20 -50zM178 0h-172l147 667h172z" />
    <glyph glyph-name="afii10057" unicode="&#x408;" horiz-adv-x="492" 
d="M168 -12q-133 0 -201 71l91 129q36 -48 97 -48q83 0 102 91l96 436h172l-97 -438q-27 -125 -89 -183t-171 -58z" />
    <glyph glyph-name="afii10058" unicode="&#x409;" horiz-adv-x="1092" 
d="M-34 -12l33 152q50 0 87.5 40.5t74.5 148.5l115 338h497l-49 -224h151q86 0 141.5 -55.5t55.5 -135.5q0 -32 -8.5 -64t-29.5 -66.5t-52 -61t-82 -43.5t-114 -17h-331l113 517h-170l-68 -201q-33 -98 -74 -164.5t-88.5 -101t-95 -48.5t-106.5 -14zM824 293h-133l-31 -143
h135q42 0 70 23.5t28 60.5q0 27 -18.5 43t-50.5 16z" />
    <glyph glyph-name="afii10059" unicode="&#x40a;" horiz-adv-x="1092" 
d="M791 0h-336l62 285h-277l-62 -285h-172l146 667h172l-51 -232h276l52 232h172l-51 -232h156q85 0 138.5 -54t53.5 -134q0 -40 -14 -80t-44 -79t-87 -63.5t-134 -24.5zM827 285h-138l-29 -135h140q40 0 66.5 22t26.5 57q0 25 -18 40.5t-48 15.5z" />
    <glyph glyph-name="afii10060" unicode="&#x40b;" horiz-adv-x="827" 
d="M546 0l38 176q21 102 -85 102q-62 0 -116 -19l-56 -259h-172l113 517h-188l34 150h545l-33 -150h-186l-23 -107q80 18 139 18q128 0 178 -67.5t24 -184.5l-38 -176h-174z" />
    <glyph glyph-name="afii10061" unicode="&#x40c;" horiz-adv-x="654" 
d="M672 867l-191 -144h-106l159 144h138zM609 0h-202l-124 257l-62 -62l-43 -195h-172l147 667h172l-57 -261l253 261h221l-327 -312z" />
    <glyph glyph-name="afii10062" unicode="&#x40e;" horiz-adv-x="655" 
d="M106 -12q-106 0 -157 51l97 134q35 -33 79 -33q29 0 49.5 12t41.5 40l-135 475h191l76 -313l214 313h196l-389 -536q-105 -143 -263 -143zM616 783q-85 -88 -194 -88q-53 0 -94 23.5t-63 64.5l75 54q29 -58 97 -58q69 0 122 58z" />
    <glyph glyph-name="afii10145" unicode="&#x40f;" horiz-adv-x="741" 
d="M202 -125l27 125h-223l146 667h172l-113 -517h276l114 517h172l-146 -667h-225l-27 -125h-173z" />
    <glyph glyph-name="afii10017" unicode="&#x410;" horiz-adv-x="697" 
d="M654 0h-187l-12 96h-263l-53 -96h-204l398 667h216zM442 246l-30 251l-140 -251h170z" />
    <glyph glyph-name="afii10018" unicode="&#x411;" horiz-adv-x="643" 
d="M152 667h521l-33 -150h-349l-19 -86h129q105 0 163 -53t58 -133q0 -39 -14.5 -79t-45 -78.5t-88.5 -63t-136 -24.5h-332zM384 281h-145l-28 -131h141q42 0 67 21.5t25 54.5q0 25 -16.5 40t-43.5 15z" />
    <glyph glyph-name="afii10019" unicode="&#x412;" horiz-adv-x="680" 
d="M397 0h-391l147 667h348q89 0 138 -48t49 -115q0 -65 -45.5 -116t-105.5 -56q45 -12 70 -50t25 -83q0 -36 -13 -70t-39.5 -63.5t-73.5 -47.5t-109 -18zM434 411q37 0 53.5 18.5t16.5 44.5q0 21 -14.5 34.5t-37.5 13.5h-158l-25 -111h165zM382 145q36 0 57 19.5t21 48.5
q0 23 -15 37.5t-40 14.5h-168l-27 -120h172z" />
    <glyph glyph-name="afii10020" unicode="&#x413;" horiz-adv-x="582" 
d="M178 0h-172l147 667h489l-34 -150h-316z" />
    <glyph glyph-name="afii10021" unicode="&#x414;" horiz-adv-x="755" 
d="M-58 -123l57 263q55 9 90.5 46t71.5 143l115 338h497l-113 -517h59l-60 -273h-173l27 123h-373l-27 -123h-171zM398 517l-68 -201q-35 -105 -109 -166h266l81 367h-170z" />
    <glyph glyph-name="afii10022" unicode="&#x415;" 
d="M495 0h-489l147 667h489l-34 -150h-316l-23 -104h310l-33 -150h-310l-25 -113h317z" />
    <glyph glyph-name="afii10024" unicode="&#x416;" horiz-adv-x="971" 
d="M157 0h-220l350 355l-190 312h201l137 -260l57 260h172l-51 -231l224 231h221l-327 -312l196 -355h-201l-124 258l-35 -35l-49 -223h-172l48 221l-13 23z" />
    <glyph glyph-name="afii10025" unicode="&#x417;" horiz-adv-x="624" 
d="M306 -12q-102 0 -190 36.5t-128 102.5l112 105q32 -44 91 -68t113 -24q51 0 79 19t28 50q0 52 -117 52h-136l34 151h142q123 0 123 56q0 28 -34.5 43t-94.5 15q-100 0 -167 -49l-59 116q43 38 108 61t135 23q131 0 210.5 -47.5t79.5 -129.5q0 -60 -55.5 -106t-124.5 -56
q125 -30 125 -148q0 -87 -81.5 -144.5t-192.5 -57.5z" />
    <glyph glyph-name="afii10026" unicode="&#x418;" horiz-adv-x="740" 
d="M172 0h-166l147 667h172l-83 -379l353 379h178l-147 -667h-173l88 398z" />
    <glyph glyph-name="afii10027" unicode="&#x419;" horiz-adv-x="740" 
d="M172 0h-166l147 667h172l-83 -379l353 379h178l-147 -667h-173l88 398zM661 783q-85 -88 -194 -88q-53 0 -94 23.5t-63 64.5l75 54q29 -58 97 -58q69 0 122 58z" />
    <glyph glyph-name="afii10028" unicode="&#x41a;" horiz-adv-x="654" 
d="M609 0h-202l-124 257l-62 -62l-43 -195h-172l147 667h172l-57 -261l253 261h221l-327 -312z" />
    <glyph glyph-name="afii10029" unicode="&#x41b;" horiz-adv-x="741" 
d="M-34 -12l33 152q50 0 87.5 40.5t74.5 148.5l115 338h497l-146 -667h-172l113 517h-170l-68 -201q-33 -98 -74 -164.5t-88.5 -101t-95 -48.5t-106.5 -14z" />
    <glyph glyph-name="afii10030" unicode="&#x41c;" horiz-adv-x="877" 
d="M763 0h-172l97 441l-266 -441h-76l-71 441l-97 -441h-172l147 667h233l58 -369l221 369h245z" />
    <glyph glyph-name="afii10031" unicode="&#x41d;" horiz-adv-x="741" 
d="M627 0h-172l59 268h-277l-59 -268h-172l147 667h172l-55 -249h277l55 249h172z" />
    <glyph glyph-name="afii10032" unicode="&#x41e;" horiz-adv-x="766" 
d="M374 -12q-146 0 -242 84t-96 219q0 162 113 274.5t281 112.5q145 0 241.5 -83.5t96.5 -217.5q0 -163 -113 -276t-281 -113zM384 140q87 0 146 65.5t59 158.5q0 72 -47 117t-122 45q-87 0 -146 -65.5t-59 -158.5q0 -72 47 -117t122 -45z" />
    <glyph glyph-name="afii10033" unicode="&#x41f;" horiz-adv-x="741" 
d="M627 0h-172l114 517h-277l-114 -517h-172l147 667h621z" />
    <glyph glyph-name="afii10034" unicode="&#x420;" horiz-adv-x="643" 
d="M178 0h-172l147 667h323q86 0 141 -55.5t55 -135.5q0 -40 -14.5 -81t-45 -81t-89 -65t-136.5 -25h-160zM260 374h136q42 0 70 23.5t28 59.5q0 28 -19 44t-50 16h-133z" />
    <glyph glyph-name="afii10035" unicode="&#x421;" horiz-adv-x="692" 
d="M374 -12q-145 0 -241.5 83.5t-96.5 219.5q0 171 114.5 279t279.5 108q125 0 202 -58.5t107 -146.5l-166 -54q-14 50 -54.5 78.5t-96.5 28.5q-87 0 -147 -65.5t-60 -158.5q0 -69 46.5 -115.5t122.5 -46.5q41 0 82 21.5t63 55.5l134 -88q-55 -75 -133 -108t-156 -33z" />
    <glyph glyph-name="afii10036" unicode="&#x422;" 
d="M327 0h-172l113 517h-187l34 150h545l-33 -150h-187z" />
    <glyph glyph-name="afii10037" unicode="&#x423;" horiz-adv-x="655" 
d="M106 -12q-106 0 -157 51l97 134q35 -33 79 -33q29 0 49.5 12t41.5 40l-135 475h191l76 -313l214 313h196l-389 -536q-105 -143 -263 -143z" />
    <glyph glyph-name="afii10038" unicode="&#x424;" horiz-adv-x="880" 
d="M472 0h-173l16 70q-138 17 -206 76.5t-68 167.5q0 120 109 197.5t286 88.5l15 67h173l-16 -72q138 -17 206 -76.5t68 -167.5q0 -120 -109 -197.5t-286 -88.5zM703 351q0 76 -130 94l-51 -225q89 10 135 44t46 87zM221 314q0 -77 128 -93l51 224q-179 -21 -179 -131z" />
    <glyph glyph-name="afii10039" unicode="&#x425;" horiz-adv-x="676" 
d="M632 0h-194l-103 214l-187 -214h-213l315 352l-153 315h194l92 -200l168 200h213l-295 -335z" />
    <glyph glyph-name="afii10040" unicode="&#x426;" horiz-adv-x="755" 
d="M486 -123l27 123h-507l146 667h172l-113 -517h276l114 517h172l-113 -517h59l-60 -273h-173z" />
    <glyph glyph-name="afii10041" unicode="&#x427;" horiz-adv-x="670" 
d="M311 667l-43 -199q-24 -102 84 -102q64 0 116 19l62 282h172l-146 -667h-172l51 234q-80 -18 -140 -18q-128 0 -178 67.5t-24 184.5l44 199h174z" />
    <glyph glyph-name="afii10042" unicode="&#x428;" horiz-adv-x="1017" 
d="M877 667h172l-146 -667h-897l146 667h172l-113 -517h190l114 517h172l-114 -517h191z" />
    <glyph glyph-name="afii10043" unicode="&#x429;" horiz-adv-x="1032" 
d="M877 667h172l-113 -517h59l-60 -273h-172l27 123h-784l146 667h172l-113 -517h190l114 517h172l-114 -517h191z" />
    <glyph glyph-name="afii10044" unicode="&#x42a;" horiz-adv-x="792" 
d="M486 0h-331l113 517h-188l34 150h359l-49 -224h150q87 0 142 -55.5t55 -135.5q0 -40 -14.5 -81t-45 -81t-89 -65t-136.5 -25zM524 293h-133l-32 -143h135q42 0 70.5 23.5t28.5 60.5q0 27 -19 43t-50 16z" />
    <glyph glyph-name="afii10045" unicode="&#x42b;" horiz-adv-x="907" 
d="M793 0h-172l146 667h172zM152 667h172l-49 -224h151q86 0 141 -55.5t55 -135.5q0 -40 -14.5 -81t-45 -81t-89 -65t-136.5 -25h-331zM375 293h-133l-31 -143h135q42 0 70 23.5t28 60.5q0 27 -18.5 43t-50.5 16z" />
    <glyph glyph-name="afii10046" unicode="&#x42c;" horiz-adv-x="643" 
d="M152 667h172l-49 -224h151q86 0 141 -55.5t55 -135.5q0 -40 -14.5 -81t-45 -81t-89 -65t-136.5 -25h-331zM375 293h-133l-31 -143h135q42 0 70 23.5t28 60.5q0 27 -18.5 43t-50.5 16z" />
    <glyph glyph-name="afii10047" unicode="&#x42d;" horiz-adv-x="692" 
d="M356 678q144 0 241 -83t97 -219q0 -172 -115 -280t-280 -108q-125 0 -201.5 58.5t-106.5 146.5l166 54q14 -50 54.5 -78.5t95.5 -28.5q60 0 109.5 33.5t75.5 89.5h-280l33 150h263q-15 51 -57.5 82t-104.5 31q-41 0 -82 -21.5t-64 -55.5l-133 88q54 75 132.5 108
t156.5 33z" />
    <glyph glyph-name="afii10048" unicode="&#x42e;" horiz-adv-x="1075" 
d="M683 -12q-139 0 -233.5 77t-102.5 203h-110l-59 -268h-172l146 667h172l-55 -249h98q39 116 140 188t233 72q145 0 241 -83.5t96 -217.5q0 -163 -113 -276t-281 -113zM693 140q87 0 146.5 65.5t59.5 158.5q0 72 -47.5 117t-121.5 45q-88 0 -147 -65.5t-59 -158.5
q0 -72 47 -117t122 -45z" />
    <glyph glyph-name="afii10049" unicode="&#x42f;" horiz-adv-x="661" 
d="M190 0h-212l195 250q-40 21 -68 64t-28 101q0 40 14.5 81t45 81t89 65t136.5 25h332l-147 -667h-173l50 224h-72zM325 374h133l31 143h-136q-41 0 -69 -23.5t-28 -59.5q0 -28 18.5 -44t50.5 -16z" />
    <glyph glyph-name="afii10065" unicode="&#x430;" horiz-adv-x="591" 
d="M274 495q99 0 147 -69l13 57h153l-107 -483h-153l12 56q-59 -68 -138 -68q-83 0 -132 52.5t-49 147.5q0 73 27.5 141.5t87 117t139.5 48.5zM301 359q-53 0 -87.5 -40.5t-34.5 -98.5q0 -43 27 -69.5t67 -26.5q53 0 91 45l33 146q-34 44 -96 44z" />
    <glyph glyph-name="afii10066" unicode="&#x431;" horiz-adv-x="577" 
d="M275 124q52 0 86.5 42t34.5 99q0 44 -26 69t-71 25q-53 0 -87 -42t-34 -99q0 -44 26 -69t71 -25zM269 -12q-119 0 -181 65t-62 177q0 39 13.5 92.5t35.5 94.5q49 89 120.5 142t180.5 73q77 14 83 35h166q-23 -105 -226 -133q-149 -21 -192 -110q66 66 161 66
q85 0 135 -61t50 -157q0 -115 -80.5 -199.5t-203.5 -84.5z" />
    <glyph glyph-name="afii10067" unicode="&#x432;" horiz-adv-x="602" 
d="M356 0h-354l106 483h307q68 0 107 -30.5t39 -79.5q0 -47 -30.5 -83t-79.5 -46q71 -25 71 -94q0 -63 -45 -106.5t-121 -43.5zM182 119h149q18 0 29 10.5t11 27.5q0 13 -9 21t-25 8h-140zM223 304h139q17 0 27.5 10t10.5 25q0 25 -30 25h-135z" />
    <glyph glyph-name="afii10068" unicode="&#x433;" horiz-adv-x="455" 
d="M491 483l-30 -134h-229l-76 -349h-154l106 483h383z" />
    <glyph glyph-name="afii10069" unicode="&#x434;" horiz-adv-x="605" 
d="M-63 -123l54 251q32 6 54 28.5t48 94.5l83 232h413l-77 -349h53l-57 -257h-153l27 123h-265l-27 -123h-153zM279 349l-35 -103q-25 -73 -72 -112h186l47 215h-126z" />
    <glyph glyph-name="afii10070" unicode="&#x435;" horiz-adv-x="548" 
d="M278 -12q-117 0 -187 58t-70 161q0 119 80.5 203.5t202.5 84.5q95 0 158.5 -58t63.5 -160q0 -41 -10 -84h-342v-6q0 -24 31.5 -52t84.5 -28q72 0 113 30l47 -102q-69 -47 -172 -47zM189 293h200q1 1 1 7q0 28 -23.5 52t-69.5 24q-41 0 -71 -26t-37 -57z" />
    <glyph glyph-name="afii10072" unicode="&#x436;" horiz-adv-x="772" 
d="M139 0h-199l244 263l-129 220h177l91 -170l38 170h154l-32 -145l143 145h195l-227 -220l130 -263h-181l-71 178l-30 -29l-33 -149h-154l32 147l-10 17z" />
    <glyph glyph-name="afii10073" unicode="&#x437;" horiz-adv-x="498" 
d="M283 495q218 0 218 -127q0 -56 -51.5 -91.5t-106.5 -39.5q48 -8 77 -34t29 -60q0 -66 -70.5 -110.5t-179.5 -44.5q-144 0 -221 82l91 85q52 -49 126 -49q44 0 70 13t26 33q0 34 -67 34h-99l26 115h94q95 0 95 43q0 33 -71 33q-90 0 -168 -50l-52 95q103 73 234 73z" />
    <glyph glyph-name="afii10074" unicode="&#x438;" horiz-adv-x="593" 
d="M149 0h-147l106 483h154l-56 -253l228 253h155l-106 -483h-154l58 266z" />
    <glyph glyph-name="afii10075" unicode="&#x439;" horiz-adv-x="593" 
d="M149 0h-147l106 483h154l-56 -253l228 253h155l-106 -483h-154l58 266zM552 616q-85 -88 -194 -88q-53 0 -94 23.5t-63 64.5l75 54q29 -58 97 -58q69 0 122 58z" />
    <glyph glyph-name="afii10076" unicode="&#x43a;" horiz-adv-x="546" 
d="M498 0h-185l-70 174l-62 -58l-25 -116h-154l107 483h154l-42 -185l183 185h192l-227 -220z" />
    <glyph glyph-name="afii10077" unicode="&#x43b;" horiz-adv-x="593" 
d="M-38 -12l27 126q28 0 52.5 30.5t51.5 106.5l83 232h413l-106 -483h-154l76 349h-126l-41 -118q-43 -123 -108 -183t-168 -60z" />
    <glyph glyph-name="afii10078" unicode="&#x43c;" horiz-adv-x="720" 
d="M610 0h-153l62 289l-173 -289h-79l-48 289l-63 -289h-154l106 483h198l43 -261l159 261h208z" />
    <glyph glyph-name="afii10079" unicode="&#x43d;" horiz-adv-x="593" 
d="M156 0h-154l110 483h154l-37 -164h173l37 164h154l-110 -483h-154l42 185h-173z" />
    <glyph glyph-name="afii10080" unicode="&#x43e;" horiz-adv-x="576" 
d="M269 -12q-118 0 -183.5 62.5t-65.5 159.5q0 115 81 200t203 85q118 0 183.5 -62.5t65.5 -160.5q0 -115 -81 -199.5t-203 -84.5zM275 124q52 0 86.5 42t34.5 99q0 44 -26 69t-71 25q-53 0 -87 -42t-34 -99q0 -44 26 -69t71 -25z" />
    <glyph glyph-name="afii10081" unicode="&#x43f;" horiz-adv-x="593" 
d="M483 0h-154l80 349h-174l-79 -349h-154l110 483h481z" />
    <glyph glyph-name="afii10082" unicode="&#x440;" 
d="M315 -12q-98 0 -147 69l-53 -241h-154l148 667h154l-13 -56q60 68 138 68q83 0 132.5 -53t49.5 -148q0 -73 -27.5 -141t-87.5 -116.5t-140 -48.5zM289 124q52 0 87 40.5t35 97.5q0 43 -27 70t-67 27q-50 0 -92 -45l-32 -146q34 -44 96 -44z" />
    <glyph glyph-name="afii10083" unicode="&#x441;" horiz-adv-x="500" 
d="M267 -12q-112 0 -179 61.5t-67 160.5q0 120 82.5 202.5t203.5 82.5q146 0 205 -98l-115 -87q-30 49 -91 49q-56 0 -92.5 -40.5t-36.5 -99.5q0 -44 30 -69.5t75 -25.5q53 0 91 43l83 -101q-30 -32 -79 -55t-110 -23z" />
    <glyph glyph-name="afii10084" unicode="&#x442;" horiz-adv-x="449" 
d="M248 0h-154l76 349h-132l30 134h417l-30 -134h-131z" />
    <glyph glyph-name="afii10085" unicode="&#x443;" horiz-adv-x="524" 
d="M-48 -184l49 132q17 -7 50 -7q37 0 55 26l19 31l-82 485h158l40 -306l179 306h167l-341 -552q-43 -70 -90 -98.5t-115 -28.5q-51 0 -89 12z" />
    <glyph glyph-name="afii10086" unicode="&#x444;" horiz-adv-x="849" 
d="M250 495q40 0 78.5 -18t58.5 -51l53 241h154l-54 -240q53 68 131 68q75 0 116.5 -56.5t41.5 -132.5q0 -77 -27.5 -149t-82 -120.5t-123.5 -48.5q-40 0 -78.5 18t-57.5 51l-54 -241h-153l53 240q-52 -68 -130 -68q-76 0 -117 56t-41 133t27.5 149t82 120.5t122.5 48.5z
M284 359q-45 0 -76 -46t-31 -103q0 -38 18.5 -62t51.5 -24q46 0 83 44l33 147q-9 19 -30.5 31.5t-48.5 12.5zM562 124q45 0 76 46t31 103q0 38 -18.5 62t-51.5 24q-46 0 -83 -44l-32 -147q8 -19 29.5 -31.5t48.5 -12.5z" />
    <glyph glyph-name="afii10087" unicode="&#x445;" horiz-adv-x="512" 
d="M464 0h-164l-61 146l-126 -146h-173l219 248l-102 235h165l53 -131l111 131h174l-207 -235z" />
    <glyph glyph-name="afii10088" unicode="&#x446;" horiz-adv-x="605" 
d="M355 -123l27 123h-380l106 483h154l-77 -349h173l77 349h154l-77 -349h53l-57 -257h-153z" />
    <glyph glyph-name="afii10089" unicode="&#x447;" horiz-adv-x="581" 
d="M96 483h154l-30 -133q-9 -43 8.5 -61t60.5 -18q53 0 91 20l43 192h153l-106 -483h-153l36 169q-62 -34 -152 -34q-182 0 -145 165z" />
    <glyph glyph-name="afii10090" unicode="&#x448;" horiz-adv-x="859" 
d="M701 483h154l-106 -483h-747l106 483h154l-77 -349h143l77 349h154l-77 -349h142z" />
    <glyph glyph-name="afii10091" unicode="&#x449;" horiz-adv-x="874" 
d="M701 483h154l-77 -349h53l-57 -257h-153l27 123h-646l106 483h154l-77 -349h143l77 349h154l-77 -349h142z" />
    <glyph glyph-name="afii10092" unicode="&#x44a;" horiz-adv-x="661" 
d="M428 0h-334l76 349h-132l30 134h286l-34 -155h125q81 0 128 -40t47 -105q0 -73 -53 -128t-139 -55zM421 204h-129l-17 -80h137q22 0 36.5 13t14.5 33q0 34 -42 34z" />
    <glyph glyph-name="afii10093" unicode="&#x44b;" horiz-adv-x="807" 
d="M697 0h-154l106 483h154zM108 483h154l-34 -155h125q81 0 128 -40t47 -105q0 -73 -53 -128t-139 -55h-334zM329 204h-129l-17 -80h138q22 0 36 13t14 33q0 34 -42 34z" />
    <glyph glyph-name="afii10094" unicode="&#x44c;" horiz-adv-x="569" 
d="M108 483h154l-34 -155h125q81 0 128 -40t47 -105q0 -73 -53 -128t-139 -55h-334zM329 204h-129l-17 -80h138q22 0 36 13t14 33q0 34 -42 34z" />
    <glyph glyph-name="afii10095" unicode="&#x44d;" horiz-adv-x="500" 
d="M233 495q112 0 178.5 -61.5t66.5 -160.5q0 -119 -83 -202t-203 -83q-145 0 -204 98l109 83q33 -48 95 -48q77 0 113 69h-171l23 106h159q-10 30 -37 47.5t-61 17.5q-57 0 -95 -40l-79 96q72 78 189 78z" />
    <glyph glyph-name="afii10096" unicode="&#x44e;" horiz-adv-x="831" 
d="M525 -12q-110 0 -174.5 54t-73.5 141h-81l-40 -183h-154l106 483h154l-37 -166h72q31 79 101 128.5t162 49.5q118 0 183.5 -62.5t65.5 -160.5q0 -115 -81 -199.5t-203 -84.5zM530 124q53 0 87 42t34 99q0 44 -25.5 69t-71.5 25q-52 0 -86 -42t-34 -99q0 -44 25.5 -69
t70.5 -25z" />
    <glyph glyph-name="afii10097" unicode="&#x44f;" horiz-adv-x="588" 
d="M166 0h-177l147 177q-32 14 -54 46.5t-22 76.5q0 74 53 128.5t140 54.5h334l-106 -483h-154l33 155h-80zM260 279h127l18 80h-137q-22 0 -36.5 -13t-14.5 -33q0 -16 11.5 -25t31.5 -9z" />
    <glyph glyph-name="afii10071" unicode="&#x451;" horiz-adv-x="548" 
d="M553 623q0 -34 -27 -60.5t-62 -26.5q-29 0 -49 20t-20 50q0 34 27 60.5t62 26.5q29 0 49 -20t20 -50zM340 623q0 -34 -27 -60.5t-62 -26.5q-30 0 -50 20t-20 50q0 34 27 60.5t62 26.5q30 0 50 -20t20 -50zM278 -12q-117 0 -187 58t-70 161q0 119 80.5 203.5t202.5 84.5
q95 0 158.5 -58t63.5 -160q0 -41 -10 -84h-342v-6q0 -24 31.5 -52t84.5 -28q72 0 113 30l47 -102q-69 -47 -172 -47zM189 293h200q1 1 1 7q0 28 -23.5 52t-69.5 24q-41 0 -71 -26t-37 -57z" />
    <glyph glyph-name="afii10099" unicode="&#x452;" horiz-adv-x="598" 
d="M415 525h-139l-22 -101q77 71 183 71q79 0 110.5 -41t15.5 -110l-75 -340q-20 -91 -79 -145.5t-152 -54.5q-48 0 -71 7.5t-48 26.5l63 113q24 -21 58 -21q60 0 75 74l62 277q17 78 -63 78q-53 0 -104 -47l-68 -312h-154l115 525h-53l18 84h53l13 58h154l-13 -58h139z" />
    <glyph glyph-name="afii10100" unicode="&#x453;" horiz-adv-x="455" 
d="M554 700l-191 -144h-106l159 144h138zM491 483l-30 -134h-229l-76 -349h-154l106 483h383z" />
    <glyph glyph-name="afii10101" unicode="&#x454;" horiz-adv-x="500" 
d="M267 -12q-112 0 -179 61.5t-67 160.5q0 120 82.5 202.5t203.5 82.5q146 0 205 -98l-110 -83q-31 48 -95 48q-75 0 -112 -66h172l-24 -106h-162q10 -32 37 -50t63 -18q56 0 96 40l79 -96q-30 -32 -79 -55t-110 -23z" />
    <glyph glyph-name="afii10102" unicode="&#x455;" horiz-adv-x="484" 
d="M225 -12q-68 0 -131.5 23t-107.5 65l81 99q26 -27 75.5 -51t96.5 -24q23 0 37 10t14 25q0 20 -37.5 35t-82.5 26.5t-82.5 44.5t-37.5 84q0 70 55.5 120t151.5 50q61 0 118 -20.5t97 -57.5l-74 -95q-21 23 -61 41.5t-80 18.5q-25 0 -39.5 -10t-14.5 -24t25 -24.5
t60.5 -20.5t70.5 -25t60 -44.5t25 -71.5q0 -75 -59.5 -124.5t-159.5 -49.5z" />
    <glyph glyph-name="afii10103" unicode="&#x456;" horiz-adv-x="266" 
d="M205 526q-35 0 -57.5 22.5t-22.5 53.5q0 46 31.5 73.5t68.5 27.5q34 0 56.5 -22t22.5 -53q0 -46 -31 -74t-68 -28zM156 0h-154l107 483h154z" />
    <glyph glyph-name="afii10104" unicode="&#x457;" horiz-adv-x="266" 
d="M401 623q0 -34 -27 -60.5t-62 -26.5q-29 0 -49 20t-20 50q0 34 27 60.5t62 26.5q29 0 49 -20t20 -50zM188 623q0 -34 -27 -60.5t-62 -26.5q-30 0 -50 20t-20 50q0 34 27 60.5t62 26.5q30 0 50 -20t20 -50zM156 0h-154l107 483h154z" />
    <glyph glyph-name="afii10105" unicode="&#x458;" horiz-adv-x="266" 
d="M-46 -196q-98 0 -144 40l62 110q21 -24 59 -24q54 0 71 74l107 479h154l-107 -479q-43 -200 -202 -200zM205 526q-35 0 -57.5 22.5t-22.5 53.5q0 46 31.5 73.5t68.5 27.5q34 0 56.5 -22t22.5 -53q0 -46 -31 -74t-68 -28z" />
    <glyph glyph-name="afii10106" unicode="&#x459;" horiz-adv-x="896" 
d="M-39 -12l27 126q28 0 53 30.5t52 106.5l83 232h413l-34 -155h125q81 0 128 -40t47 -105q0 -73 -53 -128t-139 -55h-334l76 349h-126l-41 -118q-43 -123 -108.5 -183t-168.5 -60zM656 204h-129l-17 -80h138q21 0 35.5 14t14.5 32q0 34 -42 34z" />
    <glyph glyph-name="afii10107" unicode="&#x45a;" horiz-adv-x="896" 
d="M156 0h-154l106 483h154l-35 -160h173l35 160h154l-35 -160h129q79 0 125.5 -39.5t46.5 -103.5q0 -72 -52 -126t-137 -54h-337l42 189h-174zM658 199h-132l-16 -75h140q21 0 34 12.5t13 31.5q0 31 -39 31z" />
    <glyph glyph-name="afii10108" unicode="&#x45b;" horiz-adv-x="597" 
d="M487 0h-154l59 274q5 23 5 32q0 53 -73 53q-49 0 -96 -47l-68 -312h-154l115 525h-52l19 84h52l13 58h154l-13 -58h140l-19 -84h-140l-23 -101q77 71 157 71q72 0 113.5 -34.5t41.5 -90.5q0 -15 -5 -40z" />
    <glyph glyph-name="afii10109" unicode="&#x45c;" horiz-adv-x="546" 
d="M581 700l-191 -144h-106l159 144h138zM498 0h-185l-70 174l-62 -58l-25 -116h-154l107 483h154l-42 -185l183 185h192l-227 -220z" />
    <glyph glyph-name="afii10110" unicode="&#x45e;" horiz-adv-x="524" 
d="M-48 -184l49 132q17 -7 50 -7q37 0 55 26l19 31l-82 485h158l40 -306l179 306h167l-341 -552q-43 -70 -90 -98.5t-115 -28.5q-51 0 -89 12zM514 616q-85 -88 -194 -88q-53 0 -94 23.5t-63 64.5l75 54q29 -58 97 -58q69 0 122 58z" />
    <glyph glyph-name="afii10193" unicode="&#x45f;" horiz-adv-x="593" 
d="M138 -124l27 124h-163l106 483h154l-77 -349h173l77 349h154l-106 -483h-164l-28 -124h-153z" />
    <glyph glyph-name="afii10050" unicode="&#x490;" horiz-adv-x="582" 
d="M178 0h-172l146 667h317l27 123h172l-60 -273h-317z" />
    <glyph glyph-name="afii10098" unicode="&#x491;" horiz-adv-x="455" 
d="M232 349l-76 -349h-154l106 483h229l28 124h154l-58 -258h-229z" />
    <glyph glyph-name="uni1E02" unicode="&#x1e02;" horiz-adv-x="680" 
d="M397 0h-391l147 667h348q89 0 138 -48t49 -115q0 -65 -45.5 -116t-105.5 -56q45 -12 70 -50t25 -83q0 -36 -13 -70t-39.5 -63.5t-73.5 -47.5t-109 -18zM434 411q37 0 53.5 18.5t16.5 44.5q0 21 -14.5 34.5t-37.5 13.5h-158l-25 -111h165zM382 145q36 0 57 19.5t21 48.5
q0 23 -15 37.5t-40 14.5h-168l-27 -120h172zM537 790q0 -34 -27 -60.5t-62 -26.5q-30 0 -50 20t-20 50q0 34 27 60.5t62 26.5q30 0 50 -20t20 -50z" />
    <glyph glyph-name="uni1E03" unicode="&#x1e03;" horiz-adv-x="591" 
d="M315 -12q-98 0 -147 69l-12 -57h-154l147 667h154l-53 -240q60 68 138 68q83 0 132.5 -53t49.5 -148q0 -73 -27.5 -141t-87.5 -116.5t-140 -48.5zM289 124q52 0 87 40.5t35 97.5q0 43 -27 70t-67 27q-50 0 -92 -45l-32 -146q34 -44 96 -44zM503 790q0 -34 -27 -60.5
t-62 -26.5q-30 0 -50 20t-20 50q0 34 27 60.5t62 26.5q30 0 50 -20t20 -50z" />
    <glyph glyph-name="uni1E0A" unicode="&#x1e0a;" horiz-adv-x="727" 
d="M285 0h-279l147 667h275q117 0 206.5 -81t89.5 -206q0 -54 -14 -105.5t-47 -102t-82 -88.5t-125.5 -61t-170.5 -23zM312 150h5q104 0 166.5 63t62.5 155q0 63 -42 106t-107 43h-105l-81 -367h101zM566 790q0 -34 -27 -60.5t-62 -26.5q-30 0 -50 20t-20 50q0 34 27 60.5
t62 26.5q30 0 50 -20t20 -50z" />
    <glyph glyph-name="uni1E0B" unicode="&#x1e0b;" horiz-adv-x="591" 
d="M274 495q99 0 147 -69l54 241h153l-148 -667h-153l12 56q-59 -68 -138 -68q-83 0 -132 52.5t-49 147.5q0 73 27.5 141.5t87 117t139.5 48.5zM301 359q-53 0 -87.5 -40.5t-34.5 -98.5q0 -43 27 -69.5t67 -26.5q53 0 91 45l33 146q-34 44 -96 44zM488 790q0 -34 -27 -60.5
t-62 -26.5q-30 0 -50 20t-20 50q0 34 27 60.5t62 26.5q30 0 50 -20t20 -50z" />
    <glyph glyph-name="uni1E1E" unicode="&#x1e1e;" horiz-adv-x="582" 
d="M502 790q0 -34 -27 -60.5t-62 -26.5q-30 0 -50 20t-20 50q0 34 27 60.5t62 26.5q30 0 50 -20t20 -50zM178 0h-172l147 667h489l-34 -150h-316l-23 -104h310l-33 -150h-310z" />
    <glyph glyph-name="uni1E1F" unicode="&#x1e1f;" horiz-adv-x="349" 
d="M444 790q0 -34 -27 -60.5t-62 -26.5q-30 0 -50 20t-20 50q0 34 27 60.5t62 26.5q30 0 50 -20t20 -50zM189 0h-154l77 350h-80l30 133h79l6 26q17 75 66.5 121.5t131.5 46.5q89 0 138 -50l-73 -87q-20 20 -52 20q-46 0 -57 -54l-6 -23h99l-30 -133h-98z" />
    <glyph glyph-name="uni1E22" unicode="&#x1e22;" horiz-adv-x="741" 
d="M627 0h-172l59 268h-277l-59 -268h-172l147 667h172l-55 -249h277l55 249h172zM569 790q0 -34 -27 -60.5t-62 -26.5q-30 0 -50 20t-20 50q0 34 27 60.5t62 26.5q30 0 50 -20t20 -50z" />
    <glyph glyph-name="uni1E23" unicode="&#x1e23;" horiz-adv-x="594" 
d="M484 0h-154l59 274q5 23 5 32q0 53 -73 53q-49 0 -96 -47l-68 -312h-154l147 667h154l-55 -243q77 71 157 71q72 0 113.5 -34.5t41.5 -90.5q0 -15 -5 -40zM497 790q0 -34 -27 -60.5t-62 -26.5q-30 0 -50 20t-20 50q0 34 27 60.5t62 26.5q30 0 50 -20t20 -50z" />
    <glyph glyph-name="uni1E56" unicode="&#x1e56;" horiz-adv-x="643" 
d="M178 0h-172l147 667h323q86 0 141 -55.5t55 -135.5q0 -40 -14.5 -81t-45 -81t-89 -65t-136.5 -25h-160zM260 374h136q42 0 70 23.5t28 59.5q0 28 -19 44t-50 16h-133zM535 790q0 -34 -27 -60.5t-62 -26.5q-30 0 -50 20t-20 50q0 34 27 60.5t62 26.5q30 0 50 -20t20 -50z
" />
    <glyph glyph-name="uni1E57" unicode="&#x1e57;" 
d="M315 -12q-98 0 -147 69l-53 -241h-154l148 667h154l-13 -56q60 68 138 68q83 0 132.5 -53t49.5 -148q0 -73 -27.5 -141t-87.5 -116.5t-140 -48.5zM289 124q52 0 87 40.5t35 97.5q0 43 -27 70t-67 27q-50 0 -92 -45l-32 -146q34 -44 96 -44zM466 623q0 -34 -27 -60.5
t-62 -26.5q-30 0 -50 20t-20 50q0 34 27 60.5t62 26.5q30 0 50 -20t20 -50z" />
    <glyph glyph-name="uni1E60" unicode="&#x1e60;" horiz-adv-x="606" 
d="M308 -12q-101 0 -186 34.5t-132 92.5l105 124q35 -46 97 -74.5t130 -28.5q38 0 57.5 16t19.5 37q0 17 -24 31.5t-59.5 25.5t-77.5 28t-77.5 37.5t-59.5 56t-24 81.5q0 91 73.5 159.5t199.5 68.5q82 0 155.5 -28.5t123.5 -81.5l-105 -120q-37 40 -92.5 61.5t-108.5 21.5
q-29 0 -47 -13.5t-18 -33.5q0 -19 33.5 -35t80.5 -32t94.5 -37.5t81 -61.5t33.5 -94q0 -101 -74.5 -168t-198.5 -67zM510 790q0 -34 -27 -60.5t-62 -26.5q-30 0 -50 20t-20 50q0 34 27 60.5t62 26.5q30 0 50 -20t20 -50z" />
    <glyph glyph-name="uni1E61" unicode="&#x1e61;" horiz-adv-x="484" 
d="M225 -12q-68 0 -131.5 23t-107.5 65l81 99q26 -27 75.5 -51t96.5 -24q23 0 37 10t14 25q0 20 -37.5 35t-82.5 26.5t-82.5 44.5t-37.5 84q0 70 55.5 120t151.5 50q61 0 118 -20.5t97 -57.5l-74 -95q-21 23 -61 41.5t-80 18.5q-25 0 -39.5 -10t-14.5 -24t25 -24.5
t60.5 -20.5t70.5 -25t60 -44.5t25 -71.5q0 -75 -59.5 -124.5t-159.5 -49.5zM410 623q0 -34 -27 -60.5t-62 -26.5q-30 0 -50 20t-20 50q0 34 27 60.5t62 26.5q30 0 50 -20t20 -50z" />
    <glyph glyph-name="uni1E6A" unicode="&#x1e6a;" 
d="M327 0h-172l113 517h-187l34 150h545l-33 -150h-187zM494 790q0 -34 -27 -60.5t-62 -26.5q-30 0 -50 20t-20 50q0 34 27 60.5t62 26.5q30 0 50 -20t20 -50z" />
    <glyph glyph-name="uni1E6B" unicode="&#x1e6b;" horiz-adv-x="360" 
d="M221 -12q-73 0 -116.5 28.5t-43.5 85.5q0 15 3 35l47 213h-80l30 133h80l29 132h154l-29 -132h98l-30 -133h-98l-36 -164q-3 -12 -3 -22q0 -40 46 -40q20 0 30 8l2 -123q-27 -21 -83 -21zM365 790q0 -34 -27 -60.5t-62 -26.5q-30 0 -50 20t-20 50q0 34 27 60.5t62 26.5
q30 0 50 -20t20 -50z" />
    <glyph glyph-name="Wgrave" unicode="&#x1e80;" horiz-adv-x="936" 
d="M697 0h-182l-9 418l-193 -418h-182l-44 667h189l3 -445l212 445h131l16 -445l199 445h198zM635 723h-104l-127 144h136z" />
    <glyph glyph-name="wgrave" unicode="&#x1e81;" horiz-adv-x="787" 
d="M596 0h-166l-25 299l-156 -299h-166l-36 483h154l11 -296l162 296h137l29 -296l143 296h163zM526 556h-104l-127 144h136z" />
    <glyph glyph-name="Wacute" unicode="&#x1e82;" horiz-adv-x="936" 
d="M795 867l-191 -144h-106l159 144h138zM697 0h-182l-9 418l-193 -418h-182l-44 667h189l3 -445l212 445h131l16 -445l199 445h198z" />
    <glyph glyph-name="wacute" unicode="&#x1e83;" horiz-adv-x="787" 
d="M686 700l-191 -144h-106l159 144h138zM596 0h-166l-25 299l-156 -299h-166l-36 483h154l11 -296l162 296h137l29 -296l143 296h163z" />
    <glyph glyph-name="Wdieresis" unicode="&#x1e84;" horiz-adv-x="936" 
d="M766 790q0 -34 -27 -60.5t-62 -26.5q-29 0 -49 20t-20 50q0 34 27 60.5t62 26.5q29 0 49 -20t20 -50zM553 790q0 -34 -27 -60.5t-62 -26.5q-30 0 -50 20t-20 50q0 34 27 60.5t62 26.5q30 0 50 -20t20 -50zM697 0h-182l-9 418l-193 -418h-182l-44 667h189l3 -445l212 445
h131l16 -445l199 445h198z" />
    <glyph glyph-name="wdieresis" unicode="&#x1e85;" horiz-adv-x="787" 
d="M657 623q0 -34 -27 -60.5t-62 -26.5q-29 0 -49 20t-20 50q0 34 27 60.5t62 26.5q29 0 49 -20t20 -50zM444 623q0 -34 -27 -60.5t-62 -26.5q-30 0 -50 20t-20 50q0 34 27 60.5t62 26.5q30 0 50 -20t20 -50zM596 0h-166l-25 299l-156 -299h-166l-36 483h154l11 -296
l162 296h137l29 -296l143 296h163z" />
    <glyph glyph-name="uni1EA0" unicode="&#x1ea0;" horiz-adv-x="697" 
d="M654 0h-187l-12 96h-263l-53 -96h-204l398 667h216zM442 246l-30 251l-140 -251h170zM351 -116q0 -34 -27 -60.5t-62 -26.5q-30 0 -50 20t-20 50q0 34 27 60.5t62 26.5q30 0 50 -20t20 -50z" />
    <glyph glyph-name="uni1EA1" unicode="&#x1ea1;" horiz-adv-x="591" 
d="M274 495q99 0 147 -69l13 57h153l-107 -483h-153l12 56q-59 -68 -138 -68q-83 0 -132 52.5t-49 147.5q0 73 27.5 141.5t87 117t139.5 48.5zM301 359q-53 0 -87.5 -40.5t-34.5 -98.5q0 -43 27 -69.5t67 -26.5q53 0 91 45l33 146q-34 44 -96 44zM288 -116q0 -34 -27 -60.5
t-62 -26.5q-30 0 -50 20t-20 50q0 34 27 60.5t62 26.5q30 0 50 -20t20 -50z" />
    <glyph glyph-name="uni1EA2" unicode="&#x1ea2;" horiz-adv-x="697" 
d="M654 0h-187l-12 96h-263l-53 -96h-204l398 667h216zM442 246l-30 251l-140 -251h170zM428 750l-46 22q28 48 86 48q30 0 53.5 -16.5t23.5 -47.5q0 -30 -22 -59h-64q27 25 27 51q0 10 -7 17t-18 7q-19 0 -33 -22z" />
    <glyph glyph-name="uni1EA3" unicode="&#x1ea3;" horiz-adv-x="591" 
d="M274 495q99 0 147 -69l13 57h153l-107 -483h-153l12 56q-59 -68 -138 -68q-83 0 -132 52.5t-49 147.5q0 73 27.5 141.5t87 117t139.5 48.5zM301 359q-53 0 -87.5 -40.5t-34.5 -98.5q0 -43 27 -69.5t67 -26.5q53 0 91 45l33 146q-34 44 -96 44zM331 580l-46 22
q28 48 86 48q30 0 53.5 -16.5t23.5 -47.5q0 -30 -22 -59h-64q27 25 27 51q0 10 -7 17t-18 7q-19 0 -33 -22z" />
    <glyph glyph-name="uni1EA4" unicode="&#x1ea4;" horiz-adv-x="697" 
d="M600 682h-90l-51 61l-84 -61h-93l122 108h135zM654 0h-187l-12 96h-263l-53 -96h-204l398 667h216zM442 246l-30 251l-140 -251h170zM874 843l-191 -108h-106l159 108h138z" />
    <glyph glyph-name="uni1EA5" unicode="&#x1ea5;" horiz-adv-x="591" 
d="M274 495q99 0 147 -69l13 57h153l-107 -483h-153l12 56q-59 -68 -138 -68q-83 0 -132 52.5t-49 147.5q0 73 27.5 141.5t87 117t139.5 48.5zM301 359q-53 0 -87.5 -40.5t-34.5 -98.5q0 -43 27 -69.5t67 -26.5q53 0 91 45l33 146q-34 44 -96 44zM519 556h-90l-51 81
l-84 -81h-93l122 144h135zM791 770l-191 -144h-106l159 144h138z" />
    <glyph glyph-name="uni1EA6" unicode="&#x1ea6;" horiz-adv-x="697" 
d="M601 682h-90l-51 61l-84 -61h-93l122 108h135zM654 0h-187l-12 96h-263l-53 -96h-204l398 667h216zM442 246l-30 251l-140 -251h170zM335 735h-104l-127 108h136z" />
    <glyph glyph-name="uni1EA7" unicode="&#x1ea7;" horiz-adv-x="591" 
d="M274 495q99 0 147 -69l13 57h153l-107 -483h-153l12 56q-59 -68 -138 -68q-83 0 -132 52.5t-49 147.5q0 73 27.5 141.5t87 117t139.5 48.5zM301 359q-53 0 -87.5 -40.5t-34.5 -98.5q0 -43 27 -69.5t67 -26.5q53 0 91 45l33 146q-34 44 -96 44zM519 556h-90l-51 81
l-84 -81h-93l122 144h135zM254 626h-104l-127 144h136z" />
    <glyph glyph-name="uni1EA8" unicode="&#x1ea8;" horiz-adv-x="697" 
d="M601 682h-90l-51 61l-84 -61h-93l122 108h135zM654 0h-187l-12 96h-263l-53 -96h-204l398 667h216zM442 246l-30 251l-140 -251h170zM554 796l-46 16q27 36 86 36q30 0 53.5 -12.5t23.5 -35.5q0 -22 -22 -44h-64q27 19 27 38q0 18 -25 18q-19 0 -33 -16z" />
    <glyph glyph-name="uni1EA9" unicode="&#x1ea9;" horiz-adv-x="591" 
d="M274 495q99 0 147 -69l13 57h153l-107 -483h-153l12 56q-59 -68 -138 -68q-83 0 -132 52.5t-49 147.5q0 73 27.5 141.5t87 117t139.5 48.5zM301 359q-53 0 -87.5 -40.5t-34.5 -98.5q0 -43 27 -69.5t67 -26.5q53 0 91 45l33 146q-34 44 -96 44zM519 556h-90l-51 81
l-84 -81h-93l122 144h135zM459 720l-46 22q28 48 86 48q30 0 53.5 -16.5t23.5 -47.5q0 -30 -22 -59h-64q27 25 27 51q0 10 -7 17t-18 7q-19 0 -33 -22z" />
    <glyph glyph-name="uni1EAA" unicode="&#x1eaa;" horiz-adv-x="697" 
d="M600 679h-90l-51 40l-84 -40h-93l122 72h135zM654 0h-187l-12 96h-263l-53 -96h-204l398 667h216zM442 246l-30 251l-140 -251h170zM531 758q-38 0 -71 13.5t-51 13.5q-26 0 -36 -24h-79q13 34 41.5 50.5t82.5 16.5q38 0 71.5 -14t50.5 -14q25 0 37 25h79
q-15 -35 -43.5 -51t-81.5 -16z" />
    <glyph glyph-name="uni1EAB" unicode="&#x1eab;" horiz-adv-x="591" 
d="M274 495q99 0 147 -69l13 57h153l-107 -483h-153l12 56q-59 -68 -138 -68q-83 0 -132 52.5t-49 147.5q0 73 27.5 141.5t87 117t139.5 48.5zM301 359q-53 0 -87.5 -40.5t-34.5 -98.5q0 -43 27 -69.5t67 -26.5q53 0 91 45l33 146q-34 44 -96 44zM511 523h-90l-51 81
l-84 -81h-93l122 144h135zM459 682q-38 0 -71 27.5t-51 27.5q-26 0 -36 -49h-79q13 69 41.5 101.5t82.5 32.5q30 0 51.5 -14t38 -27.5t32.5 -13.5q25 0 37 49h79q-15 -69 -43.5 -101.5t-81.5 -32.5z" />
    <glyph glyph-name="uni1EAC" unicode="&#x1eac;" horiz-adv-x="697" 
d="M654 0h-187l-12 96h-263l-53 -96h-204l398 667h216zM442 246l-30 251l-140 -251h170zM614 723h-90l-51 81l-84 -81h-93l122 144h135zM347 -116q0 -34 -27 -60.5t-62 -26.5q-30 0 -50 20t-20 50q0 34 27 60.5t62 26.5q30 0 50 -20t20 -50z" />
    <glyph glyph-name="uni1EAD" unicode="&#x1ead;" horiz-adv-x="591" 
d="M274 495q99 0 147 -69l13 57h153l-107 -483h-153l12 56q-59 -68 -138 -68q-83 0 -132 52.5t-49 147.5q0 73 27.5 141.5t87 117t139.5 48.5zM301 359q-53 0 -87.5 -40.5t-34.5 -98.5q0 -43 27 -69.5t67 -26.5q53 0 91 45l33 146q-34 44 -96 44zM519 556h-90l-51 81
l-84 -81h-93l122 144h135zM288 -116q0 -34 -27 -60.5t-62 -26.5q-30 0 -50 20t-20 50q0 34 27 60.5t62 26.5q30 0 50 -20t20 -50z" />
    <glyph glyph-name="uni1EAE" unicode="&#x1eae;" horiz-adv-x="697" 
d="M654 0h-187l-12 96h-263l-53 -96h-204l398 667h216zM442 246l-30 251l-140 -251h170zM678 830l-191 -79h-106l159 79h138zM628 731q-84 -52 -194 -52t-157 52l75 32q29 -34 97 -34q69 0 122 34z" />
    <glyph glyph-name="uni1EAF" unicode="&#x1eaf;" horiz-adv-x="591" 
d="M274 495q99 0 147 -69l13 57h153l-107 -483h-153l12 56q-59 -68 -138 -68q-83 0 -132 52.5t-49 147.5q0 73 27.5 141.5t87 117t139.5 48.5zM301 359q-53 0 -87.5 -40.5t-34.5 -98.5q0 -43 27 -69.5t67 -26.5q53 0 91 45l33 146q-34 44 -96 44zM598 784l-191 -144h-106
l159 144h138zM542 601q-85 -88 -194 -88q-53 0 -94 23.5t-63 64.5l75 54q29 -58 97 -58q69 0 122 58z" />
    <glyph glyph-name="uni1EB0" unicode="&#x1eb0;" horiz-adv-x="697" 
d="M654 0h-187l-12 96h-263l-53 -96h-204l398 667h216zM442 246l-30 251l-140 -251h170zM543 753h-104l-127 79h136zM637 731q-85 -52 -194 -52q-110 0 -157 52l75 32q29 -34 97 -34q69 0 122 34z" />
    <glyph glyph-name="uni1EB1" unicode="&#x1eb1;" horiz-adv-x="591" 
d="M274 495q99 0 147 -69l13 57h153l-107 -483h-153l12 56q-59 -68 -138 -68q-83 0 -132 52.5t-49 147.5q0 73 27.5 141.5t87 117t139.5 48.5zM301 359q-53 0 -87.5 -40.5t-34.5 -98.5q0 -43 27 -69.5t67 -26.5q53 0 91 45l33 146q-34 44 -96 44zM448 643h-104l-127 144h136
zM542 603q-85 -88 -194 -88q-53 0 -94 23.5t-63 64.5l75 54q29 -58 97 -58q69 0 122 58z" />
    <glyph glyph-name="uni1EB2" unicode="&#x1eb2;" horiz-adv-x="697" 
d="M654 0h-187l-12 96h-263l-53 -96h-204l398 667h216zM442 246l-30 251l-140 -251h170zM437 780l-46 12q29 27 86 27q30 0 53.5 -9t23.5 -26t-22 -32h-64q27 13 27 27q0 13 -25 13q-20 0 -33 -12zM636 731q-84 -52 -194 -52t-157 52l75 32q29 -34 97 -34q69 0 122 34z" />
    <glyph glyph-name="uni1EB3" unicode="&#x1eb3;" horiz-adv-x="591" 
d="M274 495q99 0 147 -69l13 57h153l-107 -483h-153l12 56q-59 -68 -138 -68q-83 0 -132 52.5t-49 147.5q0 73 27.5 141.5t87 117t139.5 48.5zM301 359q-53 0 -87.5 -40.5t-34.5 -98.5q0 -43 27 -69.5t67 -26.5q53 0 91 45l33 146q-34 44 -96 44zM348 706l-46 22
q28 48 86 48q30 0 53.5 -16.5t23.5 -47.5q0 -30 -22 -59h-64q27 25 27 51q0 10 -7 17t-18 7q-19 0 -33 -22zM542 603q-85 -88 -194 -88q-53 0 -94 23.5t-63 64.5l75 54q29 -58 97 -58q69 0 122 58z" />
    <glyph glyph-name="uni1EB4" unicode="&#x1eb4;" horiz-adv-x="697" 
d="M654 0h-187l-12 96h-263l-53 -96h-204l398 667h216zM442 246l-30 251l-140 -251h170zM633 726q-85 -46 -194 -46t-157 46l75 29q29 -31 97 -31q69 0 122 31zM530 761q-38 0 -71 13.5t-51 13.5q-26 0 -36 -24h-79q13 34 41.5 50.5t82.5 16.5q38 0 71.5 -14t50.5 -14
q25 0 37 25h79q-15 -35 -43.5 -51t-81.5 -16z" />
    <glyph glyph-name="uni1EB5" unicode="&#x1eb5;" horiz-adv-x="591" 
d="M274 495q99 0 147 -69l13 57h153l-107 -483h-153l12 56q-59 -68 -138 -68q-83 0 -132 52.5t-49 147.5q0 73 27.5 141.5t87 117t139.5 48.5zM301 359q-53 0 -87.5 -40.5t-34.5 -98.5q0 -43 27 -69.5t67 -26.5q53 0 91 45l33 146q-34 44 -96 44zM542 603q-85 -88 -194 -88
q-53 0 -94 23.5t-63 64.5l75 54q29 -58 97 -58q69 0 122 58zM458 677q-38 0 -71 27.5t-51 27.5q-26 0 -36 -49h-79q13 69 41.5 101.5t82.5 32.5q23 0 42 -8.5t29.5 -19t24 -19t26.5 -8.5q25 0 37 49h79q-15 -69 -43.5 -101.5t-81.5 -32.5z" />
    <glyph glyph-name="uni1EB6" unicode="&#x1eb6;" horiz-adv-x="697" 
d="M654 0h-187l-12 96h-263l-53 -96h-204l398 667h216zM442 246l-30 251l-140 -251h170zM351 -116q0 -34 -27 -60.5t-62 -26.5q-30 0 -50 20t-20 50q0 34 27 60.5t62 26.5q30 0 50 -20t20 -50zM638 783q-85 -88 -194 -88q-53 0 -94 23.5t-63 64.5l75 54q29 -58 97 -58
q69 0 122 58z" />
    <glyph glyph-name="uni1EB7" unicode="&#x1eb7;" horiz-adv-x="591" 
d="M274 495q99 0 147 -69l13 57h153l-107 -483h-153l12 56q-59 -68 -138 -68q-83 0 -132 52.5t-49 147.5q0 73 27.5 141.5t87 117t139.5 48.5zM301 359q-53 0 -87.5 -40.5t-34.5 -98.5q0 -43 27 -69.5t67 -26.5q53 0 91 45l33 146q-34 44 -96 44zM288 -116q0 -34 -27 -60.5
t-62 -26.5q-30 0 -50 20t-20 50q0 34 27 60.5t62 26.5q30 0 50 -20t20 -50zM545 616q-85 -88 -194 -88q-53 0 -94 23.5t-63 64.5l75 54q29 -58 97 -58q69 0 122 58z" />
    <glyph glyph-name="uni1EB8" unicode="&#x1eb8;" 
d="M495 0h-489l147 667h489l-34 -150h-316l-23 -104h310l-33 -150h-310l-25 -113h317zM301 -116q0 -34 -27 -60.5t-62 -26.5q-30 0 -50 20t-20 50q0 34 27 60.5t62 26.5q30 0 50 -20t20 -50z" />
    <glyph glyph-name="uni1EB9" unicode="&#x1eb9;" horiz-adv-x="548" 
d="M278 -12q-117 0 -187 58t-70 161q0 119 80.5 203.5t202.5 84.5q95 0 158.5 -58t63.5 -160q0 -41 -10 -84h-342v-6q0 -24 31.5 -52t84.5 -28q72 0 113 30l47 -102q-69 -47 -172 -47zM189 293h200q1 1 1 7q0 28 -23.5 52t-69.5 24q-41 0 -71 -26t-37 -57zM285 -116
q0 -34 -27 -60.5t-62 -26.5q-30 0 -50 20t-20 50q0 34 27 60.5t62 26.5q30 0 50 -20t20 -50z" />
    <glyph glyph-name="uni1EBA" unicode="&#x1eba;" 
d="M495 0h-489l147 667h489l-34 -150h-316l-23 -104h310l-33 -150h-310l-25 -113h317zM382 750l-46 22q28 48 86 48q30 0 53.5 -16.5t23.5 -47.5q0 -30 -22 -59h-64q27 25 27 51q0 10 -7 17t-18 7q-19 0 -33 -22z" />
    <glyph glyph-name="uni1EBB" unicode="&#x1ebb;" horiz-adv-x="548" 
d="M278 -12q-117 0 -187 58t-70 161q0 119 80.5 203.5t202.5 84.5q95 0 158.5 -58t63.5 -160q0 -41 -10 -84h-342v-6q0 -24 31.5 -52t84.5 -28q72 0 113 30l47 -102q-69 -47 -172 -47zM189 293h200q1 1 1 7q0 28 -23.5 52t-69.5 24q-41 0 -71 -26t-37 -57zM329 580l-46 22
q28 48 86 48q30 0 53.5 -16.5t23.5 -47.5q0 -30 -22 -59h-64q27 25 27 51q0 10 -7 17t-18 7q-19 0 -33 -22z" />
    <glyph glyph-name="uni1EBC" unicode="&#x1ebc;" 
d="M495 0h-489l147 667h489l-34 -150h-316l-23 -104h310l-33 -150h-310l-25 -113h317zM482 721q-38 0 -71 27.5t-51 27.5q-26 0 -36 -49h-79q13 69 41.5 101.5t82.5 32.5q23 0 42 -8.5t29.5 -19t24 -19t26.5 -8.5q25 0 37 49h79q-15 -69 -43.5 -101.5t-81.5 -32.5z" />
    <glyph glyph-name="uni1EBD" unicode="&#x1ebd;" horiz-adv-x="548" 
d="M278 -12q-117 0 -187 58t-70 161q0 119 80.5 203.5t202.5 84.5q95 0 158.5 -58t63.5 -160q0 -41 -10 -84h-342v-6q0 -24 31.5 -52t84.5 -28q72 0 113 30l47 -102q-69 -47 -172 -47zM189 293h200q1 1 1 7q0 28 -23.5 52t-69.5 24q-41 0 -71 -26t-37 -57zM429 554
q-38 0 -71 27.5t-51 27.5q-26 0 -36 -49h-79q13 69 41.5 101.5t82.5 32.5q30 0 51.5 -14t38 -27.5t32.5 -13.5q25 0 37 49h79q-15 -69 -43.5 -101.5t-81.5 -32.5z" />
    <glyph glyph-name="uni1EBE" unicode="&#x1ebe;" 
d="M556 682h-90l-51 61l-84 -61h-93l122 108h135zM829 843l-191 -108h-106l159 108h138zM495 0h-489l147 667h489l-34 -150h-316l-23 -104h310l-33 -150h-310l-25 -113h317z" />
    <glyph glyph-name="uni1EBF" unicode="&#x1ebf;" horiz-adv-x="548" 
d="M515 556h-90l-51 81l-84 -81h-93l122 144h135zM787 770l-191 -144h-106l159 144h138zM278 -12q-117 0 -187 58t-70 161q0 119 80.5 203.5t202.5 84.5q95 0 158.5 -58t63.5 -160q0 -41 -10 -84h-342v-6q0 -24 31.5 -52t84.5 -28q72 0 113 30l47 -102q-69 -47 -172 -47z
M189 293h200q1 1 1 7q0 28 -23.5 52t-69.5 24q-41 0 -71 -26t-37 -57z" />
    <glyph glyph-name="uni1EC0" unicode="&#x1ec0;" 
d="M556 682h-90l-51 61l-84 -61h-93l122 108h135zM495 0h-489l147 667h489l-34 -150h-316l-23 -104h310l-33 -150h-310l-25 -113h317zM289 735h-104l-127 108h136z" />
    <glyph glyph-name="uni1EC1" unicode="&#x1ec1;" horiz-adv-x="548" 
d="M516 556h-90l-51 81l-84 -81h-93l122 144h135zM278 -12q-117 0 -187 58t-70 161q0 119 80.5 203.5t202.5 84.5q95 0 158.5 -58t63.5 -160q0 -41 -10 -84h-342v-6q0 -24 31.5 -52t84.5 -28q72 0 113 30l47 -102q-69 -47 -172 -47zM189 293h200q1 1 1 7q0 28 -23.5 52
t-69.5 24q-41 0 -71 -26t-37 -57zM252 626h-104l-127 144h136z" />
    <glyph glyph-name="uni1EC2" unicode="&#x1ec2;" 
d="M555 682h-90l-51 61l-84 -61h-93l122 108h135zM495 0h-489l147 667h489l-34 -150h-316l-23 -104h310l-33 -150h-310l-25 -113h317zM507 796l-46 16q27 36 86 36q30 0 53.5 -12.5t23.5 -35.5q0 -22 -22 -44h-64q27 19 27 38q0 18 -25 18q-19 0 -33 -16z" />
    <glyph glyph-name="uni1EC3" unicode="&#x1ec3;" horiz-adv-x="548" 
d="M516 556h-90l-51 81l-84 -81h-93l122 144h135zM278 -12q-117 0 -187 58t-70 161q0 119 80.5 203.5t202.5 84.5q95 0 158.5 -58t63.5 -160q0 -41 -10 -84h-342v-6q0 -24 31.5 -52t84.5 -28q72 0 113 30l47 -102q-69 -47 -172 -47zM189 293h200q1 1 1 7q0 28 -23.5 52
t-69.5 24q-41 0 -71 -26t-37 -57zM457 720l-46 22q28 48 86 48q30 0 53.5 -16.5t23.5 -47.5q0 -30 -22 -59h-64q27 25 27 51q0 10 -7 17t-18 7q-19 0 -33 -22z" />
    <glyph glyph-name="uni1EC4" unicode="&#x1ec4;" 
d="M554 678h-90l-51 40l-84 -40h-93l122 72h135zM495 0h-489l147 667h489l-34 -150h-316l-23 -104h310l-33 -150h-310l-25 -113h317zM482 757q-38 0 -71 13.5t-51 13.5q-26 0 -36 -24h-79q13 34 41.5 50.5t82.5 16.5q38 0 71.5 -14t50.5 -14q25 0 37 25h79
q-15 -35 -43.5 -51t-81.5 -16z" />
    <glyph glyph-name="uni1EC5" unicode="&#x1ec5;" horiz-adv-x="548" 
d="M510 523h-90l-51 81l-84 -81h-93l122 144h135zM278 -12q-117 0 -187 58t-70 161q0 119 80.5 203.5t202.5 84.5q95 0 158.5 -58t63.5 -160q0 -41 -10 -84h-342v-6q0 -24 31.5 -52t84.5 -28q72 0 113 30l47 -102q-69 -47 -172 -47zM189 293h200q1 1 1 7q0 28 -23.5 52
t-69.5 24q-41 0 -71 -26t-37 -57zM457 682q-38 0 -71 27.5t-51 27.5q-26 0 -36 -49h-79q13 69 41.5 101.5t82.5 32.5q30 0 51.5 -14t38 -27.5t32.5 -13.5q25 0 37 49h79q-15 -69 -43.5 -101.5t-81.5 -32.5z" />
    <glyph glyph-name="uni1EC6" unicode="&#x1ec6;" 
d="M568 723h-90l-51 81l-84 -81h-93l122 144h135zM495 0h-489l147 667h489l-34 -150h-316l-23 -104h310l-33 -150h-310l-25 -113h317zM301 -116q0 -34 -27 -60.5t-62 -26.5q-30 0 -50 20t-20 50q0 34 27 60.5t62 26.5q30 0 50 -20t20 -50z" />
    <glyph glyph-name="uni1EC7" unicode="&#x1ec7;" horiz-adv-x="548" 
d="M516 556h-90l-51 81l-84 -81h-93l122 144h135zM278 -12q-117 0 -187 58t-70 161q0 119 80.5 203.5t202.5 84.5q95 0 158.5 -58t63.5 -160q0 -41 -10 -84h-342v-6q0 -24 31.5 -52t84.5 -28q72 0 113 30l47 -102q-69 -47 -172 -47zM189 293h200q1 1 1 7q0 28 -23.5 52
t-69.5 24q-41 0 -71 -26t-37 -57zM285 -116q0 -34 -27 -60.5t-62 -26.5q-30 0 -50 20t-20 50q0 34 27 60.5t62 26.5q30 0 50 -20t20 -50z" />
    <glyph glyph-name="uni1EC8" unicode="&#x1ec8;" horiz-adv-x="292" 
d="M178 0h-172l147 667h172zM223 750l-46 22q28 48 86 48q30 0 53.5 -16.5t23.5 -47.5q0 -30 -22 -59h-64q27 25 27 51q0 10 -7 17t-18 7q-19 0 -33 -22z" />
    <glyph glyph-name="uni1EC9" unicode="&#x1ec9;" horiz-adv-x="266" 
d="M156 0h-154l107 483h154zM174 580l-46 22q28 48 86 48q30 0 53.5 -16.5t23.5 -47.5q0 -30 -22 -59h-64q27 25 27 51q0 10 -7 17t-18 7q-19 0 -33 -22z" />
    <glyph glyph-name="uni1ECA" unicode="&#x1eca;" horiz-adv-x="292" 
d="M178 0h-172l147 667h172zM143 -116q0 -34 -27 -60.5t-62 -26.5q-30 0 -50 20t-20 50q0 34 27 60.5t62 26.5q30 0 50 -20t20 -50z" />
    <glyph glyph-name="uni1ECB" unicode="&#x1ecb;" horiz-adv-x="266" 
d="M205 526q-35 0 -57.5 22.5t-22.5 53.5q0 46 31.5 73.5t68.5 27.5q34 0 56.5 -22t22.5 -53q0 -46 -31 -74t-68 -28zM156 0h-154l107 483h154zM131 -116q0 -34 -27 -60.5t-62 -26.5q-30 0 -50 20t-20 50q0 34 27 60.5t62 26.5q30 0 50 -20t20 -50z" />
    <glyph glyph-name="uni1ECC" unicode="&#x1ecc;" horiz-adv-x="766" 
d="M374 -12q-146 0 -242 84t-96 219q0 162 113 274.5t281 112.5q145 0 241.5 -83.5t96.5 -217.5q0 -163 -113 -276t-281 -113zM384 140q87 0 146 65.5t59 158.5q0 72 -47 117t-122 45q-87 0 -146 -65.5t-59 -158.5q0 -72 47 -117t122 -45zM380 -116q0 -34 -27 -60.5
t-62 -26.5q-30 0 -50 20t-20 50q0 34 27 60.5t62 26.5q30 0 50 -20t20 -50z" />
    <glyph glyph-name="uni1ECD" unicode="&#x1ecd;" horiz-adv-x="576" 
d="M269 -12q-118 0 -183.5 62.5t-65.5 159.5q0 115 81 200t203 85q118 0 183.5 -62.5t65.5 -160.5q0 -115 -81 -199.5t-203 -84.5zM275 124q52 0 86.5 42t34.5 99q0 44 -26 69t-71 25q-53 0 -87 -42t-34 -99q0 -44 26 -69t71 -25zM286 -116q0 -34 -27 -60.5t-62 -26.5
q-30 0 -50 20t-20 50q0 34 27 60.5t62 26.5q30 0 50 -20t20 -50z" />
    <glyph glyph-name="uni1ECE" unicode="&#x1ece;" horiz-adv-x="766" 
d="M374 -12q-146 0 -242 84t-96 219q0 162 113 274.5t281 112.5q145 0 241.5 -83.5t96.5 -217.5q0 -163 -113 -276t-281 -113zM384 140q87 0 146 65.5t59 158.5q0 72 -47 117t-122 45q-87 0 -146 -65.5t-59 -158.5q0 -72 47 -117t122 -45zM462 750l-46 22q28 48 86 48
q30 0 53.5 -16.5t23.5 -47.5q0 -30 -22 -59h-64q27 25 27 51q0 10 -7 17t-18 7q-19 0 -33 -22z" />
    <glyph glyph-name="uni1ECF" unicode="&#x1ecf;" horiz-adv-x="576" 
d="M269 -12q-118 0 -183.5 62.5t-65.5 159.5q0 115 81 200t203 85q118 0 183.5 -62.5t65.5 -160.5q0 -115 -81 -199.5t-203 -84.5zM275 124q52 0 86.5 42t34.5 99q0 44 -26 69t-71 25q-53 0 -87 -42t-34 -99q0 -44 26 -69t71 -25zM329 580l-46 22q28 48 86 48
q30 0 53.5 -16.5t23.5 -47.5q0 -30 -22 -59h-64q27 25 27 51q0 10 -7 17t-18 7q-19 0 -33 -22z" />
    <glyph glyph-name="uni1ED0" unicode="&#x1ed0;" horiz-adv-x="766" 
d="M634 682h-90l-51 61l-84 -61h-93l122 108h135zM908 843l-191 -108h-106l159 108h138zM374 -12q-146 0 -242 84t-96 219q0 162 113 274.5t281 112.5q145 0 241.5 -83.5t96.5 -217.5q0 -163 -113 -276t-281 -113zM384 140q87 0 146 65.5t59 158.5q0 72 -47 117t-122 45
q-87 0 -146 -65.5t-59 -158.5q0 -72 47 -117t122 -45z" />
    <glyph glyph-name="uni1ED1" unicode="&#x1ed1;" horiz-adv-x="576" 
d="M516 556h-90l-51 81l-84 -81h-93l122 144h135zM788 770l-191 -144h-106l159 144h138zM269 -12q-118 0 -183.5 62.5t-65.5 159.5q0 115 81 200t203 85q118 0 183.5 -62.5t65.5 -160.5q0 -115 -81 -199.5t-203 -84.5zM275 124q52 0 86.5 42t34.5 99q0 44 -26 69t-71 25
q-53 0 -87 -42t-34 -99q0 -44 26 -69t71 -25z" />
    <glyph glyph-name="uni1ED2" unicode="&#x1ed2;" horiz-adv-x="766" 
d="M634 682h-90l-51 61l-84 -61h-93l122 108h135zM374 -12q-146 0 -242 84t-96 219q0 162 113 274.5t281 112.5q145 0 241.5 -83.5t96.5 -217.5q0 -163 -113 -276t-281 -113zM384 140q87 0 146 65.5t59 158.5q0 72 -47 117t-122 45q-87 0 -146 -65.5t-59 -158.5
q0 -72 47 -117t122 -45zM368 735h-104l-127 108h136z" />
    <glyph glyph-name="uni1ED3" unicode="&#x1ed3;" horiz-adv-x="576" 
d="M516 556h-90l-51 81l-84 -81h-93l122 144h135zM269 -12q-118 0 -183.5 62.5t-65.5 159.5q0 115 81 200t203 85q118 0 183.5 -62.5t65.5 -160.5q0 -115 -81 -199.5t-203 -84.5zM275 124q52 0 86.5 42t34.5 99q0 44 -26 69t-71 25q-53 0 -87 -42t-34 -99q0 -44 26 -69
t71 -25zM252 626h-104l-127 144h136z" />
    <glyph glyph-name="uni1ED4" unicode="&#x1ed4;" horiz-adv-x="766" 
d="M634 682h-90l-51 61l-84 -61h-93l122 108h135zM374 -12q-146 0 -242 84t-96 219q0 162 113 274.5t281 112.5q145 0 241.5 -83.5t96.5 -217.5q0 -163 -113 -276t-281 -113zM384 140q87 0 146 65.5t59 158.5q0 72 -47 117t-122 45q-87 0 -146 -65.5t-59 -158.5
q0 -72 47 -117t122 -45zM587 796l-46 16q27 36 86 36q30 0 53.5 -12.5t23.5 -35.5q0 -22 -22 -44h-64q27 19 27 38q0 18 -25 18q-19 0 -33 -16z" />
    <glyph glyph-name="uni1ED5" unicode="&#x1ed5;" horiz-adv-x="576" 
d="M516 556h-90l-51 81l-84 -81h-93l122 144h135zM269 -12q-118 0 -183.5 62.5t-65.5 159.5q0 115 81 200t203 85q118 0 183.5 -62.5t65.5 -160.5q0 -115 -81 -199.5t-203 -84.5zM275 124q52 0 86.5 42t34.5 99q0 44 -26 69t-71 25q-53 0 -87 -42t-34 -99q0 -44 26 -69
t71 -25zM456 720l-46 22q28 48 86 48q30 0 53.5 -16.5t23.5 -47.5q0 -30 -22 -59h-64q27 25 27 51q0 10 -7 17t-18 7q-19 0 -33 -22z" />
    <glyph glyph-name="uni1ED6" unicode="&#x1ed6;" horiz-adv-x="766" 
d="M627 678h-90l-51 40l-84 -40h-93l122 72h135zM374 -12q-146 0 -242 84t-96 219q0 162 113 274.5t281 112.5q145 0 241.5 -83.5t96.5 -217.5q0 -163 -113 -276t-281 -113zM384 140q87 0 146 65.5t59 158.5q0 72 -47 117t-122 45q-87 0 -146 -65.5t-59 -158.5
q0 -72 47 -117t122 -45zM558 757q-38 0 -71 13.5t-51 13.5q-26 0 -36 -24h-79q13 34 41.5 50.5t82.5 16.5q38 0 71.5 -14t50.5 -14q25 0 37 25h79q-15 -35 -43.5 -51t-81.5 -16z" />
    <glyph glyph-name="uni1ED7" unicode="&#x1ed7;" horiz-adv-x="576" 
d="M510 523h-90l-51 81l-84 -81h-93l122 144h135zM269 -12q-118 0 -183.5 62.5t-65.5 159.5q0 115 81 200t203 85q118 0 183.5 -62.5t65.5 -160.5q0 -115 -81 -199.5t-203 -84.5zM275 124q52 0 86.5 42t34.5 99q0 44 -26 69t-71 25q-53 0 -87 -42t-34 -99q0 -44 26 -69
t71 -25zM457 682q-38 0 -71 27.5t-51 27.5q-26 0 -36 -49h-79q13 69 41.5 101.5t82.5 32.5q30 0 51.5 -14t38 -27.5t32.5 -13.5q25 0 37 49h79q-15 -69 -43.5 -101.5t-81.5 -32.5z" />
    <glyph glyph-name="uni1ED8" unicode="&#x1ed8;" horiz-adv-x="766" 
d="M647 723h-90l-51 81l-84 -81h-93l122 144h135zM374 -12q-146 0 -242 84t-96 219q0 162 113 274.5t281 112.5q145 0 241.5 -83.5t96.5 -217.5q0 -163 -113 -276t-281 -113zM384 140q87 0 146 65.5t59 158.5q0 72 -47 117t-122 45q-87 0 -146 -65.5t-59 -158.5
q0 -72 47 -117t122 -45zM381 -116q0 -34 -27 -60.5t-62 -26.5q-30 0 -50 20t-20 50q0 34 27 60.5t62 26.5q30 0 50 -20t20 -50z" />
    <glyph glyph-name="uni1ED9" unicode="&#x1ed9;" horiz-adv-x="576" 
d="M516 556h-90l-51 81l-84 -81h-93l122 144h135zM269 -12q-118 0 -183.5 62.5t-65.5 159.5q0 115 81 200t203 85q118 0 183.5 -62.5t65.5 -160.5q0 -115 -81 -199.5t-203 -84.5zM275 124q52 0 86.5 42t34.5 99q0 44 -26 69t-71 25q-53 0 -87 -42t-34 -99q0 -44 26 -69
t71 -25zM286 -116q0 -34 -27 -60.5t-62 -26.5q-30 0 -50 20t-20 50q0 34 27 60.5t62 26.5q30 0 50 -20t20 -50z" />
    <glyph glyph-name="uni1EDA" unicode="&#x1eda;" horiz-adv-x="766" 
d="M716 867l-191 -144h-106l159 144h138zM374 -12q-146 0 -242 84t-96 219q0 162 113 274.5t281 112.5q166 0 263 -105q47 25 61 55q-2 -1 -8 -1q-20 0 -34 13.5t-14 37.5q0 28 21 48t48 20q25 0 43 -17.5t18 -46.5q0 -42 -29.5 -83t-75.5 -65q45 -68 45 -157
q0 -163 -113 -276t-281 -113zM384 140q87 0 146 65.5t59 158.5q0 72 -47 117t-122 45q-87 0 -146 -65.5t-59 -158.5q0 -72 47 -117t122 -45z" />
    <glyph glyph-name="uni1EDB" unicode="&#x1edb;" horiz-adv-x="576" 
d="M584 700l-191 -144h-106l159 144h138zM613 549q0 -41 -28 -81t-72 -64q40 -57 40 -132q0 -115 -81 -199.5t-203 -84.5q-118 0 -183.5 62.5t-65.5 159.5q0 115 81 200t203 85q109 0 174 -54q46 24 60 54q-1 -1 -7 -1q-21 0 -34.5 13.5t-13.5 37.5q0 28 21 47.5t48 19.5
q25 0 43 -17t18 -46zM275 124q52 0 86.5 42t34.5 99q0 44 -26 69t-71 25q-53 0 -87 -42t-34 -99q0 -44 26 -69t71 -25z" />
    <glyph glyph-name="uni1EDC" unicode="&#x1edc;" horiz-adv-x="766" 
d="M374 -12q-146 0 -242 84t-96 219q0 162 113 274.5t281 112.5q166 0 263 -105q47 25 61 55q-2 -1 -8 -1q-20 0 -34 13.5t-14 37.5q0 28 21 48t48 20q25 0 43 -17.5t18 -46.5q0 -42 -29.5 -83t-75.5 -65q45 -68 45 -157q0 -163 -113 -276t-281 -113zM384 140q87 0 146 65.5
t59 158.5q0 72 -47 117t-122 45q-87 0 -146 -65.5t-59 -158.5q0 -72 47 -117t122 -45zM556 723h-104l-127 144h136z" />
    <glyph glyph-name="uni1EDD" unicode="&#x1edd;" horiz-adv-x="576" 
d="M613 549q0 -41 -28 -81t-72 -64q40 -57 40 -132q0 -115 -81 -199.5t-203 -84.5q-118 0 -183.5 62.5t-65.5 159.5q0 115 81 200t203 85q109 0 174 -54q46 24 60 54q-1 -1 -7 -1q-21 0 -34.5 13.5t-13.5 37.5q0 28 21 47.5t48 19.5q25 0 43 -17t18 -46zM275 124
q52 0 86.5 42t34.5 99q0 44 -26 69t-71 25q-53 0 -87 -42t-34 -99q0 -44 26 -69t71 -25zM426 556h-104l-127 144h136z" />
    <glyph glyph-name="uni1EDE" unicode="&#x1ede;" horiz-adv-x="766" 
d="M374 -12q-146 0 -242 84t-96 219q0 162 113 274.5t281 112.5q166 0 263 -105q47 25 61 55q-2 -1 -8 -1q-20 0 -34 13.5t-14 37.5q0 28 21 48t48 20q25 0 43 -17.5t18 -46.5q0 -42 -29.5 -83t-75.5 -65q45 -68 45 -157q0 -163 -113 -276t-281 -113zM384 140q87 0 146 65.5
t59 158.5q0 72 -47 117t-122 45q-87 0 -146 -65.5t-59 -158.5q0 -72 47 -117t122 -45zM462 750l-46 22q28 48 86 48q30 0 53.5 -16.5t23.5 -47.5q0 -30 -22 -59h-64q27 25 27 51q0 10 -7 17t-18 7q-19 0 -33 -22z" />
    <glyph glyph-name="uni1EDF" unicode="&#x1edf;" horiz-adv-x="576" 
d="M613 549q0 -41 -28 -81t-72 -64q40 -57 40 -132q0 -115 -81 -199.5t-203 -84.5q-118 0 -183.5 62.5t-65.5 159.5q0 115 81 200t203 85q109 0 174 -54q46 24 60 54q-1 -1 -7 -1q-21 0 -34.5 13.5t-13.5 37.5q0 28 21 47.5t48 19.5q25 0 43 -17t18 -46zM275 124
q52 0 86.5 42t34.5 99q0 44 -26 69t-71 25q-53 0 -87 -42t-34 -99q0 -44 26 -69t71 -25zM329 580l-46 22q28 48 86 48q30 0 53.5 -16.5t23.5 -47.5q0 -30 -22 -59h-64q27 25 27 51q0 10 -7 17t-18 7q-19 0 -33 -22z" />
    <glyph glyph-name="uni1EE0" unicode="&#x1ee0;" horiz-adv-x="766" 
d="M374 -12q-146 0 -242 84t-96 219q0 162 113 274.5t281 112.5q166 0 263 -105q47 25 61 55q-2 -1 -8 -1q-20 0 -34 13.5t-14 37.5q0 28 21 48t48 20q25 0 43 -17.5t18 -46.5q0 -42 -29.5 -83t-75.5 -65q45 -68 45 -157q0 -163 -113 -276t-281 -113zM384 140q87 0 146 65.5
t59 158.5q0 72 -47 117t-122 45q-87 0 -146 -65.5t-59 -158.5q0 -72 47 -117t122 -45zM561 721q-38 0 -71 27.5t-51 27.5q-26 0 -36 -49h-79q13 69 41.5 101.5t82.5 32.5q23 0 42 -8.5t29.5 -19t24 -19t26.5 -8.5q25 0 37 49h79q-15 -69 -43.5 -101.5t-81.5 -32.5z" />
    <glyph glyph-name="uni1EE1" unicode="&#x1ee1;" horiz-adv-x="576" 
d="M613 549q0 -41 -28 -81t-72 -64q40 -57 40 -132q0 -115 -81 -199.5t-203 -84.5q-118 0 -183.5 62.5t-65.5 159.5q0 115 81 200t203 85q109 0 174 -54q46 24 60 54q-1 -1 -7 -1q-21 0 -34.5 13.5t-13.5 37.5q0 28 21 47.5t48 19.5q25 0 43 -17t18 -46zM275 124
q52 0 86.5 42t34.5 99q0 44 -26 69t-71 25q-53 0 -87 -42t-34 -99q0 -44 26 -69t71 -25zM394 554q-38 0 -71 27.5t-51 27.5q-26 0 -36 -49h-79q13 69 41.5 101.5t82.5 32.5q30 0 51.5 -14t38 -27.5t32.5 -13.5q25 0 37 49h79q-15 -69 -43.5 -101.5t-81.5 -32.5z" />
    <glyph glyph-name="uni1EE2" unicode="&#x1ee2;" horiz-adv-x="766" 
d="M374 -12q-146 0 -242 84t-96 219q0 162 113 274.5t281 112.5q166 0 263 -105q47 25 61 55q-2 -1 -8 -1q-20 0 -34 13.5t-14 37.5q0 28 21 48t48 20q25 0 43 -17.5t18 -46.5q0 -42 -29.5 -83t-75.5 -65q45 -68 45 -157q0 -163 -113 -276t-281 -113zM384 140q87 0 146 65.5
t59 158.5q0 72 -47 117t-122 45q-87 0 -146 -65.5t-59 -158.5q0 -72 47 -117t122 -45zM380 -116q0 -34 -27 -60.5t-62 -26.5q-30 0 -50 20t-20 50q0 34 27 60.5t62 26.5q30 0 50 -20t20 -50z" />
    <glyph glyph-name="uni1EE3" unicode="&#x1ee3;" horiz-adv-x="576" 
d="M613 549q0 -41 -28 -81t-72 -64q40 -57 40 -132q0 -115 -81 -199.5t-203 -84.5q-118 0 -183.5 62.5t-65.5 159.5q0 115 81 200t203 85q109 0 174 -54q46 24 60 54q-1 -1 -7 -1q-21 0 -34.5 13.5t-13.5 37.5q0 28 21 47.5t48 19.5q25 0 43 -17t18 -46zM275 124
q52 0 86.5 42t34.5 99q0 44 -26 69t-71 25q-53 0 -87 -42t-34 -99q0 -44 26 -69t71 -25zM286 -116q0 -34 -27 -60.5t-62 -26.5q-30 0 -50 20t-20 50q0 34 27 60.5t62 26.5q30 0 50 -20t20 -50z" />
    <glyph glyph-name="uni1EE4" unicode="&#x1ee4;" horiz-adv-x="750" 
d="M366 -12q-149 0 -227.5 64.5t-78.5 173.5q0 19 5 44l88 397h175l-87 -393q-3 -7 -3 -28q1 -45 34.5 -76.5t93.5 -31.5q126 0 156 136l87 393h174l-87 -396q-30 -133 -107.5 -208t-222.5 -75zM371 -116q0 -34 -27 -60.5t-62 -26.5q-30 0 -50 20t-20 50q0 34 27 60.5
t62 26.5q30 0 50 -20t20 -50z" />
    <glyph glyph-name="uni1EE5" unicode="&#x1ee5;" horiz-adv-x="592" 
d="M109 483h153l-61 -279q-4 -18 -4 -26q0 -54 71 -54q49 0 99 48l68 311h154l-107 -483h-154l14 59q-77 -71 -157 -71q-72 0 -113.5 34.5t-41.5 90.5q0 15 5 40zM293 -116q0 -34 -27 -60.5t-62 -26.5q-30 0 -50 20t-20 50q0 34 27 60.5t62 26.5q30 0 50 -20t20 -50z" />
    <glyph glyph-name="uni1EE6" unicode="&#x1ee6;" horiz-adv-x="750" 
d="M366 -12q-149 0 -227.5 64.5t-78.5 173.5q0 19 5 44l88 397h175l-87 -393q-3 -7 -3 -28q1 -45 34.5 -76.5t93.5 -31.5q126 0 156 136l87 393h174l-87 -396q-30 -133 -107.5 -208t-222.5 -75zM453 750l-46 22q28 48 86 48q30 0 53.5 -16.5t23.5 -47.5q0 -30 -22 -59h-64
q27 25 27 51q0 10 -7 17t-18 7q-19 0 -33 -22z" />
    <glyph glyph-name="uni1EE7" unicode="&#x1ee7;" horiz-adv-x="592" 
d="M109 483h153l-61 -279q-4 -18 -4 -26q0 -54 71 -54q49 0 99 48l68 311h154l-107 -483h-154l14 59q-77 -71 -157 -71q-72 0 -113.5 34.5t-41.5 90.5q0 15 5 40zM336 580l-46 22q28 48 86 48q30 0 53.5 -16.5t23.5 -47.5q0 -30 -22 -59h-64q27 25 27 51q0 10 -7 17t-18 7
q-19 0 -33 -22z" />
    <glyph glyph-name="uni1EE8" unicode="&#x1ee8;" horiz-adv-x="750" 
d="M707 867l-191 -144h-106l159 144h138zM902 742q0 -53 -39 -97t-100 -68l-67 -306q-30 -133 -107.5 -208t-222.5 -75q-149 0 -227.5 64.5t-78.5 173.5q0 19 5 44l88 397h175l-87 -393q-3 -7 -3 -28q1 -45 34.5 -76.5t93.5 -31.5q126 0 156 136l87 393h174l-7 -29
q39 22 51 50q-1 -1 -7 -1q-21 0 -34.5 13.5t-13.5 37.5q0 27 21 47t48 20q25 0 43 -17t18 -46z" />
    <glyph glyph-name="uni1EE9" unicode="&#x1ee9;" horiz-adv-x="592" 
d="M593 700l-191 -144h-106l159 144h138zM681 565q0 -89 -107 -149l-92 -416h-154l14 59q-75 -71 -157 -71q-72 0 -113.5 34.5t-41.5 90.5q0 15 5 40l73 330h154l-62 -280q-3 -13 -3 -25q0 -54 74 -54q46 0 95 47l69 312h149q13 11 22 28q-2 -1 -8 -1q-20 0 -34 14t-14 38
q0 27 21.5 47t48.5 20q25 0 43 -17t18 -47z" />
    <glyph glyph-name="uni1EEA" unicode="&#x1eea;" horiz-adv-x="750" 
d="M547 723h-104l-127 144h136zM902 742q0 -53 -39 -97t-100 -68l-67 -306q-30 -133 -107.5 -208t-222.5 -75q-149 0 -227.5 64.5t-78.5 173.5q0 19 5 44l88 397h175l-87 -393q-3 -7 -3 -28q1 -45 34.5 -76.5t93.5 -31.5q126 0 156 136l87 393h174l-7 -29q39 22 51 50
q-1 -1 -7 -1q-21 0 -34.5 13.5t-13.5 37.5q0 27 21 47t48 20q25 0 43 -17t18 -46z" />
    <glyph glyph-name="uni1EEB" unicode="&#x1eeb;" horiz-adv-x="592" 
d="M432 556h-104l-127 144h136zM681 565q0 -89 -107 -149l-92 -416h-154l14 59q-75 -71 -157 -71q-72 0 -113.5 34.5t-41.5 90.5q0 15 5 40l73 330h154l-62 -280q-3 -13 -3 -25q0 -54 74 -54q46 0 95 47l69 312h149q13 11 22 28q-2 -1 -8 -1q-20 0 -34 14t-14 38
q0 27 21.5 47t48.5 20q25 0 43 -17t18 -47z" />
    <glyph glyph-name="uni1EEC" unicode="&#x1eec;" horiz-adv-x="750" 
d="M453 750l-46 22q28 48 86 48q30 0 53.5 -16.5t23.5 -47.5q0 -30 -22 -59h-64q27 25 27 51q0 10 -7 17t-18 7q-19 0 -33 -22zM902 742q0 -53 -39 -97t-100 -68l-67 -306q-30 -133 -107.5 -208t-222.5 -75q-149 0 -227.5 64.5t-78.5 173.5q0 19 5 44l88 397h175l-87 -393
q-3 -7 -3 -28q1 -45 34.5 -76.5t93.5 -31.5q126 0 156 136l87 393h174l-7 -29q39 22 51 50q-1 -1 -7 -1q-21 0 -34.5 13.5t-13.5 37.5q0 27 21 47t48 20q25 0 43 -17t18 -46z" />
    <glyph glyph-name="uni1EED" unicode="&#x1eed;" horiz-adv-x="592" 
d="M336 580l-46 22q28 48 86 48q30 0 53.5 -16.5t23.5 -47.5q0 -30 -22 -59h-64q27 25 27 51q0 10 -7 17t-18 7q-19 0 -33 -22zM681 565q0 -89 -107 -149l-92 -416h-154l14 59q-75 -71 -157 -71q-72 0 -113.5 34.5t-41.5 90.5q0 15 5 40l73 330h154l-62 -280q-3 -13 -3 -25
q0 -54 74 -54q46 0 95 47l69 312h149q13 11 22 28q-2 -1 -8 -1q-20 0 -34 14t-14 38q0 27 21.5 47t48.5 20q25 0 43 -17t18 -47z" />
    <glyph glyph-name="uni1EEE" unicode="&#x1eee;" horiz-adv-x="750" 
d="M902 742q0 -53 -39 -97t-100 -68l-67 -306q-30 -133 -107.5 -208t-222.5 -75q-149 0 -227.5 64.5t-78.5 173.5q0 19 5 44l88 397h175l-87 -393q-3 -7 -3 -28q1 -45 34.5 -76.5t93.5 -31.5q126 0 156 136l87 393h174l-7 -29q39 22 51 50q-1 -1 -7 -1q-21 0 -34.5 13.5
t-13.5 37.5q0 27 21 47t48 20q25 0 43 -17t18 -46zM552 721q-38 0 -71 27.5t-51 27.5q-26 0 -36 -49h-79q13 69 41.5 101.5t82.5 32.5q23 0 42 -8.5t29.5 -19t24 -19t26.5 -8.5q25 0 37 49h79q-15 -69 -43.5 -101.5t-81.5 -32.5z" />
    <glyph glyph-name="uni1EEF" unicode="&#x1eef;" horiz-adv-x="592" 
d="M681 565q0 -89 -107 -149l-92 -416h-154l14 59q-75 -71 -157 -71q-72 0 -113.5 34.5t-41.5 90.5q0 15 5 40l73 330h154l-62 -280q-3 -13 -3 -25q0 -54 74 -54q46 0 95 47l69 312h149q13 11 22 28q-2 -1 -8 -1q-20 0 -34 14t-14 38q0 27 21.5 47t48.5 20q25 0 43 -17
t18 -47zM436 554q-38 0 -71 27.5t-51 27.5q-26 0 -36 -49h-79q13 69 41.5 101.5t82.5 32.5q30 0 51.5 -14t38 -27.5t32.5 -13.5q25 0 37 49h79q-15 -69 -43.5 -101.5t-81.5 -32.5z" />
    <glyph glyph-name="uni1EF0" unicode="&#x1ef0;" horiz-adv-x="750" 
d="M371 -116q0 -34 -27 -60.5t-62 -26.5q-30 0 -50 20t-20 50q0 34 27 60.5t62 26.5q30 0 50 -20t20 -50zM902 742q0 -53 -39 -97t-100 -68l-67 -306q-30 -133 -107.5 -208t-222.5 -75q-149 0 -227.5 64.5t-78.5 173.5q0 19 5 44l88 397h175l-87 -393q-3 -7 -3 -28
q1 -45 34.5 -76.5t93.5 -31.5q126 0 156 136l87 393h174l-7 -29q39 22 51 50q-1 -1 -7 -1q-21 0 -34.5 13.5t-13.5 37.5q0 27 21 47t48 20q25 0 43 -17t18 -46z" />
    <glyph glyph-name="uni1EF1" unicode="&#x1ef1;" horiz-adv-x="592" 
d="M293 -116q0 -34 -27 -60.5t-62 -26.5q-30 0 -50 20t-20 50q0 34 27 60.5t62 26.5q30 0 50 -20t20 -50zM681 565q0 -89 -107 -149l-92 -416h-154l14 59q-75 -71 -157 -71q-72 0 -113.5 34.5t-41.5 90.5q0 15 5 40l73 330h154l-62 -280q-3 -13 -3 -25q0 -54 74 -54
q46 0 95 47l69 312h149q13 11 22 28q-2 -1 -8 -1q-20 0 -34 14t-14 38q0 27 21.5 47t48.5 20q25 0 43 -17t18 -47z" />
    <glyph glyph-name="Ygrave" unicode="&#x1ef2;" horiz-adv-x="655" 
d="M360 0h-172l59 269l-165 398h185l91 -246l197 246h204l-340 -398zM501 723h-104l-127 144h136z" />
    <glyph glyph-name="ygrave" unicode="&#x1ef3;" horiz-adv-x="524" 
d="M-48 -184l49 132q17 -7 50 -7q37 0 55 26l19 31l-82 485h158l40 -306l179 306h167l-341 -552q-43 -70 -90 -98.5t-115 -28.5q-51 0 -89 12zM395 556h-104l-127 144h136z" />
    <glyph glyph-name="thinspace" unicode="&#x2009;" horiz-adv-x="51" 
 />
    <glyph glyph-name="endash" unicode="&#x2013;" horiz-adv-x="593" 
d="M548 178h-533l29 129h533z" />
    <glyph glyph-name="emdash" unicode="&#x2014;" horiz-adv-x="833" 
d="M788 178h-773l29 129h773z" />
    <glyph glyph-name="afii00208" unicode="&#x2015;" horiz-adv-x="593" 
d="M548 178h-533l29 129h533z" />
    <glyph glyph-name="quoteleft" unicode="&#x2018;" horiz-adv-x="268" 
d="M82 459q0 62 46 123.5t116 95.5l53 -55q-79 -34 -105 -84q3 1 12 1q30 0 50.5 -19.5t20.5 -55.5q0 -40 -31.5 -70t-71.5 -30q-38 0 -64 25t-26 69z" />
    <glyph glyph-name="quoteright" unicode="&#x2019;" horiz-adv-x="268" 
d="M308 584q0 -62 -46 -124t-117 -96l-52 55q78 34 105 84q-4 -1 -12 -1q-30 0 -51 19.5t-21 55.5q0 40 32 70t72 30q37 0 63.5 -25t26.5 -68z" />
    <glyph glyph-name="quotesinglbase" unicode="&#x201a;" horiz-adv-x="268" 
d="M197 83q0 -62 -46 -123.5t-116 -95.5l-53 55q79 34 105 84q-3 -1 -12 -1q-30 0 -50.5 19.5t-20.5 55.5q0 40 31.5 69.5t71.5 29.5q37 0 63.5 -24.5t26.5 -68.5z" />
    <glyph glyph-name="quotereversed" unicode="&#x201b;" horiz-adv-x="268" 
d="M110 529q0 70 37.5 109t83.5 39q36 0 60 -24.5t24 -60.5q0 -40 -28 -65t-67 -25q-22 0 -33 7q2 -28 20 -59.5t43 -51.5l-64 -39q-40 42 -58 81t-18 89z" />
    <glyph glyph-name="quotedblleft" unicode="&#x201c;" horiz-adv-x="493" 
d="M306 459q0 62 46 123.5t116 95.5l53 -55q-80 -34 -105 -84q3 1 12 1q30 0 50.5 -19.5t20.5 -55.5q0 -40 -31.5 -70t-71.5 -30q-38 0 -64 25t-26 69zM81 459q0 62 46 123.5t116 95.5l53 -55q-80 -34 -105 -84q3 1 11 1q31 0 51.5 -19.5t20.5 -55.5q0 -40 -32 -70t-72 -30
q-37 0 -63 25t-26 69z" />
    <glyph glyph-name="quotedblright" unicode="&#x201d;" horiz-adv-x="493" 
d="M308 584q0 -62 -46 -124t-117 -96l-52 55q78 34 105 84q-4 -1 -12 -1q-30 0 -51 19.5t-21 55.5q0 40 32 70t72 30q37 0 63.5 -25t26.5 -68zM533 584q0 -62 -46 -124t-116 -96l-53 55q78 34 105 84q-3 -1 -12 -1q-30 0 -50.5 19.5t-20.5 55.5q0 40 31.5 70t71.5 30
q37 0 63.5 -25t26.5 -68z" />
    <glyph glyph-name="quotedblbase" unicode="&#x201e;" horiz-adv-x="493" 
d="M197 83q0 -62 -46 -123.5t-116 -95.5l-53 55q79 34 105 84q-3 -1 -12 -1q-30 0 -50.5 19.5t-20.5 55.5q0 40 31.5 69.5t71.5 29.5q37 0 63.5 -24.5t26.5 -68.5zM422 83q0 -62 -46 -123.5t-116 -95.5l-53 55q79 34 105 84q-2 -1 -12 -1q-30 0 -50.5 19.5t-20.5 55.5
q0 40 31.5 69.5t71.5 29.5q37 0 63.5 -24.5t26.5 -68.5z" />
    <glyph glyph-name="dagger" unicode="&#x2020;" horiz-adv-x="284" 
d="M326 518l-88 4l-39 -195h-79l48 195l-90 -4l16 71l89 -3l15 91h79l-25 -91l90 3z" />
    <glyph glyph-name="daggerdbl" unicode="&#x2021;" horiz-adv-x="284" 
d="M342 589l-16 -71l-88 4l-41 -185l90 4l-16 -71l-88 3l-17 -93h-79l25 93l-89 -3l16 71l87 -4l41 185l-89 -4l16 71l88 -3l16 91h79l-25 -91z" />
    <glyph glyph-name="bullet" unicode="&#x2022;" horiz-adv-x="358" 
d="M304 254q0 -55 -41.5 -95t-97.5 -40q-47 0 -79 32t-32 79q0 56 41 96t97 40q49 0 80.5 -31.5t31.5 -80.5z" />
    <glyph glyph-name="ellipsis" unicode="&#x2026;" horiz-adv-x="807" 
d="M90 -12q-36 0 -60.5 25t-24.5 61q0 42 30.5 72t72.5 30q35 0 60 -25.5t25 -61.5q0 -41 -31 -71t-72 -30zM359 -12q-36 0 -60.5 25t-24.5 61q0 42 30.5 72t72.5 30q35 0 60 -25.5t25 -61.5q0 -41 -31 -71t-72 -30zM628 -12q-36 0 -60.5 25t-24.5 61q0 42 30.5 72t72.5 30
q35 0 60 -25.5t25 -61.5q0 -41 -31 -71t-72 -30z" />
    <glyph glyph-name="perthousand" unicode="&#x2030;" horiz-adv-x="1141" 
d="M162 0h-86l573 667h87zM542 -12q-68 0 -116.5 38t-48.5 102q0 85 55 139.5t133 54.5q69 0 117.5 -38t48.5 -102q0 -84 -55.5 -139t-133.5 -55zM546 80q33 0 55.5 25.5t22.5 66.5q0 25 -17.5 41.5t-44.5 16.5q-33 0 -56 -25t-23 -67q0 -25 17.5 -41.5t45.5 -16.5zM244 343
q-68 0 -116.5 38t-48.5 102q0 85 55 139.5t133 54.5q69 0 117.5 -38t48.5 -102q0 -85 -55.5 -139.5t-133.5 -54.5zM248 435q33 0 55.5 25t22.5 67q0 25 -17.5 41.5t-44.5 16.5q-33 0 -56 -25.5t-23 -66.5q0 -26 17.5 -42t45.5 -16zM912 -12q-68 0 -116.5 38t-48.5 102
q0 85 55 139.5t133 54.5q69 0 117.5 -38t48.5 -102q0 -84 -55.5 -139t-133.5 -55zM916 80q33 0 55.5 25.5t22.5 66.5q0 25 -17.5 41.5t-44.5 16.5q-33 0 -56 -25t-23 -67q0 -25 17.5 -41.5t45.5 -16.5z" />
    <glyph glyph-name="guilsinglleft" unicode="&#x2039;" horiz-adv-x="359" 
d="M284 63h-135l-120 180l200 177h143l-204 -182z" />
    <glyph glyph-name="guilsinglright" unicode="&#x203a;" horiz-adv-x="359" 
d="M77 420h135l120 -180l-200 -177h-143l204 182z" />
    <glyph glyph-name="uni203E" unicode="&#x203e;" horiz-adv-x="363" 
d="M431 556h-362l19 85h362z" />
    <glyph glyph-name="fraction" unicode="&#x2044;" horiz-adv-x="170" 
d="M435 667l-575 -667h-86l573 667h88z" />
    <glyph glyph-name="zerosuperior" unicode="&#x2070;" horiz-adv-x="402" 
d="M459 666q0 -39 -12 -80.5t-35.5 -81t-65 -65t-94.5 -25.5q-76 0 -119 45t-43 116q0 39 12 80.5t35.5 81t65 65t94.5 25.5q76 0 119 -45t43 -116zM345 671q0 66 -52 66q-42 0 -65.5 -57t-23.5 -110q0 -66 52 -66q42 0 65.5 57t23.5 110z" />
    <glyph glyph-name="foursuperior" unicode="&#x2074;" horiz-adv-x="402" 
d="M430 499h-50l-16 -78h-113l16 78h-196l17 77l204 245h160l-52 -233h50zM287 588l30 134l-114 -134h84z" />
    <glyph glyph-name="fivesuperior" unicode="&#x2075;" horiz-adv-x="402" 
d="M436 574q0 -68 -49.5 -114t-134.5 -46q-112 0 -176 65l69 67q42 -42 106 -42q33 0 51 15.5t18 36.5q0 45 -64 45q-43 0 -74 -29l-72 24l50 225h304l-20 -90h-190l-16 -76q34 28 77 28q52 0 86.5 -30.5t34.5 -78.5z" />
    <glyph glyph-name="sixsuperior" unicode="&#x2076;" horiz-adv-x="402" 
d="M441 570q0 -66 -48.5 -111t-127.5 -45q-82 0 -128.5 42.5t-46.5 116.5q0 105 67.5 179.5t162.5 74.5q87 0 144 -46l-63 -75q-33 31 -84 31q-47 0 -77.5 -32t-30.5 -60v-3q44 49 100 49q55 0 93.5 -33.5t38.5 -87.5zM324 556q0 23 -18 35t-48 12q-32 0 -55 -26
q-2 -4 -2 -16q0 -25 17 -41t46 -16q25 0 42.5 15.5t17.5 36.5z" />
    <glyph glyph-name="sevensuperior" unicode="&#x2077;" horiz-adv-x="375" 
d="M451 742l-210 -321h-127l210 310h-203l20 90h327z" />
    <glyph glyph-name="eightsuperior" unicode="&#x2078;" horiz-adv-x="402" 
d="M432 525q0 -49 -42 -80t-127 -31q-82 0 -135.5 27t-53.5 83q0 41 32.5 73t83.5 39q-65 24 -65 83q0 52 47 80t113 28q71 0 127.5 -27.5t56.5 -80.5q0 -38 -28.5 -67t-79.5 -35q29 -10 50 -35.5t21 -56.5zM350 704q0 16 -17.5 26.5t-43.5 10.5q-24 0 -39.5 -10.5
t-15.5 -28.5q0 -17 17.5 -28t32.5 -13q66 7 66 43zM321 541q0 16 -17.5 29t-36.5 17q-31 -2 -54 -14.5t-23 -32.5q0 -18 19.5 -29t47.5 -11q30 0 47 11.5t17 29.5z" />
    <glyph glyph-name="ninesuperior" unicode="&#x2079;" horiz-adv-x="402" 
d="M111 672q0 66 48 111t127 45q82 0 129 -42.5t47 -116.5q0 -105 -67.5 -179.5t-162.5 -74.5q-87 0 -144 46l62 76q32 -32 85 -32q47 0 77.5 32t30.5 60v3q-44 -49 -100 -49q-55 0 -93.5 33.5t-38.5 87.5zM228 686q0 -23 18 -35t47 -12q32 0 56 25q2 5 2 17q0 25 -17 41
t-46 16q-25 0 -42.5 -15.5t-17.5 -36.5z" />
    <glyph glyph-name="parenleftsuperior" unicode="&#x207d;" horiz-adv-x="208" 
d="M228 383l-75 -27q-57 71 -57 196q0 94 49.5 185.5t124.5 148.5l62 -27q-126 -163 -126 -353q0 -70 22 -123z" />
    <glyph glyph-name="parenrightsuperior" unicode="&#x207e;" horiz-adv-x="208" 
d="M148 859l75 27q57 -73 57 -196q0 -94 -49.5 -185.5t-124.5 -148.5l-63 27q127 164 127 353q0 70 -22 123z" />
    <glyph glyph-name="nsuperior" unicode="&#x207f;" horiz-adv-x="418" 
d="M389 326h-109l39 179q2 12 2 17q0 34 -45 34q-30 0 -62 -32l-43 -198h-110l69 314h110l-8 -37q45 45 101 45q50 0 78 -22.5t28 -62.5q0 -12 -4 -29z" />
    <glyph glyph-name="zeroinferior" unicode="&#x2080;" horiz-adv-x="402" 
d="M343 99q0 -39 -12 -80.5t-35.5 -81t-65 -65t-94.5 -25.5q-76 0 -119 45t-43 116q0 39 12 80.5t35.5 81t65 65t94.5 25.5q76 0 119 -45t43 -116zM229 104q0 66 -52 66q-42 0 -65.5 -57t-23.5 -110q0 -66 52 -66q42 0 65.5 57t23.5 110z" />
    <glyph glyph-name="oneinferior" unicode="&#x2081;" horiz-adv-x="311" 
d="M165 -146h-114l55 251l-82 -66l-51 69l182 146h98z" />
    <glyph glyph-name="twoinferior" unicode="&#x2082;" horiz-adv-x="402" 
d="M284 -146h-326l19 86q158 91 203.5 125.5t45.5 63.5q0 19 -16 30t-43 11q-67 0 -112 -43l-46 76q30 27 75 42t88 15q76 0 124 -33t48 -87q0 -49 -47 -94t-153 -102h160z" />
    <glyph glyph-name="threeinferior" unicode="&#x2083;" horiz-adv-x="402" 
d="M313 -35q0 -47 -44.5 -82.5t-118.5 -35.5q-63 0 -114 20t-74 54l69 70q40 -54 113 -54q28 0 42 12t14 29q0 34 -84 34q-29 0 -35 -1l19 89q10 -1 67 -1q62 0 62 36q0 17 -21 26t-52 9q-60 0 -102 -34l-36 71q61 53 150 53q82 0 129.5 -29t47.5 -80q0 -38 -28.5 -66.5
t-81.5 -32.5q78 -20 78 -87z" />
    <glyph glyph-name="fourinferior" unicode="&#x2084;" horiz-adv-x="402" 
d="M314 -68h-50l-16 -78h-113l16 78h-196l17 77l204 245h160l-52 -233h50zM171 21l30 134l-114 -134h84z" />
    <glyph glyph-name="fiveinferior" unicode="&#x2085;" horiz-adv-x="402" 
d="M320 7q0 -68 -49.5 -114t-134.5 -46q-112 0 -176 65l69 67q42 -42 106 -42q33 0 51 15.5t18 36.5q0 45 -64 45q-43 0 -74 -29l-72 24l50 225h304l-20 -90h-190l-16 -76q34 28 77 28q52 0 86.5 -30.5t34.5 -78.5z" />
    <glyph glyph-name="sixinferior" unicode="&#x2086;" horiz-adv-x="402" 
d="M325 3q0 -66 -48.5 -111t-127.5 -45q-82 0 -128.5 42.5t-46.5 116.5q0 105 67.5 179.5t162.5 74.5q87 0 144 -46l-63 -75q-33 31 -84 31q-47 0 -77.5 -32t-30.5 -60v-3q44 49 100 49q55 0 93.5 -33.5t38.5 -87.5zM208 -11q0 23 -18 35t-48 12q-32 0 -55 -26q-2 -4 -2 -16
q0 -25 17 -41t46 -16q25 0 42.5 15.5t17.5 36.5z" />
    <glyph glyph-name="seveninferior" unicode="&#x2087;" horiz-adv-x="375" 
d="M335 175l-210 -321h-127l210 310h-203l20 90h327z" />
    <glyph glyph-name="eightinferior" unicode="&#x2088;" horiz-adv-x="402" 
d="M316 -42q0 -49 -42 -80t-127 -31q-82 0 -135.5 27t-53.5 83q0 41 32.5 73t83.5 39q-65 24 -65 83q0 52 47 80t113 28q71 0 127.5 -27.5t56.5 -80.5q0 -38 -28.5 -67t-79.5 -35q29 -10 50 -35.5t21 -56.5zM234 137q0 16 -17.5 26.5t-43.5 10.5q-24 0 -39.5 -10.5
t-15.5 -28.5q0 -17 17.5 -28t32.5 -13q66 7 66 43zM205 -26q0 16 -17.5 29t-36.5 17q-31 -2 -54 -14.5t-23 -32.5q0 -18 19.5 -29t47.5 -11q30 0 47 11.5t17 29.5z" />
    <glyph glyph-name="nineinferior" unicode="&#x2089;" horiz-adv-x="402" 
d="M-5 105q0 66 48 111t127 45q82 0 129 -42.5t47 -116.5q0 -105 -67.5 -179.5t-162.5 -74.5q-87 0 -144 46l62 76q32 -32 85 -32q47 0 77.5 32t30.5 60v3q-44 -49 -100 -49q-55 0 -93.5 33.5t-38.5 87.5zM112 119q0 -23 18 -35t47 -12q32 0 56 25q2 5 2 17q0 25 -17 41
t-46 16q-25 0 -42.5 -15.5t-17.5 -36.5z" />
    <glyph glyph-name="parenleftinferior" unicode="&#x208d;" horiz-adv-x="208" 
d="M103 -184l-75 -27q-57 71 -57 196q0 94 49.5 185.5t124.5 148.5l62 -27q-126 -163 -126 -353q0 -70 22 -123z" />
    <glyph glyph-name="parenrightinferior" unicode="&#x208e;" horiz-adv-x="208" 
d="M23 292l75 27q57 -73 57 -196q0 -94 -49.5 -185.5t-124.5 -148.5l-63 27q127 164 127 353q0 70 -22 123z" />
    <glyph glyph-name="colonmonetary" unicode="&#x20a1;" horiz-adv-x="704" 
d="M385 -12q-23 0 -45 3l-50 -91h-88l59 106q-27 8 -46 18l-69 -124h-87l91 166q-103 84 -103 225q0 171 114.5 279t279.5 108q24 0 46 -3l51 93h87l-60 -109q29 -11 45 -20l71 129h88l-96 -174q52 -49 77 -121l-166 -54l-3 9l-158 -286q76 15 117 75l134 -88
q-55 -75 -133 -108t-156 -33zM294 168q20 -14 45 -21l192 349q-22 15 -44 22zM226 302q0 -40 15 -72l162 294q-76 -12 -126.5 -75t-50.5 -147z" />
    <glyph glyph-name="frenchfranc" unicode="&#x20a3;" horiz-adv-x="590" 
d="M186 0h-172l21 95h-61l19 85h60l108 487h489l-34 -150h-316l-23 -104h310l-33 -150h-310l-19 -83h130l-19 -85h-129z" />
    <glyph glyph-name="lira" unicode="&#x20a4;" horiz-adv-x="565" 
d="M45 336l16 75h34q-6 23 -6 49q0 91 80 154t192 63q94 0 161 -36.5t89 -104.5l-155 -63q-6 31 -29.5 48t-57.5 17q-40 0 -66.5 -28t-26.5 -71q0 -16 3 -28h164l-17 -75h-125q3 -14 3 -30q0 -3 -0.5 -7.5t-0.5 -6.5h114l-17 -74h-125q-27 -41 -58 -56q25 7 43 7
q28 0 69 -14.5t67 -14.5q43 0 76 35l36 -136q-44 -51 -127 -51q-47 0 -124 21.5t-100 21.5q-50 0 -110 -38l-32 115q88 39 116 110h-113l17 74h102q-5 26 -13 44h-79z" />
    <glyph glyph-name="uni20A6" unicode="&#x20a6;" horiz-adv-x="755" 
d="M634 0h-166l-110 225h-123l-49 -225h-172l49 225h-60l19 85h60l11 51h-60l19 85h60l49 221h177l108 -221h113l49 221h173l-49 -221h57l-18 -85h-58l-11 -51h58l-19 -85h-58zM274 398l-20 -88h63zM488 361l36 -73l16 73h-52z" />
    <glyph glyph-name="peseta" unicode="&#x20a7;" horiz-adv-x="696" 
d="M186 0h-172l84 383h-60l19 86h60l44 198h298q98 0 155 -52.5t61 -145.5h64l-19 -86h-53q-22 -90 -94 -144t-187 -54h-159zM396 335q59 0 86 48h-212l-10 -48h136zM300 517l-11 -48h202q-17 48 -65 48h-126z" />
    <glyph glyph-name="rupee" unicode="&#x20a8;" horiz-adv-x="1098" 
d="M840 -12q-68 0 -131.5 23t-107.5 65l81 99q26 -27 75.5 -51t96.5 -24q23 0 37 10t14 25q0 20 -37.5 35t-82.5 26.5t-82.5 44.5t-37.5 84q0 70 55.5 120t151.5 50q61 0 118 -20.5t97 -57.5l-74 -95q-21 23 -61 41.5t-80 18.5q-25 0 -39.5 -10t-14.5 -24t25 -24.5t60 -20.5
t70.5 -25t60.5 -44.5t25 -71.5q0 -75 -59.5 -124.5t-159.5 -49.5zM575 0h-190l-62 224h-96l-49 -224h-172l147 667h304q89 0 152.5 -54t63.5 -141t-51 -151.5t-127 -84.5zM394 374h3q44 0 70.5 21.5t26.5 58.5q0 27 -21 45t-50 18h-131l-32 -143h134z" />
    <glyph glyph-name="uni20A9" unicode="&#x20a9;" horiz-adv-x="936" 
d="M697 0h-182l-5 225h-93l-104 -225h-182l-15 225h-112l19 85h87l-3 51h-72l18 85h48l-14 221h189l1 -221h109l105 221h131l8 -221h108l99 221h198l-112 -221h45l-18 -85h-70l-26 -51h85l-19 -85h-109zM278 361v-51h43l24 51h-67zM633 361l2 -51h42l23 51h-67zM479 361
l-23 -51h52l-1 51h-28z" />
    <glyph glyph-name="afii57636" unicode="&#x20aa;" horiz-adv-x="857" 
d="M560 0h-358l80 366h145l-53 -235h180q46 0 67 24.5t33 80.5l69 314h144l-72 -328q-25 -114 -74.5 -168t-160.5 -54zM123 550h264q236 0 236 -171q0 -33 -9 -74l-27 -122h-144l28 123q5 22 5 38q0 75 -87 75h-150l-92 -419h-145z" />
    <glyph glyph-name="dong" unicode="&#x20ab;" horiz-adv-x="596" 
d="M396 -185h-362l19 85h362zM274 495q99 0 147 -69l22 98h-142l18 85h143l13 58h153l-13 -58h50l-18 -85h-51l-116 -524h-153l12 56q-59 -68 -138 -68q-83 0 -132 52.5t-49 147.5q0 73 27.5 141.5t87 117t139.5 48.5zM301 359q-53 0 -87.5 -40.5t-34.5 -98.5
q0 -43 27 -69.5t67 -26.5q53 0 91 45l33 146q-34 44 -96 44z" />
    <glyph glyph-name="Euro" unicode="&#x20ac;" horiz-adv-x="715" 
d="M403 -12q-124 0 -215 62t-115 169h-62l20 92h34q1 14 5 47h-29l21 92h34q46 105 144 166.5t219 61.5q125 0 202 -58.5t107 -146.5l-166 -54q-14 50 -54.5 78.5t-96.5 28.5q-93 0 -156 -76h222l-21 -92h-246q-6 -30 -6 -47h242l-21 -92h-200q44 -79 148 -79q41 0 82 21.5
t63 55.5l134 -88q-55 -75 -133 -108t-156 -33z" />
    <glyph glyph-name="afii61289" unicode="&#x2113;" horiz-adv-x="551" 
d="M262 478l-25 -113l117 66q50 28 71 46.5t21 44.5q0 23 -19.5 36.5t-50.5 13.5q-93 0 -114 -94zM382 323l-176 -98l-11 -52q-2 -12 -2 -19q0 -16 12.5 -26.5t33.5 -10.5q19 0 30 8l4 -116q-27 -21 -88 -21q-74 0 -114.5 30t-40.5 83q0 19 4 36l78 358q19 87 88.5 134.5
t184.5 47.5q90 0 149.5 -39.5t59.5 -100.5q0 -33 -22.5 -67t-64.5 -65t-65 -46t-60 -36z" />
    <glyph glyph-name="afii61352" unicode="&#x2116;" horiz-adv-x="1145" 
d="M981 350q-77 0 -122.5 41.5t-45.5 105.5q0 78 58 130.5t136 52.5q77 0 122.5 -41.5t45.5 -106.5q0 -78 -58 -130t-136 -52zM984 437q38 0 58 29.5t20 67.5q0 27 -15.5 42t-42.5 15q-38 0 -58 -29.5t-20 -67.5q0 -27 15.5 -42t42.5 -15zM626 0h-166l-194 398l-88 -398
h-172l147 667h177l186 -379l84 379h173z" />
    <glyph glyph-name="published" unicode="&#x2117;" horiz-adv-x="778" 
d="M754 334q0 -142 -101.5 -243.5t-244.5 -101.5q-142 0 -243 101t-101 244t101 244t243 101q143 0 244.5 -101.5t101.5 -243.5zM715 334q0 125 -91 215.5t-216 90.5q-126 0 -215.5 -90t-89.5 -216t89.5 -216t215.5 -90t216.5 90t90.5 216zM598 428q0 -57 -43 -95t-107 -38
h-119l-36 -164h-50l89 405h140q51 0 88.5 -29t37.5 -79zM545 425q0 30 -21 48t-58 18h-93l-34 -151h117q38 0 63.5 25t25.5 60z" />
    <glyph glyph-name="servicemark" unicode="&#x2120;" horiz-adv-x="476" 
d="M484 447h-28l40 182l-115 -182h-8l-35 182l-40 -182h-28l48 220h42l29 -160l99 160h44zM247 511q0 -32 -23 -52t-62 -20q-69 0 -96 40l22 19q23 -33 72 -33q24 0 38 11t14 29q0 15 -18 26.5t-39 18.5t-39 21t-18 34q0 29 23.5 48.5t60.5 19.5q63 0 86 -35l-23 -17
q-20 28 -65 28q-22 0 -35 -11t-13 -26t18 -26t39.5 -17t39.5 -21t18 -37z" />
    <glyph glyph-name="trademark" unicode="&#x2122;" horiz-adv-x="454" 
d="M464 447h-28l40 182l-115 -182h-8l-35 182l-40 -182h-28l48 220h43l29 -160l99 160h43zM257 641h-62l-43 -194h-28l43 194h-62l5 26h152z" />
    <glyph glyph-name="Omega" unicode="&#x2126;" horiz-adv-x="766" 
d="M23 150h129q-102 81 -102 210q0 56 24 111t69.5 102t120 76t165.5 29q147 0 245.5 -74t98.5 -200q0 -88 -50.5 -153t-116.5 -101h95l-33 -150h-283l33 150q79 19 124.5 79t45.5 138q0 71 -44 114.5t-123 43.5q-92 0 -148.5 -66.5t-56.5 -153.5q0 -106 90 -155l-33 -150
h-284z" />
    <glyph glyph-name="estimated" unicode="&#x212e;" horiz-adv-x="842" 
d="M829 324h-632q-4 0 -4 -5v-190q0 -15 9 -23q98 -103 240 -103q151 0 250 115h57q-54 -63 -135 -99.5t-174 -36.5q-161 0 -275.5 103t-114.5 248t114.5 248t275.5 103t275.5 -103t114.5 -248zM687 349v191q0 14 -10 24q-97 99 -236 99t-238 -102q-10 -10 -10 -24v-188
q0 -6 5 -6h485q4 0 4 6z" />
    <glyph glyph-name="onethird" unicode="&#x2153;" horiz-adv-x="897" 
d="M256 267h-114l55 251l-82 -66l-51 69l182 146h98zM760 667l-575 -667h-86l573 667h88zM839 111q0 -47 -44.5 -82.5t-118.5 -35.5q-63 0 -114 20t-74 54l69 70q40 -54 113 -54q28 0 42 12t14 29q0 34 -84 34q-29 0 -35 -1l19 89q10 -1 67 -1q62 0 62 36q0 17 -21 26t-52 9
q-60 0 -102 -34l-36 71q61 53 150 53q82 0 129.5 -29t47.5 -80q0 -38 -28.5 -66.5t-81.5 -32.5q78 -20 78 -87z" />
    <glyph glyph-name="twothirds" unicode="&#x2154;" horiz-adv-x="974" 
d="M375 267h-326l19 86q158 91 203.5 125.5t45.5 63.5q0 19 -16 30t-43 11q-67 0 -112 -43l-46 76q30 27 75 42t88 15q76 0 124 -33t48 -87q0 -49 -47 -94t-153 -102h160zM837 667l-575 -667h-86l573 667h88zM917 111q0 -47 -44.5 -82.5t-118.5 -35.5q-63 0 -114 20t-74 54
l69 70q40 -54 113 -54q28 0 42 12t14 29q0 34 -84 34q-29 0 -35 -1l19 89q10 -1 67 -1q62 0 62 36q0 17 -21 26t-52 9q-60 0 -102 -34l-36 71q61 53 150 53q82 0 129.5 -29t47.5 -80q0 -38 -28.5 -66.5t-81.5 -32.5q78 -20 78 -87z" />
    <glyph glyph-name="oneeighth" unicode="&#x215b;" horiz-adv-x="897" 
d="M256 267h-114l55 251l-82 -66l-51 69l182 146h98zM842 104q0 -49 -42 -80t-127 -31q-82 0 -135.5 27t-53.5 83q0 41 32.5 73t83.5 39q-65 24 -65 83q0 52 47 80t113 28q71 0 127.5 -27.5t56.5 -80.5q0 -38 -28.5 -67t-79.5 -35q29 -10 50 -35.5t21 -56.5zM760 283
q0 16 -17.5 26.5t-43.5 10.5q-24 0 -39.5 -10.5t-15.5 -28.5q0 -17 17.5 -28t32.5 -13q66 7 66 43zM731 120q0 16 -17.5 29t-36.5 17q-31 -2 -54 -14.5t-23 -32.5q0 -18 19.5 -29t47.5 -11q30 0 47 11.5t17 29.5zM760 667l-575 -667h-86l573 667h88z" />
    <glyph glyph-name="threeeighths" unicode="&#x215c;" horiz-adv-x="974" 
d="M920 104q0 -49 -42 -80t-127 -31q-82 0 -135.5 27t-53.5 83q0 41 32.5 73t83.5 39q-65 24 -65 83q0 52 47 80t113 28q71 0 127.5 -27.5t56.5 -80.5q0 -38 -28.5 -67t-79.5 -35q29 -10 50 -35.5t21 -56.5zM838 283q0 16 -17.5 26.5t-43.5 10.5q-24 0 -39.5 -10.5
t-15.5 -28.5q0 -17 17.5 -28t32.5 -13q66 7 66 43zM809 120q0 16 -17.5 29t-36.5 17q-31 -2 -54 -14.5t-23 -32.5q0 -18 19.5 -29t47.5 -11q30 0 47 11.5t17 29.5zM837 667l-575 -667h-86l573 667h88zM404 378q0 -47 -44.5 -82.5t-118.5 -35.5q-63 0 -114 20t-74 54l69 70
q40 -54 113 -54q28 0 42 12t14 29q0 34 -84 34q-29 0 -35 -1l19 89q10 -1 67 -1q62 0 62 36q0 17 -21 26t-52 9q-59 0 -102 -34l-36 71q61 53 150 53q82 0 129.5 -29t47.5 -80q0 -38 -28.5 -66.5t-81.5 -32.5q35 -9 56.5 -31t21.5 -56z" />
    </font>
</defs>
</svg>
