<?xml version="1.0" standalone="no"?>
<!DOCTYPE svg PUBLIC "-//W3C//DTD SVG 1.1//EN" "http://www.w3.org/Graphics/SVG/1.1/DTD/svg11.dtd" >
<svg xmlns="http://www.w3.org/2000/svg" xmlns:xlink="http://www.w3.org/1999/xlink" version="1.1">
<metadata>
Created by FontForge 20170731 at Tue Nov 30 17:33:36 2010
 By ,,,
Copyright (c) Mark Simonson, 2005. All rights reserved.
</metadata>
<defs>
<font id="ProximaNovaCond-Black" horiz-adv-x="501" >
  <font-face 
    font-family="Proxima Nova Cn Bl"
    font-weight="900"
    font-stretch="normal"
    units-per-em="1000"
    panose-1="2 0 5 6 3 0 0 2 0 4"
    ascent="790"
    descent="-210"
    x-height="483"
    cap-height="667"
    bbox="-135 -301 1069 894"
    underline-thickness="20"
    underline-position="-173"
    unicode-range="U+000D-FB04"
  />
<missing-glyph horiz-adv-x="447" 
d="M399 -90h-351v842h351v-842zM367 -60v782h-288v-782h288z" />
    <glyph glyph-name="f_f_j" unicode="ffj" horiz-adv-x="900" 
d="M562 0h-169v337h-61v146h61v21q0 80 44.5 126.5t118.5 46.5q60 0 99 -18l-26 -123q-14 8 -29 8q-17 0 -27.5 -11t-10.5 -29v-21h77v-146h-77v-337zM773 522q-40 0 -67.5 27.5t-27.5 67.5t27.5 68t67.5 28t68 -28t28 -68t-28 -67.5t-68 -27.5zM675 -196q-63 0 -105 24
l35 129q16 -13 42 -13q42 0 42 60v479h169v-479q0 -94 -45 -147t-138 -53zM239 0h-169v337h-61v146h61v21q0 80 45.5 126.5t124.5 46.5q83 0 125 -39l-49 -110q-15 16 -37 16q-18 0 -29 -11t-11 -29v-21h77v-146h-77v-337z" />
    <glyph glyph-name="f_j" unicode="fj" horiz-adv-x="577" 
d="M239 0h-169v337h-61v146h61v21q0 80 44.5 126.5t118.5 46.5q60 0 99 -18l-26 -123q-14 8 -29 8q-17 0 -27.5 -11t-10.5 -29v-21h77v-146h-77v-337zM450 522q-40 0 -67.5 27.5t-27.5 67.5t27.5 68t67.5 28t68 -28t28 -68t-28 -67.5t-68 -27.5zM352 -196q-63 0 -105 24
l35 129q16 -13 42 -13q42 0 42 60v479h169v-479q0 -94 -45 -147t-138 -53z" />
    <glyph glyph-name="f_f" unicode="ff" horiz-adv-x="646" 
d="M239 0h-169v337h-61v146h61v21q0 80 45.5 126.5t124.5 46.5q83 0 125 -39l-49 -110q-15 16 -37 16q-18 0 -29 -11t-11 -29v-21h77v-146h-77v-337zM562 0h-169v337h-61v146h61v21q0 80 45.5 126.5t124.5 46.5q83 0 125 -39l-49 -110q-15 16 -37 16q-18 0 -29 -11t-11 -29
v-21h77v-146h-77v-337z" />
    <glyph glyph-name="fi" unicode="fi" horiz-adv-x="577" 
d="M239 0h-169v337h-61v146h61v21q0 80 44.5 126.5t118.5 46.5q60 0 99 -18l-26 -123q-14 8 -29 8q-17 0 -27.5 -11t-10.5 -29v-21h77v-146h-77v-337zM450 522q-40 0 -67.5 27.5t-27.5 67.5t27.5 68t67.5 28t68 -28t28 -68t-28 -67.5t-68 -27.5zM535 0h-169v483h169v-483z
" />
    <glyph glyph-name="fl" unicode="fl" horiz-adv-x="577" 
d="M239 0h-169v337h-61v146h61v21q0 80 44.5 126.5t118.5 46.5q60 0 99 -18l-26 -123q-14 8 -29 8q-17 0 -27.5 -11t-10.5 -29v-21h77v-146h-77v-337zM535 0h-169v667h169v-667z" />
    <glyph glyph-name="f_f_i" unicode="ffi" horiz-adv-x="900" 
d="M562 0h-169v337h-61v146h61v21q0 80 44.5 126.5t118.5 46.5q60 0 99 -18l-26 -123q-14 8 -29 8q-17 0 -27.5 -11t-10.5 -29v-21h77v-146h-77v-337zM773 522q-40 0 -67.5 27.5t-27.5 67.5t27.5 68t67.5 28t68 -28t28 -68t-28 -67.5t-68 -27.5zM858 0h-169v483h169v-483z
M239 0h-169v337h-61v146h61v21q0 80 45.5 126.5t124.5 46.5q83 0 125 -39l-49 -110q-15 16 -37 16q-18 0 -29 -11t-11 -29v-21h77v-146h-77v-337z" />
    <glyph glyph-name="f_f_l" unicode="ffl" horiz-adv-x="900" 
d="M562 0h-169v337h-61v146h61v21q0 80 44.5 126.5t118.5 46.5q60 0 99 -18l-26 -123q-14 8 -29 8q-17 0 -27.5 -11t-10.5 -29v-21h77v-146h-77v-337zM858 0h-169v667h169v-667zM239 0h-169v337h-61v146h61v21q0 80 45.5 126.5t124.5 46.5q83 0 125 -39l-49 -110
q-15 16 -37 16q-18 0 -29 -11t-11 -29v-21h77v-146h-77v-337z" />
    <glyph glyph-name="f_b" unicode="fb" horiz-adv-x="852" 
d="M239 0h-169v337h-61v146h61v21q0 80 44.5 126.5t118.5 46.5q60 0 99 -18l-26 -123q-14 8 -29 8q-17 0 -27.5 -11t-10.5 -29v-21h77v-146h-77v-337zM535 171q20 -34 58 -34q33 0 51.5 28t18.5 77q0 48 -18.5 76t-51.5 28q-38 0 -58 -34v-141zM535 0h-169v667h169v-236
q40 64 117 64q82 0 133 -68t51 -185q0 -120 -51 -187t-133 -67q-74 0 -117 65v-53z" />
    <glyph glyph-name="f_h" unicode="fh" horiz-adv-x="858" 
d="M239 0h-169v337h-61v146h61v21q0 80 44.5 126.5t118.5 46.5q60 0 99 -18l-26 -123q-14 8 -29 8q-17 0 -27.5 -11t-10.5 -29v-21h77v-146h-77v-337zM816 0h-169v294q0 52 -50 52q-35 0 -62 -42v-304h-169v667h169v-240q19 27 58 47.5t85 20.5q70 0 104 -35.5t34 -95.5
v-364z" />
    <glyph glyph-name="f_k" unicode="fk" horiz-adv-x="824" 
d="M239 0h-169v337h-61v146h61v21q0 80 44.5 126.5t118.5 46.5q60 0 99 -18l-26 -123q-14 8 -29 8q-17 0 -27.5 -11t-10.5 -29v-21h77v-146h-77v-337zM833 0h-197l-67 161l-34 -55v-106h-169v667h169v-359l92 175h196l-137 -216z" />
    <glyph glyph-name=".notdef" horiz-adv-x="447" 
d="M399 -90h-351v842h351v-842zM367 -60v782h-288v-782h288z" />
    <glyph glyph-name=".null" horiz-adv-x="0" 
 />
    <glyph glyph-name=".null" horiz-adv-x="0" 
 />
    <glyph glyph-name="nonmarkingreturn" horiz-adv-x="333" 
 />
    <glyph glyph-name="CR" unicode="&#xd;" horiz-adv-x="0" 
 />
    <glyph glyph-name="space" unicode=" " horiz-adv-x="205" 
 />
    <glyph glyph-name="exclam" unicode="!" horiz-adv-x="275" 
d="M214 242h-151l-26 425h202zM138 -12q-41 0 -71 30t-30 71q0 42 30 72t71 30t71 -30t30 -72q0 -41 -30 -71t-71 -30z" />
    <glyph glyph-name="quotedbl" unicode="&#x22;" horiz-adv-x="456" 
d="M158 347h-70q-52 221 -52 243q0 36 26 61.5t61 25.5q36 0 61.5 -25.5t25.5 -61.5q0 -10 -13 -70.5t-26 -116.5zM368 347h-69q-52 221 -52 243q0 36 25 61.5t62 25.5q35 0 60.5 -25.5t25.5 -61.5q0 -10 -13 -70.5t-26 -116.5z" />
    <glyph glyph-name="numbersign" unicode="#" horiz-adv-x="567" 
d="M341 0h-120l46 161h-67l-44 -161h-120l45 161h-68l29 103h69l39 139h-70l28 102h71l46 162h120l-46 -162h66l45 162h120l-46 -162h70l-27 -102h-72l-39 -139h73l-29 -103h-74zM296 264l39 139h-66l-38 -139h65z" />
    <glyph glyph-name="dollar" unicode="$" horiz-adv-x="535" 
d="M214 -100v91q-122 11 -202 86l88 144q67 -70 166 -70q27 0 44 11t17 29q0 17 -22 29.5t-54.5 21t-71 25t-71 37.5t-54.5 62.5t-22 97.5q0 73 47.5 131.5t134.5 75.5v97h121v-94q101 -14 172 -73l-86 -140q-64 54 -148 54q-48 0 -48 -36q0 -16 21.5 -29t54.5 -22
t70.5 -25.5t70.5 -38t54.5 -61.5t21.5 -93q0 -86 -48.5 -142.5t-134.5 -73.5v-94h-121z" />
    <glyph glyph-name="percent" unicode="%" horiz-adv-x="694" 
d="M175 342q-71 0 -115 48t-44 119q0 72 44 120t115 48t115 -48t44 -120q0 -71 -44 -119t-115 -48zM209 0h-78l355 667h79zM520 -12q-72 0 -115.5 47.5t-43.5 119.5t43.5 120t115.5 48q71 0 114.5 -48t43.5 -120q0 -71 -43.5 -119t-114.5 -48zM175 442q22 0 35.5 17t13.5 50
q0 34 -13.5 51t-35.5 17q-48 0 -48 -68q0 -67 48 -67zM520 88q22 0 35.5 17t13.5 50q0 34 -13.5 51t-35.5 17t-35.5 -17t-13.5 -51q0 -33 13.5 -50t35.5 -17z" />
    <glyph glyph-name="ampersand" unicode="&#x26;" horiz-adv-x="574" 
d="M586 0h-193l-25 31q-68 -43 -150 -43q-89 0 -146.5 52t-57.5 147q0 67 33.5 111.5t91.5 77.5q-37 79 -37 134q0 72 53.5 119.5t134.5 47.5q73 0 125.5 -43t52.5 -110q0 -65 -37 -104t-104 -74q22 -34 32 -48l30 -43q25 51 38 100l131 -62q-36 -92 -81 -156
q88 -111 109 -137zM250 118q21 0 42 12q-26 34 -47 67q-24 35 -41 63q-19 -27 -19 -59q0 -33 19 -58t46 -25zM258 508q0 -25 15 -63q53 32 53 71q0 20 -9 31.5t-23 11.5q-36 0 -36 -51z" />
    <glyph glyph-name="quotesingle" unicode="'" horiz-adv-x="247" 
d="M158 347h-70q-52 221 -52 243q0 36 26 61.5t61 25.5q36 0 61.5 -25.5t25.5 -61.5q0 -10 -13 -70.5t-26 -116.5z" />
    <glyph glyph-name="parenleft" unicode="(" horiz-adv-x="326" 
d="M306 -128l-115 -71q-70 86 -109.5 203.5t-39.5 238.5t39.5 238.5t109.5 203.5l115 -69q-82 -173 -82 -373q0 -201 82 -371z" />
    <glyph glyph-name="parenright" unicode=")" horiz-adv-x="327" 
d="M136 -199l-116 71q82 167 82 371q0 203 -82 373l116 69q69 -86 108.5 -203.5t39.5 -238.5t-39.5 -238.5t-108.5 -203.5z" />
    <glyph glyph-name="asterisk" unicode="*" horiz-adv-x="351" 
d="M214 348h-77l4 106l-89 -56l-38 66l93 49l-93 48l38 67l89 -57l-4 106h77l-5 -106l89 57l39 -67l-94 -48l94 -49l-39 -66l-89 56z" />
    <glyph glyph-name="plus" unicode="+" horiz-adv-x="449" 
d="M420 288h-141v-165h-109v165h-141v99h141v158h109v-158h141v-99z" />
    <glyph glyph-name="comma" unicode="," horiz-adv-x="276" 
d="M245 68q0 -128 -120 -213l-69 56q25 12 52 40.5t36 55.5q-10 -4 -25 -4q-34 0 -58 25t-24 64q0 41 29 70t69 29q46 0 78 -33.5t32 -89.5z" />
    <glyph glyph-name="hyphen" unicode="-" horiz-adv-x="274" 
d="M244 172h-214v141h214v-141z" />
    <glyph glyph-name="period" unicode="." horiz-adv-x="277" 
d="M138 -12q-41 0 -71 30.5t-30 71.5t30 71t71 30t71 -30t30 -71t-30 -71.5t-71 -30.5z" />
    <glyph glyph-name="slash" unicode="/" horiz-adv-x="308" 
d="M116 -20h-116l192 707h116z" />
    <glyph glyph-name="zero" unicode="0" horiz-adv-x="562" 
d="M281 -12q-85 0 -146 49t-89 125.5t-28 170.5q0 146 68.5 245t194.5 99t194.5 -99t68.5 -245q0 -94 -28 -170.5t-89 -125.5t-146 -49zM281 155q39 0 55 41.5t16 136.5q0 96 -16 136.5t-55 40.5t-55 -40.5t-16 -136.5q0 -95 16 -136.5t55 -41.5z" />
    <glyph glyph-name="one" unicode="1" horiz-adv-x="444" 
d="M397 0h-190v426l-99 -99l-107 111l233 229h163v-667z" />
    <glyph glyph-name="two" unicode="2" horiz-adv-x="552" 
d="M527 0h-491v152q144 119 199.5 169t75.5 77t20 55q0 24 -19 40.5t-50 16.5q-80 0 -143 -66l-108 121q96 112 254 112q116 0 186.5 -61t70.5 -160q0 -68 -44 -131.5t-159 -159.5h208v-165z" />
    <glyph glyph-name="three" unicode="3" horiz-adv-x="554" 
d="M271 -12q-85 0 -152.5 28.5t-106.5 76.5l107 122q60 -60 144 -60q41 0 61.5 15t20.5 36q0 25 -21 36t-67 11q-60 0 -71 -1v168q10 -1 67 -1q83 0 83 43q0 48 -81 48q-82 0 -132 -54l-102 111q88 110 250 110q118 0 184 -48.5t66 -135.5q0 -53 -38 -96t-95 -53
q59 -9 101 -52t42 -105q0 -90 -72 -144.5t-188 -54.5z" />
    <glyph glyph-name="four" unicode="4" horiz-adv-x="566" 
d="M486 0h-189v114h-279v155l226 398h242v-388h62v-165h-62v-114zM297 279v202l-111 -202h111z" />
    <glyph glyph-name="five" unicode="5" horiz-adv-x="562" 
d="M277 -12q-164 0 -252 100l109 125q58 -58 136 -58q40 0 61 18.5t21 46.5q0 29 -19 46.5t-56 17.5q-60 0 -99 -48l-135 31v400h460v-165h-270v-108q41 51 120 51q82 0 136.5 -59t54.5 -159q0 -109 -71.5 -174t-195.5 -65z" />
    <glyph glyph-name="six" unicode="6" horiz-adv-x="558" 
d="M299 -12q-139 0 -210 95.5t-71 248.5q0 162 84.5 253.5t224.5 91.5q112 0 186 -61l-86 -143q-40 37 -98 37q-47 0 -83.5 -35t-36.5 -96v-4q20 33 57 52t80 19q82 0 140 -59t58 -161q0 -107 -69.5 -172.5t-175.5 -65.5zM287 155q29 0 47.5 19t18.5 44q0 35 -22 51.5
t-50 16.5q-41 0 -73 -35q8 -96 79 -96z" />
    <glyph glyph-name="seven" unicode="7" horiz-adv-x="513" 
d="M299 0h-204l192 502h-271v165h484v-131z" />
    <glyph glyph-name="eight" unicode="8" horiz-adv-x="561" 
d="M280 -12q-117 0 -189.5 48t-72.5 140q0 55 34.5 101t88.5 67q-113 43 -113 156q0 61 38.5 102t93 58t120.5 17t121 -16.5t93.5 -58t38.5 -102.5q0 -57 -31 -96.5t-83 -59.5q54 -21 89 -67t35 -100q0 -92 -73 -140.5t-190 -48.5zM280 410q24 6 44 20.5t20 35.5
q0 24 -17 37.5t-47 13.5t-47 -13.5t-17 -37.5q0 -21 20 -35.5t44 -20.5zM280 148q32 0 52.5 14.5t20.5 39.5q0 26 -23.5 43.5t-49.5 22.5q-25 -5 -48.5 -22.5t-23.5 -43.5t20 -40t52 -14z" />
    <glyph glyph-name="nine" unicode="9" horiz-adv-x="558" 
d="M231 -11q-111 0 -185 61l85 143q41 -37 98 -37q50 0 85 35.5t35 95.5v4q-20 -33 -56.5 -52t-79.5 -19q-82 0 -140 59.5t-58 161.5q0 107 69.5 172t175.5 65q139 0 209.5 -95t70.5 -249q0 -162 -84.5 -253.5t-224.5 -91.5zM277 381q44 0 73 35q-6 95 -78 95q-30 0 -48 -19
t-18 -44q0 -34 21.5 -50.5t49.5 -16.5z" />
    <glyph glyph-name="colon" unicode=":" horiz-adv-x="268" 
d="M138 287q-41 0 -71 30.5t-30 71.5t30 71t71 30t71 -30t30 -71t-30 -71.5t-71 -30.5zM138 -12q-41 0 -71 30.5t-30 71.5t30 71t71 30t71 -30t30 -71t-30 -71.5t-71 -30.5z" />
    <glyph glyph-name="semicolon" unicode=";" horiz-adv-x="276" 
d="M138 287q-41 0 -71 31t-30 72t30 70.5t71 29.5t71 -29.5t30 -70.5t-30 -72t-71 -31zM245 68q0 -128 -120 -213l-69 56q25 12 52 41t36 56q-10 -4 -25 -4q-35 0 -58.5 24.5t-23.5 63.5q0 41 29 70.5t69 29.5q46 0 78 -33.5t32 -90.5z" />
    <glyph glyph-name="less" unicode="&#x3c;" horiz-adv-x="449" 
d="M420 120l-391 154v122l391 154v-118l-279 -98l279 -96v-118z" />
    <glyph glyph-name="equal" unicode="=" horiz-adv-x="449" 
d="M420 377h-391v99h391v-99zM420 192h-391v100h391v-100z" />
    <glyph glyph-name="greater" unicode="&#x3e;" horiz-adv-x="449" 
d="M420 274l-391 -154v118l279 96l-279 98v118l391 -154v-122z" />
    <glyph glyph-name="question" unicode="?" horiz-adv-x="394" 
d="M128 220q-25 34 -25 94q0 35 15 64t32.5 44t32.5 32t15 31q0 28 -36 28q-37 0 -64 -35l-91 118q76 81 190 81q88 0 139 -41.5t51 -111.5q0 -42 -19.5 -77t-43 -55.5t-43 -45.5t-19.5 -49q0 -22 11 -37zM199 -12q-41 0 -71 30.5t-30 71.5t30 71t71 30t71.5 -30t30.5 -71
t-30.5 -71.5t-71.5 -30.5z" />
    <glyph glyph-name="at" unicode="@" horiz-adv-x="727" 
d="M316 -70q-128 0 -204.5 83.5t-76.5 215.5q0 106 52.5 200.5t141 151.5t189.5 57q121 0 197 -75.5t76 -190.5q0 -123 -63 -205t-141 -82q-40 0 -66 18t-34 47l-2 9q-51 -74 -124 -74q-57 0 -92 40.5t-35 113.5q0 101 61 179.5t146 78.5q71 0 97 -57l10 45h148l-47 -223
q-3 -15 -3 -26q0 -40 27 -40q26 0 48 49t22 126q0 104 -61 164t-167 60q-136 0 -236 -110.5t-100 -252.5q0 -112 64.5 -186t177.5 -74q85 0 168 54l24 -33q-96 -63 -197 -63zM334 202q34 0 63 43l21 104q-13 32 -44 32q-39 0 -63 -39t-24 -83q0 -26 12 -41.5t35 -15.5z" />
    <glyph glyph-name="A" unicode="A" horiz-adv-x="597" 
d="M609 0h-205l-19 86h-173l-19 -86h-205l196 667h229zM348 251l-49 221l-50 -221h99z" />
    <glyph glyph-name="B" unicode="B" horiz-adv-x="600" 
d="M391 0h-343v667h331q93 0 140 -50.5t47 -119.5q0 -61 -30.5 -101t-80.5 -52q53 -8 87.5 -54t34.5 -109q0 -77 -47 -129t-139 -52zM331 418q20 0 31.5 12t11.5 33q0 20 -11.5 31.5t-31.5 11.5h-94v-88h94zM336 161q23 0 36 12.5t13 35.5q0 22 -13 35t-36 13h-99v-96h99z
" />
    <glyph glyph-name="C" unicode="C" horiz-adv-x="582" 
d="M324 -12q-140 0 -223 95.5t-83 249.5q0 155 83 250t223 95q179 0 250 -190l-157 -66q-10 40 -34.5 64.5t-58.5 24.5q-54 0 -83.5 -49t-29.5 -129t29.5 -129t83.5 -49q35 0 60 27t34 68l156 -65q-67 -197 -250 -197z" />
    <glyph glyph-name="D" unicode="D" horiz-adv-x="630" 
d="M301 0h-253v667h252q145 0 228.5 -90.5t83.5 -242.5t-83 -243t-228 -91zM300 165q56 0 88 45t32 124q0 168 -120 168h-63v-337h63z" />
    <glyph glyph-name="E" unicode="E" 
d="M469 0h-421v667h421v-165h-232v-82h225v-165h-225v-90h232v-165z" />
    <glyph glyph-name="F" unicode="F" horiz-adv-x="496" 
d="M237 0h-189v667h421v-165h-232v-82h225v-165h-225v-255z" />
    <glyph glyph-name="G" unicode="G" horiz-adv-x="611" 
d="M324 -12q-139 0 -222.5 94.5t-83.5 250.5q0 157 84 251t222 94q93 0 155.5 -51t89.5 -129l-155 -69q-11 35 -34 58.5t-56 23.5q-51 0 -82 -44.5t-31 -133.5t31 -133.5t82 -44.5q49 0 76 25v45h-92v166h270v-287q-105 -116 -254 -116z" />
    <glyph glyph-name="H" unicode="H" horiz-adv-x="642" 
d="M594 0h-189v261h-168v-261h-189v667h189v-241h168v241h189v-667z" />
    <glyph glyph-name="I" unicode="I" horiz-adv-x="285" 
d="M237 0h-189v667h189v-667z" />
    <glyph glyph-name="J" unicode="J" horiz-adv-x="437" 
d="M154 -12q-93 0 -149 41l61 149q30 -23 68 -23q30 0 48.5 17.5t18.5 48.5v446h189v-452q0 -114 -63 -170.5t-173 -56.5z" />
    <glyph glyph-name="K" unicode="K" horiz-adv-x="598" 
d="M609 0h-222l-112 228l-38 -67v-161h-189v667h189v-260l142 260h219l-204 -310z" />
    <glyph glyph-name="L" unicode="L" horiz-adv-x="466" 
d="M443 0h-395v667h189v-502h206v-165z" />
    <glyph glyph-name="M" unicode="M" horiz-adv-x="788" 
d="M740 0h-188v361l-122 -361h-72l-121 361v-361h-189v667h249l97 -294l99 294h247v-667z" />
    <glyph glyph-name="N" unicode="N" horiz-adv-x="641" 
d="M593 0h-179l-177 308v-308h-189v667h192l164 -288v288h189v-667z" />
    <glyph glyph-name="O" unicode="O" horiz-adv-x="644" 
d="M322 -12q-138 0 -221 95.5t-83 249.5t83 249.5t221 95.5t221 -95.5t83 -249.5t-83 -249.5t-221 -95.5zM322 155q53 0 82.5 49.5t29.5 128.5q0 80 -29.5 129t-82.5 49t-82 -49t-29 -129t29 -129t82 -49z" />
    <glyph glyph-name="P" unicode="P" horiz-adv-x="579" 
d="M237 0h-189v667h289q110 0 169.5 -65t59.5 -161t-60 -160.5t-169 -64.5h-100v-216zM314 381q27 0 43.5 16t16.5 45t-16.5 44.5t-43.5 15.5h-77v-121h77z" />
    <glyph glyph-name="Q" unicode="Q" horiz-adv-x="645" 
d="M322 -12q-138 0 -221 95.5t-83 249.5t83 249.5t221 95.5t221 -95.5t83 -249.5q0 -169 -97 -264l19 -32l-129 -80l-24 39q-37 -8 -73 -8zM258 227l130 79l35 -59q11 39 11 86q0 80 -29.5 129t-82.5 49t-82 -49t-29 -129q0 -70 23 -118t65 -58z" />
    <glyph glyph-name="R" unicode="R" horiz-adv-x="594" 
d="M569 0h-209l-75 216h-48v-216h-189v667h294q101 0 162.5 -63.5t61.5 -158.5q0 -137 -100 -194zM312 381q27 0 44.5 16t17.5 45t-17.5 44.5t-44.5 15.5h-75v-121h75z" />
    <glyph glyph-name="S" unicode="S" horiz-adv-x="525" 
d="M259 -12q-160 0 -255 89l88 144q67 -70 166 -70q27 0 44 11t17 29q0 17 -22 29.5t-54.5 21t-71 25t-71 37.5t-54.5 62.5t-22 97.5q0 87 65.5 150.5t182.5 63.5q136 0 227 -77l-86 -140q-64 54 -148 54q-48 0 -48 -36q0 -16 21.5 -29t54.5 -22t70.5 -25.5t70.5 -38
t54.5 -61.5t21.5 -93q0 -102 -67.5 -162t-183.5 -60z" />
    <glyph glyph-name="T" unicode="T" 
d="M346 0h-190v502h-138v165h465v-165h-137v-502z" />
    <glyph glyph-name="U" unicode="U" horiz-adv-x="650" 
d="M325 -12q-127 0 -202 68t-75 188v423h191v-424q0 -42 22.5 -65.5t63.5 -23.5t63.5 23.5t22.5 65.5v424h191v-422q0 -120 -75 -188.5t-202 -68.5z" />
    <glyph glyph-name="V" unicode="V" horiz-adv-x="597" 
d="M413 0h-229l-196 667h205l106 -446l105 446h205z" />
    <glyph glyph-name="W" unicode="W" horiz-adv-x="819" 
d="M667 0h-194l-63 362l-64 -362h-193l-157 667h202l63 -385l77 385h143l78 -385l62 385h202z" />
    <glyph glyph-name="X" unicode="X" horiz-adv-x="597" 
d="M609 0h-216l-95 198l-94 -198h-216l191 342l-180 325h216l83 -185l82 185h217l-179 -324z" />
    <glyph glyph-name="Y" unicode="Y" horiz-adv-x="577" 
d="M384 0h-190v267l-207 400h207l95 -228l94 228h206l-205 -400v-267z" />
    <glyph glyph-name="Z" unicode="Z" horiz-adv-x="506" 
d="M475 0h-444v154l204 348h-204v165h437v-150l-206 -352h213v-165z" />
    <glyph glyph-name="bracketleft" unicode="[" horiz-adv-x="272" 
d="M255 -190h-210v868h210v-107h-92v-654h92v-107z" />
    <glyph glyph-name="backslash" unicode="\" horiz-adv-x="308" 
d="M192 -20l-192 707h116l192 -707h-116z" />
    <glyph glyph-name="bracketright" unicode="]" horiz-adv-x="272" 
d="M228 -190h-210v107h92v654h-92v107h210v-868z" />
    <glyph glyph-name="asciicircum" unicode="^" horiz-adv-x="397" 
d="M378 333h-117l-63 213l-61 -213h-118l120 334h121z" />
    <glyph glyph-name="underscore" unicode="_" horiz-adv-x="422" 
d="M425 -148h-428v108h428v-108z" />
    <glyph glyph-name="grave" unicode="`" horiz-adv-x="242" 
d="M242 556h-108l-134 144h142z" />
    <glyph glyph-name="a" unicode="a" horiz-adv-x="506" 
d="M464 0h-169v47q-17 -26 -53.5 -42.5t-73.5 -16.5q-60 0 -106 42.5t-46 117.5q0 77 45 115.5t107 38.5q40 0 75.5 -14t51.5 -39v46q0 29 -21 47t-59 18q-61 0 -118 -46l-57 111q39 36 96.5 53t112.5 17q95 0 155 -43.5t60 -139.5v-312zM236 98q44 0 59 29v36
q-15 29 -59 29q-23 0 -38 -12t-15 -35t15 -35t38 -12z" />
    <glyph glyph-name="b" unicode="b" horiz-adv-x="529" 
d="M212 171q20 -34 58 -34q33 0 51.5 28t18.5 77q0 48 -18.5 76t-51.5 28q-38 0 -58 -34v-141zM212 0h-169v667h169v-236q40 64 117 64q82 0 133 -68t51 -185q0 -120 -51 -187t-133 -67q-74 0 -117 65v-53z" />
    <glyph glyph-name="c" unicode="c" horiz-adv-x="437" 
d="M257 -12q-106 0 -173 70.5t-67 183.5t67 183t173 70q59 0 103.5 -19.5t66.5 -46.5l-80 -116q-30 33 -70 33q-39 0 -63.5 -28t-24.5 -76t25 -76.5t63 -28.5q40 0 70 34l80 -116q-22 -27 -66.5 -47t-103.5 -20z" />
    <glyph glyph-name="d" unicode="d" horiz-adv-x="529" 
d="M486 0h-168v53q-44 -65 -117 -65q-83 0 -133.5 67t-50.5 187q0 118 50.5 185.5t133.5 67.5q77 0 117 -64v236h168v-667zM259 137q37 0 59 35v141q-22 33 -59 33q-32 0 -51 -28t-19 -76t19 -76.5t51 -28.5z" />
    <glyph glyph-name="e" unicode="e" horiz-adv-x="489" 
d="M260 -12q-109 0 -176 69.5t-67 184.5q0 108 64.5 180.5t171.5 72.5q104 0 164 -70.5t60 -190.5v-46h-292q5 -29 29 -48.5t65 -19.5q22 0 51 10t45 26l72 -101q-33 -32 -84.5 -49.5t-102.5 -17.5zM317 299q-7 64 -67 64q-59 0 -66 -64h133z" />
    <glyph glyph-name="f" unicode="f" horiz-adv-x="323" 
d="M239 0h-169v337h-61v146h61v21q0 80 45.5 126.5t124.5 46.5q83 0 125 -39l-49 -110q-15 16 -37 16q-18 0 -29 -11t-11 -29v-21h77v-146h-77v-337z" />
    <glyph glyph-name="g" unicode="g" horiz-adv-x="528" 
d="M231 -196q-120 0 -194 63l62 126q50 -49 123 -49q39 0 67 23t28 75v38q-45 -66 -117 -66q-84 0 -133.5 61t-49.5 179q0 117 49.5 179t133.5 62q77 0 117 -64v52h169v-441q0 -69 -23 -118.5t-63 -74t-81 -35t-88 -10.5zM259 163q38 0 58 32v119q-20 32 -58 32
q-70 0 -70 -92q0 -91 70 -91z" />
    <glyph glyph-name="h" unicode="h" horiz-adv-x="535" 
d="M493 0h-169v294q0 52 -50 52q-35 0 -62 -42v-304h-169v667h169v-240q19 27 58 47.5t85 20.5q70 0 104 -35.5t34 -95.5v-364z" />
    <glyph glyph-name="i" unicode="i" horiz-adv-x="254" 
d="M127 522q-40 0 -67.5 27.5t-27.5 67.5t27.5 68t67.5 28t68 -28t28 -68t-28 -67.5t-68 -27.5zM212 0h-169v483h169v-483z" />
    <glyph glyph-name="j" unicode="j" horiz-adv-x="254" 
d="M127 522q-40 0 -67.5 27.5t-27.5 67.5t27.5 68t67.5 28t68 -28t28 -68t-28 -67.5t-68 -27.5zM29 -196q-63 0 -105 24l35 129q16 -13 42 -13q42 0 42 60v479h169v-479q0 -94 -45 -147t-138 -53z" />
    <glyph glyph-name="k" unicode="k" 
d="M510 0h-197l-67 161l-34 -55v-106h-169v667h169v-359l92 175h196l-137 -216z" />
    <glyph glyph-name="l" unicode="l" horiz-adv-x="254" 
d="M212 0h-169v667h169v-667z" />
    <glyph glyph-name="m" unicode="m" horiz-adv-x="797" 
d="M754 0h-169v300q0 46 -42 46q-36 0 -60 -42v-304h-169v300q0 46 -42 46q-36 0 -60 -42v-304h-169v483h169v-56q15 24 55.5 46t84.5 22q100 0 124 -81q18 32 59.5 56.5t87.5 24.5q60 0 95.5 -32t35.5 -98v-365z" />
    <glyph glyph-name="n" unicode="n" horiz-adv-x="535" 
d="M492 0h-169v292q0 54 -49 54q-38 0 -62 -42v-304h-169v483h169v-56q19 27 58 47.5t85 20.5q69 0 103 -36.5t34 -96.5v-362z" />
    <glyph glyph-name="o" unicode="o" horiz-adv-x="514" 
d="M257 -12q-113 0 -176.5 73.5t-63.5 180.5t63.5 180t176.5 73t177 -73t64 -180t-64 -180.5t-177 -73.5zM257 137q33 0 50.5 28.5t17.5 76.5t-17.5 76t-50.5 28t-50 -28t-17 -76t17 -76.5t50 -28.5z" />
    <glyph glyph-name="p" unicode="p" horiz-adv-x="528" 
d="M329 -12q-76 0 -117 65v-237h-169v667h169v-52q42 64 117 64q84 0 133.5 -66t49.5 -187q0 -120 -50 -187t-133 -67zM269 137q33 0 52 28t19 77q0 48 -19 76t-52 28q-37 0 -57 -33v-142q9 -15 25 -24.5t32 -9.5z" />
    <glyph glyph-name="q" unicode="q" horiz-adv-x="528" 
d="M259 137q37 0 58 34v142q-19 33 -58 33q-32 0 -51 -28t-19 -76q0 -49 19 -77t51 -28zM200 -12q-83 0 -133 67t-50 187q0 121 49.5 187t133.5 66q74 0 117 -64v52h169v-667h-169v237q-41 -65 -117 -65z" />
    <glyph glyph-name="r" unicode="r" horiz-adv-x="350" 
d="M212 0h-169v483h169v-55q17 27 55 48t71 21v-162q-13 5 -33 5q-26 0 -53 -10.5t-40 -28.5v-301z" />
    <glyph glyph-name="s" unicode="s" horiz-adv-x="436" 
d="M216 -12q-63 0 -119.5 20t-89.5 50l66 114q25 -22 66 -38.5t74 -16.5q49 0 49 26q0 12 -24.5 19t-59 15t-69 22t-59 49t-24.5 88q0 66 52 112.5t146 46.5q105 0 188 -61l-63 -111q-20 18 -54 32t-69 14q-18 0 -30 -6.5t-12 -16.5q0 -11 24.5 -18t59.5 -15.5t70.5 -23
t60 -50t24.5 -88.5q0 -72 -56.5 -117.5t-150.5 -45.5z" />
    <glyph glyph-name="t" unicode="t" horiz-adv-x="332" 
d="M220 -12q-150 0 -150 147v202h-61v146h61v132h169v-132h77v-146h-77v-159q0 -41 31 -41q22 0 29 9l29 -131q-34 -27 -108 -27z" />
    <glyph glyph-name="u" unicode="u" horiz-adv-x="534" 
d="M492 0h-169v55q-20 -27 -58.5 -47t-84.5 -20q-69 0 -103 36t-34 96v363h169v-293q0 -53 49 -53q37 0 62 42v304h169v-483z" />
    <glyph glyph-name="v" unicode="v" horiz-adv-x="485" 
d="M332 0h-179l-164 483h179l74 -280l76 280h178z" />
    <glyph glyph-name="w" unicode="w" horiz-adv-x="740" 
d="M619 0h-181l-68 270l-68 -270h-181l-129 483h174l58 -269l67 269h153l72 -269l57 269h174z" />
    <glyph glyph-name="x" unicode="x" horiz-adv-x="470" 
d="M478 0h-182l-61 129l-62 -129h-182l137 245l-130 238h182l54 -120l55 120h181l-129 -238z" />
    <glyph glyph-name="y" unicode="y" horiz-adv-x="485" 
d="M46 -188l24 148q11 -7 29 -7q43 0 51 21l6 17l-167 492h179l74 -280l76 280h178l-185 -545q-26 -77 -72.5 -105t-124.5 -29q-44 0 -68 8z" />
    <glyph glyph-name="z" unicode="z" horiz-adv-x="427" 
d="M401 0h-375v124l153 213h-153v146h371v-118l-155 -218h159v-147z" />
    <glyph glyph-name="braceleft" unicode="{" horiz-adv-x="277" 
d="M260 -190h-43q-66 0 -114 43.5t-48 113.5v168q0 29 -13.5 47t-38.5 18v89q25 0 38.5 17.5t13.5 46.5v167q0 70 48 114t114 44h43v-107h-43q-19 0 -32 -14t-13 -37v-185q0 -72 -45 -91q45 -19 45 -90v-186q0 -22 13 -36.5t32 -14.5h43v-107z" />
    <glyph glyph-name="bar" unicode="|" horiz-adv-x="203" 
d="M156 -20h-108v707h108v-707z" />
    <glyph glyph-name="braceright" unicode="}" horiz-adv-x="277" 
d="M17 -190v107h43q19 0 32 14.5t13 36.5v186q0 71 45 90q-45 19 -45 91v185q0 23 -13 37t-32 14h-43v107h43q66 0 114 -44t48 -114v-167q0 -29 13.5 -46.5t38.5 -17.5v-89q-25 0 -38.5 -18t-13.5 -47v-168q0 -70 -48 -113.5t-114 -43.5h-43z" />
    <glyph glyph-name="asciitilde" unicode="~" horiz-adv-x="478" 
d="M343 667l110 -11q-3 -39 -6.5 -68.5t-13.5 -66.5t-24.5 -60.5t-40.5 -40t-61 -16.5q-42 0 -67.5 26t-32 56.5t-14.5 56.5t-20 26q-17 0 -24.5 -40t-11.5 -126l-112 11q3 49 9.5 86.5t21.5 79t44.5 64.5t72.5 23q42 0 67 -26t31.5 -57t15 -57t20.5 -26q28 0 36 166z" />
    <glyph glyph-name="nbspace" unicode="&#xa0;" horiz-adv-x="205" 
 />
    <glyph glyph-name="exclamdown" unicode="&#xa1;" horiz-adv-x="275" 
d="M37 -184l24 426h152l25 -426h-201zM36 394q0 41 30 71t71 30t71 -30t30 -71t-30 -71.5t-71 -30.5t-71 30.5t-30 71.5z" />
    <glyph glyph-name="cent" unicode="&#xa2;" horiz-adv-x="437" 
d="M192 -100v96q-80 20 -127.5 86t-47.5 160t47.5 159t127.5 86v78h119v-75q78 -15 116 -61l-80 -116q-30 33 -70 33q-39 0 -63.5 -28t-24.5 -76t25 -76.5t63 -28.5q40 0 70 34l80 -116q-39 -47 -116 -62v-93h-119z" />
    <glyph glyph-name="sterling" unicode="&#xa3;" horiz-adv-x="525" 
d="M28 276v103h35q-20 43 -20 86q0 94 75.5 153t165.5 59q181 0 227 -139l-151 -75q-15 62 -58 62q-23 0 -38 -17.5t-15 -45.5q0 -36 19 -83h100v-103h-78v-4q0 -26 -14.5 -56t-35.5 -45q21 7 41 7q25 0 54 -11.5t49 -11.5q49 0 73 29l59 -149q-43 -47 -143 -47
q-45 0 -96.5 21t-71.5 21q-47 0 -103 -37l-56 125q77 47 77 101q0 24 -11 57h-84z" />
    <glyph glyph-name="currency" unicode="&#xa4;" horiz-adv-x="570" 
d="M285 88q-57 0 -103 20l-71 -71l-98 98l65 65q-33 58 -33 133q0 74 34 134l-66 67l98 97l72 -73q46 20 102 20t102 -20l73 73l97 -97l-66 -67q35 -59 35 -134q0 -74 -35 -135l66 -64l-97 -97l-73 70q-46 -19 -102 -19zM285 234q36 0 56.5 27t20.5 72q0 44 -20.5 71.5
t-56.5 27.5t-56.5 -27.5t-20.5 -71.5q0 -45 20.5 -72t56.5 -27z" />
    <glyph glyph-name="yen" unicode="&#xa5;" horiz-adv-x="577" 
d="M384 0h-190v109h-168v99h168v59h-168v99h117l-156 301h207l95 -228l94 228h206l-155 -301h116v-99h-166v-59h166v-99h-166v-109z" />
    <glyph glyph-name="brokenbar" unicode="&#xa6;" horiz-adv-x="203" 
d="M156 -20h-108v316h108v-316zM156 371h-108v316h108v-316z" />
    <glyph glyph-name="section" unicode="&#xa7;" horiz-adv-x="442" 
d="M423 333q0 -38 -19 -72.5t-54 -55.5q73 -40 73 -123q0 -73 -58.5 -118t-148.5 -45q-129 0 -208 72l65 109q23 -23 62 -42.5t74 -19.5q53 0 53 33q0 18 -24.5 29.5t-59 21t-69 24t-59 48t-24.5 83.5q0 43 23.5 74.5t54.5 47.5q-78 40 -78 129q0 65 54.5 107t137.5 42
q123 0 193 -64l-62 -99q-55 48 -117 48q-48 0 -48 -31q0 -16 24.5 -26t59.5 -19.5t70.5 -23.5t60 -47t24.5 -82zM266 294q0 45 -46 61q-40 -9 -40 -48q0 -42 57 -60q29 15 29 47z" />
    <glyph glyph-name="dieresis" unicode="&#xa8;" horiz-adv-x="305" 
d="M338 617q0 -36 -25 -60.5t-60 -24.5t-60 24.5t-25 60.5q0 35 25 59.5t60 24.5t60 -24.5t25 -59.5zM137 617q0 -35 -24.5 -60t-60.5 -25q-35 0 -60 25t-25 60t25 59.5t60 24.5q36 0 60.5 -24.5t24.5 -59.5z" />
    <glyph glyph-name="copyright" unicode="&#xa9;" horiz-adv-x="778" 
d="M734 334q0 -143 -101 -244t-244 -101t-244 101.5t-101 243.5q0 143 101 244t244 101t244 -101t101 -244zM693 334q0 125 -89.5 214.5t-214.5 89.5t-214.5 -89.5t-89.5 -214.5q0 -124 89.5 -214t214.5 -90t214.5 89.5t89.5 214.5zM511 229l37 -35q-59 -69 -151 -69
q-87 0 -147.5 60t-60.5 150t60.5 149.5t147.5 59.5q91 0 149 -68l-36 -36q-43 58 -113 58q-65 0 -110 -46t-45 -117q0 -70 45 -117.5t110 -47.5q70 0 114 59z" />
    <glyph glyph-name="ordfeminine" unicode="&#xaa;" horiz-adv-x="357" 
d="M323 326h-120v30q-24 -38 -85 -38q-41 0 -71.5 26.5t-30.5 76.5q0 49 30.5 75t71.5 26q61 0 85 -34v26q0 21 -13.5 33.5t-38.5 12.5q-41 0 -78 -35l-41 77q53 46 143 46q65 0 106.5 -29.5t41.5 -96.5v-196zM167 393q27 0 36 19v22q-9 19 -36 19q-33 0 -33 -30t33 -30z
" />
    <glyph glyph-name="guillemotleft" unicode="&#xab;" horiz-adv-x="531" 
d="M501 63h-139l-125 180l125 177h139l-125 -177zM294 63h-139l-125 180l125 177h139l-125 -177z" />
    <glyph glyph-name="logicalnot" unicode="&#xac;" horiz-adv-x="458" 
d="M420 476v-284h-102v185h-289v99h391z" />
    <glyph glyph-name="uni00AD" unicode="&#xad;" horiz-adv-x="274" 
d="M244 172h-214v141h214v-141z" />
    <glyph glyph-name="registered" unicode="&#xae;" horiz-adv-x="494" 
d="M459 465q0 -88 -62 -150t-150 -62t-150 62t-62 150t62 150t150 62q89 0 150.5 -61.5t61.5 -150.5zM425 465q0 75 -52 126.5t-126 51.5t-125.5 -51.5t-51.5 -126.5q0 -73 52 -125t125 -52q74 0 126 52t52 125zM349 343h-45l-63 96h-39v-96h-37v243h99q32 0 57 -21t25 -53
q0 -35 -22.5 -53.5t-39.5 -18.5zM308 512q0 19 -13.5 31.5t-30.5 12.5h-62v-85h62q17 0 30.5 11.5t13.5 29.5z" />
    <glyph glyph-name="macron" unicode="&#xaf;" horiz-adv-x="316" 
d="M316 553h-316v92h316v-92z" />
    <glyph glyph-name="degree" unicode="&#xb0;" horiz-adv-x="327" 
d="M309 531q0 -60 -43 -102.5t-103 -42.5t-102.5 42.5t-42.5 102.5q0 61 42.5 103.5t102.5 42.5t103 -42.5t43 -103.5zM224 531q0 25 -18 43t-43 18t-42 -18t-17 -43t17 -42t42 -17t43 17t18 42z" />
    <glyph glyph-name="plusminus" unicode="&#xb1;" horiz-adv-x="449" 
d="M420 310h-141v-166h-109v166h-141v99h141v157h109v-157h141v-99zM420 5h-391v99h391v-99z" />
    <glyph glyph-name="twosuperior" unicode="&#xb2;" horiz-adv-x="365" 
d="M346 421h-312v90q123 95 154 126t31 54q0 17 -12 27.5t-34 10.5q-25 0 -50 -13.5t-40 -32.5l-67 77q63 67 162 67q76 0 120.5 -34.5t44.5 -94.5q0 -39 -30.5 -78t-111.5 -101h145v-98z" />
    <glyph glyph-name="threesuperior" unicode="&#xb3;" horiz-adv-x="365" 
d="M346 534q0 -54 -46 -87t-119 -33q-111 0 -164 63l66 79q38 -44 93 -44q24 0 36.5 9t12.5 22q0 32 -62 32q-33 0 -39 -1v97q7 -1 37 -1q58 0 58 30q0 29 -49 29q-54 0 -86 -38l-63 70q57 66 160 66q76 0 117.5 -29.5t41.5 -80.5q0 -32 -23.5 -58t-59.5 -32q36 -4 62.5 -30
t26.5 -63z" />
    <glyph glyph-name="acute" unicode="&#xb4;" horiz-adv-x="242" 
d="M242 700l-133 -144h-109l100 144h142z" />
    <glyph glyph-name="mu" unicode="&#xb5;" horiz-adv-x="549" 
d="M212 -5v-179h-169v667h169v-293q0 -53 50 -53q36 0 61 42v304h169v-317q0 -29 28 -29q8 0 16 3l11 -142q-28 -10 -74 -10q-115 0 -142 88q-12 -40 -36.5 -64t-54.5 -24q-18 0 -28 7z" />
    <glyph glyph-name="paragraph" unicode="&#xb6;" horiz-adv-x="449" 
d="M422 -100h-76v691h-71v-691h-76v423q-71 0 -121.5 50.5t-50.5 121.5t50.5 121.5t121.5 50.5h223v-767z" />
    <glyph glyph-name="periodcentered" unicode="&#xb7;" horiz-adv-x="277" 
d="M239 244q0 -41 -30 -71t-71 -30t-71 30t-30 71q0 42 30 72t71 30t71 -30t30 -72z" />
    <glyph glyph-name="cedilla" unicode="&#xb8;" horiz-adv-x="218" 
d="M107 -199q-67 0 -107 33l29 61q37 -29 73 -29q39 0 39 26q0 18 -20 18q-14 0 -24 -12l-56 32l30 81h76l-25 -59q15 9 31 9q27 0 46 -20.5t19 -51.5q0 -41 -31 -64.5t-80 -23.5z" />
    <glyph glyph-name="onesuperior" unicode="&#xb9;" horiz-adv-x="305" 
d="M258 421h-125v243l-61 -61l-70 73l149 145h107v-400z" />
    <glyph glyph-name="ordmasculine" unicode="&#xba;" horiz-adv-x="366" 
d="M183 318q-76 0 -120.5 48t-44.5 117t44.5 117t120.5 48q77 0 121 -47.5t44 -117.5q0 -69 -44 -117t-121 -48zM183 413q43 0 43 70q0 69 -43 69q-42 0 -42 -69q0 -70 42 -70z" />
    <glyph glyph-name="guillemotright" unicode="&#xbb;" horiz-adv-x="531" 
d="M294 243l-125 -180h-139l125 180l-125 177h139zM501 243l-125 -180h-139l125 180l-125 177h139z" />
    <glyph glyph-name="onequarter" unicode="&#xbc;" horiz-adv-x="809" 
d="M258 267h-125v243l-61 -61l-70 73l149 145h107v-400zM797 74h-39v-74h-124v74h-175v88l137 238h162v-229h39v-97zM634 171v113l-63 -113h63zM613 667l-356 -667h-79l356 667h79z" />
    <glyph glyph-name="onehalf" unicode="&#xbd;" horiz-adv-x="843" 
d="M258 267h-125v243l-61 -61l-70 73l149 145h107v-400zM825 0h-312v90q123 95 154 126t31 54q0 17 -12 27.5t-34 10.5q-25 0 -50 -13.5t-40 -32.5l-67 77q63 67 162 67q76 0 120.5 -34.5t44.5 -94.5q0 -39 -30.5 -78t-111.5 -101h145v-98zM613 667l-356 -667h-79l356 667
h79z" />
    <glyph glyph-name="threequarters" unicode="&#xbe;" horiz-adv-x="860" 
d="M849 74h-39v-74h-124v74h-175v88l137 238h162v-229h39v-97zM686 171v113l-63 -113h63zM665 667l-356 -667h-79l356 667h79zM346 380q0 -54 -46 -87t-119 -33q-111 0 -164 63l66 79q38 -44 93 -44q24 0 36.5 9t12.5 22q0 32 -62 32q-33 0 -39 -1v97q7 -1 37 -1q58 0 58 30
q0 29 -49 29q-54 0 -86 -38l-63 70q57 66 160 66q76 0 117.5 -29.5t41.5 -80.5q0 -32 -23.5 -58t-59.5 -32q36 -4 62.5 -30t26.5 -63z" />
    <glyph glyph-name="questiondown" unicode="&#xbf;" horiz-adv-x="353" 
d="M266 263q25 -34 25 -93q0 -36 -15 -65t-32.5 -44t-32.5 -32t-15 -31q0 -28 36 -28t65 35l91 -118q-76 -82 -191 -82q-88 0 -139 42t-51 112q0 34 13 63.5t31.5 49.5t36.5 37.5t31 37t13 39.5q0 22 -11 37zM195 495q41 0 71 -30t30 -71t-30 -71.5t-71 -30.5t-71.5 30.5
t-30.5 71.5t30.5 71t71.5 30z" />
    <glyph glyph-name="Agrave" unicode="&#xc0;" horiz-adv-x="597" 
d="M609 0h-205l-19 86h-173l-19 -86h-205l196 667h229zM348 251l-49 221l-50 -221h99zM358 723h-108l-134 144h142z" />
    <glyph glyph-name="Aacute" unicode="&#xc1;" horiz-adv-x="597" 
d="M609 0h-205l-19 86h-173l-19 -86h-205l196 667h229zM348 251l-49 221l-50 -221h99zM480 867l-133 -144h-109l100 144h142z" />
    <glyph glyph-name="Acircumflex" unicode="&#xc2;" horiz-adv-x="597" 
d="M449 723h-95l-56 76l-52 -76h-95l74 144h147zM609 0h-205l-19 86h-173l-19 -86h-205l196 667h229zM348 251l-49 221l-50 -221h99z" />
    <glyph glyph-name="Atilde" unicode="&#xc3;" horiz-adv-x="597" 
d="M609 0h-205l-19 86h-173l-19 -86h-205l196 667h229zM348 251l-49 221l-50 -221h99zM349 721q-24 0 -43.5 12t-33 24t-23.5 12q-24 0 -24 -42h-82q0 64 28 99t80 35q24 0 43.5 -12t33 -24t23.5 -12q24 0 24 42h82q0 -64 -28 -99t-80 -35z" />
    <glyph glyph-name="Adieresis" unicode="&#xc4;" horiz-adv-x="597" 
d="M484 784q0 -36 -25 -60.5t-60 -24.5t-60 24.5t-25 60.5q0 35 25 59.5t60 24.5t60 -24.5t25 -59.5zM283 784q0 -35 -24.5 -60t-60.5 -25q-35 0 -60 25t-25 60t25 59.5t60 24.5q36 0 60.5 -24.5t24.5 -59.5zM609 0h-205l-19 86h-173l-19 -86h-205l196 667h229zM348 251
l-49 221l-50 -221h99z" />
    <glyph glyph-name="Aring" unicode="&#xc5;" horiz-adv-x="597" 
d="M609 0h-205l-19 86h-173l-19 -86h-205l196 667h229zM348 251l-49 221l-50 -221h99zM300 687q-43 0 -73.5 30.5t-30.5 73.5t30.5 73t73.5 30q42 0 71.5 -30t29.5 -73t-29.5 -73.5t-71.5 -30.5zM300 758q13 0 22.5 9.5t9.5 23.5t-9.5 23.5t-22.5 9.5q-14 0 -23.5 -10
t-9.5 -23t9.5 -23t23.5 -10z" />
    <glyph glyph-name="AE" unicode="&#xc6;" horiz-adv-x="824" 
d="M800 0h-421v86h-155l-33 -86h-206l314 667h501v-165h-232v-82h225v-165h-225v-90h232v-165zM379 251v221l-87 -221h87z" />
    <glyph glyph-name="Ccedilla" unicode="&#xc7;" horiz-adv-x="582" 
d="M319 -195q-67 0 -107 33l29 61q37 -29 73 -29q39 0 39 26q0 18 -20 18q-14 0 -24 -12l-56 32l21 58q-119 16 -187.5 108.5t-68.5 232.5q0 155 83 250t223 95q179 0 250 -190l-157 -66q-10 40 -34.5 64.5t-58.5 24.5q-54 0 -83.5 -49t-29.5 -129t29.5 -129t83.5 -49
q35 0 60 27t34 68l156 -65q-63 -183 -226 -196l-14 -33q15 9 31 9q27 0 46 -20.5t19 -51.5q0 -41 -31 -64.5t-80 -23.5z" />
    <glyph glyph-name="Egrave" unicode="&#xc8;" 
d="M469 0h-421v667h421v-165h-232v-82h225v-165h-225v-90h232v-165zM316 723h-108l-134 144h142z" />
    <glyph glyph-name="Eacute" unicode="&#xc9;" 
d="M440 867l-133 -144h-109l100 144h142zM469 0h-421v667h421v-165h-232v-82h225v-165h-225v-90h232v-165z" />
    <glyph glyph-name="Ecircumflex" unicode="&#xca;" 
d="M408 723h-95l-56 76l-52 -76h-95l74 144h147zM469 0h-421v667h421v-165h-232v-82h225v-165h-225v-90h232v-165z" />
    <glyph glyph-name="Edieresis" unicode="&#xcb;" 
d="M447 784q0 -36 -25 -60.5t-60 -24.5t-60 24.5t-25 60.5q0 35 25 59.5t60 24.5t60 -24.5t25 -59.5zM246 784q0 -35 -24.5 -60t-60.5 -25q-35 0 -60 25t-25 60t25 59.5t60 24.5q36 0 60.5 -24.5t24.5 -59.5zM469 0h-421v667h421v-165h-232v-82h225v-165h-225v-90h232v-165z
" />
    <glyph glyph-name="Igrave" unicode="&#xcc;" horiz-adv-x="285" 
d="M237 0h-189v667h189v-667zM203 723h-108l-134 144h142z" />
    <glyph glyph-name="Iacute" unicode="&#xcd;" horiz-adv-x="285" 
d="M237 0h-189v667h189v-667zM324 867l-133 -144h-109l100 144h142z" />
    <glyph glyph-name="Icircumflex" unicode="&#xce;" horiz-adv-x="285" 
d="M290 723h-95l-56 76l-52 -76h-95l74 144h147zM237 0h-189v667h189v-667z" />
    <glyph glyph-name="Idieresis" unicode="&#xcf;" horiz-adv-x="285" 
d="M328 784q0 -36 -25 -60.5t-60 -24.5t-60 24.5t-25 60.5q0 35 25 59.5t60 24.5t60 -24.5t25 -59.5zM127 784q0 -35 -24.5 -60t-60.5 -25q-35 0 -60 25t-25 60t25 59.5t60 24.5q36 0 60.5 -24.5t24.5 -59.5zM237 0h-189v667h189v-667z" />
    <glyph glyph-name="Eth" unicode="&#xd0;" horiz-adv-x="654" 
d="M325 0h-253v260h-63v147h63v260h252q145 0 228.5 -90.5t83.5 -242.5t-83 -243t-228 -91zM324 165q56 0 88 45t32 124q0 168 -120 168h-63v-95h92v-147h-92v-95h63z" />
    <glyph glyph-name="Ntilde" unicode="&#xd1;" horiz-adv-x="641" 
d="M370 721q-24 0 -43.5 12t-33 24t-23.5 12q-24 0 -24 -42h-82q0 64 28 99t80 35q24 0 43.5 -12t33 -24t23.5 -12q24 0 24 42h82q0 -64 -28 -99t-80 -35zM593 0h-179l-177 308v-308h-189v667h192l164 -288v288h189v-667z" />
    <glyph glyph-name="Ograve" unicode="&#xd2;" horiz-adv-x="644" 
d="M383 723h-108l-134 144h142zM322 -12q-138 0 -221 95.5t-83 249.5t83 249.5t221 95.5t221 -95.5t83 -249.5t-83 -249.5t-221 -95.5zM322 155q53 0 82.5 49.5t29.5 128.5q0 80 -29.5 129t-82.5 49t-82 -49t-29 -129t29 -129t82 -49z" />
    <glyph glyph-name="Oacute" unicode="&#xd3;" horiz-adv-x="644" 
d="M503 867l-133 -144h-109l100 144h142zM322 -12q-138 0 -221 95.5t-83 249.5t83 249.5t221 95.5t221 -95.5t83 -249.5t-83 -249.5t-221 -95.5zM322 155q53 0 82.5 49.5t29.5 128.5q0 80 -29.5 129t-82.5 49t-82 -49t-29 -129t29 -129t82 -49z" />
    <glyph glyph-name="Ocircumflex" unicode="&#xd4;" horiz-adv-x="644" 
d="M474 723h-95l-56 76l-52 -76h-95l74 144h147zM322 -12q-138 0 -221 95.5t-83 249.5t83 249.5t221 95.5t221 -95.5t83 -249.5t-83 -249.5t-221 -95.5zM322 155q53 0 82.5 49.5t29.5 128.5q0 80 -29.5 129t-82.5 49t-82 -49t-29 -129t29 -129t82 -49z" />
    <glyph glyph-name="Otilde" unicode="&#xd5;" horiz-adv-x="644" 
d="M322 -12q-138 0 -221 95.5t-83 249.5t83 249.5t221 95.5t221 -95.5t83 -249.5t-83 -249.5t-221 -95.5zM322 155q53 0 82.5 49.5t29.5 128.5q0 80 -29.5 129t-82.5 49t-82 -49t-29 -129t29 -129t82 -49zM372 721q-24 0 -43.5 12t-33 24t-23.5 12q-24 0 -24 -42h-82
q0 64 28 99t80 35q24 0 43.5 -12t33 -24t23.5 -12q24 0 24 42h82q0 -64 -28 -99t-80 -35z" />
    <glyph glyph-name="Odieresis" unicode="&#xd6;" horiz-adv-x="644" 
d="M510 784q0 -36 -25 -60.5t-60 -24.5t-60 24.5t-25 60.5q0 35 25 59.5t60 24.5t60 -24.5t25 -59.5zM309 784q0 -35 -24.5 -60t-60.5 -25q-35 0 -60 25t-25 60t25 59.5t60 24.5q36 0 60.5 -24.5t24.5 -59.5zM322 -12q-138 0 -221 95.5t-83 249.5t83 249.5t221 95.5
t221 -95.5t83 -249.5t-83 -249.5t-221 -95.5zM322 155q53 0 82.5 49.5t29.5 128.5q0 80 -29.5 129t-82.5 49t-82 -49t-29 -129t29 -129t82 -49z" />
    <glyph glyph-name="multiply" unicode="&#xd7;" horiz-adv-x="449" 
d="M339 150l-114 114l-114 -114l-71 70l115 114l-115 114l71 70l114 -114l114 114l70 -70l-113 -114l113 -114z" />
    <glyph glyph-name="Oslash" unicode="&#xd8;" horiz-adv-x="644" 
d="M322 -12q-89 0 -159 42l-21 -30h-117l66 95q-73 93 -73 238q0 154 83 249.5t221 95.5q85 0 150 -38l19 27h117l-62 -88q80 -96 80 -246q0 -154 -83 -249.5t-221 -95.5zM322 155q53 0 82.5 49.5t29.5 128.5q0 38 -8 73l-162 -231q25 -20 58 -20zM211 333q0 -37 5 -60
l156 223q-22 15 -50 15q-53 0 -82 -49t-29 -129z" />
    <glyph glyph-name="Ugrave" unicode="&#xd9;" horiz-adv-x="650" 
d="M325 -12q-127 0 -202 68t-75 188v423h191v-424q0 -42 22.5 -65.5t63.5 -23.5t63.5 23.5t22.5 65.5v424h191v-422q0 -120 -75 -188.5t-202 -68.5zM385 723h-108l-134 144h142z" />
    <glyph glyph-name="Uacute" unicode="&#xda;" horiz-adv-x="650" 
d="M507 867l-133 -144h-109l100 144h142zM325 -12q-127 0 -202 68t-75 188v423h191v-424q0 -42 22.5 -65.5t63.5 -23.5t63.5 23.5t22.5 65.5v424h191v-422q0 -120 -75 -188.5t-202 -68.5z" />
    <glyph glyph-name="Ucircumflex" unicode="&#xdb;" horiz-adv-x="650" 
d="M479 723h-95l-56 76l-52 -76h-95l74 144h147zM325 -12q-127 0 -202 68t-75 188v423h191v-424q0 -42 22.5 -65.5t63.5 -23.5t63.5 23.5t22.5 65.5v424h191v-422q0 -120 -75 -188.5t-202 -68.5z" />
    <glyph glyph-name="Udieresis" unicode="&#xdc;" horiz-adv-x="650" 
d="M512 784q0 -36 -25 -60.5t-60 -24.5t-60 24.5t-25 60.5q0 35 25 59.5t60 24.5t60 -24.5t25 -59.5zM311 784q0 -35 -24.5 -60t-60.5 -25q-35 0 -60 25t-25 60t25 59.5t60 24.5q36 0 60.5 -24.5t24.5 -59.5zM325 -12q-127 0 -202 68t-75 188v423h191v-424q0 -42 22.5 -65.5
t63.5 -23.5t63.5 23.5t22.5 65.5v424h191v-422q0 -120 -75 -188.5t-202 -68.5z" />
    <glyph glyph-name="Yacute" unicode="&#xdd;" horiz-adv-x="577" 
d="M384 0h-190v267l-207 400h207l95 -228l94 228h206l-205 -400v-267zM470 867l-133 -144h-109l100 144h142z" />
    <glyph glyph-name="Thorn" unicode="&#xde;" horiz-adv-x="579" 
d="M237 0h-189v667h189v-98h100q109 0 169 -65t60 -162q0 -96 -59.5 -160t-169.5 -64h-100v-118zM312 283q27 0 44.5 15.5t17.5 44.5q0 28 -17.5 44.5t-44.5 16.5h-75v-121h75z" />
    <glyph glyph-name="germandbls" unicode="&#xdf;" horiz-adv-x="635" 
d="M623 151q0 -69 -55 -116t-140 -47q-112 0 -187 69l59 116q19 -22 50 -38.5t61 -16.5q43 0 43 25q0 12 -20.5 21t-50 18.5t-59 24t-50 47t-20.5 79.5q0 33 14.5 60t32.5 41t32.5 29t14.5 27q0 18 -16.5 28t-41.5 10q-35 0 -56 -18t-21 -54v-456h-169v456q0 93 67 157
t181 64q91 0 159.5 -46.5t68.5 -116.5q0 -38 -16 -68.5t-35.5 -44.5t-35.5 -29.5t-16 -27.5q0 -10 21 -16.5t51.5 -15t61 -23.5t51.5 -50.5t21 -87.5z" />
    <glyph glyph-name="agrave" unicode="&#xe0;" horiz-adv-x="506" 
d="M464 0h-169v47q-17 -26 -53.5 -42.5t-73.5 -16.5q-60 0 -106 42.5t-46 117.5q0 77 45 115.5t107 38.5q40 0 75.5 -14t51.5 -39v46q0 29 -21 47t-59 18q-61 0 -118 -46l-57 111q39 36 96.5 53t112.5 17q95 0 155 -43.5t60 -139.5v-312zM236 98q44 0 59 29v36
q-15 29 -59 29q-23 0 -38 -12t-15 -35t15 -35t38 -12zM310 556h-108l-134 144h142z" />
    <glyph glyph-name="aacute" unicode="&#xe1;" horiz-adv-x="506" 
d="M464 0h-169v47q-17 -26 -53.5 -42.5t-73.5 -16.5q-60 0 -106 42.5t-46 117.5q0 77 45 115.5t107 38.5q40 0 75.5 -14t51.5 -39v46q0 29 -21 47t-59 18q-61 0 -118 -46l-57 111q39 36 96.5 53t112.5 17q95 0 155 -43.5t60 -139.5v-312zM236 98q44 0 59 29v36
q-15 29 -59 29q-23 0 -38 -12t-15 -35t15 -35t38 -12zM431 700l-133 -144h-109l100 144h142z" />
    <glyph glyph-name="acircumflex" unicode="&#xe2;" horiz-adv-x="506" 
d="M464 0h-169v47q-17 -26 -53.5 -42.5t-73.5 -16.5q-60 0 -106 42.5t-46 117.5q0 77 45 115.5t107 38.5q40 0 75.5 -14t51.5 -39v46q0 29 -21 47t-59 18q-61 0 -118 -46l-57 111q39 36 96.5 53t112.5 17q95 0 155 -43.5t60 -139.5v-312zM236 98q44 0 59 29v36
q-15 29 -59 29q-23 0 -38 -12t-15 -35t15 -35t38 -12zM404 556h-95l-56 76l-52 -76h-95l74 144h147z" />
    <glyph glyph-name="atilde" unicode="&#xe3;" horiz-adv-x="506" 
d="M464 0h-169v47q-17 -26 -53.5 -42.5t-73.5 -16.5q-60 0 -106 42.5t-46 117.5q0 77 45 115.5t107 38.5q40 0 75.5 -14t51.5 -39v46q0 29 -21 47t-59 18q-61 0 -118 -46l-57 111q39 36 96.5 53t112.5 17q95 0 155 -43.5t60 -139.5v-312zM236 98q44 0 59 29v36
q-15 29 -59 29q-23 0 -38 -12t-15 -35t15 -35t38 -12zM301 554q-24 0 -43.5 12t-33 24t-23.5 12q-24 0 -24 -42h-82q0 64 28 99t80 35q24 0 43.5 -12t33 -24t23.5 -12q24 0 24 42h82q0 -64 -28 -99t-80 -35z" />
    <glyph glyph-name="adieresis" unicode="&#xe4;" horiz-adv-x="506" 
d="M464 0h-169v47q-17 -26 -53.5 -42.5t-73.5 -16.5q-60 0 -106 42.5t-46 117.5q0 77 45 115.5t107 38.5q40 0 75.5 -14t51.5 -39v46q0 29 -21 47t-59 18q-61 0 -118 -46l-57 111q39 36 96.5 53t112.5 17q95 0 155 -43.5t60 -139.5v-312zM236 98q44 0 59 29v36
q-15 29 -59 29q-23 0 -38 -12t-15 -35t15 -35t38 -12zM437 617q0 -36 -25 -60.5t-60 -24.5t-60 24.5t-25 60.5q0 35 25 59.5t60 24.5t60 -24.5t25 -59.5zM236 617q0 -35 -24.5 -60t-60.5 -25q-35 0 -60 25t-25 60t25 59.5t60 24.5q36 0 60.5 -24.5t24.5 -59.5z" />
    <glyph glyph-name="aring" unicode="&#xe5;" horiz-adv-x="506" 
d="M464 0h-169v47q-17 -26 -53.5 -42.5t-73.5 -16.5q-60 0 -106 42.5t-46 117.5q0 77 45 115.5t107 38.5q40 0 75.5 -14t51.5 -39v46q0 29 -21 47t-59 18q-61 0 -118 -46l-57 111q39 36 96.5 53t112.5 17q95 0 155 -43.5t60 -139.5v-312zM236 98q44 0 59 29v36
q-15 29 -59 29q-23 0 -38 -12t-15 -35t15 -35t38 -12zM253 523q-43 0 -73.5 30.5t-30.5 73.5t30.5 73t73.5 30q42 0 71.5 -30t29.5 -73t-29.5 -73.5t-71.5 -30.5zM253 594q13 0 22.5 9.5t9.5 23.5t-9.5 23.5t-22.5 9.5t-23 -10t-10 -23t10 -23t23 -10z" />
    <glyph glyph-name="ae" unicode="&#xe6;" horiz-adv-x="766" 
d="M753 188h-287q16 -66 94 -66q51 0 89 36l74 -103q-33 -32 -83.5 -49.5t-98.5 -17.5q-96 0 -157 67q-72 -67 -178 -67q-83 0 -136.5 40.5t-53.5 116.5q0 75 44 116t110 41q38 0 75 -14t55 -39v46q0 29 -22 47t-61 18q-61 0 -120 -46l-57 111q39 35 95.5 52.5t107.5 17.5
q98 0 142 -56q56 56 152 56q98 0 157 -71.5t59 -190.5v-45zM465 299h128q-7 64 -64 64t-64 -64zM300 157v6q-17 29 -63 29q-24 0 -40.5 -11t-16.5 -29q0 -20 15 -30t36 -10q28 0 48.5 14t20.5 31z" />
    <glyph glyph-name="ccedilla" unicode="&#xe7;" horiz-adv-x="437" 
d="M260 -197q-67 0 -107 33l29 61q37 -29 73 -29q39 0 39 26q0 18 -20 18q-14 0 -24 -12l-56 32l22 59q-90 14 -144.5 81.5t-54.5 169.5q0 113 67 183t173 70q59 0 103.5 -19.5t66.5 -46.5l-80 -116q-30 33 -70 33q-39 0 -63.5 -28t-24.5 -76t25 -76.5t63 -28.5q40 0 70 34
l80 -116q-44 -54 -137 -65l-15 -36q15 9 31 9q27 0 46 -20.5t19 -51.5q0 -41 -31 -64.5t-80 -23.5z" />
    <glyph glyph-name="egrave" unicode="&#xe8;" horiz-adv-x="489" 
d="M260 -12q-109 0 -176 69.5t-67 184.5q0 108 64.5 180.5t171.5 72.5q104 0 164 -70.5t60 -190.5v-46h-292q5 -29 29 -48.5t65 -19.5q22 0 51 10t45 26l72 -101q-33 -32 -84.5 -49.5t-102.5 -17.5zM317 299q-7 64 -67 64q-59 0 -66 -64h133zM312 556h-108l-134 144h142z
" />
    <glyph glyph-name="eacute" unicode="&#xe9;" horiz-adv-x="489" 
d="M433 700l-133 -144h-109l100 144h142zM260 -12q-109 0 -176 69.5t-67 184.5q0 108 64.5 180.5t171.5 72.5q104 0 164 -70.5t60 -190.5v-46h-292q5 -29 29 -48.5t65 -19.5q22 0 51 10t45 26l72 -101q-33 -32 -84.5 -49.5t-102.5 -17.5zM317 299q-7 64 -67 64
q-59 0 -66 -64h133z" />
    <glyph glyph-name="ecircumflex" unicode="&#xea;" horiz-adv-x="489" 
d="M401 556h-95l-56 76l-52 -76h-95l74 144h147zM260 -12q-109 0 -176 69.5t-67 184.5q0 108 64.5 180.5t171.5 72.5q104 0 164 -70.5t60 -190.5v-46h-292q5 -29 29 -48.5t65 -19.5q22 0 51 10t45 26l72 -101q-33 -32 -84.5 -49.5t-102.5 -17.5zM317 299q-7 64 -67 64
q-59 0 -66 -64h133z" />
    <glyph glyph-name="edieresis" unicode="&#xeb;" horiz-adv-x="489" 
d="M437 617q0 -36 -25 -60.5t-60 -24.5t-60 24.5t-25 60.5q0 35 25 59.5t60 24.5t60 -24.5t25 -59.5zM236 617q0 -35 -24.5 -60t-60.5 -25q-35 0 -60 25t-25 60t25 59.5t60 24.5q36 0 60.5 -24.5t24.5 -59.5zM260 -12q-109 0 -176 69.5t-67 184.5q0 108 64.5 180.5
t171.5 72.5q104 0 164 -70.5t60 -190.5v-46h-292q5 -29 29 -48.5t65 -19.5q22 0 51 10t45 26l72 -101q-33 -32 -84.5 -49.5t-102.5 -17.5zM317 299q-7 64 -67 64q-59 0 -66 -64h133z" />
    <glyph glyph-name="igrave" unicode="&#xec;" horiz-adv-x="254" 
d="M212 0h-169v483h169v-483zM188 556h-108l-134 144h142z" />
    <glyph glyph-name="iacute" unicode="&#xed;" horiz-adv-x="254" 
d="M309 700l-133 -144h-109l100 144h142zM212 0h-169v483h169v-483z" />
    <glyph glyph-name="icircumflex" unicode="&#xee;" horiz-adv-x="254" 
d="M277 556h-95l-56 76l-52 -76h-95l74 144h147zM212 0h-169v483h169v-483z" />
    <glyph glyph-name="idieresis" unicode="&#xef;" horiz-adv-x="254" 
d="M312 617q0 -36 -25 -60.5t-60 -24.5t-60 24.5t-25 60.5q0 35 25 59.5t60 24.5t60 -24.5t25 -59.5zM111 617q0 -35 -24.5 -60t-60.5 -25q-35 0 -60 25t-25 60t25 59.5t60 24.5q36 0 60.5 -24.5t24.5 -59.5zM212 0h-169v483h169v-483z" />
    <glyph glyph-name="eth" unicode="&#xf0;" horiz-adv-x="514" 
d="M119 462l-32 73l100 43q-44 41 -46 43l117 102q57 -52 81 -78l82 36l31 -71l-61 -27q107 -145 107 -311q0 -134 -62.5 -209t-178.5 -75q-112 0 -176 65t-64 165q0 97 52 162.5t132 65.5q87 0 132 -86q-15 69 -89 157zM257 137q33 0 50.5 21.5t17.5 58.5t-17.5 58.5
t-50.5 21.5t-50 -21.5t-17 -58.5t17 -58.5t50 -21.5z" />
    <glyph glyph-name="ntilde" unicode="&#xf1;" horiz-adv-x="535" 
d="M492 0h-169v292q0 54 -49 54q-38 0 -62 -42v-304h-169v483h169v-56q19 27 58 47.5t85 20.5q69 0 103 -36.5t34 -96.5v-362zM318 554q-24 0 -43.5 12t-33 24t-23.5 12q-24 0 -24 -42h-82q0 64 28 99t80 35q24 0 43.5 -12t33 -24t23.5 -12q24 0 24 42h82q0 -64 -28 -99
t-80 -35z" />
    <glyph glyph-name="ograve" unicode="&#xf2;" horiz-adv-x="514" 
d="M257 -12q-113 0 -176.5 73.5t-63.5 180.5t63.5 180t176.5 73t177 -73t64 -180t-64 -180.5t-177 -73.5zM257 137q33 0 50.5 28.5t17.5 76.5t-17.5 76t-50.5 28t-50 -28t-17 -76t17 -76.5t50 -28.5zM317 556h-108l-134 144h142z" />
    <glyph glyph-name="oacute" unicode="&#xf3;" horiz-adv-x="514" 
d="M438 700l-133 -144h-109l100 144h142zM257 -12q-113 0 -176.5 73.5t-63.5 180.5t63.5 180t176.5 73t177 -73t64 -180t-64 -180.5t-177 -73.5zM257 137q33 0 50.5 28.5t17.5 76.5t-17.5 76t-50.5 28t-50 -28t-17 -76t17 -76.5t50 -28.5z" />
    <glyph glyph-name="ocircumflex" unicode="&#xf4;" horiz-adv-x="514" 
d="M408 556h-95l-56 76l-52 -76h-95l74 144h147zM257 -12q-113 0 -176.5 73.5t-63.5 180.5t63.5 180t176.5 73t177 -73t64 -180t-64 -180.5t-177 -73.5zM257 137q33 0 50.5 28.5t17.5 76.5t-17.5 76t-50.5 28t-50 -28t-17 -76t17 -76.5t50 -28.5z" />
    <glyph glyph-name="otilde" unicode="&#xf5;" horiz-adv-x="514" 
d="M257 -12q-113 0 -176.5 73.5t-63.5 180.5t63.5 180t176.5 73t177 -73t64 -180t-64 -180.5t-177 -73.5zM257 137q33 0 50.5 28.5t17.5 76.5t-17.5 76t-50.5 28t-50 -28t-17 -76t17 -76.5t50 -28.5zM307 554q-24 0 -43.5 12t-33 24t-23.5 12q-24 0 -24 -42h-82q0 64 28 99
t80 35q24 0 43.5 -12t33 -24t23.5 -12q24 0 24 42h82q0 -64 -28 -99t-80 -35z" />
    <glyph glyph-name="odieresis" unicode="&#xf6;" horiz-adv-x="514" 
d="M443 617q0 -36 -25 -60.5t-60 -24.5t-60 24.5t-25 60.5q0 35 25 59.5t60 24.5t60 -24.5t25 -59.5zM242 617q0 -35 -24.5 -60t-60.5 -25q-35 0 -60 25t-25 60t25 59.5t60 24.5q36 0 60.5 -24.5t24.5 -59.5zM257 -12q-113 0 -176.5 73.5t-63.5 180.5t63.5 180t176.5 73
t177 -73t64 -180t-64 -180.5t-177 -73.5zM257 137q33 0 50.5 28.5t17.5 76.5t-17.5 76t-50.5 28t-50 -28t-17 -76t17 -76.5t50 -28.5z" />
    <glyph glyph-name="divide" unicode="&#xf7;" horiz-adv-x="443" 
d="M294 495q0 -30 -21 -51.5t-52 -21.5q-30 0 -51 21.5t-21 51.5q0 31 21 51.5t51 20.5q31 0 52 -20.5t21 -51.5zM414 288h-385v99h385v-99zM294 180q0 -30 -21 -51.5t-52 -21.5q-30 0 -51 21.5t-21 51.5t21 51.5t51 21.5q31 0 52 -21.5t21 -51.5z" />
    <glyph glyph-name="oslash" unicode="&#xf8;" horiz-adv-x="514" 
d="M111 0h-92l55 69q-57 69 -57 173q0 107 63.5 180t176.5 73q73 0 128 -33l17 21h93l-55 -69q58 -70 58 -172q0 -107 -64 -180.5t-177 -73.5q-74 0 -129 33zM257 137q33 0 50.5 28.5t17.5 76.5q0 9 -2 25l-97 -122q11 -8 31 -8zM190 242q0 -17 1 -25l96 121q-13 8 -30 8
q-33 0 -50 -28t-17 -76z" />
    <glyph glyph-name="ugrave" unicode="&#xf9;" horiz-adv-x="534" 
d="M492 0h-169v55q-20 -27 -58.5 -47t-84.5 -20q-69 0 -103 36t-34 96v363h169v-293q0 -53 49 -53q37 0 62 42v304h169v-483zM328 556h-108l-134 144h142z" />
    <glyph glyph-name="uacute" unicode="&#xfa;" horiz-adv-x="534" 
d="M448 700l-133 -144h-109l100 144h142zM492 0h-169v55q-20 -27 -58.5 -47t-84.5 -20q-69 0 -103 36t-34 96v363h169v-293q0 -53 49 -53q37 0 62 42v304h169v-483z" />
    <glyph glyph-name="ucircumflex" unicode="&#xfb;" horiz-adv-x="534" 
d="M418 556h-95l-56 76l-52 -76h-95l74 144h147zM492 0h-169v55q-20 -27 -58.5 -47t-84.5 -20q-69 0 -103 36t-34 96v363h169v-293q0 -53 49 -53q37 0 62 42v304h169v-483z" />
    <glyph glyph-name="udieresis" unicode="&#xfc;" horiz-adv-x="534" 
d="M454 617q0 -36 -25 -60.5t-60 -24.5t-60 24.5t-25 60.5q0 35 25 59.5t60 24.5t60 -24.5t25 -59.5zM253 617q0 -35 -24.5 -60t-60.5 -25q-35 0 -60 25t-25 60t25 59.5t60 24.5q36 0 60.5 -24.5t24.5 -59.5zM492 0h-169v55q-20 -27 -58.5 -47t-84.5 -20q-69 0 -103 36
t-34 96v363h169v-293q0 -53 49 -53q37 0 62 42v304h169v-483z" />
    <glyph glyph-name="yacute" unicode="&#xfd;" horiz-adv-x="485" 
d="M46 -188l24 148q11 -7 29 -7q43 0 51 21l6 17l-167 492h179l74 -280l76 280h178l-185 -545q-26 -77 -72.5 -105t-124.5 -29q-44 0 -68 8zM423 700l-133 -144h-109l100 144h142z" />
    <glyph glyph-name="thorn" unicode="&#xfe;" horiz-adv-x="528" 
d="M329 -12q-75 0 -117 64v-236h-169v851h169v-236q42 64 117 64q84 0 133.5 -66t49.5 -187q0 -120 -50 -187t-133 -67zM269 137q33 0 52 28t19 77q0 48 -19 76t-52 28q-37 0 -57 -33v-142q9 -15 25 -24.5t32 -9.5z" />
    <glyph glyph-name="ydieresis" unicode="&#xff;" horiz-adv-x="485" 
d="M46 -188l24 148q11 -7 29 -7q43 0 51 21l6 17l-167 492h179l74 -280l76 280h178l-185 -545q-26 -77 -72.5 -105t-124.5 -29q-44 0 -68 8zM428 617q0 -36 -25 -60.5t-60 -24.5t-60 24.5t-25 60.5q0 35 25 59.5t60 24.5t60 -24.5t25 -59.5zM227 617q0 -35 -24.5 -60
t-60.5 -25q-35 0 -60 25t-25 60t25 59.5t60 24.5q36 0 60.5 -24.5t24.5 -59.5z" />
    <glyph glyph-name="Amacron" unicode="&#x100;" horiz-adv-x="597" 
d="M609 0h-205l-19 86h-173l-19 -86h-205l196 667h229zM348 251l-49 221l-50 -221h99zM456 720h-316v92h316v-92z" />
    <glyph glyph-name="amacron" unicode="&#x101;" horiz-adv-x="506" 
d="M464 0h-169v47q-17 -26 -53.5 -42.5t-73.5 -16.5q-60 0 -106 42.5t-46 117.5q0 77 45 115.5t107 38.5q40 0 75.5 -14t51.5 -39v46q0 29 -21 47t-59 18q-61 0 -118 -46l-57 111q39 36 96.5 53t112.5 17q95 0 155 -43.5t60 -139.5v-312zM236 98q44 0 59 29v36
q-15 29 -59 29q-23 0 -38 -12t-15 -35t15 -35t38 -12zM410 553h-316v92h316v-92z" />
    <glyph glyph-name="Abreve" unicode="&#x102;" horiz-adv-x="597" 
d="M609 0h-205l-19 86h-173l-19 -86h-205l196 667h229zM348 251l-49 221l-50 -221h99zM451 775q-56 -77 -152 -77q-95 0 -153 77l73 57q30 -42 80 -42q51 0 79 42z" />
    <glyph glyph-name="abreve" unicode="&#x103;" horiz-adv-x="506" 
d="M464 0h-169v47q-17 -26 -53.5 -42.5t-73.5 -16.5q-60 0 -106 42.5t-46 117.5q0 77 45 115.5t107 38.5q40 0 75.5 -14t51.5 -39v46q0 29 -21 47t-59 18q-61 0 -118 -46l-57 111q39 36 96.5 53t112.5 17q95 0 155 -43.5t60 -139.5v-312zM236 98q44 0 59 29v36
q-15 29 -59 29q-23 0 -38 -12t-15 -35t15 -35t38 -12zM404 608q-56 -77 -152 -77q-95 0 -153 77l73 57q30 -42 80 -42q51 0 79 42z" />
    <glyph glyph-name="Aogonek" unicode="&#x104;" horiz-adv-x="597" 
d="M604 -96l63 -37q-31 -53 -91 -53q-45 0 -73 22.5t-28 68.5q0 53 39 95h-110l-19 86h-173l-19 -86h-205l196 667h229l196 -667q-57 -35 -57 -88q0 -33 24 -33q19 0 28 25zM348 251l-49 221l-50 -221h99z" />
    <glyph glyph-name="aogonek" unicode="&#x105;" horiz-adv-x="506" 
d="M459 -96l63 -37q-31 -53 -91 -53q-45 0 -73 22.5t-28 68.5q0 53 39 95h-74v47q-17 -26 -53.5 -42.5t-73.5 -16.5q-60 0 -106 42.5t-46 117.5q0 77 45 115.5t107 38.5q40 0 75.5 -14t51.5 -39v46q0 29 -21 47t-59 18q-61 0 -118 -46l-57 111q39 36 96.5 53t112.5 17
q95 0 155 -43.5t60 -139.5v-312q-57 -35 -57 -88q0 -33 24 -33q19 0 28 25zM236 98q44 0 59 29v36q-15 29 -59 29q-23 0 -38 -12t-15 -35t15 -35t38 -12z" />
    <glyph glyph-name="Cacute" unicode="&#x106;" horiz-adv-x="582" 
d="M504 867l-133 -144h-109l100 144h142zM324 -12q-140 0 -223 95.5t-83 249.5q0 155 83 250t223 95q179 0 250 -190l-157 -66q-10 40 -34.5 64.5t-58.5 24.5q-54 0 -83.5 -49t-29.5 -129t29.5 -129t83.5 -49q35 0 60 27t34 68l156 -65q-67 -197 -250 -197z" />
    <glyph glyph-name="cacute" unicode="&#x107;" horiz-adv-x="437" 
d="M439 700l-133 -144h-109l100 144h142zM257 -12q-106 0 -173 70.5t-67 183.5t67 183t173 70q59 0 103.5 -19.5t66.5 -46.5l-80 -116q-30 33 -70 33q-39 0 -63.5 -28t-24.5 -76t25 -76.5t63 -28.5q40 0 70 34l80 -116q-22 -27 -66.5 -47t-103.5 -20z" />
    <glyph glyph-name="Ccircumflex" unicode="&#x108;" horiz-adv-x="582" 
d="M472 723h-95l-56 76l-52 -76h-95l74 144h147zM324 -12q-140 0 -223 95.5t-83 249.5q0 155 83 250t223 95q179 0 250 -190l-157 -66q-10 40 -34.5 64.5t-58.5 24.5q-54 0 -83.5 -49t-29.5 -129t29.5 -129t83.5 -49q35 0 60 27t34 68l156 -65q-67 -197 -250 -197z" />
    <glyph glyph-name="ccircumflex" unicode="&#x109;" horiz-adv-x="437" 
d="M413 556h-95l-56 76l-52 -76h-95l74 144h147zM257 -12q-106 0 -173 70.5t-67 183.5t67 183t173 70q59 0 103.5 -19.5t66.5 -46.5l-80 -116q-30 33 -70 33q-39 0 -63.5 -28t-24.5 -76t25 -76.5t63 -28.5q40 0 70 34l80 -116q-22 -27 -66.5 -47t-103.5 -20z" />
    <glyph glyph-name="Cdotaccent" unicode="&#x10a;" horiz-adv-x="582" 
d="M324 -12q-140 0 -223 95.5t-83 249.5q0 155 83 250t223 95q179 0 250 -190l-157 -66q-10 40 -34.5 64.5t-58.5 24.5q-54 0 -83.5 -49t-29.5 -129t29.5 -129t83.5 -49q35 0 60 27t34 68l156 -65q-67 -197 -250 -197zM324 700q-34 0 -59 25t-25 59q0 35 24.5 60t59.5 25
t59.5 -25t24.5 -60q0 -34 -25 -59t-59 -25z" />
    <glyph glyph-name="cdotaccent" unicode="&#x10b;" horiz-adv-x="437" 
d="M257 -12q-106 0 -173 70.5t-67 183.5t67 183t173 70q59 0 103.5 -19.5t66.5 -46.5l-80 -116q-30 33 -70 33q-39 0 -63.5 -28t-24.5 -76t25 -76.5t63 -28.5q40 0 70 34l80 -116q-22 -27 -66.5 -47t-103.5 -20zM257 533q-35 0 -59.5 24.5t-24.5 59.5t24.5 60t59.5 25
t59.5 -25t24.5 -60t-24.5 -59.5t-59.5 -24.5z" />
    <glyph glyph-name="Ccaron" unicode="&#x10c;" horiz-adv-x="582" 
d="M398 723h-147l-77 144h95l55 -76l53 76h95zM324 -12q-140 0 -223 95.5t-83 249.5q0 155 83 250t223 95q179 0 250 -190l-157 -66q-10 40 -34.5 64.5t-58.5 24.5q-54 0 -83.5 -49t-29.5 -129t29.5 -129t83.5 -49q35 0 60 27t34 68l156 -65q-67 -197 -250 -197z" />
    <glyph glyph-name="ccaron" unicode="&#x10d;" horiz-adv-x="437" 
d="M339 556h-147l-77 144h95l55 -76l53 76h95zM257 -12q-106 0 -173 70.5t-67 183.5t67 183t173 70q59 0 103.5 -19.5t66.5 -46.5l-80 -116q-30 33 -70 33q-39 0 -63.5 -28t-24.5 -76t25 -76.5t63 -28.5q40 0 70 34l80 -116q-22 -27 -66.5 -47t-103.5 -20z" />
    <glyph glyph-name="Dcaron" unicode="&#x10e;" horiz-adv-x="630" 
d="M393 723h-147l-77 144h95l55 -76l53 76h95zM301 0h-253v667h252q145 0 228.5 -90.5t83.5 -242.5t-83 -243t-228 -91zM300 165q56 0 88 45t32 124q0 168 -120 168h-63v-337h63z" />
    <glyph glyph-name="dcaron" unicode="&#x10f;" horiz-adv-x="671" 
d="M677 585q0 -96 -92 -162l-52 42q19 10 40 32t27 43q-4 -3 -18 -3q-27 0 -45 18.5t-18 47.5q0 31 22 53.5t53 22.5q34 0 58.5 -25.5t24.5 -68.5zM486 0h-168v53q-44 -65 -117 -65q-83 0 -133.5 67t-50.5 187q0 118 50.5 185.5t133.5 67.5q77 0 117 -64v236h168v-667z
M259 137q37 0 59 35v141q-22 33 -59 33q-32 0 -51 -28t-19 -76t19 -76.5t51 -28.5z" />
    <glyph glyph-name="Dcroat" unicode="&#x110;" horiz-adv-x="654" 
d="M325 0h-253v260h-63v147h63v260h252q145 0 228.5 -90.5t83.5 -242.5t-83 -243t-228 -91zM324 165q56 0 88 45t32 124q0 168 -120 168h-63v-95h92v-147h-92v-95h63z" />
    <glyph glyph-name="dcroat" unicode="&#x111;" horiz-adv-x="532" 
d="M486 0h-168v53q-44 -65 -117 -65q-83 0 -133.5 67t-50.5 187q0 118 50.5 185.5t133.5 67.5q77 0 117 -64v91h-127v92h127v53h168v-53h44v-92h-44v-522zM259 137q37 0 59 35v141q-22 33 -59 33q-32 0 -51 -28t-19 -76t19 -76.5t51 -28.5z" />
    <glyph glyph-name="Emacron" unicode="&#x112;" 
d="M469 0h-421v667h421v-165h-232v-82h225v-165h-225v-90h232v-165zM414 720h-316v92h316v-92z" />
    <glyph glyph-name="emacron" unicode="&#x113;" horiz-adv-x="489" 
d="M260 -12q-109 0 -176 69.5t-67 184.5q0 108 64.5 180.5t171.5 72.5q104 0 164 -70.5t60 -190.5v-46h-292q5 -29 29 -48.5t65 -19.5q22 0 51 10t45 26l72 -101q-33 -32 -84.5 -49.5t-102.5 -17.5zM317 299q-7 64 -67 64q-59 0 -66 -64h133zM404 553h-316v92h316v-92z" />
    <glyph glyph-name="Ebreve" unicode="&#x114;" 
d="M469 0h-421v667h421v-165h-232v-82h225v-165h-225v-90h232v-165zM408 775q-56 -77 -152 -77q-95 0 -153 77l73 57q30 -42 80 -42q51 0 79 42z" />
    <glyph glyph-name="ebreve" unicode="&#x115;" horiz-adv-x="489" 
d="M260 -12q-109 0 -176 69.5t-67 184.5q0 108 64.5 180.5t171.5 72.5q104 0 164 -70.5t60 -190.5v-46h-292q5 -29 29 -48.5t65 -19.5q22 0 51 10t45 26l72 -101q-33 -32 -84.5 -49.5t-102.5 -17.5zM317 299q-7 64 -67 64q-59 0 -66 -64h133zM407 608q-56 -77 -152 -77
q-95 0 -153 77l73 57q30 -42 80 -42q51 0 79 42z" />
    <glyph glyph-name="Edotaccent" unicode="&#x116;" 
d="M469 0h-421v667h421v-165h-232v-82h225v-165h-225v-90h232v-165zM260 700q-34 0 -59 25t-25 59q0 35 24.5 60t59.5 25t59.5 -25t24.5 -60q0 -34 -25 -59t-59 -25z" />
    <glyph glyph-name="edotaccent" unicode="&#x117;" horiz-adv-x="489" 
d="M260 -12q-109 0 -176 69.5t-67 184.5q0 108 64.5 180.5t171.5 72.5q104 0 164 -70.5t60 -190.5v-46h-292q5 -29 29 -48.5t65 -19.5q22 0 51 10t45 26l72 -101q-33 -32 -84.5 -49.5t-102.5 -17.5zM317 299q-7 64 -67 64q-59 0 -66 -64h133zM253 533q-35 0 -59.5 24.5
t-24.5 59.5t24.5 60t59.5 25t59.5 -25t24.5 -60t-24.5 -59.5t-59.5 -24.5z" />
    <glyph glyph-name="Eogonek" unicode="&#x118;" 
d="M469 0q-57 -35 -57 -88q0 -33 24 -33q19 0 28 25l63 -37q-31 -53 -91 -53q-45 0 -73 22.5t-28 68.5q0 53 39 95h-326v667h421v-165h-232v-82h225v-165h-225v-90h232v-165z" />
    <glyph glyph-name="eogonek" unicode="&#x119;" horiz-adv-x="489" 
d="M340 -96l63 -37q-31 -53 -91 -53q-45 0 -73 22.5t-28 68.5q0 47 29 84q-101 6 -162 74.5t-61 178.5q0 108 64.5 180.5t171.5 72.5q104 0 164 -70.5t60 -190.5v-46h-292q5 -29 29 -48.5t65 -19.5q22 0 51 10t45 26l72 -101q-38 -36 -102 -55q-57 -35 -57 -88q0 -33 24 -33
q19 0 28 25zM317 299q-7 64 -67 64q-59 0 -66 -64h133z" />
    <glyph glyph-name="Ecaron" unicode="&#x11a;" 
d="M333 723h-147l-77 144h95l55 -76l53 76h95zM469 0h-421v667h421v-165h-232v-82h225v-165h-225v-90h232v-165z" />
    <glyph glyph-name="ecaron" unicode="&#x11b;" horiz-adv-x="489" 
d="M327 556h-147l-77 144h95l55 -76l53 76h95zM260 -12q-109 0 -176 69.5t-67 184.5q0 108 64.5 180.5t171.5 72.5q104 0 164 -70.5t60 -190.5v-46h-292q5 -29 29 -48.5t65 -19.5q22 0 51 10t45 26l72 -101q-33 -32 -84.5 -49.5t-102.5 -17.5zM317 299q-7 64 -67 64
q-59 0 -66 -64h133z" />
    <glyph glyph-name="Gcircumflex" unicode="&#x11c;" horiz-adv-x="611" 
d="M473 723h-95l-56 76l-52 -76h-95l74 144h147zM324 -12q-139 0 -222.5 94.5t-83.5 250.5q0 157 84 251t222 94q93 0 155.5 -51t89.5 -129l-155 -69q-11 35 -34 58.5t-56 23.5q-51 0 -82 -44.5t-31 -133.5t31 -133.5t82 -44.5q49 0 76 25v45h-92v166h270v-287
q-105 -116 -254 -116z" />
    <glyph glyph-name="gcircumflex" unicode="&#x11d;" horiz-adv-x="528" 
d="M419 556h-95l-56 76l-52 -76h-95l74 144h147zM231 -196q-120 0 -194 63l62 126q50 -49 123 -49q39 0 67 23t28 75v38q-45 -66 -117 -66q-84 0 -133.5 61t-49.5 179q0 117 49.5 179t133.5 62q77 0 117 -64v52h169v-441q0 -69 -23 -118.5t-63 -74t-81 -35t-88 -10.5z
M259 163q38 0 58 32v119q-20 32 -58 32q-70 0 -70 -92q0 -91 70 -91z" />
    <glyph glyph-name="Gbreve" unicode="&#x11e;" horiz-adv-x="611" 
d="M324 -12q-139 0 -222.5 94.5t-83.5 250.5q0 157 84 251t222 94q93 0 155.5 -51t89.5 -129l-155 -69q-11 35 -34 58.5t-56 23.5q-51 0 -82 -44.5t-31 -133.5t31 -133.5t82 -44.5q49 0 76 25v45h-92v166h270v-287q-105 -116 -254 -116zM477 775q-56 -77 -152 -77
q-95 0 -153 77l73 57q30 -42 80 -42q51 0 79 42z" />
    <glyph glyph-name="gbreve" unicode="&#x11f;" horiz-adv-x="528" 
d="M231 -196q-120 0 -194 63l62 126q50 -49 123 -49q39 0 67 23t28 75v38q-45 -66 -117 -66q-84 0 -133.5 61t-49.5 179q0 117 49.5 179t133.5 62q77 0 117 -64v52h169v-441q0 -69 -23 -118.5t-63 -74t-81 -35t-88 -10.5zM259 163q38 0 58 32v119q-20 32 -58 32
q-70 0 -70 -92q0 -91 70 -91zM414 608q-56 -77 -152 -77q-95 0 -153 77l73 57q30 -42 80 -42q51 0 79 42z" />
    <glyph glyph-name="Gdotaccent" unicode="&#x120;" horiz-adv-x="611" 
d="M324 -12q-139 0 -222.5 94.5t-83.5 250.5q0 157 84 251t222 94q93 0 155.5 -51t89.5 -129l-155 -69q-11 35 -34 58.5t-56 23.5q-51 0 -82 -44.5t-31 -133.5t31 -133.5t82 -44.5q49 0 76 25v45h-92v166h270v-287q-105 -116 -254 -116zM324 700q-34 0 -59 25t-25 59
q0 35 24.5 60t59.5 25t59.5 -25t24.5 -60q0 -34 -25 -59t-59 -25z" />
    <glyph glyph-name="gdotaccent" unicode="&#x121;" horiz-adv-x="528" 
d="M231 -196q-120 0 -194 63l62 126q50 -49 123 -49q39 0 67 23t28 75v38q-45 -66 -117 -66q-84 0 -133.5 61t-49.5 179q0 117 49.5 179t133.5 62q77 0 117 -64v52h169v-441q0 -69 -23 -118.5t-63 -74t-81 -35t-88 -10.5zM259 163q38 0 58 32v119q-20 32 -58 32
q-70 0 -70 -92q0 -91 70 -91zM272 533q-34 0 -59 24.5t-25 59.5t24.5 60t59.5 25t59.5 -25t24.5 -60t-25 -59.5t-59 -24.5z" />
    <glyph glyph-name="Gcommaaccent" unicode="&#x122;" horiz-adv-x="611" 
d="M400 -139q0 -96 -92 -162l-52 42q19 10 40 32t27 43q-5 -3 -18 -3q-27 0 -45 18.5t-18 47.5q0 31 22 53.5t53 22.5q34 0 58.5 -25.5t24.5 -68.5zM324 -12q-139 0 -222.5 94.5t-83.5 250.5q0 157 84 251t222 94q93 0 155.5 -51t89.5 -129l-155 -69q-11 35 -34 58.5
t-56 23.5q-51 0 -82 -44.5t-31 -133.5t31 -133.5t82 -44.5q49 0 76 25v45h-92v166h270v-287q-105 -116 -254 -116z" />
    <glyph glyph-name="gcommaaccent" unicode="&#x123;" horiz-adv-x="528" 
d="M183 612q0 105 88 167l53 -42q-18 -7 -40.5 -27.5t-25.5 -39.5h2q3 1 5 1q27 0 49.5 -20.5t22.5 -50.5q0 -31 -22.5 -53.5t-54.5 -22.5q-28 0 -52.5 20.5t-24.5 67.5zM231 -196q-120 0 -194 63l62 126q50 -49 123 -49q39 0 67 23t28 75v38q-45 -66 -117 -66
q-84 0 -133.5 61t-49.5 179q0 117 49.5 179t133.5 62q77 0 117 -64v52h169v-441q0 -69 -23 -118.5t-63 -74t-81 -35t-88 -10.5zM259 163q38 0 58 32v119q-20 32 -58 32q-70 0 -70 -92q0 -91 70 -91z" />
    <glyph glyph-name="Hcircumflex" unicode="&#x124;" horiz-adv-x="642" 
d="M470 723h-95l-56 76l-52 -76h-95l74 144h147zM594 0h-189v261h-168v-261h-189v667h189v-241h168v241h189v-667z" />
    <glyph glyph-name="hcircumflex" unicode="&#x125;" horiz-adv-x="535" 
d="M417 723h-95l-56 76l-52 -76h-95l74 144h147zM493 0h-169v294q0 52 -50 52q-35 0 -62 -42v-304h-169v667h169v-240q19 27 58 47.5t85 20.5q70 0 104 -35.5t34 -95.5v-364z" />
    <glyph glyph-name="Hbar" unicode="&#x126;" horiz-adv-x="658" 
d="M603 0h-189v261h-168v-261h-189v501h-48v92h48v74h189v-74h168v74h189v-74h45v-92h-45v-501zM246 426h168v75h-168v-75z" />
    <glyph glyph-name="hbar" unicode="&#x127;" horiz-adv-x="542" 
d="M348 522h-129v-95q19 27 58 47.5t85 20.5q70 0 104 -35.5t34 -95.5v-364h-169v294q0 52 -50 52q-35 0 -62 -42v-304h-169v522h-41v92h41v53h169v-53h129v-92z" />
    <glyph glyph-name="Itilde" unicode="&#x128;" horiz-adv-x="285" 
d="M237 0h-189v667h189v-667zM194 721q-24 0 -43.5 12t-33 24t-23.5 12q-24 0 -24 -42h-82q0 64 28 99t80 35q24 0 43.5 -12t33 -24t23.5 -12q24 0 24 42h82q0 -64 -28 -99t-80 -35z" />
    <glyph glyph-name="itilde" unicode="&#x129;" horiz-adv-x="254" 
d="M212 0h-169v483h169v-483zM177 554q-24 0 -43.5 12t-33 24t-23.5 12q-24 0 -24 -42h-82q0 64 28 99t80 35q24 0 43.5 -12t33 -24t23.5 -12q24 0 24 42h82q0 -64 -28 -99t-80 -35z" />
    <glyph glyph-name="Imacron" unicode="&#x12a;" horiz-adv-x="285" 
d="M237 0h-189v667h189v-667zM300 720h-316v92h316v-92z" />
    <glyph glyph-name="imacron" unicode="&#x12b;" horiz-adv-x="254" 
d="M212 0h-169v483h169v-483zM285 553h-316v92h316v-92z" />
    <glyph glyph-name="Ibreve" unicode="&#x12c;" horiz-adv-x="285" 
d="M237 0h-189v667h189v-667zM298 775q-56 -77 -152 -77q-95 0 -153 77l73 57q30 -42 80 -42q51 0 79 42z" />
    <glyph glyph-name="ibreve" unicode="&#x12d;" horiz-adv-x="254" 
d="M212 0h-169v483h169v-483zM280 608q-56 -77 -152 -77q-95 0 -153 77l73 57q30 -42 80 -42q51 0 79 42z" />
    <glyph glyph-name="Iogonek" unicode="&#x12e;" horiz-adv-x="285" 
d="M233 -96l63 -37q-31 -53 -91 -53q-45 0 -73 22.5t-28 68.5q0 53 39 95h-95v667h189v-667h1q-57 -35 -57 -88q0 -33 24 -33q19 0 28 25z" />
    <glyph glyph-name="iogonek" unicode="&#x12f;" horiz-adv-x="254" 
d="M207 -96l63 -37q-31 -53 -91 -53q-45 0 -73 22.5t-28 68.5q0 53 39 95h-74v483h169v-483q-57 -35 -57 -88q0 -33 24 -33q19 0 28 25zM127 522q-40 0 -67.5 27.5t-27.5 67.5t27.5 68t67.5 28t68 -28t28 -68t-28 -67.5t-68 -27.5z" />
    <glyph glyph-name="Idotaccent" unicode="&#x130;" horiz-adv-x="285" 
d="M237 0h-189v667h189v-667zM144 700q-34 0 -59 25t-25 59q0 35 24.5 60t59.5 25t59.5 -25t24.5 -60q0 -34 -25 -59t-59 -25z" />
    <glyph glyph-name="dotlessi" unicode="&#x131;" horiz-adv-x="254" 
d="M212 0h-169v483h169v-483z" />
    <glyph glyph-name="IJ" unicode="&#x132;" horiz-adv-x="722" 
d="M237 0h-189v667h189v-667zM439 -12q-93 0 -149 41l61 149q30 -23 68 -23q30 0 48.5 17.5t18.5 48.5v446h189v-452q0 -114 -63 -170.5t-173 -56.5z" />
    <glyph glyph-name="ij" unicode="&#x133;" horiz-adv-x="508" 
d="M127 522q-40 0 -67.5 27.5t-27.5 67.5t27.5 68t67.5 28t68 -28t28 -68t-28 -67.5t-68 -27.5zM212 0h-169v483h169v-483zM381 522q-40 0 -67.5 27.5t-27.5 67.5t27.5 68t67.5 28t68 -28t28 -68t-28 -67.5t-68 -27.5zM283 -196q-63 0 -105 24l35 129q16 -13 42 -13
q42 0 42 60v479h169v-479q0 -94 -45 -147t-138 -53z" />
    <glyph glyph-name="Jcircumflex" unicode="&#x134;" horiz-adv-x="437" 
d="M446 723h-95l-56 76l-52 -76h-95l74 144h147zM154 -12q-93 0 -149 41l61 149q30 -23 68 -23q30 0 48.5 17.5t18.5 48.5v446h189v-452q0 -114 -63 -170.5t-173 -56.5z" />
    <glyph glyph-name="jcircumflex" unicode="&#x135;" horiz-adv-x="254" 
d="M279 556h-95l-56 76l-52 -76h-95l74 144h147zM23 -196q-59 0 -99 24l35 138q16 -13 42 -13q20 0 31 13.5t11 37.5v479h169v-479q0 -200 -189 -200z" />
    <glyph glyph-name="Kcommaaccent" unicode="&#x136;" horiz-adv-x="607" 
d="M386 -139q0 -96 -92 -162l-52 42q19 10 40 32t27 43q-5 -3 -18 -3q-27 0 -45 18.5t-18 47.5q0 31 22 53.5t53 22.5q34 0 58.5 -25.5t24.5 -68.5zM609 0h-222l-112 228l-38 -67v-161h-189v667h189v-260l142 260h219l-204 -310z" />
    <glyph glyph-name="kcommaaccent" unicode="&#x137;" 
d="M334 -139q0 -96 -92 -162l-52 42q19 10 40 32t27 43q-5 -3 -18 -3q-27 0 -45 18.5t-18 47.5q0 31 22 53.5t53 22.5q34 0 58.5 -25.5t24.5 -68.5zM510 0h-197l-67 161l-34 -55v-106h-169v667h169v-359l92 175h196l-137 -216z" />
    <glyph glyph-name="kgreenlandic" unicode="&#x138;" 
d="M510 0h-197l-67 161l-34 -55v-106h-169v483h169v-175l92 175h196l-137 -216z" />
    <glyph glyph-name="Lacute" unicode="&#x139;" horiz-adv-x="466" 
d="M426 867l-133 -144h-109l100 144h142zM443 0h-395v667h189v-502h206v-165z" />
    <glyph glyph-name="lacute" unicode="&#x13a;" horiz-adv-x="254" 
d="M309 867l-133 -144h-109l100 144h142zM212 0h-169v667h169v-667z" />
    <glyph glyph-name="Lcommaaccent" unicode="&#x13b;" horiz-adv-x="466" 
d="M314 -139q0 -96 -92 -162l-52 42q19 10 40 32t27 43q-5 -3 -18 -3q-27 0 -45 18.5t-18 47.5q0 31 22 53.5t53 22.5q34 0 58.5 -25.5t24.5 -68.5zM443 0h-395v667h189v-502h206v-165z" />
    <glyph glyph-name="lcommaaccent" unicode="&#x13c;" horiz-adv-x="254" 
d="M210 -139q0 -96 -92 -162l-52 42q19 10 40 32t27 43q-5 -3 -18 -3q-27 0 -45 18.5t-18 47.5q0 31 22 53.5t53 22.5q34 0 58.5 -25.5t24.5 -68.5zM212 0h-169v667h169v-667z" />
    <glyph glyph-name="Lcaron" unicode="&#x13d;" horiz-adv-x="466" 
d="M448 587q0 -96 -92 -162l-52 42q19 10 40 32t27 43q-5 -3 -18 -3q-27 0 -45 18.5t-18 47.5q0 31 22 53.5t53 22.5q34 0 58.5 -25.5t24.5 -68.5zM443 0h-395v667h189v-502h206v-165z" />
    <glyph glyph-name="lcaron" unicode="&#x13e;" horiz-adv-x="395" 
d="M412 587q0 -96 -92 -162l-52 42q19 10 40 32t27 43q-5 -3 -18 -3q-27 0 -45 18.5t-18 47.5q0 31 22 53.5t53 22.5q34 0 58.5 -25.5t24.5 -68.5zM212 0h-169v667h169v-667z" />
    <glyph glyph-name="Ldot" unicode="&#x13f;" horiz-adv-x="547" 
d="M443 0h-395v667h189v-502h206v-165zM519 342q0 -41 -30 -71t-71 -30t-71 30t-30 71q0 42 30 72t71 30t71 -30t30 -72z" />
    <glyph glyph-name="ldot" unicode="&#x140;" horiz-adv-x="444" 
d="M212 0h-169v667h169v-667zM450 244q0 -41 -30 -71t-71 -30t-71 30t-30 71q0 42 30 72t71 30t71 -30t30 -72z" />
    <glyph glyph-name="Lslash" unicode="&#x141;" horiz-adv-x="474" 
d="M9 177v150l47 27v313h189v-204l56 33v-151l-56 -32v-148h206v-165h-395v204z" />
    <glyph glyph-name="lslash" unicode="&#x142;" horiz-adv-x="295" 
d="M9 194v119l55 31v323h169v-226l54 31v-118l-54 -31v-323h-169v225z" />
    <glyph glyph-name="Nacute" unicode="&#x143;" horiz-adv-x="641" 
d="M502 867l-133 -144h-109l100 144h142zM593 0h-179l-177 308v-308h-189v667h192l164 -288v288h189v-667z" />
    <glyph glyph-name="nacute" unicode="&#x144;" horiz-adv-x="535" 
d="M449 700l-133 -144h-109l100 144h142zM492 0h-169v292q0 54 -49 54q-38 0 -62 -42v-304h-169v483h169v-56q19 27 58 47.5t85 20.5q69 0 103 -36.5t34 -96.5v-362z" />
    <glyph glyph-name="Ncommaaccent" unicode="&#x145;" horiz-adv-x="641" 
d="M403 -139q0 -96 -92 -162l-52 42q19 10 40 32t27 43q-4 -3 -18 -3q-27 0 -45 18.5t-18 47.5q0 31 22 53.5t53 22.5q34 0 58.5 -25.5t24.5 -68.5zM593 0h-179l-177 308v-308h-189v667h192l164 -288v288h189v-667z" />
    <glyph glyph-name="ncommaaccent" unicode="&#x146;" horiz-adv-x="535" 
d="M350 -139q0 -96 -92 -162l-52 42q19 10 40 32t27 43q-5 -3 -18 -3q-27 0 -45 18.5t-18 47.5q0 31 22 53.5t53 22.5q34 0 58.5 -25.5t24.5 -68.5zM492 0h-169v292q0 54 -49 54q-38 0 -62 -42v-304h-169v483h169v-56q19 27 58 47.5t85 20.5q69 0 103 -36.5t34 -96.5v-362z
" />
    <glyph glyph-name="Ncaron" unicode="&#x147;" horiz-adv-x="641" 
d="M395 723h-147l-77 144h95l55 -76l53 76h95zM593 0h-179l-177 308v-308h-189v667h192l164 -288v288h189v-667z" />
    <glyph glyph-name="ncaron" unicode="&#x148;" horiz-adv-x="535" 
d="M343 556h-147l-77 144h95l55 -76l53 76h95zM492 0h-169v292q0 54 -49 54q-38 0 -62 -42v-304h-169v483h169v-56q19 27 58 47.5t85 20.5q69 0 103 -36.5t34 -96.5v-362z" />
    <glyph glyph-name="napostrophe" unicode="&#x149;" horiz-adv-x="535" 
d="M181 687q0 -96 -92 -162l-52 42q19 10 40 32t27 43q-4 -3 -18 -3q-27 0 -45 18.5t-18 47.5q0 31 22 53.5t53 22.5q34 0 58.5 -25.5t24.5 -68.5zM492 0h-169v292q0 54 -49 54q-38 0 -62 -42v-304h-169v483h169v-56q19 27 58 47.5t85 20.5q69 0 103 -36.5t34 -96.5v-362z
" />
    <glyph glyph-name="Eng" unicode="&#x14a;" horiz-adv-x="641" 
d="M357 -196q-93 0 -149 40l61 148q32 -23 68 -23q55 0 65 51l-165 288v-308h-189v667h192l164 -288v288h189v-636q0 -114 -63 -170.5t-173 -56.5z" />
    <glyph glyph-name="eng" unicode="&#x14b;" horiz-adv-x="535" 
d="M492 362v-358q0 -200 -189 -200q-58 0 -98 24l34 138q17 -13 42 -13q42 0 42 51v288q0 54 -49 54q-38 0 -62 -42v-304h-169v483h169v-56q19 27 58 47.5t85 20.5q69 0 103 -36.5t34 -96.5z" />
    <glyph glyph-name="Omacron" unicode="&#x14c;" horiz-adv-x="644" 
d="M480 720h-316v92h316v-92zM322 -12q-138 0 -221 95.5t-83 249.5t83 249.5t221 95.5t221 -95.5t83 -249.5t-83 -249.5t-221 -95.5zM322 155q53 0 82.5 49.5t29.5 128.5q0 80 -29.5 129t-82.5 49t-82 -49t-29 -129t29 -129t82 -49z" />
    <glyph glyph-name="omacron" unicode="&#x14d;" horiz-adv-x="514" 
d="M416 553h-316v92h316v-92zM257 -12q-113 0 -176.5 73.5t-63.5 180.5t63.5 180t176.5 73t177 -73t64 -180t-64 -180.5t-177 -73.5zM257 137q33 0 50.5 28.5t17.5 76.5t-17.5 76t-50.5 28t-50 -28t-17 -76t17 -76.5t50 -28.5z" />
    <glyph glyph-name="Obreve" unicode="&#x14e;" horiz-adv-x="644" 
d="M322 -12q-138 0 -221 95.5t-83 249.5t83 249.5t221 95.5t221 -95.5t83 -249.5t-83 -249.5t-221 -95.5zM322 155q53 0 82.5 49.5t29.5 128.5q0 80 -29.5 129t-82.5 49t-82 -49t-29 -129t29 -129t82 -49zM476 775q-56 -77 -152 -77q-95 0 -153 77l73 57q30 -42 80 -42
q51 0 79 42z" />
    <glyph glyph-name="obreve" unicode="&#x14f;" horiz-adv-x="514" 
d="M257 -12q-113 0 -176.5 73.5t-63.5 180.5t63.5 180t176.5 73t177 -73t64 -180t-64 -180.5t-177 -73.5zM257 137q33 0 50.5 28.5t17.5 76.5t-17.5 76t-50.5 28t-50 -28t-17 -76t17 -76.5t50 -28.5zM409 608q-56 -77 -152 -77q-95 0 -153 77l73 57q30 -42 80 -42
q51 0 79 42z" />
    <glyph glyph-name="Ohungarumlaut" unicode="&#x150;" horiz-adv-x="644" 
d="M382 867l-99 -144h-90l66 144h123zM530 867l-99 -144h-90l66 144h123zM322 -12q-138 0 -221 95.5t-83 249.5t83 249.5t221 95.5t221 -95.5t83 -249.5t-83 -249.5t-221 -95.5zM322 155q53 0 82.5 49.5t29.5 128.5q0 80 -29.5 129t-82.5 49t-82 -49t-29 -129t29 -129
t82 -49z" />
    <glyph glyph-name="ohungarumlaut" unicode="&#x151;" horiz-adv-x="514" 
d="M318 700l-99 -144h-90l66 144h123zM466 700l-99 -144h-90l66 144h123zM257 -12q-113 0 -176.5 73.5t-63.5 180.5t63.5 180t176.5 73t177 -73t64 -180t-64 -180.5t-177 -73.5zM257 137q33 0 50.5 28.5t17.5 76.5t-17.5 76t-50.5 28t-50 -28t-17 -76t17 -76.5t50 -28.5z
" />
    <glyph glyph-name="OE" unicode="&#x152;" horiz-adv-x="867" 
d="M842 0h-420v35q-22 -22 -59 -34.5t-72 -12.5q-124 0 -198.5 95.5t-74.5 249.5q0 155 74.5 249.5t198.5 94.5q35 0 72 -12t59 -33v35h420v-165h-231v-82h224v-165h-224v-90h231v-165zM422 221v226q-28 63 -95 63q-56 0 -86 -48t-30 -129q0 -80 30 -129t86 -49q66 0 95 66z
" />
    <glyph glyph-name="oe" unicode="&#x153;" horiz-adv-x="797" 
d="M785 188h-292q7 -29 30.5 -48.5t66.5 -19.5q51 0 91 35l74 -100q-33 -32 -84.5 -49.5t-102.5 -17.5q-93 0 -158 72q-60 -72 -153 -72q-113 0 -176.5 73.5t-63.5 180.5t63.5 180t176.5 73q90 0 154 -71q59 71 150 71q104 0 164 -71.5t60 -190.5v-45zM492 299h133
q-7 65 -67 65q-33 0 -48 -19.5t-18 -45.5zM325 242q0 49 -18 76.5t-50 27.5t-49.5 -27t-17.5 -77t17.5 -77.5t49.5 -27.5t50 27.5t18 77.5z" />
    <glyph glyph-name="Racute" unicode="&#x154;" horiz-adv-x="594" 
d="M487 867l-133 -144h-109l100 144h142zM569 0h-209l-75 216h-48v-216h-189v667h294q101 0 162.5 -63.5t61.5 -158.5q0 -137 -100 -194zM312 381q27 0 44.5 16t17.5 45t-17.5 44.5t-44.5 15.5h-75v-121h75z" />
    <glyph glyph-name="racute" unicode="&#x155;" horiz-adv-x="350" 
d="M371 700l-133 -144h-109l100 144h142zM212 0h-169v483h169v-55q17 27 55 48t71 21v-162q-13 5 -33 5q-26 0 -53 -10.5t-40 -28.5v-301z" />
    <glyph glyph-name="Rcommaaccent" unicode="&#x156;" horiz-adv-x="594" 
d="M381 -139q0 -96 -92 -162l-52 42q19 10 40 32t27 43q-5 -3 -18 -3q-27 0 -45 18.5t-18 47.5q0 31 22 53.5t53 22.5q34 0 58.5 -25.5t24.5 -68.5zM569 0h-209l-75 216h-48v-216h-189v667h294q101 0 162.5 -63.5t61.5 -158.5q0 -137 -100 -194zM312 381q27 0 44.5 16
t17.5 45t-17.5 44.5t-44.5 15.5h-75v-121h75z" />
    <glyph glyph-name="rcommaaccent" unicode="&#x157;" horiz-adv-x="350" 
d="M257 -139q0 -96 -92 -162l-52 42q19 10 40 32t27 43q-4 -3 -18 -3q-27 0 -45 18.5t-18 47.5q0 31 22 53.5t53 22.5q34 0 58.5 -25.5t24.5 -68.5zM212 0h-169v483h169v-55q17 27 55 48t71 21v-162q-13 5 -33 5q-26 0 -53 -10.5t-40 -28.5v-301z" />
    <glyph glyph-name="Rcaron" unicode="&#x158;" horiz-adv-x="594" 
d="M374 723h-147l-77 144h95l55 -76l53 76h95zM569 0h-209l-75 216h-48v-216h-189v667h294q101 0 162.5 -63.5t61.5 -158.5q0 -137 -100 -194zM312 381q27 0 44.5 16t17.5 45t-17.5 44.5t-44.5 15.5h-75v-121h75z" />
    <glyph glyph-name="rcaron" unicode="&#x159;" horiz-adv-x="350" 
d="M265 556h-147l-77 144h95l55 -76l53 76h95zM212 0h-169v483h169v-55q17 27 55 48t71 21v-162q-13 5 -33 5q-26 0 -53 -10.5t-40 -28.5v-301z" />
    <glyph glyph-name="Sacute" unicode="&#x15a;" horiz-adv-x="525" 
d="M447 867l-133 -144h-109l100 144h142zM259 -12q-160 0 -255 89l88 144q67 -70 166 -70q27 0 44 11t17 29q0 17 -22 29.5t-54.5 21t-71 25t-71 37.5t-54.5 62.5t-22 97.5q0 87 65.5 150.5t182.5 63.5q136 0 227 -77l-86 -140q-64 54 -148 54q-48 0 -48 -36q0 -16 21.5 -29
t54.5 -22t70.5 -25.5t70.5 -38t54.5 -61.5t21.5 -93q0 -102 -67.5 -162t-183.5 -60z" />
    <glyph glyph-name="sacute" unicode="&#x15b;" horiz-adv-x="436" 
d="M401 700l-133 -144h-109l100 144h142zM216 -12q-63 0 -119.5 20t-89.5 50l66 114q25 -22 66 -38.5t74 -16.5q49 0 49 26q0 12 -24.5 19t-59 15t-69 22t-59 49t-24.5 88q0 66 52 112.5t146 46.5q105 0 188 -61l-63 -111q-20 18 -54 32t-69 14q-18 0 -30 -6.5t-12 -16.5
q0 -11 24.5 -18t59.5 -15.5t70.5 -23t60 -50t24.5 -88.5q0 -72 -56.5 -117.5t-150.5 -45.5z" />
    <glyph glyph-name="Scircumflex" unicode="&#x15c;" horiz-adv-x="525" 
d="M420 723h-95l-56 76l-52 -76h-95l74 144h147zM259 -12q-160 0 -255 89l88 144q67 -70 166 -70q27 0 44 11t17 29q0 17 -22 29.5t-54.5 21t-71 25t-71 37.5t-54.5 62.5t-22 97.5q0 87 65.5 150.5t182.5 63.5q136 0 227 -77l-86 -140q-64 54 -148 54q-48 0 -48 -36
q0 -16 21.5 -29t54.5 -22t70.5 -25.5t70.5 -38t54.5 -61.5t21.5 -93q0 -102 -67.5 -162t-183.5 -60z" />
    <glyph glyph-name="scircumflex" unicode="&#x15d;" horiz-adv-x="436" 
d="M370 556h-95l-56 76l-52 -76h-95l74 144h147zM216 -12q-63 0 -119.5 20t-89.5 50l66 114q25 -22 66 -38.5t74 -16.5q49 0 49 26q0 12 -24.5 19t-59 15t-69 22t-59 49t-24.5 88q0 66 52 112.5t146 46.5q105 0 188 -61l-63 -111q-20 18 -54 32t-69 14q-18 0 -30 -6.5
t-12 -16.5q0 -11 24.5 -18t59.5 -15.5t70.5 -23t60 -50t24.5 -88.5q0 -72 -56.5 -117.5t-150.5 -45.5z" />
    <glyph glyph-name="Scedilla" unicode="&#x15e;" horiz-adv-x="525" 
d="M249 -199q-67 0 -107 33l29 61q37 -29 73 -29q39 0 39 26q0 18 -20 18q-14 0 -24 -12l-56 32l22 61q-123 13 -201 86l88 144q67 -70 166 -70q27 0 44 11t17 29q0 17 -22 29.5t-54.5 21t-71 25t-71 37.5t-54.5 62.5t-22 97.5q0 87 65.5 150.5t182.5 63.5q136 0 227 -77
l-86 -140q-64 54 -148 54q-48 0 -48 -36q0 -16 21.5 -29t54.5 -22t70.5 -25.5t70.5 -38t54.5 -61.5t21.5 -93q0 -97 -62 -156.5t-169 -64.5l-15 -37q15 9 31 9q27 0 46 -20.5t19 -51.5q0 -41 -31 -64.5t-80 -23.5z" />
    <glyph glyph-name="scedilla" unicode="&#x15f;" horiz-adv-x="436" 
d="M213 -199q-67 0 -107 33l29 61q37 -29 73 -29q39 0 39 26q0 18 -20 18q-14 0 -24 -12l-56 32l22 61q-104 12 -162 67l66 114q25 -22 66 -38.5t74 -16.5q49 0 49 26q0 12 -24.5 19t-59 15t-69 22t-59 49t-24.5 88q0 66 52 112.5t146 46.5q105 0 188 -61l-63 -111
q-20 18 -54 32t-69 14q-18 0 -30 -6.5t-12 -16.5q0 -11 24.5 -18t59.5 -15.5t70.5 -23t60 -50t24.5 -88.5q0 -67 -48.5 -111t-131.5 -51l-15 -37q15 9 31 9q27 0 46 -20.5t19 -51.5q0 -41 -31 -64.5t-80 -23.5z" />
    <glyph glyph-name="Scaron" unicode="&#x160;" horiz-adv-x="525" 
d="M346 723h-147l-77 144h95l55 -76l53 76h95zM259 -12q-160 0 -255 89l88 144q67 -70 166 -70q27 0 44 11t17 29q0 17 -22 29.5t-54.5 21t-71 25t-71 37.5t-54.5 62.5t-22 97.5q0 87 65.5 150.5t182.5 63.5q136 0 227 -77l-86 -140q-64 54 -148 54q-48 0 -48 -36
q0 -16 21.5 -29t54.5 -22t70.5 -25.5t70.5 -38t54.5 -61.5t21.5 -93q0 -102 -67.5 -162t-183.5 -60z" />
    <glyph glyph-name="scaron" unicode="&#x161;" horiz-adv-x="436" 
d="M296 556h-147l-77 144h95l55 -76l53 76h95zM216 -12q-63 0 -119.5 20t-89.5 50l66 114q25 -22 66 -38.5t74 -16.5q49 0 49 26q0 12 -24.5 19t-59 15t-69 22t-59 49t-24.5 88q0 66 52 112.5t146 46.5q105 0 188 -61l-63 -111q-20 18 -54 32t-69 14q-18 0 -30 -6.5
t-12 -16.5q0 -11 24.5 -18t59.5 -15.5t70.5 -23t60 -50t24.5 -88.5q0 -72 -56.5 -117.5t-150.5 -45.5z" />
    <glyph glyph-name="Tcommaaccent" unicode="&#x162;" 
d="M333 -139q0 -96 -92 -162l-52 42q19 10 40 32t27 43q-5 -3 -18 -3q-27 0 -45 18.5t-18 47.5q0 31 22 53.5t53 22.5q34 0 58.5 -25.5t24.5 -68.5zM346 0h-190v502h-138v165h465v-165h-137v-502z" />
    <glyph glyph-name="tcommaaccent" unicode="&#x163;" horiz-adv-x="332" 
d="M248 -139q0 -96 -92 -162l-52 42q19 10 40 32t27 43q-5 -3 -18 -3q-27 0 -45 18.5t-18 47.5q0 31 22 53.5t53 22.5q34 0 58.5 -25.5t24.5 -68.5zM220 -12q-150 0 -150 147v202h-61v146h61v132h169v-132h77v-146h-77v-159q0 -41 31 -41q22 0 29 9l29 -131
q-34 -27 -108 -27z" />
    <glyph glyph-name="Tcaron" unicode="&#x164;" 
d="M326 723h-147l-77 144h95l55 -76l53 76h95zM346 0h-190v502h-138v165h465v-165h-137v-502z" />
    <glyph glyph-name="tcaron" unicode="&#x165;" horiz-adv-x="365" 
d="M430 687q0 -96 -92 -162l-52 42q19 10 40 32t27 43q-5 -3 -18 -3q-27 0 -45 18.5t-18 47.5q0 31 22 53.5t53 22.5q34 0 58.5 -25.5t24.5 -68.5zM220 -12q-150 0 -150 147v202h-61v146h61v132h169v-132h77v-146h-77v-159q0 -41 31 -41q22 0 29 9l29 -131q-34 -27 -108 -27
z" />
    <glyph glyph-name="Tbar" unicode="&#x166;" 
d="M346 0h-190v238h-90v92h90v172h-138v165h465v-165h-137v-172h90v-92h-90v-238z" />
    <glyph glyph-name="tbar" unicode="&#x167;" horiz-adv-x="332" 
d="M220 -12q-150 0 -150 147v60h-61v92h61v50h-61v146h61v132h169v-132h77v-146h-77v-50h49v-92h-49v-17q0 -41 31 -41q22 0 29 9l29 -131q-34 -27 -108 -27z" />
    <glyph glyph-name="Utilde" unicode="&#x168;" horiz-adv-x="650" 
d="M325 -12q-127 0 -202 68t-75 188v423h191v-424q0 -42 22.5 -65.5t63.5 -23.5t63.5 23.5t22.5 65.5v424h191v-422q0 -120 -75 -188.5t-202 -68.5zM376 721q-24 0 -43.5 12t-33 24t-23.5 12q-24 0 -24 -42h-82q0 64 28 99t80 35q24 0 43.5 -12t33 -24t23.5 -12q24 0 24 42
h82q0 -64 -28 -99t-80 -35z" />
    <glyph glyph-name="utilde" unicode="&#x169;" horiz-adv-x="534" 
d="M492 0h-169v55q-20 -27 -58.5 -47t-84.5 -20q-69 0 -103 36t-34 96v363h169v-293q0 -53 49 -53q37 0 62 42v304h169v-483zM317 554q-24 0 -43.5 12t-33 24t-23.5 12q-24 0 -24 -42h-82q0 64 28 99t80 35q24 0 43.5 -12t33 -24t23.5 -12q24 0 24 42h82q0 -64 -28 -99
t-80 -35z" />
    <glyph glyph-name="Umacron" unicode="&#x16a;" horiz-adv-x="650" 
d="M325 -12q-127 0 -202 68t-75 188v423h191v-424q0 -42 22.5 -65.5t63.5 -23.5t63.5 23.5t22.5 65.5v424h191v-422q0 -120 -75 -188.5t-202 -68.5zM485 720h-316v92h316v-92z" />
    <glyph glyph-name="umacron" unicode="&#x16b;" horiz-adv-x="534" 
d="M492 0h-169v55q-20 -27 -58.5 -47t-84.5 -20q-69 0 -103 36t-34 96v363h169v-293q0 -53 49 -53q37 0 62 42v304h169v-483zM425 553h-316v92h316v-92z" />
    <glyph glyph-name="Ubreve" unicode="&#x16c;" horiz-adv-x="650" 
d="M325 -12q-127 0 -202 68t-75 188v423h191v-424q0 -42 22.5 -65.5t63.5 -23.5t63.5 23.5t22.5 65.5v424h191v-422q0 -120 -75 -188.5t-202 -68.5zM479 775q-56 -77 -152 -77q-95 0 -153 77l73 57q30 -42 80 -42q51 0 79 42z" />
    <glyph glyph-name="ubreve" unicode="&#x16d;" horiz-adv-x="534" 
d="M492 0h-169v55q-20 -27 -58.5 -47t-84.5 -20q-69 0 -103 36t-34 96v363h169v-293q0 -53 49 -53q37 0 62 42v304h169v-483zM422 608q-56 -77 -152 -77q-95 0 -153 77l73 57q30 -42 80 -42q51 0 79 42z" />
    <glyph glyph-name="Uring" unicode="&#x16e;" horiz-adv-x="650" 
d="M328 687q-43 0 -73.5 30.5t-30.5 73.5t30.5 73t73.5 30q42 0 71.5 -30t29.5 -73t-29.5 -73.5t-71.5 -30.5zM328 758q13 0 22.5 9.5t9.5 23.5t-9.5 23.5t-22.5 9.5q-14 0 -23.5 -10t-9.5 -23t9.5 -23t23.5 -10zM325 -12q-127 0 -202 68t-75 188v423h191v-424
q0 -42 22.5 -65.5t63.5 -23.5t63.5 23.5t22.5 65.5v424h191v-422q0 -120 -75 -188.5t-202 -68.5z" />
    <glyph glyph-name="uring" unicode="&#x16f;" horiz-adv-x="534" 
d="M268 523q-43 0 -73.5 30.5t-30.5 73.5t30.5 73t73.5 30q42 0 71.5 -30t29.5 -73t-29.5 -73.5t-71.5 -30.5zM268 594q13 0 22.5 9.5t9.5 23.5t-9.5 23.5t-22.5 9.5q-14 0 -23.5 -10t-9.5 -23t9.5 -23t23.5 -10zM492 0h-169v55q-20 -27 -58.5 -47t-84.5 -20q-69 0 -103 36
t-34 96v363h169v-293q0 -53 49 -53q37 0 62 42v304h169v-483z" />
    <glyph glyph-name="Uhungarumlaut" unicode="&#x170;" horiz-adv-x="650" 
d="M325 -12q-127 0 -202 68t-75 188v423h191v-424q0 -42 22.5 -65.5t63.5 -23.5t63.5 23.5t22.5 65.5v424h191v-422q0 -120 -75 -188.5t-202 -68.5zM387 867l-99 -144h-90l66 144h123zM535 867l-99 -144h-90l66 144h123z" />
    <glyph glyph-name="uhungarumlaut" unicode="&#x171;" horiz-adv-x="534" 
d="M492 0h-169v55q-20 -27 -58.5 -47t-84.5 -20q-69 0 -103 36t-34 96v363h169v-293q0 -53 49 -53q37 0 62 42v304h169v-483zM327 700l-99 -144h-90l66 144h123zM475 700l-99 -144h-90l66 144h123z" />
    <glyph glyph-name="Uogonek" unicode="&#x172;" horiz-adv-x="650" 
d="M416 -96l63 -37q-31 -53 -91 -53q-45 0 -73 22.5t-28 68.5q0 45 29 83q-123 3 -195.5 71t-72.5 185v423h191v-424q0 -42 22.5 -65.5t63.5 -23.5t63.5 23.5t22.5 65.5v424h191v-422q0 -95 -48 -158.5t-133 -86.5q-57 -35 -57 -88q0 -33 24 -33q19 0 28 25z" />
    <glyph glyph-name="uogonek" unicode="&#x173;" horiz-adv-x="534" 
d="M492 0h-1q-57 -35 -57 -88q0 -33 24 -33q19 0 28 25l63 -37q-31 -53 -91 -53q-45 0 -73 22.5t-28 68.5q0 53 39 95h-73v55q-20 -27 -58.5 -47t-84.5 -20q-69 0 -103 36t-34 96v363h169v-293q0 -53 49 -53q37 0 62 42v304h169v-483z" />
    <glyph glyph-name="Wcircumflex" unicode="&#x174;" horiz-adv-x="819" 
d="M559 723h-95l-56 76l-52 -76h-95l74 144h147zM667 0h-194l-63 362l-64 -362h-193l-157 667h202l63 -385l77 385h143l78 -385l62 385h202z" />
    <glyph glyph-name="wcircumflex" unicode="&#x175;" horiz-adv-x="740" 
d="M520 556h-95l-56 76l-52 -76h-95l74 144h147zM619 0h-181l-68 270l-68 -270h-181l-129 483h174l58 -269l67 269h153l72 -269l57 269h174z" />
    <glyph glyph-name="Ycircumflex" unicode="&#x176;" horiz-adv-x="577" 
d="M439 723h-95l-56 76l-52 -76h-95l74 144h147zM384 0h-190v267l-207 400h207l95 -228l94 228h206l-205 -400v-267z" />
    <glyph glyph-name="ycircumflex" unicode="&#x177;" horiz-adv-x="485" 
d="M46 -188l24 148q11 -7 29 -7q43 0 51 21l6 17l-167 492h179l74 -280l76 280h178l-185 -545q-26 -77 -72.5 -105t-124.5 -29q-44 0 -68 8zM392 556h-95l-56 76l-52 -76h-95l74 144h147z" />
    <glyph glyph-name="Ydieresis" unicode="&#x178;" horiz-adv-x="577" 
d="M475 784q0 -36 -25 -60.5t-60 -24.5t-60 24.5t-25 60.5q0 35 25 59.5t60 24.5t60 -24.5t25 -59.5zM274 784q0 -35 -24.5 -60t-60.5 -25q-35 0 -60 25t-25 60t25 59.5t60 24.5q36 0 60.5 -24.5t24.5 -59.5zM384 0h-190v267l-207 400h207l95 -228l94 228h206l-205 -400
v-267z" />
    <glyph glyph-name="Zacute" unicode="&#x179;" horiz-adv-x="506" 
d="M409 867l-133 -144h-109l100 144h142zM475 0h-444v154l204 348h-204v165h437v-150l-206 -352h213v-165z" />
    <glyph glyph-name="zacute" unicode="&#x17a;" horiz-adv-x="427" 
d="M395 700l-133 -144h-109l100 144h142zM401 0h-375v124l153 213h-153v146h371v-118l-155 -218h159v-147z" />
    <glyph glyph-name="Zdotaccent" unicode="&#x17b;" horiz-adv-x="506" 
d="M475 0h-444v154l204 348h-204v165h437v-150l-206 -352h213v-165zM248 700q-34 0 -59 25t-25 59q0 35 24.5 60t59.5 25t59.5 -25t24.5 -60q0 -34 -25 -59t-59 -25z" />
    <glyph glyph-name="zdotaccent" unicode="&#x17c;" horiz-adv-x="427" 
d="M401 0h-375v124l153 213h-153v146h371v-118l-155 -218h159v-147zM212 533q-34 0 -59 24.5t-25 59.5t24.5 60t59.5 25t59.5 -25t24.5 -60t-25 -59.5t-59 -24.5z" />
    <glyph glyph-name="Zcaron" unicode="&#x17d;" horiz-adv-x="506" 
d="M329 723h-147l-77 144h95l55 -76l53 76h95zM475 0h-444v154l204 348h-204v165h437v-150l-206 -352h213v-165z" />
    <glyph glyph-name="zcaron" unicode="&#x17e;" horiz-adv-x="427" 
d="M285 556h-147l-77 144h95l55 -76l53 76h95zM401 0h-375v124l153 213h-153v146h371v-118l-155 -218h159v-147z" />
    <glyph glyph-name="longs" unicode="&#x17f;" horiz-adv-x="323" 
d="M239 0h-169v337h-61v146h61v21q0 80 45.5 126.5t124.5 46.5q83 0 125 -39l-49 -110q-15 16 -39 16q-16 0 -27 -11t-11 -29v-504z" />
    <glyph glyph-name="florin" unicode="&#x192;" horiz-adv-x="454" 
d="M190 -161h-193l86 388h-39v146h71l31 143q16 71 74.5 116t131.5 45q79 0 119 -35l-57 -145q-14 15 -35 15q-38 0 -49 -44l-21 -95h77v-146h-109z" />
    <glyph glyph-name="Ohorn" unicode="&#x1a0;" horiz-adv-x="644" 
d="M322 -12q-138 0 -221 95.5t-83 249.5t83 249.5t221 95.5q141 0 225 -101q28 25 37 51q-3 -3 -16 -3q-24 0 -39.5 16t-15.5 43t19.5 46.5t45.5 19.5q31 0 52.5 -22.5t21.5 -60.5q0 -81 -73 -136q47 -86 47 -198q0 -154 -83 -249.5t-221 -95.5zM322 155q53 0 82.5 49.5
t29.5 128.5q0 80 -29.5 129t-82.5 49t-82 -49t-29 -129t29 -129t82 -49z" />
    <glyph glyph-name="ohorn" unicode="&#x1a1;" horiz-adv-x="514" 
d="M513 534q0 -75 -65 -130q50 -68 50 -162q0 -107 -64 -180.5t-177 -73.5t-176.5 73.5t-63.5 180.5t63.5 180t176.5 73q91 0 153 -51q27 23 36 50q-4 -3 -16 -3q-24 0 -39.5 16.5t-15.5 42.5q0 28 19 47t46 19q30 0 51.5 -22.5t21.5 -59.5zM257 137q33 0 50.5 28.5
t17.5 76.5t-17.5 76t-50.5 28t-50 -28t-17 -76t17 -76.5t50 -28.5z" />
    <glyph glyph-name="Uhorn" unicode="&#x1af;" horiz-adv-x="650" 
d="M703 726q0 -44 -26 -86t-75 -69v-326q0 -120 -75 -188.5t-202 -68.5t-202 68t-75 188v423h191v-424q0 -42 22.5 -65.5t63.5 -23.5t63.5 23.5t22.5 65.5v424h191v-28q26 24 33 47q-3 -3 -16 -3q-24 0 -39.5 16t-15.5 43t19.5 46.5t45.5 19.5q31 0 52.5 -22t21.5 -60z" />
    <glyph glyph-name="uhorn" unicode="&#x1b0;" horiz-adv-x="534" 
d="M492 0h-169v55q-20 -27 -58.5 -47t-84.5 -20q-69 0 -103 36t-34 96v363h169v-293q0 -53 49 -53q37 0 62 42v304h149q12 14 17 30q-5 -3 -16 -3q-24 0 -39.5 16t-15.5 43t19 46.5t46 19.5q30 0 51.5 -22.5t21.5 -60.5q0 -75 -64 -130v-422z" />
    <glyph glyph-name="AEacute" unicode="&#x1fc;" horiz-adv-x="824" 
d="M657 867l-133 -144h-109l100 144h142zM800 0h-421v86h-155l-33 -86h-206l314 667h501v-165h-232v-82h225v-165h-225v-90h232v-165zM379 251v221l-87 -221h87z" />
    <glyph glyph-name="aeacute" unicode="&#x1fd;" horiz-adv-x="766" 
d="M561 700l-133 -144h-109l100 144h142zM753 188h-287q16 -66 94 -66q51 0 89 36l74 -103q-33 -32 -83.5 -49.5t-98.5 -17.5q-96 0 -157 67q-72 -67 -178 -67q-83 0 -136.5 40.5t-53.5 116.5q0 75 44 116t110 41q38 0 75 -14t55 -39v46q0 29 -22 47t-61 18q-61 0 -120 -46
l-57 111q39 35 95.5 52.5t107.5 17.5q98 0 142 -56q56 56 152 56q98 0 157 -71.5t59 -190.5v-45zM465 299h128q-7 64 -64 64t-64 -64zM300 157v6q-17 29 -63 29q-24 0 -40.5 -11t-16.5 -29q0 -20 15 -30t36 -10q28 0 48.5 14t20.5 31z" />
    <glyph glyph-name="Oslashacute" unicode="&#x1fe;" horiz-adv-x="644" 
d="M503 867l-133 -144h-109l100 144h142zM322 -12q-89 0 -159 42l-21 -30h-117l66 95q-73 93 -73 238q0 154 83 249.5t221 95.5q85 0 150 -38l19 27h117l-62 -88q80 -96 80 -246q0 -154 -83 -249.5t-221 -95.5zM322 155q53 0 82.5 49.5t29.5 128.5q0 38 -8 73l-162 -231
q25 -20 58 -20zM211 333q0 -37 5 -60l156 223q-22 15 -50 15q-53 0 -82 -49t-29 -129z" />
    <glyph glyph-name="oslashacute" unicode="&#x1ff;" horiz-adv-x="514" 
d="M438 700l-133 -144h-109l100 144h142zM111 0h-92l55 69q-57 69 -57 173q0 107 63.5 180t176.5 73q73 0 128 -33l17 21h93l-55 -69q58 -70 58 -172q0 -107 -64 -180.5t-177 -73.5q-74 0 -129 33zM257 137q33 0 50.5 28.5t17.5 76.5q0 9 -2 25l-97 -122q11 -8 31 -8z
M190 242q0 -17 1 -25l96 121q-13 8 -30 8q-33 0 -50 -28t-17 -76z" />
    <glyph glyph-name="Scommaaccent" unicode="&#x218;" horiz-adv-x="525" 
d="M343 -139q0 -96 -92 -162l-52 42q19 10 40 32t27 43q-4 -3 -18 -3q-27 0 -45 18.5t-18 47.5q0 31 22 53.5t53 22.5q34 0 58.5 -25.5t24.5 -68.5zM259 -12q-160 0 -255 89l88 144q67 -70 166 -70q27 0 44 11t17 29q0 17 -22 29.5t-54.5 21t-71 25t-71 37.5t-54.5 62.5
t-22 97.5q0 87 65.5 150.5t182.5 63.5q136 0 227 -77l-86 -140q-64 54 -148 54q-48 0 -48 -36q0 -16 21.5 -29t54.5 -22t70.5 -25.5t70.5 -38t54.5 -61.5t21.5 -93q0 -102 -67.5 -162t-183.5 -60z" />
    <glyph glyph-name="scommaaccent" unicode="&#x219;" horiz-adv-x="436" 
d="M305 -139q0 -96 -92 -162l-52 42q19 10 40 32t27 43q-4 -3 -18 -3q-27 0 -45 18.5t-18 47.5q0 31 22 53.5t53 22.5q34 0 58.5 -25.5t24.5 -68.5zM216 -12q-63 0 -119.5 20t-89.5 50l66 114q25 -22 66 -38.5t74 -16.5q49 0 49 26q0 12 -24.5 19t-59 15t-69 22t-59 49
t-24.5 88q0 66 52 112.5t146 46.5q105 0 188 -61l-63 -111q-20 18 -54 32t-69 14q-18 0 -30 -6.5t-12 -16.5q0 -11 24.5 -18t59.5 -15.5t70.5 -23t60 -50t24.5 -88.5q0 -72 -56.5 -117.5t-150.5 -45.5z" />
    <glyph glyph-name="uni021A" unicode="&#x21a;" 
d="M333 -139q0 -96 -92 -162l-52 42q19 10 40 32t27 43q-5 -3 -18 -3q-27 0 -45 18.5t-18 47.5q0 31 22 53.5t53 22.5q34 0 58.5 -25.5t24.5 -68.5zM346 0h-190v502h-138v165h465v-165h-137v-502z" />
    <glyph glyph-name="uni021B" unicode="&#x21b;" horiz-adv-x="332" 
d="M248 -139q0 -96 -92 -162l-52 42q19 10 40 32t27 43q-5 -3 -18 -3q-27 0 -45 18.5t-18 47.5q0 31 22 53.5t53 22.5q34 0 58.5 -25.5t24.5 -68.5zM220 -12q-150 0 -150 147v202h-61v146h61v132h169v-132h77v-146h-77v-159q0 -41 31 -41q22 0 29 9l29 -131
q-34 -27 -108 -27z" />
    <glyph glyph-name="uni0237" unicode="&#x237;" horiz-adv-x="254" 
d="M23 -196q-59 0 -99 24l35 138q16 -13 42 -13q20 0 31 13.5t11 37.5v479h169v-479q0 -200 -189 -200z" />
    <glyph glyph-name="hsuperior" unicode="&#x2b0;" horiz-adv-x="379" 
d="M344 326h-119v188q0 32 -33 32q-22 0 -39 -24v-196h-118v434h118v-155q33 43 97 43q45 0 69.5 -23.5t24.5 -65.5v-233z" />
    <glyph glyph-name="uni02BC" unicode="&#x2bc;" horiz-adv-x="277" 
d="M246 554q0 -127 -121 -213l-69 56q25 12 52 40.5t36 55.5q-8 -4 -24 -4q-35 0 -59 25t-24 64q0 41 29 70t70 29q46 0 78 -33.5t32 -89.5z" />
    <glyph glyph-name="circumflex" unicode="&#x2c6;" horiz-adv-x="298" 
d="M298 556h-95l-56 76l-52 -76h-95l74 144h147z" />
    <glyph glyph-name="caron" unicode="&#x2c7;" horiz-adv-x="298" 
d="M224 556h-147l-77 144h95l55 -76l53 76h95z" />
    <glyph glyph-name="uni02C9" unicode="&#x2c9;" horiz-adv-x="316" 
d="M316 591h-316v92h316v-92z" />
    <glyph glyph-name="uni02CB" unicode="&#x2cb;" horiz-adv-x="242" 
d="M242 556h-108l-134 144h142z" />
    <glyph glyph-name="breve" unicode="&#x2d8;" horiz-adv-x="305" 
d="M305 608q-56 -77 -152 -77q-95 0 -153 77l73 57q30 -42 80 -42q51 0 79 42z" />
    <glyph glyph-name="dotaccent" unicode="&#x2d9;" horiz-adv-x="224" 
d="M112 533q-34 0 -59 24.5t-25 59.5t24.5 60t59.5 25t59.5 -25t24.5 -60t-25 -59.5t-59 -24.5z" />
    <glyph glyph-name="ring" unicode="&#x2da;" horiz-adv-x="205" 
d="M104 523q-43 0 -73.5 30.5t-30.5 73.5t30.5 73t73.5 30q42 0 71.5 -30t29.5 -73t-29.5 -73.5t-71.5 -30.5zM104 594q13 0 22.5 9.5t9.5 23.5t-9.5 23.5t-22.5 9.5q-14 0 -23.5 -10t-9.5 -23t9.5 -23t23.5 -10z" />
    <glyph glyph-name="ogonek" unicode="&#x2db;" horiz-adv-x="192" 
d="M129 -96l63 -37q-31 -53 -91 -53q-45 0 -73 22.5t-28 68.5q0 73 80 131l54 -36q-57 -35 -57 -88q0 -33 24 -33q19 0 28 25z" />
    <glyph glyph-name="tilde" unicode="&#x2dc;" horiz-adv-x="314" 
d="M206 554q-24 0 -43.5 12t-33 24t-23.5 12q-24 0 -24 -42h-82q0 64 28 99t80 35q24 0 43.5 -12t33 -24t23.5 -12q24 0 24 42h82q0 -64 -28 -99t-80 -35z" />
    <glyph glyph-name="hungarumlaut" unicode="&#x2dd;" horiz-adv-x="337" 
d="M189 700l-99 -144h-90l66 144h123zM337 700l-99 -144h-90l66 144h123z" />
    <glyph glyph-name="hookabovecomb" unicode="&#x309;" horiz-adv-x="192" 
d="M71 718l-56 14q16 58 79 58q34 0 56 -18.5t22 -54.5q0 -22 -12 -50h-63q15 20 15 46t-19 26q-14 0 -22 -21z" />
    <glyph glyph-name="uni037E" unicode="&#x37e;" horiz-adv-x="276" 
d="M138 287q-41 0 -71 31t-30 72t30 70.5t71 29.5t71 -29.5t30 -70.5t-30 -72t-71 -31zM245 68q0 -128 -120 -213l-69 56q25 12 52 41t36 56q-10 -4 -25 -4q-35 0 -58.5 24.5t-23.5 63.5q0 41 29 70.5t69 29.5q46 0 78 -33.5t32 -90.5z" />
    <glyph glyph-name="tonos" unicode="&#x384;" horiz-adv-x="247" 
d="M186 544h-71l22 221h128z" />
    <glyph glyph-name="dieresistonos" unicode="&#x385;" horiz-adv-x="535" 
d="M282 544h-70l21 221h129zM513 617q0 -36 -25 -60.5t-61 -24.5q-35 0 -59.5 24.5t-24.5 60.5q0 35 24.5 59.5t59.5 24.5q36 0 61 -24.5t25 -59.5zM191 617q0 -35 -24.5 -60t-59.5 -25t-60 25t-25 60t25 59.5t60 24.5t59.5 -24.5t24.5 -59.5z" />
    <glyph glyph-name="Alphatonos" unicode="&#x386;" horiz-adv-x="597" 
d="M111 544h-71l22 221h128zM609 0h-205l-19 86h-173l-19 -86h-205l196 667h229zM348 251l-49 221l-50 -221h99z" />
    <glyph glyph-name="Epsilontonos" unicode="&#x388;" horiz-adv-x="568" 
d="M59 544h-71l22 221h128zM536 0h-421v667h421v-165h-232v-82h225v-165h-225v-90h232v-165z" />
    <glyph glyph-name="Etatonos" unicode="&#x389;" horiz-adv-x="709" 
d="M59 544h-71l22 221h128zM661 0h-189v261h-168v-261h-189v667h189v-241h168v241h189v-667z" />
    <glyph glyph-name="Iotatonos" unicode="&#x38a;" horiz-adv-x="352" 
d="M59 544h-71l22 221h128zM304 0h-189v667h189v-667z" />
    <glyph glyph-name="Omicrontonos" unicode="&#x38c;" horiz-adv-x="662" 
d="M61 544h-71l22 221h128zM340 -12q-138 0 -221 95.5t-83 249.5t83 249.5t221 95.5t221 -95.5t83 -249.5t-83 -249.5t-221 -95.5zM340 155q53 0 82.5 49.5t29.5 128.5q0 80 -29.5 129t-82.5 49t-82 -49t-29 -129t29 -129t82 -49z" />
    <glyph glyph-name="Upsilontonos" unicode="&#x38e;" horiz-adv-x="694" 
d="M58 544h-71l22 221h128zM501 0h-190v267l-207 400h207l95 -228l94 228h206l-205 -400v-267z" />
    <glyph glyph-name="Omegatonos" unicode="&#x38f;" horiz-adv-x="671" 
d="M61 544h-71l22 221h128zM61 165h91q-105 91 -105 214q0 137 82.5 218t220.5 81q140 0 222 -80.5t82 -218.5q0 -123 -106 -214h92v-165h-253v165q37 18 56 68.5t19 100.5q0 77 -26 126.5t-86 49.5q-59 0 -85 -49.5t-26 -126.5q0 -51 19 -101t55 -68v-165h-252v165z" />
    <glyph glyph-name="iotadieresistonos" unicode="&#x390;" horiz-adv-x="269" 
d="M149 544h-70l21 221h129zM380 617q0 -36 -25 -60.5t-61 -24.5q-35 0 -59.5 24.5t-24.5 60.5q0 35 24.5 59.5t59.5 24.5q36 0 61 -24.5t25 -59.5zM58 617q0 -35 -24.5 -60t-59.5 -25t-60 25t-25 60t25 59.5t60 24.5t59.5 -24.5t24.5 -59.5zM193 -12q-150 0 -150 147v348
h169v-317q0 -29 28 -29q8 0 16 3l11 -142q-28 -10 -74 -10z" />
    <glyph glyph-name="Alpha" unicode="&#x391;" horiz-adv-x="597" 
d="M609 0h-205l-19 86h-173l-19 -86h-205l196 667h229zM348 251l-49 221l-50 -221h99z" />
    <glyph glyph-name="Beta" unicode="&#x392;" horiz-adv-x="600" 
d="M391 0h-343v667h331q93 0 140 -50.5t47 -119.5q0 -61 -30.5 -101t-80.5 -52q53 -8 87.5 -54t34.5 -109q0 -77 -47 -129t-139 -52zM331 418q20 0 31.5 12t11.5 33q0 20 -11.5 31.5t-31.5 11.5h-94v-88h94zM336 161q23 0 36 12.5t13 35.5q0 22 -13 35t-36 13h-99v-96h99z
" />
    <glyph glyph-name="Gamma" unicode="&#x393;" horiz-adv-x="496" 
d="M237 0h-189v667h421v-165h-232v-502z" />
    <glyph glyph-name="uni0394" unicode="&#x394;" horiz-adv-x="600" 
d="M612 0h-624l198 667h228zM369 165l-69 307l-69 -307h138z" />
    <glyph glyph-name="Epsilon" unicode="&#x395;" 
d="M469 0h-421v667h421v-165h-232v-82h225v-165h-225v-90h232v-165z" />
    <glyph glyph-name="Zeta" unicode="&#x396;" horiz-adv-x="506" 
d="M475 0h-444v154l204 348h-204v165h437v-150l-206 -352h213v-165z" />
    <glyph glyph-name="Eta" unicode="&#x397;" horiz-adv-x="642" 
d="M594 0h-189v261h-168v-261h-189v667h189v-241h168v241h189v-667z" />
    <glyph glyph-name="Theta" unicode="&#x398;" horiz-adv-x="644" 
d="M404 255h-164v165h164v-165zM322 -12q-138 0 -221 95.5t-83 249.5t83 249.5t221 95.5t221 -95.5t83 -249.5t-83 -249.5t-221 -95.5zM322 155q53 0 82.5 49.5t29.5 128.5q0 80 -29.5 129t-82.5 49t-82 -49t-29 -129t29 -129t82 -49z" />
    <glyph glyph-name="Iota" unicode="&#x399;" horiz-adv-x="285" 
d="M237 0h-189v667h189v-667z" />
    <glyph glyph-name="Kappa" unicode="&#x39a;" horiz-adv-x="598" 
d="M609 0h-222l-112 228l-38 -67v-161h-189v667h189v-260l142 260h219l-204 -310z" />
    <glyph glyph-name="Lambda" unicode="&#x39b;" horiz-adv-x="597" 
d="M609 0h-205l-105 472l-106 -472h-205l196 667h229z" />
    <glyph glyph-name="Mu" unicode="&#x39c;" horiz-adv-x="788" 
d="M740 0h-188v361l-122 -361h-72l-121 361v-361h-189v667h249l97 -294l99 294h247v-667z" />
    <glyph glyph-name="Nu" unicode="&#x39d;" horiz-adv-x="641" 
d="M593 0h-179l-177 308v-308h-189v667h192l164 -288v288h189v-667z" />
    <glyph glyph-name="Xi" unicode="&#x39e;" horiz-adv-x="529" 
d="M497 502h-465v165h465v-165zM497 0h-464v165h464v-165zM490 255h-451v165h451v-165z" />
    <glyph glyph-name="Omicron" unicode="&#x39f;" horiz-adv-x="644" 
d="M322 -12q-138 0 -221 95.5t-83 249.5t83 249.5t221 95.5t221 -95.5t83 -249.5t-83 -249.5t-221 -95.5zM322 155q53 0 82.5 49.5t29.5 128.5q0 80 -29.5 129t-82.5 49t-82 -49t-29 -129t29 -129t82 -49z" />
    <glyph glyph-name="Pi" unicode="&#x3a0;" horiz-adv-x="642" 
d="M594 0h-189v502h-168v-502h-189v667h546v-667z" />
    <glyph glyph-name="Rho" unicode="&#x3a1;" horiz-adv-x="579" 
d="M237 0h-189v667h289q110 0 169.5 -65t59.5 -161t-60 -160.5t-169 -64.5h-100v-216zM314 381q27 0 43.5 16t16.5 45t-16.5 44.5t-43.5 15.5h-77v-121h77z" />
    <glyph glyph-name="Sigma" unicode="&#x3a3;" horiz-adv-x="498" 
d="M251 502l139 -161l-146 -176h223v-165h-435v169l142 172l-141 162v164h434v-165h-216z" />
    <glyph glyph-name="Tau" unicode="&#x3a4;" 
d="M346 0h-190v502h-138v165h465v-165h-137v-502z" />
    <glyph glyph-name="Upsilon" unicode="&#x3a5;" horiz-adv-x="577" 
d="M384 0h-190v267l-207 400h207l95 -228l94 228h206l-205 -400v-267z" />
    <glyph glyph-name="Phi" unicode="&#x3a6;" horiz-adv-x="815" 
d="M502 0h-189v69q-144 16 -219.5 84.5t-75.5 179.5t75.5 179t219.5 85v70h189v-70q144 -16 219.5 -84.5t75.5 -179.5t-75.5 -179.5t-219.5 -84.5v-69zM605 333q0 75 -103 94v-189q103 20 103 95zM211 333q0 -75 102 -95v189q-102 -20 -102 -94z" />
    <glyph glyph-name="Chi" unicode="&#x3a7;" horiz-adv-x="597" 
d="M609 0h-216l-95 198l-94 -198h-216l191 342l-180 325h216l83 -185l82 185h217l-179 -324z" />
    <glyph glyph-name="Psi" unicode="&#x3a8;" horiz-adv-x="852" 
d="M521 0h-189v130q-132 18 -208 85.5t-76 173.5v278h192v-273q0 -72 92 -95v368h189v-367q91 22 91 94v273h192v-277q0 -106 -76 -174t-207 -86v-130z" />
    <glyph glyph-name="uni03A9" unicode="&#x3a9;" horiz-adv-x="643" 
d="M32 165h91q-105 91 -105 214q0 137 82.5 218t220.5 81q140 0 222 -80.5t82 -218.5q0 -123 -106 -214h92v-165h-253v165q37 18 56 68.5t19 100.5q0 77 -26 126.5t-86 49.5q-59 0 -85 -49.5t-26 -126.5q0 -51 19 -101t55 -68v-165h-252v165z" />
    <glyph glyph-name="Iotadieresis" unicode="&#x3aa;" horiz-adv-x="285" 
d="M237 0h-189v667h189v-667zM328 801q0 -36 -25 -60.5t-60 -24.5t-60 24.5t-25 60.5q0 35 25 59.5t60 24.5t60 -24.5t25 -59.5zM127 801q0 -35 -24.5 -60t-60.5 -25q-35 0 -60 25t-25 60t25 59.5t60 24.5q36 0 60.5 -24.5t24.5 -59.5z" />
    <glyph glyph-name="Upsilondieresis" unicode="&#x3ab;" horiz-adv-x="577" 
d="M384 0h-190v267l-207 400h207l95 -228l94 228h206l-205 -400v-267zM473 801q0 -36 -25 -60.5t-60 -24.5t-60 24.5t-25 60.5q0 35 25 59.5t60 24.5t60 -24.5t25 -59.5zM272 801q0 -35 -24.5 -60t-60.5 -25q-35 0 -60 25t-25 60t25 59.5t60 24.5q36 0 60.5 -24.5
t24.5 -59.5z" />
    <glyph glyph-name="alphatonos" unicode="&#x3ac;" horiz-adv-x="544" 
d="M295 544h-71l22 221h128zM531 140l11 -142q-28 -10 -74 -10q-110 0 -141 81q-18 -37 -52 -59t-74 -22q-83 0 -133.5 67t-50.5 187q0 118 50.5 185.5t133.5 67.5q76 0 116 -64v52h169v-317q0 -29 28 -29q10 0 17 3zM259 137q37 0 59 35v140q-22 33 -59 33q-32 0 -51 -27.5
t-19 -75.5t19 -76.5t51 -28.5z" />
    <glyph glyph-name="epsilontonos" unicode="&#x3ad;" horiz-adv-x="449" 
d="M247 544h-71l22 221h128zM235 -12q-98 0 -158.5 40.5t-60.5 106.5q0 45 35 77t85 37q-48 7 -80 39.5t-32 71.5q1 64 59.5 99.5t167.5 35.5q115 0 191 -76l-77 -98q-47 44 -118 44q-55 0 -55 -29q0 -28 56 -28h86v-129h-90q-60 0 -60 -30t55 -30q83 0 133 44l75 -100
q-73 -75 -212 -75z" />
    <glyph glyph-name="etatonos" unicode="&#x3ae;" horiz-adv-x="535" 
d="M290 544h-71l22 221h128zM492 -184h-169v476q0 54 -49 54q-38 0 -62 -42v-304h-169v483h169v-56q19 27 58 47.5t85 20.5q69 0 103 -36.5t34 -96.5v-546z" />
    <glyph glyph-name="iotatonos" unicode="&#x3af;" horiz-adv-x="269" 
d="M157 544h-71l22 221h128zM193 -12q-150 0 -150 147v348h169v-317q0 -29 28 -29q8 0 16 3l11 -142q-28 -10 -74 -10z" />
    <glyph glyph-name="upsilondieresistonos" unicode="&#x3b0;" horiz-adv-x="525" 
d="M277 544h-70l21 221h129zM508 617q0 -36 -25 -60.5t-61 -24.5q-35 0 -59.5 24.5t-24.5 60.5q0 35 24.5 59.5t59.5 24.5q36 0 61 -24.5t25 -59.5zM186 617q0 -35 -24.5 -60t-59.5 -25t-60 25t-25 60t25 59.5t60 24.5t59.5 -24.5t24.5 -59.5zM267 -12q-102 0 -163 57
t-61 156v282h169v-280q0 -30 14.5 -48t40.5 -18q68 0 68 130q0 90 -41 170l158 58q57 -103 57 -228t-63.5 -202t-178.5 -77z" />
    <glyph glyph-name="alpha" unicode="&#x3b1;" horiz-adv-x="544" 
d="M531 140l11 -142q-28 -10 -74 -10q-110 0 -141 81q-18 -37 -52 -59t-74 -22q-83 0 -133.5 67t-50.5 187q0 118 50.5 185.5t133.5 67.5q76 0 116 -64v52h169v-317q0 -29 28 -29q10 0 17 3zM259 137q37 0 59 35v140q-22 33 -59 33q-32 0 -51 -27.5t-19 -75.5t19 -76.5
t51 -28.5z" />
    <glyph glyph-name="beta" unicode="&#x3b2;" horiz-adv-x="529" 
d="M212 449v-278q25 -34 66 -34q29 0 44.5 18.5t15.5 44.5q0 30 -15 45.5t-42 15.5h-30v150h23q50 0 50 58t-48 58q-30 0 -47 -20t-17 -58zM212 53v-237h-169v633q0 61 20.5 106.5t55 71t74.5 38t84 12.5q105 0 163 -48.5t58 -135.5q0 -54 -31 -95.5t-86 -53.5
q57 -10 94.5 -56t37.5 -122q0 -69 -50.5 -123.5t-123.5 -54.5q-84 0 -127 65z" />
    <glyph glyph-name="gamma" unicode="&#x3b3;" horiz-adv-x="485" 
d="M327 -184h-169v86q0 164 -49.5 318.5t-129.5 262.5h186q82 -141 95 -276q19 47 32 126.5t13 149.5h169q0 -116 -43 -248.5t-104 -224.5v-194z" />
    <glyph glyph-name="delta" unicode="&#x3b4;" horiz-adv-x="514" 
d="M266 -12q-118 0 -183.5 72t-65.5 174q0 114 88 184q-42 40 -42 102q0 66 52.5 112.5t146.5 46.5q104 0 187 -61l-62 -117q-54 47 -123 47q-18 0 -30 -6t-12 -16t28.5 -21t69 -28.5t81 -44.5t69 -81.5t28.5 -127.5q0 -95 -60.5 -165t-171.5 -70zM339 223q0 45 -24.5 72.5
t-69.5 49.5q-55 -42 -55 -110q0 -43 19.5 -70.5t55.5 -27.5q35 0 54.5 25.5t19.5 60.5z" />
    <glyph glyph-name="epsilon" unicode="&#x3b5;" horiz-adv-x="449" 
d="M235 -12q-98 0 -158.5 40.5t-60.5 106.5q0 45 35 77t85 37q-48 7 -80 39.5t-32 71.5q1 64 59.5 99.5t167.5 35.5q115 0 191 -76l-77 -98q-47 44 -118 44q-55 0 -55 -29q0 -28 56 -28h86v-129h-90q-60 0 -60 -30t55 -30q83 0 133 44l75 -100q-73 -75 -212 -75z" />
    <glyph glyph-name="zeta" unicode="&#x3b6;" horiz-adv-x="427" 
d="M253 -29q0 17 -15 17q-97 0 -159 59.5t-62 154.5t49 177.5t140 141.5h-179v146h372v-118q-84 -58 -147 -149t-63 -174q0 -47 22 -68t67 -21q134 0 134 -117q0 -69 -53 -177h-160q18 29 36 68.5t18 59.5z" />
    <glyph glyph-name="eta" unicode="&#x3b7;" horiz-adv-x="535" 
d="M492 -184h-169v476q0 54 -49 54q-38 0 -62 -42v-304h-169v483h169v-56q19 27 58 47.5t85 20.5q69 0 103 -36.5t34 -96.5v-546z" />
    <glyph glyph-name="theta" unicode="&#x3b8;" horiz-adv-x="514" 
d="M257 -12q-113 0 -176.5 99.5t-63.5 246.5t63.5 246t176.5 99q114 0 177.5 -98.5t63.5 -246.5q0 -95 -26.5 -172t-82.5 -125.5t-132 -48.5zM257 137q30 0 45.5 28.5t20.5 96.5h-131q4 -68 19.5 -96.5t45.5 -28.5zM257 530q-30 0 -45.5 -28t-19.5 -94h130q-4 66 -19.5 94
t-45.5 28z" />
    <glyph glyph-name="iota" unicode="&#x3b9;" horiz-adv-x="269" 
d="M193 -12q-150 0 -150 147v348h169v-317q0 -29 28 -29q8 0 16 3l11 -142q-28 -10 -74 -10z" />
    <glyph glyph-name="kappa" unicode="&#x3ba;" 
d="M510 0h-197l-67 161l-34 -55v-106h-169v483h169v-175l92 175h196l-137 -216z" />
    <glyph glyph-name="lambda" unicode="&#x3bb;" horiz-adv-x="485" 
d="M70 523l-24 148q24 8 68 8q78 -1 124.5 -29t72.5 -105l185 -545h-178l-76 280l-74 -280h-179l167 492l-6 17q-8 21 -51 21q-18 0 -29 -7z" />
    <glyph glyph-name="uni03BC" unicode="&#x3bc;" horiz-adv-x="549" 
d="M212 -5v-179h-169v667h169v-293q0 -53 50 -53q36 0 61 42v304h169v-317q0 -29 28 -29q8 0 16 3l11 -142q-28 -10 -74 -10q-115 0 -142 88q-12 -40 -36.5 -64t-54.5 -24q-18 0 -28 7z" />
    <glyph glyph-name="nu" unicode="&#x3bd;" horiz-adv-x="485" 
d="M321 0h-168l-164 483h179l81 -305q56 125 56 305h169q0 -119 -45 -255t-108 -228z" />
    <glyph glyph-name="xi" unicode="&#x3be;" horiz-adv-x="427" 
d="M238 -12q-102 0 -161.5 47.5t-59.5 126.5q0 103 103 144q-44 7 -68.5 35t-24.5 67q0 34 22 65.5t59 47.5h-70v146h360v-146h-163q-39 -16 -39 -55q0 -57 76 -57h121v-146h-121q-82 0 -82 -65q0 -28 22 -44.5t66 -16.5q134 0 134 -117q0 -69 -53 -177h-160q18 29 36 68.5
t18 59.5q0 17 -15 17z" />
    <glyph glyph-name="omicron" unicode="&#x3bf;" horiz-adv-x="514" 
d="M257 -12q-113 0 -176.5 73.5t-63.5 180.5t63.5 180t176.5 73t177 -73t64 -180t-64 -180.5t-177 -73.5zM257 137q33 0 50.5 28.5t17.5 76.5t-17.5 76t-50.5 28t-50 -28t-17 -76t17 -76.5t50 -28.5z" />
    <glyph glyph-name="pi" unicode="&#x3c0;" horiz-adv-x="589" 
d="M519 0h-169v337h-111v-337h-169v337h-61v146h571v-146h-61v-337z" />
    <glyph glyph-name="rho" unicode="&#x3c1;" horiz-adv-x="528" 
d="M329 -12q-76 0 -117 65v-237h-169v426q0 107 62.5 180t171.5 73q110 0 172.5 -73t62.5 -180q0 -120 -50 -187t-133 -67zM269 137q33 0 52 28t19 77q0 48 -16.5 76t-48.5 28q-63 0 -63 -104v-71q9 -15 25 -24.5t32 -9.5z" />
    <glyph glyph-name="sigma1" unicode="&#x3c2;" horiz-adv-x="436" 
d="M247 -12q-96 0 -163 71t-67 183q0 113 67 183t173 70q59 0 103.5 -19.5t66.5 -46.5l-80 -116q-30 33 -70 33q-39 0 -63.5 -28t-24.5 -76t25 -76.5t63 -28.5q141 0 141 -117q0 -69 -53 -177h-159q17 28 35 68t18 60q0 17 -12 17z" />
    <glyph glyph-name="sigma" unicode="&#x3c3;" horiz-adv-x="514" 
d="M486 207q0 -90 -59 -154.5t-170 -64.5q-110 0 -175 72.5t-65 181.5q0 103 64.5 172t182.5 69h235v-149h-60q47 -47 47 -127zM325 234q0 69 -32 100h-29q-38 0 -56 -25.5t-18 -66.5q0 -48 17 -76.5t50 -28.5t50.5 27t17.5 70z" />
    <glyph glyph-name="tau" unicode="&#x3c4;" horiz-adv-x="419" 
d="M276 -12q-150 0 -150 147v202h-111v146h389v-146h-110v-159q0 -18 8.5 -29.5t22.5 -11.5q23 0 30 9l28 -131q-32 -27 -107 -27z" />
    <glyph glyph-name="upsilon" unicode="&#x3c5;" horiz-adv-x="525" 
d="M267 -12q-102 0 -163 57t-61 156v282h169v-280q0 -30 14.5 -48t40.5 -18q68 0 68 130q0 90 -41 170l158 58q57 -103 57 -228t-63.5 -202t-178.5 -77z" />
    <glyph glyph-name="phi" unicode="&#x3c6;" horiz-adv-x="767" 
d="M751 242q0 -101 -72.5 -167.5t-210.5 -81.5v-177h-169v177q-140 16 -211 84t-71 176q0 161 177 242l73 -131q-77 -35 -77 -111q0 -92 109 -110v352h83q181 0 275 -68.5t94 -184.5zM577 242q0 83 -109 98v-197q109 18 109 99z" />
    <glyph glyph-name="chi" unicode="&#x3c7;" horiz-adv-x="470" 
d="M478 -184h-182l-61 177l-63 -177h-181l137 339l-130 328h182l54 -166l55 166h181l-129 -328z" />
    <glyph glyph-name="psi" unicode="&#x3c8;" horiz-adv-x="767" 
d="M468 -184h-169v178q-120 16 -188 80.5t-68 168.5v240h168v-239q0 -76 88 -98v521h169v-521q88 22 88 98v239h168v-240q0 -104 -68.5 -168t-187.5 -81v-178z" />
    <glyph glyph-name="omega" unicode="&#x3c9;" horiz-adv-x="797" 
d="M780 242q0 -107 -56.5 -180.5t-153.5 -73.5q-63 0 -107.5 32t-63.5 93q-41 -125 -173 -125q-96 0 -152.5 73.5t-56.5 180.5q0 80 28.5 145.5t75.5 107.5l129 -90q-60 -63 -60 -164q0 -47 15.5 -75.5t45.5 -28.5q31 0 47 28.5t16 76.5v121h169v-121q0 -105 62 -105
q31 0 46.5 28.5t15.5 76.5q0 42 -15.5 87t-44.5 76l129 90q47 -42 75.5 -107.5t28.5 -145.5z" />
    <glyph glyph-name="iotadieresis" unicode="&#x3ca;" horiz-adv-x="269" 
d="M320 617q0 -36 -25 -60.5t-60 -24.5t-60 24.5t-25 60.5q0 35 25 59.5t60 24.5t60 -24.5t25 -59.5zM119 617q0 -35 -24.5 -60t-60.5 -25q-35 0 -60 25t-25 60t25 59.5t60 24.5q36 0 60.5 -24.5t24.5 -59.5zM193 -12q-150 0 -150 147v348h169v-317q0 -29 28 -29q8 0 16 3
l11 -142q-28 -10 -74 -10z" />
    <glyph glyph-name="upsilondieresis" unicode="&#x3cb;" horiz-adv-x="525" 
d="M448 617q0 -36 -25 -60.5t-60 -24.5t-60 24.5t-25 60.5q0 35 25 59.5t60 24.5t60 -24.5t25 -59.5zM247 617q0 -35 -24.5 -60t-60.5 -25q-35 0 -60 25t-25 60t25 59.5t60 24.5q36 0 60.5 -24.5t24.5 -59.5zM267 -12q-102 0 -163 57t-61 156v282h169v-280q0 -30 14.5 -48
t40.5 -18q68 0 68 130q0 90 -41 170l158 58q57 -103 57 -228t-63.5 -202t-178.5 -77z" />
    <glyph glyph-name="omicrontonos" unicode="&#x3cc;" horiz-adv-x="514" 
d="M280 544h-71l22 221h128zM257 -12q-113 0 -176.5 73.5t-63.5 180.5t63.5 180t176.5 73t177 -73t64 -180t-64 -180.5t-177 -73.5zM257 137q33 0 50.5 28.5t17.5 76.5t-17.5 76t-50.5 28t-50 -28t-17 -76t17 -76.5t50 -28.5z" />
    <glyph glyph-name="upsilontonos" unicode="&#x3cd;" horiz-adv-x="525" 
d="M286 544h-71l22 221h128zM267 -12q-102 0 -163 57t-61 156v282h169v-280q0 -30 14.5 -48t40.5 -18q68 0 68 130q0 90 -41 170l158 58q57 -103 57 -228t-63.5 -202t-178.5 -77z" />
    <glyph glyph-name="omegatonos" unicode="&#x3ce;" horiz-adv-x="797" 
d="M421 544h-71l22 221h128zM780 242q0 -107 -56.5 -180.5t-153.5 -73.5q-63 0 -107.5 32t-63.5 93q-41 -125 -173 -125q-96 0 -152.5 73.5t-56.5 180.5q0 80 28.5 145.5t75.5 107.5l129 -90q-60 -63 -60 -164q0 -47 15.5 -75.5t45.5 -28.5q31 0 47 28.5t16 76.5v121h169
v-121q0 -105 62 -105q31 0 46.5 28.5t15.5 76.5q0 42 -15.5 87t-44.5 76l129 90q47 -42 75.5 -107.5t28.5 -145.5z" />
    <glyph glyph-name="afii10023" unicode="&#x401;" 
d="M444 784q0 -36 -25 -60.5t-60 -24.5t-60 24.5t-25 60.5q0 35 25 59.5t60 24.5t60 -24.5t25 -59.5zM243 784q0 -35 -24.5 -60t-60.5 -25q-35 0 -60 25t-25 60t25 59.5t60 24.5q36 0 60.5 -24.5t24.5 -59.5zM469 0h-421v667h421v-165h-232v-82h225v-165h-225v-90h232v-165z
" />
    <glyph glyph-name="afii10051" unicode="&#x402;" horiz-adv-x="663" 
d="M401 -12v161q50 0 50 56v8q0 29 -20.5 45.5t-54.5 16.5q-35 0 -67 -10v-265h-190v502h-138v165h465v-165h-137v-75q55 13 99 13q114 0 174 -63t60 -163v-10q0 -103 -66 -159.5t-175 -56.5z" />
    <glyph glyph-name="afii10052" unicode="&#x403;" horiz-adv-x="496" 
d="M440 867l-133 -144h-109l100 144h142zM237 0h-189v667h421v-165h-232v-502z" />
    <glyph glyph-name="afii10053" unicode="&#x404;" horiz-adv-x="582" 
d="M324 -12q-140 0 -223 95.5t-83 249.5q0 155 83 250t223 95q179 0 250 -190l-157 -66q-10 41 -35 65t-62 24q-76 0 -100 -91h174v-165h-176q23 -100 102 -100q37 0 62.5 27t35.5 68l156 -65q-67 -197 -250 -197z" />
    <glyph glyph-name="afii10054" unicode="&#x405;" horiz-adv-x="525" 
d="M259 -12q-160 0 -255 89l88 144q67 -70 166 -70q27 0 44 11t17 29q0 17 -22 29.5t-54.5 21t-71 25t-71 37.5t-54.5 62.5t-22 97.5q0 87 65.5 150.5t182.5 63.5q136 0 227 -77l-86 -140q-64 54 -148 54q-48 0 -48 -36q0 -16 21.5 -29t54.5 -22t70.5 -25.5t70.5 -38
t54.5 -61.5t21.5 -93q0 -102 -67.5 -162t-183.5 -60z" />
    <glyph glyph-name="afii10055" unicode="&#x406;" horiz-adv-x="285" 
d="M237 0h-189v667h189v-667z" />
    <glyph glyph-name="afii10056" unicode="&#x407;" horiz-adv-x="285" 
d="M237 0h-189v667h189v-667zM328 784q0 -36 -25 -60.5t-60 -24.5t-60 24.5t-25 60.5q0 35 25 59.5t60 24.5t60 -24.5t25 -59.5zM127 784q0 -35 -24.5 -60t-60.5 -25q-35 0 -60 25t-25 60t25 59.5t60 24.5q36 0 60.5 -24.5t24.5 -59.5z" />
    <glyph glyph-name="afii10057" unicode="&#x408;" horiz-adv-x="437" 
d="M154 -12q-93 0 -149 41l61 149q30 -23 68 -23q30 0 48.5 17.5t18.5 48.5v446h189v-452q0 -114 -63 -170.5t-173 -56.5z" />
    <glyph glyph-name="afii10058" unicode="&#x409;" horiz-adv-x="936" 
d="M16 -12v167q38 0 60 34t31 128l33 350h454v-216h100q109 0 168.5 -64.5t59.5 -160.5t-59.5 -161t-168.5 -65h-290v502h-92l-17 -192q-8 -97 -32.5 -162.5t-63.5 -99t-82.5 -47t-100.5 -13.5zM671 286h-77v-121h77q26 0 42.5 16t16.5 45q0 28 -16.5 44t-42.5 16z" />
    <glyph glyph-name="afii10059" unicode="&#x40a;" horiz-adv-x="936" 
d="M48 0v667h189v-241h167v241h190v-241h106q107 0 164.5 -61t57.5 -151q0 -92 -57.5 -153t-164.5 -61h-296v261h-167v-261h-189zM594 165h84q23 0 37.5 12.5t14.5 35.5t-14.5 35.5t-37.5 12.5h-84v-96z" />
    <glyph glyph-name="afii10060" unicode="&#x40b;" horiz-adv-x="684" 
d="M451 0v199q0 76 -75 76q-35 0 -67 -10v-265h-190v502h-138v165h465v-165h-137v-75q55 13 99 13q114 0 174 -67t60 -173v-200h-191z" />
    <glyph glyph-name="afii10061" unicode="&#x40c;" horiz-adv-x="598" 
d="M491 867l-133 -144h-109l100 144h142zM609 0h-222l-112 228l-38 -67v-161h-189v667h189v-260l142 260h219l-204 -310z" />
    <glyph glyph-name="afii10062" unicode="&#x40e;" horiz-adv-x="577" 
d="M137 -12q-93 0 -149 41l61 149q32 -23 66 -23q42 0 66 52l4 11l-197 449h206l94 -250l94 251l207 -1l-221 -504q-38 -88 -89.5 -131.5t-141.5 -43.5zM441 775q-56 -77 -152 -77q-95 0 -153 77l73 57q30 -42 80 -42q51 0 79 42z" />
    <glyph glyph-name="afii10145" unicode="&#x40f;" horiz-adv-x="642" 
d="M48 0v667h189v-502h167v502h190v-667h-178v-126h-190v126h-178z" />
    <glyph glyph-name="afii10017" unicode="&#x410;" horiz-adv-x="597" 
d="M609 0h-205l-19 86h-173l-19 -86h-205l196 667h229zM348 251l-49 221l-50 -221h99z" />
    <glyph glyph-name="afii10018" unicode="&#x411;" horiz-adv-x="579" 
d="M48 667h478v-165h-289v-60h105q107 0 165.5 -63t58.5 -157q0 -95 -58.5 -158.5t-165.5 -63.5h-294v667zM320 277h-83v-112h83q24 0 39 15t15 41t-15 41t-39 15z" />
    <glyph glyph-name="afii10019" unicode="&#x412;" horiz-adv-x="600" 
d="M391 0h-343v667h331q93 0 140 -50.5t47 -119.5q0 -61 -30.5 -101t-80.5 -52q53 -8 87.5 -54t34.5 -109q0 -77 -47 -129t-139 -52zM331 418q20 0 31.5 12t11.5 33q0 20 -11.5 31.5t-31.5 11.5h-94v-88h94zM336 161q23 0 36 12.5t13 35.5q0 22 -13 35t-36 13h-99v-96h99z
" />
    <glyph glyph-name="afii10020" unicode="&#x413;" horiz-adv-x="496" 
d="M237 0h-189v667h421v-165h-232v-502z" />
    <glyph glyph-name="afii10021" unicode="&#x414;" horiz-adv-x="656" 
d="M16 -123v278q27 5 42.5 15.5t29 46t19.5 100.5l33 350h454v-502h50v-288h-190v123h-249v-123h-189zM296 330q-8 -104 -58 -165h166v337h-92z" />
    <glyph glyph-name="afii10022" unicode="&#x415;" 
d="M469 0h-421v667h421v-165h-232v-82h225v-165h-225v-90h232v-165z" />
    <glyph glyph-name="afii10024" unicode="&#x416;" horiz-adv-x="864" 
d="M211 0h-223l216 357l-205 310h220l118 -216v216h190v-216l118 216h219l-204 -310l215 -357h-222l-112 228l-14 -25v-203h-190v203l-14 25z" />
    <glyph glyph-name="afii10025" unicode="&#x417;" horiz-adv-x="564" 
d="M276 -12q-86 0 -155.5 29t-108.5 76l107 122q28 -28 68.5 -44t78.5 -16q42 0 64.5 15t22.5 36q0 25 -22 36t-71 11h-109v166h104q88 0 88 43q0 48 -86 48q-84 0 -134 -54l-102 111q88 110 255 110q118 0 187.5 -48.5t69.5 -135.5q0 -53 -38 -96t-95 -53q59 -9 101 -52
t42 -105q0 -89 -75 -144t-192 -55z" />
    <glyph glyph-name="afii10026" unicode="&#x418;" horiz-adv-x="641" 
d="M227 0h-179v667h189v-308l164 308h192v-667h-189v328z" />
    <glyph glyph-name="afii10027" unicode="&#x419;" horiz-adv-x="641" 
d="M227 0h-179v667h189v-308l164 308h192v-667h-189v328zM473 775q-56 -77 -152 -77q-95 0 -153 77l73 57q30 -42 80 -42q51 0 79 42z" />
    <glyph glyph-name="afii10028" unicode="&#x41a;" horiz-adv-x="598" 
d="M609 0h-222l-112 228l-38 -67v-161h-189v667h189v-260l142 260h219l-204 -310z" />
    <glyph glyph-name="afii10029" unicode="&#x41b;" horiz-adv-x="642" 
d="M16 -12v167q38 0 60 34t31 128l33 350h454v-667h-190v502h-92l-17 -192q-8 -97 -32.5 -162.5t-63.5 -99t-82.5 -47t-100.5 -13.5z" />
    <glyph glyph-name="afii10030" unicode="&#x41c;" horiz-adv-x="788" 
d="M740 0h-188v361l-122 -361h-72l-121 361v-361h-189v667h249l97 -294l99 294h247v-667z" />
    <glyph glyph-name="afii10031" unicode="&#x41d;" horiz-adv-x="642" 
d="M594 0h-189v261h-168v-261h-189v667h189v-241h168v241h189v-667z" />
    <glyph glyph-name="afii10032" unicode="&#x41e;" horiz-adv-x="644" 
d="M322 -12q-138 0 -221 95.5t-83 249.5t83 249.5t221 95.5t221 -95.5t83 -249.5t-83 -249.5t-221 -95.5zM322 155q53 0 82.5 49.5t29.5 128.5q0 80 -29.5 129t-82.5 49t-82 -49t-29 -129t29 -129t82 -49z" />
    <glyph glyph-name="afii10033" unicode="&#x41f;" horiz-adv-x="642" 
d="M594 0h-189v502h-168v-502h-189v667h546v-667z" />
    <glyph glyph-name="afii10034" unicode="&#x420;" horiz-adv-x="579" 
d="M237 0h-189v667h289q110 0 169.5 -65t59.5 -161t-60 -160.5t-169 -64.5h-100v-216zM314 381q27 0 43.5 16t16.5 45t-16.5 44.5t-43.5 15.5h-77v-121h77z" />
    <glyph glyph-name="afii10035" unicode="&#x421;" horiz-adv-x="582" 
d="M324 -12q-140 0 -223 95.5t-83 249.5q0 155 83 250t223 95q179 0 250 -190l-157 -66q-10 40 -34.5 64.5t-58.5 24.5q-54 0 -83.5 -49t-29.5 -129t29.5 -129t83.5 -49q35 0 60 27t34 68l156 -65q-67 -197 -250 -197z" />
    <glyph glyph-name="afii10036" unicode="&#x422;" 
d="M346 0h-190v502h-138v165h465v-165h-137v-502z" />
    <glyph glyph-name="afii10037" unicode="&#x423;" horiz-adv-x="577" 
d="M137 -12q-93 0 -149 41l61 149q32 -23 66 -23q42 0 66 52l4 11l-197 449h206l94 -250l94 251l207 -1l-221 -504q-38 -88 -89.5 -131.5t-141.5 -43.5z" />
    <glyph glyph-name="afii10038" unicode="&#x424;" horiz-adv-x="815" 
d="M502 0h-189v69q-144 16 -219.5 84.5t-75.5 179.5t75.5 179t219.5 85v70h189v-70q144 -16 219.5 -84.5t75.5 -179.5t-75.5 -179.5t-219.5 -84.5v-69zM605 333q0 75 -103 94v-189q103 20 103 95zM211 333q0 -75 102 -95v189q-102 -20 -102 -94z" />
    <glyph glyph-name="afii10039" unicode="&#x425;" horiz-adv-x="597" 
d="M609 0h-216l-95 198l-94 -198h-216l191 342l-180 325h216l83 -185l82 185h217l-179 -324z" />
    <glyph glyph-name="afii10040" unicode="&#x426;" horiz-adv-x="656" 
d="M454 -123v123h-406v667h189v-502h167v502h190v-502h50v-288h-190z" />
    <glyph glyph-name="afii10041" unicode="&#x427;" horiz-adv-x="606" 
d="M227 667v-216q0 -76 75 -76q34 0 67 10v282h189v-667h-189v223q-57 -13 -99 -13q-114 0 -174 67t-60 173v217h191z" />
    <glyph glyph-name="afii10042" unicode="&#x428;" horiz-adv-x="914" 
d="M676 667h190v-667h-818v667h190v-502h124v502h190v-502h124v502z" />
    <glyph glyph-name="afii10043" unicode="&#x429;" horiz-adv-x="927" 
d="M676 667h190v-502h49v-288h-189v123h-678v667h190v-502h124v502h190v-502h124v502z" />
    <glyph glyph-name="afii10044" unicode="&#x42a;" horiz-adv-x="688" 
d="M446 0h-290v502h-138v165h328v-216h100q109 0 168.5 -64.5t59.5 -160.5t-59.5 -161t-168.5 -65zM423 286h-77v-121h77q26 0 42.5 16t16.5 45q0 28 -16.5 44t-42.5 16z" />
    <glyph glyph-name="afii10045" unicode="&#x42b;" horiz-adv-x="839" 
d="M48 667h189v-216h100q110 0 169.5 -64.5t59.5 -160.5t-59.5 -161t-169.5 -65h-289v667zM314 286h-77v-121h77q27 0 43.5 16t16.5 45t-16.5 44.5t-43.5 15.5zM791 0h-189v667h189v-667z" />
    <glyph glyph-name="afii10046" unicode="&#x42c;" horiz-adv-x="579" 
d="M48 667h189v-216h100q110 0 169.5 -64.5t59.5 -160.5t-59.5 -161t-169.5 -65h-289v667zM314 286h-77v-121h77q27 0 43.5 16t16.5 45t-16.5 44.5t-43.5 15.5z" />
    <glyph glyph-name="afii10047" unicode="&#x42d;" horiz-adv-x="582" 
d="M259 -12q-183 0 -250 197l156 65q9 -41 35 -68t63 -27q80 0 101 100h-176v165h174q-24 91 -99 91q-37 0 -62 -24t-36 -65l-156 66q68 190 250 190q140 0 222.5 -95t82.5 -250t-82.5 -250t-222.5 -95z" />
    <glyph glyph-name="afii10048" unicode="&#x42e;" horiz-adv-x="944" 
d="M622 -12q-121 0 -200.5 74t-98.5 199h-85v-261h-190v667h190v-241h89q23 116 101 184t194 68q138 0 221 -95.5t83 -249.5t-83 -249.5t-221 -95.5zM622 155q53 0 82 49t29 129t-29 129t-82 49t-82.5 -49t-29.5 -129q0 -79 29.5 -128.5t82.5 -49.5z" />
    <glyph glyph-name="afii10049" unicode="&#x42f;" horiz-adv-x="594" 
d="M235 0h-210l103 251q-99 58 -99 194q0 95 61 158.5t163 63.5h294v-667h-190v216h-48zM283 381h74v121h-74q-27 0 -44.5 -15.5t-17.5 -44.5t17.5 -45t44.5 -16z" />
    <glyph glyph-name="afii10065" unicode="&#x430;" horiz-adv-x="506" 
d="M464 0h-169v47q-17 -26 -53.5 -42.5t-73.5 -16.5q-60 0 -106 42.5t-46 117.5q0 77 45 115.5t107 38.5q40 0 75.5 -14t51.5 -39v46q0 29 -21 47t-59 18q-61 0 -118 -46l-57 111q39 36 96.5 53t112.5 17q95 0 155 -43.5t60 -139.5v-312zM236 98q44 0 59 29v36
q-15 29 -59 29q-23 0 -38 -12t-15 -35t15 -35t38 -12z" />
    <glyph glyph-name="afii10066" unicode="&#x431;" horiz-adv-x="514" 
d="M256 137q68 0 68 106q0 47 -17 75t-51 28q-33 0 -49.5 -28t-16.5 -75q0 -49 16.5 -77.5t49.5 -28.5zM257 -12q-116 0 -178.5 76.5t-62.5 199.5q0 178 55.5 264t181.5 108q51 9 51 31h177q0 -105 -169 -135q-70 -13 -101.5 -34.5t-44.5 -57.5q51 55 131 55q94 0 147.5 -73
t53.5 -179q0 -107 -63.5 -181t-177.5 -74z" />
    <glyph glyph-name="afii10067" unicode="&#x432;" horiz-adv-x="536" 
d="M349 0h-306v483h296q77 0 116 -37t39 -87q0 -41 -23.5 -70t-61.5 -40q42 -8 68 -40t26 -77q0 -56 -39 -94t-115 -38zM305 129q28 0 28 25q0 12 -8 19.5t-20 7.5h-93v-52h93zM299 309q25 0 25 23t-25 23h-87v-46h87z" />
    <glyph glyph-name="afii10068" unicode="&#x433;" horiz-adv-x="398" 
d="M385 483v-146h-173v-337h-169v483h342z" />
    <glyph glyph-name="afii10069" unicode="&#x434;" horiz-adv-x="551" 
d="M16 -123v259q24 2 39 24.5t23 87.5l26 235h388v-336h48v-270h-169v123h-186v-123h-169zM255 337l-9 -83q-9 -71 -37 -107h114v190h-68z" />
    <glyph glyph-name="afii10070" unicode="&#x435;" horiz-adv-x="489" 
d="M260 -12q-109 0 -176 69.5t-67 184.5q0 108 64.5 180.5t171.5 72.5q104 0 164 -70.5t60 -190.5v-46h-292q5 -29 29 -48.5t65 -19.5q22 0 51 10t45 26l72 -101q-33 -32 -84.5 -49.5t-102.5 -17.5zM317 299q-7 64 -67 64q-59 0 -66 -64h133z" />
    <glyph glyph-name="afii10072" unicode="&#x436;" horiz-adv-x="703" 
d="M189 0h-198l148 267l-137 216h195l70 -132v132h169v-133l70 133h196l-137 -216l147 -267h-197l-67 161l-12 -20v-141h-169v143l-11 18z" />
    <glyph glyph-name="afii10073" unicode="&#x437;" horiz-adv-x="449" 
d="M214 -12q-139 0 -212 75l75 100q52 -44 133 -44q56 0 56 30t-61 30h-90v129h87q55 0 55 28q0 29 -54 29q-71 0 -118 -44l-78 98q78 76 191 76q110 0 168.5 -35.5t58.5 -99.5q0 -39 -32 -71.5t-79 -39.5q49 -5 84 -37t35 -77q1 -66 -60 -106.5t-159 -40.5z" />
    <glyph glyph-name="afii10074" unicode="&#x438;" horiz-adv-x="535" 
d="M204 0h-161v483h169v-198l108 198h172v-483h-169v214z" />
    <glyph glyph-name="afii10075" unicode="&#x439;" horiz-adv-x="535" 
d="M204 0h-161v483h169v-198l108 198h172v-483h-169v214zM420 608q-56 -77 -152 -77q-95 0 -153 77l73 57q30 -42 80 -42q51 0 79 42z" />
    <glyph glyph-name="afii10076" unicode="&#x43a;" 
d="M510 0h-197l-67 161l-34 -55v-106h-169v483h169v-175l92 175h196l-137 -216z" />
    <glyph glyph-name="afii10077" unicode="&#x43b;" horiz-adv-x="535" 
d="M16 -12v140q23 0 38.5 25t23.5 95l26 235h388v-483h-169v337h-68l-12 -109q-14 -128 -65 -184t-162 -56z" />
    <glyph glyph-name="afii10078" unicode="&#x43c;" horiz-adv-x="662" 
d="M620 0h-167v241l-83 -241h-77l-81 241v-241h-169v483h214l74 -218l77 218h212v-483z" />
    <glyph glyph-name="afii10079" unicode="&#x43d;" horiz-adv-x="535" 
d="M212 0h-169v483h169v-157h111v157h169v-483h-169v179h-111v-179z" />
    <glyph glyph-name="afii10080" unicode="&#x43e;" horiz-adv-x="514" 
d="M257 -12q-113 0 -176.5 73.5t-63.5 180.5t63.5 180t176.5 73t177 -73t64 -180t-64 -180.5t-177 -73.5zM257 137q33 0 50.5 28.5t17.5 76.5t-17.5 76t-50.5 28t-50 -28t-17 -76t17 -76.5t50 -28.5z" />
    <glyph glyph-name="afii10081" unicode="&#x43f;" horiz-adv-x="535" 
d="M492 0h-169v337h-111v-337h-169v483h449v-483z" />
    <glyph glyph-name="afii10082" unicode="&#x440;" horiz-adv-x="528" 
d="M329 -12q-76 0 -117 65v-237h-169v667h169v-52q42 64 117 64q84 0 133.5 -66t49.5 -187q0 -120 -50 -187t-133 -67zM269 137q33 0 52 28t19 77q0 48 -19 76t-52 28q-37 0 -57 -33v-142q9 -15 25 -24.5t32 -9.5z" />
    <glyph glyph-name="afii10083" unicode="&#x441;" horiz-adv-x="437" 
d="M257 -12q-106 0 -173 70.5t-67 183.5t67 183t173 70q59 0 103.5 -19.5t66.5 -46.5l-80 -116q-30 33 -70 33q-39 0 -63.5 -28t-24.5 -76t25 -76.5t63 -28.5q40 0 70 34l80 -116q-22 -27 -66.5 -47t-103.5 -20z" />
    <glyph glyph-name="afii10084" unicode="&#x442;" horiz-adv-x="398" 
d="M284 0h-169v337h-102v146h372v-146h-101v-337z" />
    <glyph glyph-name="afii10085" unicode="&#x443;" horiz-adv-x="485" 
d="M46 -188l24 148q11 -7 29 -7q43 0 51 21l6 17l-167 492h179l74 -280l76 280h178l-185 -545q-26 -77 -72.5 -105t-124.5 -29q-44 0 -68 8z" />
    <glyph glyph-name="afii10086" unicode="&#x444;" horiz-adv-x="765" 
d="M188 495q72 0 110 -64v236h169v-236q40 64 110 64q78 0 125 -66t47 -187q0 -119 -47 -186.5t-125 -67.5q-71 0 -110 65v-237h-169v237q-39 -65 -110 -65q-78 0 -125 66.5t-47 187.5q0 119 47 186t125 67zM248 346q-29 0 -45.5 -28t-16.5 -76q0 -49 16.5 -77t45.5 -28
q13 0 27.5 9t22.5 24v143q-8 15 -22.5 24t-27.5 9zM518 137q29 0 45.5 28t16.5 77q0 48 -16.5 76t-45.5 28q-33 0 -51 -33v-142q18 -34 51 -34z" />
    <glyph glyph-name="afii10087" unicode="&#x445;" horiz-adv-x="470" 
d="M478 0h-182l-61 129l-62 -129h-182l137 245l-130 238h182l54 -120l55 120h181l-129 -238z" />
    <glyph glyph-name="afii10088" unicode="&#x446;" horiz-adv-x="551" 
d="M371 -123v123h-328v483h169v-336h111v336h169v-336h48v-270h-169z" />
    <glyph glyph-name="afii10089" unicode="&#x447;" horiz-adv-x="530" 
d="M38 483h169v-157q0 -52 49 -52q37 0 62 16v193h169v-483h-169v159q-46 -34 -127 -34q-153 0 -153 143v215z" />
    <glyph glyph-name="afii10090" unicode="&#x448;" horiz-adv-x="786" 
d="M575 483h169v-483h-701v483h169v-336h97v336h169v-336h97v336z" />
    <glyph glyph-name="afii10091" unicode="&#x449;" horiz-adv-x="802" 
d="M575 483h169v-336h47v-270h-169v123h-579v483h169v-336h97v336h169v-336h97v336z" />
    <glyph glyph-name="afii10092" unicode="&#x44a;" horiz-adv-x="592" 
d="M388 0h-273v337h-102v146h271v-148h104q91 0 139.5 -48t48.5 -120q0 -71 -50 -119t-138 -48zM364 202h-80v-69h80q18 0 29.5 9.5t11.5 24.5t-11.5 25t-29.5 10z" />
    <glyph glyph-name="afii10093" unicode="&#x44b;" horiz-adv-x="756" 
d="M43 483h169v-148h103q91 0 139.5 -48t48.5 -120q0 -71 -49.5 -119t-138.5 -48h-272v483zM291 202h-79v-69h79q19 0 30 9.5t11 24.5t-11 25t-30 10zM714 0h-169v483h169v-483z" />
    <glyph glyph-name="afii10094" unicode="&#x44c;" horiz-adv-x="519" 
d="M43 483h169v-148h103q91 0 139.5 -48t48.5 -120q0 -71 -49.5 -119t-138.5 -48h-272v483zM291 202h-79v-69h79q19 0 30 9.5t11 24.5t-11 25t-30 10z" />
    <glyph glyph-name="afii10095" unicode="&#x44d;" horiz-adv-x="437" 
d="M180 -12q-59 0 -103.5 20t-66.5 47l76 100q31 -36 74 -36q65 0 86 69h-133v111h132q-23 65 -85 65q-42 0 -74 -35l-76 100q22 27 66.5 46.5t103.5 19.5q106 0 173 -70t67 -183t-67 -183.5t-173 -70.5z" />
    <glyph glyph-name="afii10096" unicode="&#x44e;" horiz-adv-x="760" 
d="M502 -12q-94 0 -155.5 53.5t-78.5 137.5h-56v-179h-169v483h169v-157h61q22 76 81 122.5t148 46.5q114 0 178 -73t64 -180t-64.5 -180.5t-177.5 -73.5zM502 137q68 0 68 105q0 48 -17 76t-51 28q-33 0 -49.5 -28t-16.5 -76t16.5 -76.5t49.5 -28.5z" />
    <glyph glyph-name="afii10097" unicode="&#x44f;" horiz-adv-x="532" 
d="M211 0h-183l83 175q-79 41 -79 142q0 71 50.5 118.5t137.5 47.5h272v-483h-169v149h-57zM244 282h79v69h-79q-19 0 -30 -10t-11 -25t11 -24.5t30 -9.5z" />
    <glyph glyph-name="afii10071" unicode="&#x451;" horiz-adv-x="489" 
d="M440 617q0 -36 -25 -60.5t-60 -24.5t-60 24.5t-25 60.5q0 35 25 59.5t60 24.5t60 -24.5t25 -59.5zM239 617q0 -35 -24.5 -60t-60.5 -25q-35 0 -60 25t-25 60t25 59.5t60 24.5q36 0 60.5 -24.5t24.5 -59.5zM260 -12q-109 0 -176 69.5t-67 184.5q0 108 64.5 180.5
t171.5 72.5q104 0 164 -70.5t60 -190.5v-46h-292q5 -29 29 -48.5t65 -19.5q22 0 51 10t45 26l72 -101q-33 -32 -84.5 -49.5t-102.5 -17.5zM317 299q-7 64 -67 64q-59 0 -66 -64h133z" />
    <glyph glyph-name="afii10099" unicode="&#x452;" horiz-adv-x="542" 
d="M345 523h-126v-96q19 27 58 47.5t85 20.5q70 0 104 -35.5t34 -95.5v-360q0 -94 -45 -147t-138 -53q-62 0 -104 24l34 129q17 -13 42 -13q42 0 42 60v290q0 52 -50 52q-35 0 -62 -42v-304h-169v523h-41v92h41v52h169v-52h126v-92z" />
    <glyph glyph-name="afii10100" unicode="&#x453;" horiz-adv-x="398" 
d="M396 700l-133 -144h-109l100 144h142zM385 483v-146h-173v-337h-169v483h342z" />
    <glyph glyph-name="afii10101" unicode="&#x454;" horiz-adv-x="437" 
d="M257 -12q-106 0 -173 70.5t-67 183.5t67 183t173 70q59 0 103.5 -19.5t66.5 -46.5l-76 -100q-32 35 -74 35q-64 0 -85 -65h132v-111h-133q21 -69 86 -69q43 0 74 36l76 -100q-22 -27 -66.5 -47t-103.5 -20z" />
    <glyph glyph-name="afii10102" unicode="&#x455;" horiz-adv-x="436" 
d="M216 -12q-63 0 -119.5 20t-89.5 50l66 114q25 -22 66 -38.5t74 -16.5q49 0 49 26q0 12 -24.5 19t-59 15t-69 22t-59 49t-24.5 88q0 66 52 112.5t146 46.5q105 0 188 -61l-63 -111q-20 18 -54 32t-69 14q-18 0 -30 -6.5t-12 -16.5q0 -11 24.5 -18t59.5 -15.5t70.5 -23
t60 -50t24.5 -88.5q0 -72 -56.5 -117.5t-150.5 -45.5z" />
    <glyph glyph-name="afii10103" unicode="&#x456;" horiz-adv-x="254" 
d="M127 522q-40 0 -67.5 27.5t-27.5 67.5t27.5 68t67.5 28t68 -28t28 -68t-28 -67.5t-68 -27.5zM212 0h-169v483h169v-483z" />
    <glyph glyph-name="afii10104" unicode="&#x457;" horiz-adv-x="254" 
d="M312 617q0 -36 -25 -60.5t-60 -24.5t-60 24.5t-25 60.5q0 35 25 59.5t60 24.5t60 -24.5t25 -59.5zM111 617q0 -35 -24.5 -60t-60.5 -25q-35 0 -60 25t-25 60t25 59.5t60 24.5q36 0 60.5 -24.5t24.5 -59.5zM212 0h-169v483h169v-483z" />
    <glyph glyph-name="afii10105" unicode="&#x458;" horiz-adv-x="254" 
d="M127 522q-40 0 -67.5 27.5t-27.5 67.5t27.5 68t67.5 28t68 -28t28 -68t-28 -67.5t-68 -27.5zM29 -196q-63 0 -105 24l35 129q16 -13 42 -13q42 0 42 60v479h169v-479q0 -94 -45 -147t-138 -53z" />
    <glyph glyph-name="afii10106" unicode="&#x459;" horiz-adv-x="800" 
d="M16 -12v140q23 0 38.5 25t23.5 95l26 235h388v-148h104q91 0 139.5 -48t48.5 -120q0 -71 -50 -119t-138 -48h-273v337h-68l-12 -109q-14 -128 -65 -184t-162 -56zM572 202h-80v-69h80q18 0 29.5 9.5t11.5 24.5t-11.5 25t-29.5 10z" />
    <glyph glyph-name="afii10107" unicode="&#x45a;" horiz-adv-x="788" 
d="M212 0h-169v483h169v-153h111v153h169v-153h104q91 0 139.5 -46.5t48.5 -118.5q0 -70 -50 -117.5t-138 -47.5h-273v184h-111v-184zM577 191h-85v-58h85q16 0 26 8t10 21q0 12 -10 20.5t-26 8.5z" />
    <glyph glyph-name="afii10108" unicode="&#x45b;" horiz-adv-x="542" 
d="M348 522h-129v-95q19 27 58 47.5t85 20.5q70 0 104 -35.5t34 -95.5v-364h-169v294q0 52 -50 52q-35 0 -62 -42v-304h-169v522h-41v92h41v53h169v-53h129v-92z" />
    <glyph glyph-name="afii10109" unicode="&#x45c;" 
d="M434 700l-133 -144h-109l100 144h142zM510 0h-197l-67 161l-34 -55v-106h-169v483h169v-175l92 175h196l-137 -216z" />
    <glyph glyph-name="afii10110" unicode="&#x45e;" horiz-adv-x="485" 
d="M46 -188l24 148q11 -7 29 -7q43 0 51 21l6 17l-167 492h179l74 -280l76 280h178l-185 -545q-26 -77 -72.5 -105t-124.5 -29q-44 0 -68 8zM395 608q-56 -77 -152 -77q-95 0 -153 77l73 57q30 -42 80 -42q51 0 79 42z" />
    <glyph glyph-name="afii10193" unicode="&#x45f;" horiz-adv-x="535" 
d="M183 -123v123h-140v483h169v-336h111v336h169v-483h-140v-123h-169z" />
    <glyph glyph-name="afii10050" unicode="&#x490;" horiz-adv-x="496" 
d="M237 502v-502h-189v667h231v123h190v-288h-232z" />
    <glyph glyph-name="afii10098" unicode="&#x491;" horiz-adv-x="398" 
d="M212 337v-337h-169v483h173v123h169v-269h-173z" />
    <glyph glyph-name="uni1E02" unicode="&#x1e02;" horiz-adv-x="600" 
d="M391 0h-343v667h331q93 0 140 -50.5t47 -119.5q0 -61 -30.5 -101t-80.5 -52q53 -8 87.5 -54t34.5 -109q0 -77 -47 -129t-139 -52zM331 418q20 0 31.5 12t11.5 33q0 20 -11.5 31.5t-31.5 11.5h-94v-88h94zM336 161q23 0 36 12.5t13 35.5q0 22 -13 35t-36 13h-99v-96h99z
M300 700q-34 0 -59 25t-25 59q0 35 24.5 60t59.5 25t59.5 -25t24.5 -60q0 -34 -25 -59t-59 -25z" />
    <glyph glyph-name="uni1E03" unicode="&#x1e03;" horiz-adv-x="529" 
d="M212 171q20 -34 58 -34q33 0 51.5 28t18.5 77q0 48 -18.5 76t-51.5 28q-38 0 -58 -34v-141zM212 0h-169v667h169v-236q40 64 117 64q82 0 133 -68t51 -185q0 -120 -51 -187t-133 -67q-74 0 -117 65v-53zM270 700q-34 0 -59 25t-25 59q0 35 24.5 60t59.5 25t59.5 -25
t24.5 -60q0 -34 -25 -59t-59 -25z" />
    <glyph glyph-name="uni1E0A" unicode="&#x1e0a;" horiz-adv-x="630" 
d="M301 0h-253v667h252q145 0 228.5 -90.5t83.5 -242.5t-83 -243t-228 -91zM300 165q56 0 88 45t32 124q0 168 -120 168h-63v-337h63zM315 700q-35 0 -59.5 25t-24.5 59q0 35 24.5 60t59.5 25t59.5 -25t24.5 -60q0 -34 -24.5 -59t-59.5 -25z" />
    <glyph glyph-name="uni1E0B" unicode="&#x1e0b;" horiz-adv-x="529" 
d="M486 0h-168v53q-44 -65 -117 -65q-83 0 -133.5 67t-50.5 187q0 118 50.5 185.5t133.5 67.5q77 0 117 -64v236h168v-667zM259 137q37 0 59 35v141q-22 33 -59 33q-32 0 -51 -28t-19 -76t19 -76.5t51 -28.5zM261 700q-35 0 -59.5 25t-24.5 59q0 35 24.5 60t59.5 25
t59.5 -25t24.5 -60q0 -34 -24.5 -59t-59.5 -25z" />
    <glyph glyph-name="uni1E1E" unicode="&#x1e1e;" horiz-adv-x="496" 
d="M261 700q-35 0 -59.5 25t-24.5 59q0 35 24.5 60t59.5 25t59.5 -25t24.5 -60q0 -34 -24.5 -59t-59.5 -25zM237 0h-189v667h421v-165h-232v-82h225v-165h-225v-255z" />
    <glyph glyph-name="uni1E1F" unicode="&#x1e1f;" horiz-adv-x="323" 
d="M239 700q-35 0 -59.5 25t-24.5 59q0 35 24.5 60t59.5 25t59.5 -25t24.5 -60q0 -34 -24.5 -59t-59.5 -25zM239 0h-169v337h-61v146h61v21q0 80 45.5 126.5t124.5 46.5q83 0 125 -39l-49 -110q-15 16 -37 16q-18 0 -29 -11t-11 -29v-21h77v-146h-77v-337z" />
    <glyph glyph-name="uni1E22" unicode="&#x1e22;" horiz-adv-x="642" 
d="M594 0h-189v261h-168v-261h-189v667h189v-241h168v241h189v-667zM321 700q-35 0 -59.5 25t-24.5 59q0 35 24.5 60t59.5 25t59.5 -25t24.5 -60q0 -34 -24.5 -59t-59.5 -25z" />
    <glyph glyph-name="uni1E23" unicode="&#x1e23;" horiz-adv-x="535" 
d="M493 0h-169v294q0 52 -50 52q-35 0 -62 -42v-304h-169v667h169v-240q19 27 58 47.5t85 20.5q70 0 104 -35.5t34 -95.5v-364zM268 700q-34 0 -59 25t-25 59q0 35 24.5 60t59.5 25t59.5 -25t24.5 -60q0 -34 -25 -59t-59 -25z" />
    <glyph glyph-name="uni1E56" unicode="&#x1e56;" horiz-adv-x="579" 
d="M237 0h-189v667h289q110 0 169.5 -65t59.5 -161t-60 -160.5t-169 -64.5h-100v-216zM314 381q27 0 43.5 16t16.5 45t-16.5 44.5t-43.5 15.5h-77v-121h77zM290 700q-34 0 -59 25t-25 59q0 35 24.5 60t59.5 25t59.5 -25t24.5 -60q0 -34 -25 -59t-59 -25z" />
    <glyph glyph-name="uni1E57" unicode="&#x1e57;" horiz-adv-x="528" 
d="M329 -12q-76 0 -117 65v-237h-169v667h169v-52q42 64 117 64q84 0 133.5 -66t49.5 -187q0 -120 -50 -187t-133 -67zM269 137q33 0 52 28t19 77q0 48 -19 76t-52 28q-37 0 -57 -33v-142q9 -15 25 -24.5t32 -9.5zM271 533q-35 0 -59.5 24.5t-24.5 59.5t24.5 60t59.5 25
t59.5 -25t24.5 -60t-24.5 -59.5t-59.5 -24.5z" />
    <glyph glyph-name="uni1E60" unicode="&#x1e60;" horiz-adv-x="525" 
d="M259 -12q-160 0 -255 89l88 144q67 -70 166 -70q27 0 44 11t17 29q0 17 -22 29.5t-54.5 21t-71 25t-71 37.5t-54.5 62.5t-22 97.5q0 87 65.5 150.5t182.5 63.5q136 0 227 -77l-86 -140q-64 54 -148 54q-48 0 -48 -36q0 -16 21.5 -29t54.5 -22t70.5 -25.5t70.5 -38
t54.5 -61.5t21.5 -93q0 -102 -67.5 -162t-183.5 -60zM263 700q-35 0 -59.5 25t-24.5 59q0 35 24.5 60t59.5 25t59.5 -25t24.5 -60q0 -34 -24.5 -59t-59.5 -25z" />
    <glyph glyph-name="uni1E61" unicode="&#x1e61;" horiz-adv-x="436" 
d="M216 -12q-63 0 -119.5 20t-89.5 50l66 114q25 -22 66 -38.5t74 -16.5q49 0 49 26q0 12 -24.5 19t-59 15t-69 22t-59 49t-24.5 88q0 66 52 112.5t146 46.5q105 0 188 -61l-63 -111q-20 18 -54 32t-69 14q-18 0 -30 -6.5t-12 -16.5q0 -11 24.5 -18t59.5 -15.5t70.5 -23
t60 -50t24.5 -88.5q0 -72 -56.5 -117.5t-150.5 -45.5zM218 533q-34 0 -59 24.5t-25 59.5t24.5 60t59.5 25t59.5 -25t24.5 -60t-25 -59.5t-59 -24.5z" />
    <glyph glyph-name="uni1E6A" unicode="&#x1e6a;" 
d="M346 0h-190v502h-138v165h465v-165h-137v-502zM251 700q-35 0 -59.5 25t-24.5 59q0 35 24.5 60t59.5 25t59.5 -25t24.5 -60q0 -34 -24.5 -59t-59.5 -25z" />
    <glyph glyph-name="uni1E6B" unicode="&#x1e6b;" horiz-adv-x="332" 
d="M220 -12q-150 0 -150 147v202h-61v146h61v132h169v-132h77v-146h-77v-159q0 -41 31 -41q22 0 29 9l29 -131q-34 -27 -108 -27zM157 700q-35 0 -59.5 25t-24.5 59q0 35 24.5 60t59.5 25t59.5 -25t24.5 -60q0 -34 -24.5 -59t-59.5 -25z" />
    <glyph glyph-name="Wgrave" unicode="&#x1e80;" horiz-adv-x="819" 
d="M667 0h-194l-63 362l-64 -362h-193l-157 667h202l63 -385l77 385h143l78 -385l62 385h202zM471 723h-108l-134 144h142z" />
    <glyph glyph-name="wgrave" unicode="&#x1e81;" horiz-adv-x="740" 
d="M619 0h-181l-68 270l-68 -270h-181l-129 483h174l58 -269l67 269h153l72 -269l57 269h174zM429 556h-108l-134 144h142z" />
    <glyph glyph-name="Wacute" unicode="&#x1e82;" horiz-adv-x="819" 
d="M592 867l-133 -144h-109l100 144h142zM667 0h-194l-63 362l-64 -362h-193l-157 667h202l63 -385l77 385h143l78 -385l62 385h202z" />
    <glyph glyph-name="wacute" unicode="&#x1e83;" horiz-adv-x="740" 
d="M551 700l-133 -144h-109l100 144h142zM619 0h-181l-68 270l-68 -270h-181l-129 483h174l58 -269l67 269h153l72 -269l57 269h174z" />
    <glyph glyph-name="Wdieresis" unicode="&#x1e84;" horiz-adv-x="819" 
d="M594 784q0 -36 -25 -60.5t-60 -24.5t-60 24.5t-25 60.5q0 35 25 59.5t60 24.5t60 -24.5t25 -59.5zM393 784q0 -35 -24.5 -60t-60.5 -25q-35 0 -60 25t-25 60t25 59.5t60 24.5q36 0 60.5 -24.5t24.5 -59.5zM667 0h-194l-63 362l-64 -362h-193l-157 667h202l63 -385l77 385
h143l78 -385l62 385h202z" />
    <glyph glyph-name="wdieresis" unicode="&#x1e85;" horiz-adv-x="740" 
d="M555 617q0 -36 -25 -60.5t-60 -24.5t-60 24.5t-25 60.5q0 35 25 59.5t60 24.5t60 -24.5t25 -59.5zM354 617q0 -35 -24.5 -60t-60.5 -25q-35 0 -60 25t-25 60t25 59.5t60 24.5q36 0 60.5 -24.5t24.5 -59.5zM619 0h-181l-68 270l-68 -270h-181l-129 483h174l58 -269l67 269
h153l72 -269l57 269h174z" />
    <glyph glyph-name="uni1EA0" unicode="&#x1ea0;" horiz-adv-x="597" 
d="M609 0h-205l-19 86h-173l-19 -86h-205l196 667h229zM348 251l-49 221l-50 -221h99zM300 -206q-34 0 -59 25t-25 59q0 35 24.5 60t59.5 25t59.5 -25t24.5 -60q0 -34 -25 -59t-59 -25z" />
    <glyph glyph-name="uni1EA1" unicode="&#x1ea1;" horiz-adv-x="506" 
d="M464 0h-169v47q-17 -26 -53.5 -42.5t-73.5 -16.5q-60 0 -106 42.5t-46 117.5q0 77 45 115.5t107 38.5q40 0 75.5 -14t51.5 -39v46q0 29 -21 47t-59 18q-61 0 -118 -46l-57 111q39 36 96.5 53t112.5 17q95 0 155 -43.5t60 -139.5v-312zM236 98q44 0 59 29v36
q-15 29 -59 29q-23 0 -38 -12t-15 -35t15 -35t38 -12zM255 -206q-35 0 -59.5 25t-24.5 59q0 35 24.5 60t59.5 25t59.5 -25t24.5 -60q0 -34 -24.5 -59t-59.5 -25z" />
    <glyph glyph-name="uni1EA2" unicode="&#x1ea2;" horiz-adv-x="597" 
d="M609 0h-205l-19 86h-173l-19 -86h-205l196 667h229zM348 251l-49 221l-50 -221h99zM277 748l-56 14q16 58 79 58q34 0 56 -18.5t22 -54.5q0 -22 -12 -50h-63q15 20 15 46t-19 26q-14 0 -22 -21z" />
    <glyph glyph-name="uni1EA3" unicode="&#x1ea3;" horiz-adv-x="506" 
d="M464 0h-169v47q-17 -26 -53.5 -42.5t-73.5 -16.5q-60 0 -106 42.5t-46 117.5q0 77 45 115.5t107 38.5q40 0 75.5 -14t51.5 -39v46q0 29 -21 47t-59 18q-61 0 -118 -46l-57 111q39 36 96.5 53t112.5 17q95 0 155 -43.5t60 -139.5v-312zM236 98q44 0 59 29v36
q-15 29 -59 29q-23 0 -38 -12t-15 -35t15 -35t38 -12zM231 578l-56 14q16 58 79 58q34 0 56 -18.5t22 -54.5q0 -22 -12 -50h-63q15 20 15 46t-19 26q-14 0 -22 -21z" />
    <glyph glyph-name="uni1EA4" unicode="&#x1ea4;" horiz-adv-x="597" 
d="M449 682h-95l-56 57l-52 -57h-95l74 108h147zM609 0h-205l-19 86h-173l-19 -86h-205l196 667h229zM348 251l-49 221l-50 -221h99zM661 843l-133 -108h-109l100 108h142z" />
    <glyph glyph-name="uni1EA5" unicode="&#x1ea5;" horiz-adv-x="506" 
d="M464 0h-169v47q-17 -26 -53.5 -42.5t-73.5 -16.5q-60 0 -106 42.5t-46 117.5q0 77 45 115.5t107 38.5q40 0 75.5 -14t51.5 -39v46q0 29 -21 47t-59 18q-61 0 -118 -46l-57 111q39 36 96.5 53t112.5 17q95 0 155 -43.5t60 -139.5v-312zM236 98q44 0 59 29v36
q-15 29 -59 29q-23 0 -38 -12t-15 -35t15 -35t38 -12zM404 556h-95l-56 76l-52 -76h-95l74 144h147zM611 770l-133 -144h-109l100 144h142z" />
    <glyph glyph-name="uni1EA6" unicode="&#x1ea6;" horiz-adv-x="597" 
d="M449 682h-95l-56 57l-52 -57h-95l74 108h147zM609 0h-205l-19 86h-173l-19 -86h-205l196 667h229zM348 251l-49 221l-50 -221h99zM181 735h-108l-134 108h142z" />
    <glyph glyph-name="uni1EA7" unicode="&#x1ea7;" horiz-adv-x="506" 
d="M464 0h-169v47q-17 -26 -53.5 -42.5t-73.5 -16.5q-60 0 -106 42.5t-46 117.5q0 77 45 115.5t107 38.5q40 0 75.5 -14t51.5 -39v46q0 29 -21 47t-59 18q-61 0 -118 -46l-57 111q39 36 96.5 53t112.5 17q95 0 155 -43.5t60 -139.5v-312zM236 98q44 0 59 29v36
q-15 29 -59 29q-23 0 -38 -12t-15 -35t15 -35t38 -12zM404 556h-95l-56 76l-52 -76h-95l74 144h147zM134 626h-108l-134 144h142z" />
    <glyph glyph-name="uni1EA8" unicode="&#x1ea8;" horiz-adv-x="597" 
d="M449 682h-95l-56 57l-52 -57h-95l74 108h147zM609 0h-205l-19 86h-173l-19 -86h-205l196 667h229zM348 251l-49 221l-50 -221h99zM445 783l-56 11q16 43 79 43q34 0 56 -13.5t22 -40.5q0 -16 -12 -38h-63q15 15 15 35q0 19 -19 19q-15 0 -22 -16z" />
    <glyph glyph-name="uni1EA9" unicode="&#x1ea9;" horiz-adv-x="506" 
d="M464 0h-169v47q-17 -26 -53.5 -42.5t-73.5 -16.5q-60 0 -106 42.5t-46 117.5q0 77 45 115.5t107 38.5q40 0 75.5 -14t51.5 -39v46q0 29 -21 47t-59 18q-61 0 -118 -46l-57 111q39 36 96.5 53t112.5 17q95 0 155 -43.5t60 -139.5v-312zM236 98q44 0 59 29v36
q-15 29 -59 29q-23 0 -38 -12t-15 -35t15 -35t38 -12zM404 556h-95l-56 76l-52 -76h-95l74 144h147zM343 718l-56 14q16 58 79 58q34 0 56 -18.5t22 -54.5q0 -22 -12 -50h-63q15 20 15 46t-19 26q-14 0 -22 -21z" />
    <glyph glyph-name="uni1EAA" unicode="&#x1eaa;" horiz-adv-x="597" 
d="M449 678h-95l-56 38l-52 -38h-95l74 72h147zM609 0h-205l-19 86h-173l-19 -86h-205l196 667h229zM348 251l-49 221l-50 -221h99zM347 757q-32 0 -61.5 12t-38.5 12q-24 0 -24 -21h-82q0 32 28 49.5t80 17.5q32 0 61.5 -12t38.5 -12q24 0 24 21h82q0 -32 -28 -49.5
t-80 -17.5z" />
    <glyph glyph-name="uni1EAB" unicode="&#x1eab;" horiz-adv-x="506" 
d="M464 0h-169v47q-17 -26 -53.5 -42.5t-73.5 -16.5q-60 0 -106 42.5t-46 117.5q0 77 45 115.5t107 38.5q40 0 75.5 -14t51.5 -39v46q0 29 -21 47t-59 18q-61 0 -118 -46l-57 111q39 36 96.5 53t112.5 17q95 0 155 -43.5t60 -139.5v-312zM236 98q44 0 59 29v36
q-15 29 -59 29q-23 0 -38 -12t-15 -35t15 -35t38 -12zM404 523h-95l-56 76l-52 -76h-95l74 144h147zM303 682q-24 0 -43.5 12t-33 24t-23.5 12q-24 0 -24 -42h-82q0 64 28 99t80 35q24 0 43.5 -12t33 -24t23.5 -12q24 0 24 42h82q0 -64 -28 -99t-80 -35z" />
    <glyph glyph-name="uni1EAC" unicode="&#x1eac;" horiz-adv-x="597" 
d="M609 0h-205l-19 86h-173l-19 -86h-205l196 667h229zM348 251l-49 221l-50 -221h99zM448 723h-95l-56 76l-52 -76h-95l74 144h147zM300 -206q-34 0 -59 25t-25 59q0 35 24.5 60t59.5 25t59.5 -25t24.5 -60q0 -34 -25 -59t-59 -25z" />
    <glyph glyph-name="uni1EAD" unicode="&#x1ead;" horiz-adv-x="506" 
d="M464 0h-169v47q-17 -26 -53.5 -42.5t-73.5 -16.5q-60 0 -106 42.5t-46 117.5q0 77 45 115.5t107 38.5q40 0 75.5 -14t51.5 -39v46q0 29 -21 47t-59 18q-61 0 -118 -46l-57 111q39 36 96.5 53t112.5 17q95 0 155 -43.5t60 -139.5v-312zM236 98q44 0 59 29v36
q-15 29 -59 29q-23 0 -38 -12t-15 -35t15 -35t38 -12zM403 556h-95l-56 76l-52 -76h-95l74 144h147zM255 -206q-35 0 -59.5 25t-24.5 59q0 35 24.5 60t59.5 25t59.5 -25t24.5 -60q0 -34 -24.5 -59t-59.5 -25z" />
    <glyph glyph-name="uni1EAE" unicode="&#x1eae;" horiz-adv-x="597" 
d="M609 0h-205l-19 86h-173l-19 -86h-205l196 667h229zM348 251l-49 221l-50 -221h99zM481 827l-133 -75h-109l100 75h142zM451 725q-57 -42 -152 -42t-153 42l73 30q30 -22 80 -22q51 0 79 22z" />
    <glyph glyph-name="uni1EAF" unicode="&#x1eaf;" horiz-adv-x="506" 
d="M464 0h-169v47q-17 -26 -53.5 -42.5t-73.5 -16.5q-60 0 -106 42.5t-46 117.5q0 77 45 115.5t107 38.5q40 0 75.5 -14t51.5 -39v46q0 29 -21 47t-59 18q-61 0 -118 -46l-57 111q39 36 96.5 53t112.5 17q95 0 155 -43.5t60 -139.5v-312zM236 98q44 0 59 29v36
q-15 29 -59 29q-23 0 -38 -12t-15 -35t15 -35t38 -12zM435 789l-133 -144h-109l100 144h142zM404 589q-56 -77 -152 -77q-95 0 -153 77l73 57q30 -42 80 -42q51 0 79 42z" />
    <glyph glyph-name="uni1EB0" unicode="&#x1eb0;" horiz-adv-x="597" 
d="M609 0h-205l-19 86h-173l-19 -86h-205l196 667h229zM348 251l-49 221l-50 -221h99zM360 752h-108l-134 75h142zM451 722q-57 -42 -152 -42t-153 42l73 30q30 -22 80 -22q51 0 79 22z" />
    <glyph glyph-name="uni1EB1" unicode="&#x1eb1;" horiz-adv-x="506" 
d="M464 0h-169v47q-17 -26 -53.5 -42.5t-73.5 -16.5q-60 0 -106 42.5t-46 117.5q0 77 45 115.5t107 38.5q40 0 75.5 -14t51.5 -39v46q0 29 -21 47t-59 18q-61 0 -118 -46l-57 111q39 36 96.5 53t112.5 17q95 0 155 -43.5t60 -139.5v-312zM236 98q44 0 59 29v36
q-15 29 -59 29q-23 0 -38 -12t-15 -35t15 -35t38 -12zM312 645h-108l-134 144h142zM404 589q-56 -77 -152 -77q-95 0 -153 77l73 57q30 -42 80 -42q51 0 79 42z" />
    <glyph glyph-name="uni1EB2" unicode="&#x1eb2;" horiz-adv-x="597" 
d="M609 0h-205l-19 86h-173l-19 -86h-205l196 667h229zM348 251l-49 221l-50 -221h99zM277 778l-56 8q17 30 79 30q34 0 56 -9.5t22 -28.5q0 -12 -12 -26h-63q15 11 15 24t-19 13q-15 0 -22 -11zM451 722q-57 -42 -152 -42t-153 42l73 30q30 -22 80 -22q51 0 79 22z" />
    <glyph glyph-name="uni1EB3" unicode="&#x1eb3;" horiz-adv-x="506" 
d="M464 0h-169v47q-17 -26 -53.5 -42.5t-73.5 -16.5q-60 0 -106 42.5t-46 117.5q0 77 45 115.5t107 38.5q40 0 75.5 -14t51.5 -39v46q0 29 -21 47t-59 18q-61 0 -118 -46l-57 111q39 36 96.5 53t112.5 17q95 0 155 -43.5t60 -139.5v-312zM236 98q44 0 59 29v36
q-15 29 -59 29q-23 0 -38 -12t-15 -35t15 -35t38 -12zM230 701l-56 14q16 58 79 58q34 0 56 -18.5t22 -54.5q0 -22 -12 -50h-63q15 20 15 46t-19 26q-14 0 -22 -21zM404 589q-56 -77 -152 -77q-95 0 -153 77l73 57q30 -42 80 -42q51 0 79 42z" />
    <glyph glyph-name="uni1EB4" unicode="&#x1eb4;" horiz-adv-x="597" 
d="M609 0h-205l-19 86h-173l-19 -86h-205l196 667h229zM348 251l-49 221l-50 -221h99zM452 719q-58 -40 -152 -40q-93 0 -153 40l73 30q30 -22 80 -22q51 0 79 22zM347 757q-32 0 -61.5 12t-38.5 12q-24 0 -24 -21h-82q0 32 28 49.5t80 17.5q32 0 61.5 -12t38.5 -12
q24 0 24 21h82q0 -32 -28 -49.5t-80 -17.5z" />
    <glyph glyph-name="uni1EB5" unicode="&#x1eb5;" horiz-adv-x="506" 
d="M464 0h-169v47q-17 -26 -53.5 -42.5t-73.5 -16.5q-60 0 -106 42.5t-46 117.5q0 77 45 115.5t107 38.5q40 0 75.5 -14t51.5 -39v46q0 29 -21 47t-59 18q-61 0 -118 -46l-57 111q39 36 96.5 53t112.5 17q95 0 155 -43.5t60 -139.5v-312zM236 98q44 0 59 29v36
q-15 29 -59 29q-23 0 -38 -12t-15 -35t15 -35t38 -12zM404 589q-56 -77 -152 -77q-95 0 -153 77l73 57q30 -42 80 -42q51 0 79 42zM299 655q-24 0 -43.5 12t-33 24t-23.5 12q-24 0 -24 -42h-82q0 64 28 99t80 35q24 0 43.5 -12t33 -24t23.5 -12q24 0 24 42h82q0 -64 -28 -99
t-80 -35z" />
    <glyph glyph-name="uni1EB6" unicode="&#x1eb6;" horiz-adv-x="597" 
d="M609 0h-205l-19 86h-173l-19 -86h-205l196 667h229zM348 251l-49 221l-50 -221h99zM300 -206q-34 0 -59 25t-25 59q0 35 24.5 60t59.5 25t59.5 -25t24.5 -60q0 -34 -25 -59t-59 -25zM451 775q-56 -77 -152 -77q-95 0 -153 77l73 57q30 -42 80 -42q51 0 79 42z" />
    <glyph glyph-name="uni1EB7" unicode="&#x1eb7;" horiz-adv-x="506" 
d="M464 0h-169v47q-17 -26 -53.5 -42.5t-73.5 -16.5q-60 0 -106 42.5t-46 117.5q0 77 45 115.5t107 38.5q40 0 75.5 -14t51.5 -39v46q0 29 -21 47t-59 18q-61 0 -118 -46l-57 111q39 36 96.5 53t112.5 17q95 0 155 -43.5t60 -139.5v-312zM236 98q44 0 59 29v36
q-15 29 -59 29q-23 0 -38 -12t-15 -35t15 -35t38 -12zM255 -206q-35 0 -59.5 25t-24.5 59q0 35 24.5 60t59.5 25t59.5 -25t24.5 -60q0 -34 -24.5 -59t-59.5 -25zM404 608q-56 -77 -152 -77q-95 0 -153 77l73 57q30 -42 80 -42q51 0 79 42z" />
    <glyph glyph-name="uni1EB8" unicode="&#x1eb8;" 
d="M469 0h-421v667h421v-165h-232v-82h225v-165h-225v-90h232v-165zM260 -206q-34 0 -59 25t-25 59q0 35 24.5 60t59.5 25t59.5 -25t24.5 -60q0 -34 -25 -59t-59 -25z" />
    <glyph glyph-name="uni1EB9" unicode="&#x1eb9;" horiz-adv-x="489" 
d="M260 -12q-109 0 -176 69.5t-67 184.5q0 108 64.5 180.5t171.5 72.5q104 0 164 -70.5t60 -190.5v-46h-292q5 -29 29 -48.5t65 -19.5q22 0 51 10t45 26l72 -101q-33 -32 -84.5 -49.5t-102.5 -17.5zM317 299q-7 64 -67 64q-59 0 -66 -64h133zM253 -206q-35 0 -59.5 25
t-24.5 59q0 35 24.5 60t59.5 25t59.5 -25t24.5 -60q0 -34 -24.5 -59t-59.5 -25z" />
    <glyph glyph-name="uni1EBA" unicode="&#x1eba;" 
d="M469 0h-421v667h421v-165h-232v-82h225v-165h-225v-90h232v-165zM228 748l-56 14q16 58 79 58q34 0 56 -18.5t22 -54.5q0 -22 -12 -50h-63q15 20 15 46t-19 26q-14 0 -22 -21z" />
    <glyph glyph-name="uni1EBB" unicode="&#x1ebb;" horiz-adv-x="489" 
d="M260 -12q-109 0 -176 69.5t-67 184.5q0 108 64.5 180.5t171.5 72.5q104 0 164 -70.5t60 -190.5v-46h-292q5 -29 29 -48.5t65 -19.5q22 0 51 10t45 26l72 -101q-33 -32 -84.5 -49.5t-102.5 -17.5zM317 299q-7 64 -67 64q-59 0 -66 -64h133zM222 578l-56 14q16 58 79 58
q34 0 56 -18.5t22 -54.5q0 -22 -12 -50h-63q15 20 15 46t-19 26q-14 0 -22 -21z" />
    <glyph glyph-name="uni1EBC" unicode="&#x1ebc;" 
d="M469 0h-421v667h421v-165h-232v-82h225v-165h-225v-90h232v-165zM317 721q-24 0 -43.5 12t-33 24t-23.5 12q-24 0 -24 -42h-82q0 64 28 99t80 35q24 0 43.5 -12t33 -24t23.5 -12q24 0 24 42h82q0 -64 -28 -99t-80 -35z" />
    <glyph glyph-name="uni1EBD" unicode="&#x1ebd;" horiz-adv-x="489" 
d="M260 -12q-109 0 -176 69.5t-67 184.5q0 108 64.5 180.5t171.5 72.5q104 0 164 -70.5t60 -190.5v-46h-292q5 -29 29 -48.5t65 -19.5q22 0 51 10t45 26l72 -101q-33 -32 -84.5 -49.5t-102.5 -17.5zM317 299q-7 64 -67 64q-59 0 -66 -64h133zM294 554q-24 0 -43.5 12t-33 24
t-23.5 12q-24 0 -24 -42h-82q0 64 28 99t80 35q24 0 43.5 -12t33 -24t23.5 -12q24 0 24 42h82q0 -64 -28 -99t-80 -35z" />
    <glyph glyph-name="uni1EBE" unicode="&#x1ebe;" 
d="M411 682h-95l-56 57l-52 -57h-95l74 108h147zM623 843l-133 -108h-109l100 108h142zM469 0h-421v667h421v-165h-232v-82h225v-165h-225v-90h232v-165z" />
    <glyph glyph-name="uni1EBF" unicode="&#x1ebf;" horiz-adv-x="489" 
d="M400 556h-95l-56 76l-52 -76h-95l74 144h147zM607 770l-133 -144h-109l100 144h142zM260 -12q-109 0 -176 69.5t-67 184.5q0 108 64.5 180.5t171.5 72.5q104 0 164 -70.5t60 -190.5v-46h-292q5 -29 29 -48.5t65 -19.5q22 0 51 10t45 26l72 -101q-33 -32 -84.5 -49.5
t-102.5 -17.5zM317 299q-7 64 -67 64q-59 0 -66 -64h133z" />
    <glyph glyph-name="uni1EC0" unicode="&#x1ec0;" 
d="M413 682h-95l-56 57l-52 -57h-95l74 108h147zM469 0h-421v667h421v-165h-232v-82h225v-165h-225v-90h232v-165zM145 735h-108l-134 108h142z" />
    <glyph glyph-name="uni1EC1" unicode="&#x1ec1;" horiz-adv-x="489" 
d="M400 556h-95l-56 76l-52 -76h-95l74 144h147zM260 -12q-109 0 -176 69.5t-67 184.5q0 108 64.5 180.5t171.5 72.5q104 0 164 -70.5t60 -190.5v-46h-292q5 -29 29 -48.5t65 -19.5q22 0 51 10t45 26l72 -101q-33 -32 -84.5 -49.5t-102.5 -17.5zM317 299q-7 64 -67 64
q-59 0 -66 -64h133zM129 626h-108l-134 144h142z" />
    <glyph glyph-name="uni1EC2" unicode="&#x1ec2;" 
d="M410 682h-95l-56 57l-52 -57h-95l74 108h147zM469 0h-421v667h421v-165h-232v-82h225v-165h-225v-90h232v-165zM406 783l-56 11q16 43 79 43q34 0 56 -13.5t22 -40.5q0 -16 -12 -38h-63q15 15 15 35q0 19 -19 19q-15 0 -22 -16z" />
    <glyph glyph-name="uni1EC3" unicode="&#x1ec3;" horiz-adv-x="489" 
d="M400 556h-95l-56 76l-52 -76h-95l74 144h147zM260 -12q-109 0 -176 69.5t-67 184.5q0 108 64.5 180.5t171.5 72.5q104 0 164 -70.5t60 -190.5v-46h-292q5 -29 29 -48.5t65 -19.5q22 0 51 10t45 26l72 -101q-33 -32 -84.5 -49.5t-102.5 -17.5zM317 299q-7 64 -67 64
q-59 0 -66 -64h133zM338 718l-56 14q16 58 79 58q34 0 56 -18.5t22 -54.5q0 -22 -12 -50h-63q15 20 15 46t-19 26q-14 0 -22 -21z" />
    <glyph glyph-name="uni1EC4" unicode="&#x1ec4;" 
d="M411 678h-95l-56 38l-52 -38h-95l74 72h147zM469 0h-421v667h421v-165h-232v-82h225v-165h-225v-90h232v-165zM309 757q-32 0 -61.5 12t-38.5 12q-24 0 -24 -21h-82q0 32 28 49.5t80 17.5q32 0 61.5 -12t38.5 -12q24 0 24 21h82q0 -32 -28 -49.5t-80 -17.5z" />
    <glyph glyph-name="uni1EC5" unicode="&#x1ec5;" horiz-adv-x="489" 
d="M399 523h-95l-56 76l-52 -76h-95l74 144h147zM260 -12q-109 0 -176 69.5t-67 184.5q0 108 64.5 180.5t171.5 72.5q104 0 164 -70.5t60 -190.5v-46h-292q5 -29 29 -48.5t65 -19.5q22 0 51 10t45 26l72 -101q-33 -32 -84.5 -49.5t-102.5 -17.5zM317 299q-7 64 -67 64
q-59 0 -66 -64h133zM297 682q-24 0 -43.5 12t-33 24t-23.5 12q-24 0 -24 -42h-82q0 64 28 99t80 35q24 0 43.5 -12t33 -24t23.5 -12q24 0 24 42h82q0 -64 -28 -99t-80 -35z" />
    <glyph glyph-name="uni1EC6" unicode="&#x1ec6;" 
d="M408 723h-95l-56 76l-52 -76h-95l74 144h147zM469 0h-421v667h421v-165h-232v-82h225v-165h-225v-90h232v-165zM260 -206q-34 0 -59 25t-25 59q0 35 24.5 60t59.5 25t59.5 -25t24.5 -60q0 -34 -25 -59t-59 -25z" />
    <glyph glyph-name="uni1EC7" unicode="&#x1ec7;" horiz-adv-x="489" 
d="M402 556h-95l-56 76l-52 -76h-95l74 144h147zM260 -12q-109 0 -176 69.5t-67 184.5q0 108 64.5 180.5t171.5 72.5q104 0 164 -70.5t60 -190.5v-46h-292q5 -29 29 -48.5t65 -19.5q22 0 51 10t45 26l72 -101q-33 -32 -84.5 -49.5t-102.5 -17.5zM317 299q-7 64 -67 64
q-59 0 -66 -64h133zM253 -206q-35 0 -59.5 25t-24.5 59q0 35 24.5 60t59.5 25t59.5 -25t24.5 -60q0 -34 -24.5 -59t-59.5 -25z" />
    <glyph glyph-name="uni1EC8" unicode="&#x1ec8;" horiz-adv-x="285" 
d="M237 0h-189v667h189v-667zM120 748l-56 14q16 58 79 58q34 0 56 -18.5t22 -54.5q0 -22 -12 -50h-63q15 20 15 46t-19 26q-14 0 -22 -21z" />
    <glyph glyph-name="uni1EC9" unicode="&#x1ec9;" horiz-adv-x="254" 
d="M212 0h-169v483h169v-483zM105 578l-56 14q16 58 79 58q34 0 56 -18.5t22 -54.5q0 -22 -12 -50h-63q15 20 15 46t-19 26q-14 0 -22 -21z" />
    <glyph glyph-name="uni1ECA" unicode="&#x1eca;" horiz-adv-x="285" 
d="M237 0h-189v667h189v-667zM145 -206q-35 0 -59.5 25t-24.5 59q0 35 24.5 60t59.5 25t59.5 -25t24.5 -60q0 -34 -24.5 -59t-59.5 -25z" />
    <glyph glyph-name="uni1ECB" unicode="&#x1ecb;" horiz-adv-x="254" 
d="M127 522q-40 0 -67.5 27.5t-27.5 67.5t27.5 68t67.5 28t68 -28t28 -68t-28 -67.5t-68 -27.5zM212 0h-169v483h169v-483zM130 -206q-34 0 -59 25t-25 59q0 35 24.5 60t59.5 25t59.5 -25t24.5 -60q0 -34 -25 -59t-59 -25z" />
    <glyph glyph-name="uni1ECC" unicode="&#x1ecc;" horiz-adv-x="644" 
d="M322 -12q-138 0 -221 95.5t-83 249.5t83 249.5t221 95.5t221 -95.5t83 -249.5t-83 -249.5t-221 -95.5zM322 155q53 0 82.5 49.5t29.5 128.5q0 80 -29.5 129t-82.5 49t-82 -49t-29 -129t29 -129t82 -49zM325 -206q-35 0 -59.5 25t-24.5 59q0 35 24.5 60t59.5 25t59.5 -25
t24.5 -60q0 -34 -24.5 -59t-59.5 -25z" />
    <glyph glyph-name="uni1ECD" unicode="&#x1ecd;" horiz-adv-x="514" 
d="M257 -12q-113 0 -176.5 73.5t-63.5 180.5t63.5 180t176.5 73t177 -73t64 -180t-64 -180.5t-177 -73.5zM257 137q33 0 50.5 28.5t17.5 76.5t-17.5 76t-50.5 28t-50 -28t-17 -76t17 -76.5t50 -28.5zM258 -206q-34 0 -59 25t-25 59q0 35 24.5 60t59.5 25t59.5 -25t24.5 -60
q0 -34 -25 -59t-59 -25z" />
    <glyph glyph-name="uni1ECE" unicode="&#x1ece;" horiz-adv-x="644" 
d="M322 -12q-138 0 -221 95.5t-83 249.5t83 249.5t221 95.5t221 -95.5t83 -249.5t-83 -249.5t-221 -95.5zM322 155q53 0 82.5 49.5t29.5 128.5q0 80 -29.5 129t-82.5 49t-82 -49t-29 -129t29 -129t82 -49zM299 748l-56 14q16 58 79 58q34 0 56 -18.5t22 -54.5q0 -22 -12 -50
h-63q15 20 15 46t-19 26q-14 0 -22 -21z" />
    <glyph glyph-name="uni1ECF" unicode="&#x1ecf;" horiz-adv-x="514" 
d="M257 -12q-113 0 -176.5 73.5t-63.5 180.5t63.5 180t176.5 73t177 -73t64 -180t-64 -180.5t-177 -73.5zM257 137q33 0 50.5 28.5t17.5 76.5t-17.5 76t-50.5 28t-50 -28t-17 -76t17 -76.5t50 -28.5zM236 578l-56 14q16 58 79 58q34 0 56 -18.5t22 -54.5q0 -22 -12 -50h-63
q15 20 15 46t-19 26q-14 0 -22 -21z" />
    <glyph glyph-name="uni1ED0" unicode="&#x1ed0;" horiz-adv-x="644" 
d="M469 682h-95l-56 57l-52 -57h-95l74 108h147zM681 843l-133 -108h-109l100 108h142zM322 -12q-138 0 -221 95.5t-83 249.5t83 249.5t221 95.5t221 -95.5t83 -249.5t-83 -249.5t-221 -95.5zM322 155q53 0 82.5 49.5t29.5 128.5q0 80 -29.5 129t-82.5 49t-82 -49t-29 -129
t29 -129t82 -49z" />
    <glyph glyph-name="uni1ED1" unicode="&#x1ed1;" horiz-adv-x="514" 
d="M405 556h-95l-56 76l-52 -76h-95l74 144h147zM612 770l-133 -144h-109l100 144h142zM257 -12q-113 0 -176.5 73.5t-63.5 180.5t63.5 180t176.5 73t177 -73t64 -180t-64 -180.5t-177 -73.5zM257 137q33 0 50.5 28.5t17.5 76.5t-17.5 76t-50.5 28t-50 -28t-17 -76t17 -76.5
t50 -28.5z" />
    <glyph glyph-name="uni1ED2" unicode="&#x1ed2;" horiz-adv-x="644" 
d="M467 682h-95l-56 57l-52 -57h-95l74 108h147zM322 -12q-138 0 -221 95.5t-83 249.5t83 249.5t221 95.5t221 -95.5t83 -249.5t-83 -249.5t-221 -95.5zM322 155q53 0 82.5 49.5t29.5 128.5q0 80 -29.5 129t-82.5 49t-82 -49t-29 -129t29 -129t82 -49zM199 735h-108
l-134 108h142z" />
    <glyph glyph-name="uni1ED3" unicode="&#x1ed3;" horiz-adv-x="514" 
d="M405 556h-95l-56 76l-52 -76h-95l74 144h147zM257 -12q-113 0 -176.5 73.5t-63.5 180.5t63.5 180t176.5 73t177 -73t64 -180t-64 -180.5t-177 -73.5zM257 137q33 0 50.5 28.5t17.5 76.5t-17.5 76t-50.5 28t-50 -28t-17 -76t17 -76.5t50 -28.5zM134 626h-108l-134 144h142
z" />
    <glyph glyph-name="uni1ED4" unicode="&#x1ed4;" horiz-adv-x="644" 
d="M469 682h-95l-56 57l-52 -57h-95l74 108h147zM322 -12q-138 0 -221 95.5t-83 249.5t83 249.5t221 95.5t221 -95.5t83 -249.5t-83 -249.5t-221 -95.5zM322 155q53 0 82.5 49.5t29.5 128.5q0 80 -29.5 129t-82.5 49t-82 -49t-29 -129t29 -129t82 -49zM464 783l-56 11
q16 43 79 43q34 0 56 -13.5t22 -40.5q0 -16 -12 -38h-63q15 15 15 35q0 19 -19 19q-15 0 -22 -16z" />
    <glyph glyph-name="uni1ED5" unicode="&#x1ed5;" horiz-adv-x="514" 
d="M405 556h-95l-56 76l-52 -76h-95l74 144h147zM257 -12q-113 0 -176.5 73.5t-63.5 180.5t63.5 180t176.5 73t177 -73t64 -180t-64 -180.5t-177 -73.5zM257 137q33 0 50.5 28.5t17.5 76.5t-17.5 76t-50.5 28t-50 -28t-17 -76t17 -76.5t50 -28.5zM344 718l-56 14
q16 58 79 58q34 0 56 -18.5t22 -54.5q0 -22 -12 -50h-63q15 20 15 46t-19 26q-14 0 -22 -21z" />
    <glyph glyph-name="uni1ED6" unicode="&#x1ed6;" horiz-adv-x="644" 
d="M469 678h-95l-56 38l-52 -38h-95l74 72h147zM322 -12q-138 0 -221 95.5t-83 249.5t83 249.5t221 95.5t221 -95.5t83 -249.5t-83 -249.5t-221 -95.5zM322 155q53 0 82.5 49.5t29.5 128.5q0 80 -29.5 129t-82.5 49t-82 -49t-29 -129t29 -129t82 -49zM367 757
q-32 0 -61.5 12t-38.5 12q-24 0 -24 -21h-82q0 32 28 49.5t80 17.5q32 0 61.5 -12t38.5 -12q24 0 24 21h82q0 -32 -28 -49.5t-80 -17.5z" />
    <glyph glyph-name="uni1ED7" unicode="&#x1ed7;" horiz-adv-x="514" 
d="M406 523h-95l-56 76l-52 -76h-95l74 144h147zM257 -12q-113 0 -176.5 73.5t-63.5 180.5t63.5 180t176.5 73t177 -73t64 -180t-64 -180.5t-177 -73.5zM257 137q33 0 50.5 28.5t17.5 76.5t-17.5 76t-50.5 28t-50 -28t-17 -76t17 -76.5t50 -28.5zM305 682q-24 0 -43.5 12
t-33 24t-23.5 12q-24 0 -24 -42h-82q0 64 28 99t80 35q24 0 43.5 -12t33 -24t23.5 -12q24 0 24 42h82q0 -64 -28 -99t-80 -35z" />
    <glyph glyph-name="uni1ED8" unicode="&#x1ed8;" horiz-adv-x="644" 
d="M474 723h-95l-56 76l-52 -76h-95l74 144h147zM322 -12q-138 0 -221 95.5t-83 249.5t83 249.5t221 95.5t221 -95.5t83 -249.5t-83 -249.5t-221 -95.5zM322 155q53 0 82.5 49.5t29.5 128.5q0 80 -29.5 129t-82.5 49t-82 -49t-29 -129t29 -129t82 -49zM325 -206
q-35 0 -59.5 25t-24.5 59q0 35 24.5 60t59.5 25t59.5 -25t24.5 -60q0 -34 -24.5 -59t-59.5 -25z" />
    <glyph glyph-name="uni1ED9" unicode="&#x1ed9;" horiz-adv-x="514" 
d="M407 556h-95l-56 76l-52 -76h-95l74 144h147zM257 -12q-113 0 -176.5 73.5t-63.5 180.5t63.5 180t176.5 73t177 -73t64 -180t-64 -180.5t-177 -73.5zM257 137q33 0 50.5 28.5t17.5 76.5t-17.5 76t-50.5 28t-50 -28t-17 -76t17 -76.5t50 -28.5zM258 -206q-34 0 -59 25
t-25 59q0 35 24.5 60t59.5 25t59.5 -25t24.5 -60q0 -34 -25 -59t-59 -25z" />
    <glyph glyph-name="uni1EDA" unicode="&#x1eda;" horiz-adv-x="644" 
d="M503 867l-133 -144h-109l100 144h142zM322 -12q-138 0 -221 95.5t-83 249.5t83 249.5t221 95.5q141 0 225 -101q28 25 37 51q-3 -3 -16 -3q-24 0 -39.5 16t-15.5 43t19.5 46.5t45.5 19.5q31 0 52.5 -22.5t21.5 -60.5q0 -81 -73 -136q47 -86 47 -198q0 -154 -83 -249.5
t-221 -95.5zM322 155q53 0 82.5 49.5t29.5 128.5q0 80 -29.5 129t-82.5 49t-82 -49t-29 -129t29 -129t82 -49z" />
    <glyph glyph-name="uni1EDB" unicode="&#x1edb;" horiz-adv-x="514" 
d="M438 700l-133 -144h-109l100 144h142zM513 534q0 -75 -65 -130q50 -68 50 -162q0 -107 -64 -180.5t-177 -73.5t-176.5 73.5t-63.5 180.5t63.5 180t176.5 73q91 0 153 -51q27 23 36 50q-4 -3 -16 -3q-24 0 -39.5 16.5t-15.5 42.5q0 28 19 47t46 19q30 0 51.5 -22.5
t21.5 -59.5zM257 137q33 0 50.5 28.5t17.5 76.5t-17.5 76t-50.5 28t-50 -28t-17 -76t17 -76.5t50 -28.5z" />
    <glyph glyph-name="uni1EDC" unicode="&#x1edc;" horiz-adv-x="644" 
d="M322 -12q-138 0 -221 95.5t-83 249.5t83 249.5t221 95.5q141 0 225 -101q28 25 37 51q-3 -3 -16 -3q-24 0 -39.5 16t-15.5 43t19.5 46.5t45.5 19.5q31 0 52.5 -22.5t21.5 -60.5q0 -81 -73 -136q47 -86 47 -198q0 -154 -83 -249.5t-221 -95.5zM322 155q53 0 82.5 49.5
t29.5 128.5q0 80 -29.5 129t-82.5 49t-82 -49t-29 -129t29 -129t82 -49zM383 723h-108l-134 144h142z" />
    <glyph glyph-name="uni1EDD" unicode="&#x1edd;" horiz-adv-x="514" 
d="M513 534q0 -75 -65 -130q50 -68 50 -162q0 -107 -64 -180.5t-177 -73.5t-176.5 73.5t-63.5 180.5t63.5 180t176.5 73q91 0 153 -51q27 23 36 50q-4 -3 -16 -3q-24 0 -39.5 16.5t-15.5 42.5q0 28 19 47t46 19q30 0 51.5 -22.5t21.5 -59.5zM257 137q33 0 50.5 28.5
t17.5 76.5t-17.5 76t-50.5 28t-50 -28t-17 -76t17 -76.5t50 -28.5zM317 556h-108l-134 144h142z" />
    <glyph glyph-name="uni1EDE" unicode="&#x1ede;" horiz-adv-x="644" 
d="M322 -12q-138 0 -221 95.5t-83 249.5t83 249.5t221 95.5q141 0 225 -101q28 25 37 51q-3 -3 -16 -3q-24 0 -39.5 16t-15.5 43t19.5 46.5t45.5 19.5q31 0 52.5 -22.5t21.5 -60.5q0 -81 -73 -136q47 -86 47 -198q0 -154 -83 -249.5t-221 -95.5zM322 155q53 0 82.5 49.5
t29.5 128.5q0 80 -29.5 129t-82.5 49t-82 -49t-29 -129t29 -129t82 -49zM300 748l-56 14q16 58 79 58q34 0 56 -18.5t22 -54.5q0 -22 -12 -50h-63q15 20 15 46t-19 26q-14 0 -22 -21z" />
    <glyph glyph-name="uni1EDF" unicode="&#x1edf;" horiz-adv-x="514" 
d="M513 534q0 -75 -65 -130q50 -68 50 -162q0 -107 -64 -180.5t-177 -73.5t-176.5 73.5t-63.5 180.5t63.5 180t176.5 73q91 0 153 -51q27 23 36 50q-4 -3 -16 -3q-24 0 -39.5 16.5t-15.5 42.5q0 28 19 47t46 19q30 0 51.5 -22.5t21.5 -59.5zM257 137q33 0 50.5 28.5
t17.5 76.5t-17.5 76t-50.5 28t-50 -28t-17 -76t17 -76.5t50 -28.5zM235 578l-56 14q16 58 79 58q34 0 56 -18.5t22 -54.5q0 -22 -12 -50h-63q15 20 15 46t-19 26q-14 0 -22 -21z" />
    <glyph glyph-name="uni1EE0" unicode="&#x1ee0;" horiz-adv-x="644" 
d="M322 -12q-138 0 -221 95.5t-83 249.5t83 249.5t221 95.5q141 0 225 -101q28 25 37 51q-3 -3 -16 -3q-24 0 -39.5 16t-15.5 43t19.5 46.5t45.5 19.5q31 0 52.5 -22.5t21.5 -60.5q0 -81 -73 -136q47 -86 47 -198q0 -154 -83 -249.5t-221 -95.5zM322 155q53 0 82.5 49.5
t29.5 128.5q0 80 -29.5 129t-82.5 49t-82 -49t-29 -129t29 -129t82 -49zM372 721q-24 0 -43.5 12t-33 24t-23.5 12q-24 0 -24 -42h-82q0 64 28 99t80 35q24 0 43.5 -12t33 -24t23.5 -12q24 0 24 42h82q0 -64 -28 -99t-80 -35z" />
    <glyph glyph-name="uni1EE1" unicode="&#x1ee1;" horiz-adv-x="514" 
d="M513 534q0 -75 -65 -130q50 -68 50 -162q0 -107 -64 -180.5t-177 -73.5t-176.5 73.5t-63.5 180.5t63.5 180t176.5 73q91 0 153 -51q27 23 36 50q-4 -3 -16 -3q-24 0 -39.5 16.5t-15.5 42.5q0 28 19 47t46 19q30 0 51.5 -22.5t21.5 -59.5zM257 137q33 0 50.5 28.5
t17.5 76.5t-17.5 76t-50.5 28t-50 -28t-17 -76t17 -76.5t50 -28.5zM282 554q-24 0 -43.5 12t-33 24t-23.5 12q-24 0 -24 -42h-82q0 64 28 99t80 35q24 0 43.5 -12t33 -24t23.5 -12q24 0 24 42h82q0 -64 -28 -99t-80 -35z" />
    <glyph glyph-name="uni1EE2" unicode="&#x1ee2;" horiz-adv-x="644" 
d="M322 -12q-138 0 -221 95.5t-83 249.5t83 249.5t221 95.5q141 0 225 -101q28 25 37 51q-3 -3 -16 -3q-24 0 -39.5 16t-15.5 43t19.5 46.5t45.5 19.5q31 0 52.5 -22.5t21.5 -60.5q0 -81 -73 -136q47 -86 47 -198q0 -154 -83 -249.5t-221 -95.5zM322 155q53 0 82.5 49.5
t29.5 128.5q0 80 -29.5 129t-82.5 49t-82 -49t-29 -129t29 -129t82 -49zM325 -206q-35 0 -59.5 25t-24.5 59q0 35 24.5 60t59.5 25t59.5 -25t24.5 -60q0 -34 -24.5 -59t-59.5 -25z" />
    <glyph glyph-name="uni1EE3" unicode="&#x1ee3;" horiz-adv-x="514" 
d="M513 534q0 -75 -65 -130q50 -68 50 -162q0 -107 -64 -180.5t-177 -73.5t-176.5 73.5t-63.5 180.5t63.5 180t176.5 73q91 0 153 -51q27 23 36 50q-4 -3 -16 -3q-24 0 -39.5 16.5t-15.5 42.5q0 28 19 47t46 19q30 0 51.5 -22.5t21.5 -59.5zM257 137q33 0 50.5 28.5
t17.5 76.5t-17.5 76t-50.5 28t-50 -28t-17 -76t17 -76.5t50 -28.5zM258 -206q-34 0 -59 25t-25 59q0 35 24.5 60t59.5 25t59.5 -25t24.5 -60q0 -34 -25 -59t-59 -25z" />
    <glyph glyph-name="uni1EE4" unicode="&#x1ee4;" horiz-adv-x="650" 
d="M325 -12q-127 0 -202 68t-75 188v423h191v-424q0 -42 22.5 -65.5t63.5 -23.5t63.5 23.5t22.5 65.5v424h191v-422q0 -120 -75 -188.5t-202 -68.5zM328 -206q-34 0 -59 25t-25 59q0 35 24.5 60t59.5 25t59.5 -25t24.5 -60q0 -34 -25 -59t-59 -25z" />
    <glyph glyph-name="uni1EE5" unicode="&#x1ee5;" horiz-adv-x="534" 
d="M492 0h-169v55q-20 -27 -58.5 -47t-84.5 -20q-69 0 -103 36t-34 96v363h169v-293q0 -53 49 -53q37 0 62 42v304h169v-483zM268 -206q-34 0 -59 25t-25 59q0 35 24.5 60t59.5 25t59.5 -25t24.5 -60q0 -34 -25 -59t-59 -25z" />
    <glyph glyph-name="uni1EE6" unicode="&#x1ee6;" horiz-adv-x="650" 
d="M325 -12q-127 0 -202 68t-75 188v423h191v-424q0 -42 22.5 -65.5t63.5 -23.5t63.5 23.5t22.5 65.5v424h191v-422q0 -120 -75 -188.5t-202 -68.5zM303 748l-56 14q16 58 79 58q34 0 56 -18.5t22 -54.5q0 -22 -12 -50h-63q15 20 15 46t-19 26q-14 0 -22 -21z" />
    <glyph glyph-name="uni1EE7" unicode="&#x1ee7;" horiz-adv-x="534" 
d="M492 0h-169v55q-20 -27 -58.5 -47t-84.5 -20q-69 0 -103 36t-34 96v363h169v-293q0 -53 49 -53q37 0 62 42v304h169v-483zM245 578l-56 14q16 58 79 58q34 0 56 -18.5t22 -54.5q0 -22 -12 -50h-63q15 20 15 46t-19 26q-14 0 -22 -21z" />
    <glyph glyph-name="uni1EE8" unicode="&#x1ee8;" horiz-adv-x="650" 
d="M507 867l-133 -144h-109l100 144h142zM703 726q0 -44 -26 -86t-75 -69v-326q0 -120 -75 -188.5t-202 -68.5t-202 68t-75 188v423h191v-424q0 -42 22.5 -65.5t63.5 -23.5t63.5 23.5t22.5 65.5v424h191v-28q26 24 33 47q-3 -3 -16 -3q-24 0 -39.5 16t-15.5 43t19.5 46.5
t45.5 19.5q31 0 52.5 -22t21.5 -60z" />
    <glyph glyph-name="uni1EE9" unicode="&#x1ee9;" horiz-adv-x="534" 
d="M448 700l-133 -144h-109l100 144h142zM492 0h-169v55q-20 -27 -58.5 -47t-84.5 -20q-69 0 -103 36t-34 96v363h169v-293q0 -53 49 -53q37 0 62 42v304h149q12 14 17 30q-5 -3 -16 -3q-24 0 -39.5 16t-15.5 43t19 46.5t46 19.5q30 0 51.5 -22.5t21.5 -60.5q0 -75 -64 -130
v-422z" />
    <glyph glyph-name="uni1EEA" unicode="&#x1eea;" horiz-adv-x="650" 
d="M385 723h-108l-134 144h142zM703 726q0 -44 -26 -86t-75 -69v-326q0 -120 -75 -188.5t-202 -68.5t-202 68t-75 188v423h191v-424q0 -42 22.5 -65.5t63.5 -23.5t63.5 23.5t22.5 65.5v424h191v-28q26 24 33 47q-3 -3 -16 -3q-24 0 -39.5 16t-15.5 43t19.5 46.5t45.5 19.5
q31 0 52.5 -22t21.5 -60z" />
    <glyph glyph-name="uni1EEB" unicode="&#x1eeb;" horiz-adv-x="534" 
d="M328 556h-108l-134 144h142zM492 0h-169v55q-20 -27 -58.5 -47t-84.5 -20q-69 0 -103 36t-34 96v363h169v-293q0 -53 49 -53q37 0 62 42v304h149q12 14 17 30q-5 -3 -16 -3q-24 0 -39.5 16t-15.5 43t19 46.5t46 19.5q30 0 51.5 -22.5t21.5 -60.5q0 -75 -64 -130v-422z
" />
    <glyph glyph-name="uni1EEC" unicode="&#x1eec;" horiz-adv-x="650" 
d="M303 748l-56 14q16 58 79 58q34 0 56 -18.5t22 -54.5q0 -22 -12 -50h-63q15 20 15 46t-19 26q-14 0 -22 -21zM703 726q0 -44 -26 -86t-75 -69v-326q0 -120 -75 -188.5t-202 -68.5t-202 68t-75 188v423h191v-424q0 -42 22.5 -65.5t63.5 -23.5t63.5 23.5t22.5 65.5v424h191
v-28q26 24 33 47q-3 -3 -16 -3q-24 0 -39.5 16t-15.5 43t19.5 46.5t45.5 19.5q31 0 52.5 -22t21.5 -60z" />
    <glyph glyph-name="uni1EED" unicode="&#x1eed;" horiz-adv-x="534" 
d="M245 578l-56 14q16 58 79 58q34 0 56 -18.5t22 -54.5q0 -22 -12 -50h-63q15 20 15 46t-19 26q-14 0 -22 -21zM492 0h-169v55q-20 -27 -58.5 -47t-84.5 -20q-69 0 -103 36t-34 96v363h169v-293q0 -53 49 -53q37 0 62 42v304h149q12 14 17 30q-5 -3 -16 -3q-24 0 -39.5 16
t-15.5 43t19 46.5t46 19.5q30 0 51.5 -22.5t21.5 -60.5q0 -75 -64 -130v-422z" />
    <glyph glyph-name="uni1EEE" unicode="&#x1eee;" horiz-adv-x="650" 
d="M703 726q0 -44 -26 -86t-75 -69v-326q0 -120 -75 -188.5t-202 -68.5t-202 68t-75 188v423h191v-424q0 -42 22.5 -65.5t63.5 -23.5t63.5 23.5t22.5 65.5v424h191v-28q26 24 33 47q-3 -3 -16 -3q-24 0 -39.5 16t-15.5 43t19.5 46.5t45.5 19.5q31 0 52.5 -22t21.5 -60z
M374 721q-24 0 -43.5 12t-33 24t-23.5 12q-24 0 -24 -42h-82q0 64 28 99t80 35q24 0 43.5 -12t33 -24t23.5 -12q24 0 24 42h82q0 -64 -28 -99t-80 -35z" />
    <glyph glyph-name="uni1EEF" unicode="&#x1eef;" horiz-adv-x="534" 
d="M492 0h-169v55q-20 -27 -58.5 -47t-84.5 -20q-69 0 -103 36t-34 96v363h169v-293q0 -53 49 -53q37 0 62 42v304h149q12 14 17 30q-5 -3 -16 -3q-24 0 -39.5 16t-15.5 43t19 46.5t46 19.5q30 0 51.5 -22.5t21.5 -60.5q0 -75 -64 -130v-422zM308 554q-24 0 -43.5 12t-33 24
t-23.5 12q-24 0 -24 -42h-82q0 64 28 99t80 35q24 0 43.5 -12t33 -24t23.5 -12q24 0 24 42h82q0 -64 -28 -99t-80 -35z" />
    <glyph glyph-name="uni1EF0" unicode="&#x1ef0;" horiz-adv-x="650" 
d="M328 -206q-34 0 -59 25t-25 59q0 35 24.5 60t59.5 25t59.5 -25t24.5 -60q0 -34 -25 -59t-59 -25zM703 726q0 -44 -26 -86t-75 -69v-326q0 -120 -75 -188.5t-202 -68.5t-202 68t-75 188v423h191v-424q0 -42 22.5 -65.5t63.5 -23.5t63.5 23.5t22.5 65.5v424h191v-28
q26 24 33 47q-3 -3 -16 -3q-24 0 -39.5 16t-15.5 43t19.5 46.5t45.5 19.5q31 0 52.5 -22t21.5 -60z" />
    <glyph glyph-name="uni1EF1" unicode="&#x1ef1;" horiz-adv-x="534" 
d="M268 -206q-34 0 -59 25t-25 59q0 35 24.5 60t59.5 25t59.5 -25t24.5 -60q0 -34 -25 -59t-59 -25zM492 0h-169v55q-20 -27 -58.5 -47t-84.5 -20q-69 0 -103 36t-34 96v363h169v-293q0 -53 49 -53q37 0 62 42v304h149q12 14 17 30q-5 -3 -16 -3q-24 0 -39.5 16t-15.5 43
t19 46.5t46 19.5q30 0 51.5 -22.5t21.5 -60.5q0 -75 -64 -130v-422z" />
    <glyph glyph-name="Ygrave" unicode="&#x1ef2;" horiz-adv-x="577" 
d="M384 0h-190v267l-207 400h207l95 -228l94 228h206l-205 -400v-267zM349 723h-108l-134 144h142z" />
    <glyph glyph-name="ygrave" unicode="&#x1ef3;" horiz-adv-x="485" 
d="M46 -188l24 148q11 -7 29 -7q43 0 51 21l6 17l-167 492h179l74 -280l76 280h178l-185 -545q-26 -77 -72.5 -105t-124.5 -29q-44 0 -68 8zM302 556h-108l-134 144h142z" />
    <glyph glyph-name="thinspace" unicode="&#x2009;" horiz-adv-x="41" 
 />
    <glyph glyph-name="endash" unicode="&#x2013;" horiz-adv-x="527" 
d="M497 172h-467v141h467v-141z" />
    <glyph glyph-name="emdash" unicode="&#x2014;" horiz-adv-x="737" 
d="M707 172h-677v141h677v-141z" />
    <glyph glyph-name="afii00208" unicode="&#x2015;" horiz-adv-x="527" 
d="M497 172h-467v141h467v-141z" />
    <glyph glyph-name="quoteleft" unicode="&#x2018;" horiz-adv-x="277" 
d="M32 466q0 128 120 212l69 -56q-25 -12 -52 -40t-36 -55q15 3 25 3q35 0 59 -24.5t24 -63.5q0 -41 -29.5 -70.5t-69.5 -29.5q-46 0 -78 34t-32 90z" />
    <glyph glyph-name="quoteright" unicode="&#x2019;" horiz-adv-x="277" 
d="M246 554q0 -127 -121 -213l-69 56q25 12 52 40.5t36 55.5q-8 -4 -24 -4q-35 0 -59 25t-24 64q0 41 29 70t70 29q46 0 78 -33.5t32 -89.5z" />
    <glyph glyph-name="quotesinglbase" unicode="&#x201a;" horiz-adv-x="276" 
d="M245 68q0 -128 -120 -213l-69 56q25 12 52 40.5t36 55.5q-10 -4 -25 -4q-34 0 -58 25t-24 64q0 41 29 70t69 29q46 0 78 -33.5t32 -89.5z" />
    <glyph glyph-name="quotereversed" unicode="&#x201b;" horiz-adv-x="277" 
d="M32 554q0 56 32 89.5t78 33.5q40 0 69.5 -29t29.5 -70q0 -39 -24 -64t-59 -25q-15 0 -25 4q9 -27 36 -55.5t52 -40.5l-69 -56q-120 86 -120 213z" />
    <glyph glyph-name="quotedblleft" unicode="&#x201c;" horiz-adv-x="515" 
d="M31 466q0 128 121 212l69 -56q-25 -12 -52 -40t-36 -55q12 3 24 3q35 0 59 -24.5t24 -63.5q0 -41 -29 -70.5t-69 -29.5q-46 0 -78.5 34t-32.5 90zM269 466q0 128 120 212l70 -56q-25 -12 -52.5 -40.5t-36.5 -54.5q15 3 25 3q35 0 59 -24.5t24 -63.5q0 -41 -29 -70.5
t-70 -29.5q-46 0 -78 34t-32 90z" />
    <glyph glyph-name="quotedblright" unicode="&#x201d;" horiz-adv-x="515" 
d="M483 554q0 -128 -120 -213l-69 56q25 12 52 40.5t36 55.5q-8 -4 -24 -4q-35 0 -59 25t-24 64q0 41 29 70t69 29q46 0 78 -33.5t32 -89.5zM246 554q0 -127 -121 -213l-69 56q25 12 52 40.5t36 55.5q-8 -4 -24 -4q-35 0 -59 25t-24 64q0 41 29 70t70 29q46 0 78 -33.5
t32 -89.5z" />
    <glyph glyph-name="quotedblbase" unicode="&#x201e;" horiz-adv-x="513" 
d="M245 68q0 -128 -120 -213l-69 56q25 12 52 40.5t36 55.5q-10 -4 -25 -4q-34 0 -58 25t-24 64q0 41 29 70t69 29q46 0 78 -33.5t32 -89.5zM483 68q0 -127 -120 -213l-69 56q25 12 52 40.5t36 55.5q-10 -4 -25 -4q-35 0 -59 25t-24 64q0 41 29.5 70t69.5 29q46 0 78 -33.5
t32 -89.5z" />
    <glyph glyph-name="dagger" unicode="&#x2020;" horiz-adv-x="288" 
d="M271 515l-89 4l4 -192h-84l5 192l-89 -4v77l89 -3l-5 88h84l-4 -88l89 3v-77z" />
    <glyph glyph-name="daggerdbl" unicode="&#x2021;" horiz-adv-x="288" 
d="M271 592v-77l-89 4v-179l89 4v-77l-89 3l4 -90h-84l4 90l-88 -3v77l88 -4v179l-88 -4v77l88 -3l-4 88h84l-4 -88z" />
    <glyph glyph-name="bullet" unicode="&#x2022;" horiz-adv-x="358" 
d="M308 242q0 -52 -37.5 -89t-90.5 -37q-52 0 -89.5 37t-37.5 89q0 53 37 90.5t90 37.5t90.5 -37.5t37.5 -90.5z" />
    <glyph glyph-name="ellipsis" unicode="&#x2026;" horiz-adv-x="828" 
d="M239 89q0 -41 -30 -71t-71 -30t-71 30t-30 71q0 42 30 72t71 30t71 -30t30 -72zM515 89q0 -41 -30 -71t-71 -30t-71 30t-30 71q0 42 30 72t71 30t71 -30t30 -72zM791 89q0 -41 -29.5 -71t-71.5 -30q-41 0 -71 30t-30 71q0 42 30 72t71 30q42 0 71.5 -30t29.5 -72z" />
    <glyph glyph-name="perthousand" unicode="&#x2030;" horiz-adv-x="1027" 
d="M334 509q0 -71 -44 -119t-115 -48t-115 48t-44 119q0 72 44 120t115 48t115 -48t44 -120zM565 667l-356 -667h-78l355 667h79zM678 155q0 -71 -43.5 -119t-114.5 -48q-72 0 -115.5 47.5t-43.5 119.5t43.5 120t115.5 48q71 0 114.5 -48t43.5 -120zM224 509
q0 37 -13.5 55.5t-35.5 18.5q-48 0 -48 -74q0 -73 48 -73q22 0 35.5 18.5t13.5 54.5zM569 155q0 74 -49 74t-49 -74q0 -36 13.5 -54.5t35.5 -18.5t35.5 18.5t13.5 54.5zM1011 155q0 -71 -44 -119t-115 -48t-114.5 48t-43.5 119q0 72 43.5 120t114.5 48t115 -48t44 -120z
M901 155q0 74 -49 74q-48 0 -48 -74q0 -73 48 -73q22 0 35.5 18.5t13.5 54.5z" />
    <glyph glyph-name="guilsinglleft" unicode="&#x2039;" horiz-adv-x="324" 
d="M294 63h-139l-125 180l125 177h139l-125 -177z" />
    <glyph glyph-name="guilsinglright" unicode="&#x203a;" horiz-adv-x="324" 
d="M294 243l-125 -180h-139l125 180l-125 177h139z" />
    <glyph glyph-name="uni203E" unicode="&#x203e;" horiz-adv-x="316" 
d="M316 553h-316v92h316v-92z" />
    <glyph glyph-name="fraction" unicode="&#x2044;" horiz-adv-x="166" 
d="M300 667l-356 -667h-79l356 667h79z" />
    <glyph glyph-name="zerosuperior" unicode="&#x2070;" horiz-adv-x="365" 
d="M350 621q0 -88 -43.5 -147.5t-123.5 -59.5t-124 59.5t-44 147.5t44 147t124 59t123.5 -59t43.5 -147zM224 621q0 57 -9.5 82.5t-31.5 25.5q-24 0 -33.5 -25.5t-9.5 -82.5t10 -83t33 -26q41 0 41 109z" />
    <glyph glyph-name="foursuperior" unicode="&#x2074;" horiz-adv-x="365" 
d="M353 495h-39v-74h-124v74h-175v88l137 238h162v-229h39v-97zM190 592v113l-63 -113h63z" />
    <glyph glyph-name="fivesuperior" unicode="&#x2075;" horiz-adv-x="365" 
d="M347 558q0 -64 -45.5 -104t-125.5 -40q-107 0 -160 59l70 78q36 -39 87 -39q24 0 37 12.5t13 30.5t-11.5 29.5t-33.5 11.5q-38 0 -63 -31l-87 26v230h293v-98h-169v-68q28 30 75 30q51 0 85.5 -33t34.5 -94z" />
    <glyph glyph-name="sixsuperior" unicode="&#x2076;" horiz-adv-x="365" 
d="M350 559q0 -66 -44 -105.5t-111 -39.5q-89 0 -134.5 57t-45.5 149q0 99 54 153t144 54q72 0 118 -34l-54 -86q-26 22 -63 22q-31 0 -53 -19.5t-22 -54.5v-3q30 42 86 42q51 0 88 -37t37 -98zM226 553q0 23 -14 34.5t-30 11.5q-26 0 -43 -20q4 -67 48 -67q17 0 28 12.5
t11 28.5z" />
    <glyph glyph-name="sevensuperior" unicode="&#x2077;" horiz-adv-x="339" 
d="M324 736l-123 -315h-128l126 302h-184v98h309v-85z" />
    <glyph glyph-name="eightsuperior" unicode="&#x2078;" horiz-adv-x="365" 
d="M350 528q0 -59 -47 -86.5t-121 -27.5t-121 27.5t-47 86.5q0 33 23 61t59 38q-34 9 -55 34t-21 59q0 54 48 80.5t114 26.5t114 -26.5t48 -80.5q0 -34 -21 -59t-55 -34q36 -10 59 -38t23 -61zM222 701q0 33 -40 33t-40 -33q0 -24 40 -36q40 12 40 36zM228 541
q0 19 -16 29.5t-30 13.5q-8 -1 -17 -5t-18.5 -14.5t-9.5 -23.5q0 -33 45 -33q46 0 46 33z" />
    <glyph glyph-name="ninesuperior" unicode="&#x2079;" horiz-adv-x="365" 
d="M15 683q0 65 44 104.5t112 39.5q89 0 134 -56.5t45 -149.5q0 -99 -54.5 -153t-143.5 -54q-70 0 -117 34l54 87q26 -23 62 -23q30 0 52.5 19t22.5 56v3q-31 -43 -86 -43q-51 0 -88 37.5t-37 98.5zM140 688q0 -23 13.5 -34t29.5 -11q27 0 43 21q-2 65 -46 65q-18 0 -29 -12
t-11 -29z" />
    <glyph glyph-name="parenleftsuperior" unicode="&#x207d;" horiz-adv-x="206" 
d="M192 386l-72 -30q-44 48 -70 120t-26 145q0 72 26.5 144.5t69.5 120.5l72 -29q-53 -105 -53 -236q0 -133 53 -235z" />
    <glyph glyph-name="parenrightsuperior" unicode="&#x207e;" horiz-adv-x="207" 
d="M182 621q0 -73 -26 -145t-70 -120l-72 30q54 105 54 235q0 131 -54 236l72 29q43 -48 69.5 -120.5t26.5 -144.5z" />
    <glyph glyph-name="nsuperior" unicode="&#x207f;" horiz-adv-x="380" 
d="M345 326h-119v187q0 35 -33 35q-20 0 -39 -24v-198h-119v314h119v-35q33 43 97 43q45 0 69.5 -24t24.5 -66v-232z" />
    <glyph glyph-name="zeroinferior" unicode="&#x2080;" horiz-adv-x="365" 
d="M350 54q0 -88 -43.5 -147.5t-123.5 -59.5t-124 59.5t-44 147.5t44 147t124 59t123.5 -59t43.5 -147zM224 54q0 57 -9.5 82.5t-31.5 25.5q-24 0 -33.5 -25.5t-9.5 -82.5t10 -83t33 -26q41 0 41 109z" />
    <glyph glyph-name="oneinferior" unicode="&#x2081;" horiz-adv-x="305" 
d="M258 -146h-125v243l-61 -61l-70 73l149 145h107v-400z" />
    <glyph glyph-name="twoinferior" unicode="&#x2082;" horiz-adv-x="365" 
d="M346 -146h-312v90q123 95 154 126t31 54q0 17 -12 27.5t-34 10.5q-25 0 -50 -13.5t-40 -32.5l-67 77q63 67 162 67q76 0 120.5 -34.5t44.5 -94.5q0 -39 -30.5 -78t-111.5 -101h145v-98z" />
    <glyph glyph-name="threeinferior" unicode="&#x2083;" horiz-adv-x="365" 
d="M346 -33q0 -54 -46 -87t-119 -33q-111 0 -164 63l66 79q38 -44 93 -44q24 0 36.5 9t12.5 22q0 32 -62 32q-33 0 -39 -1v97q7 -1 37 -1q58 0 58 30q0 29 -49 29q-54 0 -86 -38l-63 70q57 66 160 66q76 0 117.5 -29.5t41.5 -80.5q0 -32 -23.5 -58t-59.5 -32q36 -4 62.5 -30
t26.5 -63z" />
    <glyph glyph-name="fourinferior" unicode="&#x2084;" horiz-adv-x="365" 
d="M353 -72h-39v-74h-124v74h-175v88l137 238h162v-229h39v-97zM190 25v113l-63 -113h63z" />
    <glyph glyph-name="fiveinferior" unicode="&#x2085;" horiz-adv-x="365" 
d="M347 -9q0 -64 -45.5 -104t-125.5 -40q-107 0 -160 59l70 78q36 -39 87 -39q24 0 37 12.5t13 30.5t-11.5 29.5t-33.5 11.5q-38 0 -63 -31l-87 26v230h293v-98h-169v-68q28 30 75 30q51 0 85.5 -33t34.5 -94z" />
    <glyph glyph-name="sixinferior" unicode="&#x2086;" horiz-adv-x="365" 
d="M350 -8q0 -66 -44 -105.5t-111 -39.5q-89 0 -134.5 56.5t-45.5 149.5q0 99 54 153t144 54q72 0 118 -34l-54 -86q-26 22 -63 22q-31 0 -53 -19.5t-22 -54.5v-3q30 42 86 42q51 0 88 -37t37 -98zM226 -14q0 23 -14 34.5t-30 11.5q-26 0 -43 -20q4 -67 48 -67q17 0 28 12.5
t11 28.5z" />
    <glyph glyph-name="seveninferior" unicode="&#x2087;" horiz-adv-x="339" 
d="M324 169l-123 -315h-128l126 302h-184v98h309v-85z" />
    <glyph glyph-name="eightinferior" unicode="&#x2088;" horiz-adv-x="365" 
d="M350 -39q0 -59 -47 -86.5t-121 -27.5t-121 27.5t-47 86.5q0 33 23 61t59 38q-34 9 -55 34t-21 59q0 54 48 80.5t114 26.5t114 -26.5t48 -80.5q0 -34 -21 -59t-55 -34q36 -10 59 -38t23 -61zM222 134q0 33 -40 33t-40 -33q0 -24 40 -36q40 12 40 36zM228 -26
q0 19 -16 29.5t-30 13.5q-8 -1 -17 -5t-18.5 -14.5t-9.5 -23.5q0 -33 45 -33q46 0 46 33z" />
    <glyph glyph-name="nineinferior" unicode="&#x2089;" horiz-adv-x="365" 
d="M15 116q0 65 44 104.5t112 39.5q89 0 134 -56.5t45 -149.5q0 -99 -54.5 -153t-143.5 -54q-70 0 -117 34l54 87q26 -23 62 -23q30 0 52.5 19t22.5 56v3q-31 -43 -86 -43q-51 0 -88 37.5t-37 98.5zM140 121q0 -23 13.5 -34t29.5 -11q27 0 43 21q-2 65 -46 65q-18 0 -29 -12
t-11 -29z" />
    <glyph glyph-name="parenleftinferior" unicode="&#x208d;" horiz-adv-x="206" 
d="M192 -181l-72 -30q-44 48 -70 120t-26 145q0 72 26.5 144.5t69.5 120.5l72 -29q-53 -105 -53 -236q0 -133 53 -235z" />
    <glyph glyph-name="parenrightinferior" unicode="&#x208e;" horiz-adv-x="207" 
d="M182 54q0 -73 -26 -145t-70 -120l-72 30q54 105 54 235q0 131 -54 236l72 29q43 -48 69.5 -120.5t26.5 -144.5z" />
    <glyph glyph-name="colonmonetary" unicode="&#x20a1;" horiz-adv-x="587" 
d="M550 768l-43 -161q44 -44 72 -119l-157 -66q-10 40 -34.5 64.5t-58.5 24.5q-54 0 -83.5 -49t-29.5 -129t29.5 -129t83.5 -49q35 0 60 27t34 68l156 -65q-64 -188 -235 -196l-24 -89h-89l26 96q-26 6 -40 11l-29 -107h-88l40 150q-117 94 -117 283q0 148 76.5 242
t206.5 102l24 91h89l-26 -97q16 -3 39 -13l30 110h88z" />
    <glyph glyph-name="frenchfranc" unicode="&#x20a3;" horiz-adv-x="504" 
d="M246 0h-189v87h-48v92h48v488h421v-165h-232v-82h225v-165h-225v-76h90v-92h-90v-87z" />
    <glyph glyph-name="lira" unicode="&#x20a4;" horiz-adv-x="525" 
d="M28 338v80h21q-6 22 -6 47q0 94 75.5 153t165.5 59q181 0 227 -139l-151 -75q-15 62 -58 62q-23 0 -38 -17.5t-15 -45.5q0 -22 5 -44h114v-80h-86q3 -13 7 -39h79v-80h-91q-15 -33 -37 -48q21 7 41 7q25 0 54 -11.5t49 -11.5q49 0 73 29l59 -149q-43 -47 -143 -47
q-45 0 -96.5 21t-71.5 21q-47 0 -103 -37l-56 125q77 47 77 101h-95v80h74q-12 26 -19 39h-55z" />
    <glyph glyph-name="uni20A6" unicode="&#x20a6;" horiz-adv-x="658" 
d="M602 0h-179l-177 308v-308h-189v223h-48v92h48v43h-48v92h48v217h192l164 -288v288h189v-217h46v-92h-46v-43h46v-92h-46v-223z" />
    <glyph glyph-name="peseta" unicode="&#x20a7;" horiz-adv-x="625" 
d="M620 375h-50q-13 -87 -71 -143t-153 -56h-100v-176h-190v375h-47v92h47v200h290q95 0 153 -56.5t71 -143.5h50v-92zM246 502v-35h127q-16 35 -50 35h-77zM323 341q31 0 49 34h-126v-34h77z" />
    <glyph glyph-name="rupee" unicode="&#x20a8;" horiz-adv-x="993" 
d="M773 -12q-63 0 -119.5 20t-89.5 50l66 114q25 -22 66 -38.5t74 -16.5q49 0 49 26q0 12 -24.5 19t-59 15t-69 22t-59 49t-24.5 88q0 66 52 112.5t146 46.5q105 0 188 -61l-63 -111q-20 18 -54 32t-69 14q-18 0 -30 -6.5t-12 -16.5q0 -11 24.5 -18t59.5 -15.5t70.5 -23
t60 -50t24.5 -88.5q0 -72 -56.5 -117.5t-150.5 -45.5zM569 0h-209l-75 216h-48v-216h-189v667h294q101 0 162.5 -63.5t61.5 -158.5q0 -137 -100 -194zM312 381q27 0 44.5 16t17.5 45t-17.5 44.5t-44.5 15.5h-75v-121h75z" />
    <glyph glyph-name="uni20A9" unicode="&#x20a9;" horiz-adv-x="838" 
d="M677 0h-194l-63 362l-64 -362h-193l-53 223h-95v92h74l-10 43h-64v92h42l-51 217h202l63 -385l77 385h143l78 -385l62 385h202l-51 -217h40v-92h-62l-10 -43h72v-92h-93z" />
    <glyph glyph-name="afii57636" unicode="&#x20aa;" horiz-adv-x="746" 
d="M480 0h-264v375h140v-244h124q45 0 64 20t19 61v338h140v-343q0 -207 -223 -207zM307 550q224 0 224 -206v-170h-141v164q0 41 -19 61t-64 20h-124v-419h-140v550h264z" />
    <glyph glyph-name="dong" unicode="&#x20ab;" horiz-adv-x="536" 
d="M436 -194h-316v92h316v-92zM486 0h-168v53q-44 -65 -117 -65q-83 0 -133.5 67t-50.5 187q0 118 50.5 185.5t133.5 67.5q77 0 117 -64v91h-127v92h127v53h168v-53h44v-92h-44v-522zM259 137q37 0 59 35v141q-22 33 -59 33q-32 0 -51 -28t-19 -76t19 -76.5t51 -28.5z" />
    <glyph glyph-name="Euro" unicode="&#x20ac;" horiz-adv-x="605" 
d="M347 -12q-111 0 -187.5 61.5t-104.5 168.5h-42v95h28v44h-28v94h43q28 105 104.5 166t186.5 61q179 0 250 -190l-157 -66q-10 40 -34.5 64.5t-58.5 24.5q-59 0 -90 -60h130v-94h-153v-44h153v-95h-131q30 -63 91 -63q35 0 60 27t34 68l156 -65q-67 -197 -250 -197z" />
    <glyph glyph-name="afii61289" unicode="&#x2113;" horiz-adv-x="531" 
d="M213 200v-42q0 -41 31 -41q18 0 30 9l28 -111q-31 -27 -107 -27q-151 0 -151 147v337q0 91 68.5 148t179.5 57q90 0 158.5 -45.5t68.5 -117.5q0 -46 -32.5 -87t-99.5 -92zM213 365l87 66q31 24 44.5 40t13.5 38q0 21 -19.5 35t-48.5 14q-37 0 -57 -22t-20 -64v-107z" />
    <glyph glyph-name="afii61352" unicode="&#x2116;" horiz-adv-x="1007" 
d="M825 350q-76 0 -120.5 48t-44.5 117t44.5 117t120.5 48q77 0 121 -47.5t44 -117.5q0 -69 -44 -117t-121 -48zM825 445q43 0 43 70q0 69 -43 69q-42 0 -42 -69q0 -70 42 -70zM593 0h-179l-177 308v-308h-189v667h192l164 -288v288h189v-667z" />
    <glyph glyph-name="published" unicode="&#x2117;" horiz-adv-x="778" 
d="M735 334q0 -142 -101.5 -243.5t-244.5 -101.5t-244 101.5t-101 243.5t101 243.5t244 101.5t244.5 -101.5t101.5 -243.5zM693 334q0 125 -89.5 214.5t-214.5 89.5t-214 -89.5t-89 -214.5t89.5 -214.5t213.5 -89.5q125 0 214.5 89.5t89.5 214.5zM559 414q0 -52 -38 -86
t-90 -34h-112v-163h-52v405h164q52 0 90 -34t38 -88zM504 414q0 33 -22 54.5t-51 21.5h-112v-150h112q29 0 51 21.5t22 52.5z" />
    <glyph glyph-name="servicemark" unicode="&#x2120;" horiz-adv-x="425" 
d="M388 447h-28v182l-65 -182h-8l-65 182v-182h-28v220h43l54 -158l54 158h43v-220zM155 504q0 -28 -19 -46t-52 -18q-43 0 -69 29l16 23q21 -25 52 -25q19 0 30 9.5t11 25.5q0 18 -16 30.5t-36 19t-36 22t-16 40.5q0 26 19 42.5t48 16.5q41 0 63 -24l-15 -21q-18 20 -46 20
q-16 0 -26.5 -9t-10.5 -24q0 -16 16 -27t35.5 -18t35.5 -23.5t16 -42.5z" />
    <glyph glyph-name="trademark" unicode="&#x2122;" horiz-adv-x="414" 
d="M379 447h-28v182l-65 -182h-8l-65 182v-182h-28v220h43l54 -158l54 158h43v-220zM149 641h-52v-194h-28v194h-52v26h132v-26z" />
    <glyph glyph-name="Omega" unicode="&#x2126;" horiz-adv-x="643" 
d="M32 165h91q-105 91 -105 214q0 137 82.5 218t220.5 81q140 0 222 -80.5t82 -218.5q0 -123 -106 -214h92v-165h-253v165q37 18 56 68.5t19 100.5q0 77 -26 126.5t-86 49.5q-59 0 -85 -49.5t-26 -126.5q0 -51 19 -101t55 -68v-165h-252v165z" />
    <glyph glyph-name="estimated" unicode="&#x212e;" horiz-adv-x="842" 
d="M811 324h-632q-5 0 -5 -5v-190q0 -14 9 -23q98 -103 240 -103q151 0 250 115h57q-54 -63 -135 -99.5t-174 -36.5q-161 0 -275.5 103t-114.5 248t114.5 248t275.5 103t275.5 -103t114.5 -248v-9zM668 349v191q0 14 -10 24q-97 99 -235 99q-140 0 -239 -102
q-10 -10 -10 -24v-188q0 -6 5 -6h485q4 0 4 6z" />
    <glyph glyph-name="onethird" unicode="&#x2153;" horiz-adv-x="843" 
d="M258 267h-125v243l-61 -61l-70 73l149 145h107v-400zM613 667l-356 -667h-79l356 667h79zM825 113q0 -54 -46 -87t-119 -33q-111 0 -164 63l66 79q38 -44 93 -44q24 0 36.5 9t12.5 22q0 32 -62 32q-33 0 -39 -1v97q7 -1 37 -1q58 0 58 30q0 29 -49 29q-54 0 -86 -38
l-63 70q57 66 160 66q76 0 117.5 -29.5t41.5 -80.5q0 -32 -23.5 -58t-59.5 -32q36 -4 62.5 -30t26.5 -63z" />
    <glyph glyph-name="twothirds" unicode="&#x2154;" horiz-adv-x="894" 
d="M346 267h-312v90q123 95 154 126t31 54q0 17 -12 27.5t-34 10.5q-25 0 -50 -13.5t-40 -32.5l-67 77q63 67 162 67q76 0 120.5 -34.5t44.5 -94.5q0 -39 -30.5 -78t-111.5 -101h145v-98zM665 667l-356 -667h-79l356 667h79zM876 113q0 -54 -46 -87t-119 -33q-111 0 -164 63
l66 79q38 -44 93 -44q24 0 36.5 9t12.5 22q0 32 -62 32q-33 0 -39 -1v97q7 -1 37 -1q58 0 58 30q0 29 -49 29q-54 0 -86 -38l-63 70q57 66 160 66q76 0 117.5 -29.5t41.5 -80.5q0 -32 -23.5 -58t-59.5 -32q36 -4 62.5 -30t26.5 -63z" />
    <glyph glyph-name="oneeighth" unicode="&#x215b;" horiz-adv-x="843" 
d="M258 267h-125v243l-61 -61l-70 73l149 145h107v-400zM829 107q0 -59 -47 -86.5t-121 -27.5t-121 27.5t-47 86.5q0 33 23 61t59 38q-34 9 -55 34t-21 59q0 54 48 80.5t114 26.5t114 -26.5t48 -80.5q0 -34 -21 -59t-55 -34q36 -10 59 -38t23 -61zM701 280q0 33 -40 33
t-40 -33q0 -24 40 -36q40 12 40 36zM707 120q0 19 -16 29.5t-30 13.5q-8 -1 -17 -5t-18.5 -14.5t-9.5 -23.5q0 -33 45 -33q46 0 46 33zM613 667l-356 -667h-79l356 667h79z" />
    <glyph glyph-name="threeeighths" unicode="&#x215c;" horiz-adv-x="894" 
d="M880 107q0 -59 -47 -86.5t-121 -27.5t-121 27.5t-47 86.5q0 33 23 61t59 38q-34 9 -55 34t-21 59q0 54 48 80.5t114 26.5t114 -26.5t48 -80.5q0 -34 -21 -59t-55 -34q36 -10 59 -38t23 -61zM752 280q0 33 -40 33t-40 -33q0 -24 40 -36q40 12 40 36zM758 120
q0 19 -16 29.5t-30 13.5q-8 -1 -17 -5t-18.5 -14.5t-9.5 -23.5q0 -33 45 -33q46 0 46 33zM665 667l-356 -667h-79l356 667h79zM346 380q0 -54 -46 -87t-119 -33q-111 0 -164 63l66 79q38 -44 93 -44q24 0 36.5 9t12.5 22q0 32 -62 32q-33 0 -39 -1v97q7 -1 37 -1q58 0 58 30
q0 29 -49 29q-54 0 -86 -38l-63 70q57 66 160 66q76 0 117.5 -29.5t41.5 -80.5q0 -32 -23.5 -58t-59.5 -32q36 -4 62.5 -30t26.5 -63z" />
    <glyph glyph-name="fiveeighths" unicode="&#x215d;" horiz-adv-x="885" 
d="M871 107q0 -59 -47 -86.5t-121 -27.5t-121 27.5t-47 86.5q0 33 23 61t59 38q-34 9 -55 34t-21 59q0 54 48 80.5t114 26.5t114 -26.5t48 -80.5q0 -34 -21 -59t-55 -34q36 -10 59 -38t23 -61zM743 280q0 33 -40 33t-40 -33q0 -24 40 -36q40 12 40 36zM749 120
q0 19 -16 29.5t-30 13.5q-8 -1 -17 -5t-18.5 -14.5t-9.5 -23.5q0 -33 45 -33q46 0 46 33zM347 404q0 -64 -45.5 -104t-125.5 -40q-107 0 -160 59l70 78q36 -39 87 -39q24 0 37 12.5t13 30.5t-11.5 29.5t-33.5 11.5q-38 0 -63 -31l-87 26v230h293v-98h-169v-68q28 30 75 30
q51 0 85.5 -33t34.5 -94zM655 667l-356 -667h-79l356 667h79z" />
    <glyph glyph-name="seveneighths" unicode="&#x215e;" horiz-adv-x="825" 
d="M811 107q0 -59 -47 -86.5t-121 -27.5t-121 27.5t-47 86.5q0 33 23 61t59 38q-34 9 -55 34t-21 59q0 54 48 80.5t114 26.5t114 -26.5t48 -80.5q0 -34 -21 -59t-55 -34q36 -10 59 -38t23 -61zM683 280q0 33 -40 33t-40 -33q0 -24 40 -36q40 12 40 36zM689 120
q0 19 -16 29.5t-30 13.5q-8 -1 -17 -5t-18.5 -14.5t-9.5 -23.5q0 -33 45 -33q46 0 46 33zM324 582l-123 -315h-128l126 302h-184v98h309v-85zM595 667l-356 -667h-79l356 667h79z" />
    <glyph glyph-name="arrowleft" unicode="&#x2190;" horiz-adv-x="582" 
d="M538 211h-269l12 -130l-281 205l281 204l-12 -129h269v-150z" />
    <glyph glyph-name="arrowup" unicode="&#x2191;" horiz-adv-x="582" 
d="M216 17v269l-130 -12l205 281l204 -281l-129 12v-269h-150z" />
    <glyph glyph-name="arrowright" unicode="&#x2192;" horiz-adv-x="582" 
d="M584 286l-281 -205l12 130h-268v150h268l-12 129z" />
    <glyph glyph-name="arrowdown" unicode="&#x2193;" horiz-adv-x="582" 
d="M366 555v-269l130 12l-205 -281l-204 281l129 -12v269h150z" />
    <glyph glyph-name="partialdiff" unicode="&#x2202;" horiz-adv-x="514" 
d="M257 -12q-113 0 -176.5 66.5t-63.5 163.5q0 94 52 161t132 67q88 0 128 -75q-36 152 -144 238l139 77q77 -77 125.5 -187.5t48.5 -245.5q0 -121 -63 -193t-178 -72zM257 137q34 0 51 21.5t17 58.5q0 80 -68 80q-67 0 -67 -80q0 -37 17 -58.5t50 -21.5z" />
    <glyph glyph-name="Delta" unicode="&#x2206;" horiz-adv-x="600" 
d="M612 0h-624l198 667h228zM369 165l-69 307l-69 -307h138z" />
    <glyph glyph-name="product" unicode="&#x220f;" horiz-adv-x="737" 
d="M646 -90h-189v592h-175v-592h-190v592h-74v165h701v-165h-73v-592z" />
    <glyph glyph-name="summation" unicode="&#x2211;" horiz-adv-x="498" 
d="M251 502l139 -206l-146 -221h223v-165h-435v169l142 217l-141 207v164h434v-165h-216z" />
    <glyph glyph-name="minus" unicode="&#x2212;" horiz-adv-x="449" 
d="M420 287h-391v99h391v-99z" />
    <glyph glyph-name="uni2215" unicode="&#x2215;" horiz-adv-x="166" 
d="M300 667l-356 -667h-79l356 667h79z" />
    <glyph glyph-name="uni2219" unicode="&#x2219;" horiz-adv-x="277" 
d="M239 244q0 -41 -30 -71t-71 -30t-71 30t-30 71q0 42 30 72t71 30t71 -30t30 -72z" />
    <glyph glyph-name="radical" unicode="&#x221a;" horiz-adv-x="553" 
d="M335 0h-105l-78 282l-90 -23l-24 96l189 48l58 -236l136 500h114z" />
    <glyph glyph-name="infinity" unicode="&#x221e;" horiz-adv-x="617" 
d="M179 150q-75 0 -112.5 55t-37.5 131t37.5 131.5t112.5 55.5q43 0 76.5 -25.5t52.5 -67.5q19 41 53.5 66.5t76.5 25.5q52 0 87 -29t49 -69.5t14 -88.5q0 -76 -37 -130.5t-113 -54.5q-42 0 -76.5 25t-53.5 67q-41 -92 -129 -92zM422 248q28 0 46.5 23.5t18.5 64.5
q0 40 -18.5 64t-46.5 24q-24 0 -42.5 -24t-27.5 -64q9 -40 27.5 -64t42.5 -24zM195 248q49 0 71 88q-22 88 -71 88q-27 0 -46 -24t-19 -64t19 -64t46 -24z" />
    <glyph glyph-name="integral" unicode="&#x222b;" horiz-adv-x="327" 
d="M60 -100h-43v108h43q19 0 32 14t13 36v552q0 70 48 114t114 44h43v-107h-43q-19 0 -32 -14t-13 -37v-552q0 -70 -48 -114t-114 -44z" />
    <glyph glyph-name="approxequal" unicode="&#x2248;" horiz-adv-x="449" 
d="M29 192v105q46 -23 98 -23q39 0 92 20.5t103 20.5q54 0 98 -18v-105q-46 23 -98 23q-38 0 -91 -20t-104 -20q-52 0 -98 17zM29 372v105q45 -24 98 -24q39 0 92 20.5t103 20.5q54 0 98 -18v-105q-45 24 -98 24q-38 0 -91 -20.5t-104 -20.5q-54 0 -98 18z" />
    <glyph glyph-name="notequal" unicode="&#x2260;" horiz-adv-x="449" 
d="M136 93h-79l52 99h-80v100h134l44 85h-178v99h231l52 98h80l-52 -98h80v-99h-134l-44 -85h178v-100h-231z" />
    <glyph glyph-name="lessequal" unicode="&#x2264;" horiz-adv-x="449" 
d="M420 135l-391 154v122l391 154v-118l-279 -98l279 -96v-118zM420 5h-391v99h391v-99z" />
    <glyph glyph-name="greaterequal" unicode="&#x2265;" horiz-adv-x="449" 
d="M420 289l-391 -154v118l278 96l-278 98v118l391 -154v-122zM420 5h-391v99h391v-99z" />
    <glyph glyph-name="triangleright" unicode="&#x22b2;" horiz-adv-x="587" 
d="M589 286l-535 -309v618z" />
    <glyph glyph-name="triangleleft" unicode="&#x22b3;" horiz-adv-x="587" 
d="M535 595v-618l-535 309z" />
    <glyph glyph-name="dotmath" unicode="&#x22c5;" horiz-adv-x="277" 
d="M239 244q0 -41 -30 -71t-71 -30t-71 30t-30 71q0 42 30 72t71 30t71 -30t30 -72z" />
    <glyph glyph-name="uni2318" unicode="&#x2318;" horiz-adv-x="667" 
d="M213 154v60h-60q-24 0 -41.5 -18t-17.5 -42q0 -25 17 -42.5t42 -17.5t42.5 17.5t17.5 42.5zM213 454v60q0 25 -17.5 42.5t-41.5 17.5q-25 0 -42.5 -17.5t-17.5 -42.5t17.5 -42.5t42.5 -17.5h59zM265 265h137v137h-137v-137zM574 154q0 24 -17.5 42t-42.5 18h-59v-60
q0 -25 17 -42.5t42 -17.5t42.5 17.5t17.5 42.5zM574 514q0 25 -18 42.5t-42 17.5q-25 0 -42 -17.5t-17 -42.5v-60h59q24 0 42 17.5t18 42.5zM625 154q0 -46 -32.5 -79t-78.5 -33t-79 33t-33 79v60h-137v-60q0 -46 -33 -79t-79 -33t-78.5 33t-32.5 79t32.5 78.5t78.5 32.5h60
v137h-59q-46 0 -79 33t-33 79t33 78.5t79 32.5t78.5 -32.5t32.5 -78.5v-60h137v60q0 46 33 78.5t79 32.5t78.5 -32.5t32.5 -78.5t-32.5 -79t-78.5 -33h-59v-137h59q46 0 78.5 -32.5t32.5 -78.5z" />
    <glyph glyph-name="blacksquare" unicode="&#x25a0;" horiz-adv-x="661" 
d="M618 0h-571v572h571v-572z" />
    <glyph glyph-name="triagup" unicode="&#x25b2;" horiz-adv-x="616" 
d="M617 29l-619 1l309 535z" />
    <glyph glyph-name="triagdn" unicode="&#x25bc;" horiz-adv-x="616" 
d="M617 510l-310 -535l-309 535h619z" />
    <glyph glyph-name="lozenge" unicode="&#x25ca;" horiz-adv-x="375" 
d="M198 0h-21l-158 334l158 333h21l158 -333zM188 41l132 293l-133 292l-132 -292z" />
    <glyph glyph-name="circlesolid" unicode="&#x25cf;" horiz-adv-x="695" 
d="M644 285q0 -123 -87 -210t-210 -87t-210 87t-87 210t87 210t210 87t210 -87t87 -210z" />
    <glyph glyph-name="blackstar" unicode="&#x2605;" horiz-adv-x="759" 
d="M759 421l-235 -171l90 -275l-235 170l-234 -170l89 275l-234 171h290l89 276l90 -276h290z" />
    <glyph glyph-name="ballotbox" unicode="&#x2610;" horiz-adv-x="661" 
d="M616 0h-571v572h571v-572zM507 100v373h-352v-373h352z" />
    <glyph glyph-name="boxchecked" unicode="&#x2611;" horiz-adv-x="661" 
d="M616 0h-571v572h474l98 178l85 -52l-86 -159v-539zM155 473v-373h210l-194 237l77 72l110 -131l107 195h-310zM507 100v238l-129 -238h129z" />
    <glyph glyph-name="diamond" unicode="&#x2666;" 
d="M501 285l-251 -250l-250 250l250 251z" />
    <glyph glyph-name="checkmark" unicode="&#x2713;" horiz-adv-x="531" 
d="M531 698l-329 -607l-202 246l77 72l110 -131l259 472z" />
    <glyph glyph-name="perthousand.onum" unicode="&#xf628;" horiz-adv-x="836" 
d="M272 423q0 -59 -35.5 -99t-92.5 -40t-92.5 40t-35.5 99t35.5 99t92.5 40t92.5 -40t35.5 -99zM548 130q0 -59 -35.5 -99t-92.5 -40t-92 40t-35 99t35 99t92 40t92.5 -40t35.5 -99zM484 550l-319 -550h-74l317 550h76zM178 423q0 26 -9.5 41t-24.5 15q-14 0 -23.5 -15
t-9.5 -41t9.5 -40.5t23.5 -14.5q15 0 24.5 14.5t9.5 40.5zM454 130q0 26 -9.5 40.5t-24.5 14.5t-24.5 -14.5t-9.5 -40.5t9.5 -40.5t24.5 -14.5t24.5 14.5t9.5 40.5zM820 130q0 -59 -35.5 -99t-92.5 -40t-92 40t-35 99t35 99t92 40t92.5 -40t35.5 -99zM726 130
q0 26 -9.5 40.5t-24.5 14.5t-24 -14.5t-9 -40.5t9 -40.5t24 -14.5t24.5 14.5t9.5 40.5z" />
    <glyph glyph-name="uniF637" unicode="&#xf637;" horiz-adv-x="379" 
d="M344 326h-119v188q0 32 -33 32q-22 0 -39 -24v-196h-118v434h118v-155q33 43 97 43q45 0 69.5 -23.5t24.5 -65.5v-233z" />
    <glyph glyph-name="zero.tzero" unicode="&#xf638;" horiz-adv-x="570" 
d="M285 -12q-74 0 -133 38l-16 -26h-114l61 99q-61 94 -61 234q0 146 68.5 245t194.5 99q74 0 131 -38l17 28h114l-61 -99q62 -95 62 -235q0 -94 -28 -170.5t-89 -125.5t-146 -49zM285 155q39 0 55 41.5t16 136.5v23l-113 -183q15 -18 42 -18zM214 333v-22l112 182
q-17 17 -41 17q-39 0 -55 -40.5t-16 -136.5z" />
    <glyph glyph-name="zero.tnum" unicode="&#xf639;" horiz-adv-x="570" 
d="M285 -12q-85 0 -146 49t-89 125.5t-28 170.5q0 146 68.5 245t194.5 99t194.5 -99t68.5 -245q0 -94 -28 -170.5t-89 -125.5t-146 -49zM285 155q39 0 55 41.5t16 136.5q0 96 -16 136.5t-55 40.5t-55 -40.5t-16 -136.5q0 -95 16 -136.5t55 -41.5z" />
    <glyph glyph-name="two.tnum" unicode="&#xf63a;" horiz-adv-x="570" 
d="M543 0h-491v152q144 119 199.5 169t75.5 77t20 55q0 24 -19 40.5t-50 16.5q-80 0 -143 -66l-108 121q96 112 254 112q116 0 186.5 -61t70.5 -160q0 -68 -44 -131.5t-159 -159.5h208v-165z" />
    <glyph glyph-name="three.tnum" unicode="&#xf63b;" horiz-adv-x="570" 
d="M281 -12q-85 0 -152.5 28.5t-106.5 76.5l107 122q60 -60 144 -60q41 0 61.5 15t20.5 36q0 25 -21 36t-67 11q-60 0 -71 -1v168q10 -1 67 -1q83 0 83 43q0 48 -81 48q-82 0 -132 -54l-102 111q88 110 250 110q118 0 184 -48.5t66 -135.5q0 -53 -38 -96t-95 -53
q59 -9 101 -52t42 -105q0 -90 -72 -144.5t-188 -54.5z" />
    <glyph glyph-name="four.tnum" unicode="&#xf63c;" horiz-adv-x="570" 
d="M486 0h-189v114h-279v155l226 398h242v-388h62v-165h-62v-114zM297 279v202l-111 -202h111z" />
    <glyph glyph-name="five.tnum" unicode="&#xf63d;" horiz-adv-x="570" 
d="M277 -12q-164 0 -252 100l109 125q58 -58 136 -58q40 0 61 18.5t21 46.5q0 29 -19 46.5t-56 17.5q-60 0 -99 -48l-135 31v400h460v-165h-270v-108q41 51 120 51q82 0 136.5 -59t54.5 -159q0 -109 -71.5 -174t-195.5 -65z" />
    <glyph glyph-name="six.tnum" unicode="&#xf63e;" horiz-adv-x="570" 
d="M306 -12q-139 0 -210 95.5t-71 248.5q0 162 84.5 253.5t224.5 91.5q112 0 186 -61l-86 -143q-40 37 -98 37q-47 0 -83.5 -35t-36.5 -96v-4q20 33 57 52t80 19q82 0 140 -59t58 -161q0 -107 -69.5 -172.5t-175.5 -65.5zM294 155q29 0 47.5 19t18.5 44q0 35 -22 51.5
t-50 16.5q-41 0 -73 -35q8 -96 79 -96z" />
    <glyph glyph-name="seven.tnum" unicode="&#xf63f;" horiz-adv-x="570" 
d="M327 0h-204l192 502h-271v165h484v-131z" />
    <glyph glyph-name="eight.tnum" unicode="&#xf640;" horiz-adv-x="570" 
d="M285 -12q-117 0 -189.5 48t-72.5 140q0 55 34.5 101t88.5 67q-113 43 -113 156q0 61 38.5 102t93 58t120.5 17t121 -16.5t93.5 -58t38.5 -102.5q0 -57 -31 -96.5t-83 -59.5q54 -21 89 -67t35 -100q0 -92 -73 -140.5t-190 -48.5zM285 410q24 6 44 20.5t20 35.5
q0 24 -17 37.5t-47 13.5t-47 -13.5t-17 -37.5q0 -21 20 -35.5t44 -20.5zM285 148q32 0 52.5 14.5t20.5 39.5q0 26 -23.5 43.5t-49.5 22.5q-25 -5 -48.5 -22.5t-23.5 -43.5t20 -40t52 -14z" />
    <glyph glyph-name="nine.tnum" unicode="&#xf641;" horiz-adv-x="570" 
d="M238 -11q-111 0 -185 61l85 143q41 -37 98 -37q50 0 85 35.5t35 95.5v4q-20 -33 -56.5 -52t-79.5 -19q-82 0 -140 59.5t-58 161.5q0 107 69.5 172t175.5 65q139 0 209.5 -95t70.5 -249q0 -162 -84.5 -253.5t-224.5 -91.5zM284 381q44 0 73 35q-6 95 -78 95q-30 0 -48 -19
t-18 -44q0 -34 21.5 -50.5t49.5 -16.5z" />
    <glyph glyph-name="percent.onum" unicode="&#xf642;" horiz-adv-x="564" 
d="M272 423q0 -59 -35.5 -99t-92.5 -40t-92.5 40t-35.5 99t35.5 99t92.5 40t92.5 -40t35.5 -99zM548 130q0 -59 -35.5 -99t-92.5 -40t-92 40t-35 99t35 99t92 40t92.5 -40t35.5 -99zM479 550l-319 -550h-75l319 550h75zM178 423q0 26 -9.5 41t-24.5 15q-14 0 -23.5 -15
t-9.5 -41t9.5 -40.5t23.5 -14.5q15 0 24.5 14.5t9.5 40.5zM454 130q0 26 -9.5 40.5t-24.5 14.5t-24.5 -14.5t-9.5 -40.5q0 -27 9.5 -41t24.5 -14t24.5 14.5t9.5 40.5z" />
    <glyph glyph-name="zero.tonum" unicode="&#xf643;" horiz-adv-x="570" 
d="M548 275q0 -124 -68.5 -205.5t-194.5 -81.5t-194.5 81.5t-68.5 205.5q0 125 68 206t195 81t195 -81t68 -206zM356 275q0 57 -18 88.5t-53 31.5q-34 0 -52.5 -32t-18.5 -88t18 -88t53 -32t53 32t18 88z" />
    <glyph glyph-name="one.tonum" unicode="&#xf644;" horiz-adv-x="570" 
d="M458 0h-190v309l-99 -99l-107 111l233 229h163v-550z" />
    <glyph glyph-name="two.tonum" unicode="&#xf645;" horiz-adv-x="570" 
d="M511 0h-459v152q144 52 210.5 105t66.5 91q0 21 -16.5 34t-44.5 13q-73 0 -133 -61l-108 116q96 112 251 112q112 0 177 -48t65 -132q0 -59 -47.5 -119t-120.5 -98h159v-165z" />
    <glyph glyph-name="three.tonum" unicode="&#xf646;" horiz-adv-x="570" 
d="M281 -127q-85 0 -152.5 28.5t-106.5 76.5l107 122q60 -60 144 -60q41 0 61.5 15t20.5 36q0 25 -21 36t-67 11q-60 0 -71 -1v168q10 -1 67 -1q83 0 83 43q0 48 -81 48q-82 0 -132 -54l-102 111q88 110 250 110q118 0 184 -48.5t66 -135.5q0 -53 -38 -96t-95 -53
q59 -9 101 -52t42 -105q0 -90 -72 -144.5t-188 -54.5z" />
    <glyph glyph-name="four.tonum" unicode="&#xf647;" horiz-adv-x="570" 
d="M548 6h-62v-123h-189v123h-279v155l226 389h242v-379h62v-165zM297 171v193l-111 -193h111z" />
    </font>
</defs>
</svg>
