<?xml version="1.0" standalone="no"?>
<!DOCTYPE svg PUBLIC "-//W3C//DTD SVG 1.1//EN" "http://www.w3.org/Graphics/SVG/1.1/DTD/svg11.dtd" >
<svg xmlns="http://www.w3.org/2000/svg" xmlns:xlink="http://www.w3.org/1999/xlink" version="1.1">
<metadata>
Created by FontForge 20170731 at Tue Nov 30 17:33:47 2010
 By ,,,
Copyright (c) Mark Simonson, 2005. All rights reserved.
</metadata>
<defs>
<font id="ProximaNovaCond-BlackIt" horiz-adv-x="501" >
  <font-face 
    font-family="Proxima Nova Cn Bl"
    font-weight="900"
    font-style="italic"
    font-stretch="normal"
    units-per-em="1000"
    panose-1="2 0 5 6 3 0 0 2 0 4"
    ascent="790"
    descent="-210"
    x-height="483"
    cap-height="667"
    bbox="-189 -295 1075 895"
    underline-thickness="20"
    underline-position="-173"
    unicode-range="U+000D-FB04"
  />
<missing-glyph horiz-adv-x="447" 
d="M419 -90h-351v842h351v-842zM387 -60v782h-288v-782h288z" />
    <glyph glyph-name="f_f_j" unicode="ffj" horiz-adv-x="900" 
d="M508 0h-169l74 337h-61l33 146h60l5 22q19 82 67 127t122 45q65 0 108 -22l-54 -119q-9 8 -28 8q-39 0 -46 -39l-5 -22h78l-33 -146h-77zM600 -196q-81 0 -118 31l60 123q13 -14 39 -14q41 0 54 60l107 479h169l-107 -479q-21 -98 -67.5 -149t-136.5 -51zM844 522
q-37 0 -61.5 23.5t-24.5 57.5q0 50 34 80t74 30q37 0 61.5 -23.5t24.5 -57.5q0 -50 -34 -80t-74 -30zM185 0h-169l74 337h-61l33 146h60l5 23q39 171 191 171q89 0 132 -41l-71 -108q-15 16 -38 16q-37 0 -46 -41l-4 -20h78l-33 -146h-77z" />
    <glyph glyph-name="f_j" unicode="fj" horiz-adv-x="577" 
d="M185 0h-169l74 337h-61l33 146h60l5 22q19 82 67 127t122 45q65 0 108 -22l-54 -119q-9 8 -28 8q-39 0 -46 -39l-5 -22h78l-33 -146h-77zM277 -196q-81 0 -118 31l60 123q13 -14 39 -14q40 0 54 60l107 479h169l-107 -479q-21 -98 -67.5 -149t-136.5 -51zM521 522
q-37 0 -61.5 23.5t-24.5 57.5q0 50 34 80t74 30q37 0 61.5 -23.5t24.5 -57.5q0 -50 -34 -80t-74 -30z" />
    <glyph glyph-name="f_f" unicode="ff" horiz-adv-x="646" 
d="M185 0h-169l74 337h-61l33 146h60l5 23q39 171 191 171q89 0 132 -41l-71 -108q-15 16 -38 16q-37 0 -46 -41l-4 -20h78l-33 -146h-77zM508 0h-169l74 337h-61l33 146h60l5 23q39 171 191 171q89 0 132 -41l-71 -108q-15 16 -38 16q-37 0 -46 -41l-4 -20h78l-33 -146h-77
z" />
    <glyph glyph-name="fi" unicode="fi" horiz-adv-x="577" 
d="M185 0h-169l74 337h-61l33 146h60l5 22q19 82 67 127t122 45q65 0 108 -22l-54 -119q-9 8 -28 8q-39 0 -46 -39l-5 -22h78l-33 -146h-77zM521 522q-37 0 -61.5 23.5t-24.5 57.5q0 50 34 80t74 30q37 0 61.5 -23.5t24.5 -57.5q0 -50 -34 -80t-74 -30zM481 0h-170l108 483
h169z" />
    <glyph glyph-name="fl" unicode="fl" horiz-adv-x="577" 
d="M185 0h-169l74 337h-61l33 146h60l5 22q19 82 67 127t122 45q65 0 108 -22l-54 -119q-9 8 -28 8q-39 0 -46 -39l-5 -22h78l-33 -146h-77zM481 0h-170l148 667h169z" />
    <glyph glyph-name="f_f_i" unicode="ffi" horiz-adv-x="900" 
d="M508 0h-169l74 337h-61l33 146h60l5 22q19 82 67 127t122 45q65 0 108 -22l-54 -119q-9 8 -28 8q-39 0 -46 -39l-5 -22h78l-33 -146h-77zM844 522q-37 0 -61.5 23.5t-24.5 57.5q0 50 34 80t74 30q37 0 61.5 -23.5t24.5 -57.5q0 -50 -34 -80t-74 -30zM804 0h-170l108 483
h169zM185 0h-169l74 337h-61l33 146h60l5 23q39 171 191 171q89 0 132 -41l-71 -108q-15 16 -38 16q-37 0 -46 -41l-4 -20h78l-33 -146h-77z" />
    <glyph glyph-name="f_f_l" unicode="ffl" horiz-adv-x="900" 
d="M508 0h-169l74 337h-61l33 146h60l5 22q19 82 67 127t122 45q65 0 108 -22l-54 -119q-9 8 -28 8q-39 0 -46 -39l-5 -22h78l-33 -146h-77zM804 0h-170l148 667h169zM185 0h-169l74 337h-61l33 146h60l5 23q39 171 191 171q89 0 132 -41l-71 -108q-15 16 -38 16
q-37 0 -46 -41l-4 -20h78l-33 -146h-77z" />
    <glyph glyph-name="f_b" unicode="fb" horiz-adv-x="852" 
d="M185 0h-169l74 337h-61l33 146h60l5 22q19 82 67 127t122 45q65 0 108 -22l-54 -119q-9 8 -28 8q-39 0 -46 -39l-5 -22h78l-33 -146h-77zM614 -12q-89 0 -122 65l-11 -53h-169l147 667h169l-53 -236q52 64 118 64q70 0 109 -47t39 -136q0 -72 -23.5 -143.5t-77.5 -126
t-126 -54.5zM577 137q39 0 64.5 47.5t25.5 96.5q0 30 -16.5 47.5t-43.5 17.5q-32 0 -57 -33l-32 -142q19 -34 59 -34z" />
    <glyph glyph-name="f_h" unicode="fh" horiz-adv-x="858" 
d="M185 0h-169l74 337h-61l33 146h60l5 22q19 82 67 127t122 45q65 0 108 -22l-54 -119q-9 8 -28 8q-39 0 -46 -39l-5 -22h78l-33 -146h-77zM762 0h-169l63 288q3 15 3 23q0 35 -44 35q-33 0 -67 -42l-67 -304h-169l147 667h169l-54 -240q64 68 140 68q60 0 94.5 -30
t34.5 -78q0 -14 -4 -32z" />
    <glyph glyph-name="f_k" unicode="fk" horiz-adv-x="824" 
d="M185 0h-169l74 337h-61l33 146h60l5 22q19 82 67 127t122 45q65 0 108 -22l-54 -119q-9 8 -28 8q-39 0 -46 -39l-5 -22h78l-33 -146h-77zM779 0h-194l-33 164l-48 -58l-23 -106h-170l148 667h169l-78 -350l126 166h200l-185 -216z" />
    <glyph glyph-name=".notdef" horiz-adv-x="447" 
d="M419 -90h-351v842h351v-842zM387 -60v782h-288v-782h288z" />
    <glyph glyph-name=".null" horiz-adv-x="0" 
 />
    <glyph glyph-name=".null" horiz-adv-x="0" 
 />
    <glyph glyph-name="nonmarkingreturn" horiz-adv-x="333" 
 />
    <glyph glyph-name="CR" unicode="&#xd;" horiz-adv-x="0" 
 />
    <glyph glyph-name="space" unicode=" " horiz-adv-x="205" 
 />
    <glyph glyph-name="exclam" unicode="!" horiz-adv-x="277" 
d="M213 242h-151l68 425h202zM94 -13q-38 0 -65 28t-27 66q0 45 33 77.5t78 32.5q38 0 65 -27.5t27 -66.5q0 -44 -33 -77t-78 -33z" />
    <glyph glyph-name="quotedbl" unicode="&#x22;" horiz-adv-x="456" 
d="M181 347h-70q-1 208 -1 230q1 42 30 71t71 29q31 0 53.5 -22.5t22.5 -55.5q0 -17 -8 -36zM391 347h-70v230q0 42 29 71t71 29q31 0 54 -22.5t23 -55.5q0 -15 -9 -36z" />
    <glyph glyph-name="numbersign" unicode="#" horiz-adv-x="567" 
d="M287 0h-120l82 161h-67l-80 -161h-121l82 161h-69l52 103h70l68 139h-69l50 102h72l81 162h120l-81 -162h66l80 162h120l-81 -162h69l-49 -102h-72l-70 -139h73l-51 -103h-75zM301 264l69 139h-66l-69 -139h66z" />
    <glyph glyph-name="dollar" unicode="$" horiz-adv-x="535" 
d="M137 -100l22 99q-117 25 -174 96l109 137q26 -35 73 -57.5t96 -22.5q24 0 38 11.5t14 28.5q0 16 -25 31.5t-60 32.5t-70.5 39t-60.5 59.5t-25 84.5q0 91 64.5 160.5t171.5 77.5l20 91h121l-23 -102q89 -24 145 -80l-106 -136q-28 31 -69 48t-80 17q-21 0 -32.5 -11
t-11.5 -26q0 -14 18 -27.5t44.5 -25.5t57.5 -30t57.5 -38.5t44.5 -53.5t18 -73q0 -98 -64.5 -166t-171.5 -75l-20 -89h-121z" />
    <glyph glyph-name="percent" unicode="%" horiz-adv-x="694" 
d="M155 0h-78l502 667h79zM485 -12q-63 0 -105 37.5t-42 97.5q0 86 52 143t125 57q63 0 105 -37.5t42 -97.5q0 -85 -52.5 -142.5t-124.5 -57.5zM490 88q24 0 42.5 26t18.5 64q0 45 -42 45q-24 0 -42.5 -26t-18.5 -63q0 -21 11.5 -33.5t30.5 -12.5zM218 342q-63 0 -105 37.5
t-42 97.5q0 85 52.5 142.5t125.5 57.5q63 0 105 -37.5t42 -97.5q0 -85 -52.5 -142.5t-125.5 -57.5zM224 442q24 0 42.5 26t18.5 64q0 45 -42 45q-24 0 -42.5 -26t-18.5 -64q0 -45 42 -45z" />
    <glyph glyph-name="ampersand" unicode="&#x26;" horiz-adv-x="574" 
d="M520 0h-181l-12 21q-66 -33 -133 -33q-90 0 -144.5 44t-54.5 130q0 87 47 138.5t127 86.5q-12 48 -12 92q0 85 59 141.5t144 56.5q74 0 123 -39t49 -108q0 -40 -14.5 -70.5t-45 -53t-56 -36t-68.5 -30.5l19 -42l24 -54q34 46 60 96l117 -74q-55 -87 -114 -149
q36 -67 66 -117zM230 118q18 0 38 9q-24 46 -33 70q-19 41 -28 68q-35 -33 -35 -79q0 -29 16.5 -48.5t41.5 -19.5zM313 480q0 -18 3 -36q71 32 71 76q0 39 -29 39q-18 0 -31.5 -22.5t-13.5 -56.5z" />
    <glyph glyph-name="quotesingle" unicode="'" horiz-adv-x="247" 
d="M181 347h-70q-1 208 -1 230q1 42 30 71t71 29q31 0 53.5 -22.5t22.5 -55.5q0 -17 -8 -36z" />
    <glyph glyph-name="parenleft" unicode="(" horiz-adv-x="326" 
d="M224 -140l-129 -59q-71 115 -71 292q0 166 70.5 320.5t194.5 271.5l100 -80q-89 -120 -139.5 -270.5t-50.5 -298.5q0 -88 25 -176z" />
    <glyph glyph-name="parenright" unicode=")" horiz-adv-x="327" 
d="M102 626l129 59q71 -115 71 -292q0 -166 -70.5 -320.5t-194.5 -271.5l-100 80q89 121 139.5 271.5t50.5 298.5q0 87 -25 175z" />
    <glyph glyph-name="asterisk" unicode="*" horiz-adv-x="351" 
d="M237 348h-79l29 111l-102 -46l-22 70l104 37l-83 58l53 61l76 -65l19 103h78l-30 -111l102 47l23 -70l-102 -38l81 -57l-54 -61l-76 64z" />
    <glyph glyph-name="plus" unicode="+" horiz-adv-x="449" 
d="M430 288h-141l-37 -165h-110l37 165h-140l22 99h140l35 158h110l-35 -158h140z" />
    <glyph glyph-name="comma" unicode="," horiz-adv-x="277" 
d="M210 91q0 -65 -48 -130t-123 -100l-57 59q31 13 63 35.5t46 48.5q-3 -1 -12 -1q-33 0 -55 21t-22 60q0 43 34.5 75t77.5 32q39 0 67.5 -26.5t28.5 -73.5z" />
    <glyph glyph-name="hyphen" unicode="-" horiz-adv-x="274" 
d="M228 172h-214l31 141h214z" />
    <glyph glyph-name="period" unicode="." horiz-adv-x="277" 
d="M94 -13q-38 0 -65 28t-27 66q0 45 33 77.5t78 32.5q39 0 65.5 -27.5t26.5 -66.5q0 -44 -33 -77t-78 -33z" />
    <glyph glyph-name="slash" unicode="/" horiz-adv-x="308" 
d="M60 -20h-121l349 707h121z" />
    <glyph glyph-name="zero" unicode="0" horiz-adv-x="562" 
d="M252 -12q-101 0 -163.5 68t-62.5 191q0 113 42 211.5t116.5 158.5t164.5 60q101 0 163 -67.5t62 -190.5q0 -113 -41.5 -212t-116 -159t-164.5 -60zM270 155q34 0 62.5 54.5t41.5 118t13 111.5q0 71 -57 71q-34 0 -62.5 -54t-41.5 -117.5t-13 -110.5q0 -73 57 -73z" />
    <glyph glyph-name="one" unicode="1" horiz-adv-x="444" 
d="M343 0h-190l94 426l-121 -99l-82 111l283 229h163z" />
    <glyph glyph-name="two" unicode="2" horiz-adv-x="552" 
d="M473 0h-491l40 179q233 144 286 186q69 55 70 95q0 24 -21 37.5t-56 13.5q-78 0 -138 -54l-81 132q98 88 236 88q111 0 184 -53.5t73 -145.5q0 -85 -63.5 -154.5t-209.5 -158.5h208z" />
    <glyph glyph-name="three" unicode="3" horiz-adv-x="554" 
d="M264 -12q-93 0 -172 36t-114 101l134 109q24 -38 66.5 -58.5t84.5 -20.5q37 0 55.5 17t18.5 41q0 40 -80 40q-59 0 -70 -1l38 168q9 -1 76 -1q84 0 84 49q0 43 -91 43q-73 0 -124 -42l-78 121q96 87 227 87q119 0 189.5 -45t70.5 -126q0 -63 -52 -110t-117 -58
q54 -15 83 -51.5t29 -89.5q0 -91 -75.5 -150t-182.5 -59z" />
    <glyph glyph-name="four" unicode="4" horiz-adv-x="566" 
d="M432 0h-189l24 114h-279l39 170l300 383h252l-86 -388h62l-36 -165h-62zM304 279l45 201l-156 -201h111z" />
    <glyph glyph-name="five" unicode="5" horiz-adv-x="562" 
d="M267 -12q-95 0 -165 34t-109 95l136 111q22 -33 58.5 -53t78.5 -20q39 0 61 21.5t22 53.5q0 24 -21 39t-59 15q-52 0 -91 -36l-124 44l82 375h460l-37 -165h-270l-23 -108q43 42 113 42q75 0 121.5 -48t46.5 -132q0 -112 -77.5 -190t-202.5 -78z" />
    <glyph glyph-name="six" unicode="6" horiz-adv-x="558" 
d="M275 -12q-119 0 -186 67t-67 189q0 82 24 158.5t68.5 138.5t113.5 99t153 37q130 0 211 -79l-115 -133q-37 45 -107 45q-42 0 -78 -28t-54 -71q-5 -9 -9 -31q50 62 139 62q76 0 127.5 -48.5t51.5 -127.5q0 -112 -79 -195t-193 -83zM275 155q32 0 53.5 25t21.5 55
q0 24 -22 40t-54 16q-37 0 -65 -30q-3 -12 -3 -34q0 -33 19.5 -52.5t49.5 -19.5z" />
    <glyph glyph-name="seven" unicode="7" horiz-adv-x="513" 
d="M247 0h-212l301 502h-263l36 165h484l-29 -131z" />
    <glyph glyph-name="eight" unicode="8" horiz-adv-x="561" 
d="M262 -12q-119 0 -192 43t-73 133q0 62 42.5 117t123.5 79q-37 18 -60 51.5t-23 75.5q0 90 78 140t181 50q104 0 179.5 -42t75.5 -128q0 -63 -42.5 -112.5t-112.5 -64.5q93 -51 93 -143q0 -90 -78 -144.5t-192 -54.5zM317 409q79 14 79 64q0 20 -18 32t-46 12
q-29 0 -48 -16t-19 -40q0 -17 16 -31t36 -21zM265 148q34 0 56 18.5t22 45.5q0 22 -16.5 36.5t-41.5 20.5q-38 -4 -64 -22.5t-26 -50.5q0 -48 70 -48z" />
    <glyph glyph-name="nine" unicode="9" horiz-adv-x="558" 
d="M322 678q119 0 186 -67t67 -189q0 -81 -24 -158t-68 -138.5t-113.5 -99t-153.5 -37.5q-131 0 -211 80l115 133q37 -46 107 -46q42 0 78 28t54 71q5 12 9 32q-48 -62 -139 -62q-76 0 -127.5 48.5t-51.5 126.5q0 112 79 195t193 83zM322 511q-32 0 -53 -25t-21 -55
q0 -24 21.5 -40t53.5 -16q37 0 65 30q3 13 3 35q0 33 -19.5 52t-49.5 19z" />
    <glyph glyph-name="colon" unicode=":" horiz-adv-x="277" 
d="M94 -13q-38 0 -65 28t-27 66q0 45 33 77.5t78 32.5q38 0 65 -27.5t27 -66.5q0 -44 -33 -77t-78 -33zM160 287q-38 0 -65 27.5t-27 65.5q0 45 33 78t78 33q38 0 65 -28t27 -66q0 -45 -33 -77.5t-78 -32.5z" />
    <glyph glyph-name="semicolon" unicode=";" horiz-adv-x="277" 
d="M210 91q0 -65 -48 -130t-123 -100l-57 59q31 13 63 35.5t46 48.5q-3 -1 -12 -1q-33 0 -55 21t-22 60q0 43 34.5 75t77.5 32q39 0 67.5 -26.5t28.5 -73.5zM160 287q-38 0 -65 27.5t-27 65.5q0 45 33 78t78 33q38 0 65 -28t27 -66q0 -45 -33 -77.5t-78 -32.5z" />
    <glyph glyph-name="less" unicode="&#x3c;" horiz-adv-x="449" 
d="M392 120l-357 154l27 122l425 154l-27 -123l-300 -98l257 -95z" />
    <glyph glyph-name="equal" unicode="=" horiz-adv-x="449" 
d="M449 377h-391l22 99h391zM408 192h-390l21 100h391z" />
    <glyph glyph-name="greater" unicode="&#x3e;" horiz-adv-x="449" 
d="M426 274l-425 -154l28 123l300 96l-258 98l25 113l357 -154z" />
    <glyph glyph-name="question" unicode="?" horiz-adv-x="394" 
d="M276 260l-154 -40q-9 29 -9 64q0 40 14 72t34.5 50.5t41 33t34.5 27.5t14 25q0 24 -35 24q-38 0 -67 -26l-65 126q78 61 178 61q79 0 133.5 -37t54.5 -100q0 -44 -18.5 -78.5t-45 -56t-52.5 -40t-44.5 -39t-18.5 -44.5q0 -12 5 -22zM156 -13q-39 0 -65.5 27.5t-26.5 66.5
q0 45 33 77.5t78 32.5q38 0 65 -27.5t27 -66.5q0 -44 -33.5 -77t-77.5 -33z" />
    <glyph glyph-name="at" unicode="@" horiz-adv-x="727" 
d="M336 -70q-128 0 -204.5 83.5t-76.5 215.5q0 106 52.5 200.5t141 151.5t189.5 57q121 0 197 -75.5t76 -190.5q0 -123 -63 -205t-141 -82q-40 0 -66 18t-34 47l-2 9q-51 -74 -124 -74q-57 0 -92 40.5t-35 113.5q0 101 61 179.5t146 78.5q71 0 97 -57l10 45h148l-47 -223
q-3 -15 -3 -27q0 -39 27 -39q26 0 48 49t22 126q0 104 -61 164t-167 60q-136 0 -236 -110.5t-100 -252.5q0 -112 64.5 -186t177.5 -74q85 0 168 54l24 -33q-96 -63 -197 -63zM354 202q34 0 63 43l21 104q-13 32 -44 32q-39 0 -63 -39t-24 -83q0 -26 12 -41.5t35 -15.5z" />
    <glyph glyph-name="A" unicode="A" horiz-adv-x="597" 
d="M555 0h-198v86h-173l-38 -86h-212l343 667h229zM357 251l-1 221l-98 -221h99z" />
    <glyph glyph-name="B" unicode="B" horiz-adv-x="600" 
d="M347 0h-354l148 667h293q90 0 138 -47t48 -112q0 -66 -43 -118.5t-105 -58.5q44 -12 67.5 -48t23.5 -81q0 -36 -12 -70t-36.5 -64.5t-68 -49t-99.5 -18.5zM276 418h91q25 0 38.5 15.5t13.5 37.5q0 35 -42 35h-81zM315 161q26 0 43 16t17 41q0 39 -41 39h-94l-21 -96h96z
" />
    <glyph glyph-name="C" unicode="C" horiz-adv-x="582" 
d="M304 -12q-125 0 -202 74t-77 197q0 110 41 204.5t123.5 154.5t190.5 60q62 0 110 -19.5t77.5 -53t46.5 -71t23 -80.5l-179 -46q-5 45 -28 74t-60 29q-65 0 -108 -78t-43 -169q0 -49 25.5 -79t68.5 -30q30 0 59 21.5t45 56.5l150 -79q-47 -83 -116 -124.5t-147 -41.5z" />
    <glyph glyph-name="D" unicode="D" horiz-adv-x="630" 
d="M246 0h-253l148 667h247q100 0 175 -72t75 -189q0 -58 -11.5 -113t-40.5 -109t-72 -94t-112 -65t-156 -25zM220 165h60q52 0 90.5 35.5t56 87.5t17.5 109q0 48 -25.5 76.5t-65.5 28.5h-59z" />
    <glyph glyph-name="E" unicode="E" 
d="M415 0h-422l148 667h421l-37 -165h-231l-18 -82h225l-37 -165h-225l-19 -90h231z" />
    <glyph glyph-name="F" unicode="F" horiz-adv-x="496" 
d="M183 0h-190l148 667h421l-37 -165h-231l-18 -82h225l-37 -165h-225z" />
    <glyph glyph-name="G" unicode="G" horiz-adv-x="611" 
d="M304 -12q-124 0 -201.5 74t-77.5 197q0 112 41.5 206t126 153.5t197.5 59.5q102 0 162 -56t74 -138l-167 -56q-4 33 -28.5 58t-59.5 25q-63 0 -107.5 -76.5t-44.5 -170.5q0 -48 24.5 -78.5t70.5 -30.5q39 0 73 31l9 40h-93l38 165h269l-61 -274q-91 -129 -245 -129z" />
    <glyph glyph-name="H" unicode="H" horiz-adv-x="642" 
d="M540 0h-189l57 261h-168l-57 -261h-190l148 667h189l-53 -241h168l53 241h189z" />
    <glyph glyph-name="I" unicode="I" horiz-adv-x="285" 
d="M183 0h-190l148 667h189z" />
    <glyph glyph-name="J" unicode="J" horiz-adv-x="437" 
d="M135 -12q-112 0 -172 51l85 148q27 -32 71 -32q62 0 76 66l99 446h189l-100 -452q-26 -119 -84.5 -173t-163.5 -54z" />
    <glyph glyph-name="K" unicode="K" horiz-adv-x="598" 
d="M555 0h-210l-70 232l-56 -71l-36 -161h-190l148 667h189l-53 -242l185 242h229l-272 -310z" />
    <glyph glyph-name="L" unicode="L" horiz-adv-x="466" 
d="M389 0h-396l148 667h189l-110 -502h206z" />
    <glyph glyph-name="M" unicode="M" horiz-adv-x="788" 
d="M686 0h-188l79 361l-201 -361h-72l-42 361l-79 -361h-190l148 667h243l32 -294l165 294h252z" />
    <glyph glyph-name="N" unicode="N" horiz-adv-x="641" 
d="M539 0h-179l-108 312l-69 -312h-190l148 667h192l100 -292l64 292h189z" />
    <glyph glyph-name="O" unicode="O" horiz-adv-x="644" 
d="M304 -12q-127 0 -203 76t-76 195q0 79 24 153.5t67.5 134t112 95.5t151.5 36q125 0 201.5 -76t76.5 -194q0 -107 -40 -201.5t-122.5 -156.5t-191.5 -62zM313 155q64 0 107.5 78t43.5 169q0 48 -25.5 78.5t-69.5 30.5q-64 0 -107 -78t-43 -169q0 -48 25.5 -78.5
t68.5 -30.5z" />
    <glyph glyph-name="P" unicode="P" horiz-adv-x="579" 
d="M183 0h-190l148 667h279q84 0 138 -55.5t54 -136.5q0 -46 -15.5 -89.5t-47.5 -82.5t-89 -63t-131 -24h-98zM267 381h75q31 0 52.5 21.5t21.5 51.5q0 23 -13.5 35.5t-36.5 12.5h-72z" />
    <glyph glyph-name="Q" unicode="Q" horiz-adv-x="645" 
d="M304 -12q-127 0 -203 76t-76 195q0 79 24 153.5t67.5 134t112 95.5t151.5 36q125 0 201.5 -76t76.5 -194q0 -110 -44 -208.5t-125 -154.5l15 -39l-144 -49l-13 34q-21 -3 -43 -3zM259 227l145 48l16 -43q44 75 44 170q0 48 -25.5 78.5t-69.5 30.5q-64 0 -107 -78
t-43 -169q0 -39 17.5 -67.5t47.5 -37.5z" />
    <glyph glyph-name="R" unicode="R" horiz-adv-x="594" 
d="M515 0h-203l-27 216h-54l-48 -216h-190l148 667h266q86 0 145 -55t59 -140q0 -79 -42.5 -144.5t-99.5 -87.5zM267 381h75q32 0 52.5 20t20.5 51q0 24 -14.5 37t-35.5 13h-71z" />
    <glyph glyph-name="S" unicode="S" horiz-adv-x="525" 
d="M247 -12q-85 0 -157.5 29t-112.5 78l109 137q26 -35 73 -57.5t96 -22.5q24 0 38 11.5t14 28.5q0 16 -25 31.5t-60 32.5t-70.5 39t-60.5 59.5t-25 84.5q0 97 72 168t189 71q68 0 131.5 -24t106.5 -68l-106 -136q-28 31 -69 48t-80 17q-21 0 -32.5 -11t-11.5 -26
q0 -14 18 -27.5t44.5 -25.5t57.5 -30t57.5 -38.5t44.5 -53.5t18 -73q0 -103 -71.5 -172.5t-187.5 -69.5z" />
    <glyph glyph-name="T" unicode="T" 
d="M292 0h-190l111 502h-138l36 165h465l-37 -165h-137z" />
    <glyph glyph-name="U" unicode="U" horiz-adv-x="650" 
d="M306 -12q-122 0 -192 60t-70 159q0 17 4 41l93 419h191l-94 -425q-3 -18 -3 -23q1 -27 21.5 -46.5t56.5 -19.5q78 0 97 89l94 425h191l-94 -422q-26 -123 -100.5 -190t-194.5 -67z" />
    <glyph glyph-name="V" unicode="V" horiz-adv-x="597" 
d="M359 0h-229l-49 667h198l7 -446l204 446h212z" />
    <glyph glyph-name="W" unicode="W" horiz-adv-x="819" 
d="M613 0h-194l16 362l-143 -362h-193l-10 667h199l-22 -385l161 385h143l-7 -385l147 385h206z" />
    <glyph glyph-name="X" unicode="X" horiz-adv-x="597" 
d="M555 0h-207l-58 187l-131 -187h-225l273 352l-114 315h206l49 -174l116 174h226l-258 -335z" />
    <glyph glyph-name="Y" unicode="Y" horiz-adv-x="577" 
d="M330 0h-190l59 267l-118 400h198l44 -228l144 228h215l-294 -400z" />
    <glyph glyph-name="Z" unicode="Z" horiz-adv-x="506" 
d="M421 0h-444l34 154l271 348h-194l36 165h437l-33 -150l-274 -352h204z" />
    <glyph glyph-name="bracketleft" unicode="[" horiz-adv-x="272" 
d="M158 -190h-210l193 868h210l-24 -107h-92l-144 -654h91z" />
    <glyph glyph-name="backslash" unicode="\" horiz-adv-x="308" 
d="M133 -20l-40 707h116l40 -707h-116z" />
    <glyph glyph-name="bracketright" unicode="]" horiz-adv-x="272" 
d="M131 -190h-209l23 107h92l145 654h-91l23 107h210z" />
    <glyph glyph-name="asciicircum" unicode="^" horiz-adv-x="397" 
d="M397 333h-112l-15 213l-109 -213h-123l194 334h121z" />
    <glyph glyph-name="underscore" unicode="_" horiz-adv-x="422" 
d="M337 -148h-427l25 108h427z" />
    <glyph glyph-name="grave" unicode="`" horiz-adv-x="242" 
d="M311 556h-108l-102 144h142z" />
    <glyph glyph-name="a" unicode="a" horiz-adv-x="529" 
d="M238 495q88 0 121 -65l12 53h168l-107 -483h-168l12 52q-51 -64 -118 -64q-70 0 -109 47t-39 136q0 72 23.5 143.5t77.5 126t127 54.5zM274 346q-39 0 -64.5 -47.5t-25.5 -96.5q0 -30 16.5 -47.5t43.5 -17.5q32 0 58 33l32 143q-19 33 -60 33z" />
    <glyph glyph-name="b" unicode="b" horiz-adv-x="529" 
d="M291 -12q-89 0 -122 65l-11 -53h-169l147 667h169l-53 -236q52 64 118 64q70 0 109 -47t39 -136q0 -72 -23.5 -143.5t-77.5 -126t-126 -54.5zM254 137q39 0 64.5 47.5t25.5 96.5q0 30 -16.5 47.5t-43.5 17.5q-32 0 -57 -33l-32 -142q19 -34 59 -34z" />
    <glyph glyph-name="c" unicode="c" horiz-adv-x="437" 
d="M234 -12q-102 0 -162 57t-60 153q0 121 77 209t193 88q61 0 107 -21t71 -54l-102 -110q-23 36 -69 36q-45 0 -75 -39t-30 -93q0 -36 22.5 -56.5t57.5 -20.5q39 0 68 31l57 -122q-60 -58 -155 -58z" />
    <glyph glyph-name="d" unicode="d" horiz-adv-x="529" 
d="M238 495q88 0 121 -65l53 237h168l-148 -667h-168l12 52q-51 -64 -118 -64q-70 0 -109 47t-39 136q0 72 23.5 143.5t77.5 126t127 54.5zM274 346q-39 0 -64.5 -47.5t-25.5 -96.5q0 -30 16.5 -47.5t43.5 -17.5q32 0 58 33l32 143q-19 33 -60 33z" />
    <glyph glyph-name="e" unicode="e" horiz-adv-x="489" 
d="M240 -12q-105 0 -166.5 55.5t-61.5 153.5q0 116 75 207t191 91q92 0 146 -53.5t54 -146.5q0 -51 -16 -107h-289v-8q0 -9 7.5 -21.5t29.5 -25.5t53 -13q55 0 92 27l52 -107q-69 -52 -167 -52zM193 299h134q1 4 1 13q0 20 -16 36t-44 16q-31 0 -50.5 -20.5t-24.5 -44.5z
" />
    <glyph glyph-name="f" unicode="f" horiz-adv-x="323" 
d="M185 0h-169l74 337h-61l33 146h60l5 23q39 171 191 171q89 0 132 -41l-71 -108q-15 16 -38 16q-37 0 -46 -41l-4 -20h78l-33 -146h-77z" />
    <glyph glyph-name="g" unicode="g" horiz-adv-x="528" 
d="M176 -196q-141 0 -216 76l89 117q20 -25 54 -39t69 -14q77 0 100 99l9 36q-47 -65 -118 -65q-69 0 -110 43t-41 130q0 71 23 139t76 118.5t124 50.5q36 0 71.5 -16.5t51.5 -48.5l12 53h169l-99 -440q-53 -239 -264 -239zM248 163q32 0 58 34l25 113q-19 36 -63 36
q-37 0 -59.5 -39t-22.5 -84q0 -28 16.5 -44t45.5 -16z" />
    <glyph glyph-name="h" unicode="h" horiz-adv-x="535" 
d="M439 0h-169l63 288q3 15 3 23q0 35 -44 35q-33 0 -67 -42l-67 -304h-169l147 667h169l-54 -240q64 68 140 68q60 0 94.5 -30t34.5 -78q0 -14 -4 -32z" />
    <glyph glyph-name="i" unicode="i" horiz-adv-x="254" 
d="M198 522q-37 0 -61.5 23.5t-24.5 57.5q0 50 34 80t74 30q37 0 61.5 -23.5t24.5 -57.5q0 -50 -34 -80t-74 -30zM158 0h-170l108 483h169z" />
    <glyph glyph-name="j" unicode="j" horiz-adv-x="254" 
d="M-46 -196q-81 0 -118 31l60 123q13 -14 39 -14q41 0 54 60l107 479h169l-107 -479q-21 -98 -67.5 -149t-136.5 -51zM198 522q-37 0 -61.5 23.5t-24.5 57.5q0 50 34 80t74 30q37 0 61.5 -23.5t24.5 -57.5q0 -50 -34 -80t-74 -30z" />
    <glyph glyph-name="k" unicode="k" 
d="M456 0h-194l-33 164l-48 -58l-23 -106h-170l148 667h169l-78 -350l126 166h200l-185 -216z" />
    <glyph glyph-name="l" unicode="l" horiz-adv-x="254" 
d="M158 0h-170l148 667h169z" />
    <glyph glyph-name="m" unicode="m" horiz-adv-x="797" 
d="M700 0h-169l63 285q4 20 4 26q0 16 -10.5 25.5t-28.5 9.5q-34 0 -63 -42l-67 -304h-169l63 285q4 20 4 26q0 35 -40 35q-34 0 -62 -42l-67 -304h-170l108 483h169l-14 -56q57 68 135 68q55 0 89 -29t34 -55l-1 -2q64 86 149 86q53 0 89 -29t36 -79q0 -16 -4 -32z" />
    <glyph glyph-name="n" unicode="n" horiz-adv-x="535" 
d="M438 0h-169l63 285q4 24 4 26q0 17 -11.5 26t-28.5 9q-37 0 -71 -42l-67 -304h-170l108 483h169l-14 -56q64 68 140 68q60 0 94.5 -30t34.5 -78q0 -18 -4 -32z" />
    <glyph glyph-name="o" unicode="o" horiz-adv-x="514" 
d="M234 -12q-107 0 -164.5 58.5t-57.5 152.5q0 73 31.5 140t94 111.5t140.5 44.5q108 0 165.5 -58t57.5 -153q0 -115 -75 -205.5t-192 -90.5zM242 137q39 0 63.5 49t24.5 96q0 64 -60 64q-38 0 -62.5 -49t-24.5 -95q0 -65 59 -65z" />
    <glyph glyph-name="p" unicode="p" horiz-adv-x="528" 
d="M291 -12q-89 0 -122 65l-52 -237h-169l148 667h169l-13 -52q52 64 118 64q70 0 109 -47t39 -136q0 -72 -23.5 -143.5t-77.5 -126t-126 -54.5zM254 137q39 0 64.5 47.5t25.5 96.5q0 30 -16.5 47.5t-43.5 17.5q-32 0 -57 -33l-32 -142q19 -34 59 -34z" />
    <glyph glyph-name="q" unicode="q" horiz-adv-x="528" 
d="M238 495q88 0 121 -65l12 53h168l-148 -667h-168l53 236q-51 -64 -118 -64q-70 0 -109 47t-39 136q0 72 23.5 143.5t77.5 126t127 54.5zM274 346q-39 0 -64.5 -47.5t-25.5 -96.5q0 -30 16.5 -47.5t43.5 -17.5q32 0 58 33l32 143q-19 33 -60 33z" />
    <glyph glyph-name="r" unicode="r" horiz-adv-x="350" 
d="M158 0h-170l108 483h169l-13 -54q25 30 62.5 49t79.5 19l-37 -165q-19 7 -42 7q-53 0 -92 -42z" />
    <glyph glyph-name="s" unicode="s" horiz-adv-x="436" 
d="M194 -12q-64 0 -124 23.5t-96 59.5l88 107q21 -24 61 -44t78 -20q17 0 27.5 6.5t10.5 17.5q0 13 -20.5 23t-49.5 20.5t-57.5 25t-49 43t-20.5 68.5q0 72 53.5 124.5t147.5 52.5q122 0 200 -75l-81 -104q-17 19 -51 36t-67 17q-17 0 -27 -7t-10 -17q0 -12 31.5 -24.5
t68.5 -25t68.5 -46t31.5 -81.5q0 -76 -58 -128t-155 -52z" />
    <glyph glyph-name="t" unicode="t" horiz-adv-x="332" 
d="M202 -12q-76 0 -118 28t-42 84q0 22 5 44l43 193h-61l33 146h61l29 132h169l-29 -132h77l-33 -146h-77l-33 -147q-2 -16 -2 -21q0 -32 34 -32q15 0 21 6l-2 -139q-26 -16 -75 -16z" />
    <glyph glyph-name="u" unicode="u" horiz-adv-x="534" 
d="M95 483h169l-64 -289q-3 -13 -3 -23q0 -16 12 -25t30 -9q36 0 69 42l68 304h169l-107 -483h-169l13 56q-64 -68 -139 -68q-60 0 -95 30t-35 78q0 1 4 33z" />
    <glyph glyph-name="v" unicode="v" horiz-adv-x="485" 
d="M278 0h-179l-56 483h173l12 -280l138 280h183z" />
    <glyph glyph-name="w" unicode="w" horiz-adv-x="740" 
d="M565 0h-181l-9 270l-127 -270h-181l-21 483h169l-3 -269l127 269h154l11 -269l117 269h179z" />
    <glyph glyph-name="x" unicode="x" horiz-adv-x="470" 
d="M424 0h-177l-33 129l-91 -129h-186l191 245l-76 238h176l28 -120l81 120h186l-183 -238z" />
    <glyph glyph-name="y" unicode="y" horiz-adv-x="485" 
d="M-48 -182l54 141q12 -6 37 -6q29 0 42 21l14 23l-56 486h173l12 -280l138 280h183l-306 -545q-43 -77 -87 -105.5t-110 -28.5q-60 0 -94 14z" />
    <glyph glyph-name="z" unicode="z" horiz-adv-x="427" 
d="M347 0h-375l27 124l195 213h-148l33 146h371l-26 -118l-200 -218h155z" />
    <glyph glyph-name="braceleft" unicode="{" horiz-adv-x="277" 
d="M163 -190h-30q-58 0 -101 36.5t-43 91.5q0 15 3 30l38 167q2 12 2 18q0 21 -10.5 34t-29.5 13l20 89q53 0 66 64l37 167q36 158 198 158h43l-24 -107h-43q-44 0 -56 -51l-43 -197q-17 -75 -66 -91q29 -16 29 -57q0 -18 -4 -34l-37 -168q-2 -10 -2 -17q0 -18 10.5 -28.5
t26.5 -10.5h40z" />
    <glyph glyph-name="bar" unicode="|" horiz-adv-x="203" 
d="M176 -20h-108v707h108v-707z" />
    <glyph glyph-name="braceright" unicode="}" horiz-adv-x="277" 
d="M113 678h30q58 0 101 -36.5t43 -91.5q0 -17 -4 -30l-37 -167q-2 -10 -2 -17q0 -21 10.5 -34t29.5 -13l-20 -89q-53 0 -66 -65l-37 -167q-36 -158 -198 -158h-43l23 107h43q45 0 57 51l43 198q17 74 66 91q-29 15 -29 56q0 18 4 34l37 168q2 10 2 17q0 18 -10.5 28.5
t-26.5 10.5h-40z" />
    <glyph glyph-name="asciitilde" unicode="~" horiz-adv-x="478" 
d="M436 667l107 -11q-47 -252 -187 -252q-47 0 -70 26t-24 56.5t-3.5 56.5t-14.5 26q-19 0 -39 -45.5t-34 -120.5l-109 11q48 253 189 253q47 0 70 -26t24 -57t3.5 -57t14.5 -26q19 0 39.5 46t33.5 120z" />
    <glyph glyph-name="nbspace" unicode="&#xa0;" horiz-adv-x="205" 
 />
    <glyph glyph-name="exclamdown" unicode="&#xa1;" horiz-adv-x="277" 
d="M62 242h151l-68 -426h-202zM181 496q39 0 65.5 -27t26.5 -66q0 -45 -33 -78t-78 -33q-38 0 -65 28t-27 66q0 45 33 77.5t78 32.5z" />
    <glyph glyph-name="cent" unicode="&#xa2;" horiz-adv-x="437" 
d="M115 -100l23 104q-60 23 -93 73.5t-33 120.5q0 111 65.5 195.5t168.5 98.5l17 73h119l-19 -82q64 -20 97 -63l-102 -110q-23 36 -69 36q-45 0 -75 -39t-30 -93q0 -36 22.5 -56.5t57.5 -20.5q39 0 68 31l57 -122q-52 -50 -135 -57l-20 -89h-119z" />
    <glyph glyph-name="sterling" unicode="&#xa3;" horiz-adv-x="525" 
d="M35 276l23 103h40q-10 35 -10 70q0 100 79.5 164t183.5 64q90 0 151.5 -40t73.5 -116l-166 -58q-6 62 -53 62q-29 0 -47.5 -30.5t-18.5 -71.5q0 -21 5 -44h101l-23 -103h-80q-19 -76 -71 -105q24 7 39 7q24 0 58 -11.5t55 -11.5q38 0 69 29l25 -151q-43 -45 -119 -45
q-46 0 -114 21t-91 21q-45 0 -99 -37l-29 125q48 25 76 65.5t28 86.5v6h-86z" />
    <glyph glyph-name="currency" unicode="&#xa4;" horiz-adv-x="570" 
d="M285 90q-60 0 -116 23l-91 -74l-86 108l81 65q-16 38 -16 85q0 104 65 185l-53 70l111 89l59 -79q38 13 85 13q62 0 113 -24l91 73l86 -105l-81 -66q16 -38 16 -87q0 -104 -66 -183l53 -67l-110 -89l-60 76q-36 -13 -81 -13zM223 308q0 -33 17.5 -53t50.5 -20
q38 0 65 34.5t27 86.5q0 34 -17.5 54t-50.5 20q-39 0 -65.5 -35t-26.5 -87z" />
    <glyph glyph-name="yen" unicode="&#xa5;" horiz-adv-x="577" 
d="M329 0h-190l24 109h-168l23 99h167l13 59h-167l23 99h115l-89 301h198l44 -228l144 228h215l-221 -301h117l-23 -99h-167l-13 -59h167l-22 -99h-167z" />
    <glyph glyph-name="brokenbar" unicode="&#xa6;" horiz-adv-x="203" 
d="M176 -20h-108v316h108v-316zM176 371h-108v316h108v-316z" />
    <glyph glyph-name="section" unicode="&#xa7;" horiz-adv-x="442" 
d="M444 346q0 -50 -28.5 -91t-75.5 -63q49 -31 49 -94q0 -77 -59.5 -128t-148.5 -51q-72 0 -133 20t-96 57l89 104q23 -28 59.5 -45t74.5 -17q23 0 36 10.5t13 25.5q0 17 -20 29.5t-48.5 23.5t-57.5 25.5t-49 43t-20 67.5q0 50 28.5 88t80.5 58q-25 14 -39.5 41.5
t-14.5 57.5q0 75 57.5 122t142.5 47q137 0 208 -71l-84 -92q-43 48 -114 48q-23 0 -35 -10.5t-12 -24.5q0 -18 31 -34t67.5 -28.5t67.5 -43.5t31 -75zM279 305q0 36 -36 49q-51 -11 -51 -58q0 -34 45 -50q42 16 42 59z" />
    <glyph glyph-name="dieresis" unicode="&#xa8;" horiz-adv-x="305" 
d="M421 626q0 -37 -29.5 -65.5t-66.5 -28.5q-32 0 -53.5 21.5t-21.5 53.5q0 37 29 65.5t67 28.5q32 0 53.5 -21.5t21.5 -53.5zM220 626q0 -37 -29 -65.5t-66 -28.5q-32 0 -53.5 21.5t-21.5 53.5q0 37 29 65.5t66 28.5q32 0 53.5 -21.5t21.5 -53.5z" />
    <glyph glyph-name="copyright" unicode="&#xa9;" horiz-adv-x="778" 
d="M754 334q0 -143 -101.5 -244t-244.5 -101q-142 0 -243 101t-101 244t100.5 244t243.5 101t244.5 -101t101.5 -244zM713 334q0 125 -90 214.5t-215 89.5t-214 -89.5t-89 -214.5t89.5 -214.5t213.5 -89.5q125 0 215 89.5t90 214.5zM508 219l29 -39q-64 -55 -142 -55
q-86 0 -138.5 51t-52.5 131q0 100 69 168.5t162 68.5q111 0 162 -81l-43 -31q-37 66 -122 66q-67 0 -121 -54.5t-54 -134.5q0 -58 37.5 -98.5t101.5 -40.5q61 0 112 49z" />
    <glyph glyph-name="ordfeminine" unicode="&#xaa;" horiz-adv-x="376" 
d="M251 555q-26 0 -44.5 -31.5t-18.5 -68.5q0 -42 38 -42q20 0 37 20l23 105q-12 17 -35 17zM309 640h119l-69 -314h-120l7 33q-33 -41 -78 -41t-74 31.5t-29 91.5q0 81 44.5 144t107.5 63q58 0 85 -40z" />
    <glyph glyph-name="guillemotleft" unicode="&#xab;" horiz-adv-x="531" 
d="M250 63h-136l-85 180l165 177h142l-169 -181zM457 63h-136l-85 180l165 177h142l-169 -181z" />
    <glyph glyph-name="logicalnot" unicode="&#xac;" horiz-adv-x="458" 
d="M471 476l-63 -284h-102l40 185h-288l22 99h391z" />
    <glyph glyph-name="uni00AD" unicode="&#xad;" horiz-adv-x="274" 
d="M228 172h-214l31 141h214z" />
    <glyph glyph-name="registered" unicode="&#xae;" horiz-adv-x="494" 
d="M508 465q0 -88 -62.5 -150t-150.5 -62t-149.5 62t-61.5 150t62 150t150 62t150 -61.5t62 -150.5zM474 465q0 75 -52 126.5t-127 51.5q-74 0 -125 -51.5t-51 -126.5q0 -73 51.5 -125t124.5 -52q74 0 126.5 52t52.5 125zM371 343h-43l-42 96h-41l-21 -96h-37l53 243h94
q33 0 53 -18.5t20 -45.5q0 -34 -25 -58t-55 -24zM368 520q0 36 -42 36h-55l-19 -85h62q24 0 39 14t15 35z" />
    <glyph glyph-name="macron" unicode="&#xaf;" horiz-adv-x="316" 
d="M384 553h-315l20 92h315z" />
    <glyph glyph-name="degree" unicode="&#xb0;" horiz-adv-x="327" 
d="M373 531q0 -60 -43 -102.5t-103 -42.5q-61 0 -103 42.5t-42 102.5q0 61 42 103.5t103 42.5q60 0 103 -42.5t43 -103.5zM287 531q0 25 -17.5 43t-42.5 18t-42 -18t-17 -43t16.5 -42t41.5 -17t43 17t18 42z" />
    <glyph glyph-name="plusminus" unicode="&#xb1;" horiz-adv-x="449" 
d="M434 310h-140l-37 -166h-110l37 166h-141l22 99h141l35 157h110l-36 -157h141zM367 5h-391l21 99h392z" />
    <glyph glyph-name="twosuperior" unicode="&#xb2;" horiz-adv-x="365" 
d="M385 421h-313l22 95q146 91 185 123t39 57q0 33 -47 33q-54 0 -95 -41l-52 82q65 57 156 57q73 0 119 -32t46 -86q0 -48 -41 -89t-141 -101h144z" />
    <glyph glyph-name="threesuperior" unicode="&#xb3;" horiz-adv-x="365" 
d="M411 535q0 -48 -44 -84.5t-114 -36.5q-59 0 -107 19t-71 53l81 75q33 -49 90 -49q22 0 33 10.5t11 24.5q0 28 -60 28q-27 0 -34 -1l21 97q7 -1 52 -1q50 0 50 31q0 28 -54 28q-51 0 -86 -32l-48 74q59 56 146 56q77 0 122.5 -28.5t45.5 -78.5q0 -36 -27.5 -67t-77.5 -34
q71 -19 71 -84z" />
    <glyph glyph-name="acute" unicode="&#xb4;" horiz-adv-x="242" 
d="M343 700l-165 -144h-111l132 144h144z" />
    <glyph glyph-name="mu" unicode="&#xb5;" horiz-adv-x="549" 
d="M157 -4l-40 -180h-170l150 667h169l-66 -293q-5 -25 5 -39t33 -14q37 0 71 42l67 304h169l-70 -317q-6 -29 21 -29q11 0 17 3l-20 -142q-32 -10 -77 -10q-57 0 -84 21t-32 67q-19 -41 -48.5 -64.5t-60.5 -23.5q-23 0 -34 8z" />
    <glyph glyph-name="paragraph" unicode="&#xb6;" horiz-adv-x="449" 
d="M345 -100h-76l154 691h-71l-154 -691h-76l94 423q-57 0 -97 44.5t-40 111.5q0 73 56.5 130.5t137.5 57.5h242z" />
    <glyph glyph-name="periodcentered" unicode="&#xb7;" horiz-adv-x="277" 
d="M129 143q-39 0 -65.5 27.5t-26.5 66.5q0 45 33 77.5t78 32.5q38 0 64.5 -27.5t26.5 -66.5q0 -44 -33 -77t-77 -33z" />
    <glyph glyph-name="cedilla" unicode="&#xb8;" horiz-adv-x="218" 
d="M28 -199q-75 0 -117 42l40 57q34 -34 76 -34q36 0 36 27q0 17 -20 17q-13 0 -23 -12l-50 32l49 81h76l-38 -59q12 9 26 9q25 0 41 -17.5t16 -46.5q0 -43 -32 -69.5t-80 -26.5z" />
    <glyph glyph-name="onesuperior" unicode="&#xb9;" horiz-adv-x="305" 
d="M297 421h-125l52 239l-72 -58l-55 74l181 145h107z" />
    <glyph glyph-name="ordmasculine" unicode="&#xba;" horiz-adv-x="366" 
d="M221 318q-72 0 -113 39t-41 101q0 78 53.5 134t130.5 56q72 0 113 -39t41 -100q0 -79 -53.5 -135t-130.5 -56zM225 413q20 0 34 19.5t19.5 41t5.5 39.5q0 39 -37 39q-28 0 -43 -34.5t-15 -65.5q0 -39 36 -39z" />
    <glyph glyph-name="guillemotright" unicode="&#xbb;" horiz-adv-x="531" 
d="M75 420h136l85 -180l-165 -177h-142l169 182zM282 420h136l85 -180l-165 -177h-142l168 182z" />
    <glyph glyph-name="onequarter" unicode="&#xbc;" horiz-adv-x="809" 
d="M263 267h-125l52 239l-72 -58l-55 74l181 145h107zM759 74h-39l-16 -74h-124l16 74h-176l20 88l190 238h162l-50 -229h39zM618 171l24 109l-86 -109h62zM706 667l-503 -667h-79l503 667h79z" />
    <glyph glyph-name="onehalf" unicode="&#xbd;" horiz-adv-x="843" 
d="M263 267h-125l52 239l-72 -58l-55 74l181 145h107zM771 0h-313l22 95q146 91 185 123t39 57q0 33 -47 33q-54 0 -95 -41l-52 82q65 57 156 57q73 0 119 -32t46 -86q0 -48 -41 -89t-141 -101h144zM706 667l-503 -667h-79l503 667h79z" />
    <glyph glyph-name="threequarters" unicode="&#xbe;" horiz-adv-x="860" 
d="M811 74h-39l-16 -74h-124l16 74h-176l20 88l190 238h162l-50 -229h39zM670 171l24 109l-86 -109h62zM758 667l-503 -667h-79l503 667h79zM377 381q0 -48 -44 -84.5t-114 -36.5q-59 0 -107 19t-71 53l81 75q33 -49 90 -49q22 0 33 10.5t11 24.5q0 28 -60 28q-27 0 -34 -1
l21 97q7 -1 52 -1q50 0 50 31q0 28 -54 28q-51 0 -86 -32l-48 74q59 56 146 56q77 0 122.5 -28.5t45.5 -78.5q0 -36 -27.5 -67t-77.5 -34q71 -19 71 -84z" />
    <glyph glyph-name="questiondown" unicode="&#xbf;" horiz-adv-x="353" 
d="M117 223l154 39q9 -29 9 -64q0 -40 -14 -71.5t-34.5 -50t-41 -33t-34.5 -27.5t-14 -26q0 -24 35 -24q38 0 67 26l65 -126q-78 -61 -178 -61q-78 0 -133 37t-55 100q0 44 18.5 78.5t44.5 56t52.5 40t45 39.5t18.5 45q0 15 -5 22zM238 495q38 0 65 -27.5t27 -65.5
q0 -45 -33.5 -78t-77.5 -33q-39 0 -65.5 27.5t-26.5 66.5q0 45 33 77.5t78 32.5z" />
    <glyph glyph-name="Agrave" unicode="&#xc0;" horiz-adv-x="597" 
d="M555 0h-198v86h-173l-38 -86h-212l343 667h229zM357 251l-1 221l-98 -221h99zM465 723h-108l-102 144h142z" />
    <glyph glyph-name="Aacute" unicode="&#xc1;" horiz-adv-x="597" 
d="M555 0h-198v86h-173l-38 -86h-212l343 667h229zM357 251l-1 221l-98 -221h99zM617 867l-165 -144h-111l132 144h144z" />
    <glyph glyph-name="Acircumflex" unicode="&#xc2;" horiz-adv-x="597" 
d="M554 723h-93l-39 76l-69 -76h-97l106 144h147zM555 0h-198v86h-173l-38 -86h-212l343 667h229zM357 251l-1 221l-98 -221h99z" />
    <glyph glyph-name="Atilde" unicode="&#xc3;" horiz-adv-x="597" 
d="M555 0h-198v86h-173l-38 -86h-212l343 667h229zM357 251l-1 221l-98 -221h99zM468 721q-35 0 -62 24t-42 24q-21 0 -30 -42h-85q14 67 43 100.5t79 33.5q35 0 62.5 -24t42.5 -24q20 0 30 42h85q-15 -67 -44 -100.5t-79 -33.5z" />
    <glyph glyph-name="Adieresis" unicode="&#xc4;" horiz-adv-x="597" 
d="M604 793q0 -37 -29.5 -65.5t-66.5 -28.5q-32 0 -53.5 21.5t-21.5 53.5q0 37 29 65.5t67 28.5q32 0 53.5 -21.5t21.5 -53.5zM403 793q0 -37 -29 -65.5t-66 -28.5q-32 0 -53.5 21.5t-21.5 53.5q0 37 29 65.5t66 28.5q32 0 53.5 -21.5t21.5 -53.5zM555 0h-198v86h-173
l-38 -86h-212l343 667h229zM357 251l-1 221l-98 -221h99z" />
    <glyph glyph-name="Aring" unicode="&#xc5;" horiz-adv-x="597" 
d="M555 0h-198v86h-173l-38 -86h-212l343 667h229zM357 251l-1 221l-98 -221h99zM409 687q-41 0 -67 26.5t-26 67.5q0 46 34 80t80 34q42 0 67.5 -26t25.5 -67q0 -47 -34 -81t-80 -34zM418 758q14 0 24.5 11t10.5 25t-8.5 22.5t-21.5 8.5q-14 0 -24.5 -11t-10.5 -25
t8.5 -22.5t21.5 -8.5z" />
    <glyph glyph-name="AE" unicode="&#xc6;" horiz-adv-x="824" 
d="M746 0h-421l19 86h-150l-53 -86h-210l461 667h501l-37 -165h-231l-18 -82h225l-37 -165h-224l-20 -90h231zM380 251l46 209l-128 -209h82z" />
    <glyph glyph-name="Ccedilla" unicode="&#xc7;" horiz-adv-x="582" 
d="M240 -199q-75 0 -117 42l40 57q34 -34 76 -34q36 0 36 27q0 17 -20 17q-13 0 -23 -12l-50 32l41 68q-91 22 -144.5 91t-53.5 170q0 110 41 204.5t123.5 154.5t190.5 60q62 0 110 -19.5t77.5 -53t46.5 -71t23 -80.5l-179 -46q-5 45 -28 74t-60 29q-65 0 -108 -78t-43 -169
q0 -49 25.5 -79t68.5 -30q30 0 59 21.5t45 56.5l150 -79q-47 -83 -116 -124.5t-147 -41.5h-12l-23 -36q12 9 26 9q25 0 41 -17.5t16 -46.5q0 -43 -32 -69.5t-80 -26.5z" />
    <glyph glyph-name="Egrave" unicode="&#xc8;" 
d="M415 0h-422l148 667h421l-37 -165h-231l-18 -82h225l-37 -165h-225l-19 -90h231zM424 723h-108l-102 144h142z" />
    <glyph glyph-name="Eacute" unicode="&#xc9;" 
d="M578 867l-165 -144h-111l132 144h144zM415 0h-422l148 667h421l-37 -165h-231l-18 -82h225l-37 -165h-225l-19 -90h231z" />
    <glyph glyph-name="Ecircumflex" unicode="&#xca;" 
d="M513 723h-93l-39 76l-69 -76h-97l106 144h147zM415 0h-422l148 667h421l-37 -165h-231l-18 -82h225l-37 -165h-225l-19 -90h231z" />
    <glyph glyph-name="Edieresis" unicode="&#xcb;" 
d="M563 793q0 -37 -29.5 -65.5t-66.5 -28.5q-32 0 -53.5 21.5t-21.5 53.5q0 37 29 65.5t67 28.5q32 0 53.5 -21.5t21.5 -53.5zM362 793q0 -37 -29 -65.5t-66 -28.5q-32 0 -53.5 21.5t-21.5 53.5q0 37 29 65.5t66 28.5q32 0 53.5 -21.5t21.5 -53.5zM415 0h-422l148 667h421
l-37 -165h-231l-18 -82h225l-37 -165h-225l-19 -90h231z" />
    <glyph glyph-name="Igrave" unicode="&#xcc;" horiz-adv-x="285" 
d="M183 0h-190l148 667h189zM308 723h-108l-102 144h142z" />
    <glyph glyph-name="Iacute" unicode="&#xcd;" horiz-adv-x="285" 
d="M183 0h-190l148 667h189zM461 867l-165 -144h-111l132 144h144z" />
    <glyph glyph-name="Icircumflex" unicode="&#xce;" horiz-adv-x="285" 
d="M397 723h-93l-39 76l-69 -76h-97l106 144h147zM183 0h-190l148 667h189z" />
    <glyph glyph-name="Idieresis" unicode="&#xcf;" horiz-adv-x="285" 
d="M448 793q0 -37 -29.5 -65.5t-66.5 -28.5q-32 0 -53.5 21.5t-21.5 53.5q0 37 29 65.5t67 28.5q32 0 53.5 -21.5t21.5 -53.5zM247 793q0 -37 -29 -65.5t-66 -28.5q-32 0 -53.5 21.5t-21.5 53.5q0 37 29 65.5t66 28.5q32 0 53.5 -21.5t21.5 -53.5zM183 0h-190l148 667h189z
" />
    <glyph glyph-name="Eth" unicode="&#xd0;" horiz-adv-x="654" 
d="M270 0h-253l57 259h-62l33 149h62l58 259h247q100 0 175 -72t75 -189q0 -58 -11.5 -113t-40.5 -109t-72 -94t-112 -65t-156 -25zM356 259h-92l-20 -94h60q52 0 90.5 35.5t56 87.5t17.5 109q0 48 -25.5 76.5t-65.5 28.5h-59l-21 -94h91z" />
    <glyph glyph-name="Ntilde" unicode="&#xd1;" horiz-adv-x="641" 
d="M490 721q-35 0 -62 24t-42 24q-21 0 -30 -42h-85q14 67 43 100.5t79 33.5q35 0 62.5 -24t42.5 -24q20 0 30 42h85q-15 -67 -44 -100.5t-79 -33.5zM539 0h-179l-108 312l-69 -312h-190l148 667h192l100 -292l64 292h189z" />
    <glyph glyph-name="Ograve" unicode="&#xd2;" horiz-adv-x="644" 
d="M488 723h-108l-102 144h142zM304 -12q-127 0 -203 76t-76 195q0 79 24 153.5t67.5 134t112 95.5t151.5 36q125 0 201.5 -76t76.5 -194q0 -107 -40 -201.5t-122.5 -156.5t-191.5 -62zM313 155q64 0 107.5 78t43.5 169q0 48 -25.5 78.5t-69.5 30.5q-64 0 -107 -78t-43 -169
q0 -48 25.5 -78.5t68.5 -30.5z" />
    <glyph glyph-name="Oacute" unicode="&#xd3;" horiz-adv-x="644" 
d="M640 867l-165 -144h-111l132 144h144zM304 -12q-127 0 -203 76t-76 195q0 79 24 153.5t67.5 134t112 95.5t151.5 36q125 0 201.5 -76t76.5 -194q0 -107 -40 -201.5t-122.5 -156.5t-191.5 -62zM313 155q64 0 107.5 78t43.5 169q0 48 -25.5 78.5t-69.5 30.5q-64 0 -107 -78
t-43 -169q0 -48 25.5 -78.5t68.5 -30.5z" />
    <glyph glyph-name="Ocircumflex" unicode="&#xd4;" horiz-adv-x="644" 
d="M578 723h-93l-39 76l-69 -76h-97l106 144h147zM304 -12q-127 0 -203 76t-76 195q0 79 24 153.5t67.5 134t112 95.5t151.5 36q125 0 201.5 -76t76.5 -194q0 -107 -40 -201.5t-122.5 -156.5t-191.5 -62zM313 155q64 0 107.5 78t43.5 169q0 48 -25.5 78.5t-69.5 30.5
q-64 0 -107 -78t-43 -169q0 -48 25.5 -78.5t68.5 -30.5z" />
    <glyph glyph-name="Otilde" unicode="&#xd5;" horiz-adv-x="644" 
d="M304 -12q-127 0 -203 76t-76 195q0 79 24 153.5t67.5 134t112 95.5t151.5 36q125 0 201.5 -76t76.5 -194q0 -107 -40 -201.5t-122.5 -156.5t-191.5 -62zM313 155q64 0 107.5 78t43.5 169q0 48 -25.5 78.5t-69.5 30.5q-64 0 -107 -78t-43 -169q0 -48 25.5 -78.5
t68.5 -30.5zM492 721q-35 0 -62 24t-42 24q-21 0 -30 -42h-85q14 67 43 100.5t79 33.5q35 0 62.5 -24t42.5 -24q20 0 30 42h85q-15 -67 -44 -100.5t-79 -33.5z" />
    <glyph glyph-name="Odieresis" unicode="&#xd6;" horiz-adv-x="644" 
d="M627 793q0 -37 -29.5 -65.5t-66.5 -28.5q-32 0 -53.5 21.5t-21.5 53.5q0 37 29 65.5t67 28.5q32 0 53.5 -21.5t21.5 -53.5zM426 793q0 -37 -29 -65.5t-66 -28.5q-32 0 -53.5 21.5t-21.5 53.5q0 37 29 65.5t66 28.5q32 0 53.5 -21.5t21.5 -53.5zM304 -12q-127 0 -203 76
t-76 195q0 79 24 153.5t67.5 134t112 95.5t151.5 36q125 0 201.5 -76t76.5 -194q0 -107 -40 -201.5t-122.5 -156.5t-191.5 -62zM313 155q64 0 107.5 78t43.5 169q0 48 -25.5 78.5t-69.5 30.5q-64 0 -107 -78t-43 -169q0 -48 25.5 -78.5t68.5 -30.5z" />
    <glyph glyph-name="multiply" unicode="&#xd7;" horiz-adv-x="449" 
d="M321 153l-86 110l-142 -116l-62 76l145 118l-87 110l79 65l85 -111l143 117l61 -77l-142 -117l85 -111z" />
    <glyph glyph-name="Oslash" unicode="&#xd8;" horiz-adv-x="644" 
d="M304 -12q-107 0 -178 54l-38 -42h-117l96 105q-42 65 -42 154q0 79 24 153.5t67.5 134t112 95.5t151.5 36q98 0 169 -49l35 38h117l-91 -99q48 -68 48 -160q0 -107 -40 -201.5t-122.5 -156.5t-191.5 -62zM313 155q64 0 107.5 78t43.5 169v7l-213 -232q25 -22 62 -22z
M369 511q-63 0 -105.5 -75.5t-44.5 -165.5l205 223q-25 18 -55 18z" />
    <glyph glyph-name="Ugrave" unicode="&#xd9;" horiz-adv-x="650" 
d="M306 -12q-122 0 -192 60t-70 159q0 17 4 41l93 419h191l-94 -425q-3 -18 -3 -23q1 -27 21.5 -46.5t56.5 -19.5q78 0 97 89l94 425h191l-94 -422q-26 -123 -100.5 -190t-194.5 -67zM491 723h-108l-102 144h142z" />
    <glyph glyph-name="Uacute" unicode="&#xda;" horiz-adv-x="650" 
d="M642 867l-165 -144h-111l132 144h144zM306 -12q-122 0 -192 60t-70 159q0 17 4 41l93 419h191l-94 -425q-3 -18 -3 -23q1 -27 21.5 -46.5t56.5 -19.5q78 0 97 89l94 425h191l-94 -422q-26 -123 -100.5 -190t-194.5 -67z" />
    <glyph glyph-name="Ucircumflex" unicode="&#xdb;" horiz-adv-x="650" 
d="M580 723h-93l-39 76l-69 -76h-97l106 144h147zM306 -12q-122 0 -192 60t-70 159q0 17 4 41l93 419h191l-94 -425q-3 -18 -3 -23q1 -27 21.5 -46.5t56.5 -19.5q78 0 97 89l94 425h191l-94 -422q-26 -123 -100.5 -190t-194.5 -67z" />
    <glyph glyph-name="Udieresis" unicode="&#xdc;" horiz-adv-x="650" 
d="M630 793q0 -37 -29.5 -65.5t-66.5 -28.5q-32 0 -53.5 21.5t-21.5 53.5q0 37 29 65.5t67 28.5q32 0 53.5 -21.5t21.5 -53.5zM429 793q0 -37 -29 -65.5t-66 -28.5q-32 0 -53.5 21.5t-21.5 53.5q0 37 29 65.5t66 28.5q32 0 53.5 -21.5t21.5 -53.5zM306 -12q-122 0 -192 60
t-70 159q0 17 4 41l93 419h191l-94 -425q-3 -18 -3 -23q1 -27 21.5 -46.5t56.5 -19.5q78 0 97 89l94 425h191l-94 -422q-26 -123 -100.5 -190t-194.5 -67z" />
    <glyph glyph-name="Yacute" unicode="&#xdd;" horiz-adv-x="577" 
d="M330 0h-190l59 267l-118 400h198l44 -228l144 228h215l-294 -400zM607 867l-165 -144h-111l132 144h144z" />
    <glyph glyph-name="Thorn" unicode="&#xde;" horiz-adv-x="579" 
d="M183 0h-190l148 667h189l-21 -98h90q83 0 137 -55.5t54 -136.5q0 -37 -9.5 -73t-31.5 -70t-54 -59.5t-80 -41t-107 -15.5h-99zM319 283q32 0 53.5 21t21.5 52q0 23 -13.5 35.5t-36.5 12.5h-72l-26 -121h73z" />
    <glyph glyph-name="germandbls" unicode="&#xdf;" horiz-adv-x="635" 
d="M607 169q0 -71 -58 -126t-146 -55q-130 0 -201 78l82 107q46 -55 110 -55q15 0 26 7.5t11 17.5q0 14 -25 26.5t-55.5 23.5t-55.5 39t-25 69q0 38 14 66.5t33.5 44.5t39 29t33.5 26t14 28q0 18 -17 29.5t-43 11.5q-66 0 -85 -80l-100 -456h-169l100 456q22 98 89 159.5
t181 61.5q91 0 157 -45.5t66 -114.5q0 -44 -22.5 -78t-49.5 -50t-49.5 -31.5t-22.5 -27.5q0 -9 17.5 -17t42 -17t49 -22.5t42 -40.5t17.5 -64z" />
    <glyph glyph-name="agrave" unicode="&#xe0;" horiz-adv-x="529" 
d="M238 495q88 0 121 -65l12 53h168l-107 -483h-168l12 52q-51 -64 -118 -64q-70 0 -109 47t-39 136q0 72 23.5 143.5t77.5 126t127 54.5zM274 346q-39 0 -64.5 -47.5t-25.5 -96.5q0 -30 16.5 -47.5t43.5 -17.5q32 0 58 33l32 143q-19 33 -60 33zM390 556h-108l-102 144h142
z" />
    <glyph glyph-name="aacute" unicode="&#xe1;" horiz-adv-x="529" 
d="M238 495q88 0 121 -65l12 53h168l-107 -483h-168l12 52q-51 -64 -118 -64q-70 0 -109 47t-39 136q0 72 23.5 143.5t77.5 126t127 54.5zM274 346q-39 0 -64.5 -47.5t-25.5 -96.5q0 -30 16.5 -47.5t43.5 -17.5q32 0 58 33l32 143q-19 33 -60 33zM543 700l-165 -144h-111
l132 144h144z" />
    <glyph glyph-name="acircumflex" unicode="&#xe2;" horiz-adv-x="529" 
d="M238 495q88 0 121 -65l12 53h168l-107 -483h-168l12 52q-51 -64 -118 -64q-70 0 -109 47t-39 136q0 72 23.5 143.5t77.5 126t127 54.5zM274 346q-39 0 -64.5 -47.5t-25.5 -96.5q0 -30 16.5 -47.5t43.5 -17.5q32 0 58 33l32 143q-19 33 -60 33zM478 556h-93l-39 76
l-69 -76h-97l106 144h147z" />
    <glyph glyph-name="atilde" unicode="&#xe3;" horiz-adv-x="529" 
d="M238 495q88 0 121 -65l12 53h168l-107 -483h-168l12 52q-51 -64 -118 -64q-70 0 -109 47t-39 136q0 72 23.5 143.5t77.5 126t127 54.5zM274 346q-39 0 -64.5 -47.5t-25.5 -96.5q0 -30 16.5 -47.5t43.5 -17.5q32 0 58 33l32 143q-19 33 -60 33zM393 554q-35 0 -62 24
t-42 24q-21 0 -30 -42h-85q14 67 43 100.5t79 33.5q35 0 62.5 -24t42.5 -24q20 0 30 42h85q-15 -67 -44 -100.5t-79 -33.5z" />
    <glyph glyph-name="adieresis" unicode="&#xe4;" horiz-adv-x="529" 
d="M238 495q88 0 121 -65l12 53h168l-107 -483h-168l12 52q-51 -64 -118 -64q-70 0 -109 47t-39 136q0 72 23.5 143.5t77.5 126t127 54.5zM274 346q-39 0 -64.5 -47.5t-25.5 -96.5q0 -30 16.5 -47.5t43.5 -17.5q32 0 58 33l32 143q-19 33 -60 33zM528 626q0 -37 -29.5 -65.5
t-66.5 -28.5q-32 0 -53.5 21.5t-21.5 53.5q0 37 29 65.5t67 28.5q32 0 53.5 -21.5t21.5 -53.5zM327 626q0 -37 -29 -65.5t-66 -28.5q-32 0 -53.5 21.5t-21.5 53.5q0 37 29 65.5t66 28.5q32 0 53.5 -21.5t21.5 -53.5z" />
    <glyph glyph-name="aring" unicode="&#xe5;" horiz-adv-x="529" 
d="M238 495q88 0 121 -65l12 53h168l-107 -483h-168l12 52q-51 -64 -118 -64q-70 0 -109 47t-39 136q0 72 23.5 143.5t77.5 126t127 54.5zM274 346q-39 0 -64.5 -47.5t-25.5 -96.5q0 -30 16.5 -47.5t43.5 -17.5q32 0 58 33l32 143q-19 33 -60 33zM333 516q-41 0 -67 26.5
t-26 67.5q0 46 34 80t80 34q42 0 67.5 -26t25.5 -67q0 -47 -34 -81t-80 -34zM342 587q14 0 24.5 11t10.5 25t-8.5 22.5t-21.5 8.5q-14 0 -24.5 -11t-10.5 -25t8.5 -22.5t21.5 -8.5z" />
    <glyph glyph-name="ae" unicode="&#xe6;" horiz-adv-x="794" 
d="M274 346q-39 0 -64.5 -47.5t-25.5 -96.5q0 -30 16.5 -47.5t43.5 -17.5q32 0 58 33l32 143q-19 33 -60 33zM445 57l-13 -57h-168l12 52q-51 -64 -118 -64q-70 0 -109 47t-39 136q0 72 23.5 143.5t77.5 126t127 54.5q88 0 121 -65l12 53h168l-8 -37q52 50 110 49
q142 -2 142 -186q0 -65 -16 -121h-289q0 -1 -0.5 -3.5t-0.5 -4.5q0 -8 9 -20.5t32.5 -24t55.5 -11.5q50 0 87 27l51 -115q-61 -48 -136 -48q-96 0 -131 69zM499 299h134q0 2 0.5 6.5t0.5 6.5q0 19 -16 35.5t-44 16.5q-31 0 -50 -20.5t-25 -44.5z" />
    <glyph glyph-name="ccedilla" unicode="&#xe7;" horiz-adv-x="437" 
d="M181 -199q-75 0 -117 42l40 57q34 -34 76 -34q36 0 36 27q0 17 -20 17q-13 0 -23 -12l-50 32l40 67q-71 17 -111 70t-40 131q0 121 77 209t193 88q61 0 107 -21t71 -54l-102 -110q-23 36 -69 36q-45 0 -75 -39t-30 -93q0 -36 22.5 -56.5t57.5 -20.5q39 0 68 31l57 -122
q-60 -58 -155 -58h-1l-23 -36q12 9 26 9q25 0 41 -17.5t16 -46.5q0 -43 -32 -69.5t-80 -26.5z" />
    <glyph glyph-name="egrave" unicode="&#xe8;" horiz-adv-x="489" 
d="M240 -12q-105 0 -166.5 55.5t-61.5 153.5q0 116 75 207t191 91q92 0 146 -53.5t54 -146.5q0 -51 -16 -107h-289v-8q0 -9 7.5 -21.5t29.5 -25.5t53 -13q55 0 92 27l52 -107q-69 -52 -167 -52zM193 299h134q1 4 1 13q0 20 -16 36t-44 16q-31 0 -50.5 -20.5t-24.5 -44.5z
M390 556h-108l-102 144h142z" />
    <glyph glyph-name="eacute" unicode="&#xe9;" horiz-adv-x="489" 
d="M542 700l-165 -144h-111l132 144h144zM240 -12q-105 0 -166.5 55.5t-61.5 153.5q0 116 75 207t191 91q92 0 146 -53.5t54 -146.5q0 -51 -16 -107h-289v-8q0 -9 7.5 -21.5t29.5 -25.5t53 -13q55 0 92 27l52 -107q-69 -52 -167 -52zM193 299h134q1 4 1 13q0 20 -16 36
t-44 16q-31 0 -50.5 -20.5t-24.5 -44.5z" />
    <glyph glyph-name="ecircumflex" unicode="&#xea;" horiz-adv-x="489" 
d="M477 556h-93l-39 76l-69 -76h-97l106 144h147zM240 -12q-105 0 -166.5 55.5t-61.5 153.5q0 116 75 207t191 91q92 0 146 -53.5t54 -146.5q0 -51 -16 -107h-289v-8q0 -9 7.5 -21.5t29.5 -25.5t53 -13q55 0 92 27l52 -107q-69 -52 -167 -52zM193 299h134q1 4 1 13
q0 20 -16 36t-44 16q-31 0 -50.5 -20.5t-24.5 -44.5z" />
    <glyph glyph-name="edieresis" unicode="&#xeb;" horiz-adv-x="489" 
d="M528 626q0 -37 -29.5 -65.5t-66.5 -28.5q-32 0 -53.5 21.5t-21.5 53.5q0 37 29 65.5t67 28.5q32 0 53.5 -21.5t21.5 -53.5zM327 626q0 -37 -29 -65.5t-66 -28.5q-32 0 -53.5 21.5t-21.5 53.5q0 37 29 65.5t66 28.5q32 0 53.5 -21.5t21.5 -53.5zM240 -12
q-105 0 -166.5 55.5t-61.5 153.5q0 116 75 207t191 91q92 0 146 -53.5t54 -146.5q0 -51 -16 -107h-289v-8q0 -9 7.5 -21.5t29.5 -25.5t53 -13q55 0 92 27l52 -107q-69 -52 -167 -52zM193 299h134q1 4 1 13q0 20 -16 36t-44 16q-31 0 -50.5 -20.5t-24.5 -44.5z" />
    <glyph glyph-name="igrave" unicode="&#xec;" horiz-adv-x="254" 
d="M158 0h-170l108 483h169zM257 556h-108l-102 144h142z" />
    <glyph glyph-name="iacute" unicode="&#xed;" horiz-adv-x="254" 
d="M409 700l-165 -144h-111l132 144h144zM158 0h-170l108 483h169z" />
    <glyph glyph-name="icircumflex" unicode="&#xee;" horiz-adv-x="254" 
d="M345 556h-93l-39 76l-69 -76h-97l106 144h147zM158 0h-170l108 483h169z" />
    <glyph glyph-name="idieresis" unicode="&#xef;" horiz-adv-x="254" 
d="M396 626q0 -37 -29.5 -65.5t-66.5 -28.5q-32 0 -53.5 21.5t-21.5 53.5q0 37 29 65.5t67 28.5q32 0 53.5 -21.5t21.5 -53.5zM195 626q0 -37 -29 -65.5t-66 -28.5q-32 0 -53.5 21.5t-21.5 53.5q0 37 29 65.5t66 28.5q32 0 53.5 -21.5t21.5 -53.5zM158 0h-170l108 483h169z
" />
    <glyph glyph-name="eth" unicode="&#xf0;" horiz-adv-x="514" 
d="M168 471l-17 75l115 33q-19 31 -41 56l138 88q41 -44 75 -94l80 24l16 -73l-58 -18q41 -88 41 -186q0 -97 -28.5 -182.5t-94 -145.5t-157.5 -60q-107 0 -167.5 54.5t-60.5 145.5q0 100 62 179t156 79q101 0 131 -99q-3 66 -52 165zM241 137q36 0 58.5 32t22.5 71
q0 24 -16.5 40.5t-47.5 16.5q-35 0 -56.5 -33.5t-21.5 -70.5q0 -56 61 -56z" />
    <glyph glyph-name="ntilde" unicode="&#xf1;" horiz-adv-x="535" 
d="M438 0h-169l63 285q4 24 4 26q0 17 -11.5 26t-28.5 9q-37 0 -71 -42l-67 -304h-170l108 483h169l-14 -56q64 68 140 68q60 0 94.5 -30t34.5 -78q0 -18 -4 -32zM401 554q-35 0 -62 24t-42 24q-21 0 -30 -42h-85q14 67 43 100.5t79 33.5q35 0 62.5 -24t42.5 -24q20 0 30 42
h85q-15 -67 -44 -100.5t-79 -33.5z" />
    <glyph glyph-name="ograve" unicode="&#xf2;" horiz-adv-x="514" 
d="M234 -12q-107 0 -164.5 58.5t-57.5 152.5q0 73 31.5 140t94 111.5t140.5 44.5q108 0 165.5 -58t57.5 -153q0 -115 -75 -205.5t-192 -90.5zM242 137q39 0 63.5 49t24.5 96q0 64 -60 64q-38 0 -62.5 -49t-24.5 -95q0 -65 59 -65zM388 556h-108l-102 144h142z" />
    <glyph glyph-name="oacute" unicode="&#xf3;" horiz-adv-x="514" 
d="M539 700l-165 -144h-111l132 144h144zM234 -12q-107 0 -164.5 58.5t-57.5 152.5q0 73 31.5 140t94 111.5t140.5 44.5q108 0 165.5 -58t57.5 -153q0 -115 -75 -205.5t-192 -90.5zM242 137q39 0 63.5 49t24.5 96q0 64 -60 64q-38 0 -62.5 -49t-24.5 -95q0 -65 59 -65z" />
    <glyph glyph-name="ocircumflex" unicode="&#xf4;" horiz-adv-x="514" 
d="M476 556h-93l-39 76l-69 -76h-97l106 144h147zM234 -12q-107 0 -164.5 58.5t-57.5 152.5q0 73 31.5 140t94 111.5t140.5 44.5q108 0 165.5 -58t57.5 -153q0 -115 -75 -205.5t-192 -90.5zM242 137q39 0 63.5 49t24.5 96q0 64 -60 64q-38 0 -62.5 -49t-24.5 -95
q0 -65 59 -65z" />
    <glyph glyph-name="otilde" unicode="&#xf5;" horiz-adv-x="514" 
d="M234 -12q-107 0 -164.5 58.5t-57.5 152.5q0 73 31.5 140t94 111.5t140.5 44.5q108 0 165.5 -58t57.5 -153q0 -115 -75 -205.5t-192 -90.5zM242 137q39 0 63.5 49t24.5 96q0 64 -60 64q-38 0 -62.5 -49t-24.5 -95q0 -65 59 -65zM390 554q-35 0 -62 24t-42 24
q-21 0 -30 -42h-85q14 67 43 100.5t79 33.5q35 0 62.5 -24t42.5 -24q20 0 30 42h85q-15 -67 -44 -100.5t-79 -33.5z" />
    <glyph glyph-name="odieresis" unicode="&#xf6;" horiz-adv-x="514" 
d="M526 626q0 -37 -29.5 -65.5t-66.5 -28.5q-32 0 -53.5 21.5t-21.5 53.5q0 37 29 65.5t67 28.5q32 0 53.5 -21.5t21.5 -53.5zM325 626q0 -37 -29 -65.5t-66 -28.5q-32 0 -53.5 21.5t-21.5 53.5q0 37 29 65.5t66 28.5q32 0 53.5 -21.5t21.5 -53.5zM234 -12
q-107 0 -164.5 58.5t-57.5 152.5q0 73 31.5 140t94 111.5t140.5 44.5q108 0 165.5 -58t57.5 -153q0 -115 -75 -205.5t-192 -90.5zM242 137q39 0 63.5 49t24.5 96q0 64 -60 64q-38 0 -62.5 -49t-24.5 -95q0 -65 59 -65z" />
    <glyph glyph-name="divide" unicode="&#xf7;" horiz-adv-x="443" 
d="M423 288h-384l22 99h384zM200 107q-28 0 -47 19.5t-19 47.5q0 32 23.5 55.5t55.5 23.5q27 0 46.5 -20t19.5 -47q0 -32 -23.5 -55.5t-55.5 -23.5zM270 422q-28 0 -47.5 19.5t-19.5 46.5q0 32 24 55.5t56 23.5q27 0 46.5 -19.5t19.5 -47.5q0 -32 -23.5 -55t-55.5 -23z" />
    <glyph glyph-name="oslash" unicode="&#xf8;" horiz-adv-x="514" 
d="M60 0h-98l81 79q-31 50 -31 120q0 73 31.5 140t94 111.5t140.5 44.5q88 0 145 -41l30 29h98l-81 -80q31 -51 31 -119q0 -115 -75 -205.5t-192 -90.5q-88 0 -145 41zM270 346q-35 0 -58.5 -41t-27.5 -87l121 119q-14 9 -35 9zM242 137q35 0 58.5 40t28.5 87l-121 -119
q14 -8 34 -8z" />
    <glyph glyph-name="ugrave" unicode="&#xf9;" horiz-adv-x="534" 
d="M95 483h169l-64 -289q-3 -13 -3 -23q0 -16 12 -25t30 -9q36 0 69 42l68 304h169l-107 -483h-169l13 56q-64 -68 -139 -68q-60 0 -95 30t-35 78q0 1 4 33zM397 556h-108l-102 144h142z" />
    <glyph glyph-name="uacute" unicode="&#xfa;" horiz-adv-x="534" 
d="M549 700l-165 -144h-111l132 144h144zM95 483h169l-64 -289q-3 -13 -3 -23q0 -16 12 -25t30 -9q36 0 69 42l68 304h169l-107 -483h-169l13 56q-64 -68 -139 -68q-60 0 -95 30t-35 78q0 1 4 33z" />
    <glyph glyph-name="ucircumflex" unicode="&#xfb;" horiz-adv-x="534" 
d="M484 556h-93l-39 76l-69 -76h-97l106 144h147zM95 483h169l-64 -289q-3 -13 -3 -23q0 -16 12 -25t30 -9q36 0 69 42l68 304h169l-107 -483h-169l13 56q-64 -68 -139 -68q-60 0 -95 30t-35 78q0 1 4 33z" />
    <glyph glyph-name="udieresis" unicode="&#xfc;" horiz-adv-x="534" 
d="M535 626q0 -37 -29.5 -65.5t-66.5 -28.5q-32 0 -53.5 21.5t-21.5 53.5q0 37 29 65.5t67 28.5q32 0 53.5 -21.5t21.5 -53.5zM334 626q0 -37 -29 -65.5t-66 -28.5q-32 0 -53.5 21.5t-21.5 53.5q0 37 29 65.5t66 28.5q32 0 53.5 -21.5t21.5 -53.5zM95 483h169l-64 -289
q-3 -13 -3 -23q0 -16 12 -25t30 -9q36 0 69 42l68 304h169l-107 -483h-169l13 56q-64 -68 -139 -68q-60 0 -95 30t-35 78q0 1 4 33z" />
    <glyph glyph-name="yacute" unicode="&#xfd;" horiz-adv-x="485" 
d="M-48 -182l54 141q12 -6 37 -6q29 0 42 21l14 23l-56 486h173l12 -280l138 280h183l-306 -545q-43 -77 -87 -105.5t-110 -28.5q-60 0 -94 14zM519 700l-165 -144h-111l132 144h144z" />
    <glyph glyph-name="thorn" unicode="&#xfe;" horiz-adv-x="528" 
d="M291 -12q-89 0 -122 65l-52 -237h-169l188 851h169l-53 -236q52 64 118 64q70 0 109 -47t39 -136q0 -72 -23.5 -143.5t-77.5 -126t-126 -54.5zM254 137q39 0 64.5 47.5t25.5 96.5q0 30 -16.5 47.5t-43.5 17.5q-32 0 -57 -33l-32 -142q19 -34 59 -34z" />
    <glyph glyph-name="ydieresis" unicode="&#xff;" horiz-adv-x="485" 
d="M-48 -182l54 141q12 -6 37 -6q29 0 42 21l14 23l-56 486h173l12 -280l138 280h183l-306 -545q-43 -77 -87 -105.5t-110 -28.5q-60 0 -94 14zM506 626q0 -37 -29.5 -65.5t-66.5 -28.5q-32 0 -53.5 21.5t-21.5 53.5q0 37 29 65.5t67 28.5q32 0 53.5 -21.5t21.5 -53.5z
M305 626q0 -37 -29 -65.5t-66 -28.5q-32 0 -53.5 21.5t-21.5 53.5q0 37 29 65.5t66 28.5q32 0 53.5 -21.5t21.5 -53.5z" />
    <glyph glyph-name="Amacron" unicode="&#x100;" horiz-adv-x="597" 
d="M555 0h-198v86h-173l-38 -86h-212l343 667h229zM357 251l-1 221l-98 -221h99zM564 720h-315l20 92h315z" />
    <glyph glyph-name="amacron" unicode="&#x101;" horiz-adv-x="529" 
d="M238 495q88 0 121 -65l12 53h168l-107 -483h-168l12 52q-51 -64 -118 -64q-70 0 -109 47t-39 136q0 72 23.5 143.5t77.5 126t127 54.5zM274 346q-39 0 -64.5 -47.5t-25.5 -96.5q0 -30 16.5 -47.5t43.5 -17.5q32 0 58 33l32 143q-19 33 -60 33zM486 553h-315l20 92h315z
" />
    <glyph glyph-name="Abreve" unicode="&#x102;" horiz-adv-x="597" 
d="M555 0h-198v86h-173l-38 -86h-212l343 667h229zM357 251l-1 221l-98 -221h99zM566 775q-72 -77 -168 -77t-136 77l82 57q20 -42 70 -42t89 42z" />
    <glyph glyph-name="abreve" unicode="&#x103;" horiz-adv-x="529" 
d="M238 495q88 0 121 -65l12 53h168l-107 -483h-168l12 52q-51 -64 -118 -64q-70 0 -109 47t-39 136q0 72 23.5 143.5t77.5 126t127 54.5zM274 346q-39 0 -64.5 -47.5t-25.5 -96.5q0 -30 16.5 -47.5t43.5 -17.5q32 0 58 33l32 143q-19 33 -60 33zM491 608q-72 -77 -168 -77
t-136 77l82 57q20 -42 70 -42t89 42z" />
    <glyph glyph-name="Aogonek" unicode="&#x104;" horiz-adv-x="597" 
d="M530 -97l53 -43q-37 -46 -90 -46q-41 0 -68 19.5t-27 56.5q0 60 54 110h-95v86h-173l-38 -86h-212l343 667h229l49 -667q-79 -43 -79 -100q0 -21 22 -21q18 0 32 24zM357 251l-1 221l-98 -221h99z" />
    <glyph glyph-name="aogonek" unicode="&#x105;" horiz-adv-x="529" 
d="M407 -97l53 -43q-37 -46 -90 -46q-41 0 -68 19.5t-27 56.5q0 60 54 110h-65l12 52q-51 -64 -118 -64q-70 0 -109 47t-39 136q0 72 23.5 143.5t77.5 126t127 54.5q88 0 121 -65l12 53h168l-107 -483q-79 -43 -79 -100q0 -21 22 -21q18 0 32 24zM274 346q-39 0 -64.5 -47.5
t-25.5 -96.5q0 -30 16.5 -47.5t43.5 -17.5q32 0 58 33l32 143q-19 33 -60 33z" />
    <glyph glyph-name="Cacute" unicode="&#x106;" horiz-adv-x="582" 
d="M644 872l-165 -144h-111l132 144h144zM304 -12q-125 0 -202 74t-77 197q0 110 41 204.5t123.5 154.5t190.5 60q62 0 110 -19.5t77.5 -53t46.5 -71t23 -80.5l-179 -46q-5 45 -28 74t-60 29q-65 0 -108 -78t-43 -169q0 -49 25.5 -79t68.5 -30q30 0 59 21.5t45 56.5l150 -79
q-47 -83 -116 -124.5t-147 -41.5z" />
    <glyph glyph-name="cacute" unicode="&#x107;" horiz-adv-x="437" 
d="M547 700l-165 -144h-111l132 144h144zM234 -12q-102 0 -162 57t-60 153q0 121 77 209t193 88q61 0 107 -21t71 -54l-102 -110q-23 36 -69 36q-45 0 -75 -39t-30 -93q0 -36 22.5 -56.5t57.5 -20.5q39 0 68 31l57 -122q-60 -58 -155 -58z" />
    <glyph glyph-name="Ccircumflex" unicode="&#x108;" horiz-adv-x="582" 
d="M578 723h-93l-39 76l-69 -76h-97l106 144h147zM304 -12q-125 0 -202 74t-77 197q0 110 41 204.5t123.5 154.5t190.5 60q62 0 110 -19.5t77.5 -53t46.5 -71t23 -80.5l-179 -46q-5 45 -28 74t-60 29q-65 0 -108 -78t-43 -169q0 -49 25.5 -79t68.5 -30q30 0 59 21.5t45 56.5
l150 -79q-47 -83 -116 -124.5t-147 -41.5z" />
    <glyph glyph-name="ccircumflex" unicode="&#x109;" horiz-adv-x="437" 
d="M484 556h-93l-39 76l-69 -76h-97l106 144h147zM234 -12q-102 0 -162 57t-60 153q0 121 77 209t193 88q61 0 107 -21t71 -54l-102 -110q-23 36 -69 36q-45 0 -75 -39t-30 -93q0 -36 22.5 -56.5t57.5 -20.5q39 0 68 31l57 -122q-60 -58 -155 -58z" />
    <glyph glyph-name="Cdotaccent" unicode="&#x10a;" horiz-adv-x="582" 
d="M304 -12q-125 0 -202 74t-77 197q0 110 41 204.5t123.5 154.5t190.5 60q62 0 110 -19.5t77.5 -53t46.5 -71t23 -80.5l-179 -46q-5 45 -28 74t-60 29q-65 0 -108 -78t-43 -169q0 -49 25.5 -79t68.5 -30q30 0 59 21.5t45 56.5l150 -79q-47 -83 -116 -124.5t-147 -41.5z
M530 794q0 -37 -29.5 -65.5t-66.5 -28.5q-32 0 -53.5 21.5t-21.5 53.5q0 37 29 65.5t67 28.5q32 0 53.5 -21.5t21.5 -53.5z" />
    <glyph glyph-name="cdotaccent" unicode="&#x10b;" horiz-adv-x="437" 
d="M234 -12q-102 0 -162 57t-60 153q0 121 77 209t193 88q61 0 107 -21t71 -54l-102 -110q-23 36 -69 36q-45 0 -75 -39t-30 -93q0 -36 22.5 -56.5t57.5 -20.5q39 0 68 31l57 -122q-60 -58 -155 -58zM435 627q0 -37 -29.5 -65.5t-66.5 -28.5q-32 0 -53.5 21.5t-21.5 53.5
q0 37 29 65.5t67 28.5q32 0 53.5 -21.5t21.5 -53.5z" />
    <glyph glyph-name="Ccaron" unicode="&#x10c;" horiz-adv-x="582" 
d="M504 723h-147l-45 144h93l39 -76l69 76h97zM304 -12q-125 0 -202 74t-77 197q0 110 41 204.5t123.5 154.5t190.5 60q62 0 110 -19.5t77.5 -53t46.5 -71t23 -80.5l-179 -46q-5 45 -28 74t-60 29q-65 0 -108 -78t-43 -169q0 -49 25.5 -79t68.5 -30q30 0 59 21.5t45 56.5
l150 -79q-47 -83 -116 -124.5t-147 -41.5z" />
    <glyph glyph-name="ccaron" unicode="&#x10d;" horiz-adv-x="437" 
d="M410 556h-147l-45 144h93l39 -76l69 76h97zM234 -12q-102 0 -162 57t-60 153q0 121 77 209t193 88q61 0 107 -21t71 -54l-102 -110q-23 36 -69 36q-45 0 -75 -39t-30 -93q0 -36 22.5 -56.5t57.5 -20.5q39 0 68 31l57 -122q-60 -58 -155 -58z" />
    <glyph glyph-name="Dcaron" unicode="&#x10e;" horiz-adv-x="630" 
d="M503 723h-147l-45 144h93l39 -76l69 76h97zM246 0h-253l148 667h247q100 0 175 -72t75 -189q0 -58 -11.5 -113t-40.5 -109t-72 -94t-112 -65t-156 -25zM220 165h60q52 0 90.5 35.5t56 87.5t17.5 109q0 48 -25.5 76.5t-65.5 28.5h-59z" />
    <glyph glyph-name="dcaron" unicode="&#x10f;" horiz-adv-x="671" 
d="M754 604q0 -49 -37 -98.5t-93 -76.5l-43 44q64 30 83 65q-2 -1 -10 -1q-24 0 -41 16t-17 45q0 32 26.5 57t58.5 25q30 0 51.5 -20t21.5 -56zM238 495q88 0 121 -65l53 237h168l-148 -667h-168l12 52q-51 -64 -118 -64q-70 0 -109 47t-39 136q0 72 23.5 143.5t77.5 126
t127 54.5zM274 346q-39 0 -64.5 -47.5t-25.5 -96.5q0 -30 16.5 -47.5t43.5 -17.5q32 0 58 33l32 143q-19 33 -60 33z" />
    <glyph glyph-name="Dcroat" unicode="&#x110;" horiz-adv-x="654" 
d="M270 0h-253l57 259h-62l33 149h62l58 259h247q100 0 175 -72t75 -189q0 -58 -11.5 -113t-40.5 -109t-72 -94t-112 -65t-156 -25zM356 259h-92l-20 -94h60q52 0 90.5 35.5t56 87.5t17.5 109q0 48 -25.5 76.5t-65.5 28.5h-59l-21 -94h91z" />
    <glyph glyph-name="dcroat" unicode="&#x111;" horiz-adv-x="536" 
d="M238 495q88 0 121 -65l21 93h-121l22 92h119l12 52h168l-12 -52h51l-22 -92h-49l-116 -523h-168l12 52q-51 -64 -118 -64q-70 0 -109 47t-39 136q0 72 23.5 143.5t77.5 126t127 54.5zM274 346q-39 0 -64.5 -47.5t-25.5 -96.5q0 -30 16.5 -47.5t43.5 -17.5q32 0 58 33
l32 143q-19 33 -60 33z" />
    <glyph glyph-name="Emacron" unicode="&#x112;" 
d="M415 0h-422l148 667h421l-37 -165h-231l-18 -82h225l-37 -165h-225l-19 -90h231zM521 720h-315l20 92h315z" />
    <glyph glyph-name="emacron" unicode="&#x113;" horiz-adv-x="489" 
d="M240 -12q-105 0 -166.5 55.5t-61.5 153.5q0 116 75 207t191 91q92 0 146 -53.5t54 -146.5q0 -51 -16 -107h-289v-8q0 -9 7.5 -21.5t29.5 -25.5t53 -13q55 0 92 27l52 -107q-69 -52 -167 -52zM193 299h134q1 4 1 13q0 20 -16 36t-44 16q-31 0 -50.5 -20.5t-24.5 -44.5z
M486 553h-315l20 92h315z" />
    <glyph glyph-name="Ebreve" unicode="&#x114;" 
d="M415 0h-422l148 667h421l-37 -165h-231l-18 -82h225l-37 -165h-225l-19 -90h231zM526 775q-72 -77 -168 -77t-136 77l82 57q20 -42 70 -42t89 42z" />
    <glyph glyph-name="ebreve" unicode="&#x115;" horiz-adv-x="489" 
d="M240 -12q-105 0 -166.5 55.5t-61.5 153.5q0 116 75 207t191 91q92 0 146 -53.5t54 -146.5q0 -51 -16 -107h-289v-8q0 -9 7.5 -21.5t29.5 -25.5t53 -13q55 0 92 27l52 -107q-69 -52 -167 -52zM193 299h134q1 4 1 13q0 20 -16 36t-44 16q-31 0 -50.5 -20.5t-24.5 -44.5z
M491 608q-72 -77 -168 -77t-136 77l82 57q20 -42 70 -42t89 42z" />
    <glyph glyph-name="Edotaccent" unicode="&#x116;" 
d="M415 0h-422l148 667h421l-37 -165h-231l-18 -82h225l-37 -165h-225l-19 -90h231zM465 802q0 -37 -29.5 -65.5t-66.5 -28.5q-32 0 -53.5 21.5t-21.5 53.5q0 37 29 65.5t67 28.5q32 0 53.5 -21.5t21.5 -53.5z" />
    <glyph glyph-name="edotaccent" unicode="&#x117;" horiz-adv-x="489" 
d="M240 -12q-105 0 -166.5 55.5t-61.5 153.5q0 116 75 207t191 91q92 0 146 -53.5t54 -146.5q0 -51 -16 -107h-289v-8q0 -9 7.5 -21.5t29.5 -25.5t53 -13q55 0 92 27l52 -107q-69 -52 -167 -52zM193 299h134q1 4 1 13q0 20 -16 36t-44 16q-31 0 -50.5 -20.5t-24.5 -44.5z
M429 627q0 -37 -29.5 -65.5t-66.5 -28.5q-32 0 -53.5 21.5t-21.5 53.5q0 37 29 65.5t67 28.5q32 0 53.5 -21.5t21.5 -53.5z" />
    <glyph glyph-name="Eogonek" unicode="&#x118;" 
d="M415 0q-79 -43 -79 -100q0 -21 22 -21q18 0 32 24l53 -43q-37 -46 -90 -46q-41 0 -68 19.5t-27 56.5q0 60 54 110h-319l148 667h421l-37 -165h-231l-18 -82h225l-37 -165h-225l-19 -90h231z" />
    <glyph glyph-name="eogonek" unicode="&#x119;" horiz-adv-x="489" 
d="M300 -97l53 -43q-37 -46 -90 -46q-41 0 -68 19.5t-27 56.5q0 53 44 100q-93 8 -146.5 62t-53.5 145q0 116 75 207t191 91q92 0 146 -53.5t54 -146.5q0 -51 -16 -107h-289v-8q0 -9 7.5 -21.5t29.5 -25.5t53 -13q55 0 92 27l52 -107q-34 -25 -83 -40h1q-79 -43 -79 -100
q0 -21 22 -21q18 0 32 24zM193 299h134q1 4 1 13q0 20 -16 36t-44 16q-31 0 -50.5 -20.5t-24.5 -44.5z" />
    <glyph glyph-name="Ecaron" unicode="&#x11a;" 
d="M440 723h-147l-45 144h93l39 -76l69 76h97zM415 0h-422l148 667h421l-37 -165h-231l-18 -82h225l-37 -165h-225l-19 -90h231z" />
    <glyph glyph-name="ecaron" unicode="&#x11b;" horiz-adv-x="489" 
d="M403 556h-147l-45 144h93l39 -76l69 76h97zM240 -12q-105 0 -166.5 55.5t-61.5 153.5q0 116 75 207t191 91q92 0 146 -53.5t54 -146.5q0 -51 -16 -107h-289v-8q0 -9 7.5 -21.5t29.5 -25.5t53 -13q55 0 92 27l52 -107q-69 -52 -167 -52zM193 299h134q1 4 1 13q0 20 -16 36
t-44 16q-31 0 -50.5 -20.5t-24.5 -44.5z" />
    <glyph glyph-name="Gcircumflex" unicode="&#x11c;" horiz-adv-x="611" 
d="M584 723h-93l-39 76l-69 -76h-97l106 144h147zM304 -12q-124 0 -201.5 74t-77.5 197q0 112 41.5 206t126 153.5t197.5 59.5q102 0 162 -56t74 -138l-167 -56q-4 33 -28.5 58t-59.5 25q-63 0 -107.5 -76.5t-44.5 -170.5q0 -48 24.5 -78.5t70.5 -30.5q39 0 73 31l9 40h-93
l38 165h269l-61 -274q-91 -129 -245 -129z" />
    <glyph glyph-name="gcircumflex" unicode="&#x11d;" horiz-adv-x="528" 
d="M474 546h-93l-39 76l-69 -76h-97l106 144h147zM176 -196q-141 0 -216 76l89 117q20 -25 54 -39t69 -14q77 0 100 99l9 36q-47 -65 -118 -65q-69 0 -110 43t-41 130q0 71 23 139t76 118.5t124 50.5q36 0 71.5 -16.5t51.5 -48.5l12 53h169l-99 -440q-53 -239 -264 -239z
M248 163q32 0 58 34l25 113q-19 36 -63 36q-37 0 -59.5 -39t-22.5 -84q0 -28 16.5 -44t45.5 -16z" />
    <glyph glyph-name="Gbreve" unicode="&#x11e;" horiz-adv-x="611" 
d="M304 -12q-124 0 -201.5 74t-77.5 197q0 112 41.5 206t126 153.5t197.5 59.5q102 0 162 -56t74 -138l-167 -56q-4 33 -28.5 58t-59.5 25q-63 0 -107.5 -76.5t-44.5 -170.5q0 -48 24.5 -78.5t70.5 -30.5q39 0 73 31l9 40h-93l38 165h269l-61 -274q-91 -129 -245 -129z
M596 775q-72 -77 -168 -77t-136 77l82 57q20 -42 70 -42t89 42z" />
    <glyph glyph-name="gbreve" unicode="&#x11f;" horiz-adv-x="528" 
d="M176 -196q-141 0 -216 76l89 117q20 -25 54 -39t69 -14q77 0 100 99l9 36q-47 -65 -118 -65q-69 0 -110 43t-41 130q0 71 23 139t76 118.5t124 50.5q36 0 71.5 -16.5t51.5 -48.5l12 53h169l-99 -440q-53 -239 -264 -239zM248 163q32 0 58 34l25 113q-19 36 -63 36
q-37 0 -59.5 -39t-22.5 -84q0 -28 16.5 -44t45.5 -16zM490 608q-72 -77 -168 -77t-136 77l82 57q20 -42 70 -42t89 42z" />
    <glyph glyph-name="Gdotaccent" unicode="&#x120;" horiz-adv-x="611" 
d="M304 -12q-124 0 -201.5 74t-77.5 197q0 112 41.5 206t126 153.5t197.5 59.5q102 0 162 -56t74 -138l-167 -56q-4 33 -28.5 58t-59.5 25q-63 0 -107.5 -76.5t-44.5 -170.5q0 -48 24.5 -78.5t70.5 -30.5q39 0 73 31l9 40h-93l38 165h269l-61 -274q-91 -129 -245 -129z
M534 795q0 -37 -29.5 -65.5t-66.5 -28.5q-32 0 -53.5 21.5t-21.5 53.5q0 37 29 65.5t67 28.5q32 0 53.5 -21.5t21.5 -53.5z" />
    <glyph glyph-name="gdotaccent" unicode="&#x121;" horiz-adv-x="528" 
d="M176 -196q-141 0 -216 76l89 117q20 -25 54 -39t69 -14q77 0 100 99l9 36q-47 -65 -118 -65q-69 0 -110 43t-41 130q0 71 23 139t76 118.5t124 50.5q36 0 71.5 -16.5t51.5 -48.5l12 53h169l-99 -440q-53 -239 -264 -239zM248 163q32 0 58 34l25 113q-19 36 -63 36
q-37 0 -59.5 -39t-22.5 -84q0 -28 16.5 -44t45.5 -16zM428 627q0 -37 -29.5 -65.5t-66.5 -28.5q-32 0 -53.5 21.5t-21.5 53.5q0 37 29 65.5t67 28.5q32 0 53.5 -21.5t21.5 -53.5z" />
    <glyph glyph-name="Gcommaaccent" unicode="&#x122;" horiz-adv-x="611" 
d="M323 -120q0 -49 -37 -98.5t-93 -76.5l-43 44q64 30 83 65q-2 -1 -10 -1q-24 0 -41 16t-17 45q0 32 26.5 57t58.5 25q30 0 51.5 -20t21.5 -56zM304 -12q-124 0 -201.5 74t-77.5 197q0 112 41.5 206t126 153.5t197.5 59.5q102 0 162 -56t74 -138l-167 -56q-4 33 -28.5 58
t-59.5 25q-63 0 -107.5 -76.5t-44.5 -170.5q0 -48 24.5 -78.5t70.5 -30.5q39 0 73 31l9 40h-93l38 165h269l-61 -274q-91 -129 -245 -129z" />
    <glyph glyph-name="gcommaaccent" unicode="&#x123;" horiz-adv-x="528" 
d="M260 611q0 50 37.5 100t94.5 77l44 -45q-63 -25 -85 -65h10q26 0 42.5 -16t16.5 -46q0 -33 -26.5 -57.5t-59.5 -24.5q-31 0 -52.5 20.5t-21.5 56.5zM176 -196q-141 0 -216 76l89 117q20 -25 54 -39t69 -14q77 0 100 99l9 36q-47 -65 -118 -65q-69 0 -110 43t-41 130
q0 71 23 139t76 118.5t124 50.5q36 0 71.5 -16.5t51.5 -48.5l12 53h169l-99 -440q-53 -239 -264 -239zM248 163q32 0 58 34l25 113q-19 36 -63 36q-37 0 -59.5 -39t-22.5 -84q0 -28 16.5 -44t45.5 -16z" />
    <glyph glyph-name="Hcircumflex" unicode="&#x124;" horiz-adv-x="642" 
d="M575 723h-93l-39 76l-69 -76h-97l106 144h147zM540 0h-189l57 261h-168l-57 -261h-190l148 667h189l-53 -241h168l53 241h189z" />
    <glyph glyph-name="hcircumflex" unicode="&#x125;" horiz-adv-x="535" 
d="M524 723h-93l-39 76l-69 -76h-97l106 144h147zM439 0h-169l63 288q3 15 3 23q0 35 -44 35q-33 0 -67 -42l-67 -304h-169l147 667h169l-54 -240q64 68 140 68q60 0 94.5 -30t34.5 -78q0 -14 -4 -32z" />
    <glyph glyph-name="Hbar" unicode="&#x126;" horiz-adv-x="642" 
d="M540 0h-189l57 261h-168l-57 -261h-190l111 501h-47l20 92h47l17 74h189l-17 -74h168l17 74h189l-17 -74h45l-19 -92h-46zM277 426h168l16 75h-168z" />
    <glyph glyph-name="hbar" unicode="&#x127;" horiz-adv-x="542" 
d="M446 0h-169l63 288q3 15 3 23q0 35 -44 35q-33 0 -67 -42l-67 -304h-169l115 524h-40l20 92h41l11 51h169l-12 -51h126l-21 -92h-125l-22 -97q64 68 140 68q60 0 94.5 -30t34.5 -78q0 -14 -4 -32z" />
    <glyph glyph-name="Itilde" unicode="&#x128;" horiz-adv-x="285" 
d="M183 0h-190l148 667h189zM312 721q-35 0 -62 24t-42 24q-21 0 -30 -42h-85q14 67 43 100.5t79 33.5q35 0 62.5 -24t42.5 -24q20 0 30 42h85q-15 -67 -44 -100.5t-79 -33.5z" />
    <glyph glyph-name="itilde" unicode="&#x129;" horiz-adv-x="254" 
d="M158 0h-170l108 483h169zM260 554q-35 0 -62 24t-42 24q-21 0 -30 -42h-85q14 67 43 100.5t79 33.5q35 0 62.5 -24t42.5 -24q20 0 30 42h85q-15 -67 -44 -100.5t-79 -33.5z" />
    <glyph glyph-name="Imacron" unicode="&#x12a;" horiz-adv-x="285" 
d="M183 0h-190l148 667h189zM406 720h-315l20 92h315z" />
    <glyph glyph-name="imacron" unicode="&#x12b;" horiz-adv-x="254" 
d="M158 0h-170l108 483h169zM354 553h-315l20 92h315z" />
    <glyph glyph-name="Ibreve" unicode="&#x12c;" horiz-adv-x="285" 
d="M183 0h-190l148 667h189zM409 775q-72 -77 -168 -77t-136 77l82 57q20 -42 70 -42t89 42z" />
    <glyph glyph-name="ibreve" unicode="&#x12d;" horiz-adv-x="254" 
d="M158 0h-170l108 483h169zM359 608q-72 -77 -168 -77t-136 77l82 57q20 -42 70 -42t89 42z" />
    <glyph glyph-name="Iogonek" unicode="&#x12e;" horiz-adv-x="285" 
d="M158 -97l53 -43q-37 -46 -90 -46q-41 0 -68 19.5t-27 56.5q0 60 54 110h-87l148 667h189l-147 -667q-79 -43 -79 -100q0 -21 22 -21q18 0 32 24z" />
    <glyph glyph-name="iogonek" unicode="&#x12f;" horiz-adv-x="254" 
d="M133 -97l53 -43q-37 -46 -90 -46q-41 0 -68 19.5t-27 56.5q0 60 54 110h-67l108 483h169l-107 -483q-79 -43 -79 -100q0 -21 22 -21q18 0 32 24zM198 522q-37 0 -61.5 23.5t-24.5 57.5q0 50 34 80t74 30q37 0 61.5 -23.5t24.5 -57.5q0 -50 -34 -80t-74 -30z" />
    <glyph glyph-name="Idotaccent" unicode="&#x130;" horiz-adv-x="285" 
d="M183 0h-190l148 667h189zM348 794q0 -37 -29.5 -65.5t-66.5 -28.5q-32 0 -53.5 21.5t-21.5 53.5q0 37 29 65.5t67 28.5q32 0 53.5 -21.5t21.5 -53.5z" />
    <glyph glyph-name="dotlessi" unicode="&#x131;" horiz-adv-x="254" 
d="M158 0h-170l108 483h169z" />
    <glyph glyph-name="IJ" unicode="&#x132;" horiz-adv-x="722" 
d="M183 0h-190l148 667h189zM420 -12q-112 0 -172 51l85 148q27 -32 71 -32q62 0 76 66l99 446h189l-100 -452q-26 -119 -84.5 -173t-163.5 -54z" />
    <glyph glyph-name="ij" unicode="&#x133;" horiz-adv-x="508" 
d="M198 522q-37 0 -61.5 23.5t-24.5 57.5q0 50 34 80t74 30q37 0 61.5 -23.5t24.5 -57.5q0 -50 -34 -80t-74 -30zM158 0h-170l108 483h169zM208 -196q-81 0 -118 31l60 123q13 -14 39 -14q41 0 54 60l107 479h169l-107 -479q-21 -98 -67.5 -149t-136.5 -51zM452 522
q-37 0 -61.5 23.5t-24.5 57.5q0 50 34 80t74 30q37 0 61.5 -23.5t24.5 -57.5q0 -50 -34 -80t-74 -30z" />
    <glyph glyph-name="Jcircumflex" unicode="&#x134;" horiz-adv-x="437" 
d="M549 723h-93l-39 76l-69 -76h-97l106 144h147zM135 -12q-112 0 -172 51l85 148q27 -32 71 -32q62 0 76 66l99 446h189l-100 -452q-26 -119 -84.5 -173t-163.5 -54z" />
    <glyph glyph-name="jcircumflex" unicode="&#x135;" horiz-adv-x="254" 
d="M345 556h-93l-39 76l-69 -76h-97l106 144h147zM-46 -196q-81 0 -118 31l60 123q13 -14 39 -14q41 0 54 60l107 479h169l-107 -479q-21 -98 -67.5 -149t-136.5 -51z" />
    <glyph glyph-name="Kcommaaccent" unicode="&#x136;" horiz-adv-x="598" 
d="M311 -120q0 -49 -37 -98.5t-93 -76.5l-43 44q64 30 83 65q-2 -1 -10 -1q-24 0 -41 16t-17 45q0 32 26.5 57t58.5 25q30 0 51.5 -20t21.5 -56zM555 0h-210l-70 232l-56 -71l-36 -161h-190l148 667h189l-53 -242l185 242h229l-272 -310z" />
    <glyph glyph-name="kcommaaccent" unicode="&#x137;" 
d="M256 -120q0 -49 -37 -98.5t-93 -76.5l-43 44q64 30 83 65q-2 -1 -10 -1q-24 0 -41 16t-17 45q0 32 26.5 57t58.5 25q30 0 51.5 -20t21.5 -56zM456 0h-194l-33 164l-48 -58l-23 -106h-170l148 667h169l-78 -350l126 166h200l-185 -216z" />
    <glyph glyph-name="kgreenlandic" unicode="&#x138;" 
d="M456 0h-194l-33 164l-48 -58l-23 -106h-170l108 483h169l-38 -166l126 166h200l-185 -216z" />
    <glyph glyph-name="Lacute" unicode="&#x139;" horiz-adv-x="466" 
d="M564 867l-165 -144h-111l132 144h144zM389 0h-396l148 667h189l-110 -502h206z" />
    <glyph glyph-name="lacute" unicode="&#x13a;" horiz-adv-x="254" 
d="M446 867l-165 -144h-111l132 144h144zM158 0h-170l148 667h169z" />
    <glyph glyph-name="Lcommaaccent" unicode="&#x13b;" horiz-adv-x="466" 
d="M242 -120q0 -49 -37 -98.5t-93 -76.5l-43 44q64 30 83 65q-2 -1 -10 -1q-24 0 -41 16t-17 45q0 32 26.5 57t58.5 25q30 0 51.5 -20t21.5 -56zM389 0h-396l148 667h189l-110 -502h206z" />
    <glyph glyph-name="lcommaaccent" unicode="&#x13c;" horiz-adv-x="254" 
d="M123 -120q0 -49 -37 -98.5t-93 -76.5l-43 44q64 30 83 65q-2 -1 -10 -1q-24 0 -41 16t-17 45q0 32 26.5 57t58.5 25q30 0 51.5 -20t21.5 -56zM158 0h-170l148 667h169z" />
    <glyph glyph-name="Lcaron" unicode="&#x13d;" horiz-adv-x="466" 
d="M525 606q0 -49 -37 -98.5t-93 -76.5l-43 44q64 30 83 65q-2 -1 -10 -1q-24 0 -41 16t-17 45q0 32 26.5 57t58.5 25q30 0 51.5 -20t21.5 -56zM389 0h-396l148 667h189l-110 -502h206z" />
    <glyph glyph-name="lcaron" unicode="&#x13e;" horiz-adv-x="395" 
d="M488 606q0 -49 -37 -98.5t-93 -76.5l-43 44q64 30 83 65q-2 -1 -10 -1q-24 0 -41 16t-17 45q0 32 26.5 57t58.5 25q30 0 51.5 -20t21.5 -56zM158 0h-170l148 667h169z" />
    <glyph glyph-name="Ldot" unicode="&#x13f;" horiz-adv-x="547" 
d="M389 0h-396l148 667h189l-110 -502h206zM430 241q-39 0 -65.5 27.5t-26.5 66.5q0 45 33 77.5t78 32.5q38 0 64.5 -27.5t26.5 -66.5q0 -44 -33 -77t-77 -33z" />
    <glyph glyph-name="ldot" unicode="&#x140;" horiz-adv-x="444" 
d="M158 0h-170l148 667h169zM340 143q-39 0 -65.5 27.5t-26.5 66.5q0 45 33 77.5t78 32.5q38 0 64.5 -27.5t26.5 -66.5q0 -44 -33 -77t-77 -33z" />
    <glyph glyph-name="Lslash" unicode="&#x141;" horiz-adv-x="474" 
d="M-6 177l33 150l52 27l70 313h189l-45 -203l63 32l-33 -151l-63 -32l-32 -148h206l-37 -165h-396l45 203z" />
    <glyph glyph-name="lslash" unicode="&#x142;" horiz-adv-x="295" 
d="M-3 194l27 119l61 31l72 323h169l-50 -226l61 31l-26 -118l-61 -31l-71 -323h-170l50 225z" />
    <glyph glyph-name="Nacute" unicode="&#x143;" horiz-adv-x="641" 
d="M640 867l-165 -144h-111l132 144h144zM539 0h-179l-108 312l-69 -312h-190l148 667h192l100 -292l64 292h189z" />
    <glyph glyph-name="nacute" unicode="&#x144;" horiz-adv-x="535" 
d="M549 700l-165 -144h-111l132 144h144zM438 0h-169l63 285q4 24 4 26q0 17 -11.5 26t-28.5 9q-37 0 -71 -42l-67 -304h-170l108 483h169l-14 -56q64 68 140 68q60 0 94.5 -30t34.5 -78q0 -18 -4 -32z" />
    <glyph glyph-name="Ncommaaccent" unicode="&#x145;" horiz-adv-x="641" 
d="M319 -120q0 -49 -37 -98.5t-93 -76.5l-43 44q64 30 83 65q-2 -1 -10 -1q-24 0 -41 16t-17 45q0 32 26.5 57t58.5 25q30 0 51.5 -20t21.5 -56zM539 0h-179l-108 312l-69 -312h-190l148 667h192l100 -292l64 292h189z" />
    <glyph glyph-name="ncommaaccent" unicode="&#x146;" horiz-adv-x="535" 
d="M263 -120q0 -49 -37 -98.5t-93 -76.5l-43 44q64 30 83 65q-2 -1 -10 -1q-24 0 -41 16t-17 45q0 32 26.5 57t58.5 25q30 0 51.5 -20t21.5 -56zM438 0h-169l63 285q4 24 4 26q0 17 -11.5 26t-28.5 9q-37 0 -71 -42l-67 -304h-170l108 483h169l-14 -56q64 68 140 68
q60 0 94.5 -30t34.5 -78q0 -18 -4 -32z" />
    <glyph glyph-name="Ncaron" unicode="&#x147;" horiz-adv-x="641" 
d="M502 723h-147l-45 144h93l39 -76l69 76h97zM539 0h-179l-108 312l-69 -312h-190l148 667h192l100 -292l64 292h189z" />
    <glyph glyph-name="ncaron" unicode="&#x148;" horiz-adv-x="535" 
d="M412 556h-147l-45 144h93l39 -76l69 76h97zM438 0h-169l63 285q4 24 4 26q0 17 -11.5 26t-28.5 9q-37 0 -71 -42l-67 -304h-170l108 483h169l-14 -56q64 68 140 68q60 0 94.5 -30t34.5 -78q0 -18 -4 -32z" />
    <glyph glyph-name="napostrophe" unicode="&#x149;" horiz-adv-x="535" 
d="M276 706q0 -49 -37 -98.5t-93 -76.5l-43 44q64 30 83 65q-2 -1 -10 -1q-24 0 -41 16t-17 45q0 32 26.5 57t58.5 25q30 0 51.5 -20t21.5 -56zM438 0h-169l63 285q4 24 4 26q0 17 -11.5 26t-28.5 9q-37 0 -71 -42l-67 -304h-170l108 483h169l-14 -56q64 68 140 68
q60 0 94.5 -30t34.5 -78q0 -18 -4 -32z" />
    <glyph glyph-name="Eng" unicode="&#x14a;" horiz-adv-x="641" 
d="M297 -196q-110 0 -171 51l80 134q28 -30 73 -30q58 0 74 60l-101 293l-69 -312h-190l148 667h192l100 -292l64 292h189l-140 -636q-26 -119 -85.5 -173t-163.5 -54z" />
    <glyph glyph-name="eng" unicode="&#x14b;" horiz-adv-x="535" 
d="M516 355l-77 -350q-23 -101 -70.5 -151t-133.5 -50q-79 0 -118 31l62 132q14 -14 39 -14q19 0 33 14t19 38l64 287q2 14 2 18q0 36 -35 36q-42 0 -76 -42l-67 -304h-170l108 483h169l-14 -56q64 68 140 68q58 0 93.5 -29t35.5 -78q0 -18 -4 -33z" />
    <glyph glyph-name="Omacron" unicode="&#x14c;" horiz-adv-x="644" 
d="M585 720h-315l20 92h315zM304 -12q-127 0 -203 76t-76 195q0 79 24 153.5t67.5 134t112 95.5t151.5 36q125 0 201.5 -76t76.5 -194q0 -107 -40 -201.5t-122.5 -156.5t-191.5 -62zM313 155q64 0 107.5 78t43.5 169q0 48 -25.5 78.5t-69.5 30.5q-64 0 -107 -78t-43 -169
q0 -48 25.5 -78.5t68.5 -30.5z" />
    <glyph glyph-name="omacron" unicode="&#x14d;" horiz-adv-x="514" 
d="M484 553h-315l20 92h315zM234 -12q-107 0 -164.5 58.5t-57.5 152.5q0 73 31.5 140t94 111.5t140.5 44.5q108 0 165.5 -58t57.5 -153q0 -115 -75 -205.5t-192 -90.5zM242 137q39 0 63.5 49t24.5 96q0 64 -60 64q-38 0 -62.5 -49t-24.5 -95q0 -65 59 -65z" />
    <glyph glyph-name="Obreve" unicode="&#x14e;" horiz-adv-x="644" 
d="M304 -12q-127 0 -203 76t-76 195q0 79 24 153.5t67.5 134t112 95.5t151.5 36q125 0 201.5 -76t76.5 -194q0 -107 -40 -201.5t-122.5 -156.5t-191.5 -62zM313 155q64 0 107.5 78t43.5 169q0 48 -25.5 78.5t-69.5 30.5q-64 0 -107 -78t-43 -169q0 -48 25.5 -78.5
t68.5 -30.5zM590 775q-72 -77 -168 -77t-136 77l82 57q20 -42 70 -42t89 42z" />
    <glyph glyph-name="obreve" unicode="&#x14f;" horiz-adv-x="514" 
d="M234 -12q-107 0 -164.5 58.5t-57.5 152.5q0 73 31.5 140t94 111.5t140.5 44.5q108 0 165.5 -58t57.5 -153q0 -115 -75 -205.5t-192 -90.5zM242 137q39 0 63.5 49t24.5 96q0 64 -60 64q-38 0 -62.5 -49t-24.5 -95q0 -65 59 -65zM488 608q-72 -77 -168 -77t-136 77l82 57
q20 -42 70 -42t89 42z" />
    <glyph glyph-name="Ohungarumlaut" unicode="&#x150;" horiz-adv-x="644" 
d="M502 867l-131 -144h-92l98 144h125zM650 867l-131 -144h-92l98 144h125zM304 -12q-127 0 -203 76t-76 195q0 79 24 153.5t67.5 134t112 95.5t151.5 36q125 0 201.5 -76t76.5 -194q0 -107 -40 -201.5t-122.5 -156.5t-191.5 -62zM313 155q64 0 107.5 78t43.5 169
q0 48 -25.5 78.5t-69.5 30.5q-64 0 -107 -78t-43 -169q0 -48 25.5 -78.5t68.5 -30.5z" />
    <glyph glyph-name="ohungarumlaut" unicode="&#x151;" horiz-adv-x="514" 
d="M401 700l-131 -144h-92l98 144h125zM549 700l-131 -144h-92l98 144h125zM234 -12q-107 0 -164.5 58.5t-57.5 152.5q0 73 31.5 140t94 111.5t140.5 44.5q108 0 165.5 -58t57.5 -153q0 -115 -75 -205.5t-192 -90.5zM242 137q39 0 63.5 49t24.5 96q0 64 -60 64
q-38 0 -62.5 -49t-24.5 -95q0 -65 59 -65z" />
    <glyph glyph-name="OE" unicode="&#x152;" horiz-adv-x="867" 
d="M788 0h-420l8 42q-50 -54 -135 -54q-91 0 -154 74.5t-63 196.5q0 173 96.5 295.5t242.5 122.5q94 0 141 -59l11 49h420l-36 -165h-232l-17 -82h224l-36 -165h-225l-20 -90h232zM416 221l49 219q-10 35 -34.5 52.5t-56.5 17.5q-47 0 -84 -38.5t-54.5 -94t-17.5 -113.5
q0 -50 25 -79.5t66 -29.5q66 0 107 66z" />
    <glyph glyph-name="oe" unicode="&#x153;" horiz-adv-x="797" 
d="M772 188h-285q-1 -1 -1 -8q0 -19 23 -39.5t65 -20.5q55 0 91 28l51 -108q-66 -52 -165 -52q-110 0 -160 72q-75 -72 -159 -72q-104 0 -162 57t-58 154q0 73 30.5 140t92.5 111.5t141 44.5q104 0 157 -71q69 71 157 71q87 0 142 -50t55 -150q0 -45 -15 -107zM506 299h130
q2 6 2 12q0 21 -14 36.5t-44 15.5t-49.5 -20t-24.5 -44zM326 282q0 29 -15 46.5t-43 17.5q-36 0 -60.5 -46.5t-24.5 -97.5q0 -65 58 -65q38 0 61.5 48.5t23.5 96.5z" />
    <glyph glyph-name="Racute" unicode="&#x154;" horiz-adv-x="594" 
d="M620 867l-165 -144h-111l132 144h144zM515 0h-203l-27 216h-54l-48 -216h-190l148 667h266q86 0 145 -55t59 -140q0 -79 -42.5 -144.5t-99.5 -87.5zM267 381h75q32 0 52.5 20t20.5 51q0 24 -14.5 37t-35.5 13h-71z" />
    <glyph glyph-name="racute" unicode="&#x155;" horiz-adv-x="350" 
d="M489 700l-165 -144h-111l132 144h144zM158 0h-170l108 483h169l-13 -54q25 30 62.5 49t79.5 19l-37 -165q-19 7 -42 7q-53 0 -92 -42z" />
    <glyph glyph-name="Rcommaaccent" unicode="&#x156;" horiz-adv-x="594" 
d="M298 -120q0 -49 -37 -98.5t-93 -76.5l-43 44q64 30 83 65q-2 -1 -10 -1q-24 0 -41 16t-17 45q0 32 26.5 57t58.5 25q30 0 51.5 -20t21.5 -56zM515 0h-203l-27 216h-54l-48 -216h-190l148 667h266q86 0 145 -55t59 -140q0 -79 -42.5 -144.5t-99.5 -87.5zM267 381h75
q32 0 52.5 20t20.5 51q0 24 -14.5 37t-35.5 13h-71z" />
    <glyph glyph-name="rcommaaccent" unicode="&#x157;" horiz-adv-x="350" 
d="M197 -120q0 -49 -37 -98.5t-93 -76.5l-43 44q64 30 83 65q-2 -1 -10 -1q-24 0 -41 16t-17 45q0 32 26.5 57t58.5 25q30 0 51.5 -20t21.5 -56zM158 0h-170l108 483h169l-13 -54q25 30 62.5 49t79.5 19l-37 -165q-19 7 -42 7q-53 0 -92 -42z" />
    <glyph glyph-name="Rcaron" unicode="&#x158;" horiz-adv-x="594" 
d="M482 723h-147l-45 144h93l39 -76l69 76h97zM515 0h-203l-27 216h-54l-48 -216h-190l148 667h266q86 0 145 -55t59 -140q0 -79 -42.5 -144.5t-99.5 -87.5zM267 381h75q32 0 52.5 20t20.5 51q0 24 -14.5 37t-35.5 13h-71z" />
    <glyph glyph-name="rcaron" unicode="&#x159;" horiz-adv-x="350" 
d="M348 556h-147l-45 144h93l39 -76l69 76h97zM158 0h-170l108 483h169l-13 -54q25 30 62.5 49t79.5 19l-37 -165q-19 7 -42 7q-53 0 -92 -42z" />
    <glyph glyph-name="Sacute" unicode="&#x15a;" horiz-adv-x="525" 
d="M589 867l-165 -144h-111l132 144h144zM247 -12q-85 0 -157.5 29t-112.5 78l109 137q26 -35 73 -57.5t96 -22.5q24 0 38 11.5t14 28.5q0 16 -25 31.5t-60 32.5t-70.5 39t-60.5 59.5t-25 84.5q0 97 72 168t189 71q68 0 131.5 -24t106.5 -68l-106 -136q-28 31 -69 48t-80 17
q-21 0 -32.5 -11t-11.5 -26q0 -14 18 -27.5t44.5 -25.5t57.5 -30t57.5 -38.5t44.5 -53.5t18 -73q0 -103 -71.5 -172.5t-187.5 -69.5z" />
    <glyph glyph-name="sacute" unicode="&#x15b;" horiz-adv-x="436" 
d="M507 700l-165 -144h-111l132 144h144zM194 -12q-64 0 -124 23.5t-96 59.5l88 107q21 -24 61 -44t78 -20q17 0 27.5 6.5t10.5 17.5q0 13 -20.5 23t-49.5 20.5t-57.5 25t-49 43t-20.5 68.5q0 72 53.5 124.5t147.5 52.5q122 0 200 -75l-81 -104q-17 19 -51 36t-67 17
q-17 0 -27 -7t-10 -17q0 -12 31.5 -24.5t68.5 -25t68.5 -46t31.5 -81.5q0 -76 -58 -128t-155 -52z" />
    <glyph glyph-name="Scircumflex" unicode="&#x15c;" horiz-adv-x="525" 
d="M524 723h-93l-39 76l-69 -76h-97l106 144h147zM247 -12q-85 0 -157.5 29t-112.5 78l109 137q26 -35 73 -57.5t96 -22.5q24 0 38 11.5t14 28.5q0 16 -25 31.5t-60 32.5t-70.5 39t-60.5 59.5t-25 84.5q0 97 72 168t189 71q68 0 131.5 -24t106.5 -68l-106 -136
q-28 31 -69 48t-80 17q-21 0 -32.5 -11t-11.5 -26q0 -14 18 -27.5t44.5 -25.5t57.5 -30t57.5 -38.5t44.5 -53.5t18 -73q0 -103 -71.5 -172.5t-187.5 -69.5z" />
    <glyph glyph-name="scircumflex" unicode="&#x15d;" horiz-adv-x="436" 
d="M442 556h-93l-39 76l-69 -76h-97l106 144h147zM194 -12q-64 0 -124 23.5t-96 59.5l88 107q21 -24 61 -44t78 -20q17 0 27.5 6.5t10.5 17.5q0 13 -20.5 23t-49.5 20.5t-57.5 25t-49 43t-20.5 68.5q0 72 53.5 124.5t147.5 52.5q122 0 200 -75l-81 -104q-17 19 -51 36
t-67 17q-17 0 -27 -7t-10 -17q0 -12 31.5 -24.5t68.5 -25t68.5 -46t31.5 -81.5q0 -76 -58 -128t-155 -52z" />
    <glyph glyph-name="Scedilla" unicode="&#x15e;" horiz-adv-x="525" 
d="M187 -199q-75 0 -117 42l40 57q34 -34 76 -34q36 0 36 27q0 17 -20 17q-13 0 -23 -12l-50 32l39 65q-127 22 -191 100l109 137q26 -35 73 -57.5t96 -22.5q24 0 38 11.5t14 28.5q0 16 -25 31.5t-60 32.5t-70.5 39t-60.5 59.5t-25 84.5q0 97 72 168t189 71q68 0 131.5 -24
t106.5 -68l-106 -136q-28 31 -69 48t-80 17q-21 0 -32.5 -11t-11.5 -26q0 -14 18 -27.5t44.5 -25.5t57.5 -30t57.5 -38.5t44.5 -53.5t18 -73q0 -103 -71.5 -172.5t-187.5 -69.5h-8l-23 -36q12 9 26 9q25 0 41 -17.5t16 -46.5q0 -43 -32 -69.5t-80 -26.5z" />
    <glyph glyph-name="scedilla" unicode="&#x15f;" horiz-adv-x="436" 
d="M140 -199q-75 0 -117 42l40 57q34 -34 76 -34q36 0 36 27q0 17 -20 17q-13 0 -23 -12l-50 32l39 66q-92 18 -147 75l88 107q21 -24 61 -44t78 -20q17 0 27.5 6.5t10.5 17.5q0 13 -20.5 23t-49.5 20.5t-57.5 25t-49 43t-20.5 68.5q0 72 53.5 124.5t147.5 52.5
q122 0 200 -75l-81 -104q-17 19 -51 36t-67 17q-17 0 -27 -7t-10 -17q0 -12 31.5 -24.5t68.5 -25t68.5 -46t31.5 -81.5q0 -76 -58 -128t-155 -52h-2l-23 -36q12 9 26 9q25 0 41 -17.5t16 -46.5q0 -43 -32 -69.5t-80 -26.5z" />
    <glyph glyph-name="Scaron" unicode="&#x160;" horiz-adv-x="525" 
d="M450 723h-147l-45 144h93l39 -76l69 76h97zM247 -12q-85 0 -157.5 29t-112.5 78l109 137q26 -35 73 -57.5t96 -22.5q24 0 38 11.5t14 28.5q0 16 -25 31.5t-60 32.5t-70.5 39t-60.5 59.5t-25 84.5q0 97 72 168t189 71q68 0 131.5 -24t106.5 -68l-106 -136q-28 31 -69 48
t-80 17q-21 0 -32.5 -11t-11.5 -26q0 -14 18 -27.5t44.5 -25.5t57.5 -30t57.5 -38.5t44.5 -53.5t18 -73q0 -103 -71.5 -172.5t-187.5 -69.5z" />
    <glyph glyph-name="scaron" unicode="&#x161;" horiz-adv-x="436" 
d="M369 556h-147l-45 144h93l39 -76l69 76h97zM194 -12q-64 0 -124 23.5t-96 59.5l88 107q21 -24 61 -44t78 -20q17 0 27.5 6.5t10.5 17.5q0 13 -20.5 23t-49.5 20.5t-57.5 25t-49 43t-20.5 68.5q0 72 53.5 124.5t147.5 52.5q122 0 200 -75l-81 -104q-17 19 -51 36t-67 17
q-17 0 -27 -7t-10 -17q0 -12 31.5 -24.5t68.5 -25t68.5 -46t31.5 -81.5q0 -76 -58 -128t-155 -52z" />
    <glyph glyph-name="Tcommaaccent" unicode="&#x162;" 
d="M250 -120q0 -49 -37 -98.5t-93 -76.5l-43 44q64 30 83 65q-2 -1 -10 -1q-24 0 -41 16t-17 45q0 32 26.5 57t58.5 25q30 0 51.5 -20t21.5 -56zM292 0h-190l111 502h-138l36 165h465l-37 -165h-137z" />
    <glyph glyph-name="tcommaaccent" unicode="&#x163;" horiz-adv-x="332" 
d="M158 -120q0 -49 -37 -98.5t-93 -76.5l-43 44q64 30 83 65q-2 -1 -10 -1q-24 0 -41 16t-17 45q0 32 26.5 57t58.5 25q30 0 51.5 -20t21.5 -56zM202 -12q-76 0 -118 28t-42 84q0 22 5 44l43 193h-61l33 146h61l29 132h169l-29 -132h77l-33 -146h-77l-33 -147q-2 -16 -2 -21
q0 -32 34 -32q15 0 21 6l-2 -139q-26 -16 -75 -16z" />
    <glyph glyph-name="Tcaron" unicode="&#x164;" 
d="M428 723h-147l-45 144h93l39 -76l69 76h97zM292 0h-190l111 502h-138l36 165h465l-37 -165h-137z" />
    <glyph glyph-name="tcaron" unicode="&#x165;" horiz-adv-x="384" 
d="M513 706q0 -49 -37 -98.5t-93 -76.5l-43 44q64 30 83 65q-2 -1 -10 -1q-24 0 -41 16t-17 45q0 32 26.5 57t58.5 25q30 0 51.5 -20t21.5 -56zM202 -12q-76 0 -118 28t-42 84q0 22 5 44l43 193h-61l33 146h61l29 132h169l-29 -132h77l-33 -146h-77l-33 -147q-2 -16 -2 -21
q0 -32 34 -32q15 0 21 6l-2 -139q-26 -16 -75 -16z" />
    <glyph glyph-name="Tbar" unicode="&#x166;" 
d="M292 0h-190l52 238h-90l20 92h91l38 172h-138l36 165h465l-37 -165h-137l-38 -172h90l-20 -92h-90z" />
    <glyph glyph-name="tbar" unicode="&#x167;" horiz-adv-x="332" 
d="M202 -12q-76 0 -118 28t-42 84q0 22 5 44l11 51h-61l21 92h61l11 50h-61l33 146h61l29 132h169l-29 -132h77l-33 -146h-77l-12 -50h50l-20 -92h-50l-1 -5q-2 -16 -2 -21q0 -32 34 -32q15 0 21 6l-2 -139q-26 -16 -75 -16z" />
    <glyph glyph-name="Utilde" unicode="&#x168;" horiz-adv-x="650" 
d="M306 -12q-122 0 -192 60t-70 159q0 17 4 41l93 419h191l-94 -425q-3 -18 -3 -23q1 -27 21.5 -46.5t56.5 -19.5q78 0 97 89l94 425h191l-94 -422q-26 -123 -100.5 -190t-194.5 -67zM495 721q-35 0 -62 24t-42 24q-21 0 -30 -42h-85q14 67 43 100.5t79 33.5q35 0 62.5 -24
t42.5 -24q20 0 30 42h85q-15 -67 -44 -100.5t-79 -33.5z" />
    <glyph glyph-name="utilde" unicode="&#x169;" horiz-adv-x="534" 
d="M95 483h169l-64 -289q-3 -13 -3 -23q0 -16 12 -25t30 -9q36 0 69 42l68 304h169l-107 -483h-169l13 56q-64 -68 -139 -68q-60 0 -95 30t-35 78q0 1 4 33zM399 554q-35 0 -62 24t-42 24q-21 0 -30 -42h-85q14 67 43 100.5t79 33.5q35 0 62.5 -24t42.5 -24q20 0 30 42h85
q-15 -67 -44 -100.5t-79 -33.5z" />
    <glyph glyph-name="Umacron" unicode="&#x16a;" horiz-adv-x="650" 
d="M306 -12q-122 0 -192 60t-70 159q0 17 4 41l93 419h191l-94 -425q-3 -18 -3 -23q1 -27 21.5 -46.5t56.5 -19.5q78 0 97 89l94 425h191l-94 -422q-26 -123 -100.5 -190t-194.5 -67zM588 720h-315l20 92h315z" />
    <glyph glyph-name="umacron" unicode="&#x16b;" horiz-adv-x="534" 
d="M95 483h169l-64 -289q-3 -13 -3 -23q0 -16 12 -25t30 -9q36 0 69 42l68 304h169l-107 -483h-169l13 56q-64 -68 -139 -68q-60 0 -95 30t-35 78q0 1 4 33zM493 553h-315l20 92h315z" />
    <glyph glyph-name="Ubreve" unicode="&#x16c;" horiz-adv-x="650" 
d="M306 -12q-122 0 -192 60t-70 159q0 17 4 41l93 419h191l-94 -425q-3 -18 -3 -23q1 -27 21.5 -46.5t56.5 -19.5q78 0 97 89l94 425h191l-94 -422q-26 -123 -100.5 -190t-194.5 -67zM592 775q-72 -77 -168 -77t-136 77l82 57q20 -42 70 -42t89 42z" />
    <glyph glyph-name="ubreve" unicode="&#x16d;" horiz-adv-x="534" 
d="M95 483h169l-64 -289q-3 -13 -3 -23q0 -16 12 -25t30 -9q36 0 69 42l68 304h169l-107 -483h-169l13 56q-64 -68 -139 -68q-60 0 -95 30t-35 78q0 1 4 33zM497 608q-72 -77 -168 -77t-136 77l82 57q20 -42 70 -42t89 42z" />
    <glyph glyph-name="Uring" unicode="&#x16e;" horiz-adv-x="650" 
d="M435 687q-41 0 -67 26.5t-26 67.5q0 46 34 80t80 34q42 0 67.5 -26t25.5 -67q0 -47 -34 -81t-80 -34zM444 758q14 0 24.5 11t10.5 25t-8.5 22.5t-21.5 8.5q-14 0 -24.5 -11t-10.5 -25t8.5 -22.5t21.5 -8.5zM306 -12q-122 0 -192 60t-70 159q0 17 4 41l93 419h191
l-94 -425q-3 -18 -3 -23q1 -27 21.5 -46.5t56.5 -19.5q78 0 97 89l94 425h191l-94 -422q-26 -123 -100.5 -190t-194.5 -67z" />
    <glyph glyph-name="uring" unicode="&#x16f;" horiz-adv-x="534" 
d="M341 523q-41 0 -67 26.5t-26 67.5q0 46 34 80t80 34q42 0 67.5 -26t25.5 -67q0 -47 -34 -81t-80 -34zM350 594q14 0 24.5 11t10.5 25t-8.5 22.5t-21.5 8.5q-14 0 -24.5 -11t-10.5 -25t8.5 -22.5t21.5 -8.5zM95 483h169l-64 -289q-3 -13 -3 -23q0 -16 12 -25t30 -9
q36 0 69 42l68 304h169l-107 -483h-169l13 56q-64 -68 -139 -68q-60 0 -95 30t-35 78q0 1 4 33z" />
    <glyph glyph-name="Uhungarumlaut" unicode="&#x170;" horiz-adv-x="650" 
d="M306 -12q-122 0 -192 60t-70 159q0 17 4 41l93 419h191l-94 -425q-3 -18 -3 -23q1 -27 21.5 -46.5t56.5 -19.5q78 0 97 89l94 425h191l-94 -422q-26 -123 -100.5 -190t-194.5 -67zM506 867l-131 -144h-92l98 144h125zM654 867l-131 -144h-92l98 144h125z" />
    <glyph glyph-name="uhungarumlaut" unicode="&#x171;" horiz-adv-x="534" 
d="M95 483h169l-64 -289q-3 -13 -3 -23q0 -16 12 -25t30 -9q36 0 69 42l68 304h169l-107 -483h-169l13 56q-64 -68 -139 -68q-60 0 -95 30t-35 78q0 1 4 33zM411 700l-131 -144h-92l98 144h125zM559 700l-131 -144h-92l98 144h125z" />
    <glyph glyph-name="Uogonek" unicode="&#x172;" horiz-adv-x="650" 
d="M372 -97l53 -43q-37 -46 -90 -46q-41 0 -68 19.5t-27 56.5q0 53 43 99q-112 6 -175.5 65t-63.5 153q0 17 4 41l93 419h191l-94 -425q-3 -18 -3 -23q1 -27 21.5 -46.5t56.5 -19.5q78 0 97 89l94 425h191l-94 -422q-43 -202 -205 -245q-78 -42 -78 -100q0 -21 22 -21
q18 0 32 24z" />
    <glyph glyph-name="uogonek" unicode="&#x173;" horiz-adv-x="534" 
d="M95 483h169l-64 -289q-3 -13 -3 -23q0 -16 12 -25t30 -9q36 0 69 42l68 304h169l-107 -483h-1q-79 -43 -79 -100q0 -21 22 -21q18 0 32 24l53 -43q-37 -46 -90 -46q-41 0 -68 19.5t-27 56.5q0 60 54 110h-65l13 56q-64 -68 -139 -68q-60 0 -95 30t-35 78q0 1 4 33z" />
    <glyph glyph-name="Wcircumflex" unicode="&#x174;" horiz-adv-x="819" 
d="M661 723h-93l-39 76l-69 -76h-97l106 144h147zM613 0h-194l16 362l-143 -362h-193l-10 667h199l-22 -385l161 385h143l-7 -385l147 385h206z" />
    <glyph glyph-name="wcircumflex" unicode="&#x175;" horiz-adv-x="740" 
d="M581 556h-93l-39 76l-69 -76h-97l106 144h147zM565 0h-181l-9 270l-127 -270h-181l-21 483h169l-3 -269l127 269h154l11 -269l117 269h179z" />
    <glyph glyph-name="Ycircumflex" unicode="&#x176;" horiz-adv-x="577" 
d="M544 723h-93l-39 76l-69 -76h-97l106 144h147zM330 0h-190l59 267l-118 400h198l44 -228l144 228h215l-294 -400z" />
    <glyph glyph-name="ycircumflex" unicode="&#x177;" horiz-adv-x="485" 
d="M-48 -182l54 141q12 -6 37 -6q29 0 42 21l14 23l-56 486h173l12 -280l138 280h183l-306 -545q-43 -77 -87 -105.5t-110 -28.5q-60 0 -94 14zM456 556h-93l-39 76l-69 -76h-97l106 144h147z" />
    <glyph glyph-name="Ydieresis" unicode="&#x178;" horiz-adv-x="577" 
d="M594 793q0 -37 -29.5 -65.5t-66.5 -28.5q-32 0 -53.5 21.5t-21.5 53.5q0 37 29 65.5t67 28.5q32 0 53.5 -21.5t21.5 -53.5zM393 793q0 -37 -29 -65.5t-66 -28.5q-32 0 -53.5 21.5t-21.5 53.5q0 37 29 65.5t66 28.5q32 0 53.5 -21.5t21.5 -53.5zM330 0h-190l59 267
l-118 400h198l44 -228l144 228h215l-294 -400z" />
    <glyph glyph-name="Zacute" unicode="&#x179;" horiz-adv-x="506" 
d="M568 867l-165 -144h-111l132 144h144zM421 0h-444l34 154l271 348h-194l36 165h437l-33 -150l-274 -352h204z" />
    <glyph glyph-name="zacute" unicode="&#x17a;" horiz-adv-x="427" 
d="M493 700l-165 -144h-111l132 144h144zM347 0h-375l27 124l195 213h-148l33 146h371l-26 -118l-200 -218h155z" />
    <glyph glyph-name="Zdotaccent" unicode="&#x17b;" horiz-adv-x="506" 
d="M421 0h-444l34 154l271 348h-194l36 165h437l-33 -150l-274 -352h204zM455 794q0 -37 -29.5 -65.5t-66.5 -28.5q-32 0 -53.5 21.5t-21.5 53.5q0 37 29 65.5t67 28.5q32 0 53.5 -21.5t21.5 -53.5z" />
    <glyph glyph-name="zdotaccent" unicode="&#x17c;" horiz-adv-x="427" 
d="M347 0h-375l27 124l195 213h-148l33 146h371l-26 -118l-200 -218h155zM380 627q0 -37 -29.5 -65.5t-66.5 -28.5q-32 0 -53.5 21.5t-21.5 53.5q0 37 29 65.5t67 28.5q32 0 53.5 -21.5t21.5 -53.5z" />
    <glyph glyph-name="Zcaron" unicode="&#x17d;" horiz-adv-x="506" 
d="M431 723h-147l-45 144h93l39 -76l69 76h97zM421 0h-444l34 154l271 348h-194l36 165h437l-33 -150l-274 -352h204z" />
    <glyph glyph-name="zcaron" unicode="&#x17e;" horiz-adv-x="427" 
d="M355 556h-147l-45 144h93l39 -76l69 76h97zM347 0h-375l27 124l195 213h-148l33 146h371l-26 -118l-200 -218h155z" />
    <glyph glyph-name="longs" unicode="&#x17f;" horiz-adv-x="323" 
d="M185 0h-169l74 337h-61l33 146h60l5 22q38 172 191 172q89 0 132 -41l-71 -108q-15 16 -38 16q-38 0 -45 -39z" />
    <glyph glyph-name="florin" unicode="&#x192;" horiz-adv-x="454" 
d="M136 -161h-193l86 388h-39v146h71l31 143q17 75 64.5 118t121.5 43q88 0 139 -40l-57 -140q-14 15 -37 15q-36 0 -47 -44l-21 -95h77v-146h-109z" />
    <glyph glyph-name="Ohorn" unicode="&#x1a0;" horiz-adv-x="644" 
d="M304 -12q-127 0 -203 76t-76 195q0 79 24 153.5t67.5 134t112 95.5t151.5 36q144 0 222 -99q37 20 51 47q-2 -1 -8 -1q-22 0 -36.5 14t-14.5 40q0 29 22.5 50t51.5 21q26 0 45 -18t19 -49q0 -41 -28.5 -81.5t-74.5 -66.5q29 -56 29 -127q0 -107 -40 -201.5t-122.5 -156.5
t-191.5 -62zM313 155q64 0 107.5 78t43.5 169q0 48 -25.5 78.5t-69.5 30.5q-64 0 -107 -78t-43 -169q0 -48 25.5 -78.5t68.5 -30.5z" />
    <glyph glyph-name="ohorn" unicode="&#x1a1;" horiz-adv-x="514" 
d="M567 550q0 -40 -27 -80.5t-71 -65.5q32 -50 32 -120q0 -115 -75 -205.5t-192 -90.5q-107 0 -164.5 58.5t-57.5 152.5q0 73 31.5 140t94 111.5t140.5 44.5q98 0 157 -51q40 23 53 48q-2 -1 -8 -1q-22 0 -36.5 14t-14.5 40q0 29 22.5 50t51.5 21q26 0 45 -17.5t19 -48.5z
M242 137q39 0 63.5 49t24.5 96q0 64 -60 64q-38 0 -62.5 -49t-24.5 -95q0 -65 59 -65z" />
    <glyph glyph-name="Uhorn" unicode="&#x1af;" horiz-adv-x="650" 
d="M809 742q0 -50 -37.5 -95.5t-96.5 -67.5l-74 -334q-26 -123 -100.5 -190t-194.5 -67q-122 0 -192 60t-70 159q0 17 4 41l93 419h191l-94 -425q-3 -18 -3 -23q1 -27 21.5 -46.5t56.5 -19.5q78 0 97 89l94 425h191l-5 -23q29 20 40 40q-2 -1 -8 -1q-22 0 -36.5 14t-14.5 40
q0 29 22.5 50t51.5 21q26 0 45 -17.5t19 -48.5z" />
    <glyph glyph-name="uhorn" unicode="&#x1b0;" horiz-adv-x="534" 
d="M620 568q0 -38 -23.5 -74.5t-63.5 -63.5l-95 -430h-169l13 56q-64 -68 -139 -68q-60 0 -95 30t-35 78q0 1 4 33l78 354h169l-64 -291q-3 -10 -3 -19q0 -36 44 -36q34 0 67 42l68 304h140q17 13 24 28q-2 -1 -8 -1q-22 0 -36.5 14t-14.5 40q0 29 23 50t51 21q27 0 46 -18
t19 -49z" />
    <glyph glyph-name="AEacute" unicode="&#x1fc;" horiz-adv-x="824" 
d="M794 867l-165 -144h-111l132 144h144zM746 0h-421l19 86h-150l-53 -86h-210l461 667h501l-37 -165h-231l-18 -82h225l-37 -165h-224l-20 -90h231zM380 251l46 209l-128 -209h82z" />
    <glyph glyph-name="aeacute" unicode="&#x1fd;" horiz-adv-x="794" 
d="M686 700l-165 -144h-111l132 144h144zM274 346q-39 0 -64.5 -47.5t-25.5 -96.5q0 -30 16.5 -47.5t43.5 -17.5q32 0 58 33l32 143q-19 33 -60 33zM445 57l-13 -57h-168l12 52q-51 -64 -118 -64q-70 0 -109 47t-39 136q0 72 23.5 143.5t77.5 126t127 54.5q88 0 121 -65
l12 53h168l-8 -37q52 50 110 49q142 -2 142 -186q0 -65 -16 -121h-289q0 -1 -0.5 -3.5t-0.5 -4.5q0 -8 9 -20.5t32.5 -24t55.5 -11.5q50 0 87 27l51 -115q-61 -48 -136 -48q-96 0 -131 69zM499 299h134q0 2 0.5 6.5t0.5 6.5q0 19 -16 35.5t-44 16.5q-31 0 -50 -20.5
t-25 -44.5z" />
    <glyph glyph-name="Oslashacute" unicode="&#x1fe;" horiz-adv-x="644" 
d="M641 867l-165 -144h-111l132 144h144zM304 -12q-107 0 -178 54l-38 -42h-117l96 105q-42 65 -42 154q0 79 24 153.5t67.5 134t112 95.5t151.5 36q98 0 169 -49l35 38h117l-91 -99q48 -68 48 -160q0 -107 -40 -201.5t-122.5 -156.5t-191.5 -62zM313 155q64 0 107.5 78
t43.5 169v7l-213 -232q25 -22 62 -22zM369 511q-63 0 -105.5 -75.5t-44.5 -165.5l205 223q-25 18 -55 18z" />
    <glyph glyph-name="oslashacute" unicode="&#x1ff;" horiz-adv-x="514" 
d="M541 700l-165 -144h-111l132 144h144zM60 0h-98l81 79q-31 50 -31 120q0 73 31.5 140t94 111.5t140.5 44.5q88 0 145 -41l30 29h98l-81 -80q31 -51 31 -119q0 -115 -75 -205.5t-192 -90.5q-88 0 -145 41zM270 346q-35 0 -58.5 -41t-27.5 -87l121 119q-14 9 -35 9z
M242 137q35 0 58.5 40t28.5 87l-121 -119q14 -8 34 -8z" />
    <glyph glyph-name="Scommaaccent" unicode="&#x218;" horiz-adv-x="525" 
d="M257 -120q0 -49 -37 -98.5t-93 -76.5l-43 44q64 30 83 65q-2 -1 -10 -1q-24 0 -41 16t-17 45q0 32 26.5 57t58.5 25q30 0 51.5 -20t21.5 -56zM247 -12q-85 0 -157.5 29t-112.5 78l109 137q26 -35 73 -57.5t96 -22.5q24 0 38 11.5t14 28.5q0 16 -25 31.5t-60 32.5
t-70.5 39t-60.5 59.5t-25 84.5q0 97 72 168t189 71q68 0 131.5 -24t106.5 -68l-106 -136q-28 31 -69 48t-80 17q-21 0 -32.5 -11t-11.5 -26q0 -14 18 -27.5t44.5 -25.5t57.5 -30t57.5 -38.5t44.5 -53.5t18 -73q0 -103 -71.5 -172.5t-187.5 -69.5z" />
    <glyph glyph-name="scommaaccent" unicode="&#x219;" horiz-adv-x="436" 
d="M221 -120q0 -49 -37 -98.5t-93 -76.5l-43 44q64 30 83 65q-2 -1 -10 -1q-24 0 -41 16t-17 45q0 32 26.5 57t58.5 25q30 0 51.5 -20t21.5 -56zM194 -12q-64 0 -124 23.5t-96 59.5l88 107q21 -24 61 -44t78 -20q17 0 27.5 6.5t10.5 17.5q0 13 -20.5 23t-49.5 20.5t-57.5 25
t-49 43t-20.5 68.5q0 72 53.5 124.5t147.5 52.5q122 0 200 -75l-81 -104q-17 19 -51 36t-67 17q-17 0 -27 -7t-10 -17q0 -12 31.5 -24.5t68.5 -25t68.5 -46t31.5 -81.5q0 -76 -58 -128t-155 -52z" />
    <glyph glyph-name="uni021A" unicode="&#x21a;" 
d="M250 -120q0 -49 -37 -98.5t-93 -76.5l-43 44q64 30 83 65q-2 -1 -10 -1q-24 0 -41 16t-17 45q0 32 26.5 57t58.5 25q30 0 51.5 -20t21.5 -56zM292 0h-190l111 502h-138l36 165h465l-37 -165h-137z" />
    <glyph glyph-name="uni021B" unicode="&#x21b;" horiz-adv-x="332" 
d="M158 -120q0 -49 -37 -98.5t-93 -76.5l-43 44q64 30 83 65q-2 -1 -10 -1q-24 0 -41 16t-17 45q0 32 26.5 57t58.5 25q30 0 51.5 -20t21.5 -56zM202 -12q-76 0 -118 28t-42 84q0 22 5 44l43 193h-61l33 146h61l29 132h169l-29 -132h77l-33 -146h-77l-33 -147q-2 -16 -2 -21
q0 -32 34 -32q15 0 21 6l-2 -139q-26 -16 -75 -16z" />
    <glyph glyph-name="uni0237" unicode="&#x237;" horiz-adv-x="254" 
d="M-46 -196q-81 0 -118 31l60 123q13 -14 39 -14q41 0 54 60l107 479h169l-107 -479q-21 -98 -67.5 -149t-136.5 -51z" />
    <glyph glyph-name="hsuperior" unicode="&#x2b0;" horiz-adv-x="379" 
d="M363 326h-119l41 185q2 10 2 15q0 22 -28 22q-19 0 -44 -28l-43 -194h-119l95 434h120l-34 -155q37 43 91 43q42 0 66.5 -20t24.5 -54q0 -10 -3 -23z" />
    <glyph glyph-name="uni02BC" unicode="&#x2bc;" horiz-adv-x="277" 
d="M318 577q0 -65 -48.5 -130t-122.5 -100l-57 59q32 14 63.5 36.5t45.5 47.5q-4 -1 -13 -1q-33 0 -55 21t-22 60q0 43 34.5 75t77.5 32q40 0 68.5 -26.5t28.5 -73.5z" />
    <glyph glyph-name="circumflex" unicode="&#x2c6;" horiz-adv-x="298" 
d="M367 556h-93l-39 76l-69 -76h-97l106 144h147z" />
    <glyph glyph-name="caron" unicode="&#x2c7;" horiz-adv-x="298" 
d="M293 556h-147l-45 144h93l39 -76l69 76h97z" />
    <glyph glyph-name="uni02C9" unicode="&#x2c9;" horiz-adv-x="316" 
d="M392 591h-315l20 92h315z" />
    <glyph glyph-name="uni02CB" unicode="&#x2cb;" horiz-adv-x="242" 
d="M311 556h-108l-102 144h142z" />
    <glyph glyph-name="breve" unicode="&#x2d8;" horiz-adv-x="305" 
d="M384 608q-72 -77 -168 -77t-136 77l82 57q20 -42 70 -42t89 42z" />
    <glyph glyph-name="dotaccent" unicode="&#x2d9;" horiz-adv-x="224" 
d="M281 627q0 -37 -29.5 -65.5t-66.5 -28.5q-32 0 -53.5 21.5t-21.5 53.5q0 37 29 65.5t67 28.5q32 0 53.5 -21.5t21.5 -53.5z" />
    <glyph glyph-name="ring" unicode="&#x2da;" horiz-adv-x="205" 
d="M176 523q-41 0 -67 26.5t-26 67.5q0 46 34 80t80 34q42 0 67.5 -26t25.5 -67q0 -47 -34 -81t-80 -34zM185 594q14 0 24.5 11t10.5 25t-8.5 22.5t-21.5 8.5q-14 0 -24.5 -11t-10.5 -25t8.5 -22.5t21.5 -8.5z" />
    <glyph glyph-name="ogonek" unicode="&#x2db;" horiz-adv-x="192" 
d="M55 -97l53 -43q-37 -46 -90 -46q-41 0 -68 19.5t-27 56.5q0 86 105 146l52 -36q-79 -43 -79 -100q0 -21 22 -21q18 0 32 24z" />
    <glyph glyph-name="tilde" unicode="&#x2dc;" horiz-adv-x="314" 
d="M289 554q-35 0 -62 24t-42 24q-21 0 -30 -42h-85q14 67 43 100.5t79 33.5q35 0 62.5 -24t42.5 -24q20 0 30 42h85q-15 -67 -44 -100.5t-79 -33.5z" />
    <glyph glyph-name="hungarumlaut" unicode="&#x2dd;" horiz-adv-x="337" 
d="M290 700l-131 -144h-92l98 144h125zM438 700l-131 -144h-92l98 144h125z" />
    <glyph glyph-name="hookabovecomb" unicode="&#x309;" horiz-adv-x="192" 
d="M233 721l-50 19q23 50 80 50q31 0 52 -15.5t21 -45.5q0 -31 -22 -62h-65q22 25 25 49q2 23 -17 23q-14 0 -24 -18z" />
    <glyph glyph-name="uni037E" unicode="&#x37e;" horiz-adv-x="277" 
d="M210 91q0 -65 -48 -130t-123 -100l-57 59q31 13 63 35.5t46 48.5q-3 -1 -12 -1q-33 0 -55 21t-22 60q0 43 34.5 75t77.5 32q39 0 67.5 -26.5t28.5 -73.5zM160 287q-38 0 -65 27.5t-27 65.5q0 45 33 78t78 33q38 0 65 -28t27 -66q0 -45 -33 -77.5t-78 -32.5z" />
    <glyph glyph-name="tonos" unicode="&#x384;" horiz-adv-x="535" 
d="M254 544h-70l72 221h128z" />
    <glyph glyph-name="dieresistonos" unicode="&#x385;" horiz-adv-x="535" 
d="M351 544h-71l72 221h129zM599 626q0 -37 -29.5 -65.5t-66.5 -28.5q-32 0 -53.5 21.5t-21.5 53.5q0 37 29 65.5t67 28.5q32 0 53.5 -21.5t21.5 -53.5zM277 626q0 -37 -29 -65.5t-66 -28.5q-32 0 -53.5 21.5t-21.5 53.5q0 37 29 65.5t67 28.5q32 0 53 -21.5t21 -53.5z" />
    <glyph glyph-name="Alphatonos" unicode="&#x386;" horiz-adv-x="597" 
d="M158 544h-70l72 221h128zM555 0h-198v86h-173l-38 -86h-212l343 667h229zM357 251l-1 221l-98 -221h99z" />
    <glyph glyph-name="Epsilontonos" unicode="&#x388;" horiz-adv-x="568" 
d="M127 544h-70l72 221h128zM482 0h-422l148 667h421l-37 -165h-231l-18 -82h225l-37 -165h-225l-19 -90h231z" />
    <glyph glyph-name="Etatonos" unicode="&#x389;" horiz-adv-x="709" 
d="M127 544h-70l72 221h128zM607 0h-189l57 261h-168l-57 -261h-190l148 667h189l-53 -241h168l53 241h189z" />
    <glyph glyph-name="Iotatonos" unicode="&#x38a;" horiz-adv-x="352" 
d="M127 544h-70l72 221h128zM250 0h-190l148 667h189z" />
    <glyph glyph-name="Omicrontonos" unicode="&#x38c;" horiz-adv-x="662" 
d="M126 544h-70l72 221h128zM322 -12q-127 0 -203 76t-76 195q0 79 24 153.5t67.5 134t112 95.5t151.5 36q125 0 201.5 -76t76.5 -194q0 -107 -40 -201.5t-122.5 -156.5t-191.5 -62zM331 155q64 0 107.5 78t43.5 169q0 48 -25.5 78.5t-69.5 30.5q-64 0 -107 -78t-43 -169
q0 -48 25.5 -78.5t68.5 -30.5z" />
    <glyph glyph-name="Upsilontonos" unicode="&#x38e;" horiz-adv-x="694" 
d="M126 544h-70l72 221h128zM447 0h-190l59 267l-118 400h198l44 -228l144 228h215l-294 -400z" />
    <glyph glyph-name="Omegatonos" unicode="&#x38f;" horiz-adv-x="671" 
d="M126 544h-70l72 221h128zM43 165h108q-81 73 -81 187q0 56 22 112.5t62.5 104.5t105.5 78.5t142 30.5q124 0 207 -63.5t83 -178.5q0 -88 -44 -157.5t-109 -113.5h84l-37 -165h-253l37 165q54 25 87.5 102t33.5 136q0 49 -24 78t-72 29q-42 0 -77 -40t-52 -95t-17 -108
q0 -72 47 -102l-37 -165h-253z" />
    <glyph glyph-name="iotadieresistonos" unicode="&#x390;" horiz-adv-x="269" 
d="M218 544h-71l72 221h129zM466 626q0 -37 -29.5 -65.5t-66.5 -28.5q-32 0 -53.5 21.5t-21.5 53.5q0 37 29 65.5t67 28.5q32 0 53.5 -21.5t21.5 -53.5zM144 626q0 -37 -29 -65.5t-66 -28.5q-32 0 -53.5 21.5t-21.5 53.5q0 37 29 65.5t67 28.5q32 0 53 -21.5t21 -53.5z
M136 -12q-150 0 -117 147l78 348h169l-71 -317q-6 -29 21 -29q11 0 17 3l-20 -142q-32 -10 -77 -10z" />
    <glyph glyph-name="Alpha" unicode="&#x391;" horiz-adv-x="597" 
d="M555 0h-198v86h-173l-38 -86h-212l343 667h229zM357 251l-1 221l-98 -221h99z" />
    <glyph glyph-name="Beta" unicode="&#x392;" horiz-adv-x="600" 
d="M347 0h-354l148 667h293q90 0 138 -47t48 -112q0 -66 -43 -118.5t-105 -58.5q44 -12 67.5 -48t23.5 -81q0 -36 -12 -70t-36.5 -64.5t-68 -49t-99.5 -18.5zM276 418h91q25 0 38.5 15.5t13.5 37.5q0 35 -42 35h-81zM315 161q26 0 43 16t17 41q0 39 -41 39h-94l-21 -96h96z
" />
    <glyph glyph-name="Gamma" unicode="&#x393;" horiz-adv-x="496" 
d="M183 0h-190l148 667h421l-37 -165h-231z" />
    <glyph glyph-name="uni0394" unicode="&#x394;" horiz-adv-x="597" 
d="M555 0h-621l343 667h229zM357 165l-2 307l-135 -307h137z" />
    <glyph glyph-name="Epsilon" unicode="&#x395;" 
d="M415 0h-422l148 667h421l-37 -165h-231l-18 -82h225l-37 -165h-225l-19 -90h231z" />
    <glyph glyph-name="Zeta" unicode="&#x396;" horiz-adv-x="506" 
d="M421 0h-444l34 154l271 348h-194l36 165h437l-33 -150l-274 -352h204z" />
    <glyph glyph-name="Eta" unicode="&#x397;" horiz-adv-x="642" 
d="M540 0h-189l57 261h-168l-57 -261h-190l148 667h189l-53 -241h168l53 241h189z" />
    <glyph glyph-name="Theta" unicode="&#x398;" horiz-adv-x="644" 
d="M404 255h-162l37 165h161zM304 -12q-127 0 -203 76t-76 195q0 79 24 153.5t67.5 134t112 95.5t151.5 36q125 0 201.5 -76t76.5 -194q0 -107 -40 -201.5t-122.5 -156.5t-191.5 -62zM313 155q64 0 107.5 78t43.5 169q0 48 -25.5 78.5t-69.5 30.5q-64 0 -107 -78t-43 -169
q0 -48 25.5 -78.5t68.5 -30.5z" />
    <glyph glyph-name="Iota" unicode="&#x399;" horiz-adv-x="285" 
d="M183 0h-190l148 667h189z" />
    <glyph glyph-name="Kappa" unicode="&#x39a;" horiz-adv-x="598" 
d="M555 0h-210l-70 232l-56 -71l-36 -161h-190l148 667h189l-53 -242l185 242h229l-272 -310z" />
    <glyph glyph-name="Lambda" unicode="&#x39b;" horiz-adv-x="597" 
d="M555 0h-198l-1 472l-210 -472h-212l343 667h229z" />
    <glyph glyph-name="Mu" unicode="&#x39c;" horiz-adv-x="788" 
d="M686 0h-188l79 361l-201 -361h-72l-42 361l-79 -361h-190l148 667h243l32 -294l165 294h252z" />
    <glyph glyph-name="Nu" unicode="&#x39d;" horiz-adv-x="641" 
d="M539 0h-179l-108 312l-69 -312h-190l148 667h192l100 -292l64 292h189z" />
    <glyph glyph-name="Xi" unicode="&#x39e;" horiz-adv-x="531" 
d="M555 502h-464l36 165h465zM446 0h-465l37 165h464zM494 255h-451l37 165h450z" />
    <glyph glyph-name="Omicron" unicode="&#x39f;" horiz-adv-x="644" 
d="M304 -12q-127 0 -203 76t-76 195q0 79 24 153.5t67.5 134t112 95.5t151.5 36q125 0 201.5 -76t76.5 -194q0 -107 -40 -201.5t-122.5 -156.5t-191.5 -62zM313 155q64 0 107.5 78t43.5 169q0 48 -25.5 78.5t-69.5 30.5q-64 0 -107 -78t-43 -169q0 -48 25.5 -78.5
t68.5 -30.5z" />
    <glyph glyph-name="Pi" unicode="&#x3a0;" horiz-adv-x="642" 
d="M540 0h-189l110 502h-167l-111 -502h-190l148 667h546z" />
    <glyph glyph-name="Rho" unicode="&#x3a1;" horiz-adv-x="579" 
d="M183 0h-190l148 667h279q84 0 138 -55.5t54 -136.5q0 -46 -15.5 -89.5t-47.5 -82.5t-89 -63t-131 -24h-98zM267 381h75q31 0 52.5 21.5t21.5 51.5q0 23 -13.5 35.5t-36.5 12.5h-72z" />
    <glyph glyph-name="Sigma" unicode="&#x3a3;" horiz-adv-x="498" 
d="M317 502l106 -167l-181 -170h207l-37 -165h-422l42 189l180 172l-105 162l32 144h420l-36 -165h-206z" />
    <glyph glyph-name="Tau" unicode="&#x3a4;" 
d="M292 0h-190l111 502h-138l36 165h465l-37 -165h-137z" />
    <glyph glyph-name="Upsilon" unicode="&#x3a5;" horiz-adv-x="577" 
d="M330 0h-190l59 267l-118 400h198l44 -228l144 228h215l-294 -400z" />
    <glyph glyph-name="Phi" unicode="&#x3a6;" horiz-adv-x="815" 
d="M448 0h-189l16 73q-124 19 -183.5 78.5t-59.5 162.5q0 113 99 193t264 93l16 67h189l-17 -74q125 -18 184.5 -77.5t59.5 -163.5q0 -113 -99 -193t-265 -93zM630 353q0 56 -85 74l-43 -189q128 24 128 115zM229 314q0 -57 84 -75l43 188q-127 -23 -127 -113z" />
    <glyph glyph-name="Chi" unicode="&#x3a7;" horiz-adv-x="597" 
d="M555 0h-207l-58 187l-131 -187h-225l273 352l-114 315h206l49 -174l116 174h226l-258 -335z" />
    <glyph glyph-name="Psi" unicode="&#x3a8;" horiz-adv-x="852" 
d="M467 0h-189l30 133q-227 38 -227 212q0 34 8 74l57 248h192l-63 -273q-3 -14 -3 -24q0 -52 74 -71l84 368h189l-84 -367q96 24 112 94l63 273h192l-70 -307q-22 -94 -114 -157.5t-222 -75.5z" />
    <glyph glyph-name="uni03A9" unicode="&#x3a9;" horiz-adv-x="643" 
d="M14 165h108q-81 73 -81 187q0 56 22 112.5t62.5 104.5t105.5 78.5t142 30.5q124 0 207 -63.5t83 -178.5q0 -88 -44 -157.5t-109 -113.5h84l-37 -165h-253l37 165q54 25 87.5 102t33.5 136q0 49 -24 78t-72 29q-42 0 -77 -40t-52 -95t-17 -108q0 -72 47 -102l-37 -165
h-253z" />
    <glyph glyph-name="Iotadieresis" unicode="&#x3aa;" horiz-adv-x="285" 
d="M183 0h-190l148 667h189zM451 810q0 -37 -29.5 -65.5t-66.5 -28.5q-32 0 -53.5 21.5t-21.5 53.5q0 37 29 65.5t67 28.5q32 0 53.5 -21.5t21.5 -53.5zM250 810q0 -37 -29 -65.5t-66 -28.5q-32 0 -53.5 21.5t-21.5 53.5q0 37 29 65.5t66 28.5q32 0 53.5 -21.5t21.5 -53.5z
" />
    <glyph glyph-name="Upsilondieresis" unicode="&#x3ab;" horiz-adv-x="577" 
d="M330 0h-190l59 267l-118 400h198l44 -228l144 228h215l-294 -400zM599 810q0 -37 -29.5 -65.5t-66.5 -28.5q-32 0 -53.5 21.5t-21.5 53.5q0 37 29 65.5t67 28.5q32 0 53.5 -21.5t21.5 -53.5zM398 810q0 -37 -29 -65.5t-66 -28.5q-32 0 -53.5 21.5t-21.5 53.5
q0 37 29 65.5t66 28.5q32 0 53.5 -21.5t21.5 -53.5z" />
    <glyph glyph-name="alphatonos" unicode="&#x3ac;" horiz-adv-x="544" 
d="M359 544h-70l72 221h128zM508 140l-20 -142q-32 -10 -77 -10q-109 0 -122 81q-63 -81 -131 -81q-69 0 -108.5 48t-39.5 135q0 72 23.5 143.5t77.5 126t127 54.5q88 0 121 -65l13 53h167l-70 -317q-6 -29 22 -29q9 0 17 3zM244 137q32 0 58 33l32 143q-19 33 -60 33
q-39 0 -64.5 -47.5t-25.5 -96.5q0 -30 16.5 -47.5t43.5 -17.5z" />
    <glyph glyph-name="epsilontonos" unicode="&#x3ad;" horiz-adv-x="449" 
d="M331 544h-70l72 221h128zM187 -12q-96 0 -147 34.5t-51 92.5q0 53 46 90.5t103 43.5q-42 7 -65.5 33.5t-23.5 60.5q0 67 66 109.5t171 42.5q61 0 112.5 -20.5t83.5 -55.5l-95 -93q-42 39 -105 39q-70 0 -70 -33q0 -24 50 -24h87l-29 -129h-90q-67 0 -67 -35q0 -25 49 -25
q82 0 143 44l56 -105q-97 -70 -224 -70z" />
    <glyph glyph-name="etatonos" unicode="&#x3ae;" horiz-adv-x="535" 
d="M365 544h-70l72 221h128zM397 -184h-169l106 476q2 12 2 19q0 35 -44 35q-33 0 -67 -42l-67 -304h-170l108 483h169l-14 -56q64 68 140 68q60 0 94.5 -30t34.5 -78q0 -18 -4 -32z" />
    <glyph glyph-name="iotatonos" unicode="&#x3af;" horiz-adv-x="269" 
d="M228 544h-70l72 221h128zM136 -12q-150 0 -117 147l78 348h169l-71 -317q-6 -29 21 -29q11 0 17 3l-20 -142q-32 -10 -77 -10z" />
    <glyph glyph-name="upsilondieresistonos" unicode="&#x3b0;" horiz-adv-x="525" 
d="M358 544h-71l72 221h129zM606 626q0 -37 -29.5 -65.5t-66.5 -28.5q-32 0 -53.5 21.5t-21.5 53.5q0 37 29 65.5t67 28.5q32 0 53.5 -21.5t21.5 -53.5zM284 626q0 -37 -29 -65.5t-66 -28.5q-32 0 -53.5 21.5t-21.5 53.5q0 37 29 65.5t67 28.5q32 0 53 -21.5t21 -53.5z
M224 -12q-103 0 -157.5 58t-32.5 155l63 282h169l-63 -280q-6 -30 4.5 -48t36.5 -18q46 0 75.5 59t29.5 138q0 67 -12 103l171 58q19 -52 19 -138q0 -156 -80.5 -262.5t-222.5 -106.5z" />
    <glyph glyph-name="alpha" unicode="&#x3b1;" horiz-adv-x="544" 
d="M508 140l-20 -142q-32 -10 -77 -10q-109 0 -122 81q-63 -81 -131 -81q-69 0 -108.5 48t-39.5 135q0 72 23.5 143.5t77.5 126t127 54.5q88 0 121 -65l13 53h167l-70 -317q-6 -29 22 -29q9 0 17 3zM244 137q32 0 58 33l32 143q-19 33 -60 33q-39 0 -64.5 -47.5t-25.5 -96.5
q0 -30 16.5 -47.5t43.5 -17.5z" />
    <glyph glyph-name="beta" unicode="&#x3b2;" horiz-adv-x="529" 
d="M299 -12q-87 0 -130 62l-52 -234h-170l142 634q18 79 64.5 132.5t99.5 74t111 20.5q94 0 145 -39.5t51 -112.5q0 -61 -43 -114t-113 -67q98 -33 98 -134q0 -90 -62.5 -156t-140.5 -66zM258 449l-62 -280q17 -32 58 -32q35 0 56 24.5t21 54.5q0 45 -46 45h-29l33 150h23
q33 0 49.5 23.5t16.5 53.5q0 39 -42 39q-28 0 -49 -20t-29 -58z" />
    <glyph glyph-name="gamma" unicode="&#x3b3;" horiz-adv-x="485" 
d="M232 -184h-169l19 86q35 174 21 323.5t-69 257.5h185q50 -142 33 -276q29 48 60.5 127.5t46.5 148.5h169q-26 -116 -99 -249t-155 -225z" />
    <glyph glyph-name="delta" unicode="&#x3b4;" horiz-adv-x="514" 
d="M223 -12q-108 0 -161.5 56.5t-53.5 146.5q0 139 142 231q-29 34 -29 85q0 71 64 121.5t168 50.5q112 0 181 -61l-90 -117q-16 18 -46.5 32.5t-65.5 14.5q-20 0 -33.5 -7.5t-13.5 -17.5q0 -11 22.5 -22t54.5 -26t63.5 -38.5t54 -68.5t22.5 -105q0 -46 -20 -94t-54.5 -88.5
t-88.5 -66.5t-116 -26zM339 246q0 59 -71 99q-38 -25 -61 -61.5t-23 -74.5q0 -33 16.5 -52.5t48.5 -19.5q37 0 63.5 34.5t26.5 74.5z" />
    <glyph glyph-name="epsilon" unicode="&#x3b5;" horiz-adv-x="449" 
d="M187 -12q-96 0 -147 34.5t-51 92.5q0 53 46 90.5t103 43.5q-42 7 -65.5 33.5t-23.5 60.5q0 67 66 109.5t171 42.5q61 0 112.5 -20.5t83.5 -55.5l-95 -93q-42 39 -105 39q-70 0 -70 -33q0 -24 50 -24h87l-29 -129h-90q-67 0 -67 -35q0 -25 49 -25q82 0 143 44l56 -105
q-97 -70 -224 -70z" />
    <glyph glyph-name="zeta" unicode="&#x3b6;" horiz-adv-x="427" 
d="M194 -23q0 11 -13 11q-82 0 -131 46.5t-49 123.5q0 98 70 194t197 169h-179l34 146h372l-27 -118q-110 -65 -198 -166t-88 -183q0 -63 72 -63q113 0 113 -85q0 -77 -97 -209h-165q33 35 61 75t28 59z" />
    <glyph glyph-name="eta" unicode="&#x3b7;" horiz-adv-x="535" 
d="M397 -184h-169l106 476q2 12 2 19q0 35 -44 35q-33 0 -67 -42l-67 -304h-170l108 483h169l-14 -56q64 68 140 68q60 0 94.5 -30t34.5 -78q0 -18 -4 -32z" />
    <glyph glyph-name="theta" unicode="&#x3b8;" horiz-adv-x="514" 
d="M234 -12q-94 0 -152.5 68t-58.5 192q0 174 87.5 302.5t213.5 128.5q94 0 152 -68t58 -191q0 -175 -87 -303.5t-213 -128.5zM244 137q46 0 86 125h-136q-4 -27 -4 -52q0 -73 54 -73zM313 530q-45 0 -86 -122h135q4 38 4 50q0 72 -53 72z" />
    <glyph glyph-name="iota" unicode="&#x3b9;" horiz-adv-x="269" 
d="M136 -12q-150 0 -117 147l78 348h169l-71 -317q-6 -29 21 -29q11 0 17 3l-20 -142q-32 -10 -77 -10z" />
    <glyph glyph-name="kappa" unicode="&#x3ba;" 
d="M456 0h-194l-33 164l-48 -58l-23 -106h-170l108 483h169l-38 -166l126 166h200l-185 -216z" />
    <glyph glyph-name="lambda" unicode="&#x3bb;" horiz-adv-x="485" 
d="M133 523l9 148q27 8 70 8q78 -1 118 -29t50 -105l62 -545h-174l-11 280l-138 -280h-184l277 492l-2 17q-4 21 -46 21q-18 0 -31 -7z" />
    <glyph glyph-name="uni03BC" unicode="&#x3bc;" horiz-adv-x="549" 
d="M157 -4l-40 -180h-170l150 667h169l-66 -293q-5 -25 5 -39t33 -14q37 0 71 42l67 304h169l-70 -317q-6 -29 21 -29q11 0 17 3l-20 -142q-32 -10 -77 -10q-57 0 -84 21t-32 67q-19 -41 -48.5 -64.5t-60.5 -23.5q-23 0 -34 8z" />
    <glyph glyph-name="nu" unicode="&#x3bd;" horiz-adv-x="485" 
d="M267 0h-168l-55 483h178l12 -305q85 125 125 305h169q-27 -119 -102 -255t-159 -228z" />
    <glyph glyph-name="xi" unicode="&#x3be;" horiz-adv-x="427" 
d="M181 -12q-88 0 -137.5 39.5t-49.5 108.5q0 58 37.5 102t103.5 68q-74 14 -74 89q0 35 30.5 71t78.5 55h-70l33 146h360l-33 -146h-163q-53 -21 -53 -66q0 -46 66 -46h120l-32 -146h-121q-44 0 -71.5 -20t-27.5 -56q0 -50 76 -50q113 0 113 -85q0 -77 -97 -209h-160
q84 103 84 134q0 11 -13 11z" />
    <glyph glyph-name="omicron" unicode="&#x3bf;" horiz-adv-x="514" 
d="M234 -12q-107 0 -164.5 58.5t-57.5 152.5q0 73 31.5 140t94 111.5t140.5 44.5q108 0 165.5 -58t57.5 -153q0 -115 -75 -205.5t-192 -90.5zM242 137q39 0 63.5 49t24.5 96q0 64 -60 64q-38 0 -62.5 -49t-24.5 -95q0 -65 59 -65z" />
    <glyph glyph-name="pi" unicode="&#x3c0;" horiz-adv-x="589" 
d="M465 0h-169l76 337h-112l-75 -337h-169l75 337h-61l33 146h571l-33 -146h-61z" />
    <glyph glyph-name="rho" unicode="&#x3c1;" horiz-adv-x="528" 
d="M291 -12q-89 0 -122 65l-52 -237h-170l95 426q26 117 98 185t178 68q94 0 147 -53.5t53 -147.5q0 -45 -14.5 -96.5t-41 -99t-71.5 -79t-100 -31.5zM254 137q39 0 64.5 47.5t25.5 96.5q0 30 -14.5 47.5t-37.5 17.5q-58 0 -81 -104l-16 -71q17 -34 59 -34z" />
    <glyph glyph-name="sigma1" unicode="&#x3c2;" horiz-adv-x="436" 
d="M190 -12q-68 0 -123 59t-55 151q0 121 77 209t193 88q61 0 107 -21t71 -54l-102 -110q-23 36 -69 36q-45 0 -75 -39t-30 -93q0 -77 89 -77q47 0 73 -23.5t26 -64.5q0 -75 -96 -206h-165q31 30 60 72t29 62q0 11 -10 11z" />
    <glyph glyph-name="sigma" unicode="&#x3c3;" horiz-adv-x="514" 
d="M485 248q0 -60 -29 -118.5t-88 -100t-134 -41.5q-107 0 -164.5 58.5t-57.5 152.5q0 117 80 200.5t206 83.5h255l-33 -149h-60q25 -34 25 -86zM329 278q0 39 -14 56h-34q-44 0 -71 -40t-27 -92q0 -65 59 -65q39 0 63 48.5t24 92.5z" />
    <glyph glyph-name="tau" unicode="&#x3c4;" horiz-adv-x="419" 
d="M219 -12q-150 0 -117 147l45 202h-111l33 146h389l-33 -146h-110l-35 -159q-9 -41 22 -41q23 0 32 9l-1 -131q-40 -27 -114 -27z" />
    <glyph glyph-name="upsilon" unicode="&#x3c5;" horiz-adv-x="525" 
d="M224 -12q-103 0 -157.5 58t-32.5 155l63 282h169l-63 -280q-6 -30 4.5 -48t36.5 -18q46 0 75.5 59t29.5 138q0 67 -12 103l171 58q19 -52 19 -138q0 -156 -80.5 -262.5t-222.5 -106.5z" />
    <glyph glyph-name="phi" unicode="&#x3c6;" horiz-adv-x="767" 
d="M758 275q0 -110 -93 -191t-253 -94l-39 -174h-169l40 179q-233 33 -233 220q0 183 239 280l44 -131q-48 -20 -77 -55t-29 -74q0 -75 89 -92l79 352h83q159 0 239 -58t80 -162zM490 340l-44 -196q134 23 134 112q0 71 -90 84z" />
    <glyph glyph-name="chi" unicode="&#x3c7;" horiz-adv-x="470" 
d="M383 -184h-177l-21 177l-103 -177h-186l213 339l-56 328h176l18 -166l92 166h185l-203 -328z" />
    <glyph glyph-name="psi" unicode="&#x3c8;" horiz-adv-x="767" 
d="M373 -184h-169l40 181q-205 35 -205 197q0 32 8 68l50 221h168l-53 -239q-3 -13 -3 -27q0 -53 69 -71l117 521h169l-117 -521q92 24 109 98l54 239h168l-58 -261q-22 -97 -105 -158.5t-203 -72.5z" />
    <glyph glyph-name="omega" unicode="&#x3c9;" horiz-adv-x="797" 
d="M790 312q0 -128 -73.5 -226t-189.5 -98q-65 0 -107.5 32t-49.5 93q-69 -125 -186 -125q-79 0 -128 55t-49 135q0 96 48 179t122 138l110 -90q-49 -41 -76.5 -97.5t-27.5 -106.5q0 -29 11.5 -46.5t33.5 -17.5q62 0 86 105l27 121h169l-27 -121q-12 -46 -2 -75.5t41 -29.5
q36 0 63.5 49.5t27.5 103.5q0 72 -30 115l150 90q57 -64 57 -183z" />
    <glyph glyph-name="iotadieresis" unicode="&#x3ca;" horiz-adv-x="269" 
d="M398 626q0 -37 -29.5 -65.5t-66.5 -28.5q-32 0 -53.5 21.5t-21.5 53.5q0 37 29 65.5t67 28.5q32 0 53.5 -21.5t21.5 -53.5zM197 626q0 -37 -29 -65.5t-66 -28.5q-32 0 -53.5 21.5t-21.5 53.5q0 37 29 65.5t66 28.5q32 0 53.5 -21.5t21.5 -53.5zM136 -12q-150 0 -117 147
l78 348h169l-71 -317q-6 -29 21 -29q11 0 17 3l-20 -142q-32 -10 -77 -10z" />
    <glyph glyph-name="upsilondieresis" unicode="&#x3cb;" horiz-adv-x="525" 
d="M538 626q0 -37 -29.5 -65.5t-66.5 -28.5q-32 0 -53.5 21.5t-21.5 53.5q0 37 29 65.5t67 28.5q32 0 53.5 -21.5t21.5 -53.5zM337 626q0 -37 -29 -65.5t-66 -28.5q-32 0 -53.5 21.5t-21.5 53.5q0 37 29 65.5t66 28.5q32 0 53.5 -21.5t21.5 -53.5zM224 -12q-103 0 -157.5 58
t-32.5 155l63 282h169l-63 -280q-6 -30 4.5 -48t36.5 -18q46 0 75.5 59t29.5 138q0 67 -12 103l171 58q19 -52 19 -138q0 -156 -80.5 -262.5t-222.5 -106.5z" />
    <glyph glyph-name="omicrontonos" unicode="&#x3cc;" horiz-adv-x="514" 
d="M356 544h-70l72 221h128zM234 -12q-107 0 -164.5 58.5t-57.5 152.5q0 73 31.5 140t94 111.5t140.5 44.5q108 0 165.5 -58t57.5 -153q0 -115 -75 -205.5t-192 -90.5zM242 137q39 0 63.5 49t24.5 96q0 64 -60 64q-38 0 -62.5 -49t-24.5 -95q0 -65 59 -65z" />
    <glyph glyph-name="upsilontonos" unicode="&#x3cd;" horiz-adv-x="525" 
d="M366 544h-70l72 221h128zM224 -12q-103 0 -157.5 58t-32.5 155l63 282h169l-63 -280q-6 -30 4.5 -48t36.5 -18q46 0 75.5 59t29.5 138q0 67 -12 103l171 58q19 -52 19 -138q0 -156 -80.5 -262.5t-222.5 -106.5z" />
    <glyph glyph-name="omegatonos" unicode="&#x3ce;" horiz-adv-x="797" 
d="M498 544h-70l72 221h128zM790 312q0 -128 -73.5 -226t-189.5 -98q-65 0 -107.5 32t-49.5 93q-69 -125 -186 -125q-79 0 -128 55t-49 135q0 96 48 179t122 138l110 -90q-49 -41 -76.5 -97.5t-27.5 -106.5q0 -29 11.5 -46.5t33.5 -17.5q62 0 86 105l27 121h169l-27 -121
q-12 -46 -2 -75.5t41 -29.5q36 0 63.5 49.5t27.5 103.5q0 72 -30 115l150 90q57 -64 57 -183z" />
    <glyph glyph-name="afii10023" unicode="&#x401;" 
d="M566 793q0 -37 -29.5 -65.5t-66.5 -28.5q-32 0 -53.5 21.5t-21.5 53.5q0 37 29 65.5t67 28.5q32 0 53.5 -21.5t21.5 -53.5zM365 793q0 -37 -29 -65.5t-66 -28.5q-32 0 -53.5 21.5t-21.5 53.5q0 37 29 65.5t66 28.5q32 0 53.5 -21.5t21.5 -53.5zM415 0h-422l148 667h421
l-37 -165h-231l-18 -82h225l-37 -165h-225l-19 -90h231z" />
    <glyph glyph-name="afii10051" unicode="&#x402;" horiz-adv-x="663" 
d="M344 -12l35 161q51 0 62 55l2 9q7 30 -10.5 46t-51.5 16t-69 -10l-57 -265h-190l110 502h-138l36 165h465l-37 -165h-137l-16 -75q58 13 102 13q113 0 159 -63t25 -163l-2 -10q-22 -103 -100.5 -159.5t-187.5 -56.5z" />
    <glyph glyph-name="afii10052" unicode="&#x403;" horiz-adv-x="496" 
d="M584 867l-165 -144h-111l132 144h144zM183 0h-190l148 667h421l-37 -165h-231z" />
    <glyph glyph-name="afii10053" unicode="&#x404;" horiz-adv-x="582" 
d="M304 -12q-125 0 -202 74t-77 197q0 110 41 204.5t123.5 154.5t190.5 60q61 0 109 -19t77 -51t45 -65t24 -69l-177 -55q-5 38 -28 65t-60 27q-68 0 -115 -91h176l-37 -165h-175q2 -46 27 -73t67 -27q30 0 59 21.5t45 56.5l150 -79q-47 -83 -116 -124.5t-147 -41.5z" />
    <glyph glyph-name="afii10054" unicode="&#x405;" horiz-adv-x="525" 
d="M247 -12q-85 0 -157.5 29t-112.5 78l109 137q26 -35 73 -57.5t96 -22.5q24 0 38 11.5t14 28.5q0 16 -25 31.5t-60 32.5t-70.5 39t-60.5 59.5t-25 84.5q0 97 72 168t189 71q68 0 131.5 -24t106.5 -68l-106 -136q-28 31 -69 48t-80 17q-21 0 -32.5 -11t-11.5 -26
q0 -14 18 -27.5t44.5 -25.5t57.5 -30t57.5 -38.5t44.5 -53.5t18 -73q0 -103 -71.5 -172.5t-187.5 -69.5z" />
    <glyph glyph-name="afii10055" unicode="&#x406;" horiz-adv-x="285" 
d="M183 0h-190l148 667h189z" />
    <glyph glyph-name="afii10056" unicode="&#x407;" horiz-adv-x="285" 
d="M447 793q0 -37 -29.5 -65.5t-66.5 -28.5q-32 0 -53.5 21.5t-21.5 53.5q0 37 29 65.5t67 28.5q32 0 53.5 -21.5t21.5 -53.5zM246 793q0 -37 -29 -65.5t-66 -28.5q-32 0 -53.5 21.5t-21.5 53.5q0 37 29 65.5t66 28.5q32 0 53.5 -21.5t21.5 -53.5zM183 0h-190l148 667h189z
" />
    <glyph glyph-name="afii10057" unicode="&#x408;" horiz-adv-x="437" 
d="M135 -12q-112 0 -172 51l85 148q27 -32 71 -32q62 0 76 66l99 446h189l-100 -452q-26 -119 -84.5 -173t-163.5 -54z" />
    <glyph glyph-name="afii10058" unicode="&#x409;" horiz-adv-x="936" 
d="M-42 -12l37 167q38 0 67.5 33.5t59.5 128.5l110 350h454l-48 -216h90q84 0 138 -55.5t54 -136.5q0 -46 -15.5 -89.5t-47.5 -82.5t-88.5 -63t-130.5 -24h-288l110 502h-93l-58 -192q-30 -97 -68.5 -162.5t-85.5 -99t-93 -47t-104 -13.5zM675 286h-73l-27 -121h74
q31 0 53 21.5t22 51.5q0 23 -13.5 35.5t-35.5 12.5z" />
    <glyph glyph-name="afii10059" unicode="&#x40a;" horiz-adv-x="936" 
d="M638 0h-288l60 274h-167l-60 -274h-190l147 667h189l-50 -228h167l50 228h190l-50 -228h90q84 0 138 -53t54 -133q0 -45 -15.5 -88t-47 -81t-87.5 -61t-130 -23zM673 274h-74l-24 -109h74q32 0 53 19t21 47q0 43 -50 43z" />
    <glyph glyph-name="afii10060" unicode="&#x40b;" horiz-adv-x="684" 
d="M397 0l43 199q17 76 -59 76q-34 0 -69 -10l-57 -265h-190l110 502h-138l36 165h465l-37 -165h-137l-16 -75q58 13 102 13q114 0 159.5 -67t21.5 -173l-43 -200h-191z" />
    <glyph glyph-name="afii10061" unicode="&#x40c;" horiz-adv-x="598" 
d="M629 867l-165 -144h-111l132 144h144zM555 0h-210l-70 232l-56 -71l-36 -161h-190l148 667h189l-53 -242l185 242h229l-272 -310z" />
    <glyph glyph-name="afii10062" unicode="&#x40e;" horiz-adv-x="577" 
d="M80 -12q-94 0 -139 41l93 149q25 -23 61 -23q41 0 77 52l7 11l-99 449h204l39 -253l149 254l209 -1l-332 -504q-57 -89 -118 -132t-151 -43zM553 775q-72 -77 -168 -77t-136 77l82 57q20 -42 70 -42t89 42z" />
    <glyph glyph-name="afii10145" unicode="&#x40f;" horiz-adv-x="642" 
d="M144 -126l27 126h-178l147 667h189l-110 -502h167l110 502h190l-146 -667h-180l-27 -126h-189z" />
    <glyph glyph-name="afii10017" unicode="&#x410;" horiz-adv-x="597" 
d="M555 0h-198v86h-173l-38 -86h-212l343 667h229zM357 251l-1 221l-98 -221h99z" />
    <glyph glyph-name="afii10018" unicode="&#x411;" horiz-adv-x="579" 
d="M140 667h478l-36 -165h-289l-13 -60h73q98 0 154 -53.5t56 -134.5q0 -45 -15.5 -88t-47.5 -81.5t-88.5 -61.5t-129.5 -23h-289zM324 277h-81l-24 -112h77q32 0 51.5 20t19.5 48q0 21 -11.5 32.5t-31.5 11.5z" />
    <glyph glyph-name="afii10019" unicode="&#x412;" horiz-adv-x="600" 
d="M347 0h-354l148 667h293q90 0 138 -47t48 -112q0 -66 -43 -118.5t-105 -58.5q44 -12 67.5 -48t23.5 -81q0 -36 -12 -70t-36.5 -64.5t-68 -49t-99.5 -18.5zM276 418h91q25 0 38.5 15.5t13.5 37.5q0 35 -42 35h-81zM315 161q26 0 43 16t17 41q0 39 -41 39h-94l-21 -96h96z
" />
    <glyph glyph-name="afii10020" unicode="&#x413;" horiz-adv-x="496" 
d="M183 0h-190l148 667h421l-37 -165h-231z" />
    <glyph glyph-name="afii10021" unicode="&#x414;" horiz-adv-x="656" 
d="M-66 -123l61 278q29 7 46 17t39 45.5t42 99.5l110 350h454l-111 -502h50l-63 -288h-190l27 123h-249l-27 -123h-189zM367 502l-53 -172q-31 -103 -94 -165h166l74 337h-93z" />
    <glyph glyph-name="afii10022" unicode="&#x415;" 
d="M415 0h-422l148 667h421l-37 -165h-231l-18 -82h225l-37 -165h-225l-19 -90h231z" />
    <glyph glyph-name="afii10024" unicode="&#x416;" horiz-adv-x="864" 
d="M164 0h-230l294 357l-136 310h212l74 -231l51 231h190l-45 -203l155 203h227l-272 -310l137 -357h-214l-65 235l-25 -32l-44 -203h-190l44 204l-5 17z" />
    <glyph glyph-name="afii10025" unicode="&#x417;" horiz-adv-x="564" 
d="M269 -12q-93 0 -174.5 36t-116.5 101l134 109q24 -37 68.5 -58t87.5 -21q39 0 59 16.5t20 36.5q0 45 -91 45h-106l37 166h116q92 0 92 46t-96 46q-78 0 -129 -42l-78 121q96 87 232 87q119 0 192 -45t73 -126q0 -63 -52 -110t-117 -58q54 -15 83 -51.5t29 -89.5
q0 -90 -77.5 -149.5t-185.5 -59.5z" />
    <glyph glyph-name="afii10026" unicode="&#x418;" horiz-adv-x="641" 
d="M173 0h-180l148 667h189l-65 -292l229 292h192l-147 -667h-189l68 312z" />
    <glyph glyph-name="afii10027" unicode="&#x419;" horiz-adv-x="641" 
d="M173 0h-180l148 667h189l-65 -292l229 292h192l-147 -667h-189l68 312zM588 775q-72 -77 -168 -77t-136 77l82 57q20 -42 70 -42t89 42z" />
    <glyph glyph-name="afii10028" unicode="&#x41a;" horiz-adv-x="598" 
d="M555 0h-210l-70 232l-56 -71l-36 -161h-190l148 667h189l-53 -242l185 242h229l-272 -310z" />
    <glyph glyph-name="afii10029" unicode="&#x41b;" horiz-adv-x="642" 
d="M-41 -12l36 167q38 0 67.5 33.5t59.5 128.5l110 350h454l-146 -667h-190l110 502h-93l-58 -192q-30 -97 -68.5 -162.5t-85 -99t-93 -47t-103.5 -13.5z" />
    <glyph glyph-name="afii10030" unicode="&#x41c;" horiz-adv-x="788" 
d="M686 0h-188l79 361l-201 -361h-72l-42 361l-79 -361h-190l148 667h243l32 -294l165 294h252z" />
    <glyph glyph-name="afii10031" unicode="&#x41d;" horiz-adv-x="642" 
d="M540 0h-189l57 261h-168l-57 -261h-190l148 667h189l-53 -241h168l53 241h189z" />
    <glyph glyph-name="afii10032" unicode="&#x41e;" horiz-adv-x="644" 
d="M304 -12q-127 0 -203 76t-76 195q0 79 24 153.5t67.5 134t112 95.5t151.5 36q125 0 201.5 -76t76.5 -194q0 -107 -40 -201.5t-122.5 -156.5t-191.5 -62zM313 155q64 0 107.5 78t43.5 169q0 48 -25.5 78.5t-69.5 30.5q-64 0 -107 -78t-43 -169q0 -48 25.5 -78.5
t68.5 -30.5z" />
    <glyph glyph-name="afii10033" unicode="&#x41f;" horiz-adv-x="642" 
d="M540 0h-189l110 502h-167l-111 -502h-190l148 667h546z" />
    <glyph glyph-name="afii10034" unicode="&#x420;" horiz-adv-x="579" 
d="M183 0h-190l148 667h279q84 0 138 -55.5t54 -136.5q0 -46 -15.5 -89.5t-47.5 -82.5t-89 -63t-131 -24h-98zM267 381h75q31 0 52.5 21.5t21.5 51.5q0 23 -13.5 35.5t-36.5 12.5h-72z" />
    <glyph glyph-name="afii10035" unicode="&#x421;" horiz-adv-x="582" 
d="M304 -12q-125 0 -202 74t-77 197q0 110 41 204.5t123.5 154.5t190.5 60q62 0 110 -19.5t77.5 -53t46.5 -71t23 -80.5l-179 -46q-5 45 -28 74t-60 29q-65 0 -108 -78t-43 -169q0 -49 25.5 -79t68.5 -30q30 0 59 21.5t45 56.5l150 -79q-47 -83 -116 -124.5t-147 -41.5z" />
    <glyph glyph-name="afii10036" unicode="&#x422;" 
d="M292 0h-190l111 502h-138l36 165h465l-37 -165h-137z" />
    <glyph glyph-name="afii10037" unicode="&#x423;" horiz-adv-x="577" 
d="M80 -12q-94 0 -139 41l93 149q25 -23 61 -23q41 0 77 52l7 11l-99 449h204l39 -253l149 254l209 -1l-332 -504q-57 -89 -118 -132t-151 -43z" />
    <glyph glyph-name="afii10038" unicode="&#x424;" horiz-adv-x="815" 
d="M448 0h-189l16 73q-124 19 -183.5 78.5t-59.5 162.5q0 113 99 193t264 93l16 67h189l-17 -74q125 -18 184.5 -77.5t59.5 -163.5q0 -113 -99 -193t-265 -93zM630 353q0 56 -85 74l-43 -189q128 24 128 115zM229 314q0 -57 84 -75l43 188q-127 -23 -127 -113z" />
    <glyph glyph-name="afii10039" unicode="&#x425;" horiz-adv-x="597" 
d="M555 0h-207l-58 187l-131 -187h-225l273 352l-114 315h206l49 -174l116 174h226l-258 -335z" />
    <glyph glyph-name="afii10040" unicode="&#x426;" horiz-adv-x="656" 
d="M372 -123l27 123h-406l147 667h189l-110 -502h167l110 502h190l-111 -502h50l-63 -288h-190z" />
    <glyph glyph-name="afii10041" unicode="&#x427;" horiz-adv-x="606" 
d="M319 667l-48 -216q-17 -76 59 -76q34 0 69 10l62 282h189l-146 -667h-189l48 223q-59 -13 -102 -13q-114 0 -159.5 67t-21.5 173l48 217h191z" />
    <glyph glyph-name="afii10042" unicode="&#x428;" horiz-adv-x="914" 
d="M768 667h190l-146 -667h-818l146 667h190l-111 -502h125l110 502h190l-111 -502h125z" />
    <glyph glyph-name="afii10043" unicode="&#x429;" horiz-adv-x="927" 
d="M768 667h190l-111 -502h50l-64 -288h-189l27 123h-677l146 667h190l-111 -502h125l110 502h190l-111 -502h125z" />
    <glyph glyph-name="afii10044" unicode="&#x42a;" horiz-adv-x="688" 
d="M390 0h-288l110 502h-138l36 165h328l-48 -216h90q84 0 138 -55.5t54 -136.5q0 -46 -15.5 -89.5t-47.5 -82.5t-88.5 -63t-130.5 -24zM427 286h-73l-27 -121h74q31 0 53 21.5t22 51.5q0 23 -13.5 35.5t-35.5 12.5z" />
    <glyph glyph-name="afii10045" unicode="&#x42b;" horiz-adv-x="839" 
d="M737 0h-189l146 667h189zM140 667h189l-47 -216h90q84 0 137.5 -55.5t53.5 -136.5q0 -46 -15.5 -89.5t-47.5 -82.5t-88.5 -63t-129.5 -24h-289zM319 286h-74l-26 -121h73q31 0 53 21.5t22 51.5q0 23 -13 35.5t-35 12.5z" />
    <glyph glyph-name="afii10046" unicode="&#x42c;" horiz-adv-x="579" 
d="M140 667h189l-47 -216h90q84 0 137.5 -55.5t53.5 -136.5q0 -46 -15.5 -89.5t-47.5 -82.5t-88.5 -63t-129.5 -24h-289zM319 286h-74l-26 -121h73q31 0 53 21.5t22 51.5q0 23 -13 35.5t-35 12.5z" />
    <glyph glyph-name="afii10047" unicode="&#x42d;" horiz-adv-x="582" 
d="M317 678q125 0 202 -74t77 -196q0 -110 -41 -204.5t-123.5 -155t-190.5 -60.5q-61 0 -109 19t-77 51t-45.5 65t-24.5 69l178 56q5 -38 28 -65.5t60 -27.5q73 0 118 100h-177l37 165h172q-5 41 -30 66t-63 25q-30 0 -59 -21t-45 -56l-150 79q47 83 116 124t147 41z" />
    <glyph glyph-name="afii10048" unicode="&#x42e;" horiz-adv-x="944" 
d="M603 -12q-127 0 -203 76t-76 195v2h-83l-57 -261h-191l147 667h190l-53 -241h75q39 112 123.5 182t203.5 70q125 0 201.5 -76t76.5 -194q0 -107 -40 -201.5t-122.5 -156.5t-191.5 -62zM612 155q64 0 107.5 78t43.5 169q0 48 -25.5 78.5t-69.5 30.5q-64 0 -107 -78
t-43 -169q0 -48 25.5 -78.5t68.5 -30.5z" />
    <glyph glyph-name="afii10049" unicode="&#x42f;" horiz-adv-x="594" 
d="M192 0h-222l166 261q-67 54 -67 147q0 36 9.5 71.5t31 69.5t53 60t80.5 42t109 16h287l-147 -667h-189l48 216h-36zM315 381h72l27 121h-74q-32 0 -53.5 -21t-21.5 -52q0 -23 13.5 -35.5t36.5 -12.5z" />
    <glyph glyph-name="afii10065" unicode="&#x430;" horiz-adv-x="529" 
d="M238 495q88 0 121 -65l12 53h168l-107 -483h-168l12 52q-51 -64 -118 -64q-70 0 -109 47t-39 136q0 72 23.5 143.5t77.5 126t127 54.5zM274 346q-39 0 -64.5 -47.5t-25.5 -96.5q0 -30 16.5 -47.5t43.5 -17.5q32 0 58 33l32 143q-19 33 -60 33z" />
    <glyph glyph-name="afii10066" unicode="&#x431;" horiz-adv-x="514" 
d="M242 137q39 0 63.5 49t24.5 96q0 64 -60 64q-38 0 -62.5 -49t-24.5 -95q0 -65 59 -65zM234 -12q-108 0 -163 60.5t-55 165.5q0 96 45 191q89 185 277 231q54 13 58 31h177q-23 -105 -199 -135q-74 -13 -110.5 -34.5t-55.5 -57.5q50 51 131 51q71 0 116.5 -58t45.5 -149
q0 -115 -75 -205.5t-192 -90.5z" />
    <glyph glyph-name="afii10067" unicode="&#x432;" horiz-adv-x="536" 
d="M306 0h-318l107 483h282q64 0 103 -30.5t39 -77.5q0 -46 -30.5 -83.5t-82.5 -46.5q72 -23 72 -92q0 -63 -45 -108t-127 -45zM186 129h95q12 0 20.5 9t8.5 21q0 22 -22 22h-91zM225 309h88q13 0 20 8t7 19q0 19 -21 19h-84z" />
    <glyph glyph-name="afii10068" unicode="&#x433;" horiz-adv-x="398" 
d="M437 483l-33 -146h-173l-73 -337h-170l107 483h342z" />
    <glyph glyph-name="afii10069" unicode="&#x434;" horiz-adv-x="551" 
d="M-65 -123l56 259q17 3 28 9t27.5 31.5t31.5 71.5l78 235h388l-74 -336h48l-60 -270h-169l27 123h-186l-26 -123h-169zM274 337l-31 -97q-19 -58 -56 -93h114l42 190h-69z" />
    <glyph glyph-name="afii10070" unicode="&#x435;" horiz-adv-x="489" 
d="M240 -12q-105 0 -166.5 55.5t-61.5 153.5q0 116 75 207t191 91q92 0 146 -53.5t54 -146.5q0 -51 -16 -107h-289v-8q0 -9 7.5 -21.5t29.5 -25.5t53 -13q55 0 92 27l52 -107q-69 -52 -167 -52zM193 299h134q1 4 1 13q0 20 -16 36t-44 16q-31 0 -50.5 -20.5t-24.5 -44.5z
" />
    <glyph glyph-name="afii10072" unicode="&#x436;" horiz-adv-x="703" 
d="M142 0h-205l206 267l-89 216h188l45 -146l32 146h169l-26 -119l89 119h203l-185 -216l89 -267h-190l-33 168l-22 -26l-31 -142h-169l31 142l-4 12z" />
    <glyph glyph-name="afii10073" unicode="&#x437;" horiz-adv-x="449" 
d="M263 495q96 0 145.5 -33.5t49.5 -91.5q0 -53 -43 -89.5t-99 -42.5q42 -7 68 -34.5t26 -61.5q0 -68 -66.5 -111t-171.5 -43q-62 0 -116 21t-85 56l97 93q40 -39 102 -39q74 0 74 35q0 25 -50 25h-89l29 129h86q67 0 67 32q0 25 -50 25q-76 0 -140 -44l-55 105
q97 69 221 69z" />
    <glyph glyph-name="afii10074" unicode="&#x438;" horiz-adv-x="535" 
d="M150 0h-162l107 483h169l-44 -198l152 198h172l-106 -483h-169l46 214z" />
    <glyph glyph-name="afii10075" unicode="&#x439;" horiz-adv-x="535" 
d="M150 0h-162l107 483h169l-44 -198l152 198h172l-106 -483h-169l46 214zM499 608q-72 -77 -168 -77t-136 77l82 57q20 -42 70 -42t89 42z" />
    <glyph glyph-name="afii10076" unicode="&#x43a;" 
d="M456 0h-194l-33 164l-48 -58l-23 -106h-170l108 483h169l-38 -166l126 166h200l-185 -216z" />
    <glyph glyph-name="afii10077" unicode="&#x43b;" horiz-adv-x="535" 
d="M-41 -12l31 140q23 0 44 25t44 95l78 235h388l-106 -483h-169l74 337h-69l-35 -109q-42 -128 -105.5 -184t-174.5 -56z" />
    <glyph glyph-name="afii10078" unicode="&#x43c;" horiz-adv-x="662" 
d="M566 0h-167l52 241l-135 -241h-77l-29 241l-52 -241h-170l107 483h212l25 -218l125 218h215z" />
    <glyph glyph-name="afii10079" unicode="&#x43d;" horiz-adv-x="535" 
d="M158 0h-170l109 483h169l-35 -157h111l35 157h169l-108 -483h-169l40 179h-111z" />
    <glyph glyph-name="afii10080" unicode="&#x43e;" horiz-adv-x="514" 
d="M234 -12q-107 0 -164.5 58.5t-57.5 152.5q0 73 31.5 140t94 111.5t140.5 44.5q108 0 165.5 -58t57.5 -153q0 -115 -75 -205.5t-192 -90.5zM242 137q39 0 63.5 49t24.5 96q0 64 -60 64q-38 0 -62.5 -49t-24.5 -95q0 -65 59 -65z" />
    <glyph glyph-name="afii10081" unicode="&#x43f;" horiz-adv-x="535" 
d="M438 0h-169l75 337h-112l-75 -337h-169l109 483h449z" />
    <glyph glyph-name="afii10082" unicode="&#x440;" horiz-adv-x="528" 
d="M291 -12q-89 0 -122 65l-52 -237h-169l148 667h169l-13 -52q52 64 118 64q70 0 109 -47t39 -136q0 -72 -23.5 -143.5t-77.5 -126t-126 -54.5zM254 137q39 0 64.5 47.5t25.5 96.5q0 30 -16.5 47.5t-43.5 17.5q-32 0 -57 -33l-32 -142q19 -34 59 -34z" />
    <glyph glyph-name="afii10083" unicode="&#x441;" horiz-adv-x="437" 
d="M234 -12q-102 0 -162 57t-60 153q0 121 77 209t193 88q61 0 107 -21t71 -54l-102 -110q-23 36 -69 36q-45 0 -75 -39t-30 -93q0 -36 22.5 -56.5t57.5 -20.5q39 0 68 31l57 -122q-60 -58 -155 -58z" />
    <glyph glyph-name="afii10084" unicode="&#x442;" horiz-adv-x="398" 
d="M230 0h-169l74 337h-102l32 146h372l-33 -146h-100z" />
    <glyph glyph-name="afii10085" unicode="&#x443;" horiz-adv-x="485" 
d="M-48 -182l54 141q12 -6 37 -6q29 0 42 21l14 23l-56 486h173l12 -280l138 280h183l-306 -545q-43 -77 -87 -105.5t-110 -28.5q-60 0 -94 14z" />
    <glyph glyph-name="afii10086" unicode="&#x444;" horiz-adv-x="765" 
d="M222 495q36 0 69 -16t47 -48l52 236h169l-52 -236q47 64 114 64t102.5 -50.5t35.5 -122.5t-24.5 -146.5t-76.5 -131t-118 -56.5q-35 0 -68 16t-48 49l-52 -237h-169l52 237q-48 -65 -114 -65t-102 51t-36 123q0 71 24.5 146t76.5 131t118 56zM264 346q-36 0 -61 -48
t-25 -101q0 -28 12.5 -44t34.5 -16q31 0 56 33l31 143q-9 33 -48 33zM499 137q35 0 60.5 48.5t25.5 100.5q0 28 -13 44t-35 16q-31 0 -55 -33l-32 -142q11 -34 49 -34z" />
    <glyph glyph-name="afii10087" unicode="&#x445;" horiz-adv-x="470" 
d="M424 0h-177l-33 129l-91 -129h-186l191 245l-76 238h176l28 -120l81 120h186l-183 -238z" />
    <glyph glyph-name="afii10088" unicode="&#x446;" horiz-adv-x="551" 
d="M289 -123l27 123h-328l107 483h169l-74 -336h111l74 336h169l-74 -336h48l-60 -270h-169z" />
    <glyph glyph-name="afii10089" unicode="&#x447;" horiz-adv-x="530" 
d="M90 483h169l-35 -157q-12 -52 38 -52q35 0 65 16l43 193h169l-106 -483h-169l34 159q-52 -34 -134 -34q-152 0 -122 143z" />
    <glyph glyph-name="afii10090" unicode="&#x448;" horiz-adv-x="786" 
d="M627 483h169l-106 -483h-702l107 483h169l-74 -336h97l74 336h169l-74 -336h97z" />
    <glyph glyph-name="afii10091" unicode="&#x449;" horiz-adv-x="802" 
d="M627 483h169l-74 -336h47l-59 -270h-169l27 123h-580l107 483h169l-74 -336h97l74 336h169l-74 -336h97z" />
    <glyph glyph-name="afii10092" unicode="&#x44a;" horiz-adv-x="592" 
d="M360 0h-299l74 337h-102l32 146h271l-33 -148h78q82 0 130.5 -40.5t48.5 -105.5q0 -75 -54.5 -132t-145.5 -57zM355 202h-81l-15 -69h87q18 0 29 12t11 29q0 13 -8.5 20.5t-22.5 7.5z" />
    <glyph glyph-name="afii10093" unicode="&#x44b;" horiz-adv-x="756" 
d="M660 0h-169l106 483h169zM95 483h169l-33 -148h77q82 0 130.5 -40.5t48.5 -105.5q0 -75 -54 -132t-146 -57h-299zM282 202h-80l-15 -69h86q18 0 29 12t11 29q0 28 -31 28z" />
    <glyph glyph-name="afii10094" unicode="&#x44c;" horiz-adv-x="519" 
d="M95 483h169l-33 -148h77q82 0 130.5 -40.5t48.5 -105.5q0 -75 -54 -132t-146 -57h-299zM282 202h-80l-15 -69h86q18 0 29 12t11 29q0 28 -31 28z" />
    <glyph glyph-name="afii10095" unicode="&#x44d;" horiz-adv-x="437" 
d="M202 495q102 0 162 -57t60 -152q0 -121 -77 -209.5t-193 -88.5q-120 0 -179 75l97 102q26 -34 73 -34q62 0 90 57h-133l24 111h121q-8 25 -29 39t-47 14q-40 0 -69 -26l-56 115q62 54 156 54z" />
    <glyph glyph-name="afii10096" unicode="&#x44e;" horiz-adv-x="760" 
d="M480 -12q-102 0 -159.5 52t-63.5 139h-60l-39 -179h-170l107 483h169l-35 -157h54q33 75 96 122t145 47q107 0 165 -58.5t58 -152.5q0 -73 -32 -140t-94.5 -111.5t-140.5 -44.5zM488 137q38 0 62.5 49t24.5 96q0 64 -59 64q-38 0 -62.5 -49t-24.5 -95q0 -65 59 -65z" />
    <glyph glyph-name="afii10097" unicode="&#x44f;" horiz-adv-x="532" 
d="M162 0h-189l128 184q-56 37 -56 111t54 131t146 57h299l-106 -483h-169l32 149h-52zM251 282h80l15 69h-87q-18 0 -29 -12.5t-11 -29.5q0 -27 32 -27z" />
    <glyph glyph-name="afii10071" unicode="&#x451;" horiz-adv-x="489" 
d="M525 626q0 -37 -29.5 -65.5t-66.5 -28.5q-32 0 -53.5 21.5t-21.5 53.5q0 37 29 65.5t67 28.5q32 0 53.5 -21.5t21.5 -53.5zM324 626q0 -37 -29 -65.5t-66 -28.5q-32 0 -53.5 21.5t-21.5 53.5q0 37 29 65.5t66 28.5q32 0 53.5 -21.5t21.5 -53.5zM240 -12
q-105 0 -166.5 55.5t-61.5 153.5q0 116 75 207t191 91q92 0 146 -53.5t54 -146.5q0 -51 -16 -107h-289v-8q0 -9 7.5 -21.5t29.5 -25.5t53 -13q55 0 92 27l52 -107q-69 -52 -167 -52zM193 299h134q1 4 1 13q0 20 -16 36t-44 16q-31 0 -50.5 -20.5t-24.5 -44.5z" />
    <glyph glyph-name="afii10099" unicode="&#x452;" horiz-adv-x="542" 
d="M405 523h-125l-21 -96q25 27 68 47.5t89 20.5q70 0 96 -36t13 -95l-79 -360q-20 -94 -77 -147t-150 -53q-61 0 -98 24l62 129q14 -13 39 -13q42 0 55 60l64 290q11 52 -38 52q-37 0 -72 -42l-66 -304h-169l115 523h-41l20 92h41l11 52h169l-11 -52h125z" />
    <glyph glyph-name="afii10100" unicode="&#x453;" horiz-adv-x="398" 
d="M506 700l-165 -144h-111l132 144h144zM437 483l-33 -146h-173l-73 -337h-170l107 483h342z" />
    <glyph glyph-name="afii10101" unicode="&#x454;" horiz-adv-x="437" 
d="M234 -12q-102 0 -162 57t-60 153q0 121 77 209t193 88q61 0 107 -21t71 -54l-96 -101q-26 33 -73 33q-59 0 -89 -53h133l-24 -111h-124q8 -26 29 -41.5t49 -15.5q40 0 69 26l56 -115q-64 -54 -156 -54z" />
    <glyph glyph-name="afii10102" unicode="&#x455;" horiz-adv-x="436" 
d="M194 -12q-64 0 -124 23.5t-96 59.5l88 107q21 -24 61 -44t78 -20q17 0 27.5 6.5t10.5 17.5q0 13 -20.5 23t-49.5 20.5t-57.5 25t-49 43t-20.5 68.5q0 72 53.5 124.5t147.5 52.5q122 0 200 -75l-81 -104q-17 19 -51 36t-67 17q-17 0 -27 -7t-10 -17q0 -12 31.5 -24.5
t68.5 -25t68.5 -46t31.5 -81.5q0 -76 -58 -128t-155 -52z" />
    <glyph glyph-name="afii10103" unicode="&#x456;" horiz-adv-x="254" 
d="M198 522q-37 0 -61.5 23.5t-24.5 57.5q0 50 34 80t74 30q37 0 61.5 -23.5t24.5 -57.5q0 -50 -34 -80t-74 -30zM158 0h-170l108 483h169z" />
    <glyph glyph-name="afii10104" unicode="&#x457;" horiz-adv-x="254" 
d="M394 626q0 -37 -29.5 -65.5t-66.5 -28.5q-32 0 -53.5 21.5t-21.5 53.5q0 37 29 65.5t67 28.5q32 0 53.5 -21.5t21.5 -53.5zM193 626q0 -37 -29 -65.5t-66 -28.5q-32 0 -53.5 21.5t-21.5 53.5q0 37 29 65.5t66 28.5q32 0 53.5 -21.5t21.5 -53.5zM158 0h-170l108 483h169z
" />
    <glyph glyph-name="afii10105" unicode="&#x458;" horiz-adv-x="254" 
d="M-46 -196q-81 0 -118 31l60 123q13 -14 39 -14q41 0 54 60l107 479h169l-107 -479q-21 -98 -67.5 -149t-136.5 -51zM198 522q-37 0 -61.5 23.5t-24.5 57.5q0 50 34 80t74 30q37 0 61.5 -23.5t24.5 -57.5q0 -50 -34 -80t-74 -30z" />
    <glyph glyph-name="afii10106" unicode="&#x459;" horiz-adv-x="800" 
d="M-41 -12l30 140q23 0 44.5 25t44.5 95l78 235h388l-33 -148h86q89 0 133.5 -44.5t36.5 -113.5q-8 -73 -64.5 -125t-147.5 -52h-286l74 337h-69l-35 -109q-42 -128 -105.5 -184t-174.5 -56zM563 202h-81l-15 -69h83q18 0 30.5 11t14.5 26q2 14 -6.5 23t-25.5 9z" />
    <glyph glyph-name="afii10107" unicode="&#x45a;" horiz-adv-x="788" 
d="M158 0h-170l107 483h169l-34 -153h111l34 153h169l-34 -153h86q89 0 133.5 -43.5t37.5 -112.5q-8 -72 -65 -123t-147 -51h-286l40 184h-111zM566 191h-86l-13 -58h88q16 0 26.5 9t12.5 23q2 11 -6 18.5t-22 7.5z" />
    <glyph glyph-name="afii10108" unicode="&#x45b;" horiz-adv-x="542" 
d="M446 0h-169l63 288q3 15 3 23q0 35 -44 35q-33 0 -67 -42l-67 -304h-169l115 524h-40l20 92h41l11 51h169l-12 -51h126l-21 -92h-125l-22 -97q64 68 140 68q60 0 94.5 -30t34.5 -78q0 -14 -4 -32z" />
    <glyph glyph-name="afii10109" unicode="&#x45c;" 
d="M544 700l-165 -144h-111l132 144h144zM456 0h-194l-33 164l-48 -58l-23 -106h-170l108 483h169l-38 -166l126 166h200l-185 -216z" />
    <glyph glyph-name="afii10110" unicode="&#x45e;" horiz-adv-x="485" 
d="M-48 -182l54 141q12 -6 37 -6q29 0 42 21l14 23l-56 486h173l12 -280l138 280h183l-306 -545q-43 -77 -87 -105.5t-110 -28.5q-60 0 -94 14zM470 608q-72 -77 -168 -77t-136 77l82 57q20 -42 70 -42t89 42z" />
    <glyph glyph-name="afii10193" unicode="&#x45f;" horiz-adv-x="535" 
d="M101 -123l27 123h-140l107 483h169l-74 -336h111l74 336h169l-106 -483h-141l-27 -123h-169z" />
    <glyph glyph-name="afii10050" unicode="&#x490;" horiz-adv-x="496" 
d="M183 0h-190l147 667h231l27 123h190l-64 -288h-231z" />
    <glyph glyph-name="afii10098" unicode="&#x491;" horiz-adv-x="398" 
d="M231 337l-73 -337h-170l107 483h173l27 123h169l-60 -269h-173z" />
    <glyph glyph-name="uni1E02" unicode="&#x1e02;" horiz-adv-x="600" 
d="M347 0h-354l148 667h293q90 0 138 -47t48 -112q0 -66 -43 -118.5t-105 -58.5q44 -12 67.5 -48t23.5 -81q0 -36 -12 -70t-36.5 -64.5t-68 -49t-99.5 -18.5zM276 418h91q25 0 38.5 15.5t13.5 37.5q0 35 -42 35h-81zM315 161q26 0 43 16t17 41q0 39 -41 39h-94l-21 -96h96z
M508 794q0 -37 -29.5 -65.5t-66.5 -28.5q-32 0 -53.5 21.5t-21.5 53.5q0 37 29 65.5t67 28.5q32 0 53.5 -21.5t21.5 -53.5z" />
    <glyph glyph-name="uni1E03" unicode="&#x1e03;" horiz-adv-x="529" 
d="M291 -12q-89 0 -122 65l-11 -53h-169l147 667h169l-53 -236q52 64 118 64q70 0 109 -47t39 -136q0 -72 -23.5 -143.5t-77.5 -126t-126 -54.5zM254 137q39 0 64.5 47.5t25.5 96.5q0 30 -16.5 47.5t-43.5 17.5q-32 0 -57 -33l-32 -142q19 -34 59 -34zM478 794
q0 -37 -29.5 -65.5t-66.5 -28.5q-32 0 -53.5 21.5t-21.5 53.5q0 37 29 65.5t67 28.5q32 0 53.5 -21.5t21.5 -53.5z" />
    <glyph glyph-name="uni1E0A" unicode="&#x1e0a;" horiz-adv-x="630" 
d="M246 0h-253l148 667h247q100 0 175 -72t75 -189q0 -58 -11.5 -113t-40.5 -109t-72 -94t-112 -65t-156 -25zM220 165h60q52 0 90.5 35.5t56 87.5t17.5 109q0 48 -25.5 76.5t-65.5 28.5h-59zM527 794q0 -37 -29.5 -65.5t-66.5 -28.5q-32 0 -53.5 21.5t-21.5 53.5
q0 37 29 65.5t67 28.5q32 0 53.5 -21.5t21.5 -53.5z" />
    <glyph glyph-name="uni1E0B" unicode="&#x1e0b;" horiz-adv-x="529" 
d="M238 495q88 0 121 -65l53 237h168l-148 -667h-168l12 52q-51 -64 -118 -64q-70 0 -109 47t-39 136q0 72 23.5 143.5t77.5 126t127 54.5zM274 346q-39 0 -64.5 -47.5t-25.5 -96.5q0 -30 16.5 -47.5t43.5 -17.5q32 0 58 33l32 143q-19 33 -60 33zM466 794
q0 -37 -29.5 -65.5t-66.5 -28.5q-32 0 -53.5 21.5t-21.5 53.5q0 37 29 65.5t67 28.5q32 0 53.5 -21.5t21.5 -53.5z" />
    <glyph glyph-name="uni1E1E" unicode="&#x1e1e;" horiz-adv-x="496" 
d="M463 794q0 -37 -29.5 -65.5t-66.5 -28.5q-32 0 -53.5 21.5t-21.5 53.5q0 37 29 65.5t67 28.5q32 0 53.5 -21.5t21.5 -53.5zM183 0h-190l148 667h421l-37 -165h-231l-18 -82h225l-37 -165h-225z" />
    <glyph glyph-name="uni1E1F" unicode="&#x1e1f;" horiz-adv-x="323" 
d="M426 794q0 -37 -29.5 -65.5t-66.5 -28.5q-32 0 -53.5 21.5t-21.5 53.5q0 37 29 65.5t67 28.5q32 0 53.5 -21.5t21.5 -53.5zM185 0h-169l74 337h-61l33 146h60l5 23q39 171 191 171q89 0 132 -41l-71 -108q-15 16 -38 16q-37 0 -46 -41l-4 -20h78l-33 -146h-77z" />
    <glyph glyph-name="uni1E22" unicode="&#x1e22;" horiz-adv-x="642" 
d="M540 0h-189l57 261h-168l-57 -261h-190l148 667h189l-53 -241h168l53 241h189zM527 794q0 -37 -29.5 -65.5t-66.5 -28.5q-32 0 -53.5 21.5t-21.5 53.5q0 37 29 65.5t67 28.5q32 0 53.5 -21.5t21.5 -53.5z" />
    <glyph glyph-name="uni1E23" unicode="&#x1e23;" horiz-adv-x="535" 
d="M439 0h-169l63 288q3 15 3 23q0 35 -44 35q-33 0 -67 -42l-67 -304h-169l147 667h169l-54 -240q64 68 140 68q60 0 94.5 -30t34.5 -78q0 -14 -4 -32zM475 794q0 -37 -29.5 -65.5t-66.5 -28.5q-32 0 -53.5 21.5t-21.5 53.5q0 37 29 65.5t67 28.5q32 0 53.5 -21.5
t21.5 -53.5z" />
    <glyph glyph-name="uni1E56" unicode="&#x1e56;" horiz-adv-x="579" 
d="M183 0h-190l148 667h279q84 0 138 -55.5t54 -136.5q0 -46 -15.5 -89.5t-47.5 -82.5t-89 -63t-131 -24h-98zM267 381h75q31 0 52.5 21.5t21.5 51.5q0 23 -13.5 35.5t-36.5 12.5h-72zM508 794q0 -37 -29.5 -65.5t-66.5 -28.5q-32 0 -53.5 21.5t-21.5 53.5q0 37 29 65.5
t67 28.5q32 0 53.5 -21.5t21.5 -53.5z" />
    <glyph glyph-name="uni1E57" unicode="&#x1e57;" horiz-adv-x="528" 
d="M291 -12q-89 0 -122 65l-52 -237h-169l148 667h169l-13 -52q52 64 118 64q70 0 109 -47t39 -136q0 -72 -23.5 -143.5t-77.5 -126t-126 -54.5zM254 137q39 0 64.5 47.5t25.5 96.5q0 30 -16.5 47.5t-43.5 17.5q-32 0 -57 -33l-32 -142q19 -34 59 -34zM442 627
q0 -37 -29.5 -65.5t-66.5 -28.5q-32 0 -53.5 21.5t-21.5 53.5q0 37 29 65.5t67 28.5q32 0 53.5 -21.5t21.5 -53.5z" />
    <glyph glyph-name="uni1E60" unicode="&#x1e60;" horiz-adv-x="525" 
d="M247 -12q-85 0 -157.5 29t-112.5 78l109 137q26 -35 73 -57.5t96 -22.5q24 0 38 11.5t14 28.5q0 16 -25 31.5t-60 32.5t-70.5 39t-60.5 59.5t-25 84.5q0 97 72 168t189 71q68 0 131.5 -24t106.5 -68l-106 -136q-28 31 -69 48t-80 17q-21 0 -32.5 -11t-11.5 -26
q0 -14 18 -27.5t44.5 -25.5t57.5 -30t57.5 -38.5t44.5 -53.5t18 -73q0 -103 -71.5 -172.5t-187.5 -69.5zM474 794q0 -37 -29.5 -65.5t-66.5 -28.5q-32 0 -53.5 21.5t-21.5 53.5q0 37 29 65.5t67 28.5q32 0 53.5 -21.5t21.5 -53.5z" />
    <glyph glyph-name="uni1E61" unicode="&#x1e61;" horiz-adv-x="436" 
d="M194 -12q-64 0 -124 23.5t-96 59.5l88 107q21 -24 61 -44t78 -20q17 0 27.5 6.5t10.5 17.5q0 13 -20.5 23t-49.5 20.5t-57.5 25t-49 43t-20.5 68.5q0 72 53.5 124.5t147.5 52.5q122 0 200 -75l-81 -104q-17 19 -51 36t-67 17q-17 0 -27 -7t-10 -17q0 -12 31.5 -24.5
t68.5 -25t68.5 -46t31.5 -81.5q0 -76 -58 -128t-155 -52zM393 627q0 -37 -29.5 -65.5t-66.5 -28.5q-32 0 -53.5 21.5t-21.5 53.5q0 37 29 65.5t67 28.5q32 0 53.5 -21.5t21.5 -53.5z" />
    <glyph glyph-name="uni1E6A" unicode="&#x1e6a;" 
d="M292 0h-190l111 502h-138l36 165h465l-37 -165h-137zM456 794q0 -37 -29.5 -65.5t-66.5 -28.5q-32 0 -53.5 21.5t-21.5 53.5q0 37 29 65.5t67 28.5q32 0 53.5 -21.5t21.5 -53.5z" />
    <glyph glyph-name="uni1E6B" unicode="&#x1e6b;" horiz-adv-x="332" 
d="M202 -12q-76 0 -118 28t-42 84q0 22 5 44l43 193h-61l33 146h61l29 132h169l-29 -132h77l-33 -146h-77l-33 -147q-2 -16 -2 -21q0 -32 34 -32q15 0 21 6l-2 -139q-26 -16 -75 -16zM360 794q0 -37 -29.5 -65.5t-66.5 -28.5q-32 0 -53.5 21.5t-21.5 53.5q0 37 29 65.5
t67 28.5q32 0 53.5 -21.5t21.5 -53.5z" />
    <glyph glyph-name="Wgrave" unicode="&#x1e80;" horiz-adv-x="819" 
d="M613 0h-194l16 362l-143 -362h-193l-10 667h199l-22 -385l161 385h143l-7 -385l147 385h206zM571 723h-108l-102 144h142z" />
    <glyph glyph-name="wgrave" unicode="&#x1e81;" horiz-adv-x="740" 
d="M565 0h-181l-9 270l-127 -270h-181l-21 483h169l-3 -269l127 269h154l11 -269l117 269h179zM492 556h-108l-102 144h142z" />
    <glyph glyph-name="Wacute" unicode="&#x1e82;" horiz-adv-x="819" 
d="M723 867l-165 -144h-111l132 144h144zM613 0h-194l16 362l-143 -362h-193l-10 667h199l-22 -385l161 385h143l-7 -385l147 385h206z" />
    <glyph glyph-name="wacute" unicode="&#x1e83;" horiz-adv-x="740" 
d="M644 700l-165 -144h-111l132 144h144zM565 0h-181l-9 270l-127 -270h-181l-21 483h169l-3 -269l127 269h154l11 -269l117 269h179z" />
    <glyph glyph-name="Wdieresis" unicode="&#x1e84;" horiz-adv-x="819" 
d="M709 793q0 -37 -29.5 -65.5t-66.5 -28.5q-32 0 -53.5 21.5t-21.5 53.5q0 37 29 65.5t67 28.5q32 0 53.5 -21.5t21.5 -53.5zM508 793q0 -37 -29 -65.5t-66 -28.5q-32 0 -53.5 21.5t-21.5 53.5q0 37 29 65.5t66 28.5q32 0 53.5 -21.5t21.5 -53.5zM613 0h-194l16 362
l-143 -362h-193l-10 667h199l-22 -385l161 385h143l-7 -385l147 385h206z" />
    <glyph glyph-name="wdieresis" unicode="&#x1e85;" horiz-adv-x="740" 
d="M631 626q0 -37 -29.5 -65.5t-66.5 -28.5q-32 0 -53.5 21.5t-21.5 53.5q0 37 29 65.5t67 28.5q32 0 53.5 -21.5t21.5 -53.5zM430 626q0 -37 -29 -65.5t-66 -28.5q-32 0 -53.5 21.5t-21.5 53.5q0 37 29 65.5t66 28.5q32 0 53.5 -21.5t21.5 -53.5zM565 0h-181l-9 270
l-127 -270h-181l-21 483h169l-3 -269l127 269h154l11 -269l117 269h179z" />
    <glyph glyph-name="uni1EA0" unicode="&#x1ea0;" horiz-adv-x="597" 
d="M555 0h-198v86h-173l-38 -86h-212l343 667h229zM357 251l-1 221l-98 -221h99zM308 -112q0 -37 -29.5 -65.5t-66.5 -28.5q-32 0 -53.5 21.5t-21.5 53.5q0 37 29 65.5t67 28.5q32 0 53.5 -21.5t21.5 -53.5z" />
    <glyph glyph-name="uni1EA1" unicode="&#x1ea1;" horiz-adv-x="529" 
d="M238 495q88 0 121 -65l12 53h168l-107 -483h-168l12 52q-51 -64 -118 -64q-70 0 -109 47t-39 136q0 72 23.5 143.5t77.5 126t127 54.5zM274 346q-39 0 -64.5 -47.5t-25.5 -96.5q0 -30 16.5 -47.5t43.5 -17.5q32 0 58 33l32 143q-19 33 -60 33zM265 -112
q0 -37 -29.5 -65.5t-66.5 -28.5q-32 0 -53.5 21.5t-21.5 53.5q0 37 29 65.5t67 28.5q32 0 53.5 -21.5t21.5 -53.5z" />
    <glyph glyph-name="uni1EA2" unicode="&#x1ea2;" horiz-adv-x="597" 
d="M555 0h-198v86h-173l-38 -86h-212l343 667h229zM357 251l-1 221l-98 -221h99zM388 751l-50 19q23 50 80 50q31 0 52 -15.5t21 -45.5q0 -31 -22 -62h-65q22 25 25 49q2 23 -17 23q-14 0 -24 -18z" />
    <glyph glyph-name="uni1EA3" unicode="&#x1ea3;" horiz-adv-x="529" 
d="M238 495q88 0 121 -65l12 53h168l-107 -483h-168l12 52q-51 -64 -118 -64q-70 0 -109 47t-39 136q0 72 23.5 143.5t77.5 126t127 54.5zM274 346q-39 0 -64.5 -47.5t-25.5 -96.5q0 -30 16.5 -47.5t43.5 -17.5q32 0 58 33l32 143q-19 33 -60 33zM311 581l-50 19
q23 50 80 50q31 0 52 -15.5t21 -45.5q0 -31 -22 -62h-65q22 25 25 49q2 23 -17 23q-14 0 -24 -18z" />
    <glyph glyph-name="uni1EA4" unicode="&#x1ea4;" horiz-adv-x="597" 
d="M541 682h-93l-39 57l-69 -57h-97l106 108h147zM555 0h-198v86h-173l-38 -86h-212l343 667h229zM357 251l-1 221l-98 -221h99zM800 843l-165 -108h-111l132 108h144z" />
    <glyph glyph-name="uni1EA5" unicode="&#x1ea5;" horiz-adv-x="529" 
d="M238 495q88 0 121 -65l12 53h168l-107 -483h-168l12 52q-51 -64 -118 -64q-70 0 -109 47t-39 136q0 72 23.5 143.5t77.5 126t127 54.5zM274 346q-39 0 -64.5 -47.5t-25.5 -96.5q0 -30 16.5 -47.5t43.5 -17.5q32 0 58 33l32 143q-19 33 -60 33zM478 556h-93l-39 76
l-69 -76h-97l106 144h147zM737 770l-165 -144h-111l132 144h144z" />
    <glyph glyph-name="uni1EA6" unicode="&#x1ea6;" horiz-adv-x="597" 
d="M541 682h-93l-39 57l-69 -57h-97l106 108h147zM555 0h-198v86h-173l-38 -86h-212l343 667h229zM357 251l-1 221l-98 -221h99zM288 735h-108l-102 108h142z" />
    <glyph glyph-name="uni1EA7" unicode="&#x1ea7;" horiz-adv-x="529" 
d="M238 495q88 0 121 -65l12 53h168l-107 -483h-168l12 52q-51 -64 -118 -64q-70 0 -109 47t-39 136q0 72 23.5 143.5t77.5 126t127 54.5zM274 346q-39 0 -64.5 -47.5t-25.5 -96.5q0 -30 16.5 -47.5t43.5 -17.5q32 0 58 33l32 143q-19 33 -60 33zM478 556h-93l-39 76
l-69 -76h-97l106 144h147zM225 626h-108l-102 144h142z" />
    <glyph glyph-name="uni1EA8" unicode="&#x1ea8;" horiz-adv-x="597" 
d="M541 682h-93l-39 57l-69 -57h-97l106 108h147zM555 0h-198v86h-173l-38 -86h-212l343 667h229zM357 251l-1 221l-98 -221h99zM514 797l-50 14q23 37 80 37q31 0 52 -11.5t21 -33.5q0 -23 -22 -47h-65q22 19 25 37q2 17 -17 17q-14 0 -24 -13z" />
    <glyph glyph-name="uni1EA9" unicode="&#x1ea9;" horiz-adv-x="529" 
d="M238 495q88 0 121 -65l12 53h168l-107 -483h-168l12 52q-51 -64 -118 -64q-70 0 -109 47t-39 136q0 72 23.5 143.5t77.5 126t127 54.5zM274 346q-39 0 -64.5 -47.5t-25.5 -96.5q0 -30 16.5 -47.5t43.5 -17.5q32 0 58 33l32 143q-19 33 -60 33zM478 556h-93l-39 76
l-69 -76h-97l106 144h147zM443 721l-50 19q23 50 80 50q31 0 52 -15.5t21 -45.5q0 -31 -22 -62h-65q22 25 25 49q2 23 -17 23q-14 0 -24 -18z" />
    <glyph glyph-name="uni1EAA" unicode="&#x1eaa;" horiz-adv-x="597" 
d="M538 679h-93l-39 38l-69 -38h-97l106 72h147zM555 0h-198v86h-173l-38 -86h-212l343 667h229zM357 251l-1 221l-98 -221h99zM473 758q-35 0 -62 12t-42 12q-21 0 -30 -21h-85q28 67 122 67q35 0 62.5 -12t42.5 -12q20 0 30 21h85q-30 -67 -123 -67z" />
    <glyph glyph-name="uni1EAB" unicode="&#x1eab;" horiz-adv-x="529" 
d="M238 495q88 0 121 -65l12 53h168l-107 -483h-168l12 52q-51 -64 -118 -64q-70 0 -109 47t-39 136q0 72 23.5 143.5t77.5 126t127 54.5zM274 346q-39 0 -64.5 -47.5t-25.5 -96.5q0 -30 16.5 -47.5t43.5 -17.5q32 0 58 33l32 143q-19 33 -60 33zM471 523h-93l-39 76
l-69 -76h-97l106 144h147zM421 682q-35 0 -62 24t-42 24q-21 0 -30 -42h-85q14 67 43 100.5t79 33.5q35 0 62.5 -24t42.5 -24q20 0 30 42h85q-15 -67 -44 -100.5t-79 -33.5z" />
    <glyph glyph-name="uni1EAC" unicode="&#x1eac;" horiz-adv-x="597" 
d="M555 0h-198v86h-173l-38 -86h-212l343 667h229zM357 251l-1 221l-98 -221h99zM554 723h-93l-39 76l-69 -76h-97l106 144h147zM306 -112q0 -37 -29.5 -65.5t-66.5 -28.5q-32 0 -53.5 21.5t-21.5 53.5q0 37 29 65.5t67 28.5q32 0 53.5 -21.5t21.5 -53.5z" />
    <glyph glyph-name="uni1EAD" unicode="&#x1ead;" horiz-adv-x="529" 
d="M238 495q88 0 121 -65l12 53h168l-107 -483h-168l12 52q-51 -64 -118 -64q-70 0 -109 47t-39 136q0 72 23.5 143.5t77.5 126t127 54.5zM274 346q-39 0 -64.5 -47.5t-25.5 -96.5q0 -30 16.5 -47.5t43.5 -17.5q32 0 58 33l32 143q-19 33 -60 33zM478 556h-93l-39 76
l-69 -76h-97l106 144h147zM265 -112q0 -37 -29.5 -65.5t-66.5 -28.5q-32 0 -53.5 21.5t-21.5 53.5q0 37 29 65.5t67 28.5q32 0 53.5 -21.5t21.5 -53.5z" />
    <glyph glyph-name="uni1EAE" unicode="&#x1eae;" horiz-adv-x="597" 
d="M555 0h-198v86h-173l-38 -86h-212l343 667h229zM357 251l-1 221l-98 -221h99zM615 827l-165 -75h-111l132 75h144zM554 721q-73 -42 -168 -42q-96 0 -136 42l82 30q20 -22 70 -22t89 22z" />
    <glyph glyph-name="uni1EAF" unicode="&#x1eaf;" horiz-adv-x="529" 
d="M238 495q88 0 121 -65l12 53h168l-107 -483h-168l12 52q-51 -64 -118 -64q-70 0 -109 47t-39 136q0 72 23.5 143.5t77.5 126t127 54.5zM274 346q-39 0 -64.5 -47.5t-25.5 -96.5q0 -30 16.5 -47.5t43.5 -17.5q32 0 58 33l32 143q-19 33 -60 33zM559 789l-165 -144h-111
l132 144h144zM487 588q-72 -77 -168 -77t-136 77l82 57q20 -42 70 -42t89 42z" />
    <glyph glyph-name="uni1EB0" unicode="&#x1eb0;" horiz-adv-x="597" 
d="M555 0h-198v86h-173l-38 -86h-212l343 667h229zM357 251l-1 221l-98 -221h99zM480 752h-108l-102 75h142zM561 721q-73 -42 -168 -42q-96 0 -136 42l82 30q20 -22 70 -22t89 22z" />
    <glyph glyph-name="uni1EB1" unicode="&#x1eb1;" horiz-adv-x="529" 
d="M238 495q88 0 121 -65l12 53h168l-107 -483h-168l12 52q-51 -64 -118 -64q-70 0 -109 47t-39 136q0 72 23.5 143.5t77.5 126t127 54.5zM274 346q-39 0 -64.5 -47.5t-25.5 -96.5q0 -30 16.5 -47.5t43.5 -17.5q32 0 58 33l32 143q-19 33 -60 33zM408 647h-108l-102 144h142
zM487 588q-72 -77 -168 -77t-136 77l82 57q20 -42 70 -42t89 42z" />
    <glyph glyph-name="uni1EB2" unicode="&#x1eb2;" horiz-adv-x="597" 
d="M555 0h-198v86h-173l-38 -86h-212l343 667h229zM357 251l-1 221l-98 -221h99zM397 780l-50 10q24 26 80 26q31 0 52 -8t21 -24q0 -17 -22 -32h-65q22 12 25 25q1 6 -3.5 9t-13.5 3q-15 0 -24 -9zM560 721q-73 -42 -168 -42q-96 0 -136 42l82 30q20 -22 70 -22t89 22z" />
    <glyph glyph-name="uni1EB3" unicode="&#x1eb3;" horiz-adv-x="529" 
d="M238 495q88 0 121 -65l12 53h168l-107 -483h-168l12 52q-51 -64 -118 -64q-70 0 -109 47t-39 136q0 72 23.5 143.5t77.5 126t127 54.5zM274 346q-39 0 -64.5 -47.5t-25.5 -96.5q0 -30 16.5 -47.5t43.5 -17.5q32 0 58 33l32 143q-19 33 -60 33zM332 708l-50 19
q23 50 80 50q31 0 52 -15.5t21 -45.5q0 -31 -22 -62h-65q22 25 25 49q2 23 -17 23q-14 0 -24 -18zM487 588q-72 -77 -168 -77t-136 77l82 57q20 -42 70 -42t89 42z" />
    <glyph glyph-name="uni1EB4" unicode="&#x1eb4;" horiz-adv-x="597" 
d="M555 0h-198v86h-173l-38 -86h-212l343 667h229zM357 251l-1 221l-98 -221h99zM558 719q-75 -40 -168 -40q-94 0 -136 40l82 30q20 -22 70 -22t89 22zM472 760q-35 0 -62 12t-42 12q-21 0 -30 -21h-85q28 67 122 67q35 0 62.5 -12t42.5 -12q20 0 30 21h85
q-30 -67 -123 -67z" />
    <glyph glyph-name="uni1EB5" unicode="&#x1eb5;" horiz-adv-x="529" 
d="M238 495q88 0 121 -65l12 53h168l-107 -483h-168l12 52q-51 -64 -118 -64q-70 0 -109 47t-39 136q0 72 23.5 143.5t77.5 126t127 54.5zM274 346q-39 0 -64.5 -47.5t-25.5 -96.5q0 -30 16.5 -47.5t43.5 -17.5q32 0 58 33l32 143q-19 33 -60 33zM487 588q-72 -77 -168 -77
t-136 77l82 57q20 -42 70 -42t89 42zM416 662q-35 0 -62 24t-42 24q-21 0 -30 -42h-85q14 67 43 100.5t79 33.5q35 0 62.5 -24t42.5 -24q20 0 30 42h85q-15 -67 -44 -100.5t-79 -33.5z" />
    <glyph glyph-name="uni1EB6" unicode="&#x1eb6;" horiz-adv-x="597" 
d="M555 0h-198v86h-173l-38 -86h-212l343 667h229zM357 251l-1 221l-98 -221h99zM308 -112q0 -37 -29.5 -65.5t-66.5 -28.5q-32 0 -53.5 21.5t-21.5 53.5q0 37 29 65.5t67 28.5q32 0 53.5 -21.5t21.5 -53.5zM565 775q-72 -77 -168 -77t-136 77l82 57q20 -42 70 -42t89 42z
" />
    <glyph glyph-name="uni1EB7" unicode="&#x1eb7;" horiz-adv-x="529" 
d="M238 495q88 0 121 -65l12 53h168l-107 -483h-168l12 52q-51 -64 -118 -64q-70 0 -109 47t-39 136q0 72 23.5 143.5t77.5 126t127 54.5zM274 346q-39 0 -64.5 -47.5t-25.5 -96.5q0 -30 16.5 -47.5t43.5 -17.5q32 0 58 33l32 143q-19 33 -60 33zM264 -112
q0 -37 -29.5 -65.5t-66.5 -28.5q-32 0 -53.5 21.5t-21.5 53.5q0 37 29 65.5t67 28.5q32 0 53.5 -21.5t21.5 -53.5zM490 608q-72 -77 -168 -77t-136 77l82 57q20 -42 70 -42t89 42z" />
    <glyph glyph-name="uni1EB8" unicode="&#x1eb8;" 
d="M415 0h-422l148 667h421l-37 -165h-231l-18 -82h225l-37 -165h-225l-19 -90h231zM263 -112q0 -37 -29.5 -65.5t-66.5 -28.5q-32 0 -53.5 21.5t-21.5 53.5q0 37 29 65.5t67 28.5q32 0 53.5 -21.5t21.5 -53.5z" />
    <glyph glyph-name="uni1EB9" unicode="&#x1eb9;" horiz-adv-x="489" 
d="M240 -12q-105 0 -166.5 55.5t-61.5 153.5q0 116 75 207t191 91q92 0 146 -53.5t54 -146.5q0 -51 -16 -107h-289v-8q0 -9 7.5 -21.5t29.5 -25.5t53 -13q55 0 92 27l52 -107q-69 -52 -167 -52zM193 299h134q1 4 1 13q0 20 -16 36t-44 16q-31 0 -50.5 -20.5t-24.5 -44.5z
M264 -112q0 -37 -29.5 -65.5t-66.5 -28.5q-32 0 -53.5 21.5t-21.5 53.5q0 37 29 65.5t67 28.5q32 0 53.5 -21.5t21.5 -53.5z" />
    <glyph glyph-name="uni1EBA" unicode="&#x1eba;" 
d="M415 0h-422l148 667h421l-37 -165h-231l-18 -82h225l-37 -165h-225l-19 -90h231zM346 751l-50 19q23 50 80 50q31 0 52 -15.5t21 -45.5q0 -31 -22 -62h-65q22 25 25 49q2 23 -17 23q-14 0 -24 -18z" />
    <glyph glyph-name="uni1EBB" unicode="&#x1ebb;" horiz-adv-x="489" 
d="M240 -12q-105 0 -166.5 55.5t-61.5 153.5q0 116 75 207t191 91q92 0 146 -53.5t54 -146.5q0 -51 -16 -107h-289v-8q0 -9 7.5 -21.5t29.5 -25.5t53 -13q55 0 92 27l52 -107q-69 -52 -167 -52zM193 299h134q1 4 1 13q0 20 -16 36t-44 16q-31 0 -50.5 -20.5t-24.5 -44.5z
M310 581l-50 19q23 50 80 50q31 0 52 -15.5t21 -45.5q0 -31 -22 -62h-65q22 25 25 49q2 23 -17 23q-14 0 -24 -18z" />
    <glyph glyph-name="uni1EBC" unicode="&#x1ebc;" 
d="M415 0h-422l148 667h421l-37 -165h-231l-18 -82h225l-37 -165h-225l-19 -90h231zM428 721q-35 0 -62 24t-42 24q-21 0 -30 -42h-85q14 67 43 100.5t79 33.5q35 0 62.5 -24t42.5 -24q20 0 30 42h85q-15 -67 -44 -100.5t-79 -33.5z" />
    <glyph glyph-name="uni1EBD" unicode="&#x1ebd;" horiz-adv-x="489" 
d="M240 -12q-105 0 -166.5 55.5t-61.5 153.5q0 116 75 207t191 91q92 0 146 -53.5t54 -146.5q0 -51 -16 -107h-289v-8q0 -9 7.5 -21.5t29.5 -25.5t53 -13q55 0 92 27l52 -107q-69 -52 -167 -52zM193 299h134q1 4 1 13q0 20 -16 36t-44 16q-31 0 -50.5 -20.5t-24.5 -44.5z
M392 554q-35 0 -62 24t-42 24q-21 0 -30 -42h-85q14 67 43 100.5t79 33.5q35 0 62.5 -24t42.5 -24q20 0 30 42h85q-15 -67 -44 -100.5t-79 -33.5z" />
    <glyph glyph-name="uni1EBE" unicode="&#x1ebe;" 
d="M500 682h-93l-39 57l-69 -57h-97l106 108h147zM761 843l-165 -108h-111l132 108h144zM415 0h-422l148 667h421l-37 -165h-231l-18 -82h225l-37 -165h-225l-19 -90h231z" />
    <glyph glyph-name="uni1EBF" unicode="&#x1ebf;" horiz-adv-x="489" 
d="M476 556h-93l-39 76l-69 -76h-97l106 144h147zM734 770l-165 -144h-111l132 144h144zM240 -12q-105 0 -166.5 55.5t-61.5 153.5q0 116 75 207t191 91q92 0 146 -53.5t54 -146.5q0 -51 -16 -107h-289v-8q0 -9 7.5 -21.5t29.5 -25.5t53 -13q55 0 92 27l52 -107
q-69 -52 -167 -52zM193 299h134q1 4 1 13q0 20 -16 36t-44 16q-31 0 -50.5 -20.5t-24.5 -44.5z" />
    <glyph glyph-name="uni1EC0" unicode="&#x1ec0;" 
d="M500 682h-93l-39 57l-69 -57h-97l106 108h147zM415 0h-422l148 667h421l-37 -165h-231l-18 -82h225l-37 -165h-225l-19 -90h231zM247 735h-108l-102 108h142z" />
    <glyph glyph-name="uni1EC1" unicode="&#x1ec1;" horiz-adv-x="489" 
d="M477 556h-93l-39 76l-69 -76h-97l106 144h147zM240 -12q-105 0 -166.5 55.5t-61.5 153.5q0 116 75 207t191 91q92 0 146 -53.5t54 -146.5q0 -51 -16 -107h-289v-8q0 -9 7.5 -21.5t29.5 -25.5t53 -13q55 0 92 27l52 -107q-69 -52 -167 -52zM193 299h134q1 4 1 13
q0 20 -16 36t-44 16q-31 0 -50.5 -20.5t-24.5 -44.5zM224 626h-108l-102 144h142z" />
    <glyph glyph-name="uni1EC2" unicode="&#x1ec2;" 
d="M499 682h-93l-39 57l-69 -57h-97l106 108h147zM415 0h-422l148 667h421l-37 -165h-231l-18 -82h225l-37 -165h-225l-19 -90h231zM472 797l-50 14q23 37 80 37q31 0 52 -11.5t21 -33.5q0 -23 -22 -47h-65q22 19 25 37q2 17 -17 17q-14 0 -24 -13z" />
    <glyph glyph-name="uni1EC3" unicode="&#x1ec3;" horiz-adv-x="489" 
d="M478 556h-93l-39 76l-69 -76h-97l106 144h147zM240 -12q-105 0 -166.5 55.5t-61.5 153.5q0 116 75 207t191 91q92 0 146 -53.5t54 -146.5q0 -51 -16 -107h-289v-8q0 -9 7.5 -21.5t29.5 -25.5t53 -13q55 0 92 27l52 -107q-69 -52 -167 -52zM193 299h134q1 4 1 13
q0 20 -16 36t-44 16q-31 0 -50.5 -20.5t-24.5 -44.5zM443 721l-50 19q23 50 80 50q31 0 52 -15.5t21 -45.5q0 -31 -22 -62h-65q22 25 25 49q2 23 -17 23q-14 0 -24 -18z" />
    <glyph glyph-name="uni1EC4" unicode="&#x1ec4;" 
d="M496 678h-93l-39 38l-69 -38h-97l106 72h147zM415 0h-422l148 667h421l-37 -165h-231l-18 -82h225l-37 -165h-225l-19 -90h231zM429 757q-35 0 -62 12t-42 12q-21 0 -30 -21h-85q28 67 122 67q35 0 62.5 -12t42.5 -12q20 0 30 21h85q-30 -67 -123 -67z" />
    <glyph glyph-name="uni1EC5" unicode="&#x1ec5;" horiz-adv-x="489" 
d="M471 523h-93l-39 76l-69 -76h-97l106 144h147zM240 -12q-105 0 -166.5 55.5t-61.5 153.5q0 116 75 207t191 91q92 0 146 -53.5t54 -146.5q0 -51 -16 -107h-289v-8q0 -9 7.5 -21.5t29.5 -25.5t53 -13q55 0 92 27l52 -107q-69 -52 -167 -52zM193 299h134q1 4 1 13
q0 20 -16 36t-44 16q-31 0 -50.5 -20.5t-24.5 -44.5zM421 682q-35 0 -62 24t-42 24q-21 0 -30 -42h-85q14 67 43 100.5t79 33.5q35 0 62.5 -24t42.5 -24q20 0 30 42h85q-15 -67 -44 -100.5t-79 -33.5z" />
    <glyph glyph-name="uni1EC6" unicode="&#x1ec6;" 
d="M513 723h-93l-39 76l-69 -76h-97l106 144h147zM415 0h-422l148 667h421l-37 -165h-231l-18 -82h225l-37 -165h-225l-19 -90h231zM265 -112q0 -37 -29.5 -65.5t-66.5 -28.5q-32 0 -53.5 21.5t-21.5 53.5q0 37 29 65.5t67 28.5q32 0 53.5 -21.5t21.5 -53.5z" />
    <glyph glyph-name="uni1EC7" unicode="&#x1ec7;" horiz-adv-x="489" 
d="M478 556h-93l-39 76l-69 -76h-97l106 144h147zM240 -12q-105 0 -166.5 55.5t-61.5 153.5q0 116 75 207t191 91q92 0 146 -53.5t54 -146.5q0 -51 -16 -107h-289v-8q0 -9 7.5 -21.5t29.5 -25.5t53 -13q55 0 92 27l52 -107q-69 -52 -167 -52zM193 299h134q1 4 1 13
q0 20 -16 36t-44 16q-31 0 -50.5 -20.5t-24.5 -44.5zM264 -112q0 -37 -29.5 -65.5t-66.5 -28.5q-32 0 -53.5 21.5t-21.5 53.5q0 37 29 65.5t67 28.5q32 0 53.5 -21.5t21.5 -53.5z" />
    <glyph glyph-name="uni1EC8" unicode="&#x1ec8;" horiz-adv-x="285" 
d="M183 0h-190l148 667h189zM230 751l-50 19q23 50 80 50q31 0 52 -15.5t21 -45.5q0 -31 -22 -62h-65q22 25 25 49q2 23 -17 23q-14 0 -24 -18z" />
    <glyph glyph-name="uni1EC9" unicode="&#x1ec9;" horiz-adv-x="254" 
d="M158 0h-170l108 483h169zM177 581l-50 19q23 50 80 50q31 0 52 -15.5t21 -45.5q0 -31 -22 -62h-65q22 25 25 49q2 23 -17 23q-14 0 -24 -18z" />
    <glyph glyph-name="uni1ECA" unicode="&#x1eca;" horiz-adv-x="285" 
d="M183 0h-190l148 667h189zM147 -112q0 -37 -29.5 -65.5t-66.5 -28.5q-32 0 -53.5 21.5t-21.5 53.5q0 37 29 65.5t67 28.5q32 0 53.5 -21.5t21.5 -53.5z" />
    <glyph glyph-name="uni1ECB" unicode="&#x1ecb;" horiz-adv-x="254" 
d="M198 522q-37 0 -61.5 23.5t-24.5 57.5q0 50 34 80t74 30q37 0 61.5 -23.5t24.5 -57.5q0 -50 -34 -80t-74 -30zM158 0h-170l108 483h169zM133 -112q0 -37 -29.5 -65.5t-66.5 -28.5q-32 0 -53.5 21.5t-21.5 53.5q0 37 29 65.5t67 28.5q32 0 53.5 -21.5t21.5 -53.5z" />
    <glyph glyph-name="uni1ECC" unicode="&#x1ecc;" horiz-adv-x="644" 
d="M304 -12q-127 0 -203 76t-76 195q0 79 24 153.5t67.5 134t112 95.5t151.5 36q125 0 201.5 -76t76.5 -194q0 -107 -40 -201.5t-122.5 -156.5t-191.5 -62zM313 155q64 0 107.5 78t43.5 169q0 48 -25.5 78.5t-69.5 30.5q-64 0 -107 -78t-43 -169q0 -48 25.5 -78.5
t68.5 -30.5zM326 -112q0 -37 -29.5 -65.5t-66.5 -28.5q-32 0 -53.5 21.5t-21.5 53.5q0 37 29 65.5t67 28.5q32 0 53.5 -21.5t21.5 -53.5z" />
    <glyph glyph-name="uni1ECD" unicode="&#x1ecd;" horiz-adv-x="514" 
d="M234 -12q-107 0 -164.5 58.5t-57.5 152.5q0 73 31.5 140t94 111.5t140.5 44.5q108 0 165.5 -58t57.5 -153q0 -115 -75 -205.5t-192 -90.5zM242 137q39 0 63.5 49t24.5 96q0 64 -60 64q-38 0 -62.5 -49t-24.5 -95q0 -65 59 -65zM262 -112q0 -37 -29.5 -65.5t-66.5 -28.5
q-32 0 -53.5 21.5t-21.5 53.5q0 37 29 65.5t67 28.5q32 0 53.5 -21.5t21.5 -53.5z" />
    <glyph glyph-name="uni1ECE" unicode="&#x1ece;" horiz-adv-x="644" 
d="M304 -12q-127 0 -203 76t-76 195q0 79 24 153.5t67.5 134t112 95.5t151.5 36q125 0 201.5 -76t76.5 -194q0 -107 -40 -201.5t-122.5 -156.5t-191.5 -62zM313 155q64 0 107.5 78t43.5 169q0 48 -25.5 78.5t-69.5 30.5q-64 0 -107 -78t-43 -169q0 -48 25.5 -78.5
t68.5 -30.5zM410 751l-50 19q23 50 80 50q31 0 52 -15.5t21 -45.5q0 -31 -22 -62h-65q22 25 25 49q2 23 -17 23q-14 0 -24 -18z" />
    <glyph glyph-name="uni1ECF" unicode="&#x1ecf;" horiz-adv-x="514" 
d="M234 -12q-107 0 -164.5 58.5t-57.5 152.5q0 73 31.5 140t94 111.5t140.5 44.5q108 0 165.5 -58t57.5 -153q0 -115 -75 -205.5t-192 -90.5zM242 137q39 0 63.5 49t24.5 96q0 64 -60 64q-38 0 -62.5 -49t-24.5 -95q0 -65 59 -65zM308 581l-50 19q23 50 80 50q31 0 52 -15.5
t21 -45.5q0 -31 -22 -62h-65q22 25 25 49q2 23 -17 23q-14 0 -24 -18z" />
    <glyph glyph-name="uni1ED0" unicode="&#x1ed0;" horiz-adv-x="644" 
d="M563 682h-93l-39 57l-69 -57h-97l106 108h147zM822 843l-165 -108h-111l132 108h144zM304 -12q-127 0 -203 76t-76 195q0 79 24 153.5t67.5 134t112 95.5t151.5 36q125 0 201.5 -76t76.5 -194q0 -107 -40 -201.5t-122.5 -156.5t-191.5 -62zM313 155q64 0 107.5 78
t43.5 169q0 48 -25.5 78.5t-69.5 30.5q-64 0 -107 -78t-43 -169q0 -48 25.5 -78.5t68.5 -30.5z" />
    <glyph glyph-name="uni1ED1" unicode="&#x1ed1;" horiz-adv-x="514" 
d="M475 556h-93l-39 76l-69 -76h-97l106 144h147zM733 770l-165 -144h-111l132 144h144zM234 -12q-107 0 -164.5 58.5t-57.5 152.5q0 73 31.5 140t94 111.5t140.5 44.5q108 0 165.5 -58t57.5 -153q0 -115 -75 -205.5t-192 -90.5zM242 137q39 0 63.5 49t24.5 96q0 64 -60 64
q-38 0 -62.5 -49t-24.5 -95q0 -65 59 -65z" />
    <glyph glyph-name="uni1ED2" unicode="&#x1ed2;" horiz-adv-x="644" 
d="M563 682h-93l-39 57l-69 -57h-97l106 108h147zM304 -12q-127 0 -203 76t-76 195q0 79 24 153.5t67.5 134t112 95.5t151.5 36q125 0 201.5 -76t76.5 -194q0 -107 -40 -201.5t-122.5 -156.5t-191.5 -62zM313 155q64 0 107.5 78t43.5 169q0 48 -25.5 78.5t-69.5 30.5
q-64 0 -107 -78t-43 -169q0 -48 25.5 -78.5t68.5 -30.5zM310 735h-108l-102 108h142z" />
    <glyph glyph-name="uni1ED3" unicode="&#x1ed3;" horiz-adv-x="514" 
d="M475 556h-93l-39 76l-69 -76h-97l106 144h147zM234 -12q-107 0 -164.5 58.5t-57.5 152.5q0 73 31.5 140t94 111.5t140.5 44.5q108 0 165.5 -58t57.5 -153q0 -115 -75 -205.5t-192 -90.5zM242 137q39 0 63.5 49t24.5 96q0 64 -60 64q-38 0 -62.5 -49t-24.5 -95
q0 -65 59 -65zM222 626h-108l-102 144h142z" />
    <glyph glyph-name="uni1ED4" unicode="&#x1ed4;" horiz-adv-x="644" 
d="M563 682h-93l-39 57l-69 -57h-97l106 108h147zM304 -12q-127 0 -203 76t-76 195q0 79 24 153.5t67.5 134t112 95.5t151.5 36q125 0 201.5 -76t76.5 -194q0 -107 -40 -201.5t-122.5 -156.5t-191.5 -62zM313 155q64 0 107.5 78t43.5 169q0 48 -25.5 78.5t-69.5 30.5
q-64 0 -107 -78t-43 -169q0 -48 25.5 -78.5t68.5 -30.5zM537 797l-50 14q23 37 80 37q31 0 52 -11.5t21 -33.5q0 -23 -22 -47h-65q22 19 25 37q2 17 -17 17q-14 0 -24 -13z" />
    <glyph glyph-name="uni1ED5" unicode="&#x1ed5;" horiz-adv-x="514" 
d="M475 556h-93l-39 76l-69 -76h-97l106 144h147zM234 -12q-107 0 -164.5 58.5t-57.5 152.5q0 73 31.5 140t94 111.5t140.5 44.5q108 0 165.5 -58t57.5 -153q0 -115 -75 -205.5t-192 -90.5zM242 137q39 0 63.5 49t24.5 96q0 64 -60 64q-38 0 -62.5 -49t-24.5 -95
q0 -65 59 -65zM440 721l-50 19q23 50 80 50q31 0 52 -15.5t21 -45.5q0 -31 -22 -62h-65q22 25 25 49q2 23 -17 23q-14 0 -24 -18z" />
    <glyph glyph-name="uni1ED6" unicode="&#x1ed6;" horiz-adv-x="644" 
d="M557 678h-93l-39 38l-69 -38h-97l106 72h147zM304 -12q-127 0 -203 76t-76 195q0 79 24 153.5t67.5 134t112 95.5t151.5 36q125 0 201.5 -76t76.5 -194q0 -107 -40 -201.5t-122.5 -156.5t-191.5 -62zM313 155q64 0 107.5 78t43.5 169q0 48 -25.5 78.5t-69.5 30.5
q-64 0 -107 -78t-43 -169q0 -48 25.5 -78.5t68.5 -30.5zM490 757q-35 0 -62 12t-42 12q-21 0 -30 -21h-85q28 67 122 67q35 0 62.5 -12t42.5 -12q20 0 30 21h85q-30 -67 -123 -67z" />
    <glyph glyph-name="uni1ED7" unicode="&#x1ed7;" horiz-adv-x="514" 
d="M469 523h-93l-39 76l-69 -76h-97l106 144h147zM234 -12q-107 0 -164.5 58.5t-57.5 152.5q0 73 31.5 140t94 111.5t140.5 44.5q108 0 165.5 -58t57.5 -153q0 -115 -75 -205.5t-192 -90.5zM242 137q39 0 63.5 49t24.5 96q0 64 -60 64q-38 0 -62.5 -49t-24.5 -95
q0 -65 59 -65zM419 682q-35 0 -62 24t-42 24q-21 0 -30 -42h-85q14 67 43 100.5t79 33.5q35 0 62.5 -24t42.5 -24q20 0 30 42h85q-15 -67 -44 -100.5t-79 -33.5z" />
    <glyph glyph-name="uni1ED8" unicode="&#x1ed8;" horiz-adv-x="644" 
d="M576 723h-93l-39 76l-69 -76h-97l106 144h147zM304 -12q-127 0 -203 76t-76 195q0 79 24 153.5t67.5 134t112 95.5t151.5 36q125 0 201.5 -76t76.5 -194q0 -107 -40 -201.5t-122.5 -156.5t-191.5 -62zM313 155q64 0 107.5 78t43.5 169q0 48 -25.5 78.5t-69.5 30.5
q-64 0 -107 -78t-43 -169q0 -48 25.5 -78.5t68.5 -30.5zM328 -112q0 -37 -29.5 -65.5t-66.5 -28.5q-32 0 -53.5 21.5t-21.5 53.5q0 37 29 65.5t67 28.5q32 0 53.5 -21.5t21.5 -53.5z" />
    <glyph glyph-name="uni1ED9" unicode="&#x1ed9;" horiz-adv-x="514" 
d="M476 556h-93l-39 76l-69 -76h-97l106 144h147zM234 -12q-107 0 -164.5 58.5t-57.5 152.5q0 73 31.5 140t94 111.5t140.5 44.5q108 0 165.5 -58t57.5 -153q0 -115 -75 -205.5t-192 -90.5zM242 137q39 0 63.5 49t24.5 96q0 64 -60 64q-38 0 -62.5 -49t-24.5 -95
q0 -65 59 -65zM262 -112q0 -37 -29.5 -65.5t-66.5 -28.5q-32 0 -53.5 21.5t-21.5 53.5q0 37 29 65.5t67 28.5q32 0 53.5 -21.5t21.5 -53.5z" />
    <glyph glyph-name="uni1EDA" unicode="&#x1eda;" horiz-adv-x="644" 
d="M640 867l-165 -144h-111l132 144h144zM304 -12q-127 0 -203 76t-76 195q0 79 24 153.5t67.5 134t112 95.5t151.5 36q144 0 222 -99q37 20 51 47q-2 -1 -8 -1q-22 0 -36.5 14t-14.5 40q0 29 22.5 50t51.5 21q26 0 45 -18t19 -49q0 -41 -28.5 -81.5t-74.5 -66.5
q29 -56 29 -127q0 -107 -40 -201.5t-122.5 -156.5t-191.5 -62zM313 155q64 0 107.5 78t43.5 169q0 48 -25.5 78.5t-69.5 30.5q-64 0 -107 -78t-43 -169q0 -48 25.5 -78.5t68.5 -30.5z" />
    <glyph glyph-name="uni1EDB" unicode="&#x1edb;" horiz-adv-x="514" 
d="M539 700l-165 -144h-111l132 144h144zM567 550q0 -40 -27 -80.5t-71 -65.5q32 -50 32 -120q0 -115 -75 -205.5t-192 -90.5q-107 0 -164.5 58.5t-57.5 152.5q0 73 31.5 140t94 111.5t140.5 44.5q98 0 157 -51q40 23 53 48q-2 -1 -8 -1q-22 0 -36.5 14t-14.5 40
q0 29 22.5 50t51.5 21q26 0 45 -17.5t19 -48.5zM242 137q39 0 63.5 49t24.5 96q0 64 -60 64q-38 0 -62.5 -49t-24.5 -95q0 -65 59 -65z" />
    <glyph glyph-name="uni1EDC" unicode="&#x1edc;" horiz-adv-x="644" 
d="M304 -12q-127 0 -203 76t-76 195q0 79 24 153.5t67.5 134t112 95.5t151.5 36q144 0 222 -99q37 20 51 47q-2 -1 -8 -1q-22 0 -36.5 14t-14.5 40q0 29 22.5 50t51.5 21q26 0 45 -18t19 -49q0 -41 -28.5 -81.5t-74.5 -66.5q29 -56 29 -127q0 -107 -40 -201.5t-122.5 -156.5
t-191.5 -62zM313 155q64 0 107.5 78t43.5 169q0 48 -25.5 78.5t-69.5 30.5q-64 0 -107 -78t-43 -169q0 -48 25.5 -78.5t68.5 -30.5zM488 723h-108l-102 144h142z" />
    <glyph glyph-name="uni1EDD" unicode="&#x1edd;" horiz-adv-x="514" 
d="M567 550q0 -40 -27 -80.5t-71 -65.5q32 -50 32 -120q0 -115 -75 -205.5t-192 -90.5q-107 0 -164.5 58.5t-57.5 152.5q0 73 31.5 140t94 111.5t140.5 44.5q98 0 157 -51q40 23 53 48q-2 -1 -8 -1q-22 0 -36.5 14t-14.5 40q0 29 22.5 50t51.5 21q26 0 45 -17.5t19 -48.5z
M242 137q39 0 63.5 49t24.5 96q0 64 -60 64q-38 0 -62.5 -49t-24.5 -95q0 -65 59 -65zM388 556h-108l-102 144h142z" />
    <glyph glyph-name="uni1EDE" unicode="&#x1ede;" horiz-adv-x="644" 
d="M304 -12q-127 0 -203 76t-76 195q0 79 24 153.5t67.5 134t112 95.5t151.5 36q144 0 222 -99q37 20 51 47q-2 -1 -8 -1q-22 0 -36.5 14t-14.5 40q0 29 22.5 50t51.5 21q26 0 45 -18t19 -49q0 -41 -28.5 -81.5t-74.5 -66.5q29 -56 29 -127q0 -107 -40 -201.5t-122.5 -156.5
t-191.5 -62zM313 155q64 0 107.5 78t43.5 169q0 48 -25.5 78.5t-69.5 30.5q-64 0 -107 -78t-43 -169q0 -48 25.5 -78.5t68.5 -30.5zM410 751l-50 19q23 50 80 50q31 0 52 -15.5t21 -45.5q0 -31 -22 -62h-65q22 25 25 49q2 23 -17 23q-14 0 -24 -18z" />
    <glyph glyph-name="uni1EDF" unicode="&#x1edf;" horiz-adv-x="514" 
d="M567 550q0 -40 -27 -80.5t-71 -65.5q32 -50 32 -120q0 -115 -75 -205.5t-192 -90.5q-107 0 -164.5 58.5t-57.5 152.5q0 73 31.5 140t94 111.5t140.5 44.5q98 0 157 -51q40 23 53 48q-2 -1 -8 -1q-22 0 -36.5 14t-14.5 40q0 29 22.5 50t51.5 21q26 0 45 -17.5t19 -48.5z
M242 137q39 0 63.5 49t24.5 96q0 64 -60 64q-38 0 -62.5 -49t-24.5 -95q0 -65 59 -65zM308 581l-50 19q23 50 80 50q31 0 52 -15.5t21 -45.5q0 -31 -22 -62h-65q22 25 25 49q2 23 -17 23q-14 0 -24 -18z" />
    <glyph glyph-name="uni1EE0" unicode="&#x1ee0;" horiz-adv-x="644" 
d="M304 -12q-127 0 -203 76t-76 195q0 79 24 153.5t67.5 134t112 95.5t151.5 36q144 0 222 -99q37 20 51 47q-2 -1 -8 -1q-22 0 -36.5 14t-14.5 40q0 29 22.5 50t51.5 21q26 0 45 -18t19 -49q0 -41 -28.5 -81.5t-74.5 -66.5q29 -56 29 -127q0 -107 -40 -201.5t-122.5 -156.5
t-191.5 -62zM313 155q64 0 107.5 78t43.5 169q0 48 -25.5 78.5t-69.5 30.5q-64 0 -107 -78t-43 -169q0 -48 25.5 -78.5t68.5 -30.5zM492 721q-35 0 -62 24t-42 24q-21 0 -30 -42h-85q14 67 43 100.5t79 33.5q35 0 62.5 -24t42.5 -24q20 0 30 42h85q-15 -67 -44 -100.5
t-79 -33.5z" />
    <glyph glyph-name="uni1EE1" unicode="&#x1ee1;" horiz-adv-x="514" 
d="M567 550q0 -40 -27 -80.5t-71 -65.5q32 -50 32 -120q0 -115 -75 -205.5t-192 -90.5q-107 0 -164.5 58.5t-57.5 152.5q0 73 31.5 140t94 111.5t140.5 44.5q98 0 157 -51q40 23 53 48q-2 -1 -8 -1q-22 0 -36.5 14t-14.5 40q0 29 22.5 50t51.5 21q26 0 45 -17.5t19 -48.5z
M242 137q39 0 63.5 49t24.5 96q0 64 -60 64q-38 0 -62.5 -49t-24.5 -95q0 -65 59 -65zM346 554q-35 0 -62 24t-42 24q-21 0 -30 -42h-85q14 67 43 100.5t79 33.5q35 0 62.5 -24t42.5 -24q20 0 30 42h85q-15 -67 -44 -100.5t-79 -33.5z" />
    <glyph glyph-name="uni1EE2" unicode="&#x1ee2;" horiz-adv-x="644" 
d="M304 -12q-127 0 -203 76t-76 195q0 79 24 153.5t67.5 134t112 95.5t151.5 36q144 0 222 -99q37 20 51 47q-2 -1 -8 -1q-22 0 -36.5 14t-14.5 40q0 29 22.5 50t51.5 21q26 0 45 -18t19 -49q0 -41 -28.5 -81.5t-74.5 -66.5q29 -56 29 -127q0 -107 -40 -201.5t-122.5 -156.5
t-191.5 -62zM313 155q64 0 107.5 78t43.5 169q0 48 -25.5 78.5t-69.5 30.5q-64 0 -107 -78t-43 -169q0 -48 25.5 -78.5t68.5 -30.5zM326 -112q0 -37 -29.5 -65.5t-66.5 -28.5q-32 0 -53.5 21.5t-21.5 53.5q0 37 29 65.5t67 28.5q32 0 53.5 -21.5t21.5 -53.5z" />
    <glyph glyph-name="uni1EE3" unicode="&#x1ee3;" horiz-adv-x="514" 
d="M567 550q0 -40 -27 -80.5t-71 -65.5q32 -50 32 -120q0 -115 -75 -205.5t-192 -90.5q-107 0 -164.5 58.5t-57.5 152.5q0 73 31.5 140t94 111.5t140.5 44.5q98 0 157 -51q40 23 53 48q-2 -1 -8 -1q-22 0 -36.5 14t-14.5 40q0 29 22.5 50t51.5 21q26 0 45 -17.5t19 -48.5z
M242 137q39 0 63.5 49t24.5 96q0 64 -60 64q-38 0 -62.5 -49t-24.5 -95q0 -65 59 -65zM262 -112q0 -37 -29.5 -65.5t-66.5 -28.5q-32 0 -53.5 21.5t-21.5 53.5q0 37 29 65.5t67 28.5q32 0 53.5 -21.5t21.5 -53.5z" />
    <glyph glyph-name="uni1EE4" unicode="&#x1ee4;" horiz-adv-x="650" 
d="M306 -12q-122 0 -192 60t-70 159q0 17 4 41l93 419h191l-94 -425q-3 -18 -3 -23q1 -27 21.5 -46.5t56.5 -19.5q78 0 97 89l94 425h191l-94 -422q-26 -123 -100.5 -190t-194.5 -67zM329 -112q0 -37 -29.5 -65.5t-66.5 -28.5q-32 0 -53.5 21.5t-21.5 53.5q0 37 29 65.5
t67 28.5q32 0 53.5 -21.5t21.5 -53.5z" />
    <glyph glyph-name="uni1EE5" unicode="&#x1ee5;" horiz-adv-x="534" 
d="M95 483h169l-64 -289q-3 -13 -3 -23q0 -16 12 -25t30 -9q36 0 69 42l68 304h169l-107 -483h-169l13 56q-64 -68 -139 -68q-60 0 -95 30t-35 78q0 1 4 33zM271 -112q0 -37 -29.5 -65.5t-66.5 -28.5q-32 0 -53.5 21.5t-21.5 53.5q0 37 29 65.5t67 28.5q32 0 53.5 -21.5
t21.5 -53.5z" />
    <glyph glyph-name="uni1EE6" unicode="&#x1ee6;" horiz-adv-x="650" 
d="M306 -12q-122 0 -192 60t-70 159q0 17 4 41l93 419h191l-94 -425q-3 -18 -3 -23q1 -27 21.5 -46.5t56.5 -19.5q78 0 97 89l94 425h191l-94 -422q-26 -123 -100.5 -190t-194.5 -67zM413 751l-50 19q23 50 80 50q31 0 52 -15.5t21 -45.5q0 -31 -22 -62h-65q22 25 25 49
q2 23 -17 23q-14 0 -24 -18z" />
    <glyph glyph-name="uni1EE7" unicode="&#x1ee7;" horiz-adv-x="534" 
d="M95 483h169l-64 -289q-3 -13 -3 -23q0 -16 12 -25t30 -9q36 0 69 42l68 304h169l-107 -483h-169l13 56q-64 -68 -139 -68q-60 0 -95 30t-35 78q0 1 4 33zM317 581l-50 19q23 50 80 50q31 0 52 -15.5t21 -45.5q0 -31 -22 -62h-65q22 25 25 49q2 23 -17 23q-14 0 -24 -18z
" />
    <glyph glyph-name="uni1EE8" unicode="&#x1ee8;" horiz-adv-x="650" 
d="M642 867l-165 -144h-111l132 144h144zM809 742q0 -50 -37.5 -95.5t-96.5 -67.5l-74 -334q-26 -123 -100.5 -190t-194.5 -67q-122 0 -192 60t-70 159q0 17 4 41l93 419h191l-94 -425q-3 -18 -3 -23q1 -27 21.5 -46.5t56.5 -19.5q78 0 97 89l94 425h191l-5 -23q29 20 40 40
q-2 -1 -8 -1q-22 0 -36.5 14t-14.5 40q0 29 22.5 50t51.5 21q26 0 45 -17.5t19 -48.5z" />
    <glyph glyph-name="uni1EE9" unicode="&#x1ee9;" horiz-adv-x="534" 
d="M549 700l-165 -144h-111l132 144h144zM620 568q0 -38 -23.5 -74.5t-63.5 -63.5l-95 -430h-169l13 56q-64 -68 -139 -68q-60 0 -95 30t-35 78q0 1 4 33l78 354h169l-64 -291q-3 -10 -3 -19q0 -36 44 -36q34 0 67 42l68 304h140q17 13 24 28q-2 -1 -8 -1q-22 0 -36.5 14
t-14.5 40q0 29 23 50t51 21q27 0 46 -18t19 -49z" />
    <glyph glyph-name="uni1EEA" unicode="&#x1eea;" horiz-adv-x="650" 
d="M491 723h-108l-102 144h142zM809 742q0 -50 -37.5 -95.5t-96.5 -67.5l-74 -334q-26 -123 -100.5 -190t-194.5 -67q-122 0 -192 60t-70 159q0 17 4 41l93 419h191l-94 -425q-3 -18 -3 -23q1 -27 21.5 -46.5t56.5 -19.5q78 0 97 89l94 425h191l-5 -23q29 20 40 40
q-2 -1 -8 -1q-22 0 -36.5 14t-14.5 40q0 29 22.5 50t51.5 21q26 0 45 -17.5t19 -48.5z" />
    <glyph glyph-name="uni1EEB" unicode="&#x1eeb;" horiz-adv-x="534" 
d="M397 556h-108l-102 144h142zM620 568q0 -38 -23.5 -74.5t-63.5 -63.5l-95 -430h-169l13 56q-64 -68 -139 -68q-60 0 -95 30t-35 78q0 1 4 33l78 354h169l-64 -291q-3 -10 -3 -19q0 -36 44 -36q34 0 67 42l68 304h140q17 13 24 28q-2 -1 -8 -1q-22 0 -36.5 14t-14.5 40
q0 29 23 50t51 21q27 0 46 -18t19 -49z" />
    <glyph glyph-name="uni1EEC" unicode="&#x1eec;" horiz-adv-x="650" 
d="M413 751l-50 19q23 50 80 50q31 0 52 -15.5t21 -45.5q0 -31 -22 -62h-65q22 25 25 49q2 23 -17 23q-14 0 -24 -18zM809 742q0 -50 -37.5 -95.5t-96.5 -67.5l-74 -334q-26 -123 -100.5 -190t-194.5 -67q-122 0 -192 60t-70 159q0 17 4 41l93 419h191l-94 -425
q-3 -18 -3 -23q1 -27 21.5 -46.5t56.5 -19.5q78 0 97 89l94 425h191l-5 -23q29 20 40 40q-2 -1 -8 -1q-22 0 -36.5 14t-14.5 40q0 29 22.5 50t51.5 21q26 0 45 -17.5t19 -48.5z" />
    <glyph glyph-name="uni1EED" unicode="&#x1eed;" horiz-adv-x="534" 
d="M317 581l-50 19q23 50 80 50q31 0 52 -15.5t21 -45.5q0 -31 -22 -62h-65q22 25 25 49q2 23 -17 23q-14 0 -24 -18zM620 568q0 -38 -23.5 -74.5t-63.5 -63.5l-95 -430h-169l13 56q-64 -68 -139 -68q-60 0 -95 30t-35 78q0 1 4 33l78 354h169l-64 -291q-3 -10 -3 -19
q0 -36 44 -36q34 0 67 42l68 304h140q17 13 24 28q-2 -1 -8 -1q-22 0 -36.5 14t-14.5 40q0 29 23 50t51 21q27 0 46 -18t19 -49z" />
    <glyph glyph-name="uni1EEE" unicode="&#x1eee;" horiz-adv-x="650" 
d="M809 742q0 -50 -37.5 -95.5t-96.5 -67.5l-74 -334q-26 -123 -100.5 -190t-194.5 -67q-122 0 -192 60t-70 159q0 17 4 41l93 419h191l-94 -425q-3 -18 -3 -23q1 -27 21.5 -46.5t56.5 -19.5q78 0 97 89l94 425h191l-5 -23q29 20 40 40q-2 -1 -8 -1q-22 0 -36.5 14t-14.5 40
q0 29 22.5 50t51.5 21q26 0 45 -17.5t19 -48.5zM495 721q-35 0 -62 24t-42 24q-21 0 -30 -42h-85q14 67 43 100.5t79 33.5q35 0 62.5 -24t42.5 -24q20 0 30 42h85q-15 -67 -44 -100.5t-79 -33.5z" />
    <glyph glyph-name="uni1EEF" unicode="&#x1eef;" horiz-adv-x="534" 
d="M620 568q0 -38 -23.5 -74.5t-63.5 -63.5l-95 -430h-169l13 56q-64 -68 -139 -68q-60 0 -95 30t-35 78q0 1 4 33l78 354h169l-64 -291q-3 -10 -3 -19q0 -36 44 -36q34 0 67 42l68 304h140q17 13 24 28q-2 -1 -8 -1q-22 0 -36.5 14t-14.5 40q0 29 23 50t51 21q27 0 46 -18
t19 -49zM379 554q-35 0 -62 24t-42 24q-21 0 -30 -42h-85q14 67 43 100.5t79 33.5q35 0 62.5 -24t42.5 -24q20 0 30 42h85q-15 -67 -44 -100.5t-79 -33.5z" />
    <glyph glyph-name="uni1EF0" unicode="&#x1ef0;" horiz-adv-x="650" 
d="M329 -112q0 -37 -29.5 -65.5t-66.5 -28.5q-32 0 -53.5 21.5t-21.5 53.5q0 37 29 65.5t67 28.5q32 0 53.5 -21.5t21.5 -53.5zM809 742q0 -50 -37.5 -95.5t-96.5 -67.5l-74 -334q-26 -123 -100.5 -190t-194.5 -67q-122 0 -192 60t-70 159q0 17 4 41l93 419h191l-94 -425
q-3 -18 -3 -23q1 -27 21.5 -46.5t56.5 -19.5q78 0 97 89l94 425h191l-5 -23q29 20 40 40q-2 -1 -8 -1q-22 0 -36.5 14t-14.5 40q0 29 22.5 50t51.5 21q26 0 45 -17.5t19 -48.5z" />
    <glyph glyph-name="uni1EF1" unicode="&#x1ef1;" horiz-adv-x="534" 
d="M271 -112q0 -37 -29.5 -65.5t-66.5 -28.5q-32 0 -53.5 21.5t-21.5 53.5q0 37 29 65.5t67 28.5q32 0 53.5 -21.5t21.5 -53.5zM620 568q0 -38 -23.5 -74.5t-63.5 -63.5l-95 -430h-169l13 56q-64 -68 -139 -68q-60 0 -95 30t-35 78q0 1 4 33l78 354h169l-64 -291
q-3 -10 -3 -19q0 -36 44 -36q34 0 67 42l68 304h140q17 13 24 28q-2 -1 -8 -1q-22 0 -36.5 14t-14.5 40q0 29 23 50t51 21q27 0 46 -18t19 -49z" />
    <glyph glyph-name="Ygrave" unicode="&#x1ef2;" horiz-adv-x="577" 
d="M330 0h-190l59 267l-118 400h198l44 -228l144 228h215l-294 -400zM456 723h-108l-102 144h142z" />
    <glyph glyph-name="ygrave" unicode="&#x1ef3;" horiz-adv-x="485" 
d="M-48 -182l54 141q12 -6 37 -6q29 0 42 21l14 23l-56 486h173l12 -280l138 280h183l-306 -545q-43 -77 -87 -105.5t-110 -28.5q-60 0 -94 14zM368 556h-108l-102 144h142z" />
    <glyph glyph-name="thinspace" unicode="&#x2009;" horiz-adv-x="41" 
 />
    <glyph glyph-name="endash" unicode="&#x2013;" horiz-adv-x="527" 
d="M481 172h-467l31 141h467z" />
    <glyph glyph-name="emdash" unicode="&#x2014;" horiz-adv-x="737" 
d="M691 172h-677l31 141h677z" />
    <glyph glyph-name="afii00208" unicode="&#x2015;" horiz-adv-x="527" 
d="M481 172h-467l31 141h467z" />
    <glyph glyph-name="quoteleft" unicode="&#x2018;" horiz-adv-x="277" 
d="M77 448q0 65 48.5 130t122.5 100l57 -59q-31 -13 -63 -35.5t-46 -48.5q4 1 12 1q33 0 55 -20.5t22 -59.5q0 -43 -34 -75.5t-77 -32.5q-40 0 -68.5 27t-28.5 73z" />
    <glyph glyph-name="quoteright" unicode="&#x2019;" horiz-adv-x="277" 
d="M318 577q0 -65 -48.5 -130t-122.5 -100l-57 59q32 14 63.5 36.5t45.5 47.5q-4 -1 -13 -1q-33 0 -55 21t-22 60q0 43 34.5 75t77.5 32q40 0 68.5 -26.5t28.5 -73.5z" />
    <glyph glyph-name="quotesinglbase" unicode="&#x201a;" horiz-adv-x="277" 
d="M210 91q0 -65 -48 -130t-123 -100l-57 59q31 13 63 35.5t46 48.5q-3 -1 -12 -1q-33 0 -55 21t-22 60q0 43 34.5 75t77.5 32q39 0 67.5 -26.5t28.5 -73.5z" />
    <glyph glyph-name="quotereversed" unicode="&#x201b;" horiz-adv-x="277" 
d="M100 520q0 73 40.5 115t89.5 42q41 0 66 -26t25 -63q0 -44 -29.5 -71.5t-74.5 -27.5q-20 0 -34 7q7 -61 66 -112l-69 -41q-80 83 -80 177z" />
    <glyph glyph-name="quotedblleft" unicode="&#x201c;" horiz-adv-x="515" 
d="M314 448q0 65 48.5 130t122.5 100l57 -59q-31 -13 -63 -35.5t-46 -48.5q4 1 13 1q33 0 55 -20.5t22 -59.5q0 -43 -34.5 -75.5t-77.5 -32.5q-40 0 -68.5 27t-28.5 73zM77 448q0 65 48 130t123 100l57 -59q-31 -13 -63 -35.5t-46 -48.5q3 1 12 1q33 0 55 -20.5t22 -59.5
q0 -43 -34.5 -75.5t-77.5 -32.5q-39 0 -67.5 27t-28.5 73z" />
    <glyph glyph-name="quotedblright" unicode="&#x201d;" horiz-adv-x="515" 
d="M318 577q0 -65 -48.5 -130t-122.5 -100l-57 59q32 14 63.5 36.5t45.5 47.5q-4 -1 -13 -1q-33 0 -55 21t-22 60q0 43 34.5 75t77.5 32q40 0 68.5 -26.5t28.5 -73.5zM555 577q0 -65 -48 -130t-123 -100l-57 59q32 14 63.5 36.5t45.5 47.5q-3 -1 -12 -1q-33 0 -55 21t-22 60
q0 43 34.5 75t77.5 32q39 0 67.5 -26.5t28.5 -73.5z" />
    <glyph glyph-name="quotedblbase" unicode="&#x201e;" horiz-adv-x="515" 
d="M210 91q0 -65 -48 -130t-123 -100l-57 59q31 13 63 35.5t46 48.5q-3 -1 -12 -1q-33 0 -55 21t-22 60q0 43 34.5 75t77.5 32q39 0 67.5 -26.5t28.5 -73.5zM448 91q0 -65 -48.5 -130t-122.5 -100l-57 59q31 13 63 35.5t46 48.5q-3 -1 -13 -1q-33 0 -55 21t-22 60
q0 43 34.5 75t77.5 32q40 0 68.5 -26.5t28.5 -73.5z" />
    <glyph glyph-name="dagger" unicode="&#x2020;" horiz-adv-x="288" 
d="M330 515l-88 4l-38 -192h-84l47 192l-90 -4l17 77l89 -3l15 88h84l-24 -88l89 3z" />
    <glyph glyph-name="daggerdbl" unicode="&#x2021;" horiz-adv-x="288" 
d="M347 592l-17 -77l-88 4l-40 -179l90 4l-17 -77l-88 3l-16 -90h-84l24 90l-89 -3l17 77l87 -4l40 179l-89 -4l17 77l88 -3l16 88h84l-24 -88z" />
    <glyph glyph-name="bullet" unicode="&#x2022;" horiz-adv-x="358" 
d="M308 255q0 -57 -42.5 -98t-100.5 -41q-49 0 -81.5 32.5t-32.5 81.5q0 57 42.5 98.5t99.5 41.5q49 0 82 -33t33 -82z" />
    <glyph glyph-name="ellipsis" unicode="&#x2026;" horiz-adv-x="828" 
d="M94 -13q-38 0 -65 28t-27 66q0 45 33 77.5t78 32.5q39 0 65.5 -27.5t26.5 -66.5q0 -44 -33 -77t-78 -33zM370 -13q-38 0 -65 28t-27 66q0 45 33 77.5t78 32.5q39 0 65.5 -27.5t26.5 -66.5q0 -44 -33 -77t-78 -33zM646 -13q-38 0 -65 28t-27 66q0 45 33 77.5t78 32.5
q39 0 65.5 -27.5t26.5 -66.5q0 -44 -33 -77t-78 -33z" />
    <glyph glyph-name="perthousand" unicode="&#x2030;" horiz-adv-x="1027" 
d="M155 0h-78l502 667h79zM485 -12q-63 0 -105 37.5t-42 97.5q0 86 52 143t125 57q63 0 105 -37.5t42 -97.5q0 -85 -52.5 -142.5t-124.5 -57.5zM490 88q24 0 42.5 26t18.5 64q0 45 -42 45q-24 0 -42.5 -26t-18.5 -63q0 -21 11.5 -33.5t30.5 -12.5zM218 342q-63 0 -105 37.5
t-42 97.5q0 85 52.5 142.5t125.5 57.5q63 0 105 -37.5t42 -97.5q0 -85 -52.5 -142.5t-125.5 -57.5zM224 442q24 0 42.5 26t18.5 64q0 45 -42 45q-24 0 -42.5 -26t-18.5 -64q0 -45 42 -45zM817 -12q-63 0 -105 37.5t-42 97.5q0 85 52.5 142.5t124.5 57.5q63 0 105 -37.5
t42 -97.5q0 -85 -52.5 -142.5t-124.5 -57.5zM823 88q24 0 42.5 26t18.5 64q0 21 -11 33t-31 12q-24 0 -42.5 -26t-18.5 -63q0 -46 42 -46z" />
    <glyph glyph-name="guilsinglleft" unicode="&#x2039;" horiz-adv-x="324" 
d="M250 63h-136l-85 180l165 177h142l-169 -181z" />
    <glyph glyph-name="guilsinglright" unicode="&#x203a;" horiz-adv-x="324" 
d="M75 420h136l85 -180l-165 -177h-142l169 182z" />
    <glyph glyph-name="uni203E" unicode="&#x203e;" horiz-adv-x="316" 
d="M384 553h-315l20 92h315z" />
    <glyph glyph-name="fraction" unicode="&#x2044;" horiz-adv-x="166" 
d="M393 667l-503 -667h-79l503 667h79z" />
    <glyph glyph-name="zerosuperior" unicode="&#x2070;" horiz-adv-x="365" 
d="M431 672q0 -39 -12 -82t-34.5 -83.5t-62.5 -66.5t-90 -26q-70 0 -110.5 42t-40.5 114q0 39 12 81.5t34.5 83t62.5 66.5t90 26q70 0 110.5 -41.5t40.5 -113.5zM309 684q0 45 -34 45q-30 0 -51 -61.5t-21 -110.5q0 -45 34 -45q30 0 51 62t21 110z" />
    <glyph glyph-name="foursuperior" unicode="&#x2074;" horiz-adv-x="365" 
d="M399 495h-39l-16 -74h-124l16 74h-176l20 88l190 238h162l-50 -229h39zM258 592l24 109l-86 -109h62z" />
    <glyph glyph-name="fivesuperior" unicode="&#x2075;" horiz-adv-x="365" 
d="M409 580q0 -70 -47.5 -118t-130.5 -48q-111 0 -170 66l80 71q35 -39 87 -39q26 0 40 14.5t14 33.5q0 36 -45 36q-38 0 -60 -28l-82 26l51 227h293l-21 -98h-170l-14 -64q31 26 68 26q46 0 76.5 -28t30.5 -77z" />
    <glyph glyph-name="sixsuperior" unicode="&#x2076;" horiz-adv-x="365" 
d="M413 579q0 -70 -47.5 -117.5t-121.5 -47.5q-75 0 -119 40.5t-44 113.5q0 105 63.5 182t159.5 77q81 0 133 -45l-71 -80q-24 27 -66 27q-35 0 -58 -23.5t-28 -52.5v-3l-1 -2q36 46 87 46q47 0 80 -30.5t33 -84.5zM286 562q0 18 -12.5 27.5t-31.5 9.5q-22 0 -39 -20
q-2 -9 -2 -25q0 -18 10.5 -30t29.5 -12t32 16t13 34z" />
    <glyph glyph-name="sevensuperior" unicode="&#x2077;" horiz-adv-x="339" 
d="M423 736l-192 -315h-129l192 302h-183l22 98h309z" />
    <glyph glyph-name="eightsuperior" unicode="&#x2078;" horiz-adv-x="365" 
d="M404 530q0 -51 -40.5 -83.5t-119.5 -32.5q-81 0 -130.5 27t-49.5 82q0 40 30 72.5t77 40.5q-57 23 -57 79q0 54 45.5 83t109.5 29q68 0 120 -26.5t52 -79.5q0 -38 -27 -67t-72 -36q26 -11 44 -35t18 -53zM313 705q0 13 -11.5 21t-29.5 8q-17 0 -28 -10t-11 -26
q0 -24 33 -34q47 9 47 41zM284 545q0 15 -12.5 26t-23.5 13q-21 -2 -39 -14.5t-18 -30.5q0 -31 46 -31q22 0 34.5 10.5t12.5 26.5z" />
    <glyph glyph-name="ninesuperior" unicode="&#x2079;" horiz-adv-x="365" 
d="M101 664q0 69 47.5 116.5t121.5 47.5q75 0 119 -40t44 -113q0 -105 -63.5 -182.5t-159.5 -77.5q-80 0 -134 46l71 79q25 -27 67 -27q34 0 57.5 23.5t28.5 53.5l1 4q-36 -46 -87 -46q-47 0 -80 31t-33 85zM228 681q0 -18 12.5 -27.5t31.5 -9.5q22 0 39 20q2 8 2 25
t-10.5 29t-29.5 12t-32 -15.5t-13 -33.5z" />
    <glyph glyph-name="parenleftsuperior" unicode="&#x207d;" horiz-adv-x="206" 
d="M223 386l-79 -30q-48 72 -48 186q0 96 45.5 187t119.5 157l66 -29q-60 -80 -91 -175.5t-31 -184.5q0 -65 18 -111z" />
    <glyph glyph-name="parenrightsuperior" unicode="&#x207e;" horiz-adv-x="207" 
d="M148 857l79 30q48 -76 48 -186q0 -96 -46 -187t-120 -158l-65 30q59 79 90.5 175t31.5 184q0 68 -18 112z" />
    <glyph glyph-name="nsuperior" unicode="&#x207f;" horiz-adv-x="380" 
d="M363 326h-119l41 185q2 10 2 15q0 22 -28 22q-19 0 -44 -28l-43 -194h-119l69 314h119l-7 -35q37 43 91 43q42 0 66.5 -20t24.5 -54q0 -10 -3 -23z" />
    <glyph glyph-name="zeroinferior" unicode="&#x2080;" horiz-adv-x="365" 
d="M315 105q0 -39 -12 -82t-34.5 -83.5t-62.5 -66.5t-90 -26q-70 0 -110.5 42t-40.5 114q0 39 12 81.5t34.5 83t62.5 66.5t90 26q70 0 110.5 -41.5t40.5 -113.5zM193 117q0 45 -34 45q-30 0 -51 -61.5t-21 -110.5q0 -45 34 -45q30 0 51 62t21 110z" />
    <glyph glyph-name="oneinferior" unicode="&#x2081;" horiz-adv-x="305" 
d="M172 -146h-125l52 239l-72 -58l-55 74l181 145h107z" />
    <glyph glyph-name="twoinferior" unicode="&#x2082;" horiz-adv-x="365" 
d="M260 -146h-313l22 95q146 91 185 123t39 57q0 33 -47 33q-54 0 -95 -41l-52 82q65 57 156 57q73 0 119 -32t46 -86q0 -48 -41 -89t-141 -101h144z" />
    <glyph glyph-name="threeinferior" unicode="&#x2083;" horiz-adv-x="365" 
d="M286 -32q0 -48 -44 -84.5t-114 -36.5q-59 0 -107 19t-71 53l81 75q33 -49 90 -49q22 0 33 10.5t11 24.5q0 28 -60 28q-27 0 -34 -1l21 97q7 -1 52 -1q50 0 50 31q0 28 -54 28q-51 0 -86 -32l-48 74q59 56 146 56q77 0 122.5 -28.5t45.5 -78.5q0 -36 -27.5 -67t-77.5 -34
q71 -19 71 -84z" />
    <glyph glyph-name="fourinferior" unicode="&#x2084;" horiz-adv-x="365" 
d="M283 -72h-39l-16 -74h-124l16 74h-176l20 88l190 238h162l-50 -229h39zM142 25l24 109l-86 -109h62z" />
    <glyph glyph-name="fiveinferior" unicode="&#x2085;" horiz-adv-x="365" 
d="M293 13q0 -71 -47.5 -118.5t-130.5 -47.5q-111 0 -170 66l80 71q35 -39 87 -39q26 0 40 14.5t14 33.5q0 36 -45 36q-38 0 -60 -28l-82 26l51 227h293l-21 -98h-170l-14 -64q31 26 68 26q46 0 76.5 -28t30.5 -77z" />
    <glyph glyph-name="sixinferior" unicode="&#x2086;" horiz-adv-x="365" 
d="M297 12q0 -70 -47.5 -117.5t-121.5 -47.5q-75 0 -119 40.5t-44 113.5q0 105 63.5 182t159.5 77q81 0 133 -45l-71 -80q-24 27 -66 27q-35 0 -58 -23.5t-28 -52.5v-4l-1 -1q36 46 87 46q47 0 80 -30.5t33 -84.5zM170 -5q0 18 -12.5 27.5t-31.5 9.5q-22 0 -39 -20
q-2 -9 -2 -25q0 -18 10.5 -30t29.5 -12t32 16t13 34z" />
    <glyph glyph-name="seveninferior" unicode="&#x2087;" horiz-adv-x="339" 
d="M307 169l-192 -315h-129l192 302h-183l22 98h309z" />
    <glyph glyph-name="eightinferior" unicode="&#x2088;" horiz-adv-x="365" 
d="M288 -37q0 -51 -40.5 -83.5t-119.5 -32.5q-81 0 -130.5 27t-49.5 82q0 40 30 72.5t77 40.5q-57 23 -57 79q0 54 45.5 83t109.5 29q68 0 120 -26.5t52 -79.5q0 -38 -27 -67t-72 -36q26 -11 44 -35t18 -53zM197 138q0 13 -11.5 21t-29.5 8q-17 0 -28 -10t-11 -26
q0 -24 33 -34q47 9 47 41zM168 -22q0 15 -12.5 26t-23.5 13q-21 -2 -39 -14.5t-18 -30.5q0 -31 46 -31q22 0 34.5 10.5t12.5 26.5z" />
    <glyph glyph-name="nineinferior" unicode="&#x2089;" horiz-adv-x="365" 
d="M-15 97q0 69 47.5 116.5t121.5 47.5q75 0 119 -40t44 -113q0 -105 -63.5 -182.5t-159.5 -77.5q-80 0 -134 46l71 79q25 -27 67 -27q34 0 57.5 23.5t28.5 53.5l1 4q-36 -46 -87 -46q-47 0 -80 31t-33 85zM112 114q0 -18 12.5 -27.5t31.5 -9.5q22 0 39 20q2 8 2 25
t-10.5 29t-29.5 12t-32 -15.5t-13 -33.5z" />
    <glyph glyph-name="parenleftinferior" unicode="&#x208d;" horiz-adv-x="206" 
d="M98 -181l-79 -30q-48 72 -48 186q0 95 45.5 186.5t119.5 157.5l66 -29q-60 -80 -91 -175.5t-31 -184.5q0 -64 18 -111z" />
    <glyph glyph-name="parenrightinferior" unicode="&#x208e;" horiz-adv-x="207" 
d="M23 290l79 30q48 -76 48 -186q0 -96 -46 -187t-120 -158l-65 30q59 79 90.5 175t31.5 184q0 68 -18 112z" />
    <glyph glyph-name="colonmonetary" unicode="&#x20a1;" horiz-adv-x="587" 
d="M310 -12q-4 0 -11.5 0.5t-11.5 0.5l-43 -89h-92l51 105q-16 5 -33 13l-57 -118h-92l81 168q-71 74 -71 191q0 110 41 204.5t123.5 154.5t190.5 60h14l44 90h92l-52 -106q15 -5 33 -14l59 120h92l-85 -174q46 -55 60 -140l-179 -46q-5 45 -28 74t-60 29q-65 0 -108 -78
t-43 -169q0 -49 25.5 -79t68.5 -30q30 0 59 21.5t45 56.5l150 -79q-47 -83 -116 -124.5t-147 -41.5z" />
    <glyph glyph-name="frenchfranc" unicode="&#x20a3;" horiz-adv-x="504" 
d="M192 0h-190l19 87h-48l21 92h48l108 488h421l-37 -165h-231l-18 -82h225l-37 -165h-225l-17 -76h87l-20 -92h-87z" />
    <glyph glyph-name="lira" unicode="&#x20a4;" horiz-adv-x="525" 
d="M49 338l17 80h24q-2 9 -2 31q0 100 79.5 164t183.5 64q90 0 151.5 -40t73.5 -116l-166 -58q-6 62 -53 62q-29 0 -47.5 -30.5t-18.5 -71.5v-5h115l-17 -80h-87v-6q0 -16 -3 -33h81l-18 -80h-92q-21 -33 -47 -48q24 7 39 7q24 0 58 -11.5t55 -11.5q38 0 69 29l25 -151
q-43 -45 -119 -45q-46 0 -114 21t-91 21q-45 0 -99 -37l-29 125q72 39 94 101h-89l18 80h79l-9 39h-61z" />
    <glyph glyph-name="uni20A6" unicode="&#x20a6;" horiz-adv-x="658" 
d="M548 0h-179l-108 312l-69 -312h-190l49 223h-47l20 91h47l10 44h-47l20 92h48l48 217h192l100 -292l64 292h189l-48 -217h45l-20 -92h-46l-9 -44h45l-20 -91h-45z" />
    <glyph glyph-name="peseta" unicode="&#x20a7;" horiz-adv-x="625" 
d="M192 0h-190l83 376h-47l20 92h47l44 199h256q95 0 151 -54t60 -145h51l-20 -92h-41q-22 -91 -94.5 -145.5t-182.5 -54.5h-98zM341 341q37 0 61 35h-128l-7 -35h74zM302 502l-8 -34h120q-13 34 -45 34h-67z" />
    <glyph glyph-name="rupee" unicode="&#x20a8;" horiz-adv-x="993" 
d="M751 -12q-64 0 -124 23.5t-96 59.5l88 107q21 -24 61 -44t78 -20q17 0 27.5 6.5t10.5 17.5q0 13 -20.5 23t-49 20.5t-57.5 25t-49.5 43t-20.5 68.5q0 72 53.5 124.5t147.5 52.5q122 0 200 -75l-81 -104q-17 19 -51 36t-67 17q-17 0 -27 -7t-10 -17t20.5 -19t50 -19.5
t59 -25.5t50 -44.5t20.5 -68.5q0 -76 -58 -128t-155 -52zM515 0h-203l-27 216h-54l-48 -216h-190l148 667h266q86 0 145 -55t59 -140q0 -79 -42.5 -144.5t-99.5 -87.5zM267 381h75q32 0 52.5 20t20.5 51q0 24 -14.5 37t-35.5 13h-71z" />
    <glyph glyph-name="uni20A9" unicode="&#x20a9;" horiz-adv-x="838" 
d="M623 0h-194l16 362l-143 -362h-193l-3 223h-96l21 91h73v44h-64l20 92h42l-3 217h199l-22 -385l161 385h143l-7 -385l147 385h206l-99 -217h38l-20 -92h-59l-20 -44h70l-21 -91h-91z" />
    <glyph glyph-name="afii57636" unicode="&#x20aa;" horiz-adv-x="746" 
d="M470 0h-308l82 375h140l-54 -244h139q40 0 58 19t28 62l75 338h140l-80 -358q-21 -96 -73 -144t-147 -48zM110 550h235q91 0 151 -38.5t60 -120.5q0 -21 -7 -63l-34 -154h-141l36 159q4 20 4 28q0 58 -74 58h-119l-92 -419h-141z" />
    <glyph glyph-name="dong" unicode="&#x20ab;" horiz-adv-x="536" 
d="M341 -194h-315l20 92h315zM238 495q88 0 121 -65l21 93h-121l22 92h119l12 52h168l-12 -52h51l-22 -92h-49l-116 -523h-168l12 52q-51 -64 -118 -64q-70 0 -109 47t-39 136q0 72 23.5 143.5t77.5 126t127 54.5zM274 346q-39 0 -64.5 -47.5t-25.5 -96.5q0 -30 16.5 -47.5
t43.5 -17.5q32 0 58 33l32 143q-19 33 -60 33z" />
    <glyph glyph-name="Euro" unicode="&#x20ac;" horiz-adv-x="605" 
d="M330 -12q-113 0 -188 61.5t-88 166.5h-48l22 99h26q1 13 5 39h-23l23 100h30q42 101 124.5 162.5t192.5 61.5q62 0 110 -19.5t77.5 -53t46.5 -71t23 -80.5l-179 -46q-5 45 -28 74t-60 29q-53 0 -95 -57h133l-23 -100h-154q-4 -13 -8 -39h154l-22 -99h-128q21 -61 86 -61
q30 0 59 21.5t45 56.5l150 -79q-47 -83 -116 -124.5t-147 -41.5z" />
    <glyph glyph-name="afii61289" unicode="&#x2113;" horiz-adv-x="531" 
d="M263 472l-24 -108l103 66q26 17 39 26.5t24.5 25t11.5 31.5q0 21 -15.5 33t-42.5 12q-76 0 -96 -86zM407 334l-204 -135l-6 -28q0 -1 -1.5 -7t-1.5 -10q0 -12 10.5 -20t25.5 -8q14 0 21 6v-128q-20 -16 -78 -16q-74 0 -115 29t-41 82q0 23 5 45l75 338q43 195 277 195
q91 0 149 -40.5t58 -104.5q0 -29 -15.5 -57.5t-46.5 -56t-53 -44t-59 -40.5z" />
    <glyph glyph-name="afii61352" unicode="&#x2116;" horiz-adv-x="1007" 
d="M863 350q-72 0 -113 39t-41 101q0 78 53.5 134t130.5 56q72 0 113 -39t41 -100q0 -79 -53.5 -135t-130.5 -56zM867 445q20 0 34 19.5t19.5 41t5.5 39.5q0 39 -37 39q-28 0 -43 -34.5t-15 -65.5q0 -39 36 -39zM539 0h-179l-108 312l-69 -312h-190l148 667h192l100 -292
l64 292h189z" />
    <glyph glyph-name="published" unicode="&#x2117;" horiz-adv-x="778" 
d="M755 334q0 -142 -102 -243.5t-245 -101.5q-142 0 -243 101t-101 244t101 244t243 101q143 0 245 -101.5t102 -243.5zM713 334q0 125 -90 214.5t-215 89.5q-124 0 -213 -89.5t-89 -214.5t89 -214.5t213 -89.5q125 0 215 89.5t90 214.5zM599 427q0 -57 -43 -95t-107 -38
h-119l-36 -163h-52l89 405h142q51 0 88.5 -29t37.5 -80zM543 424q0 29 -20 47.5t-57 18.5h-92l-34 -150h117q37 0 61.5 25t24.5 59z" />
    <glyph glyph-name="servicemark" unicode="&#x2120;" horiz-adv-x="425" 
d="M433 447h-28l40 182l-105 -182h-8l-25 182l-40 -182h-28l48 220h42l20 -158l88 158h44zM214 512q0 -30 -21.5 -51t-54.5 -21q-51 0 -73 32l20 21q18 -26 53 -26q18 0 31 12t13 28q0 17 -20.5 31t-41 29t-20.5 37q0 29 20.5 49t52.5 20q46 0 65 -26l-20 -21q-15 22 -47 22
q-17 0 -28 -10.5t-11 -26.5q0 -12 13 -23.5t28 -19.5t28 -22.5t13 -33.5z" />
    <glyph glyph-name="trademark" unicode="&#x2122;" horiz-adv-x="414" 
d="M424 447h-28l40 182l-105 -182h-8l-25 182l-40 -182h-28l48 220h43l20 -158l88 158h43zM237 641h-52l-43 -194h-28l43 194h-52l5 26h132z" />
    <glyph glyph-name="Omega" unicode="&#x2126;" horiz-adv-x="643" 
d="M14 165h108q-81 73 -81 187q0 56 22 112.5t62.5 104.5t105.5 78.5t142 30.5q124 0 207 -63.5t83 -178.5q0 -88 -44 -157.5t-109 -113.5h84l-37 -165h-253l37 165q54 25 87.5 102t33.5 136q0 49 -24 78t-72 29q-42 0 -77 -40t-52 -95t-17 -108q0 -72 47 -102l-37 -165
h-253z" />
    <glyph glyph-name="estimated" unicode="&#x212e;" horiz-adv-x="842" 
d="M829 324h-632q-4 0 -4 -5v-190q0 -15 9 -23q98 -103 240 -103q151 0 250 115h57q-54 -63 -135 -99.5t-174 -36.5q-161 0 -275.5 103t-114.5 248t114.5 248t275.5 103t275.5 -103t114.5 -248zM687 349v191q0 14 -10 24q-97 99 -236 99t-238 -102q-10 -10 -10 -24v-188
q0 -6 5 -6h485q4 0 4 6z" />
    <glyph glyph-name="onethird" unicode="&#x2153;" horiz-adv-x="843" 
d="M263 267h-125l52 239l-72 -58l-55 74l181 145h107zM706 667l-503 -667h-79l503 667h79zM797 114q0 -48 -44 -84.5t-114 -36.5q-59 0 -107 19t-71 53l81 75q33 -49 90 -49q22 0 33 10.5t11 24.5q0 28 -60 28q-27 0 -34 -1l21 97q7 -1 52 -1q50 0 50 31q0 28 -54 28
q-51 0 -86 -32l-48 74q59 56 146 56q77 0 122.5 -28.5t45.5 -78.5q0 -36 -27.5 -67t-77.5 -34q71 -19 71 -84z" />
    <glyph glyph-name="twothirds" unicode="&#x2154;" horiz-adv-x="894" 
d="M351 267h-313l22 95q146 91 185 123t39 57q0 33 -47 33q-54 0 -95 -41l-52 82q65 57 156 57q73 0 119 -32t46 -86q0 -48 -41 -89t-141 -101h144zM758 667l-503 -667h-79l503 667h79zM848 114q0 -48 -44 -84.5t-114 -36.5q-59 0 -107 19t-71 53l81 75q33 -49 90 -49
q22 0 33 10.5t11 24.5q0 28 -60 28q-27 0 -34 -1l21 97q7 -1 52 -1q50 0 50 31q0 28 -54 28q-51 0 -86 -32l-48 74q59 56 146 56q77 0 122.5 -28.5t45.5 -78.5q0 -36 -27.5 -67t-77.5 -34q71 -19 71 -84z" />
    <glyph glyph-name="oneeighth" unicode="&#x215b;" horiz-adv-x="843" 
d="M263 267h-125l52 239l-72 -58l-55 74l181 145h107zM799 109q0 -51 -40.5 -83.5t-119.5 -32.5q-81 0 -130.5 27t-49.5 82q0 40 30 72.5t77 40.5q-57 23 -57 79q0 54 45.5 83t109.5 29q68 0 120 -26.5t52 -79.5q0 -38 -27 -67t-72 -36q26 -11 44 -35t18 -53zM708 284
q0 13 -11.5 21t-29.5 8q-17 0 -28 -10t-11 -26q0 -24 33 -34q47 9 47 41zM679 124q0 15 -12.5 26t-23.5 13q-21 -2 -39 -14.5t-18 -30.5q0 -31 46 -31q22 0 34.5 10.5t12.5 26.5zM706 667l-503 -667h-79l503 667h79z" />
    <glyph glyph-name="threeeighths" unicode="&#x215c;" horiz-adv-x="894" 
d="M850 109q0 -51 -40.5 -83.5t-119.5 -32.5q-81 0 -130.5 27t-49.5 82q0 40 30 72.5t77 40.5q-57 23 -57 79q0 54 45.5 83t109.5 29q68 0 120 -26.5t52 -79.5q0 -38 -27 -67t-72 -36q26 -11 44 -35t18 -53zM759 284q0 13 -11.5 21t-29.5 8q-17 0 -28 -10t-11 -26
q0 -24 33 -34q47 9 47 41zM730 124q0 15 -12.5 26t-23.5 13q-21 -2 -39 -14.5t-18 -30.5q0 -31 46 -31q22 0 34.5 10.5t12.5 26.5zM758 667l-503 -667h-79l503 667h79zM377 381q0 -48 -44 -84.5t-114 -36.5q-59 0 -107 19t-71 53l81 75q33 -49 90 -49q22 0 33 10.5t11 24.5
q0 28 -60 28q-27 0 -34 -1l21 97q7 -1 52 -1q50 0 50 31q0 28 -54 28q-51 0 -86 -32l-48 74q59 56 146 56q77 0 122.5 -28.5t45.5 -78.5q0 -36 -27.5 -67t-77.5 -34q71 -19 71 -84z" />
    <glyph glyph-name="fiveeighths" unicode="&#x215d;" horiz-adv-x="885" 
d="M841 109q0 -51 -40.5 -83.5t-119.5 -32.5q-81 0 -130.5 27t-49.5 82q0 40 30 72.5t77 40.5q-57 23 -57 79q0 54 45.5 83t109.5 29q68 0 120 -26.5t52 -79.5q0 -38 -27 -67t-72 -36q26 -11 44 -35t18 -53zM750 284q0 13 -11.5 21t-29.5 8q-17 0 -28 -10t-11 -26
q0 -24 33 -34q47 9 47 41zM721 124q0 15 -12.5 26t-23.5 13q-21 -2 -39 -14.5t-18 -30.5q0 -31 46 -31q22 0 34.5 10.5t12.5 26.5zM384 426q0 -70 -48 -118t-130 -48q-111 0 -170 66l80 71q35 -39 87 -39q26 0 40 14.5t14 33.5q0 36 -45 36q-38 0 -60 -28l-82 26l51 227h293
l-21 -98h-170l-14 -64q31 26 68 26q46 0 76.5 -28t30.5 -77zM748 667l-503 -667h-79l503 667h79z" />
    </font>
</defs>
</svg>
