<?xml version="1.0" standalone="no"?>
<!DOCTYPE svg PUBLIC "-//W3C//DTD SVG 1.1//EN" "http://www.w3.org/Graphics/SVG/1.1/DTD/svg11.dtd" >
<svg xmlns="http://www.w3.org/2000/svg" xmlns:xlink="http://www.w3.org/1999/xlink" version="1.1">
<metadata>
Created by FontForge 20170731 at Tue Nov 30 17:33:58 2010
 By ,,,
Copyright (c) Mark Simonson, 2005. All rights reserved.
</metadata>
<defs>
<font id="ProximaNovaCond-Bold" horiz-adv-x="479" >
  <font-face 
    font-family="Proxima Nova Cn Rg"
    font-weight="700"
    font-stretch="normal"
    units-per-em="1000"
    panose-1="2 0 5 6 3 0 0 2 0 4"
    ascent="790"
    descent="-210"
    x-height="483"
    cap-height="667"
    bbox="-135 -286 985 889"
    underline-thickness="20"
    underline-position="-173"
    unicode-range="U+000D-FB04"
  />
<missing-glyph horiz-adv-x="469" 
d="M410 -90h-351v842h351v-842zM378 -60v782h-288v-782h288z" />
    <glyph glyph-name="f_f_j" unicode="ffj" horiz-adv-x="805" 
d="M485 0h-121v378h-62v105h62v38q0 73 38.5 114.5t102.5 41.5q48 0 80 -17l-22 -91q-11 9 -30 9q-22 0 -35 -15t-13 -42v-38h79v-105h-79v-378zM691 537q-29 0 -50.5 21t-21.5 51t21.5 51.5t50.5 21.5q30 0 51 -21.5t21 -51.5t-21 -51t-51 -21zM599 -196q-56 0 -92 29
l30 91q19 -19 45 -19q49 0 49 67v511h120v-511q0 -168 -152 -168zM197 0h-121v378h-62v105h62v38q0 73 39 114.5t107 41.5q69 0 106 -36l-39 -81q-18 18 -43 18q-49 0 -49 -57v-38h79v-105h-79v-378z" />
    <glyph glyph-name="f_j" unicode="fj" horiz-adv-x="517" 
d="M197 0h-121v378h-62v105h62v38q0 73 38.5 114.5t102.5 41.5q48 0 80 -17l-22 -91q-11 9 -30 9q-22 0 -35 -15t-13 -42v-38h79v-105h-79v-378zM402 537q-29 0 -50.5 21t-21.5 51t21.5 51.5t50.5 21.5q30 0 51 -21.5t21 -51.5t-21 -51t-51 -21zM310 -196q-56 0 -92 29
l30 91q19 -19 45 -19q49 0 49 67v511h120v-511q0 -168 -152 -168z" />
    <glyph glyph-name="f_f" unicode="ff" horiz-adv-x="577" 
d="M197 0h-121v378h-62v105h62v38q0 73 39 114.5t107 41.5q69 0 106 -36l-39 -81q-18 18 -43 18q-49 0 -49 -57v-38h79v-105h-79v-378zM485 0h-121v378h-62v105h62v38q0 73 39 114.5t107 41.5q69 0 106 -36l-39 -81q-18 18 -43 18q-49 0 -49 -57v-38h79v-105h-79v-378z" />
    <glyph glyph-name="fi" unicode="fi" horiz-adv-x="517" 
d="M197 0h-121v378h-62v105h62v38q0 73 38.5 114.5t102.5 41.5q48 0 80 -17l-22 -91q-11 9 -30 9q-22 0 -35 -15t-13 -42v-38h79v-105h-79v-378zM402 537q-29 0 -50.5 21t-21.5 51t21.5 51.5t50.5 21.5q30 0 51 -21.5t21 -51.5t-21 -51t-51 -21zM462 0h-120v483h120v-483z
" />
    <glyph glyph-name="fl" unicode="fl" horiz-adv-x="517" 
d="M197 0h-121v378h-62v105h62v38q0 73 38.5 114.5t102.5 41.5q48 0 80 -17l-22 -91q-11 9 -30 9q-22 0 -35 -15t-13 -42v-38h79v-105h-79v-378zM462 0h-120v667h120v-667z" />
    <glyph glyph-name="f_f_i" unicode="ffi" horiz-adv-x="805" 
d="M485 0h-121v378h-62v105h62v38q0 73 38.5 114.5t102.5 41.5q48 0 80 -17l-22 -91q-11 9 -30 9q-22 0 -35 -15t-13 -42v-38h79v-105h-79v-378zM691 537q-29 0 -50.5 21t-21.5 51t21.5 51.5t50.5 21.5q30 0 51 -21.5t21 -51.5t-21 -51t-51 -21zM751 0h-120v483h120v-483z
M197 0h-121v378h-62v105h62v38q0 73 39 114.5t107 41.5q69 0 106 -36l-39 -81q-18 18 -43 18q-49 0 -49 -57v-38h79v-105h-79v-378z" />
    <glyph glyph-name="f_f_l" unicode="ffl" horiz-adv-x="805" 
d="M485 0h-121v378h-62v105h62v38q0 73 38.5 114.5t102.5 41.5q48 0 80 -17l-22 -91q-11 9 -30 9q-22 0 -35 -15t-13 -42v-38h79v-105h-79v-378zM751 0h-120v667h120v-667zM197 0h-121v378h-62v105h62v38q0 73 39 114.5t107 41.5q69 0 106 -36l-39 -81q-18 18 -43 18
q-49 0 -49 -57v-38h79v-105h-79v-378z" />
    <glyph glyph-name="f_b" unicode="fb" horiz-adv-x="793" 
d="M197 0h-121v378h-62v105h62v38q0 73 38.5 114.5t102.5 41.5q48 0 80 -17l-22 -91q-11 9 -30 9q-22 0 -35 -15t-13 -42v-38h79v-105h-79v-378zM462 151q12 -24 36 -40.5t48 -16.5q44 0 68.5 41t24.5 106q0 66 -24.5 107t-68.5 41q-24 0 -48 -17t-36 -41v-180zM462 0h-120
v667h120v-245q42 73 122 73q82 0 130.5 -69t48.5 -185q0 -118 -48.5 -185.5t-130.5 -67.5q-76 0 -122 73v-61z" />
    <glyph glyph-name="f_h" unicode="fh" horiz-adv-x="788" 
d="M197 0h-121v378h-62v105h62v38q0 73 38.5 114.5t102.5 41.5q48 0 80 -17l-22 -91q-11 9 -30 9q-22 0 -35 -15t-13 -42v-38h79v-105h-79v-378zM734 0h-120v320q0 69 -64 69q-27 0 -50 -17.5t-37 -42.5v-329h-121v667h121v-247q20 31 58.5 53t82.5 22q130 0 130 -130v-365z
" />
    <glyph glyph-name="f_k" unicode="fk" horiz-adv-x="758" 
d="M197 0h-121v378h-62v105h62v38q0 73 38.5 114.5t102.5 41.5q48 0 80 -17l-22 -91q-11 9 -30 9q-22 0 -35 -15t-13 -42v-38h79v-105h-79v-378zM754 0h-141l-100 189l-51 -71v-118h-120v667h120v-403l147 219h140l-153 -217z" />
    <glyph glyph-name=".notdef" horiz-adv-x="469" 
d="M410 -90h-351v842h351v-842zM378 -60v782h-288v-782h288z" />
    <glyph glyph-name=".null" horiz-adv-x="0" 
 />
    <glyph glyph-name=".null" horiz-adv-x="0" 
 />
    <glyph glyph-name="nonmarkingreturn" horiz-adv-x="333" 
 />
    <glyph glyph-name="CR" unicode="&#xd;" horiz-adv-x="0" 
 />
    <glyph glyph-name="space" unicode=" " horiz-adv-x="210" 
 />
    <glyph glyph-name="exclam" unicode="!" horiz-adv-x="252" 
d="M179 213h-105l-21 454h146zM126 -11q-31 0 -54 23t-23 54q0 32 23 55t54 23t54 -23t23 -55q0 -31 -23 -54t-54 -23z" />
    <glyph glyph-name="quotedbl" unicode="&#x22;" horiz-adv-x="397" 
d="M137 381h-53q-39 212 -39 230q0 27 19.5 46.5t46.5 19.5q26 0 45.5 -19.5t19.5 -46.5zM313 381h-52q-39 212 -39 230q0 27 19 46.5t46 19.5t46 -19.5t19 -46.5z" />
    <glyph glyph-name="numbersign" unicode="#" horiz-adv-x="536" 
d="M302 0h-90l50 171h-79l-48 -171h-90l49 171h-78l21 77h79l48 170h-79l20 76h81l48 173h90l-49 -173h78l49 173h89l-49 -173h78l-19 -76h-81l-48 -170h82l-21 -77h-83zM283 248l48 170h-78l-47 -170h77z" />
    <glyph glyph-name="dollar" unicode="$" horiz-adv-x="501" 
d="M213 -100v90q-120 10 -192 84l66 103q49 -56 126 -69v173q-30 13 -49.5 22.5t-45.5 27.5t-40.5 37t-25.5 49t-11 66q0 71 46 124t126 67v94h90v-93q95 -11 160 -71l-64 -100q-42 39 -96 51v-158q38 -16 62.5 -30.5t52.5 -38.5t42.5 -58.5t14.5 -78.5q0 -78 -45 -131.5
t-127 -66.5v-93h-90zM339 180q0 37 -46 64v-130q46 18 46 66zM178 492q0 -32 45 -59v122q-45 -16 -45 -63z" />
    <glyph glyph-name="percent" unicode="%" horiz-adv-x="672" 
d="M172 345q-66 0 -107.5 47t-41.5 118q0 72 41.5 119.5t107.5 47.5q68 0 109.5 -47.5t41.5 -119.5q0 -71 -41.5 -118t-109.5 -47zM192 0h-63l353 667h63zM500 -12q-67 0 -108.5 47t-41.5 118q0 72 41.5 119.5t108.5 47.5q66 0 107.5 -47.5t41.5 -119.5q0 -71 -41.5 -118
t-107.5 -47zM172 419q30 0 48.5 25t18.5 66q0 42 -18.5 67t-48.5 25t-48 -25t-18 -67q0 -41 18.5 -66t47.5 -25zM500 62q29 0 47.5 25t18.5 66q0 42 -18 67t-48 25t-48.5 -25t-18.5 -67q0 -41 18.5 -66t48.5 -25z" />
    <glyph glyph-name="ampersand" unicode="&#x26;" horiz-adv-x="547" 
d="M544 0h-141l-38 47q-69 -59 -154 -59q-81 0 -133.5 50t-52.5 139q0 69 33 114t90 81q-40 85 -40 142q0 71 46 117t116 46q64 0 108 -39.5t44 -101.5q0 -35 -10.5 -63.5t-33.5 -51t-42 -36.5t-52 -34q19 -33 45 -70q15 -23 45 -65q25 53 45 124l96 -44q-34 -96 -78 -164
q19 -25 107 -132zM231 83q41 0 78 37q-43 55 -63 87q-26 39 -52 81q-45 -43 -45 -101q0 -46 24 -75t58 -29zM221 513q0 -38 22 -85q75 47 75 102q0 28 -12.5 44t-32.5 16q-24 0 -38 -20.5t-14 -56.5z" />
    <glyph glyph-name="quotesingle" unicode="'" horiz-adv-x="222" 
d="M137 381h-53q-39 212 -39 230q0 27 19.5 46.5t46.5 19.5q26 0 45.5 -19.5t19.5 -46.5z" />
    <glyph glyph-name="parenleft" unicode="(" horiz-adv-x="277" 
d="M258 -150l-81 -49q-63 92 -98 207t-35 235q0 247 133 442l81 -48q-84 -191 -84 -394t84 -393z" />
    <glyph glyph-name="parenright" unicode=")" horiz-adv-x="278" 
d="M100 -199l-81 49q84 186 84 393q0 206 -84 394l81 48q134 -194 134 -442q0 -120 -35 -235t-99 -207z" />
    <glyph glyph-name="asterisk" unicode="*" horiz-adv-x="336" 
d="M198 369h-60l4 111l-92 -60l-30 53l97 50l-97 50l30 53l92 -60l-4 111h60l-5 -111l93 60l30 -53l-98 -50l98 -50l-30 -53l-93 60z" />
    <glyph glyph-name="plus" unicode="+" horiz-adv-x="444" 
d="M415 300h-152v-175h-82v175h-152v75h152v167h82v-167h152v-75z" />
    <glyph glyph-name="comma" unicode="," horiz-adv-x="252" 
d="M209 45q0 -109 -100 -181l-52 43q25 14 47 41.5t28 53.5q-4 -3 -18 -3q-28 0 -47 19.5t-19 49.5q0 31 22.5 53.5t53.5 22.5q35 0 60 -27t25 -72z" />
    <glyph glyph-name="hyphen" unicode="-" horiz-adv-x="270" 
d="M240 191h-210v102h210v-102z" />
    <glyph glyph-name="period" unicode="." horiz-adv-x="252" 
d="M126 -11q-32 0 -55 23t-23 54q0 32 23 55t55 23q31 0 54 -23t23 -55t-22.5 -54.5t-54.5 -22.5z" />
    <glyph glyph-name="slash" unicode="/" horiz-adv-x="278" 
d="M86 -20h-86l192 707h86z" />
    <glyph glyph-name="zero" unicode="0" horiz-adv-x="537" 
d="M268 -12q-79 0 -134 52t-78.5 127.5t-23.5 165.5t23.5 165.5t78.5 127t134 51.5q60 0 106.5 -29t74 -78.5t41.5 -109.5t14 -127t-14 -126.5t-41 -109.5t-74 -79.5t-107 -29.5zM268 107q100 0 100 226q0 225 -100 225q-99 0 -99 -225q0 -226 99 -226z" />
    <glyph glyph-name="one" unicode="1" horiz-adv-x="380" 
d="M321 0h-135v494l-101 -105l-77 81l196 197h117v-667z" />
    <glyph glyph-name="two" unicode="2" horiz-adv-x="521" 
d="M478 0h-434v108q192 187 243.5 249t51.5 117q0 38 -25.5 61t-63.5 23q-86 0 -142 -75l-80 84q83 110 224 110q98 0 160.5 -55t62.5 -147q0 -72 -50.5 -146.5t-182.5 -210.5h236v-118z" />
    <glyph glyph-name="three" unicode="3" horiz-adv-x="513" 
d="M249 -12q-76 0 -136 30t-93 78l80 84q26 -34 64 -53.5t79 -19.5q51 0 76.5 24t25.5 65q0 84 -108 84q-52 0 -62 -2v121q10 -1 59 -1q47 0 74.5 19.5t27.5 57.5q0 41 -26.5 62t-71.5 21q-80 0 -133 -67l-76 78q77 108 220 108q101 0 160 -47t59 -134q0 -56 -36.5 -98.5
t-89.5 -53.5q55 -8 95.5 -52t40.5 -108q0 -88 -62.5 -142t-166.5 -54z" />
    <glyph glyph-name="four" unicode="4" horiz-adv-x="514" 
d="M426 0h-134v142h-272v112l234 413h172v-407h67v-118h-67v-142zM292 260v271l-151 -271h151z" />
    <glyph glyph-name="five" unicode="5" horiz-adv-x="527" 
d="M262 -12q-146 0 -224 105l81 86q55 -72 139 -72q46 0 73.5 30.5t27.5 74.5q0 50 -25 77.5t-70 27.5q-66 0 -110 -55l-97 26v379h400v-118h-266v-171q45 55 122 55q78 0 130 -58.5t52 -158.5q0 -101 -63.5 -164.5t-169.5 -63.5z" />
    <glyph glyph-name="six" unicode="6" horiz-adv-x="525" 
d="M278 -12q-85 0 -142 48.5t-80.5 123.5t-23.5 172q0 154 70.5 249.5t196.5 95.5q107 0 171 -72l-65 -100q-39 53 -104 53q-59 0 -96 -58.5t-37 -140.5v-12q20 36 58.5 60.5t83.5 24.5q79 0 133 -57.5t54 -159.5q0 -98 -61 -162.5t-158 -64.5zM270 107q43 0 67 31t24 72
q0 54 -27 80.5t-66 26.5q-59 0 -100 -68q5 -58 28.5 -100t73.5 -42z" />
    <glyph glyph-name="seven" unicode="7" horiz-adv-x="468" 
d="M242 0h-145l200 549h-276v118h428v-93z" />
    <glyph glyph-name="eight" unicode="8" horiz-adv-x="523" 
d="M262 -12q-103 0 -166.5 48t-63.5 134q0 58 36.5 106t90.5 68q-51 19 -84.5 60t-33.5 99q0 86 65 130t156 44q90 0 155.5 -44.5t65.5 -129.5q0 -58 -34 -99t-85 -60q54 -21 91 -68t37 -105q0 -87 -64 -135t-166 -48zM262 392q29 7 57.5 29.5t28.5 59.5t-23.5 58t-62.5 21
q-40 0 -63.5 -21t-23.5 -58t29 -59.5t58 -29.5zM262 105q41 0 68 22.5t27 60.5q0 42 -33 69.5t-62 31.5q-29 -4 -62 -31.5t-33 -69.5q0 -39 26.5 -61t68.5 -22z" />
    <glyph glyph-name="nine" unicode="9" horiz-adv-x="525" 
d="M225 -11q-106 0 -170 72l64 99q41 -52 105 -52q61 0 97 58t36 140v13q-21 -36 -59 -60.5t-83 -24.5q-79 0 -133 57.5t-54 159.5q0 98 61 162.5t158 64.5q124 0 184.5 -96.5t60.5 -248.5q0 -154 -70.5 -249t-196.5 -95zM257 349q60 0 99 68q-4 58 -27 100t-74 42
q-43 0 -67 -31t-24 -72q0 -54 27 -80.5t66 -26.5z" />
    <glyph glyph-name="colon" unicode=":" horiz-adv-x="250" 
d="M126 335q-32 0 -55 23.5t-23 54.5t23 54t55 23t54.5 -23t22.5 -54q0 -32 -23 -55t-54 -23zM126 -11q-32 0 -55 23t-23 54q0 32 23 55t55 23q31 0 54 -23t23 -55t-22.5 -54.5t-54.5 -22.5z" />
    <glyph glyph-name="semicolon" unicode=";" horiz-adv-x="252" 
d="M126 335q-31 0 -54.5 23.5t-23.5 54.5t23 54t55 23t54.5 -23t22.5 -54t-23 -54.5t-54 -23.5zM209 47q0 -109 -100 -181l-52 43q25 14 47 41.5t28 53.5q-4 -3 -18 -3q-28 0 -47 19.5t-19 49.5q0 31 22.5 53.5t53.5 22.5q35 0 60 -27t25 -72z" />
    <glyph glyph-name="less" unicode="&#x3c;" horiz-adv-x="444" 
d="M415 123l-386 169v86l386 169v-90l-299 -123l299 -122v-89z" />
    <glyph glyph-name="equal" unicode="=" horiz-adv-x="444" 
d="M415 391h-386v75h386v-75zM415 202h-386v75h386v-75z" />
    <glyph glyph-name="greater" unicode="&#x3e;" horiz-adv-x="444" 
d="M415 292l-386 -169v89l298 122l-298 123v90l386 -169v-86z" />
    <glyph glyph-name="question" unicode="?" horiz-adv-x="391" 
d="M148 202q-29 34 -29 88q0 32 12.5 58t30 44t35 34t30 35t12.5 40q0 25 -17.5 42t-48.5 17q-53 0 -89 -46l-67 84q68 79 178 79q81 0 129.5 -42.5t48.5 -108.5q0 -37 -14.5 -67.5t-34.5 -52t-40.5 -40.5t-35 -41t-14.5 -46q0 -26 16 -44zM196 -11q-32 0 -55 22.5t-23 54.5
t23 55t55 23q31 0 54 -23t23 -55t-22.5 -54.5t-54.5 -22.5z" />
    <glyph glyph-name="at" unicode="@" horiz-adv-x="709" 
d="M311 -70q-124 0 -200 83.5t-76 215.5q0 162 112 285.5t261 123.5q118 0 192 -77t74 -196q0 -122 -56.5 -201t-126.5 -79q-38 0 -62 19.5t-29 50.5l-2 8q-52 -78 -128 -78q-56 0 -90.5 38.5t-34.5 109.5q0 103 61.5 184t146.5 81q73 0 99 -66l11 52h106l-52 -249
q-3 -15 -3 -24q0 -44 33 -44q29 0 57 54t28 143q0 108 -61.5 172t-165.5 64q-133 0 -232 -112.5t-99 -256.5q0 -115 66 -189.5t176 -74.5q85 0 165 56l20 -30q-90 -63 -190 -63zM317 170q50 0 92 64l27 127q-17 52 -61 52q-51 0 -85 -53t-34 -114q0 -35 16 -55.5t45 -20.5z
" />
    <glyph glyph-name="A" unicode="A" horiz-adv-x="554" 
d="M556 0h-146l-31 118h-205l-31 -118h-145l198 667h162zM353 236l-76 290l-76 -290h152z" />
    <glyph glyph-name="B" unicode="B" horiz-adv-x="558" 
d="M344 0h-285v667h276q85 0 130.5 -48.5t45.5 -121.5q0 -61 -29.5 -101t-77.5 -52q51 -8 84.5 -55t33.5 -109q0 -80 -45.5 -130t-132.5 -50zM303 397q35 0 53 20.5t18 56.5q0 35 -18 55.5t-53 20.5h-110v-153h110zM308 117q37 0 57 21.5t20 60.5q0 36 -20 59t-57 23h-115
v-164h115z" />
    <glyph glyph-name="C" unicode="C" horiz-adv-x="558" 
d="M314 -12q-128 0 -205 96t-77 249t77 249t205 96q152 0 223 -160l-111 -49q-16 41 -44.5 65.5t-67.5 24.5q-66 0 -105 -63t-39 -163t39 -163t105 -63q40 0 69 26.5t44 70.5l111 -48q-69 -168 -224 -168z" />
    <glyph glyph-name="D" unicode="D" horiz-adv-x="597" 
d="M274 0h-215v667h215q136 0 213 -92t77 -242t-77 -241.5t-213 -91.5zM274 118q73 0 113 59t40 156q0 101 -39.5 158.5t-113.5 57.5h-81v-431h81z" />
    <glyph glyph-name="E" unicode="E" horiz-adv-x="481" 
d="M441 0h-382v667h382v-118h-248v-151h241v-118h-241v-162h248v-118z" />
    <glyph glyph-name="F" unicode="F" horiz-adv-x="473" 
d="M193 0h-134v667h382v-118h-248v-151h241v-118h-241v-280z" />
    <glyph glyph-name="G" unicode="G" horiz-adv-x="586" 
d="M314 -12q-127 0 -204.5 95t-77.5 250q0 156 77.5 250.5t204.5 94.5q81 0 136.5 -42.5t85.5 -110.5l-109 -51q-38 85 -113 85q-65 0 -104.5 -60t-39.5 -166t39.5 -166t104.5 -60t101 40v101h-125v118h252v-272q-90 -106 -228 -106z" />
    <glyph glyph-name="H" unicode="H" horiz-adv-x="608" 
d="M549 0h-135v284h-221v-284h-134v667h134v-265h221v265h135v-667z" />
    <glyph glyph-name="I" unicode="I" horiz-adv-x="252" 
d="M193 0h-134v667h134v-667z" />
    <glyph glyph-name="J" unicode="J" horiz-adv-x="417" 
d="M151 -12q-89 0 -144 51l48 105q35 -37 83 -37q40 0 63.5 23.5t23.5 66.5v470h134v-474q0 -102 -56 -153.5t-152 -51.5z" />
    <glyph glyph-name="K" unicode="K" horiz-adv-x="553" 
d="M552 0h-158l-154 261l-47 -74v-187h-134v667h134v-303l188 303h156l-213 -314z" />
    <glyph glyph-name="L" unicode="L" horiz-adv-x="444" 
d="M417 0h-358v667h134v-549h224v-118z" />
    <glyph glyph-name="M" unicode="M" horiz-adv-x="735" 
d="M677 0h-134v430l-149 -430h-53l-148 430v-430h-134v667h180l129 -372l130 372h179v-667z" />
    <glyph glyph-name="N" unicode="N" horiz-adv-x="606" 
d="M548 0h-128l-227 394v-394h-134v667h136l218 -380v380h135v-667z" />
    <glyph glyph-name="O" unicode="O" horiz-adv-x="622" 
d="M310 -12q-128 0 -203 96.5t-75 248.5t75 248.5t203 96.5q129 0 204 -96.5t75 -248.5t-75 -248.5t-204 -96.5zM310 107q67 0 104.5 63.5t37.5 162.5q0 100 -37.5 163t-104.5 63q-66 0 -103 -63t-37 -163q0 -99 37 -162.5t103 -63.5z" />
    <glyph glyph-name="P" unicode="P" horiz-adv-x="533" 
d="M193 0h-134v667h246q98 0 152 -61t54 -152t-54 -152t-152 -61h-112v-241zM289 359q38 0 61.5 26t23.5 69t-23.5 69t-61.5 26h-96v-190h96z" />
    <glyph glyph-name="Q" unicode="Q" horiz-adv-x="622" 
d="M310 -12q-128 0 -203 96.5t-75 248.5t75 248.5t203 96.5q129 0 204 -96.5t75 -248.5q0 -173 -93 -269l28 -44l-93 -58l-27 42q-45 -16 -94 -16zM310 107q16 0 29 3l-65 105l94 58l54 -88q30 59 30 148q0 100 -37.5 163t-104.5 63q-66 0 -103 -63t-37 -163
q0 -99 37 -162.5t103 -63.5z" />
    <glyph glyph-name="R" unicode="R" horiz-adv-x="551" 
d="M516 0h-149l-102 241h-72v-241h-134v667h249q91 0 147 -59t56 -152q0 -79 -34 -127t-82 -64zM288 359q39 0 62.5 26t23.5 69t-23.5 69t-62.5 26h-95v-190h95z" />
    <glyph glyph-name="S" unicode="S" horiz-adv-x="498" 
d="M244 -12q-142 0 -228 86l66 103q64 -71 161 -71q43 0 67 21t24 53q0 27 -22 47.5t-55 32.5t-72 30.5t-72 39.5t-55 60.5t-22 92.5q0 82 60 138.5t160 56.5q123 0 202 -74l-64 -100q-59 56 -143 56q-36 0 -57 -18.5t-21 -49.5q0 -28 30.5 -49t74.5 -38t87.5 -40t74 -67.5
t30.5 -106.5q0 -90 -59.5 -146.5t-166.5 -56.5z" />
    <glyph glyph-name="T" unicode="T" horiz-adv-x="473" 
d="M304 0h-134v549h-148v118h430v-118h-148v-549z" />
    <glyph glyph-name="U" unicode="U" horiz-adv-x="609" 
d="M305 -12q-114 0 -180 63.5t-66 178.5v437h135v-438q0 -59 29 -91t82 -32t81.5 32t28.5 91v438h135v-437q0 -114 -65.5 -178t-179.5 -64z" />
    <glyph glyph-name="V" unicode="V" horiz-adv-x="554" 
d="M358 0h-162l-198 667h145l134 -509l133 509h146z" />
    <glyph glyph-name="W" unicode="W" horiz-adv-x="767" 
d="M609 0h-140l-86 444l-85 -444h-140l-152 667h144l86 -464l95 464h105l96 -464l85 464h144z" />
    <glyph glyph-name="X" unicode="X" horiz-adv-x="553" 
d="M555 0h-154l-125 237l-124 -237h-154l195 341l-184 326h154l113 -223l113 223h155l-184 -325z" />
    <glyph glyph-name="Y" unicode="Y" horiz-adv-x="538" 
d="M336 0h-134v275l-206 392h148l125 -268l125 268h148l-206 -392v-275z" />
    <glyph glyph-name="Z" unicode="Z" horiz-adv-x="484" 
d="M448 0h-412v110l241 439h-241v118h405v-108l-243 -441h250v-118z" />
    <glyph glyph-name="bracketleft" unicode="[" horiz-adv-x="242" 
d="M225 -190h-184v868h184v-81h-97v-706h97v-81z" />
    <glyph glyph-name="backslash" unicode="\" horiz-adv-x="278" 
d="M192 -20l-192 707h86l192 -707h-86z" />
    <glyph glyph-name="bracketright" unicode="]" horiz-adv-x="242" 
d="M201 -190h-184v81h97v706h-97v81h184v-868z" />
    <glyph glyph-name="asciicircum" unicode="^" horiz-adv-x="389" 
d="M370 333h-88l-88 245l-87 -245h-88l132 334h88z" />
    <glyph glyph-name="underscore" unicode="_" horiz-adv-x="422" 
d="M425 -121h-428v81h428v-81z" />
    <glyph glyph-name="grave" unicode="`" horiz-adv-x="214" 
d="M214 556h-80l-134 144h107z" />
    <glyph glyph-name="a" unicode="a" 
d="M425 0h-121v48q-20 -28 -54.5 -44t-72.5 -16q-61 0 -105 43t-44 117q0 75 43.5 116t105.5 41q39 0 73.5 -15t53.5 -42v63q0 39 -23.5 61.5t-65.5 22.5q-66 0 -119 -52l-45 82q73 70 186 70q85 0 136.5 -41.5t51.5 -129.5v-324zM223 69q56 0 81 46v62q-26 47 -81 47
q-34 0 -54.5 -21.5t-20.5 -56.5t20.5 -56t54.5 -21z" />
    <glyph glyph-name="b" unicode="b" horiz-adv-x="504" 
d="M174 151q12 -24 36 -40.5t48 -16.5q44 0 68.5 41t24.5 106q0 66 -24.5 107t-68.5 41q-24 0 -48 -17t-36 -41v-180zM174 0h-120v667h120v-245q42 73 122 73q82 0 130.5 -69t48.5 -185q0 -118 -48.5 -185.5t-130.5 -67.5q-76 0 -122 73v-61z" />
    <glyph glyph-name="c" unicode="c" horiz-adv-x="421" 
d="M250 -12q-99 0 -160 71t-61 183q0 111 61 182t160 71q100 0 154 -65l-60 -83q-34 42 -81 42q-51 0 -80.5 -41.5t-29.5 -105.5q0 -65 29.5 -106.5t80.5 -41.5q47 0 81 42l60 -83q-54 -65 -154 -65z" />
    <glyph glyph-name="d" unicode="d" horiz-adv-x="504" 
d="M450 0h-120v61q-46 -73 -122 -73q-82 0 -130.5 67.5t-48.5 185.5q0 116 48.5 185t130.5 69q78 0 122 -73v245h120v-667zM246 94q24 0 48 16.5t36 40.5v181q-12 24 -36 40.5t-48 16.5q-44 0 -68.5 -41t-24.5 -107q0 -65 24.5 -106t68.5 -41z" />
    <glyph glyph-name="e" unicode="e" 
d="M254 -12q-102 0 -163.5 70t-61.5 184q0 108 59 180.5t157 72.5t153 -71.5t55 -186.5v-34h-303q4 -52 34 -85t83 -33q27 0 56 12.5t49 34.5l55 -72q-66 -72 -173 -72zM337 285q-2 45 -24 79t-70 34q-46 0 -68.5 -34t-24.5 -79h187z" />
    <glyph glyph-name="f" unicode="f" horiz-adv-x="288" 
d="M197 0h-121v378h-62v105h62v38q0 73 39 114.5t107 41.5q69 0 106 -36l-39 -81q-18 18 -43 18q-49 0 -49 -57v-38h79v-105h-79v-378z" />
    <glyph glyph-name="g" unicode="g" horiz-adv-x="504" 
d="M227 -196q-109 0 -178 62l48 92q49 -53 124 -53q46 0 77 27.5t31 86.5v59q-46 -74 -122 -74q-82 0 -130 64t-48 181q0 115 48 180.5t130 65.5q80 0 122 -73v61h120v-458q0 -63 -19 -108.5t-52.5 -68.5t-70 -33.5t-80.5 -10.5zM246 110q24 0 48 16t35 40v166
q-11 24 -34.5 40.5t-48.5 16.5q-45 0 -69 -38t-24 -102t24 -101.5t69 -37.5z" />
    <glyph glyph-name="h" unicode="h" horiz-adv-x="500" 
d="M446 0h-120v320q0 69 -64 69q-27 0 -50 -17.5t-37 -42.5v-329h-121v667h121v-247q20 31 58.5 53t82.5 22q130 0 130 -130v-365z" />
    <glyph glyph-name="i" unicode="i" horiz-adv-x="228" 
d="M114 537q-29 0 -50.5 21t-21.5 51t21.5 51.5t50.5 21.5q30 0 51 -21.5t21 -51.5t-21 -51t-51 -21zM174 0h-120v483h120v-483z" />
    <glyph glyph-name="j" unicode="j" horiz-adv-x="228" 
d="M114 537q-29 0 -50.5 21t-21.5 51t21.5 51.5t50.5 21.5q30 0 51 -21.5t21 -51.5t-21 -51t-51 -21zM22 -196q-56 0 -92 29l30 91q19 -19 45 -19q49 0 49 67v511h120v-511q0 -168 -152 -168z" />
    <glyph glyph-name="k" unicode="k" horiz-adv-x="469" 
d="M466 0h-141l-100 189l-51 -71v-118h-120v667h120v-403l147 219h140l-153 -217z" />
    <glyph glyph-name="l" unicode="l" horiz-adv-x="228" 
d="M174 0h-120v667h120v-667z" />
    <glyph glyph-name="m" unicode="m" horiz-adv-x="744" 
d="M690 0h-120v325q0 64 -55 64q-26 0 -48 -18t-35 -42v-329h-120v325q0 64 -55 64q-25 0 -47.5 -18t-35.5 -42v-329h-120v483h120v-63q16 28 55 51.5t81 23.5q97 0 117 -84q18 34 57.5 59t83.5 25q58 0 90 -31.5t32 -96.5v-367z" />
    <glyph glyph-name="n" unicode="n" horiz-adv-x="500" 
d="M445 0h-120v318q0 71 -63 71q-53 0 -88 -60v-329h-120v483h120v-63q21 31 59.5 53t82.5 22q65 0 97 -34.5t32 -97.5v-363z" />
    <glyph glyph-name="o" unicode="o" horiz-adv-x="495" 
d="M247 -12q-102 0 -160 73.5t-58 180.5t58 180t160 73q103 0 161 -73t58 -180q0 -108 -58 -181t-161 -73zM247 94q47 0 71 42t24 106t-24 105.5t-71 41.5q-46 0 -69.5 -42t-23.5 -105q0 -64 23.5 -106t69.5 -42z" />
    <glyph glyph-name="p" unicode="p" horiz-adv-x="503" 
d="M296 -12q-78 0 -122 73v-245h-120v667h120v-61q46 73 122 73q82 0 130.5 -67.5t48.5 -185.5q0 -117 -48.5 -185.5t-130.5 -68.5zM257 94q45 0 69.5 41t24.5 107q0 65 -24.5 106t-69.5 41q-24 0 -47.5 -16t-35.5 -40v-182q12 -24 35.5 -40.5t47.5 -16.5z" />
    <glyph glyph-name="q" unicode="q" horiz-adv-x="503" 
d="M245 94q24 0 48 16.5t36 40.5v182q-12 24 -35.5 40t-48.5 16q-44 0 -68.5 -41t-24.5 -106q0 -66 24.5 -107t68.5 -41zM207 -12q-82 0 -130.5 68.5t-48.5 185.5q0 118 48.5 185.5t130.5 67.5q76 0 122 -73v61h120v-667h-120v245q-44 -73 -122 -73z" />
    <glyph glyph-name="r" unicode="r" horiz-adv-x="320" 
d="M174 0h-120v483h120v-66q21 33 57.5 55.5t74.5 22.5v-118q-12 3 -29 3q-29 0 -58.5 -16.5t-44.5 -41.5v-322z" />
    <glyph glyph-name="s" unicode="s" horiz-adv-x="412" 
d="M203 -12q-120 0 -186 69l51 84q23 -25 60 -42t73 -17q34 0 52.5 14t18.5 37q0 22 -24.5 35.5t-59.5 24.5t-70.5 26t-60 48t-24.5 83q0 61 47 103t129 42q98 0 168 -62l-48 -81q-19 21 -51 35.5t-67 14.5q-28 0 -46 -13t-18 -33t24.5 -33t60 -24t71 -26.5t60 -50
t24.5 -84.5q0 -66 -50 -108t-134 -42z" />
    <glyph glyph-name="t" unicode="t" horiz-adv-x="298" 
d="M198 -12q-123 0 -123 128v262h-63v105h63v132h120v-132h80v-105h-80v-234q0 -50 35 -50q25 0 36 14l25 -92q-31 -28 -93 -28z" />
    <glyph glyph-name="u" unicode="u" horiz-adv-x="499" 
d="M445 0h-120v61q-21 -31 -59 -52t-83 -21q-129 0 -129 130v365h120v-319q0 -70 64 -70q54 0 87 59v330h120v-483z" />
    <glyph glyph-name="v" unicode="v" horiz-adv-x="447" 
d="M288 0h-129l-161 483h128l97 -339l98 339h128z" />
    <glyph glyph-name="w" unicode="w" horiz-adv-x="688" 
d="M557 0h-127l-86 329l-85 -329h-127l-129 483h124l76 -328l84 328h111l87 -328l76 328h125z" />
    <glyph glyph-name="x" unicode="x" horiz-adv-x="438" 
d="M436 0h-131l-86 161l-87 -161h-130l141 246l-134 237h131l79 -152l78 152h131l-134 -237z" />
    <glyph glyph-name="y" unicode="y" horiz-adv-x="447" 
d="M43 -189l18 106q14 -7 31 -7q40 0 53 35l16 46l-163 492h128l97 -338l98 338h128l-189 -565q-21 -64 -59 -88.5t-100 -25.5q-35 0 -58 7z" />
    <glyph glyph-name="z" unicode="z" horiz-adv-x="407" 
d="M372 0h-338v90l181 288h-181v105h334v-87l-182 -291h186v-105z" />
    <glyph glyph-name="braceleft" unicode="{" horiz-adv-x="254" 
d="M237 -190h-45q-55 0 -95.5 38.5t-40.5 99.5v195q0 29 -13.5 48t-38.5 19v68q25 0 38.5 19t13.5 48v194q0 61 40.5 100t95.5 39h45v-81h-45q-21 0 -35 -16t-14 -42v-206q0 -69 -46 -89q46 -20 46 -89v-206q0 -25 14.5 -42t34.5 -17h45v-80z" />
    <glyph glyph-name="bar" unicode="|" horiz-adv-x="198" 
d="M139 -20h-80v707h80v-707z" />
    <glyph glyph-name="braceright" unicode="}" horiz-adv-x="254" 
d="M17 -190v80h44q21 0 35.5 17t14.5 42v206q0 70 45 89q-45 19 -45 89v206q0 26 -14.5 42t-35.5 16h-44v81h44q55 0 96 -39t41 -100v-194q0 -29 13.5 -48t38.5 -19v-68q-25 0 -38.5 -19t-13.5 -48v-195q0 -61 -41 -99.5t-96 -38.5h-44z" />
    <glyph glyph-name="asciitilde" unicode="~" horiz-adv-x="463" 
d="M355 667l82 -9q-3 -49 -9 -85t-20 -76t-41 -61.5t-65 -21.5q-40 0 -64 28t-31 61t-17.5 61t-27.5 28q-24 0 -35 -43.5t-18 -135.5l-83 9q3 38 7 67.5t13.5 64.5t23.5 58t37.5 38.5t54.5 15.5q40 0 64 -28t30.5 -61.5t17.5 -61.5t28 -28q24 0 35 43.5t18 136.5z" />
    <glyph glyph-name="nbspace" unicode="&#xa0;" horiz-adv-x="210" 
 />
    <glyph glyph-name="exclamdown" unicode="&#xa1;" horiz-adv-x="252" 
d="M53 -184l20 454h106l20 -454h-146zM49 417q0 31 23 54t54 23t54 -23t23 -54q0 -32 -23 -55t-54 -23t-54 23t-23 55z" />
    <glyph glyph-name="cent" unicode="&#xa2;" horiz-adv-x="421" 
d="M205 -100v93q-81 16 -128.5 83.5t-47.5 165.5q0 97 47.5 164.5t128.5 83.5v75h88v-74q69 -12 111 -61l-60 -83q-24 28 -51 37v-286q28 10 51 38l60 -83q-43 -51 -111 -61v-92h-88zM153 242q0 -90 52 -129v257q-52 -37 -52 -128z" />
    <glyph glyph-name="sterling" unicode="&#xa3;" horiz-adv-x="487" 
d="M26 272v78h58q-39 65 -39 124q0 87 65.5 145t150.5 58q154 0 199 -126l-107 -54q-22 71 -80 71q-35 0 -58.5 -26.5t-23.5 -69.5q0 -13 2 -26t4 -21.5t7.5 -21.5t7.5 -17t10 -19t9 -17h109v-78h-83q2 -16 2 -25q0 -33 -17.5 -66.5t-43.5 -52.5q20 8 43 8q26 0 59.5 -14.5
t54.5 -14.5q51 0 76 33l45 -106q-39 -46 -130 -46q-43 0 -88.5 21t-69.5 21q-44 0 -100 -37l-43 92q42 23 68 57t26 71q0 28 -12 59h-101z" />
    <glyph glyph-name="currency" unicode="&#xa4;" horiz-adv-x="532" 
d="M266 91q-63 0 -113 29l-69 -69l-71 71l70 70q-35 61 -35 141q0 81 36 141l-71 72l71 71l71 -71q47 28 111 28q63 0 111 -28l71 71l71 -71l-72 -72q37 -62 37 -141q0 -82 -36 -142l71 -71l-71 -71l-71 70q-48 -28 -111 -28zM266 197q48 0 74.5 39t26.5 97q0 57 -26.5 95.5
t-74.5 38.5t-74 -38.5t-26 -95.5q0 -58 26 -97t74 -39z" />
    <glyph glyph-name="yen" unicode="&#xa5;" horiz-adv-x="538" 
d="M336 0h-134v116h-178v75h178v84h-178v75h138l-166 317h148l125 -268l125 268h148l-167 -317h138v-75h-177v-84h177v-75h-177v-116z" />
    <glyph glyph-name="brokenbar" unicode="&#xa6;" horiz-adv-x="198" 
d="M139 -20h-80v316h80v-316zM139 371h-80v316h80v-316z" />
    <glyph glyph-name="section" unicode="&#xa7;" horiz-adv-x="415" 
d="M387 320q0 -84 -78 -125q78 -45 78 -126q0 -66 -52 -108t-132 -42q-114 0 -185 71l50 78q22 -25 57.5 -44t72.5 -19q34 0 54 16t20 42q0 25 -24.5 42t-59.5 28.5t-70.5 26.5t-60 47.5t-24.5 80.5q0 43 26 75t63 45q-89 46 -89 131q0 60 48.5 99t123.5 39q108 0 171 -63
l-48 -72q-47 50 -115 50q-30 0 -48 -14t-18 -38q0 -23 24.5 -38t60 -26.5t71 -27t60 -48t24.5 -80.5zM274 295q0 56 -65 79q-65 -14 -65 -67q0 -28 20.5 -46t61.5 -34q48 23 48 68z" />
    <glyph glyph-name="dieresis" unicode="&#xa8;" horiz-adv-x="286" 
d="M302 610q0 -27 -19.5 -46t-46.5 -19q-26 0 -45 19t-19 46t19 45.5t45 18.5q27 0 46.5 -18.5t19.5 -45.5zM114 610q0 -27 -18.5 -46t-45.5 -19t-46 19t-19 46t19 45.5t46 18.5t45.5 -18.5t18.5 -45.5z" />
    <glyph glyph-name="copyright" unicode="&#xa9;" horiz-adv-x="778" 
d="M734 334q0 -143 -101 -244t-244 -101t-244 101.5t-101 243.5q0 143 101 244t244 101t244 -101t101 -244zM698 334q0 128 -91 218.5t-218 90.5t-218 -90.5t-91 -218.5t91 -218.5t218 -90.5t218 90.5t91 218.5zM512 220l31 -29q-58 -68 -149 -68q-87 0 -147.5 60.5
t-60.5 151.5t60.5 151t147.5 60q90 0 147 -67l-30 -30q-43 58 -117 58q-68 0 -116 -48.5t-48 -123.5q0 -74 48.5 -123.5t115.5 -49.5q75 0 118 58z" />
    <glyph glyph-name="ordfeminine" unicode="&#xaa;" horiz-adv-x="343" 
d="M299 326h-87v32q-29 -40 -87 -40q-41 0 -70.5 27.5t-29.5 75.5t29.5 75t70.5 27q59 0 87 -37v40q0 26 -16 41t-44 15q-44 0 -80 -39l-32 57q49 48 129 48q59 0 94.5 -28.5t35.5 -90.5v-203zM159 374q37 0 53 29v39q-16 29 -53 29q-21 0 -34.5 -13.5t-13.5 -34.5
q0 -23 13.5 -36t34.5 -13z" />
    <glyph glyph-name="guillemotleft" unicode="&#xab;" horiz-adv-x="456" 
d="M426 63h-103l-125 180l125 177h103l-125 -177zM257 63h-102l-125 180l125 177h102l-125 -177z" />
    <glyph glyph-name="logicalnot" unicode="&#xac;" horiz-adv-x="449" 
d="M415 466v-264h-78v189h-308v75h386z" />
    <glyph glyph-name="uni00AD" unicode="&#xad;" horiz-adv-x="270" 
d="M240 191h-210v102h210v-102z" />
    <glyph glyph-name="registered" unicode="&#xae;" horiz-adv-x="494" 
d="M459 465q0 -88 -62 -150t-150 -62t-150 62t-62 150t62 150t150 62q89 0 150.5 -61.5t61.5 -150.5zM427 465q0 76 -52.5 128t-127.5 52t-128 -52.5t-53 -127.5q0 -74 53 -127.5t128 -53.5t127.5 53t52.5 128zM347 343h-42l-63 96h-42v-96h-34v243h99q32 0 55.5 -20.5
t23.5 -53.5q0 -35 -22.5 -53.5t-39.5 -18.5zM309 512q0 19 -13.5 32t-30.5 13h-65v-88h65q17 0 30.5 12.5t13.5 30.5z" />
    <glyph glyph-name="macron" unicode="&#xaf;" horiz-adv-x="311" 
d="M311 563h-311v69h311v-69z" />
    <glyph glyph-name="degree" unicode="&#xb0;" horiz-adv-x="308" 
d="M287 543q0 -55 -39 -94t-95 -39q-55 0 -94 39t-39 94t39 94.5t94 39.5t94.5 -39.5t39.5 -94.5zM221 543q0 28 -20 48t-48 20t-47 -20t-19 -48t19 -47t47 -19t48 19t20 47z" />
    <glyph glyph-name="plusminus" unicode="&#xb1;" horiz-adv-x="444" 
d="M415 314h-152v-175h-82v175h-152v75h152v167h82v-167h152v-75zM415 13h-386v75h386v-75z" />
    <glyph glyph-name="twosuperior" unicode="&#xb2;" horiz-adv-x="345" 
d="M318 421h-281v66q118 103 153 142.5t35 72.5q0 24 -16 38t-42 14q-57 0 -90 -49l-51 56q54 66 145 66q65 0 105 -32t40 -88q0 -44 -35 -90t-121 -123h158v-73z" />
    <glyph glyph-name="threesuperior" unicode="&#xb3;" horiz-adv-x="345" 
d="M319 532q0 -53 -40.5 -85.5t-107.5 -32.5q-100 0 -147 64l50 57q37 -48 93 -48q31 0 47 14t16 37q0 51 -72 51q-31 0 -37 -1v72q7 -1 35 -1q68 0 68 48q0 47 -60 47q-53 0 -87 -43l-49 52q51 64 143 64q66 0 104 -29t38 -80q0 -34 -23 -59.5t-56 -31.5q33 -4 59 -30
t26 -65z" />
    <glyph glyph-name="acute" unicode="&#xb4;" horiz-adv-x="214" 
d="M214 700l-134 -144h-80l107 144h107z" />
    <glyph glyph-name="mu" unicode="&#xb5;" horiz-adv-x="512" 
d="M174 8v-192h-120v667h120v-319q0 -70 65 -70q53 0 86 59v330h120v-347q0 -42 34 -42q6 0 16 2l8 -101q-23 -7 -55 -7q-97 0 -118 86q-16 -38 -44 -62t-61 -24q-35 0 -51 20z" />
    <glyph glyph-name="paragraph" unicode="&#xb6;" horiz-adv-x="449" 
d="M399 -100h-60v707h-80v-707h-60v423q-71 0 -121.5 50.5t-50.5 121.5t50.5 121.5t121.5 50.5h200v-767z" />
    <glyph glyph-name="periodcentered" unicode="&#xb7;" horiz-adv-x="252" 
d="M203 244q0 -31 -23 -54t-54 -23t-54 23t-23 54q0 32 23 55t54 23t54 -23t23 -55z" />
    <glyph glyph-name="cedilla" unicode="&#xb8;" horiz-adv-x="202" 
d="M98 -195q-58 0 -98 32l23 48q36 -28 72 -28q20 0 33 9t13 25q0 26 -26 26q-18 0 -29 -13l-44 25l31 82h60l-26 -63q13 10 32 10q27 0 45 -19.5t18 -49.5q0 -38 -29.5 -61t-74.5 -23z" />
    <glyph glyph-name="onesuperior" unicode="&#xb9;" horiz-adv-x="265" 
d="M213 421h-91v283l-62 -63l-52 54l127 126h78v-400z" />
    <glyph glyph-name="ordmasculine" unicode="&#xba;" horiz-adv-x="357" 
d="M178 318q-70 0 -110.5 48t-40.5 117t40.5 117t110.5 48q71 0 111.5 -48t40.5 -117t-40.5 -117t-111.5 -48zM178 388q62 0 62 95q0 93 -62 93q-61 0 -61 -93q0 -95 61 -95z" />
    <glyph glyph-name="guillemotright" unicode="&#xbb;" horiz-adv-x="456" 
d="M257 243l-125 -180h-102l125 180l-125 177h102zM426 243l-125 -180h-103l125 180l-125 177h103z" />
    <glyph glyph-name="onequarter" unicode="&#xbc;" horiz-adv-x="741" 
d="M213 267h-91v283l-62 -63l-52 54l127 126h78v-400zM722 88h-43v-88h-91v88h-172v66l144 246h119v-241h43v-71zM588 159v154l-88 -154h88zM565 667l-353 -667h-63l352 667h64z" />
    <glyph glyph-name="onehalf" unicode="&#xbd;" horiz-adv-x="775" 
d="M213 267h-91v283l-62 -63l-52 54l127 126h78v-400zM748 0h-281v66q118 103 153 142.5t35 72.5q0 24 -16 38t-42 14q-57 0 -90 -49l-51 56q54 66 145 66q65 0 105 -32t40 -88q0 -44 -35 -90t-121 -123h158v-73zM565 667l-353 -667h-63l352 667h64z" />
    <glyph glyph-name="threequarters" unicode="&#xbe;" horiz-adv-x="802" 
d="M784 88h-43v-88h-91v88h-172v66l144 246h119v-241h43v-71zM650 159v154l-88 -154h88zM626 667l-353 -667h-63l352 667h64zM319 378q0 -53 -40.5 -85.5t-107.5 -32.5q-100 0 -147 64l50 57q37 -48 93 -48q31 0 47 14t16 37q0 51 -72 51q-31 0 -37 -1v72q7 -1 35 -1
q68 0 68 48q0 47 -60 47q-53 0 -87 -43l-49 52q51 64 143 64q66 0 104 -29t38 -80q0 -34 -23 -59.5t-56 -31.5q33 -4 59 -30t26 -65z" />
    <glyph glyph-name="questiondown" unicode="&#xbf;" horiz-adv-x="342" 
d="M242 280q29 -35 29 -88q0 -38 -18.5 -70t-41 -50t-41 -42.5t-18.5 -49.5q0 -24 17.5 -41t48.5 -17q51 0 89 46l66 -85q-70 -79 -178 -79q-81 0 -129.5 42.5t-48.5 108.5q0 45 22 82.5t48 59t48 49.5t22 56q0 25 -17 44zM195 494q31 0 54.5 -23t23.5 -55q0 -31 -23.5 -54
t-54.5 -23t-54 23t-23 54q0 32 23 55t54 23z" />
    <glyph glyph-name="Agrave" unicode="&#xc0;" horiz-adv-x="554" 
d="M556 0h-146l-31 118h-205l-31 -118h-145l198 667h162zM353 236l-76 290l-76 -290h152zM331 723h-80l-134 144h107z" />
    <glyph glyph-name="Aacute" unicode="&#xc1;" horiz-adv-x="554" 
d="M556 0h-146l-31 118h-205l-31 -118h-145l198 667h162zM353 236l-76 290l-76 -290h152zM437 867l-134 -144h-80l107 144h107z" />
    <glyph glyph-name="Acircumflex" unicode="&#xc2;" horiz-adv-x="554" 
d="M410 723h-70l-64 91l-61 -91h-70l77 144h108zM556 0h-146l-31 118h-205l-31 -118h-145l198 667h162zM353 236l-76 290l-76 -290h152z" />
    <glyph glyph-name="Atilde" unicode="&#xc3;" horiz-adv-x="554" 
d="M556 0h-146l-31 118h-205l-31 -118h-145l198 667h162zM353 236l-76 290l-76 -290h152zM327 721q-26 0 -44.5 17.5t-31.5 35.5t-26 18q-31 0 -31 -65h-62q0 62 25 98t71 36q20 0 36.5 -11t25 -24.5t19.5 -24.5t22 -11q30 0 30 65h62q0 -62 -25 -98t-71 -36z" />
    <glyph glyph-name="Adieresis" unicode="&#xc4;" horiz-adv-x="554" 
d="M436 777q0 -27 -19.5 -46t-46.5 -19q-26 0 -45 19t-19 46t19 45.5t45 18.5q27 0 46.5 -18.5t19.5 -45.5zM248 777q0 -27 -18.5 -46t-45.5 -19t-46 19t-19 46t19 45.5t46 18.5t45.5 -18.5t18.5 -45.5zM556 0h-146l-31 118h-205l-31 -118h-145l198 667h162zM353 236
l-76 290l-76 -290h152z" />
    <glyph glyph-name="Aring" unicode="&#xc5;" horiz-adv-x="554" 
d="M556 0h-146l-31 118h-205l-31 -118h-145l198 667h162zM353 236l-76 290l-76 -290h152zM278 690q-40 0 -68.5 28.5t-28.5 68.5t28.5 68.5t68.5 28.5t68 -28.5t28 -68.5t-28 -68.5t-68 -28.5zM278 744q18 0 30 12.5t12 30.5t-12 30.5t-30 12.5q-17 0 -30 -13t-13 -30
q0 -18 13 -30.5t30 -12.5z" />
    <glyph glyph-name="AE" unicode="&#xc6;" horiz-adv-x="787" 
d="M751 0h-382v118h-174l-52 -118h-145l315 667h438v-118h-247v-151h240v-118h-240v-162h247v-118zM369 236v290l-126 -290h126z" />
    <glyph glyph-name="Ccedilla" unicode="&#xc7;" horiz-adv-x="558" 
d="M309 -191q-58 0 -98 32l23 48q36 -28 72 -28q20 0 33 9t13 25q0 26 -26 26q-18 0 -29 -13l-44 25l22 58q-112 14 -177.5 107.5t-65.5 234.5q0 153 77 249t205 96q152 0 223 -160l-111 -49q-16 41 -44.5 65.5t-67.5 24.5q-66 0 -105 -63t-39 -163t39 -163t105 -63
q40 0 69 26.5t44 70.5l111 -48q-66 -158 -205 -167l-15 -37q13 10 32 10q27 0 45 -19.5t18 -49.5q0 -38 -29.5 -61t-74.5 -23z" />
    <glyph glyph-name="Egrave" unicode="&#xc8;" horiz-adv-x="481" 
d="M441 0h-382v667h382v-118h-248v-151h241v-118h-241v-162h248v-118zM303 723h-80l-134 144h107z" />
    <glyph glyph-name="Eacute" unicode="&#xc9;" horiz-adv-x="481" 
d="M410 867l-134 -144h-80l107 144h107zM441 0h-382v667h382v-118h-248v-151h241v-118h-241v-162h248v-118z" />
    <glyph glyph-name="Ecircumflex" unicode="&#xca;" horiz-adv-x="481" 
d="M383 723h-70l-64 91l-61 -91h-70l77 144h108zM441 0h-382v667h382v-118h-248v-151h241v-118h-241v-162h248v-118z" />
    <glyph glyph-name="Edieresis" unicode="&#xcb;" horiz-adv-x="481" 
d="M410 777q0 -27 -19.5 -46t-46.5 -19q-26 0 -45 19t-19 46t19 45.5t45 18.5q27 0 46.5 -18.5t19.5 -45.5zM222 777q0 -27 -18.5 -46t-45.5 -19t-46 19t-19 46t19 45.5t46 18.5t45.5 -18.5t18.5 -45.5zM441 0h-382v667h382v-118h-248v-151h241v-118h-241v-162h248v-118z
" />
    <glyph glyph-name="Igrave" unicode="&#xcc;" horiz-adv-x="252" 
d="M193 0h-134v667h134v-667zM180 723h-80l-134 144h107z" />
    <glyph glyph-name="Iacute" unicode="&#xcd;" horiz-adv-x="252" 
d="M193 0h-134v667h134v-667zM287 867l-134 -144h-80l107 144h107z" />
    <glyph glyph-name="Icircumflex" unicode="&#xce;" horiz-adv-x="252" 
d="M259 723h-70l-64 91l-61 -91h-70l77 144h108zM193 0h-134v667h134v-667z" />
    <glyph glyph-name="Idieresis" unicode="&#xcf;" horiz-adv-x="252" 
d="M286 777q0 -27 -19.5 -46t-46.5 -19q-26 0 -45 19t-19 46t19 45.5t45 18.5q27 0 46.5 -18.5t19.5 -45.5zM98 777q0 -27 -18.5 -46t-45.5 -19t-46 19t-19 46t19 45.5t46 18.5t45.5 -18.5t18.5 -45.5zM193 0h-134v667h134v-667z" />
    <glyph glyph-name="Eth" unicode="&#xd0;" horiz-adv-x="620" 
d="M298 0h-215v280h-71v99h71v288h215q136 0 213 -92t77 -242t-77 -241.5t-213 -91.5zM298 118q73 0 113 59t40 156q0 101 -39.5 158.5t-113.5 57.5h-81v-170h107v-99h-107v-162h81z" />
    <glyph glyph-name="Ntilde" unicode="&#xd1;" horiz-adv-x="606" 
d="M351 721q-26 0 -44.5 17.5t-31.5 35.5t-26 18q-31 0 -31 -65h-62q0 62 25 98t71 36q20 0 36.5 -11t25 -24.5t19.5 -24.5t22 -11q30 0 30 65h62q0 -62 -25 -98t-71 -36zM548 0h-128l-227 394v-394h-134v667h136l218 -380v380h135v-667z" />
    <glyph glyph-name="Ograve" unicode="&#xd2;" horiz-adv-x="622" 
d="M365 723h-80l-134 144h107zM310 -12q-128 0 -203 96.5t-75 248.5t75 248.5t203 96.5q129 0 204 -96.5t75 -248.5t-75 -248.5t-204 -96.5zM310 107q67 0 104.5 63.5t37.5 162.5q0 100 -37.5 163t-104.5 63q-66 0 -103 -63t-37 -163q0 -99 37 -162.5t103 -63.5z" />
    <glyph glyph-name="Oacute" unicode="&#xd3;" horiz-adv-x="622" 
d="M471 867l-134 -144h-80l107 144h107zM310 -12q-128 0 -203 96.5t-75 248.5t75 248.5t203 96.5q129 0 204 -96.5t75 -248.5t-75 -248.5t-204 -96.5zM310 107q67 0 104.5 63.5t37.5 162.5q0 100 -37.5 163t-104.5 63q-66 0 -103 -63t-37 -163q0 -99 37 -162.5t103 -63.5z
" />
    <glyph glyph-name="Ocircumflex" unicode="&#xd4;" horiz-adv-x="622" 
d="M445 723h-70l-64 91l-61 -91h-70l77 144h108zM310 -12q-128 0 -203 96.5t-75 248.5t75 248.5t203 96.5q129 0 204 -96.5t75 -248.5t-75 -248.5t-204 -96.5zM310 107q67 0 104.5 63.5t37.5 162.5q0 100 -37.5 163t-104.5 63q-66 0 -103 -63t-37 -163q0 -99 37 -162.5
t103 -63.5z" />
    <glyph glyph-name="Otilde" unicode="&#xd5;" horiz-adv-x="622" 
d="M310 -12q-128 0 -203 96.5t-75 248.5t75 248.5t203 96.5q129 0 204 -96.5t75 -248.5t-75 -248.5t-204 -96.5zM310 107q67 0 104.5 63.5t37.5 162.5q0 100 -37.5 163t-104.5 63q-66 0 -103 -63t-37 -163q0 -99 37 -162.5t103 -63.5zM361 721q-26 0 -44.5 17.5t-31.5 35.5
t-26 18q-31 0 -31 -65h-62q0 62 25 98t71 36q20 0 36.5 -11t25 -24.5t19.5 -24.5t22 -11q30 0 30 65h62q0 -62 -25 -98t-71 -36z" />
    <glyph glyph-name="Odieresis" unicode="&#xd6;" horiz-adv-x="622" 
d="M470 777q0 -27 -19.5 -46t-46.5 -19q-26 0 -45 19t-19 46t19 45.5t45 18.5q27 0 46.5 -18.5t19.5 -45.5zM282 777q0 -27 -18.5 -46t-45.5 -19t-46 19t-19 46t19 45.5t46 18.5t45.5 -18.5t18.5 -45.5zM310 -12q-128 0 -203 96.5t-75 248.5t75 248.5t203 96.5
q129 0 204 -96.5t75 -248.5t-75 -248.5t-204 -96.5zM310 107q67 0 104.5 63.5t37.5 162.5q0 100 -37.5 163t-104.5 63q-66 0 -103 -63t-37 -163q0 -99 37 -162.5t103 -63.5z" />
    <glyph glyph-name="multiply" unicode="&#xd7;" horiz-adv-x="444" 
d="M343 160l-121 121l-121 -121l-53 53l121 121l-121 121l53 53l121 -121l121 121l53 -53l-121 -121l121 -121z" />
    <glyph glyph-name="Oslash" unicode="&#xd8;" horiz-adv-x="622" 
d="M310 -12q-84 0 -147 43l-19 -31h-88l52 83q-76 96 -76 250q0 152 75 248.5t203 96.5q78 0 142 -40l18 29h88l-49 -79q80 -95 80 -255q0 -152 -75 -248.5t-204 -96.5zM310 107q67 0 104.5 63.5t37.5 162.5q0 75 -21 129l-200 -323q34 -32 79 -32zM170 333q0 -69 18 -121
l197 319q-31 28 -75 28q-66 0 -103 -63t-37 -163z" />
    <glyph glyph-name="Ugrave" unicode="&#xd9;" horiz-adv-x="609" 
d="M305 -12q-114 0 -180 63.5t-66 178.5v437h135v-438q0 -59 29 -91t82 -32t81.5 32t28.5 91v438h135v-437q0 -114 -65.5 -178t-179.5 -64zM358 723h-80l-134 144h107z" />
    <glyph glyph-name="Uacute" unicode="&#xda;" horiz-adv-x="609" 
d="M465 867l-134 -144h-80l107 144h107zM305 -12q-114 0 -180 63.5t-66 178.5v437h135v-438q0 -59 29 -91t82 -32t81.5 32t28.5 91v438h135v-437q0 -114 -65.5 -178t-179.5 -64z" />
    <glyph glyph-name="Ucircumflex" unicode="&#xdb;" horiz-adv-x="609" 
d="M439 723h-70l-64 91l-61 -91h-70l77 144h108zM305 -12q-114 0 -180 63.5t-66 178.5v437h135v-438q0 -59 29 -91t82 -32t81.5 32t28.5 91v438h135v-437q0 -114 -65.5 -178t-179.5 -64z" />
    <glyph glyph-name="Udieresis" unicode="&#xdc;" horiz-adv-x="609" 
d="M464 777q0 -27 -19.5 -46t-46.5 -19q-26 0 -45 19t-19 46t19 45.5t45 18.5q27 0 46.5 -18.5t19.5 -45.5zM276 777q0 -27 -18.5 -46t-45.5 -19t-46 19t-19 46t19 45.5t46 18.5t45.5 -18.5t18.5 -45.5zM305 -12q-114 0 -180 63.5t-66 178.5v437h135v-438q0 -59 29 -91
t82 -32t81.5 32t28.5 91v438h135v-437q0 -114 -65.5 -178t-179.5 -64z" />
    <glyph glyph-name="Yacute" unicode="&#xdd;" horiz-adv-x="538" 
d="M336 0h-134v275l-206 392h148l125 -268l125 268h148l-206 -392v-275zM429 867l-134 -144h-80l107 144h107z" />
    <glyph glyph-name="Thorn" unicode="&#xde;" horiz-adv-x="533" 
d="M193 0h-134v667h134v-109h112q98 0 152 -61.5t54 -152.5t-54 -151.5t-152 -60.5h-112v-132zM288 250q39 0 62.5 25.5t23.5 68.5q0 44 -23.5 70t-62.5 26h-95v-190h95z" />
    <glyph glyph-name="germandbls" unicode="&#xdf;" horiz-adv-x="580" 
d="M565 138q0 -63 -49 -106.5t-127 -43.5q-102 0 -172 70l47 83q19 -24 49.5 -41t64.5 -17q30 0 48 14.5t18 36.5q0 21 -22 36t-53.5 26.5t-63 27t-53.5 46.5t-22 77q0 33 17 60.5t37 41.5t37 32t17 36q0 24 -21.5 39t-51.5 15q-39 0 -63.5 -23t-24.5 -66v-482h-120v482
q0 83 57 139t152 56q79 0 136.5 -41t57.5 -103q0 -37 -18 -66t-39 -43.5t-39 -33t-18 -36.5q0 -19 22.5 -31.5t55 -23.5t64.5 -26.5t54.5 -50t22.5 -84.5z" />
    <glyph glyph-name="agrave" unicode="&#xe0;" 
d="M425 0h-121v48q-20 -28 -54.5 -44t-72.5 -16q-61 0 -105 43t-44 117q0 75 43.5 116t105.5 41q39 0 73.5 -15t53.5 -42v63q0 39 -23.5 61.5t-65.5 22.5q-66 0 -119 -52l-45 82q73 70 186 70q85 0 136.5 -41.5t51.5 -129.5v-324zM223 69q56 0 81 46v62q-26 47 -81 47
q-34 0 -54.5 -21.5t-20.5 -56.5t20.5 -56t54.5 -21zM291 556h-80l-134 144h107z" />
    <glyph glyph-name="aacute" unicode="&#xe1;" 
d="M425 0h-121v48q-20 -28 -54.5 -44t-72.5 -16q-61 0 -105 43t-44 117q0 75 43.5 116t105.5 41q39 0 73.5 -15t53.5 -42v63q0 39 -23.5 61.5t-65.5 22.5q-66 0 -119 -52l-45 82q73 70 186 70q85 0 136.5 -41.5t51.5 -129.5v-324zM223 69q56 0 81 46v62q-26 47 -81 47
q-34 0 -54.5 -21.5t-20.5 -56.5t20.5 -56t54.5 -21zM398 700l-134 -144h-80l107 144h107z" />
    <glyph glyph-name="acircumflex" unicode="&#xe2;" 
d="M425 0h-121v48q-20 -28 -54.5 -44t-72.5 -16q-61 0 -105 43t-44 117q0 75 43.5 116t105.5 41q39 0 73.5 -15t53.5 -42v63q0 39 -23.5 61.5t-65.5 22.5q-66 0 -119 -52l-45 82q73 70 186 70q85 0 136.5 -41.5t51.5 -129.5v-324zM223 69q56 0 81 46v62q-26 47 -81 47
q-34 0 -54.5 -21.5t-20.5 -56.5t20.5 -56t54.5 -21zM373 556h-70l-64 91l-61 -91h-70l77 144h108z" />
    <glyph glyph-name="atilde" unicode="&#xe3;" 
d="M425 0h-121v48q-20 -28 -54.5 -44t-72.5 -16q-61 0 -105 43t-44 117q0 75 43.5 116t105.5 41q39 0 73.5 -15t53.5 -42v63q0 39 -23.5 61.5t-65.5 22.5q-66 0 -119 -52l-45 82q73 70 186 70q85 0 136.5 -41.5t51.5 -129.5v-324zM223 69q56 0 81 46v62q-26 47 -81 47
q-34 0 -54.5 -21.5t-20.5 -56.5t20.5 -56t54.5 -21zM288 554q-26 0 -44.5 18t-31.5 35.5t-26 17.5q-31 0 -31 -65h-62q0 62 25 98t71 36q26 0 44.5 -18t32 -35.5t26.5 -17.5q30 0 30 65h62q0 -62 -25 -98t-71 -36z" />
    <glyph glyph-name="adieresis" unicode="&#xe4;" 
d="M425 0h-121v48q-20 -28 -54.5 -44t-72.5 -16q-61 0 -105 43t-44 117q0 75 43.5 116t105.5 41q39 0 73.5 -15t53.5 -42v63q0 39 -23.5 61.5t-65.5 22.5q-66 0 -119 -52l-45 82q73 70 186 70q85 0 136.5 -41.5t51.5 -129.5v-324zM223 69q56 0 81 46v62q-26 47 -81 47
q-34 0 -54.5 -21.5t-20.5 -56.5t20.5 -56t54.5 -21zM398 610q0 -27 -19.5 -46t-46.5 -19q-26 0 -45 19t-19 46t19 45.5t45 18.5q27 0 46.5 -18.5t19.5 -45.5zM210 610q0 -27 -18.5 -46t-45.5 -19t-46 19t-19 46t19 45.5t46 18.5t45.5 -18.5t18.5 -45.5z" />
    <glyph glyph-name="aring" unicode="&#xe5;" 
d="M425 0h-121v48q-20 -28 -54.5 -44t-72.5 -16q-61 0 -105 43t-44 117q0 75 43.5 116t105.5 41q39 0 73.5 -15t53.5 -42v63q0 39 -23.5 61.5t-65.5 22.5q-66 0 -119 -52l-45 82q73 70 186 70q85 0 136.5 -41.5t51.5 -129.5v-324zM223 69q56 0 81 46v62q-26 47 -81 47
q-34 0 -54.5 -21.5t-20.5 -56.5t20.5 -56t54.5 -21zM239 534q-40 0 -68.5 28.5t-28.5 68.5t28.5 68.5t68.5 28.5t68 -28.5t28 -68.5t-28 -68.5t-68 -28.5zM239 588q18 0 30 12.5t12 30.5t-12 30.5t-30 12.5q-17 0 -30 -13t-13 -30q0 -18 13 -30.5t30 -12.5z" />
    <glyph glyph-name="ae" unicode="&#xe6;" horiz-adv-x="751" 
d="M725 203h-291q4 -52 32.5 -84.5t78.5 -32.5q60 0 99 47l56 -73q-31 -34 -76 -53t-90 -19q-102 0 -159 81q-61 -81 -172 -81q-76 0 -125.5 41.5t-49.5 116.5q0 74 43.5 116.5t110.5 42.5q90 0 134 -56v62q0 39 -25 61.5t-70 22.5q-69 0 -125 -52l-45 82q36 35 86 52.5
t98 17.5q107 0 144 -76q55 76 149 76q92 0 144.5 -72t52.5 -187v-33zM433 285h176q-1 45 -22 79t-65 34t-65.5 -34.5t-23.5 -78.5zM316 164v13q-31 47 -89 47q-35 0 -57.5 -19.5t-22.5 -52.5q0 -34 22 -52.5t57 -18.5q37 0 63.5 25.5t26.5 57.5z" />
    <glyph glyph-name="ccedilla" unicode="&#xe7;" horiz-adv-x="421" 
d="M251 -193q-58 0 -98 32l23 48q36 -28 72 -28q20 0 33 9t13 25q0 26 -26 26q-18 0 -29 -13l-44 25l22 60q-85 11 -136.5 80t-51.5 171q0 111 61 182t160 71q100 0 154 -65l-60 -83q-34 42 -81 42q-51 0 -80.5 -41.5t-29.5 -105.5q0 -65 29.5 -106.5t80.5 -41.5q47 0 81 42
l60 -83q-46 -55 -128 -63l-16 -40q13 10 32 10q27 0 45 -19.5t18 -49.5q0 -38 -29.5 -61t-74.5 -23z" />
    <glyph glyph-name="egrave" unicode="&#xe8;" 
d="M254 -12q-102 0 -163.5 70t-61.5 184q0 108 59 180.5t157 72.5t153 -71.5t55 -186.5v-34h-303q4 -52 34 -85t83 -33q27 0 56 12.5t49 34.5l55 -72q-66 -72 -173 -72zM337 285q-2 45 -24 79t-70 34q-46 0 -68.5 -34t-24.5 -79h187zM299 556h-80l-134 144h107z" />
    <glyph glyph-name="eacute" unicode="&#xe9;" 
d="M405 700l-134 -144h-80l107 144h107zM254 -12q-102 0 -163.5 70t-61.5 184q0 108 59 180.5t157 72.5t153 -71.5t55 -186.5v-34h-303q4 -52 34 -85t83 -33q27 0 56 12.5t49 34.5l55 -72q-66 -72 -173 -72zM337 285q-2 45 -24 79t-70 34q-46 0 -68.5 -34t-24.5 -79h187z
" />
    <glyph glyph-name="ecircumflex" unicode="&#xea;" 
d="M378 556h-70l-64 91l-61 -91h-70l77 144h108zM254 -12q-102 0 -163.5 70t-61.5 184q0 108 59 180.5t157 72.5t153 -71.5t55 -186.5v-34h-303q4 -52 34 -85t83 -33q27 0 56 12.5t49 34.5l55 -72q-66 -72 -173 -72zM337 285q-2 45 -24 79t-70 34q-46 0 -68.5 -34t-24.5 -79
h187z" />
    <glyph glyph-name="edieresis" unicode="&#xeb;" 
d="M404 610q0 -27 -19.5 -46t-46.5 -19q-26 0 -45 19t-19 46t19 45.5t45 18.5q27 0 46.5 -18.5t19.5 -45.5zM216 610q0 -27 -18.5 -46t-45.5 -19t-46 19t-19 46t19 45.5t46 18.5t45.5 -18.5t18.5 -45.5zM254 -12q-102 0 -163.5 70t-61.5 184q0 108 59 180.5t157 72.5
t153 -71.5t55 -186.5v-34h-303q4 -52 34 -85t83 -33q27 0 56 12.5t49 34.5l55 -72q-66 -72 -173 -72zM337 285q-2 45 -24 79t-70 34q-46 0 -68.5 -34t-24.5 -79h187z" />
    <glyph glyph-name="igrave" unicode="&#xec;" horiz-adv-x="228" 
d="M174 0h-120v483h120v-483zM168 556h-80l-134 144h107z" />
    <glyph glyph-name="iacute" unicode="&#xed;" horiz-adv-x="228" 
d="M275 700l-134 -144h-80l107 144h107zM174 0h-120v483h120v-483z" />
    <glyph glyph-name="icircumflex" unicode="&#xee;" horiz-adv-x="228" 
d="M247 556h-70l-64 91l-61 -91h-70l77 144h108zM174 0h-120v483h120v-483z" />
    <glyph glyph-name="idieresis" unicode="&#xef;" horiz-adv-x="228" 
d="M273 610q0 -27 -19.5 -46t-46.5 -19q-26 0 -45 19t-19 46t19 45.5t45 18.5q27 0 46.5 -18.5t19.5 -45.5zM85 610q0 -27 -18.5 -46t-45.5 -19t-46 19t-19 46t19 45.5t46 18.5t45.5 -18.5t18.5 -45.5zM174 0h-120v483h120v-483z" />
    <glyph glyph-name="eth" unicode="&#xf0;" horiz-adv-x="495" 
d="M119 483l-24 57l105 46q-27 26 -52 49l84 74q53 -49 76 -75l87 38l24 -55l-71 -32q118 -153 118 -324q0 -125 -56.5 -199t-162.5 -74q-101 0 -159.5 67.5t-58.5 170.5q0 101 50.5 169t131.5 68t127 -81q-24 73 -95 156zM247 94q46 0 70.5 37.5t24.5 94.5q0 56 -24.5 93.5
t-70.5 37.5t-69.5 -37.5t-23.5 -93.5q0 -57 23.5 -94.5t69.5 -37.5z" />
    <glyph glyph-name="ntilde" unicode="&#xf1;" horiz-adv-x="500" 
d="M445 0h-120v318q0 71 -63 71q-53 0 -88 -60v-329h-120v483h120v-63q21 31 59.5 53t82.5 22q65 0 97 -34.5t32 -97.5v-363zM300 554q-26 0 -44.5 18t-31.5 35.5t-26 17.5q-31 0 -31 -65h-62q0 62 25 98t71 36q26 0 44.5 -18t32 -35.5t26.5 -17.5q30 0 30 65h62
q0 -62 -25 -98t-71 -36z" />
    <glyph glyph-name="ograve" unicode="&#xf2;" horiz-adv-x="495" 
d="M247 -12q-102 0 -160 73.5t-58 180.5t58 180t160 73q103 0 161 -73t58 -180q0 -108 -58 -181t-161 -73zM247 94q47 0 71 42t24 106t-24 105.5t-71 41.5q-46 0 -69.5 -42t-23.5 -105q0 -64 23.5 -106t69.5 -42zM302 556h-80l-134 144h107z" />
    <glyph glyph-name="oacute" unicode="&#xf3;" horiz-adv-x="495" 
d="M408 700l-134 -144h-80l107 144h107zM247 -12q-102 0 -160 73.5t-58 180.5t58 180t160 73q103 0 161 -73t58 -180q0 -108 -58 -181t-161 -73zM247 94q47 0 71 42t24 106t-24 105.5t-71 41.5q-46 0 -69.5 -42t-23.5 -105q0 -64 23.5 -106t69.5 -42z" />
    <glyph glyph-name="ocircumflex" unicode="&#xf4;" horiz-adv-x="495" 
d="M381 556h-70l-64 91l-61 -91h-70l77 144h108zM247 -12q-102 0 -160 73.5t-58 180.5t58 180t160 73q103 0 161 -73t58 -180q0 -108 -58 -181t-161 -73zM247 94q47 0 71 42t24 106t-24 105.5t-71 41.5q-46 0 -69.5 -42t-23.5 -105q0 -64 23.5 -106t69.5 -42z" />
    <glyph glyph-name="otilde" unicode="&#xf5;" horiz-adv-x="495" 
d="M247 -12q-102 0 -160 73.5t-58 180.5t58 180t160 73q103 0 161 -73t58 -180q0 -108 -58 -181t-161 -73zM247 94q47 0 71 42t24 106t-24 105.5t-71 41.5q-46 0 -69.5 -42t-23.5 -105q0 -64 23.5 -106t69.5 -42zM297 554q-26 0 -44.5 18t-31.5 35.5t-26 17.5q-31 0 -31 -65
h-62q0 62 25 98t71 36q26 0 44.5 -18t32 -35.5t26.5 -17.5q30 0 30 65h62q0 -62 -25 -98t-71 -36z" />
    <glyph glyph-name="odieresis" unicode="&#xf6;" horiz-adv-x="495" 
d="M407 610q0 -27 -19.5 -46t-46.5 -19q-26 0 -45 19t-19 46t19 45.5t45 18.5q27 0 46.5 -18.5t19.5 -45.5zM219 610q0 -27 -18.5 -46t-45.5 -19t-46 19t-19 46t19 45.5t46 18.5t45.5 -18.5t18.5 -45.5zM247 -12q-102 0 -160 73.5t-58 180.5t58 180t160 73q103 0 161 -73
t58 -180q0 -108 -58 -181t-161 -73zM247 94q47 0 71 42t24 106t-24 105.5t-71 41.5q-46 0 -69.5 -42t-23.5 -105q0 -64 23.5 -106t69.5 -42z" />
    <glyph glyph-name="divide" unicode="&#xf7;" horiz-adv-x="443" 
d="M280 499q0 -25 -17 -42.5t-42 -17.5q-24 0 -41 17.5t-17 42.5q0 24 17 41t41 17q25 0 42 -17t17 -41zM414 300h-385v75h385v-75zM280 174q0 -25 -17 -42t-42 -17q-24 0 -41 17t-17 42q0 24 17 41.5t41 17.5q25 0 42 -17.5t17 -41.5z" />
    <glyph glyph-name="oslash" unicode="&#xf8;" horiz-adv-x="495" 
d="M108 0h-71l47 65q-55 72 -55 177q0 107 58 180t160 73q69 0 121 -36l17 24h72l-47 -64q56 -71 56 -177q0 -108 -58 -181t-161 -73q-71 0 -121 36zM247 94q47 0 71 42t24 106q0 38 -9 69l-141 -195q22 -22 55 -22zM154 242q0 -41 8 -68l140 193q-22 22 -55 22
q-46 0 -69.5 -42t-23.5 -105z" />
    <glyph glyph-name="ugrave" unicode="&#xf9;" horiz-adv-x="499" 
d="M445 0h-120v61q-21 -31 -59 -52t-83 -21q-129 0 -129 130v365h120v-319q0 -70 64 -70q54 0 87 59v330h120v-483zM303 556h-80l-134 144h107z" />
    <glyph glyph-name="uacute" unicode="&#xfa;" horiz-adv-x="499" 
d="M410 700l-134 -144h-80l107 144h107zM445 0h-120v61q-21 -31 -59 -52t-83 -21q-129 0 -129 130v365h120v-319q0 -70 64 -70q54 0 87 59v330h120v-483z" />
    <glyph glyph-name="ucircumflex" unicode="&#xfb;" horiz-adv-x="499" 
d="M383 556h-70l-64 91l-61 -91h-70l77 144h108zM445 0h-120v61q-21 -31 -59 -52t-83 -21q-129 0 -129 130v365h120v-319q0 -70 64 -70q54 0 87 59v330h120v-483z" />
    <glyph glyph-name="udieresis" unicode="&#xfc;" horiz-adv-x="499" 
d="M409 610q0 -27 -19.5 -46t-46.5 -19q-26 0 -45 19t-19 46t19 45.5t45 18.5q27 0 46.5 -18.5t19.5 -45.5zM221 610q0 -27 -18.5 -46t-45.5 -19t-46 19t-19 46t19 45.5t46 18.5t45.5 -18.5t18.5 -45.5zM445 0h-120v61q-21 -31 -59 -52t-83 -21q-129 0 -129 130v365h120
v-319q0 -70 64 -70q54 0 87 59v330h120v-483z" />
    <glyph glyph-name="yacute" unicode="&#xfd;" horiz-adv-x="447" 
d="M43 -189l18 106q14 -7 31 -7q40 0 53 35l16 46l-163 492h128l97 -338l98 338h128l-189 -565q-21 -64 -59 -88.5t-100 -25.5q-35 0 -58 7zM383 700l-134 -144h-80l107 144h107z" />
    <glyph glyph-name="thorn" unicode="&#xfe;" horiz-adv-x="503" 
d="M296 -12q-79 0 -122 72v-244h-120v851h120v-243q45 71 122 71q82 0 130.5 -67.5t48.5 -185.5q0 -117 -48.5 -185.5t-130.5 -68.5zM257 94q45 0 69.5 41t24.5 107q0 65 -24.5 106t-69.5 41q-24 0 -47.5 -16t-35.5 -40v-182q12 -24 35.5 -40.5t47.5 -16.5z" />
    <glyph glyph-name="ydieresis" unicode="&#xff;" horiz-adv-x="447" 
d="M43 -189l18 106q14 -7 31 -7q40 0 53 35l16 46l-163 492h128l97 -338l98 338h128l-189 -565q-21 -64 -59 -88.5t-100 -25.5q-35 0 -58 7zM384 610q0 -27 -19.5 -46t-46.5 -19q-26 0 -45 19t-19 46t19 45.5t45 18.5q27 0 46.5 -18.5t19.5 -45.5zM196 610q0 -27 -18.5 -46
t-45.5 -19t-46 19t-19 46t19 45.5t46 18.5t45.5 -18.5t18.5 -45.5z" />
    <glyph glyph-name="Amacron" unicode="&#x100;" horiz-adv-x="554" 
d="M556 0h-146l-31 118h-205l-31 -118h-145l198 667h162zM353 236l-76 290l-76 -290h152zM432 730h-311v69h311v-69z" />
    <glyph glyph-name="amacron" unicode="&#x101;" 
d="M425 0h-121v48q-20 -28 -54.5 -44t-72.5 -16q-61 0 -105 43t-44 117q0 75 43.5 116t105.5 41q39 0 73.5 -15t53.5 -42v63q0 39 -23.5 61.5t-65.5 22.5q-66 0 -119 -52l-45 82q73 70 186 70q85 0 136.5 -41.5t51.5 -129.5v-324zM223 69q56 0 81 46v62q-26 47 -81 47
q-34 0 -54.5 -21.5t-20.5 -56.5t20.5 -56t54.5 -21zM394 563h-311v69h311v-69z" />
    <glyph glyph-name="Abreve" unicode="&#x102;" horiz-adv-x="554" 
d="M556 0h-146l-31 118h-205l-31 -118h-145l198 667h162zM353 236l-76 290l-76 -290h152zM427 780q-57 -75 -150 -75t-150 75l55 44q35 -50 95 -50q61 0 95 50z" />
    <glyph glyph-name="abreve" unicode="&#x103;" 
d="M425 0h-121v48q-20 -28 -54.5 -44t-72.5 -16q-61 0 -105 43t-44 117q0 75 43.5 116t105.5 41q39 0 73.5 -15t53.5 -42v63q0 39 -23.5 61.5t-65.5 22.5q-66 0 -119 -52l-45 82q73 70 186 70q85 0 136.5 -41.5t51.5 -129.5v-324zM223 69q56 0 81 46v62q-26 47 -81 47
q-34 0 -54.5 -21.5t-20.5 -56.5t20.5 -56t54.5 -21zM389 613q-57 -75 -150 -75t-150 75l55 44q35 -50 95 -50q61 0 95 50z" />
    <glyph glyph-name="Aogonek" unicode="&#x104;" horiz-adv-x="554" 
d="M557 -103l49 -28q-26 -55 -85 -55q-40 0 -65 21.5t-25 64.5q0 56 45 100h-66l-31 118h-205l-31 -118h-145l198 667h162l198 -667h-1q-64 -38 -64 -95q0 -40 31 -40q25 0 35 32zM353 236l-76 290l-76 -290h152z" />
    <glyph glyph-name="aogonek" unicode="&#x105;" 
d="M427 -103l49 -28q-26 -55 -85 -55q-40 0 -65 21.5t-25 64.5q0 56 45 100h-42v48q-20 -28 -54.5 -44t-72.5 -16q-61 0 -105 43t-44 117q0 75 43.5 116t105.5 41q39 0 73.5 -15t53.5 -42v63q0 39 -23.5 61.5t-65.5 22.5q-66 0 -119 -52l-45 82q73 70 186 70
q85 0 136.5 -41.5t51.5 -129.5v-324q-64 -38 -64 -95q0 -40 31 -40q25 0 35 32zM223 69q56 0 81 46v62q-26 47 -81 47q-34 0 -54.5 -21.5t-20.5 -56.5t20.5 -56t54.5 -21z" />
    <glyph glyph-name="Cacute" unicode="&#x106;" horiz-adv-x="558" 
d="M474 867l-134 -144h-80l107 144h107zM314 -12q-128 0 -205 96t-77 249t77 249t205 96q152 0 223 -160l-111 -49q-16 41 -44.5 65.5t-67.5 24.5q-66 0 -105 -63t-39 -163t39 -163t105 -63q40 0 69 26.5t44 70.5l111 -48q-69 -168 -224 -168z" />
    <glyph glyph-name="cacute" unicode="&#x107;" horiz-adv-x="421" 
d="M410 700l-134 -144h-80l107 144h107zM250 -12q-99 0 -160 71t-61 183q0 111 61 182t160 71q100 0 154 -65l-60 -83q-34 42 -81 42q-51 0 -80.5 -41.5t-29.5 -105.5q0 -65 29.5 -106.5t80.5 -41.5q47 0 81 42l60 -83q-54 -65 -154 -65z" />
    <glyph glyph-name="Ccircumflex" unicode="&#x108;" horiz-adv-x="558" 
d="M447 723h-70l-64 91l-61 -91h-70l77 144h108zM314 -12q-128 0 -205 96t-77 249t77 249t205 96q152 0 223 -160l-111 -49q-16 41 -44.5 65.5t-67.5 24.5q-66 0 -105 -63t-39 -163t39 -163t105 -63q40 0 69 26.5t44 70.5l111 -48q-69 -168 -224 -168z" />
    <glyph glyph-name="ccircumflex" unicode="&#x109;" horiz-adv-x="421" 
d="M385 556h-70l-64 91l-61 -91h-70l77 144h108zM250 -12q-99 0 -160 71t-61 183q0 111 61 182t160 71q100 0 154 -65l-60 -83q-34 42 -81 42q-51 0 -80.5 -41.5t-29.5 -105.5q0 -65 29.5 -106.5t80.5 -41.5q47 0 81 42l60 -83q-54 -65 -154 -65z" />
    <glyph glyph-name="Cdotaccent" unicode="&#x10a;" horiz-adv-x="558" 
d="M314 -12q-128 0 -205 96t-77 249t77 249t205 96q152 0 223 -160l-111 -49q-16 41 -44.5 65.5t-67.5 24.5q-66 0 -105 -63t-39 -163t39 -163t105 -63q40 0 69 26.5t44 70.5l111 -48q-69 -168 -224 -168zM315 712q-27 0 -46 18.5t-19 45.5t19.5 46t45.5 19t45 -19t19 -46
t-19 -45.5t-45 -18.5z" />
    <glyph glyph-name="cdotaccent" unicode="&#x10b;" horiz-adv-x="421" 
d="M250 -12q-99 0 -160 71t-61 183q0 111 61 182t160 71q100 0 154 -65l-60 -83q-34 42 -81 42q-51 0 -80.5 -41.5t-29.5 -105.5q0 -65 29.5 -106.5t80.5 -41.5q47 0 81 42l60 -83q-54 -65 -154 -65zM250 545q-27 0 -46 18.5t-19 45.5t19.5 46t45.5 19t45 -19t19 -46
t-19 -45.5t-45 -18.5z" />
    <glyph glyph-name="Ccaron" unicode="&#x10c;" horiz-adv-x="558" 
d="M370 723h-108l-80 144h70l64 -91l61 91h70zM314 -12q-128 0 -205 96t-77 249t77 249t205 96q152 0 223 -160l-111 -49q-16 41 -44.5 65.5t-67.5 24.5q-66 0 -105 -63t-39 -163t39 -163t105 -63q40 0 69 26.5t44 70.5l111 -48q-69 -168 -224 -168z" />
    <glyph glyph-name="ccaron" unicode="&#x10d;" horiz-adv-x="421" 
d="M308 556h-108l-80 144h70l64 -91l61 91h70zM250 -12q-99 0 -160 71t-61 183q0 111 61 182t160 71q100 0 154 -65l-60 -83q-34 42 -81 42q-51 0 -80.5 -41.5t-29.5 -105.5q0 -65 29.5 -106.5t80.5 -41.5q47 0 81 42l60 -83q-54 -65 -154 -65z" />
    <glyph glyph-name="Dcaron" unicode="&#x10e;" horiz-adv-x="597" 
d="M354 723h-108l-80 144h70l64 -91l61 91h70zM274 0h-215v667h215q136 0 213 -92t77 -242t-77 -241.5t-213 -91.5zM274 118q73 0 113 59t40 156q0 101 -39.5 158.5t-113.5 57.5h-81v-431h81z" />
    <glyph glyph-name="dcaron" unicode="&#x10f;" horiz-adv-x="613" 
d="M618 600q0 -44 -22 -83t-59 -65l-42 34q21 13 39.5 36t22.5 44q-4 -2 -14 -2q-22 0 -37 15.5t-15 39.5q0 25 17.5 42.5t42.5 17.5q28 0 47.5 -21.5t19.5 -57.5zM450 0h-120v61q-46 -73 -122 -73q-82 0 -130.5 67.5t-48.5 185.5q0 116 48.5 185t130.5 69q78 0 122 -73v245
h120v-667zM246 94q24 0 48 16.5t36 40.5v181q-12 24 -36 40.5t-48 16.5q-44 0 -68.5 -41t-24.5 -107q0 -65 24.5 -106t68.5 -41z" />
    <glyph glyph-name="Dcroat" unicode="&#x110;" horiz-adv-x="620" 
d="M298 0h-215v280h-71v99h71v288h215q136 0 213 -92t77 -242t-77 -241.5t-213 -91.5zM298 118q73 0 113 59t40 156q0 101 -39.5 158.5t-113.5 57.5h-81v-170h107v-99h-107v-162h81z" />
    <glyph glyph-name="dcroat" unicode="&#x111;" horiz-adv-x="511" 
d="M450 0h-120v61q-46 -73 -122 -73q-82 0 -130.5 67.5t-48.5 185.5q0 116 48.5 185t130.5 69q78 0 122 -73v107h-132v69h132v69h120v-69h52v-69h-52v-529zM246 94q24 0 48 16.5t36 40.5v181q-12 24 -36 40.5t-48 16.5q-44 0 -68.5 -41t-24.5 -107q0 -65 24.5 -106t68.5 -41
z" />
    <glyph glyph-name="Emacron" unicode="&#x112;" horiz-adv-x="481" 
d="M441 0h-382v667h382v-118h-248v-151h241v-118h-241v-162h248v-118zM405 730h-311v69h311v-69z" />
    <glyph glyph-name="emacron" unicode="&#x113;" 
d="M254 -12q-102 0 -163.5 70t-61.5 184q0 108 59 180.5t157 72.5t153 -71.5t55 -186.5v-34h-303q4 -52 34 -85t83 -33q27 0 56 12.5t49 34.5l55 -72q-66 -72 -173 -72zM337 285q-2 45 -24 79t-70 34q-46 0 -68.5 -34t-24.5 -79h187zM399 563h-311v69h311v-69z" />
    <glyph glyph-name="Ebreve" unicode="&#x114;" horiz-adv-x="481" 
d="M441 0h-382v667h382v-118h-248v-151h241v-118h-241v-162h248v-118zM400 780q-57 -75 -150 -75t-150 75l55 44q35 -50 95 -50q61 0 95 50z" />
    <glyph glyph-name="ebreve" unicode="&#x115;" 
d="M254 -12q-102 0 -163.5 70t-61.5 184q0 108 59 180.5t157 72.5t153 -71.5t55 -186.5v-34h-303q4 -52 34 -85t83 -33q27 0 56 12.5t49 34.5l55 -72q-66 -72 -173 -72zM337 285q-2 45 -24 79t-70 34q-46 0 -68.5 -34t-24.5 -79h187zM396 613q-57 -75 -150 -75t-150 75
l55 44q35 -50 95 -50q61 0 95 50z" />
    <glyph glyph-name="Edotaccent" unicode="&#x116;" horiz-adv-x="481" 
d="M441 0h-382v667h382v-118h-248v-151h241v-118h-241v-162h248v-118zM253 712q-27 0 -46 18.5t-19 45.5t19.5 46t45.5 19t45 -19t19 -46t-19 -45.5t-45 -18.5z" />
    <glyph glyph-name="edotaccent" unicode="&#x117;" 
d="M254 -12q-102 0 -163.5 70t-61.5 184q0 108 59 180.5t157 72.5t153 -71.5t55 -186.5v-34h-303q4 -52 34 -85t83 -33q27 0 56 12.5t49 34.5l55 -72q-66 -72 -173 -72zM337 285q-2 45 -24 79t-70 34q-46 0 -68.5 -34t-24.5 -79h187zM246 545q-27 0 -46 18.5t-19 45.5
t19.5 46t45.5 19t45 -19t19 -46t-19 -45.5t-45 -18.5z" />
    <glyph glyph-name="Eogonek" unicode="&#x118;" horiz-adv-x="481" 
d="M441 0q-64 -38 -64 -95q0 -40 31 -40q25 0 35 32l49 -28q-26 -55 -85 -55q-40 0 -65 21.5t-25 64.5q0 56 45 100h-303v667h382v-118h-248v-151h241v-118h-241v-162h248v-118z" />
    <glyph glyph-name="eogonek" unicode="&#x119;" 
d="M333 -103l49 -28q-26 -55 -85 -55q-40 0 -65 21.5t-25 64.5q0 50 34 88q-97 5 -154.5 74.5t-57.5 179.5q0 108 59 180.5t157 72.5t153 -71.5t55 -186.5v-34h-303q4 -52 34 -85t83 -33q27 0 56 12.5t49 34.5l55 -72q-40 -43 -96 -60q-64 -38 -64 -95q0 -40 31 -40
q25 0 35 32zM337 285q-2 45 -24 79t-70 34q-46 0 -68.5 -34t-24.5 -79h187z" />
    <glyph glyph-name="Ecaron" unicode="&#x11a;" horiz-adv-x="481" 
d="M305 723h-108l-80 144h70l64 -91l61 91h70zM441 0h-382v667h382v-118h-248v-151h241v-118h-241v-162h248v-118z" />
    <glyph glyph-name="ecaron" unicode="&#x11b;" 
d="M301 556h-108l-80 144h70l64 -91l61 91h70zM254 -12q-102 0 -163.5 70t-61.5 184q0 108 59 180.5t157 72.5t153 -71.5t55 -186.5v-34h-303q4 -52 34 -85t83 -33q27 0 56 12.5t49 34.5l55 -72q-66 -72 -173 -72zM337 285q-2 45 -24 79t-70 34q-46 0 -68.5 -34t-24.5 -79
h187z" />
    <glyph glyph-name="Gcircumflex" unicode="&#x11c;" horiz-adv-x="586" 
d="M448 723h-70l-64 91l-61 -91h-70l77 144h108zM314 -12q-127 0 -204.5 95t-77.5 250q0 156 77.5 250.5t204.5 94.5q81 0 136.5 -42.5t85.5 -110.5l-109 -51q-38 85 -113 85q-65 0 -104.5 -60t-39.5 -166t39.5 -166t104.5 -60t101 40v101h-125v118h252v-272
q-90 -106 -228 -106z" />
    <glyph glyph-name="gcircumflex" unicode="&#x11d;" horiz-adv-x="504" 
d="M388 556h-70l-64 91l-61 -91h-70l77 144h108zM227 -196q-109 0 -178 62l48 92q49 -53 124 -53q46 0 77 27.5t31 86.5v59q-46 -74 -122 -74q-82 0 -130 64t-48 181q0 115 48 180.5t130 65.5q80 0 122 -73v61h120v-458q0 -63 -19 -108.5t-52.5 -68.5t-70 -33.5t-80.5 -10.5
zM246 110q24 0 48 16t35 40v166q-11 24 -34.5 40.5t-48.5 16.5q-45 0 -69 -38t-24 -102t24 -101.5t69 -37.5z" />
    <glyph glyph-name="Gbreve" unicode="&#x11e;" horiz-adv-x="586" 
d="M314 -12q-127 0 -204.5 95t-77.5 250q0 156 77.5 250.5t204.5 94.5q81 0 136.5 -42.5t85.5 -110.5l-109 -51q-38 85 -113 85q-65 0 -104.5 -60t-39.5 -166t39.5 -166t104.5 -60t101 40v101h-125v118h252v-272q-90 -106 -228 -106zM466 780q-57 -75 -150 -75t-150 75
l55 44q35 -50 95 -50q61 0 95 50z" />
    <glyph glyph-name="gbreve" unicode="&#x11f;" horiz-adv-x="504" 
d="M227 -196q-109 0 -178 62l48 92q49 -53 124 -53q46 0 77 27.5t31 86.5v59q-46 -74 -122 -74q-82 0 -130 64t-48 181q0 115 48 180.5t130 65.5q80 0 122 -73v61h120v-458q0 -63 -19 -108.5t-52.5 -68.5t-70 -33.5t-80.5 -10.5zM246 110q24 0 48 16t35 40v166
q-11 24 -34.5 40.5t-48.5 16.5q-45 0 -69 -38t-24 -102t24 -101.5t69 -37.5zM402 613q-57 -75 -150 -75t-150 75l55 44q35 -50 95 -50q61 0 95 50z" />
    <glyph glyph-name="Gdotaccent" unicode="&#x120;" horiz-adv-x="586" 
d="M314 -12q-127 0 -204.5 95t-77.5 250q0 156 77.5 250.5t204.5 94.5q81 0 136.5 -42.5t85.5 -110.5l-109 -51q-38 85 -113 85q-65 0 -104.5 -60t-39.5 -166t39.5 -166t104.5 -60t101 40v101h-125v118h252v-272q-90 -106 -228 -106zM316 712q-27 0 -46 18.5t-19 45.5
t19.5 46t45.5 19t45 -19t19 -46t-19 -45.5t-45 -18.5z" />
    <glyph glyph-name="gdotaccent" unicode="&#x121;" horiz-adv-x="504" 
d="M227 -196q-109 0 -178 62l48 92q49 -53 124 -53q46 0 77 27.5t31 86.5v59q-46 -74 -122 -74q-82 0 -130 64t-48 181q0 115 48 180.5t130 65.5q80 0 122 -73v61h120v-458q0 -63 -19 -108.5t-52.5 -68.5t-70 -33.5t-80.5 -10.5zM246 110q24 0 48 16t35 40v166
q-11 24 -34.5 40.5t-48.5 16.5q-45 0 -69 -38t-24 -102t24 -101.5t69 -37.5zM255 545q-27 0 -46 18.5t-19 45.5t19.5 46t45.5 19t45 -19t19 -46t-19 -45.5t-45 -18.5z" />
    <glyph glyph-name="Gcommaaccent" unicode="&#x122;" horiz-adv-x="586" 
d="M378 -138q0 -44 -22 -83t-59 -65l-42 34q21 13 39.5 36t22.5 44q-4 -2 -14 -2q-22 0 -37 15.5t-15 39.5q0 25 17.5 42.5t42.5 17.5q28 0 47.5 -21.5t19.5 -57.5zM314 -12q-127 0 -204.5 95t-77.5 250q0 156 77.5 250.5t204.5 94.5q81 0 136.5 -42.5t85.5 -110.5l-109 -51
q-38 85 -113 85q-65 0 -104.5 -60t-39.5 -166t39.5 -166t104.5 -60t101 40v101h-125v118h252v-272q-90 -106 -228 -106z" />
    <glyph glyph-name="gcommaaccent" unicode="&#x123;" horiz-adv-x="504" 
d="M190 611q0 100 78 154l42 -34q-20 -11 -39 -33.5t-22 -42.5q3 1 6 1q22 0 40 -17t18 -41t-18 -42t-43 -18q-24 0 -43 17.5t-19 55.5zM227 -196q-109 0 -178 62l48 92q49 -53 124 -53q46 0 77 27.5t31 86.5v59q-46 -74 -122 -74q-82 0 -130 64t-48 181q0 115 48 180.5
t130 65.5q80 0 122 -73v61h120v-458q0 -63 -19 -108.5t-52.5 -68.5t-70 -33.5t-80.5 -10.5zM246 110q24 0 48 16t35 40v166q-11 24 -34.5 40.5t-48.5 16.5q-45 0 -69 -38t-24 -102t24 -101.5t69 -37.5z" />
    <glyph glyph-name="Hcircumflex" unicode="&#x124;" horiz-adv-x="608" 
d="M436 723h-70l-64 91l-61 -91h-70l77 144h108zM549 0h-135v284h-221v-284h-134v667h134v-265h221v265h135v-667z" />
    <glyph glyph-name="hcircumflex" unicode="&#x125;" horiz-adv-x="500" 
d="M383 723h-70l-64 91l-61 -91h-70l77 144h108zM446 0h-120v320q0 69 -64 69q-27 0 -50 -17.5t-37 -42.5v-329h-121v667h121v-247q20 31 58.5 53t82.5 22q130 0 130 -130v-365z" />
    <glyph glyph-name="Hbar" unicode="&#x126;" horiz-adv-x="631" 
d="M561 0h-135v284h-221v-284h-134v499h-59v69h59v99h134v-99h221v99h135v-99h53v-69h-53v-499zM205 402h221v97h-221v-97z" />
    <glyph glyph-name="hbar" unicode="&#x127;" horiz-adv-x="508" 
d="M316 529h-133v-109q20 31 58.5 53t82.5 22q130 0 130 -130v-365h-120v320q0 69 -64 69q-27 0 -50 -17.5t-37 -42.5v-329h-121v529h-50v69h50v69h121v-69h133v-69z" />
    <glyph glyph-name="Itilde" unicode="&#x128;" horiz-adv-x="252" 
d="M193 0h-134v667h134v-667zM177 721q-26 0 -44.5 17.5t-31.5 35.5t-26 18q-31 0 -31 -65h-62q0 62 25 98t71 36q20 0 36.5 -11t25 -24.5t19.5 -24.5t22 -11q30 0 30 65h62q0 -62 -25 -98t-71 -36z" />
    <glyph glyph-name="itilde" unicode="&#x129;" horiz-adv-x="228" 
d="M174 0h-120v483h120v-483zM164 554q-26 0 -44.5 18t-31.5 35.5t-26 17.5q-31 0 -31 -65h-62q0 62 25 98t71 36q26 0 44.5 -18t32 -35.5t26.5 -17.5q30 0 30 65h62q0 -62 -25 -98t-71 -36z" />
    <glyph glyph-name="Imacron" unicode="&#x12a;" horiz-adv-x="252" 
d="M193 0h-134v667h134v-667zM282 730h-311v69h311v-69z" />
    <glyph glyph-name="imacron" unicode="&#x12b;" horiz-adv-x="228" 
d="M174 0h-120v483h120v-483zM270 563h-311v69h311v-69z" />
    <glyph glyph-name="Ibreve" unicode="&#x12c;" horiz-adv-x="252" 
d="M193 0h-134v667h134v-667zM278 780q-57 -75 -150 -75t-150 75l55 44q35 -50 95 -50q61 0 95 50z" />
    <glyph glyph-name="ibreve" unicode="&#x12d;" horiz-adv-x="228" 
d="M174 0h-120v483h120v-483zM265 613q-57 -75 -150 -75t-150 75l55 44q35 -50 95 -50q61 0 95 50z" />
    <glyph glyph-name="Iogonek" unicode="&#x12e;" horiz-adv-x="252" 
d="M195 -103l49 -28q-26 -55 -85 -55q-40 0 -65 21.5t-25 64.5q0 56 45 100h-55v667h134v-667q-64 -38 -64 -95q0 -40 31 -40q25 0 35 32z" />
    <glyph glyph-name="iogonek" unicode="&#x12f;" horiz-adv-x="228" 
d="M176 -103l49 -28q-26 -55 -85 -55q-40 0 -65 21.5t-25 64.5q0 56 45 100h-41v483h120v-483q-64 -38 -64 -95q0 -40 31 -40q25 0 35 32zM114 537q-29 0 -50.5 21t-21.5 51t21.5 51.5t50.5 21.5q30 0 51 -21.5t21 -51.5t-21 -51t-51 -21z" />
    <glyph glyph-name="Idotaccent" unicode="&#x130;" horiz-adv-x="252" 
d="M193 0h-134v667h134v-667zM127 712q-27 0 -46 18.5t-19 45.5t19.5 46t45.5 19t45 -19t19 -46t-19 -45.5t-45 -18.5z" />
    <glyph glyph-name="dotlessi" unicode="&#x131;" horiz-adv-x="228" 
d="M174 0h-120v483h120v-483z" />
    <glyph glyph-name="IJ" unicode="&#x132;" horiz-adv-x="669" 
d="M193 0h-134v667h134v-667zM403 -12q-89 0 -144 51l48 105q35 -37 83 -37q40 0 63.5 23.5t23.5 66.5v470h134v-474q0 -102 -56 -153.5t-152 -51.5z" />
    <glyph glyph-name="ij" unicode="&#x133;" horiz-adv-x="457" 
d="M114 537q-29 0 -50.5 21t-21.5 51t21.5 51.5t50.5 21.5q30 0 51 -21.5t21 -51.5t-21 -51t-51 -21zM174 0h-120v483h120v-483zM342 537q-29 0 -50.5 21t-21.5 51t21.5 51.5t50.5 21.5q30 0 51 -21.5t21 -51.5t-21 -51t-51 -21zM250 -196q-56 0 -92 29l30 91q19 -19 45 -19
q49 0 49 67v511h120v-511q0 -168 -152 -168z" />
    <glyph glyph-name="Jcircumflex" unicode="&#x134;" horiz-adv-x="417" 
d="M425 723h-70l-64 91l-61 -91h-70l77 144h108zM151 -12q-89 0 -144 51l48 105q35 -37 83 -37q40 0 63.5 23.5t23.5 66.5v470h134v-474q0 -102 -56 -153.5t-152 -51.5z" />
    <glyph glyph-name="jcircumflex" unicode="&#x135;" horiz-adv-x="228" 
d="M249 556h-70l-64 91l-61 -91h-70l77 144h108zM20 -196q-55 0 -90 29l30 94q19 -19 45 -19q49 0 49 64v511h120v-511q0 -168 -154 -168z" />
    <glyph glyph-name="Kcommaaccent" unicode="&#x136;" horiz-adv-x="559" 
d="M349 -138q0 -44 -22 -83t-59 -65l-42 34q21 13 39.5 36t22.5 44q-4 -2 -14 -2q-22 0 -37 15.5t-15 39.5q0 25 17.5 42.5t42.5 17.5q28 0 47.5 -21.5t19.5 -57.5zM552 0h-158l-154 261l-47 -74v-187h-134v667h134v-303l188 303h156l-213 -314z" />
    <glyph glyph-name="kcommaaccent" unicode="&#x137;" horiz-adv-x="469" 
d="M304 -138q0 -44 -22 -83t-59 -65l-42 34q21 13 39.5 36t22.5 44q-4 -2 -14 -2q-22 0 -37 15.5t-15 39.5q0 25 17.5 42.5t42.5 17.5q28 0 47.5 -21.5t19.5 -57.5zM466 0h-141l-100 189l-51 -71v-118h-120v667h120v-403l147 219h140l-153 -217z" />
    <glyph glyph-name="kgreenlandic" unicode="&#x138;" horiz-adv-x="469" 
d="M466 0h-141l-100 189l-51 -71v-118h-120v483h120v-219l147 219h140l-153 -217z" />
    <glyph glyph-name="Lacute" unicode="&#x139;" horiz-adv-x="444" 
d="M398 867l-134 -144h-80l107 144h107zM417 0h-358v667h134v-549h224v-118z" />
    <glyph glyph-name="lacute" unicode="&#x13a;" horiz-adv-x="228" 
d="M275 867l-134 -144h-80l107 144h107zM174 0h-120v667h120v-667z" />
    <glyph glyph-name="Lcommaaccent" unicode="&#x13b;" horiz-adv-x="444" 
d="M290 -138q0 -44 -22 -83t-59 -65l-42 34q21 13 39.5 36t22.5 44q-4 -2 -14 -2q-22 0 -37 15.5t-15 39.5q0 25 17.5 42.5t42.5 17.5q28 0 47.5 -21.5t19.5 -57.5zM417 0h-358v667h134v-549h224v-118z" />
    <glyph glyph-name="lcommaaccent" unicode="&#x13c;" horiz-adv-x="228" 
d="M183 -138q0 -44 -22 -83t-59 -65l-42 34q21 13 39.5 36t22.5 44q-4 -2 -14 -2q-22 0 -37 15.5t-15 39.5q0 25 17.5 42.5t42.5 17.5q28 0 47.5 -21.5t19.5 -57.5zM174 0h-120v667h120v-667z" />
    <glyph glyph-name="Lcaron" unicode="&#x13d;" horiz-adv-x="444" 
d="M384 601q0 -44 -22 -83t-59 -65l-42 34q21 13 39.5 36t22.5 44q-4 -2 -14 -2q-22 0 -37 15.5t-15 39.5q0 25 17.5 42.5t42.5 17.5q28 0 47.5 -21.5t19.5 -57.5zM417 0h-358v667h134v-549h224v-118z" />
    <glyph glyph-name="lcaron" unicode="&#x13e;" horiz-adv-x="335" 
d="M353 601q0 -44 -22 -83t-59 -65l-42 34q21 13 39.5 36t22.5 44q-4 -2 -14 -2q-22 0 -37 15.5t-15 39.5q0 25 17.5 42.5t42.5 17.5q28 0 47.5 -21.5t19.5 -57.5zM174 0h-120v667h120v-667z" />
    <glyph glyph-name="Ldot" unicode="&#x13f;" horiz-adv-x="485" 
d="M417 0h-358v667h134v-549h224v-118zM445 341q0 -31 -23 -54t-54 -23t-54 23t-23 54q0 32 23 55t54 23t54 -23t23 -55z" />
    <glyph glyph-name="ldot" unicode="&#x140;" horiz-adv-x="371" 
d="M174 0h-120v667h120v-667zM376 244q0 -31 -23 -54t-54 -23t-54 23t-23 54q0 32 23 55t54 23t54 -23t23 -55z" />
    <glyph glyph-name="Lslash" unicode="&#x141;" horiz-adv-x="455" 
d="M12 205v110l59 34v318h134v-240l67 39v-111l-67 -39v-198h224v-118h-358v239z" />
    <glyph glyph-name="lslash" unicode="&#x142;" horiz-adv-x="275" 
d="M12 219v89l65 37v322h120v-253l65 37v-88l-65 -38v-325h-120v256z" />
    <glyph glyph-name="Nacute" unicode="&#x143;" horiz-adv-x="606" 
d="M463 867l-134 -144h-80l107 144h107zM548 0h-128l-227 394v-394h-134v667h136l218 -380v380h135v-667z" />
    <glyph glyph-name="nacute" unicode="&#x144;" horiz-adv-x="500" 
d="M410 700l-134 -144h-80l107 144h107zM445 0h-120v318q0 71 -63 71q-53 0 -88 -60v-329h-120v483h120v-63q21 31 59.5 53t82.5 22q65 0 97 -34.5t32 -97.5v-363z" />
    <glyph glyph-name="Ncommaaccent" unicode="&#x145;" horiz-adv-x="606" 
d="M372 -138q0 -44 -22 -83t-59 -65l-42 34q21 13 39.5 36t22.5 44q-4 -2 -14 -2q-22 0 -37 15.5t-15 39.5q0 25 17.5 42.5t42.5 17.5q28 0 47.5 -21.5t19.5 -57.5zM548 0h-128l-227 394v-394h-134v667h136l218 -380v380h135v-667z" />
    <glyph glyph-name="ncommaaccent" unicode="&#x146;" horiz-adv-x="500" 
d="M317 -138q0 -44 -22 -83t-59 -65l-42 34q21 13 39.5 36t22.5 44q-4 -2 -14 -2q-22 0 -37 15.5t-15 39.5q0 25 17.5 42.5t42.5 17.5q28 0 47.5 -21.5t19.5 -57.5zM445 0h-120v318q0 71 -63 71q-53 0 -88 -60v-329h-120v483h120v-63q21 31 59.5 53t82.5 22q65 0 97 -34.5
t32 -97.5v-363z" />
    <glyph glyph-name="Ncaron" unicode="&#x147;" horiz-adv-x="606" 
d="M358 723h-108l-80 144h70l64 -91l61 91h70zM548 0h-128l-227 394v-394h-134v667h136l218 -380v380h135v-667z" />
    <glyph glyph-name="ncaron" unicode="&#x148;" horiz-adv-x="500" 
d="M305 556h-108l-80 144h70l64 -91l61 91h70zM445 0h-120v318q0 71 -63 71q-53 0 -88 -60v-329h-120v483h120v-63q21 31 59.5 53t82.5 22q65 0 97 -34.5t32 -97.5v-363z" />
    <glyph glyph-name="napostrophe" unicode="&#x149;" horiz-adv-x="500" 
d="M165 682q0 -44 -22 -83t-59 -65l-42 34q21 13 39.5 36t22.5 44q-4 -2 -14 -2q-22 0 -37 15.5t-15 39.5q0 25 17.5 42.5t42.5 17.5q28 0 47.5 -21.5t19.5 -57.5zM445 0h-120v318q0 71 -63 71q-53 0 -88 -60v-329h-120v483h120v-63q21 31 59.5 53t82.5 22q65 0 97 -34.5
t32 -97.5v-363z" />
    <glyph glyph-name="Eng" unicode="&#x14a;" horiz-adv-x="606" 
d="M340 -196q-90 0 -145 51l49 104q35 -37 83 -37q40 0 63 23.5t23 65.5v1l-220 396v-408h-134v667h136l218 -394v394h135v-658q0 -103 -56 -154t-152 -51z" />
    <glyph glyph-name="eng" unicode="&#x14b;" horiz-adv-x="500" 
d="M445 363v-391q0 -168 -154 -168q-54 0 -90 29l30 96q19 -19 45 -19q49 0 49 62v346q0 71 -63 71q-53 0 -88 -60v-329h-120v483h120v-63q21 31 59.5 53t82.5 22q65 0 97 -34.5t32 -97.5z" />
    <glyph glyph-name="Omacron" unicode="&#x14c;" horiz-adv-x="622" 
d="M466 730h-311v69h311v-69zM310 -12q-128 0 -203 96.5t-75 248.5t75 248.5t203 96.5q129 0 204 -96.5t75 -248.5t-75 -248.5t-204 -96.5zM310 107q67 0 104.5 63.5t37.5 162.5q0 100 -37.5 163t-104.5 63q-66 0 -103 -63t-37 -163q0 -99 37 -162.5t103 -63.5z" />
    <glyph glyph-name="omacron" unicode="&#x14d;" horiz-adv-x="495" 
d="M404 563h-311v69h311v-69zM247 -12q-102 0 -160 73.5t-58 180.5t58 180t160 73q103 0 161 -73t58 -180q0 -108 -58 -181t-161 -73zM247 94q47 0 71 42t24 106t-24 105.5t-71 41.5q-46 0 -69.5 -42t-23.5 -105q0 -64 23.5 -106t69.5 -42z" />
    <glyph glyph-name="Obreve" unicode="&#x14e;" horiz-adv-x="622" 
d="M310 -12q-128 0 -203 96.5t-75 248.5t75 248.5t203 96.5q129 0 204 -96.5t75 -248.5t-75 -248.5t-204 -96.5zM310 107q67 0 104.5 63.5t37.5 162.5q0 100 -37.5 163t-104.5 63q-66 0 -103 -63t-37 -163q0 -99 37 -162.5t103 -63.5zM461 780q-57 -75 -150 -75t-150 75
l55 44q35 -50 95 -50q61 0 95 50z" />
    <glyph glyph-name="obreve" unicode="&#x14f;" horiz-adv-x="495" 
d="M247 -12q-102 0 -160 73.5t-58 180.5t58 180t160 73q103 0 161 -73t58 -180q0 -108 -58 -181t-161 -73zM247 94q47 0 71 42t24 106t-24 105.5t-71 41.5q-46 0 -69.5 -42t-23.5 -105q0 -64 23.5 -106t69.5 -42zM398 613q-57 -75 -150 -75t-150 75l55 44q35 -50 95 -50
q61 0 95 50z" />
    <glyph glyph-name="Ohungarumlaut" unicode="&#x150;" horiz-adv-x="622" 
d="M361 867l-98 -144h-66l70 144h94zM500 867l-98 -144h-66l70 144h94zM310 -12q-128 0 -203 96.5t-75 248.5t75 248.5t203 96.5q129 0 204 -96.5t75 -248.5t-75 -248.5t-204 -96.5zM310 107q67 0 104.5 63.5t37.5 162.5q0 100 -37.5 163t-104.5 63q-66 0 -103 -63t-37 -163
q0 -99 37 -162.5t103 -63.5z" />
    <glyph glyph-name="ohungarumlaut" unicode="&#x151;" horiz-adv-x="495" 
d="M298 700l-98 -144h-66l70 144h94zM437 700l-98 -144h-66l70 144h94zM247 -12q-102 0 -160 73.5t-58 180.5t58 180t160 73q103 0 161 -73t58 -180q0 -108 -58 -181t-161 -73zM247 94q47 0 71 42t24 106t-24 105.5t-71 41.5q-46 0 -69.5 -42t-23.5 -105q0 -64 23.5 -106
t69.5 -42z" />
    <glyph glyph-name="OE" unicode="&#x152;" horiz-adv-x="858" 
d="M821 0h-381v64q-24 -37 -65.5 -56.5t-83.5 -19.5q-119 0 -189 96.5t-70 248.5t70 248t189 96q43 0 84 -18.5t65 -55.5v64h381v-118h-247v-151h240v-118h-240v-162h247v-118zM440 210v246q-17 49 -50 75.5t-76 26.5q-70 0 -107 -62t-37 -163q0 -100 37.5 -163t106.5 -63
q42 0 75.5 27t50.5 76z" />
    <glyph glyph-name="oe" unicode="&#x153;" horiz-adv-x="791" 
d="M765 203h-302q5 -52 35 -85t82 -33q62 0 104 47l56 -72q-66 -72 -173 -72q-105 0 -163 98q-57 -98 -157 -98q-102 0 -160 73.5t-58 180.5t58 180t160 73q100 0 157 -97q54 97 154 97q97 0 152 -72t55 -187v-33zM463 285h187q-2 45 -24.5 79.5t-69.5 34.5q-46 0 -68.5 -35
t-24.5 -79zM342 242q0 65 -24.5 106t-70.5 41q-45 0 -69 -41.5t-24 -105.5q0 -65 24 -106.5t69 -41.5q46 0 70.5 41.5t24.5 106.5z" />
    <glyph glyph-name="Racute" unicode="&#x154;" horiz-adv-x="551" 
d="M443 867l-134 -144h-80l107 144h107zM516 0h-149l-102 241h-72v-241h-134v667h249q91 0 147 -59t56 -152q0 -79 -34 -127t-82 -64zM288 359q39 0 62.5 26t23.5 69t-23.5 69t-62.5 26h-95v-190h95z" />
    <glyph glyph-name="racute" unicode="&#x155;" horiz-adv-x="320" 
d="M340 700l-134 -144h-80l107 144h107zM174 0h-120v483h120v-66q21 33 57.5 55.5t74.5 22.5v-118q-12 3 -29 3q-29 0 -58.5 -16.5t-44.5 -41.5v-322z" />
    <glyph glyph-name="Rcommaaccent" unicode="&#x156;" horiz-adv-x="551" 
d="M345 -138q0 -44 -22 -83t-59 -65l-42 34q21 13 39.5 36t22.5 44q-4 -2 -14 -2q-22 0 -37 15.5t-15 39.5q0 25 17.5 42.5t42.5 17.5q28 0 47.5 -21.5t19.5 -57.5zM516 0h-149l-102 241h-72v-241h-134v667h249q91 0 147 -59t56 -152q0 -79 -34 -127t-82 -64zM288 359
q39 0 62.5 26t23.5 69t-23.5 69t-62.5 26h-95v-190h95z" />
    <glyph glyph-name="rcommaaccent" unicode="&#x157;" horiz-adv-x="320" 
d="M228 -138q0 -44 -22 -83t-59 -65l-42 34q21 13 39.5 36t22.5 44q-4 -2 -14 -2q-22 0 -37 15.5t-15 39.5q0 25 17.5 42.5t42.5 17.5q28 0 47.5 -21.5t19.5 -57.5zM174 0h-120v483h120v-66q21 33 57.5 55.5t74.5 22.5v-118q-12 3 -29 3q-29 0 -58.5 -16.5t-44.5 -41.5v-322
z" />
    <glyph glyph-name="Rcaron" unicode="&#x158;" horiz-adv-x="551" 
d="M332 723h-108l-80 144h70l64 -91l61 91h70zM516 0h-149l-102 241h-72v-241h-134v667h249q91 0 147 -59t56 -152q0 -79 -34 -127t-82 -64zM288 359q39 0 62.5 26t23.5 69t-23.5 69t-62.5 26h-95v-190h95z" />
    <glyph glyph-name="rcaron" unicode="&#x159;" horiz-adv-x="320" 
d="M234 556h-108l-80 144h70l64 -91l61 91h70zM174 0h-120v483h120v-66q21 33 57.5 55.5t74.5 22.5v-118q-12 3 -29 3q-29 0 -58.5 -16.5t-44.5 -41.5v-322z" />
    <glyph glyph-name="Sacute" unicode="&#x15a;" horiz-adv-x="498" 
d="M410 867l-134 -144h-80l107 144h107zM244 -12q-142 0 -228 86l66 103q64 -71 161 -71q43 0 67 21t24 53q0 27 -22 47.5t-55 32.5t-72 30.5t-72 39.5t-55 60.5t-22 92.5q0 82 60 138.5t160 56.5q123 0 202 -74l-64 -100q-59 56 -143 56q-36 0 -57 -18.5t-21 -49.5
q0 -28 30.5 -49t74.5 -38t87.5 -40t74 -67.5t30.5 -106.5q0 -90 -59.5 -146.5t-166.5 -56.5z" />
    <glyph glyph-name="sacute" unicode="&#x15b;" horiz-adv-x="412" 
d="M367 700l-134 -144h-80l107 144h107zM203 -12q-120 0 -186 69l51 84q23 -25 60 -42t73 -17q34 0 52.5 14t18.5 37q0 22 -24.5 35.5t-59.5 24.5t-70.5 26t-60 48t-24.5 83q0 61 47 103t129 42q98 0 168 -62l-48 -81q-19 21 -51 35.5t-67 14.5q-28 0 -46 -13t-18 -33
t24.5 -33t60 -24t71 -26.5t60 -50t24.5 -84.5q0 -66 -50 -108t-134 -42z" />
    <glyph glyph-name="Scircumflex" unicode="&#x15c;" horiz-adv-x="498" 
d="M387 723h-70l-64 91l-61 -91h-70l77 144h108zM244 -12q-142 0 -228 86l66 103q64 -71 161 -71q43 0 67 21t24 53q0 27 -22 47.5t-55 32.5t-72 30.5t-72 39.5t-55 60.5t-22 92.5q0 82 60 138.5t160 56.5q123 0 202 -74l-64 -100q-59 56 -143 56q-36 0 -57 -18.5t-21 -49.5
q0 -28 30.5 -49t74.5 -38t87.5 -40t74 -67.5t30.5 -106.5q0 -90 -59.5 -146.5t-166.5 -56.5z" />
    <glyph glyph-name="scircumflex" unicode="&#x15d;" horiz-adv-x="412" 
d="M340 556h-70l-64 91l-61 -91h-70l77 144h108zM203 -12q-120 0 -186 69l51 84q23 -25 60 -42t73 -17q34 0 52.5 14t18.5 37q0 22 -24.5 35.5t-59.5 24.5t-70.5 26t-60 48t-24.5 83q0 61 47 103t129 42q98 0 168 -62l-48 -81q-19 21 -51 35.5t-67 14.5q-28 0 -46 -13
t-18 -33t24.5 -33t60 -24t71 -26.5t60 -50t24.5 -84.5q0 -66 -50 -108t-134 -42z" />
    <glyph glyph-name="Scedilla" unicode="&#x15e;" horiz-adv-x="498" 
d="M236 -195q-58 0 -98 32l23 48q36 -28 72 -28q20 0 33 9t13 25q0 26 -26 26q-18 0 -29 -13l-44 25l23 61q-116 11 -187 84l66 103q64 -71 161 -71q43 0 67 21t24 53q0 27 -22 47.5t-55 32.5t-72 30.5t-72 39.5t-55 60.5t-22 92.5q0 82 60 138.5t160 56.5q123 0 202 -74
l-64 -100q-59 56 -143 56q-36 0 -57 -18.5t-21 -49.5q0 -28 30.5 -49t74.5 -38t87.5 -40t74 -67.5t30.5 -106.5q0 -87 -55 -142.5t-154 -59.5l-16 -41q13 10 32 10q27 0 45 -19.5t18 -49.5q0 -38 -29.5 -61t-74.5 -23z" />
    <glyph glyph-name="scedilla" unicode="&#x15f;" horiz-adv-x="412" 
d="M199 -195q-58 0 -98 32l23 48q36 -28 72 -28q20 0 33 9t13 25q0 26 -26 26q-18 0 -29 -13l-44 25l23 61q-96 11 -149 67l51 84q23 -25 60 -42t73 -17q34 0 52.5 14t18.5 37q0 22 -24.5 35.5t-59.5 24.5t-70.5 26t-60 48t-24.5 83q0 61 47 103t129 42q98 0 168 -62
l-48 -81q-19 21 -51 35.5t-67 14.5q-28 0 -46 -13t-18 -33t24.5 -33t60 -24t71 -26.5t60 -50t24.5 -84.5q0 -61 -44 -102t-118 -47l-17 -41q13 10 32 10q27 0 45 -19.5t18 -49.5q0 -38 -29.5 -61t-74.5 -23z" />
    <glyph glyph-name="Scaron" unicode="&#x160;" horiz-adv-x="498" 
d="M310 723h-108l-80 144h70l64 -91l61 91h70zM244 -12q-142 0 -228 86l66 103q64 -71 161 -71q43 0 67 21t24 53q0 27 -22 47.5t-55 32.5t-72 30.5t-72 39.5t-55 60.5t-22 92.5q0 82 60 138.5t160 56.5q123 0 202 -74l-64 -100q-59 56 -143 56q-36 0 -57 -18.5t-21 -49.5
q0 -28 30.5 -49t74.5 -38t87.5 -40t74 -67.5t30.5 -106.5q0 -90 -59.5 -146.5t-166.5 -56.5z" />
    <glyph glyph-name="scaron" unicode="&#x161;" horiz-adv-x="412" 
d="M263 556h-108l-80 144h70l64 -91l61 91h70zM203 -12q-120 0 -186 69l51 84q23 -25 60 -42t73 -17q34 0 52.5 14t18.5 37q0 22 -24.5 35.5t-59.5 24.5t-70.5 26t-60 48t-24.5 83q0 61 47 103t129 42q98 0 168 -62l-48 -81q-19 21 -51 35.5t-67 14.5q-28 0 -46 -13t-18 -33
t24.5 -33t60 -24t71 -26.5t60 -50t24.5 -84.5q0 -66 -50 -108t-134 -42z" />
    <glyph glyph-name="Tcommaaccent" unicode="&#x162;" horiz-adv-x="473" 
d="M305 -138q0 -44 -22 -83t-59 -65l-42 34q21 13 39.5 36t22.5 44q-4 -2 -14 -2q-22 0 -37 15.5t-15 39.5q0 25 17.5 42.5t42.5 17.5q28 0 47.5 -21.5t19.5 -57.5zM304 0h-134v549h-148v118h430v-118h-148v-549z" />
    <glyph glyph-name="tcommaaccent" unicode="&#x163;" horiz-adv-x="298" 
d="M217 -138q0 -44 -22 -83t-59 -65l-42 34q21 13 39.5 36t22.5 44q-4 -2 -14 -2q-22 0 -37 15.5t-15 39.5q0 25 17.5 42.5t42.5 17.5q28 0 47.5 -21.5t19.5 -57.5zM198 -12q-123 0 -123 128v262h-63v105h63v132h120v-132h80v-105h-80v-234q0 -50 35 -50q25 0 36 14l25 -92
q-31 -28 -93 -28z" />
    <glyph glyph-name="Tcaron" unicode="&#x164;" horiz-adv-x="473" 
d="M292 723h-108l-80 144h70l64 -91l61 91h70zM304 0h-134v549h-148v118h430v-118h-148v-549z" />
    <glyph glyph-name="tcaron" unicode="&#x165;" horiz-adv-x="319" 
d="M367 682q0 -44 -22 -83t-59 -65l-42 34q21 13 39.5 36t22.5 44q-4 -2 -14 -2q-22 0 -37 15.5t-15 39.5q0 25 17.5 42.5t42.5 17.5q28 0 47.5 -21.5t19.5 -57.5zM198 -12q-123 0 -123 128v262h-63v105h63v132h120v-132h80v-105h-80v-234q0 -50 35 -50q25 0 36 14l25 -92
q-31 -28 -93 -28z" />
    <glyph glyph-name="Tbar" unicode="&#x166;" horiz-adv-x="473" 
d="M304 0h-134v267h-102v69h102v213h-148v118h430v-118h-148v-213h98v-69h-98v-267z" />
    <glyph glyph-name="tbar" unicode="&#x167;" horiz-adv-x="298" 
d="M198 -12q-123 0 -123 128v95h-63v69h63v98h-63v105h63v132h120v-132h80v-105h-80v-98h50v-69h-50v-67q0 -50 35 -50q25 0 36 14l25 -92q-31 -28 -93 -28z" />
    <glyph glyph-name="Utilde" unicode="&#x168;" horiz-adv-x="609" 
d="M305 -12q-114 0 -180 63.5t-66 178.5v437h135v-438q0 -59 29 -91t82 -32t81.5 32t28.5 91v438h135v-437q0 -114 -65.5 -178t-179.5 -64zM356 721q-26 0 -44.5 17.5t-31.5 35.5t-26 18q-31 0 -31 -65h-62q0 62 25 98t71 36q20 0 36.5 -11t25 -24.5t19.5 -24.5t22 -11
q30 0 30 65h62q0 -62 -25 -98t-71 -36z" />
    <glyph glyph-name="utilde" unicode="&#x169;" horiz-adv-x="499" 
d="M445 0h-120v61q-21 -31 -59 -52t-83 -21q-129 0 -129 130v365h120v-319q0 -70 64 -70q54 0 87 59v330h120v-483zM299 554q-26 0 -44.5 18t-31.5 35.5t-26 17.5q-31 0 -31 -65h-62q0 62 25 98t71 36q26 0 44.5 -18t32 -35.5t26.5 -17.5q30 0 30 65h62q0 -62 -25 -98
t-71 -36z" />
    <glyph glyph-name="Umacron" unicode="&#x16a;" horiz-adv-x="609" 
d="M305 -12q-114 0 -180 63.5t-66 178.5v437h135v-438q0 -59 29 -91t82 -32t81.5 32t28.5 91v438h135v-437q0 -114 -65.5 -178t-179.5 -64zM461 730h-311v69h311v-69z" />
    <glyph glyph-name="umacron" unicode="&#x16b;" horiz-adv-x="499" 
d="M445 0h-120v61q-21 -31 -59 -52t-83 -21q-129 0 -129 130v365h120v-319q0 -70 64 -70q54 0 87 59v330h120v-483zM405 563h-311v69h311v-69z" />
    <glyph glyph-name="Ubreve" unicode="&#x16c;" horiz-adv-x="609" 
d="M305 -12q-114 0 -180 63.5t-66 178.5v437h135v-438q0 -59 29 -91t82 -32t81.5 32t28.5 91v438h135v-437q0 -114 -65.5 -178t-179.5 -64zM456 780q-57 -75 -150 -75t-150 75l55 44q35 -50 95 -50q61 0 95 50z" />
    <glyph glyph-name="ubreve" unicode="&#x16d;" horiz-adv-x="499" 
d="M445 0h-120v61q-21 -31 -59 -52t-83 -21q-129 0 -129 130v365h120v-319q0 -70 64 -70q54 0 87 59v330h120v-483zM400 613q-57 -75 -150 -75t-150 75l55 44q35 -50 95 -50q61 0 95 50z" />
    <glyph glyph-name="Uring" unicode="&#x16e;" horiz-adv-x="609" 
d="M306 695q-40 0 -68.5 28.5t-28.5 68.5t28.5 68.5t68.5 28.5t68 -28.5t28 -68.5t-28 -68.5t-68 -28.5zM306 749q18 0 30 12.5t12 30.5t-12 30.5t-30 12.5q-17 0 -30 -13t-13 -30q0 -18 13 -30.5t30 -12.5zM305 -12q-114 0 -180 63.5t-66 178.5v437h135v-438q0 -59 29 -91
t82 -32t81.5 32t28.5 91v438h135v-437q0 -114 -65.5 -178t-179.5 -64z" />
    <glyph glyph-name="uring" unicode="&#x16f;" horiz-adv-x="499" 
d="M250 534q-40 0 -68.5 28.5t-28.5 68.5t28.5 68.5t68.5 28.5t68 -28.5t28 -68.5t-28 -68.5t-68 -28.5zM250 588q18 0 30 12.5t12 30.5t-12 30.5t-30 12.5q-17 0 -30 -13t-13 -30q0 -18 13 -30.5t30 -12.5zM445 0h-120v61q-21 -31 -59 -52t-83 -21q-129 0 -129 130v365h120
v-319q0 -70 64 -70q54 0 87 59v330h120v-483z" />
    <glyph glyph-name="Uhungarumlaut" unicode="&#x170;" horiz-adv-x="609" 
d="M305 -12q-114 0 -180 63.5t-66 178.5v437h135v-438q0 -59 29 -91t82 -32t81.5 32t28.5 91v438h135v-437q0 -114 -65.5 -178t-179.5 -64zM356 867l-98 -144h-66l70 144h94zM495 867l-98 -144h-66l70 144h94z" />
    <glyph glyph-name="uhungarumlaut" unicode="&#x171;" horiz-adv-x="499" 
d="M445 0h-120v61q-21 -31 -59 -52t-83 -21q-129 0 -129 130v365h120v-319q0 -70 64 -70q54 0 87 59v330h120v-483zM300 700l-98 -144h-66l70 144h94zM439 700l-98 -144h-66l70 144h94z" />
    <glyph glyph-name="Uogonek" unicode="&#x172;" horiz-adv-x="609" 
d="M395 -103l49 -28q-26 -55 -85 -55q-40 0 -65 21.5t-25 64.5q0 49 33 88q-113 1 -178 64.5t-65 177.5v437h135v-438q0 -59 29 -91t82 -32t81.5 32t28.5 91v438h135v-437q0 -90 -41.5 -149.5t-115.5 -80.5q-64 -38 -64 -95q0 -40 31 -40q25 0 35 32z" />
    <glyph glyph-name="uogonek" unicode="&#x173;" horiz-adv-x="499" 
d="M445 0q-64 -38 -64 -95q0 -40 31 -40q25 0 35 32l49 -28q-26 -55 -85 -55q-40 0 -65 21.5t-25 64.5q0 56 45 100h-41v61q-21 -31 -59 -52t-83 -21q-129 0 -129 130v365h120v-319q0 -70 64 -70q54 0 87 59v330h120v-483z" />
    <glyph glyph-name="Wcircumflex" unicode="&#x174;" horiz-adv-x="767" 
d="M516 723h-70l-64 91l-61 -91h-70l77 144h108zM609 0h-140l-86 444l-85 -444h-140l-152 667h144l86 -464l95 464h105l96 -464l85 464h144z" />
    <glyph glyph-name="wcircumflex" unicode="&#x175;" horiz-adv-x="688" 
d="M477 556h-70l-64 91l-61 -91h-70l77 144h108zM557 0h-127l-86 329l-85 -329h-127l-129 483h124l76 -328l84 328h111l87 -328l76 328h125z" />
    <glyph glyph-name="Ycircumflex" unicode="&#x176;" horiz-adv-x="538" 
d="M402 723h-70l-64 91l-61 -91h-70l77 144h108zM336 0h-134v275l-206 392h148l125 -268l125 268h148l-206 -392v-275z" />
    <glyph glyph-name="ycircumflex" unicode="&#x177;" horiz-adv-x="447" 
d="M43 -189l18 106q14 -7 31 -7q40 0 53 35l16 46l-163 492h128l97 -338l98 338h128l-189 -565q-21 -64 -59 -88.5t-100 -25.5q-35 0 -58 7zM358 556h-70l-64 91l-61 -91h-70l77 144h108z" />
    <glyph glyph-name="Ydieresis" unicode="&#x178;" horiz-adv-x="538" 
d="M429 777q0 -27 -19.5 -46t-46.5 -19q-26 0 -45 19t-19 46t19 45.5t45 18.5q27 0 46.5 -18.5t19.5 -45.5zM241 777q0 -27 -18.5 -46t-45.5 -19t-46 19t-19 46t19 45.5t46 18.5t45.5 -18.5t18.5 -45.5zM336 0h-134v275l-206 392h148l125 -268l125 268h148l-206 -392v-275z
" />
    <glyph glyph-name="Zacute" unicode="&#x179;" horiz-adv-x="484" 
d="M394 867l-134 -144h-80l107 144h107zM448 0h-412v110l241 439h-241v118h405v-108l-243 -441h250v-118z" />
    <glyph glyph-name="zacute" unicode="&#x17a;" horiz-adv-x="407" 
d="M363 700l-134 -144h-80l107 144h107zM372 0h-338v90l181 288h-181v105h334v-87l-182 -291h186v-105z" />
    <glyph glyph-name="Zdotaccent" unicode="&#x17b;" horiz-adv-x="484" 
d="M448 0h-412v110l241 439h-241v118h405v-108l-243 -441h250v-118zM239 712q-27 0 -46 18.5t-19 45.5t19.5 46t45.5 19t45 -19t19 -46t-19 -45.5t-45 -18.5z" />
    <glyph glyph-name="zdotaccent" unicode="&#x17c;" horiz-adv-x="407" 
d="M372 0h-338v90l181 288h-181v105h334v-87l-182 -291h186v-105zM202 545q-27 0 -46 18.5t-19 45.5t19.5 46t45.5 19t45 -19t19 -46t-19 -45.5t-45 -18.5z" />
    <glyph glyph-name="Zcaron" unicode="&#x17d;" horiz-adv-x="484" 
d="M296 723h-108l-80 144h70l64 -91l61 91h70zM448 0h-412v110l241 439h-241v118h405v-108l-243 -441h250v-118z" />
    <glyph glyph-name="zcaron" unicode="&#x17e;" horiz-adv-x="407" 
d="M256 556h-108l-80 144h70l64 -91l61 91h70zM372 0h-338v90l181 288h-181v105h334v-87l-182 -291h186v-105z" />
    <glyph glyph-name="longs" unicode="&#x17f;" horiz-adv-x="288" 
d="M197 0h-121v378h-62v105h62v38q0 73 39 114.5t107 41.5q69 0 106 -36l-39 -84q-19 19 -43 19q-23 0 -36 -14.5t-13 -40.5v-521z" />
    <glyph glyph-name="florin" unicode="&#x192;" horiz-adv-x="426" 
d="M147 -161h-137l89 402h-48v105h71l41 186q14 65 64 105t114 40q65 0 99 -33l-45 -101q-13 16 -38 16q-23 0 -40 -15.5t-23 -43.5l-34 -154h96v-105h-120z" />
    <glyph glyph-name="Ohorn" unicode="&#x1a0;" horiz-adv-x="622" 
d="M310 -12q-128 0 -203 96.5t-75 248.5t75 248.5t203 96.5q132 0 209 -104q33 29 39 62q-4 -2 -13 -2q-20 0 -33.5 14t-13.5 36t16 38t38 16q25 0 43 -19.5t18 -52.5q0 -78 -70 -131q46 -86 46 -202q0 -152 -75 -248.5t-204 -96.5zM310 107q67 0 104.5 63.5t37.5 162.5
q0 100 -37.5 163t-104.5 63q-66 0 -103 -63t-37 -163q0 -99 37 -162.5t103 -63.5z" />
    <glyph glyph-name="ohorn" unicode="&#x1a1;" horiz-adv-x="495" 
d="M480 532q0 -72 -61 -125q47 -68 47 -165q0 -108 -58 -181t-161 -73q-102 0 -160 73.5t-58 180.5t58 180t160 73q84 0 141 -52q30 27 38 59q-4 -2 -14 -2q-20 0 -33.5 14t-13.5 36t15.5 38t38.5 16q25 0 43 -19.5t18 -52.5zM247 94q47 0 71 42t24 106t-24 105.5t-71 41.5
q-46 0 -69.5 -42t-23.5 -105q0 -64 23.5 -106t69.5 -42z" />
    <glyph glyph-name="Uhorn" unicode="&#x1af;" horiz-adv-x="609" 
d="M652 727q0 -44 -26.5 -85t-75.5 -67v-345q0 -114 -65.5 -178t-179.5 -64t-180 63.5t-66 178.5v437h135v-438q0 -59 29 -91t82 -32t81.5 32t28.5 91v438h135v-39q40 29 48 69q-4 -2 -14 -2q-20 0 -33 14t-13 36q0 23 15.5 38.5t37.5 15.5q25 0 43 -19.5t18 -52.5z" />
    <glyph glyph-name="uhorn" unicode="&#x1b0;" horiz-adv-x="499" 
d="M445 0h-120v61q-21 -31 -59 -52t-83 -21q-129 0 -129 130v365h120v-319q0 -70 64 -70q54 0 87 59v330h120v-11q18 25 20 42q-4 -2 -13 -2q-20 0 -33.5 14t-13.5 36t15.5 38t37.5 16q26 0 44 -19.5t18 -52.5q0 -80 -75 -135v-409z" />
    <glyph glyph-name="AEacute" unicode="&#x1fc;" horiz-adv-x="787" 
d="M598 867l-134 -144h-80l107 144h107zM751 0h-382v118h-174l-52 -118h-145l315 667h438v-118h-247v-151h240v-118h-240v-162h247v-118zM369 236v290l-126 -290h126z" />
    <glyph glyph-name="aeacute" unicode="&#x1fd;" horiz-adv-x="751" 
d="M525 700l-134 -144h-80l107 144h107zM725 203h-291q4 -52 32.5 -84.5t78.5 -32.5q60 0 99 47l56 -73q-31 -34 -76 -53t-90 -19q-102 0 -159 81q-61 -81 -172 -81q-76 0 -125.5 41.5t-49.5 116.5q0 74 43.5 116.5t110.5 42.5q90 0 134 -56v62q0 39 -25 61.5t-70 22.5
q-69 0 -125 -52l-45 82q36 35 86 52.5t98 17.5q107 0 144 -76q55 76 149 76q92 0 144.5 -72t52.5 -187v-33zM433 285h176q-1 45 -22 79t-65 34t-65.5 -34.5t-23.5 -78.5zM316 164v13q-31 47 -89 47q-35 0 -57.5 -19.5t-22.5 -52.5q0 -34 22 -52.5t57 -18.5q37 0 63.5 25.5
t26.5 57.5z" />
    <glyph glyph-name="Oslashacute" unicode="&#x1fe;" horiz-adv-x="622" 
d="M471 867l-134 -144h-80l107 144h107zM310 -12q-84 0 -147 43l-19 -31h-88l52 83q-76 96 -76 250q0 152 75 248.5t203 96.5q78 0 142 -40l18 29h88l-49 -79q80 -95 80 -255q0 -152 -75 -248.5t-204 -96.5zM310 107q67 0 104.5 63.5t37.5 162.5q0 75 -21 129l-200 -323
q34 -32 79 -32zM170 333q0 -69 18 -121l197 319q-31 28 -75 28q-66 0 -103 -63t-37 -163z" />
    <glyph glyph-name="oslashacute" unicode="&#x1ff;" horiz-adv-x="495" 
d="M408 700l-134 -144h-80l107 144h107zM108 0h-71l47 65q-55 72 -55 177q0 107 58 180t160 73q69 0 121 -36l17 24h72l-47 -64q56 -71 56 -177q0 -108 -58 -181t-161 -73q-71 0 -121 36zM247 94q47 0 71 42t24 106q0 38 -9 69l-141 -195q22 -22 55 -22zM154 242
q0 -41 8 -68l140 193q-22 22 -55 22q-46 0 -69.5 -42t-23.5 -105z" />
    <glyph glyph-name="Scommaaccent" unicode="&#x218;" horiz-adv-x="498" 
d="M314 -138q0 -44 -22 -83t-59 -65l-42 34q21 13 39.5 36t22.5 44q-4 -2 -14 -2q-22 0 -37 15.5t-15 39.5q0 25 17.5 42.5t42.5 17.5q28 0 47.5 -21.5t19.5 -57.5zM244 -12q-142 0 -228 86l66 103q64 -71 161 -71q43 0 67 21t24 53q0 27 -22 47.5t-55 32.5t-72 30.5
t-72 39.5t-55 60.5t-22 92.5q0 82 60 138.5t160 56.5q123 0 202 -74l-64 -100q-59 56 -143 56q-36 0 -57 -18.5t-21 -49.5q0 -28 30.5 -49t74.5 -38t87.5 -40t74 -67.5t30.5 -106.5q0 -90 -59.5 -146.5t-166.5 -56.5z" />
    <glyph glyph-name="scommaaccent" unicode="&#x219;" horiz-adv-x="412" 
d="M277 -138q0 -44 -22 -83t-59 -65l-42 34q21 13 39.5 36t22.5 44q-4 -2 -14 -2q-22 0 -37 15.5t-15 39.5q0 25 17.5 42.5t42.5 17.5q28 0 47.5 -21.5t19.5 -57.5zM203 -12q-120 0 -186 69l51 84q23 -25 60 -42t73 -17q34 0 52.5 14t18.5 37q0 22 -24.5 35.5t-59.5 24.5
t-70.5 26t-60 48t-24.5 83q0 61 47 103t129 42q98 0 168 -62l-48 -81q-19 21 -51 35.5t-67 14.5q-28 0 -46 -13t-18 -33t24.5 -33t60 -24t71 -26.5t60 -50t24.5 -84.5q0 -66 -50 -108t-134 -42z" />
    <glyph glyph-name="uni021A" unicode="&#x21a;" horiz-adv-x="473" 
d="M305 -138q0 -44 -22 -83t-59 -65l-42 34q21 13 39.5 36t22.5 44q-4 -2 -14 -2q-22 0 -37 15.5t-15 39.5q0 25 17.5 42.5t42.5 17.5q28 0 47.5 -21.5t19.5 -57.5zM304 0h-134v549h-148v118h430v-118h-148v-549z" />
    <glyph glyph-name="uni021B" unicode="&#x21b;" horiz-adv-x="298" 
d="M217 -138q0 -44 -22 -83t-59 -65l-42 34q21 13 39.5 36t22.5 44q-4 -2 -14 -2q-22 0 -37 15.5t-15 39.5q0 25 17.5 42.5t42.5 17.5q28 0 47.5 -21.5t19.5 -57.5zM198 -12q-123 0 -123 128v262h-63v105h63v132h120v-132h80v-105h-80v-234q0 -50 35 -50q25 0 36 14l25 -92
q-31 -28 -93 -28z" />
    <glyph glyph-name="uni0237" unicode="&#x237;" horiz-adv-x="228" 
d="M20 -196q-55 0 -90 29l30 94q19 -19 45 -19q49 0 49 64v511h120v-511q0 -168 -154 -168z" />
    <glyph glyph-name="hsuperior" unicode="&#x2b0;" horiz-adv-x="360" 
d="M317 326h-87v203q0 45 -43 45q-34 0 -57 -36v-212h-86v434h86v-160q14 19 40 33.5t57 14.5q90 0 90 -90v-232z" />
    <glyph glyph-name="uni02BC" unicode="&#x2bc;" horiz-adv-x="253" 
d="M209 578q0 -54 -27 -101t-73 -79l-52 42q25 15 47 42.5t28 52.5q-9 -3 -18 -3q-28 0 -46.5 19.5t-18.5 49.5q0 31 22 53.5t53 22.5q35 0 60 -27t25 -72z" />
    <glyph glyph-name="circumflex" unicode="&#x2c6;" horiz-adv-x="265" 
d="M265 556h-70l-64 91l-61 -91h-70l77 144h108z" />
    <glyph glyph-name="caron" unicode="&#x2c7;" horiz-adv-x="265" 
d="M188 556h-108l-80 144h70l64 -91l61 91h70z" />
    <glyph glyph-name="uni02C9" unicode="&#x2c9;" horiz-adv-x="311" 
d="M311 591h-311v69h311v-69z" />
    <glyph glyph-name="uni02CB" unicode="&#x2cb;" horiz-adv-x="214" 
d="M214 556h-80l-134 144h107z" />
    <glyph glyph-name="breve" unicode="&#x2d8;" horiz-adv-x="300" 
d="M300 613q-57 -75 -150 -75t-150 75l55 44q35 -50 95 -50q61 0 95 50z" />
    <glyph glyph-name="dotaccent" unicode="&#x2d9;" horiz-adv-x="165" 
d="M83 545q-27 0 -46 18.5t-19 45.5t19.5 46t45.5 19t45 -19t19 -46t-19 -45.5t-45 -18.5z" />
    <glyph glyph-name="ring" unicode="&#x2da;" horiz-adv-x="193" 
d="M97 534q-40 0 -68.5 28.5t-28.5 68.5t28.5 68.5t68.5 28.5t68 -28.5t28 -68.5t-28 -68.5t-68 -28.5zM97 588q18 0 30 12.5t12 30.5t-12 30.5t-30 12.5q-17 0 -30 -13t-13 -30q0 -18 13 -30.5t30 -12.5z" />
    <glyph glyph-name="ogonek" unicode="&#x2db;" horiz-adv-x="175" 
d="M126 -103l49 -28q-26 -55 -85 -55q-40 0 -65 21.5t-25 64.5q0 76 81 129l43 -29q-64 -38 -64 -95q0 -40 31 -40q25 0 35 32z" />
    <glyph glyph-name="tilde" unicode="&#x2dc;" horiz-adv-x="291" 
d="M195 554q-26 0 -44.5 18t-31.5 35.5t-26 17.5q-31 0 -31 -65h-62q0 62 25 98t71 36q26 0 44.5 -18t32 -35.5t26.5 -17.5q30 0 30 65h62q0 -62 -25 -98t-71 -36z" />
    <glyph glyph-name="hungarumlaut" unicode="&#x2dd;" horiz-adv-x="303" 
d="M164 700l-98 -144h-66l70 144h94zM303 700l-98 -144h-66l70 144h94z" />
    <glyph glyph-name="hookabovecomb" unicode="&#x309;" horiz-adv-x="175" 
d="M58 724l-44 11q16 55 73 55q31 0 50.5 -17.5t19.5 -51.5q0 -28 -16 -54h-50q19 23 19 51q0 31 -24 31q-20 0 -28 -25z" />
    <glyph glyph-name="uni037E" unicode="&#x37e;" horiz-adv-x="252" 
d="M126 335q-31 0 -54.5 23.5t-23.5 54.5t23 54t55 23t54.5 -23t22.5 -54t-23 -54.5t-54 -23.5zM209 47q0 -109 -100 -181l-52 43q25 14 47 41.5t28 53.5q-4 -3 -18 -3q-28 0 -47 19.5t-19 49.5q0 31 22.5 53.5t53.5 22.5q35 0 60 -27t25 -72z" />
    <glyph glyph-name="tonos" unicode="&#x384;" horiz-adv-x="222" 
d="M161 555h-53l20 210h101z" />
    <glyph glyph-name="dieresistonos" unicode="&#x385;" horiz-adv-x="500" 
d="M261 555h-54l20 210h102zM457 610q0 -27 -19 -46t-46 -19t-46 19t-19 46t19 45.5t46 18.5t46 -18.5t19 -45.5zM171 610q0 -27 -18.5 -46t-45.5 -19t-46 19t-19 46t19 45.5t46 18.5t45.5 -18.5t18.5 -45.5z" />
    <glyph glyph-name="Alphatonos" unicode="&#x386;" horiz-adv-x="554" 
d="M118 555h-53l20 210h101zM556 0h-146l-31 118h-205l-31 -118h-145l198 667h162zM353 236l-76 290l-76 -290h152z" />
    <glyph glyph-name="Epsilontonos" unicode="&#x388;" horiz-adv-x="524" 
d="M42 555h-53l20 210h101zM485 0h-382v667h382v-118h-248v-151h241v-118h-241v-162h248v-118z" />
    <glyph glyph-name="Etatonos" unicode="&#x389;" horiz-adv-x="651" 
d="M42 555h-53l20 210h101zM593 0h-135v284h-221v-284h-134v667h134v-265h221v265h135v-667z" />
    <glyph glyph-name="Iotatonos" unicode="&#x38a;" horiz-adv-x="296" 
d="M42 555h-53l20 210h101zM237 0h-134v667h134v-667z" />
    <glyph glyph-name="Omicrontonos" unicode="&#x38c;" horiz-adv-x="633" 
d="M57 555h-53l20 210h101zM322 -12q-128 0 -203 96.5t-75 248.5t75 248.5t203 96.5q129 0 204 -96.5t75 -248.5t-75 -248.5t-204 -96.5zM322 107q67 0 104.5 63.5t37.5 162.5q0 100 -37.5 163t-104.5 63q-66 0 -103 -63t-37 -163q0 -99 37 -162.5t103 -63.5z" />
    <glyph glyph-name="Upsilontonos" unicode="&#x38e;" horiz-adv-x="627" 
d="M40 555h-53l20 210h101zM425 0h-134v275l-206 392h148l125 -268l125 268h148l-206 -392v-275z" />
    <glyph glyph-name="Omegatonos" unicode="&#x38f;" horiz-adv-x="636" 
d="M57 555h-53l20 210h101zM63 118h98q-112 89 -112 245q0 143 75 229t203 86t203.5 -86t75.5 -229q0 -156 -112 -245h98v-118h-220v118q42 19 69 78.5t27 137.5q0 101 -35 162.5t-106 61.5q-70 0 -105.5 -62t-35.5 -162q0 -77 27.5 -137t69.5 -79v-118h-220v118z" />
    <glyph glyph-name="iotadieresistonos" unicode="&#x390;" horiz-adv-x="242" 
d="M132 555h-54l20 210h102zM328 610q0 -27 -19 -46t-46 -19t-46 19t-19 46t19 45.5t46 18.5t46 -18.5t19 -45.5zM42 610q0 -27 -18.5 -46t-45.5 -19t-46 19t-19 46t19 45.5t46 18.5t45.5 -18.5t18.5 -45.5zM177 -12q-123 0 -123 128v367h120v-347q0 -42 34 -42q6 0 16 2
l8 -101q-23 -7 -55 -7z" />
    <glyph glyph-name="Alpha" unicode="&#x391;" horiz-adv-x="554" 
d="M556 0h-146l-31 118h-205l-31 -118h-145l198 667h162zM353 236l-76 290l-76 -290h152z" />
    <glyph glyph-name="Beta" unicode="&#x392;" horiz-adv-x="558" 
d="M344 0h-285v667h276q85 0 130.5 -48.5t45.5 -121.5q0 -61 -29.5 -101t-77.5 -52q51 -8 84.5 -55t33.5 -109q0 -80 -45.5 -130t-132.5 -50zM303 397q35 0 53 20.5t18 56.5q0 35 -18 55.5t-53 20.5h-110v-153h110zM308 117q37 0 57 21.5t20 60.5q0 36 -20 59t-57 23h-115
v-164h115z" />
    <glyph glyph-name="Gamma" unicode="&#x393;" horiz-adv-x="473" 
d="M193 0h-134v667h382v-118h-248v-549z" />
    <glyph glyph-name="uni0394" unicode="&#x394;" horiz-adv-x="563" 
d="M565 0h-567l202 667h162zM392 118l-111 408l-110 -408h221z" />
    <glyph glyph-name="Epsilon" unicode="&#x395;" horiz-adv-x="481" 
d="M441 0h-382v667h382v-118h-248v-151h241v-118h-241v-162h248v-118z" />
    <glyph glyph-name="Zeta" unicode="&#x396;" horiz-adv-x="484" 
d="M448 0h-412v110l241 439h-241v118h405v-108l-243 -441h250v-118z" />
    <glyph glyph-name="Eta" unicode="&#x397;" horiz-adv-x="608" 
d="M549 0h-135v284h-221v-284h-134v667h134v-265h221v265h135v-667z" />
    <glyph glyph-name="Theta" unicode="&#x398;" horiz-adv-x="622" 
d="M416 280h-210v118h210v-118zM310 -12q-128 0 -203 96.5t-75 248.5t75 248.5t203 96.5q129 0 204 -96.5t75 -248.5t-75 -248.5t-204 -96.5zM310 107q67 0 104.5 63.5t37.5 162.5q0 100 -37.5 163t-104.5 63q-66 0 -103 -63t-37 -163q0 -99 37 -162.5t103 -63.5z" />
    <glyph glyph-name="Iota" unicode="&#x399;" horiz-adv-x="252" 
d="M193 0h-134v667h134v-667z" />
    <glyph glyph-name="Kappa" unicode="&#x39a;" horiz-adv-x="553" 
d="M552 0h-158l-154 261l-47 -74v-187h-134v667h134v-303l188 303h156l-213 -314z" />
    <glyph glyph-name="Lambda" unicode="&#x39b;" horiz-adv-x="554" 
d="M556 0h-146l-133 526l-134 -526h-145l198 667h162z" />
    <glyph glyph-name="Mu" unicode="&#x39c;" horiz-adv-x="735" 
d="M677 0h-134v430l-149 -430h-53l-148 430v-430h-134v667h180l129 -372l130 372h179v-667z" />
    <glyph glyph-name="Nu" unicode="&#x39d;" horiz-adv-x="606" 
d="M548 0h-128l-227 394v-394h-134v667h136l218 -380v380h135v-667z" />
    <glyph glyph-name="Xi" unicode="&#x39e;" horiz-adv-x="511" 
d="M471 549h-431v118h431v-118zM471 0h-431v118h431v-118zM464 280h-417v118h417v-118z" />
    <glyph glyph-name="Omicron" unicode="&#x39f;" horiz-adv-x="622" 
d="M310 -12q-128 0 -203 96.5t-75 248.5t75 248.5t203 96.5q129 0 204 -96.5t75 -248.5t-75 -248.5t-204 -96.5zM310 107q67 0 104.5 63.5t37.5 162.5q0 100 -37.5 163t-104.5 63q-66 0 -103 -63t-37 -163q0 -99 37 -162.5t103 -63.5z" />
    <glyph glyph-name="Pi" unicode="&#x3a0;" horiz-adv-x="608" 
d="M549 0h-135v549h-221v-549h-134v667h490v-667z" />
    <glyph glyph-name="Rho" unicode="&#x3a1;" horiz-adv-x="533" 
d="M193 0h-134v667h246q98 0 152 -61t54 -152t-54 -152t-152 -61h-112v-241zM289 359q38 0 61.5 26t23.5 69t-23.5 69t-61.5 26h-96v-190h96z" />
    <glyph glyph-name="Sigma" unicode="&#x3a3;" horiz-adv-x="474" 
d="M195 549l155 -207l-160 -224h247v-118h-397v120l158 222l-157 207v118h396v-118h-242z" />
    <glyph glyph-name="Tau" unicode="&#x3a4;" horiz-adv-x="473" 
d="M304 0h-134v549h-148v118h430v-118h-148v-549z" />
    <glyph glyph-name="Upsilon" unicode="&#x3a5;" horiz-adv-x="538" 
d="M336 0h-134v275l-206 392h148l125 -268l125 268h148l-206 -392v-275z" />
    <glyph glyph-name="Phi" unicode="&#x3a6;" horiz-adv-x="755" 
d="M445 0h-135v67q-135 15 -206.5 85.5t-71.5 180.5q0 109 71.5 179.5t206.5 85.5v69h135v-69q134 -15 206 -85.5t72 -179.5q0 -110 -72 -180.5t-206 -85.5v-67zM585 333q0 57 -35 94.5t-105 49.5v-289q140 25 140 145zM170 333q0 -120 140 -145v289q-71 -12 -105.5 -49.5
t-34.5 -94.5z" />
    <glyph glyph-name="Chi" unicode="&#x3a7;" horiz-adv-x="553" 
d="M555 0h-154l-125 237l-124 -237h-154l195 341l-184 326h154l113 -223l113 223h155l-184 -325z" />
    <glyph glyph-name="Psi" unicode="&#x3a8;" horiz-adv-x="773" 
d="M454 0h-134v127q-122 14 -191.5 80t-69.5 172v288h136v-285q0 -112 125 -135v420h134v-419q124 24 124 134v285h136v-287q0 -108 -69 -173.5t-191 -79.5v-127z" />
    <glyph glyph-name="uni03A9" unicode="&#x3a9;" horiz-adv-x="617" 
d="M44 118h98q-112 89 -112 245q0 143 75 229t203 86t203.5 -86t75.5 -229q0 -156 -112 -245h98v-118h-220v118q42 19 69 78.5t27 137.5q0 101 -35 162.5t-106 61.5q-70 0 -105.5 -62t-35.5 -162q0 -77 27.5 -137t69.5 -79v-118h-220v118z" />
    <glyph glyph-name="Iotadieresis" unicode="&#x3aa;" horiz-adv-x="252" 
d="M193 0h-134v667h134v-667zM285 794q0 -27 -19.5 -46t-46.5 -19q-26 0 -45 19t-19 46t19 45.5t45 18.5q27 0 46.5 -18.5t19.5 -45.5zM97 794q0 -27 -18.5 -46t-45.5 -19t-46 19t-19 46t19 45.5t46 18.5t45.5 -18.5t18.5 -45.5z" />
    <glyph glyph-name="Upsilondieresis" unicode="&#x3ab;" horiz-adv-x="538" 
d="M336 0h-134v275l-206 392h148l125 -268l125 268h148l-206 -392v-275zM427 794q0 -27 -19.5 -46t-46.5 -19q-26 0 -45 19t-19 46t19 45.5t45 18.5q27 0 46.5 -18.5t19.5 -45.5zM239 794q0 -27 -18.5 -46t-45.5 -19t-46 19t-19 46t19 45.5t46 18.5t45.5 -18.5t18.5 -45.5z
" />
    <glyph glyph-name="alphatonos" unicode="&#x3ac;" horiz-adv-x="517" 
d="M275 555h-53l20 210h101zM500 96l8 -101q-23 -7 -55 -7q-96 0 -117 83q-19 -37 -54 -60t-74 -23q-82 0 -130.5 67.5t-48.5 185.5q0 116 48.5 185t130.5 69q79 0 121 -73v61h121v-347q0 -42 33 -42q7 0 17 2zM246 94q24 0 48 16.5t36 40.5v180q-12 24 -36 40.5t-48 16.5
q-44 0 -68.5 -40.5t-24.5 -106.5q0 -65 24.5 -106t68.5 -41z" />
    <glyph glyph-name="epsilontonos" unicode="&#x3ad;" horiz-adv-x="441" 
d="M236 555h-53l20 210h101zM231 -12q-92 0 -147 40t-55 104q0 48 35 79t83 37q-46 8 -78 40.5t-32 73.5q0 62 55 97.5t152 35.5q108 0 178 -77l-59 -71q-46 52 -122 52q-38 0 -61 -14t-23 -39q0 -55 84 -55h88v-94h-90q-89 0 -89 -55q0 -27 22 -42.5t61 -15.5q87 0 138 53
l57 -72q-69 -77 -197 -77z" />
    <glyph glyph-name="etatonos" unicode="&#x3ae;" horiz-adv-x="500" 
d="M265 555h-53l20 210h101zM445 -184h-120v502q0 71 -63 71q-53 0 -88 -60v-329h-120v483h120v-63q21 31 59.5 53t82.5 22q65 0 97 -34.5t32 -97.5v-547z" />
    <glyph glyph-name="iotatonos" unicode="&#x3af;" horiz-adv-x="242" 
d="M137 555h-53l20 210h101zM177 -12q-123 0 -123 128v367h120v-347q0 -42 34 -42q6 0 16 2l8 -101q-23 -7 -55 -7z" />
    <glyph glyph-name="upsilondieresistonos" unicode="&#x3b0;" horiz-adv-x="498" 
d="M260 555h-54l20 210h102zM456 610q0 -27 -19 -46t-46 -19t-46 19t-19 46t19 45.5t46 18.5t46 -18.5t19 -45.5zM170 610q0 -27 -18.5 -46t-45.5 -19t-46 19t-19 46t19 45.5t46 18.5t45.5 -18.5t18.5 -45.5zM249 -12q-91 0 -143 55t-52 149v291h120v-290q0 -46 20 -72.5
t56 -26.5q47 0 70.5 44.5t23.5 119.5q0 107 -52 193l112 44q65 -109 65 -237q0 -119 -58 -194.5t-162 -75.5z" />
    <glyph glyph-name="alpha" unicode="&#x3b1;" horiz-adv-x="517" 
d="M500 96l8 -101q-23 -7 -55 -7q-96 0 -117 83q-19 -37 -54 -60t-74 -23q-82 0 -130.5 67.5t-48.5 185.5q0 116 48.5 185t130.5 69q79 0 121 -73v61h121v-347q0 -42 33 -42q7 0 17 2zM246 94q24 0 48 16.5t36 40.5v180q-12 24 -36 40.5t-48 16.5q-44 0 -68.5 -40.5
t-24.5 -106.5q0 -65 24.5 -106t68.5 -41z" />
    <glyph glyph-name="beta" unicode="&#x3b2;" horiz-adv-x="504" 
d="M174 453v-302q32 -57 90 -57q41 0 63.5 27.5t22.5 68.5q0 47 -24.5 71t-63.5 24h-28v107h23q37 0 58 23.5t21 65.5t-19.5 65.5t-52.5 23.5q-41 0 -65.5 -29t-24.5 -88zM174 61v-245h-120v637q0 59 18 104t49 70.5t67 37.5t77 12q91 0 143.5 -47t52.5 -134
q0 -57 -31.5 -98.5t-82.5 -53.5q53 -9 90.5 -55t37.5 -121q0 -74 -48.5 -127t-122.5 -53q-84 0 -130 73z" />
    <glyph glyph-name="gamma" unicode="&#x3b3;" horiz-adv-x="447" 
d="M283 -184h-120v113q0 157 -48 303t-127 251h134q46 -71 78 -159t38 -171q30 61 50 153t20 177h121q0 -117 -41 -247t-105 -228v-192z" />
    <glyph glyph-name="delta" unicode="&#x3b4;" horiz-adv-x="495" 
d="M253 -12q-105 0 -164.5 70.5t-59.5 168.5q0 125 105 197q-59 40 -59 110q0 61 47 103t129 42q98 0 168 -62l-49 -83q-43 50 -118 50q-28 0 -45.5 -13t-17.5 -33q0 -17 20.5 -31.5t51.5 -25.5t66.5 -32t66.5 -47t51.5 -73.5t20.5 -108.5q0 -94 -56 -163t-157 -69zM352 220
q0 58 -30 91.5t-86 59.5q-82 -48 -82 -144q0 -54 25.5 -93.5t72.5 -39.5t73.5 38.5t26.5 87.5z" />
    <glyph glyph-name="epsilon" unicode="&#x3b5;" horiz-adv-x="441" 
d="M231 -12q-92 0 -147 40t-55 104q0 48 35 79t83 37q-46 8 -78 40.5t-32 73.5q0 62 55 97.5t152 35.5q108 0 178 -77l-59 -71q-46 52 -122 52q-38 0 -61 -14t-23 -39q0 -55 84 -55h88v-94h-90q-89 0 -89 -55q0 -27 22 -42.5t61 -15.5q87 0 138 53l57 -72q-69 -77 -197 -77z
" />
    <glyph glyph-name="zeta" unicode="&#x3b6;" horiz-adv-x="415" 
d="M275 -38q0 26 -30 26q-96 0 -156 59.5t-60 151.5q0 213 215 363h-204v105h342v-87q-103 -77 -166 -173t-63 -192q0 -56 30.5 -88.5t88.5 -32.5q63 0 90.5 -25t27.5 -75q0 -60 -47 -151h-117q49 78 49 119z" />
    <glyph glyph-name="eta" unicode="&#x3b7;" horiz-adv-x="500" 
d="M445 -184h-120v502q0 71 -63 71q-53 0 -88 -60v-329h-120v483h120v-63q21 31 59.5 53t82.5 22q65 0 97 -34.5t32 -97.5v-547z" />
    <glyph glyph-name="theta" unicode="&#x3b8;" horiz-adv-x="495" 
d="M247 -12q-105 0 -161.5 97.5t-56.5 248.5q0 152 56.5 248.5t161.5 96.5q107 0 163 -96.5t56 -248.5t-56.5 -249t-162.5 -97zM247 94q46 0 68 46.5t26 142.5h-186q4 -96 25.5 -142.5t66.5 -46.5zM247 573q-45 0 -66.5 -46.5t-25.5 -139.5h186q-5 94 -27 140t-67 46z" />
    <glyph glyph-name="iota" unicode="&#x3b9;" horiz-adv-x="242" 
d="M177 -12q-123 0 -123 128v367h120v-347q0 -42 34 -42q6 0 16 2l8 -101q-23 -7 -55 -7z" />
    <glyph glyph-name="kappa" unicode="&#x3ba;" horiz-adv-x="469" 
d="M466 0h-141l-100 189l-51 -71v-118h-120v483h120v-219l147 219h140l-153 -217z" />
    <glyph glyph-name="lambda" unicode="&#x3bb;" horiz-adv-x="447" 
d="M61 565l-18 106q21 8 58 8q62 -1 100 -25.5t59 -88.5l189 -565h-128l-98 338l-97 -338h-128l163 492l-16 46q-13 35 -53 35q-18 0 -31 -8z" />
    <glyph glyph-name="uni03BC" unicode="&#x3bc;" horiz-adv-x="512" 
d="M174 8v-192h-120v667h120v-319q0 -70 65 -70q53 0 86 59v330h120v-347q0 -42 34 -42q6 0 16 2l8 -101q-23 -7 -55 -7q-97 0 -118 86q-16 -38 -44 -62t-61 -24q-35 0 -51 20z" />
    <glyph glyph-name="nu" unicode="&#x3bd;" horiz-adv-x="447" 
d="M279 0h-120l-161 483h128l102 -356q38 75 59 171.5t21 184.5h121q0 -118 -42.5 -251t-107.5 -232z" />
    <glyph glyph-name="xi" unicode="&#x3be;" horiz-adv-x="415" 
d="M245 -12q-100 0 -158 49.5t-58 129.5q0 58 31 97.5t79 55.5q-44 8 -72 41t-28 78q0 38 23 71.5t62 51.5h-77v105h330v-105h-156q-28 -10 -44.5 -34t-16.5 -52q0 -41 27 -63t71 -22h113v-104h-113q-47 0 -76 -24t-29 -73q0 -41 30.5 -68.5t88.5 -27.5q63 0 90.5 -25
t27.5 -75q0 -60 -47 -151h-117q49 78 49 119q0 26 -30 26z" />
    <glyph glyph-name="omicron" unicode="&#x3bf;" horiz-adv-x="495" 
d="M247 -12q-102 0 -160 73.5t-58 180.5t58 180t160 73q103 0 161 -73t58 -180q0 -108 -58 -181t-161 -73zM247 94q47 0 71 42t24 106t-24 105.5t-71 41.5q-46 0 -69.5 -42t-23.5 -105q0 -64 23.5 -106t69.5 -42z" />
    <glyph glyph-name="pi" unicode="&#x3c0;" horiz-adv-x="541" 
d="M467 0h-121v378h-151v-378h-120v378h-63v105h517v-105h-62v-378z" />
    <glyph glyph-name="rho" unicode="&#x3c1;" horiz-adv-x="503" 
d="M296 -12q-78 0 -122 73v-245h-120v426q0 107 55.5 180t153.5 73q100 0 156 -72.5t56 -180.5q0 -117 -48.5 -185.5t-130.5 -68.5zM257 94q45 0 69.5 41t24.5 107q0 65 -22.5 106t-66.5 41q-43 0 -65.5 -41.5t-22.5 -105.5v-91q12 -24 35.5 -40.5t47.5 -16.5z" />
    <glyph glyph-name="sigma1" unicode="&#x3c2;" horiz-adv-x="416" 
d="M250 -12q-96 0 -158.5 71t-62.5 183q0 111 61 182t160 71q100 0 154 -65l-60 -83q-34 42 -81 42q-51 0 -80.5 -41.5t-29.5 -105.5q0 -67 32 -107.5t85 -40.5q123 0 123 -100q0 -61 -48 -151h-115q50 80 50 119q0 26 -30 26z" />
    <glyph glyph-name="sigma" unicode="&#x3c3;" horiz-adv-x="495" 
d="M458 216q0 -95 -54.5 -161.5t-156.5 -66.5q-100 0 -159 73t-59 181q0 103 59.5 172t169.5 69h220v-106h-80q60 -61 60 -161zM342 234q0 99 -55 143h-29q-53 0 -78.5 -39t-25.5 -96q0 -64 23.5 -106t69.5 -42q47 0 71 40.5t24 99.5z" />
    <glyph glyph-name="tau" unicode="&#x3c4;" horiz-adv-x="394" 
d="M260 -12q-123 0 -123 128v262h-119v105h358v-105h-119v-234q0 -50 35 -50q24 0 36 14l25 -92q-31 -28 -93 -28z" />
    <glyph glyph-name="upsilon" unicode="&#x3c5;" horiz-adv-x="498" 
d="M249 -12q-91 0 -143 55t-52 149v291h120v-290q0 -46 20 -72.5t56 -26.5q47 0 70.5 44.5t23.5 119.5q0 107 -52 193l112 44q65 -109 65 -237q0 -119 -58 -194.5t-162 -75.5z" />
    <glyph glyph-name="phi" unicode="&#x3c6;" horiz-adv-x="702" 
d="M672 242q0 -102 -66 -170t-195 -81v-175h-120v175q-130 13 -196 82.5t-66 177.5q0 165 166 244l52 -94q-93 -46 -93 -150q0 -131 137 -153v397h59q159 0 240.5 -69.5t81.5 -183.5zM548 242q0 60 -36 98t-101 44v-286q137 22 137 144z" />
    <glyph glyph-name="chi" unicode="&#x3c7;" horiz-adv-x="438" 
d="M436 -184h-130l-87 224l-89 -224h-128l141 339l-134 328h129l81 -211l79 211h130l-134 -328z" />
    <glyph glyph-name="psi" unicode="&#x3c8;" horiz-adv-x="702" 
d="M411 -184h-120v176q-113 12 -175 73.5t-62 165.5v252h120v-252q0 -112 117 -133v569h120v-568q117 21 117 132v252h120v-252q0 -104 -62.5 -165.5t-174.5 -73.5v-176z" />
    <glyph glyph-name="omega" unicode="&#x3c9;" horiz-adv-x="744" 
d="M715 242q0 -108 -50 -181t-137 -73q-59 0 -99 34t-57 94q-18 -60 -57.5 -94t-98.5 -34q-87 0 -137 73t-50 181q0 79 28 147t76 106l90 -67q-69 -61 -69 -187q0 -64 20 -105.5t58 -41.5q40 0 60 41.5t20 106.5v122h120v-122q0 -64 20 -106t59 -42t59 42t20 106
q0 125 -69 186l90 67q48 -38 76 -106t28 -147z" />
    <glyph glyph-name="iotadieresis" unicode="&#x3ca;" horiz-adv-x="242" 
d="M280 610q0 -27 -19.5 -46t-46.5 -19q-26 0 -45 19t-19 46t19 45.5t45 18.5q27 0 46.5 -18.5t19.5 -45.5zM92 610q0 -27 -18.5 -46t-45.5 -19t-46 19t-19 46t19 45.5t46 18.5t45.5 -18.5t18.5 -45.5zM177 -12q-123 0 -123 128v367h120v-347q0 -42 34 -42q6 0 16 2l8 -101
q-23 -7 -55 -7z" />
    <glyph glyph-name="upsilondieresis" unicode="&#x3cb;" horiz-adv-x="498" 
d="M407 610q0 -27 -19.5 -46t-46.5 -19q-26 0 -45 19t-19 46t19 45.5t45 18.5q27 0 46.5 -18.5t19.5 -45.5zM219 610q0 -27 -18.5 -46t-45.5 -19t-46 19t-19 46t19 45.5t46 18.5t45.5 -18.5t18.5 -45.5zM249 -12q-91 0 -143 55t-52 149v291h120v-290q0 -46 20 -72.5
t56 -26.5q47 0 70.5 44.5t23.5 119.5q0 107 -52 193l112 44q65 -109 65 -237q0 -119 -58 -194.5t-162 -75.5z" />
    <glyph glyph-name="omicrontonos" unicode="&#x3cc;" horiz-adv-x="495" 
d="M263 555h-53l20 210h101zM247 -12q-102 0 -160 73.5t-58 180.5t58 180t160 73q103 0 161 -73t58 -180q0 -108 -58 -181t-161 -73zM247 94q47 0 71 42t24 106t-24 105.5t-71 41.5q-46 0 -69.5 -42t-23.5 -105q0 -64 23.5 -106t69.5 -42z" />
    <glyph glyph-name="upsilontonos" unicode="&#x3cd;" horiz-adv-x="498" 
d="M265 555h-53l20 210h101zM249 -12q-91 0 -143 55t-52 149v291h120v-290q0 -46 20 -72.5t56 -26.5q47 0 70.5 44.5t23.5 119.5q0 107 -52 193l112 44q65 -109 65 -237q0 -119 -58 -194.5t-162 -75.5z" />
    <glyph glyph-name="omegatonos" unicode="&#x3ce;" horiz-adv-x="744" 
d="M388 555h-53l20 210h101zM715 242q0 -108 -50 -181t-137 -73q-59 0 -99 34t-57 94q-18 -60 -57.5 -94t-98.5 -34q-87 0 -137 73t-50 181q0 79 28 147t76 106l90 -67q-69 -61 -69 -187q0 -64 20 -105.5t58 -41.5q40 0 60 41.5t20 106.5v122h120v-122q0 -64 20 -106t59 -42
t59 42t20 106q0 125 -69 186l90 67q48 -38 76 -106t28 -147z" />
    <glyph glyph-name="afii10023" unicode="&#x401;" horiz-adv-x="481" 
d="M408 777q0 -27 -19.5 -46t-46.5 -19q-26 0 -45 19t-19 46t19 45.5t45 18.5q27 0 46.5 -18.5t19.5 -45.5zM220 777q0 -27 -18.5 -46t-45.5 -19t-46 19t-19 46t19 45.5t46 18.5t45.5 -18.5t18.5 -45.5zM441 0h-382v667h382v-118h-248v-151h241v-118h-241v-162h248v-118z
" />
    <glyph glyph-name="afii10051" unicode="&#x402;" horiz-adv-x="646" 
d="M400 -12v117q39 0 62 22.5t23 66.5v13q0 45 -28 71.5t-77 26.5q-48 0 -87 -14v-291h-134v549h-149v118h431v-118h-148v-141q56 14 107 14q105 0 162.5 -61t57.5 -153v-14q0 -102 -61.5 -154t-158.5 -52z" />
    <glyph glyph-name="afii10052" unicode="&#x403;" horiz-adv-x="473" 
d="M404 867l-134 -144h-80l107 144h107zM193 0h-134v667h382v-118h-248v-549z" />
    <glyph glyph-name="afii10053" unicode="&#x404;" horiz-adv-x="558" 
d="M314 -12q-128 0 -205 96t-77 249t77 249t205 96q152 0 223 -160l-111 -49q-34 90 -113 90q-55 0 -91 -43.5t-48 -117.5h247v-118h-248q9 -79 46 -126t94 -47q40 0 69.5 26.5t44.5 70.5l111 -48q-69 -168 -224 -168z" />
    <glyph glyph-name="afii10054" unicode="&#x405;" horiz-adv-x="498" 
d="M244 -12q-142 0 -228 86l66 103q64 -71 161 -71q43 0 67 21t24 53q0 27 -22 47.5t-55 32.5t-72 30.5t-72 39.5t-55 60.5t-22 92.5q0 82 60 138.5t160 56.5q123 0 202 -74l-64 -100q-59 56 -143 56q-36 0 -57 -18.5t-21 -49.5q0 -28 30.5 -49t74.5 -38t87.5 -40t74 -67.5
t30.5 -106.5q0 -90 -59.5 -146.5t-166.5 -56.5z" />
    <glyph glyph-name="afii10055" unicode="&#x406;" horiz-adv-x="252" 
d="M193 0h-134v667h134v-667z" />
    <glyph glyph-name="afii10056" unicode="&#x407;" horiz-adv-x="252" 
d="M193 0h-134v667h134v-667zM285 777q0 -27 -19.5 -46t-46.5 -19q-26 0 -45 19t-19 46t19 45.5t45 18.5q27 0 46.5 -18.5t19.5 -45.5zM97 777q0 -27 -18.5 -46t-45.5 -19t-46 19t-19 46t19 45.5t46 18.5t45.5 -18.5t18.5 -45.5z" />
    <glyph glyph-name="afii10057" unicode="&#x408;" horiz-adv-x="417" 
d="M151 -12q-89 0 -144 51l48 105q35 -37 83 -37q40 0 63.5 23.5t23.5 66.5v470h134v-474q0 -102 -56 -153.5t-152 -51.5z" />
    <glyph glyph-name="afii10058" unicode="&#x409;" horiz-adv-x="888" 
d="M21 -12v119q30 0 48 13.5t32.5 60.5t22.5 135l32 351h393v-241h111q98 0 152.5 -61t54.5 -152t-54 -152t-153 -61h-245v549h-137l-21 -240q-9 -100 -29 -165.5t-52.5 -98.5t-68 -45t-86.5 -12zM644 308h-95v-190h95q39 0 62.5 26t23.5 69t-23.5 69t-62.5 26z" />
    <glyph glyph-name="afii10059" unicode="&#x40a;" horiz-adv-x="888" 
d="M59 0v667h134v-265h222v265h134v-265h118q95 0 147.5 -57.5t52.5 -143.5t-52.5 -143.5t-147.5 -57.5h-252v284h-222v-284h-134zM549 118h102q36 0 57.5 22.5t21.5 60.5t-21.5 60.5t-57.5 22.5h-102v-166z" />
    <glyph glyph-name="afii10060" unicode="&#x40b;" horiz-adv-x="662" 
d="M481 0v194q0 111 -101 111q-48 0 -87 -14v-291h-134v549h-149v118h431v-118h-148v-141q56 14 107 14q106 0 161 -63t55 -165v-194h-135z" />
    <glyph glyph-name="afii10061" unicode="&#x40c;" horiz-adv-x="553" 
d="M442 867l-134 -144h-80l107 144h107zM552 0h-158l-154 261l-47 -74v-187h-134v667h134v-303l188 303h156l-213 -314z" />
    <glyph glyph-name="afii10062" unicode="&#x40e;" horiz-adv-x="538" 
d="M125 -12q-76 0 -126 38l42 109q32 -27 70 -27q28 0 45 14.5t31 45.5l10 26l-201 473h147l126 -325l126 325h147l-229 -543q-29 -69 -72.5 -102.5t-115.5 -33.5zM419 780q-57 -75 -150 -75t-150 75l55 44q35 -50 95 -50q61 0 95 50z" />
    <glyph glyph-name="afii10145" unicode="&#x40f;" horiz-adv-x="608" 
d="M59 0v667h134v-549h222v549h134v-667h-178v-127h-134v127h-178z" />
    <glyph glyph-name="afii10017" unicode="&#x410;" horiz-adv-x="554" 
d="M556 0h-146l-31 118h-205l-31 -118h-145l198 667h162zM353 236l-76 290l-76 -290h152z" />
    <glyph glyph-name="afii10018" unicode="&#x411;" horiz-adv-x="533" 
d="M59 667h410v-118h-276v-126h113q98 0 151.5 -60.5t53.5 -150.5q0 -91 -53.5 -151.5t-151.5 -60.5h-247v667zM290 305h-97v-187h97q38 0 61 25t23 68t-23 68.5t-61 25.5z" />
    <glyph glyph-name="afii10019" unicode="&#x412;" horiz-adv-x="558" 
d="M344 0h-285v667h276q85 0 130.5 -48.5t45.5 -121.5q0 -61 -29.5 -101t-77.5 -52q51 -8 84.5 -55t33.5 -109q0 -80 -45.5 -130t-132.5 -50zM303 397q35 0 53 20.5t18 56.5q0 35 -18 55.5t-53 20.5h-110v-153h110zM308 117q37 0 57 21.5t20 60.5q0 36 -20 59t-57 23h-115
v-164h115z" />
    <glyph glyph-name="afii10020" unicode="&#x413;" horiz-adv-x="473" 
d="M193 0h-134v667h382v-118h-248v-549z" />
    <glyph glyph-name="afii10021" unicode="&#x414;" horiz-adv-x="619" 
d="M20 -123v230q24 4 37.5 11.5t28 29t23.5 64t15 112.5l32 343h393v-549h56v-241h-134v123h-316v-123h-135zM258 322q-13 -139 -70 -204h227v431h-137z" />
    <glyph glyph-name="afii10022" unicode="&#x415;" horiz-adv-x="481" 
d="M441 0h-382v667h382v-118h-248v-151h241v-118h-241v-162h248v-118z" />
    <glyph glyph-name="afii10024" unicode="&#x416;" horiz-adv-x="802" 
d="M160 0h-159l229 353l-214 314h157l161 -261v261h134v-261l161 261h157l-214 -314l229 -353h-159l-154 261l-20 -32v-229h-134v229l-20 32z" />
    <glyph glyph-name="afii10025" unicode="&#x417;" horiz-adv-x="525" 
d="M255 -12q-77 0 -139.5 30t-95.5 78l80 84q25 -33 66 -53t82 -20q53 0 80 24t27 65q0 84 -115 84h-105v118h101q50 0 79.5 19.5t29.5 57.5q0 41 -28.5 62t-75.5 21q-83 0 -136 -67l-76 78q36 51 95.5 79.5t130.5 28.5q102 0 164 -47.5t62 -133.5q0 -56 -37.5 -98.5
t-94.5 -53.5q58 -8 99.5 -51.5t41.5 -108.5q0 -87 -65 -141.5t-170 -54.5z" />
    <glyph glyph-name="afii10026" unicode="&#x418;" horiz-adv-x="606" 
d="M187 0h-128v667h134v-396l218 396h137v-667h-135v410z" />
    <glyph glyph-name="afii10027" unicode="&#x419;" horiz-adv-x="606" 
d="M187 0h-128v667h134v-396l218 396h137v-667h-135v410zM453 780q-57 -75 -150 -75t-150 75l55 44q35 -50 95 -50q61 0 95 50z" />
    <glyph glyph-name="afii10028" unicode="&#x41a;" horiz-adv-x="553" 
d="M552 0h-158l-154 261l-47 -74v-187h-134v667h134v-303l188 303h156l-213 -314z" />
    <glyph glyph-name="afii10029" unicode="&#x41b;" horiz-adv-x="608" 
d="M21 -12v119q30 0 48 13.5t32.5 60.5t22.5 136l32 350h393v-667h-135v549h-136l-21 -240q-9 -100 -29 -165.5t-52.5 -98.5t-68 -45t-86.5 -12z" />
    <glyph glyph-name="afii10030" unicode="&#x41c;" horiz-adv-x="735" 
d="M677 0h-134v430l-149 -430h-53l-148 430v-430h-134v667h180l129 -372l130 372h179v-667z" />
    <glyph glyph-name="afii10031" unicode="&#x41d;" horiz-adv-x="608" 
d="M549 0h-135v284h-221v-284h-134v667h134v-265h221v265h135v-667z" />
    <glyph glyph-name="afii10032" unicode="&#x41e;" horiz-adv-x="622" 
d="M310 -12q-128 0 -203 96.5t-75 248.5t75 248.5t203 96.5q129 0 204 -96.5t75 -248.5t-75 -248.5t-204 -96.5zM310 107q67 0 104.5 63.5t37.5 162.5q0 100 -37.5 163t-104.5 63q-66 0 -103 -63t-37 -163q0 -99 37 -162.5t103 -63.5z" />
    <glyph glyph-name="afii10033" unicode="&#x41f;" horiz-adv-x="608" 
d="M549 0h-135v549h-221v-549h-134v667h490v-667z" />
    <glyph glyph-name="afii10034" unicode="&#x420;" horiz-adv-x="533" 
d="M193 0h-134v667h246q98 0 152 -61t54 -152t-54 -152t-152 -61h-112v-241zM289 359q38 0 61.5 26t23.5 69t-23.5 69t-61.5 26h-96v-190h96z" />
    <glyph glyph-name="afii10035" unicode="&#x421;" horiz-adv-x="558" 
d="M314 -12q-128 0 -205 96t-77 249t77 249t205 96q152 0 223 -160l-111 -49q-16 41 -44.5 65.5t-67.5 24.5q-66 0 -105 -63t-39 -163t39 -163t105 -63q40 0 69 26.5t44 70.5l111 -48q-69 -168 -224 -168z" />
    <glyph glyph-name="afii10036" unicode="&#x422;" horiz-adv-x="473" 
d="M304 0h-134v549h-148v118h430v-118h-148v-549z" />
    <glyph glyph-name="afii10037" unicode="&#x423;" horiz-adv-x="538" 
d="M125 -12q-76 0 -126 38l42 109q32 -27 70 -27q28 0 45 14.5t31 45.5l10 26l-201 473h147l126 -325l126 325h147l-229 -543q-29 -69 -72.5 -102.5t-115.5 -33.5z" />
    <glyph glyph-name="afii10038" unicode="&#x424;" horiz-adv-x="755" 
d="M445 0h-135v67q-135 15 -206.5 85.5t-71.5 180.5q0 109 71.5 179.5t206.5 85.5v69h135v-69q134 -15 206 -85.5t72 -179.5q0 -110 -72 -180.5t-206 -85.5v-67zM585 333q0 57 -35 94.5t-105 49.5v-289q140 25 140 145zM170 333q0 -120 140 -145v289q-71 -12 -105.5 -49.5
t-34.5 -94.5z" />
    <glyph glyph-name="afii10039" unicode="&#x425;" horiz-adv-x="553" 
d="M555 0h-154l-125 237l-124 -237h-154l195 341l-184 326h154l113 -223l113 223h155l-184 -325z" />
    <glyph glyph-name="afii10040" unicode="&#x426;" horiz-adv-x="619" 
d="M471 -123v123h-412v667h134v-549h222v549h134v-549h56v-241h-134z" />
    <glyph glyph-name="afii10041" unicode="&#x427;" horiz-adv-x="560" 
d="M179 667v-199q0 -111 100 -111q49 0 88 14v296h134v-667h-134v254q-53 -15 -107 -15q-106 0 -161 63.5t-55 165.5v199h135z" />
    <glyph glyph-name="afii10042" unicode="&#x428;" horiz-adv-x="838" 
d="M645 667h134v-667h-720v667h134v-549h159v549h134v-549h159v549z" />
    <glyph glyph-name="afii10043" unicode="&#x429;" horiz-adv-x="850" 
d="M645 667h134v-549h56v-241h-134v123h-642v667h134v-549h159v549h134v-549h159v549z" />
    <glyph glyph-name="afii10044" unicode="&#x42a;" horiz-adv-x="643" 
d="M415 0h-245v549h-148v118h282v-241h111q99 0 153 -61t54 -152t-54 -152t-153 -61zM399 308h-95v-190h95q39 0 62.5 26t23.5 69t-23.5 69t-62.5 26z" />
    <glyph glyph-name="afii10045" unicode="&#x42b;" horiz-adv-x="757" 
d="M59 667h134v-241h112q98 0 152 -61t54 -152t-54 -152t-152 -61h-246v667zM289 308h-96v-190h96q38 0 61.5 26t23.5 69t-23.5 69t-61.5 26zM698 0h-135v667h135v-667z" />
    <glyph glyph-name="afii10046" unicode="&#x42c;" horiz-adv-x="533" 
d="M59 667h134v-241h112q98 0 152 -61t54 -152t-54 -152t-152 -61h-246v667zM289 308h-96v-190h96q38 0 61.5 26t23.5 69t-23.5 69t-61.5 26z" />
    <glyph glyph-name="afii10047" unicode="&#x42d;" horiz-adv-x="558" 
d="M243 -12q-155 0 -224 168l112 48q14 -44 43.5 -70.5t69.5 -26.5q58 0 94.5 47t46.5 126h-249v118h247q-11 74 -47 117.5t-92 43.5q-77 0 -113 -90l-111 49q71 160 223 160q128 0 205 -96t77 -249t-77 -249t-205 -96z" />
    <glyph glyph-name="afii10048" unicode="&#x42e;" horiz-adv-x="870" 
d="M559 -12q-118 0 -191 81t-85 215h-90v-284h-134v667h134v-265h92q17 125 89.5 200.5t184.5 75.5q128 0 203 -96.5t75 -248.5t-75 -248.5t-203 -96.5zM559 107q66 0 103.5 63.5t37.5 162.5q0 100 -37.5 163t-103.5 63t-103.5 -63t-37.5 -163q0 -99 37.5 -162.5
t103.5 -63.5z" />
    <glyph glyph-name="afii10049" unicode="&#x42f;" horiz-adv-x="551" 
d="M184 0h-149l121 265q-47 16 -81.5 64t-34.5 127q0 93 56 152t147 59h249v-667h-134v241h-72zM263 359h95v190h-95q-39 0 -62.5 -26t-23.5 -69t23.5 -69t62.5 -26z" />
    <glyph glyph-name="afii10065" unicode="&#x430;" 
d="M425 0h-121v48q-20 -28 -54.5 -44t-72.5 -16q-61 0 -105 43t-44 117q0 75 43.5 116t105.5 41q39 0 73.5 -15t53.5 -42v63q0 39 -23.5 61.5t-65.5 22.5q-66 0 -119 -52l-45 82q73 70 186 70q85 0 136.5 -41.5t51.5 -129.5v-324zM223 69q56 0 81 46v62q-26 47 -81 47
q-34 0 -54.5 -21.5t-20.5 -56.5t20.5 -56t54.5 -21z" />
    <glyph glyph-name="afii10066" unicode="&#x431;" horiz-adv-x="497" 
d="M247 94q46 0 70.5 42.5t24.5 106.5q0 62 -24.5 104t-70.5 42t-70 -42t-24 -104q0 -64 24 -106.5t70 -42.5zM247 -12q-105 0 -161.5 76.5t-56.5 199.5q0 183 48.5 261.5t169.5 99.5q81 14 81 42h122q0 -103 -169 -131q-133 -22 -148 -111q48 70 138 70q91 0 143 -73
t52 -179q0 -107 -57.5 -181t-161.5 -74z" />
    <glyph glyph-name="afii10067" unicode="&#x432;" horiz-adv-x="502" 
d="M306 0h-252v483h245q73 0 110.5 -35t37.5 -89q0 -42 -23 -70.5t-60 -38.5q41 -9 67 -42t26 -77q0 -58 -38 -94.5t-113 -36.5zM278 97q56 0 56 50q0 22 -14.5 36.5t-41.5 14.5h-104v-101h104zM274 295q51 0 51 45q0 21 -13 33.5t-38 12.5h-100v-91h100z" />
    <glyph glyph-name="afii10068" unicode="&#x433;" horiz-adv-x="383" 
d="M366 483v-105h-192v-378h-120v483h312z" />
    <glyph glyph-name="afii10069" unicode="&#x434;" horiz-adv-x="510" 
d="M17 -123v219q31 5 47 31.5t24 107.5l23 248h335v-378h50v-228h-120v123h-239v-123h-120zM220 378l-12 -147q-7 -84 -49 -126h166v273h-105z" />
    <glyph glyph-name="afii10070" unicode="&#x435;" 
d="M254 -12q-102 0 -163.5 70t-61.5 184q0 108 59 180.5t157 72.5t153 -71.5t55 -186.5v-34h-303q4 -52 34 -85t83 -33q27 0 56 12.5t49 34.5l55 -72q-66 -72 -173 -72zM337 285q-2 45 -24 79t-70 34q-46 0 -68.5 -34t-24.5 -79h187z" />
    <glyph glyph-name="afii10072" unicode="&#x436;" horiz-adv-x="645" 
d="M144 0h-141l158 266l-153 217h140l114 -170v170h120v-172l115 172h139l-152 -217l158 -266h-141l-100 189l-19 -27v-162h-120v164l-18 25z" />
    <glyph glyph-name="afii10073" unicode="&#x437;" horiz-adv-x="441" 
d="M210 -12q-128 0 -197 77l57 72q51 -53 137 -53q40 0 62 15.5t22 42.5q0 55 -89 55h-90v94h88q83 0 83 55q0 25 -22.5 39t-60.5 14q-77 0 -122 -52l-59 71q69 77 178 77q96 0 151.5 -35.5t55.5 -97.5q0 -41 -32.5 -73.5t-78.5 -40.5q48 -6 83.5 -37t35.5 -79
q0 -64 -55 -104t-147 -40z" />
    <glyph glyph-name="afii10074" unicode="&#x438;" horiz-adv-x="500" 
d="M170 0h-116v483h120v-272l149 272h123v-483h-121v283z" />
    <glyph glyph-name="afii10075" unicode="&#x439;" horiz-adv-x="500" 
d="M170 0h-116v483h120v-272l149 272h123v-483h-121v283zM400 613q-57 -75 -150 -75t-150 75l55 44q35 -50 95 -50q61 0 95 50z" />
    <glyph glyph-name="afii10076" unicode="&#x43a;" horiz-adv-x="469" 
d="M466 0h-141l-100 189l-51 -71v-118h-120v483h120v-219l147 219h140l-153 -217z" />
    <glyph glyph-name="afii10077" unicode="&#x43b;" horiz-adv-x="500" 
d="M17 -12v101q29 0 45.5 30.5t25.5 115.5l23 248h335v-483h-121v378h-105l-13 -155q-11 -128 -56.5 -181.5t-133.5 -53.5z" />
    <glyph glyph-name="afii10078" unicode="&#x43c;" horiz-adv-x="614" 
d="M560 0h-119v293l-108 -293h-52l-107 293v-293h-120v483h154l99 -269l100 269h153v-483z" />
    <glyph glyph-name="afii10079" unicode="&#x43d;" horiz-adv-x="500" 
d="M174 0h-120v483h120v-180h151v180h121v-483h-121v198h-151v-198z" />
    <glyph glyph-name="afii10080" unicode="&#x43e;" horiz-adv-x="495" 
d="M247 -12q-102 0 -160 73.5t-58 180.5t58 180t160 73q103 0 161 -73t58 -180q0 -108 -58 -181t-161 -73zM247 94q47 0 71 42t24 106t-24 105.5t-71 41.5q-46 0 -69.5 -42t-23.5 -105q0 -64 23.5 -106t69.5 -42z" />
    <glyph glyph-name="afii10081" unicode="&#x43f;" horiz-adv-x="500" 
d="M446 0h-121v378h-151v-378h-120v483h392v-483z" />
    <glyph glyph-name="afii10082" unicode="&#x440;" horiz-adv-x="503" 
d="M296 -12q-78 0 -122 73v-245h-120v667h120v-61q46 73 122 73q82 0 130.5 -67.5t48.5 -185.5q0 -117 -48.5 -185.5t-130.5 -68.5zM257 94q45 0 69.5 41t24.5 107q0 65 -24.5 106t-69.5 41q-24 0 -47.5 -16t-35.5 -40v-182q12 -24 35.5 -40.5t47.5 -16.5z" />
    <glyph glyph-name="afii10083" unicode="&#x441;" horiz-adv-x="421" 
d="M250 -12q-99 0 -160 71t-61 183q0 111 61 182t160 71q100 0 154 -65l-60 -83q-34 42 -81 42q-51 0 -80.5 -41.5t-29.5 -105.5q0 -65 29.5 -106.5t80.5 -41.5q47 0 81 42l60 -83q-54 -65 -154 -65z" />
    <glyph glyph-name="afii10084" unicode="&#x442;" horiz-adv-x="367" 
d="M244 0h-121v378h-106v105h334v-105h-107v-378z" />
    <glyph glyph-name="afii10085" unicode="&#x443;" horiz-adv-x="447" 
d="M43 -189l18 106q14 -7 31 -7q40 0 53 35l16 46l-163 492h128l97 -338l98 338h128l-189 -565q-21 -64 -59 -88.5t-100 -25.5q-35 0 -58 7z" />
    <glyph glyph-name="afii10086" unicode="&#x444;" horiz-adv-x="735" 
d="M198 495q69 0 109 -73v245h120v-245q41 73 110 73q74 0 117 -67.5t43 -185.5q0 -117 -43 -185.5t-117 -68.5q-71 0 -110 73v-245h-120v245q-39 -73 -109 -73q-74 0 -117 68t-43 186q0 117 43 185t117 68zM238 389q-38 0 -58 -40.5t-20 -106.5t21 -107t58 -41
q20 0 39 16.5t29 40.5v181q-10 24 -29.5 40.5t-39.5 16.5zM495 94q37 0 58.5 41.5t21.5 106.5t-20.5 106t-57.5 41q-20 0 -39.5 -16t-30.5 -40v-182q11 -24 30 -40.5t38 -16.5z" />
    <glyph glyph-name="afii10087" unicode="&#x445;" horiz-adv-x="438" 
d="M436 0h-131l-86 161l-87 -161h-130l141 246l-134 237h131l79 -152l78 152h131l-134 -237z" />
    <glyph glyph-name="afii10088" unicode="&#x446;" horiz-adv-x="510" 
d="M376 -123v123h-322v483h120v-378h151v378h121v-378h50v-228h-120z" />
    <glyph glyph-name="afii10089" unicode="&#x447;" horiz-adv-x="488" 
d="M42 483h121v-147q0 -37 18 -53t57 -16q45 0 75 17v199h121v-483h-121v190q-45 -29 -117 -29q-83 0 -118.5 33.5t-35.5 100.5v188z" />
    <glyph glyph-name="afii10090" unicode="&#x448;" horiz-adv-x="717" 
d="M543 483h120v-483h-609v483h120v-378h124v378h121v-378h124v378z" />
    <glyph glyph-name="afii10091" unicode="&#x449;" horiz-adv-x="731" 
d="M543 483h120v-378h54v-228h-121v123h-542v483h120v-378h124v378h121v-378h124v378z" />
    <glyph glyph-name="afii10092" unicode="&#x44a;" horiz-adv-x="546" 
d="M350 0h-227v378h-106v105h227v-169h106q82 0 126 -44.5t44 -112.5q0 -67 -44.5 -112t-125.5 -45zM334 216h-90v-118h90q30 0 46.5 16.5t16.5 42.5t-16.5 42.5t-46.5 16.5z" />
    <glyph glyph-name="afii10093" unicode="&#x44b;" horiz-adv-x="680" 
d="M54 483h120v-169h106q82 0 126.5 -44.5t44.5 -112.5q0 -67 -45 -112t-126 -45h-226v483zM265 216h-91v-118h91q30 0 46.5 16.5t16.5 42.5t-16.5 42.5t-46.5 16.5zM626 0h-120v483h120v-483z" />
    <glyph glyph-name="afii10094" unicode="&#x44c;" horiz-adv-x="477" 
d="M54 483h120v-169h106q82 0 126.5 -44.5t44.5 -112.5q0 -67 -45 -112t-126 -45h-226v483zM265 216h-91v-118h91q30 0 46.5 16.5t16.5 42.5t-16.5 42.5t-46.5 16.5z" />
    <glyph glyph-name="afii10095" unicode="&#x44d;" horiz-adv-x="421" 
d="M172 -12q-102 0 -154 65l57 75q36 -44 84 -44q42 0 70 30.5t37 82.5h-166v93h166q-9 51 -37 80t-70 29q-49 0 -84 -44l-57 75q52 65 154 65q98 0 159 -71t61 -182q0 -112 -61 -183t-159 -71z" />
    <glyph glyph-name="afii10096" unicode="&#x44e;" horiz-adv-x="709" 
d="M461 -12q-92 0 -148 59t-67 151h-72v-198h-120v483h120v-180h74q16 85 71.5 138.5t141.5 53.5q103 0 161 -73t58 -180q0 -108 -58 -181t-161 -73zM461 94q47 0 71 42t24 106t-24 105.5t-71 41.5q-46 0 -69.5 -42t-23.5 -105q0 -64 23.5 -106t69.5 -42z" />
    <glyph glyph-name="afii10097" unicode="&#x44f;" horiz-adv-x="497" 
d="M171 0h-134l97 185q-38 13 -64.5 49.5t-26.5 92.5q0 67 45 111.5t125 44.5h230v-483h-120v169h-73zM228 267h95v118h-95q-29 0 -46 -16.5t-17 -41.5q0 -27 16.5 -43.5t46.5 -16.5z" />
    <glyph glyph-name="afii10071" unicode="&#x451;" 
d="M404 610q0 -27 -19.5 -46t-46.5 -19q-26 0 -45 19t-19 46t19 45.5t45 18.5q27 0 46.5 -18.5t19.5 -45.5zM216 610q0 -27 -18.5 -46t-45.5 -19t-46 19t-19 46t19 45.5t46 18.5t45.5 -18.5t18.5 -45.5zM254 -12q-102 0 -163.5 70t-61.5 184q0 108 59 180.5t157 72.5
t153 -71.5t55 -186.5v-34h-303q4 -52 34 -85t83 -33q27 0 56 12.5t49 34.5l55 -72q-66 -72 -173 -72zM337 285q-2 45 -24 79t-70 34q-46 0 -68.5 -34t-24.5 -79h187z" />
    <glyph glyph-name="afii10099" unicode="&#x452;" horiz-adv-x="508" 
d="M313 529h-131v-109q20 31 59 53t83 22q130 0 130 -131v-392q0 -168 -153 -168q-56 0 -92 29l30 91q19 -19 45 -19q49 0 49 67v347q0 70 -63 70q-53 0 -88 -60v-329h-120v529h-50v69h50v69h120v-69h131v-69z" />
    <glyph glyph-name="afii10100" unicode="&#x453;" horiz-adv-x="383" 
d="M371 700l-134 -144h-80l107 144h107zM366 483v-105h-192v-378h-120v483h312z" />
    <glyph glyph-name="afii10101" unicode="&#x454;" horiz-adv-x="421" 
d="M250 -12q-99 0 -160 71t-61 183q0 111 61 182t160 71q100 0 154 -65l-58 -75q-35 44 -83 44q-43 0 -71 -29t-37 -80h167v-93h-167q8 -52 36.5 -82.5t71.5 -30.5q49 0 83 44l58 -75q-54 -65 -154 -65z" />
    <glyph glyph-name="afii10102" unicode="&#x455;" horiz-adv-x="412" 
d="M203 -12q-120 0 -186 69l51 84q23 -25 60 -42t73 -17q34 0 52.5 14t18.5 37q0 22 -24.5 35.5t-59.5 24.5t-70.5 26t-60 48t-24.5 83q0 61 47 103t129 42q98 0 168 -62l-48 -81q-19 21 -51 35.5t-67 14.5q-28 0 -46 -13t-18 -33t24.5 -33t60 -24t71 -26.5t60 -50
t24.5 -84.5q0 -66 -50 -108t-134 -42z" />
    <glyph glyph-name="afii10103" unicode="&#x456;" horiz-adv-x="228" 
d="M114 537q-29 0 -50.5 21t-21.5 51t21.5 51.5t50.5 21.5q30 0 51 -21.5t21 -51.5t-21 -51t-51 -21zM174 0h-120v483h120v-483z" />
    <glyph glyph-name="afii10104" unicode="&#x457;" horiz-adv-x="228" 
d="M273 610q0 -27 -19.5 -46t-46.5 -19q-26 0 -45 19t-19 46t19 45.5t45 18.5q27 0 46.5 -18.5t19.5 -45.5zM85 610q0 -27 -18.5 -46t-45.5 -19t-46 19t-19 46t19 45.5t46 18.5t45.5 -18.5t18.5 -45.5zM174 0h-120v483h120v-483z" />
    <glyph glyph-name="afii10105" unicode="&#x458;" horiz-adv-x="228" 
d="M114 537q-29 0 -50.5 21t-21.5 51t21.5 51.5t50.5 21.5q30 0 51 -21.5t21 -51.5t-21 -51t-51 -21zM22 -196q-56 0 -92 29l30 91q19 -19 45 -19q49 0 49 67v511h120v-511q0 -168 -152 -168z" />
    <glyph glyph-name="afii10106" unicode="&#x459;" horiz-adv-x="749" 
d="M17 -12v101q29 0 45.5 30.5t25.5 115.5l23 248h335v-169h106q82 0 126 -44.5t44 -112.5q0 -67 -44.5 -112t-125.5 -45h-227v378h-105l-13 -155q-11 -128 -56.5 -181.5t-133.5 -53.5zM536 216h-90v-118h90q30 0 46.5 16.5t16.5 42.5t-16.5 42.5t-46.5 16.5z" />
    <glyph glyph-name="afii10107" unicode="&#x45a;" horiz-adv-x="745" 
d="M174 0h-120v483h120v-179h151v179h121v-179h109q81 0 124 -43t43 -110q0 -64 -43.5 -107.5t-123.5 -43.5h-230v199h-151v-199zM541 204h-95v-106h95q28 0 43 14t15 39q0 24 -15 38.5t-43 14.5z" />
    <glyph glyph-name="afii10108" unicode="&#x45b;" horiz-adv-x="508" 
d="M316 529h-133v-109q20 31 58.5 53t82.5 22q130 0 130 -130v-365h-120v320q0 69 -64 69q-27 0 -50 -17.5t-37 -42.5v-329h-121v529h-50v69h50v69h121v-69h133v-69z" />
    <glyph glyph-name="afii10109" unicode="&#x45c;" horiz-adv-x="469" 
d="M396 700l-134 -144h-80l107 144h107zM466 0h-141l-100 189l-51 -71v-118h-120v483h120v-219l147 219h140l-153 -217z" />
    <glyph glyph-name="afii10110" unicode="&#x45e;" horiz-adv-x="447" 
d="M43 -189l18 106q14 -7 31 -7q40 0 53 35l16 46l-163 492h128l97 -338l98 338h128l-189 -565q-21 -64 -59 -88.5t-100 -25.5q-35 0 -58 7zM373 613q-57 -75 -150 -75t-150 75l55 44q35 -50 95 -50q61 0 95 50z" />
    <glyph glyph-name="afii10193" unicode="&#x45f;" horiz-adv-x="500" 
d="M190 -126v126h-136v483h120v-378h151v378h121v-483h-136v-126h-120z" />
    <glyph glyph-name="afii10050" unicode="&#x490;" horiz-adv-x="473" 
d="M193 549v-549h-134v667h248v123h134v-241h-248z" />
    <glyph glyph-name="afii10098" unicode="&#x491;" horiz-adv-x="383" 
d="M174 378v-378h-120v483h192v126h120v-231h-192z" />
    <glyph glyph-name="uni1E02" unicode="&#x1e02;" horiz-adv-x="558" 
d="M344 0h-285v667h276q85 0 130.5 -48.5t45.5 -121.5q0 -61 -29.5 -101t-77.5 -52q51 -8 84.5 -55t33.5 -109q0 -80 -45.5 -130t-132.5 -50zM303 397q35 0 53 20.5t18 56.5q0 35 -18 55.5t-53 20.5h-110v-153h110zM308 117q37 0 57 21.5t20 60.5q0 36 -20 59t-57 23h-115
v-164h115zM279 712q-27 0 -46 18.5t-19 45.5t19.5 46t45.5 19t45 -19t19 -46t-19 -45.5t-45 -18.5z" />
    <glyph glyph-name="uni1E03" unicode="&#x1e03;" horiz-adv-x="504" 
d="M174 151q12 -24 36 -40.5t48 -16.5q44 0 68.5 41t24.5 106q0 66 -24.5 107t-68.5 41q-24 0 -48 -17t-36 -41v-180zM174 0h-120v667h120v-245q42 73 122 73q82 0 130.5 -69t48.5 -185q0 -118 -48.5 -185.5t-130.5 -67.5q-76 0 -122 73v-61zM259 712q-27 0 -46 18.5
t-19 45.5t19.5 46t45.5 19t45 -19t19 -46t-19 -45.5t-45 -18.5z" />
    <glyph glyph-name="uni1E0A" unicode="&#x1e0a;" horiz-adv-x="597" 
d="M274 0h-215v667h215q136 0 213 -92t77 -242t-77 -241.5t-213 -91.5zM274 118q73 0 113 59t40 156q0 101 -39.5 158.5t-113.5 57.5h-81v-431h81zM298 712q-27 0 -46 18.5t-19 45.5t19.5 46t45.5 19t45 -19t19 -46t-19 -45.5t-45 -18.5z" />
    <glyph glyph-name="uni1E0B" unicode="&#x1e0b;" horiz-adv-x="504" 
d="M450 0h-120v61q-46 -73 -122 -73q-82 0 -130.5 67.5t-48.5 185.5q0 116 48.5 185t130.5 69q78 0 122 -73v245h120v-667zM246 94q24 0 48 16.5t36 40.5v181q-12 24 -36 40.5t-48 16.5q-44 0 -68.5 -41t-24.5 -107q0 -65 24.5 -106t68.5 -41zM247 712q-27 0 -46 18.5
t-19 45.5t19.5 46t45.5 19t45 -19t19 -46t-19 -45.5t-45 -18.5z" />
    <glyph glyph-name="uni1E1E" unicode="&#x1e1e;" horiz-adv-x="473" 
d="M252 712q-27 0 -46 18.5t-19 45.5t19.5 46t45.5 19t45 -19t19 -46t-19 -45.5t-45 -18.5zM193 0h-134v667h382v-118h-248v-151h241v-118h-241v-280z" />
    <glyph glyph-name="uni1E1F" unicode="&#x1e1f;" horiz-adv-x="288" 
d="M222 712q-27 0 -46 18.5t-19 45.5t19.5 46t45.5 19t45 -19t19 -46t-19 -45.5t-45 -18.5zM197 0h-121v378h-62v105h62v38q0 73 39 114.5t107 41.5q69 0 106 -36l-39 -81q-18 18 -43 18q-49 0 -49 -57v-38h79v-105h-79v-378z" />
    <glyph glyph-name="uni1E22" unicode="&#x1e22;" horiz-adv-x="608" 
d="M549 0h-135v284h-221v-284h-134v667h134v-265h221v265h135v-667zM303 712q-27 0 -46 18.5t-19 45.5t19.5 46t45.5 19t45 -19t19 -46t-19 -45.5t-45 -18.5z" />
    <glyph glyph-name="uni1E23" unicode="&#x1e23;" horiz-adv-x="500" 
d="M446 0h-120v320q0 69 -64 69q-27 0 -50 -17.5t-37 -42.5v-329h-121v667h121v-247q20 31 58.5 53t82.5 22q130 0 130 -130v-365zM250 712q-27 0 -46 18.5t-19 45.5t19.5 46t45.5 19t45 -19t19 -46t-19 -45.5t-45 -18.5z" />
    <glyph glyph-name="uni1E56" unicode="&#x1e56;" horiz-adv-x="533" 
d="M193 0h-134v667h246q98 0 152 -61t54 -152t-54 -152t-152 -61h-112v-241zM289 359q38 0 61.5 26t23.5 69t-23.5 69t-61.5 26h-96v-190h96zM266 712q-27 0 -46 18.5t-19 45.5t19.5 46t45.5 19t45 -19t19 -46t-19 -45.5t-45 -18.5z" />
    <glyph glyph-name="uni1E57" unicode="&#x1e57;" horiz-adv-x="503" 
d="M296 -12q-78 0 -122 73v-245h-120v667h120v-61q46 73 122 73q82 0 130.5 -67.5t48.5 -185.5q0 -117 -48.5 -185.5t-130.5 -68.5zM257 94q45 0 69.5 41t24.5 107q0 65 -24.5 106t-69.5 41q-24 0 -47.5 -16t-35.5 -40v-182q12 -24 35.5 -40.5t47.5 -16.5zM259 545
q-27 0 -46 18.5t-19 45.5t19.5 46t45.5 19t45 -19t19 -46t-19 -45.5t-45 -18.5z" />
    <glyph glyph-name="uni1E60" unicode="&#x1e60;" horiz-adv-x="498" 
d="M244 -12q-142 0 -228 86l66 103q64 -71 161 -71q43 0 67 21t24 53q0 27 -22 47.5t-55 32.5t-72 30.5t-72 39.5t-55 60.5t-22 92.5q0 82 60 138.5t160 56.5q123 0 202 -74l-64 -100q-59 56 -143 56q-36 0 -57 -18.5t-21 -49.5q0 -28 30.5 -49t74.5 -38t87.5 -40t74 -67.5
t30.5 -106.5q0 -90 -59.5 -146.5t-166.5 -56.5zM249 712q-27 0 -46 18.5t-19 45.5t19.5 46t45.5 19t45 -19t19 -46t-19 -45.5t-45 -18.5z" />
    <glyph glyph-name="uni1E61" unicode="&#x1e61;" horiz-adv-x="412" 
d="M203 -12q-120 0 -186 69l51 84q23 -25 60 -42t73 -17q34 0 52.5 14t18.5 37q0 22 -24.5 35.5t-59.5 24.5t-70.5 26t-60 48t-24.5 83q0 61 47 103t129 42q98 0 168 -62l-48 -81q-19 21 -51 35.5t-67 14.5q-28 0 -46 -13t-18 -33t24.5 -33t60 -24t71 -26.5t60 -50
t24.5 -84.5q0 -66 -50 -108t-134 -42zM206 545q-27 0 -46 18.5t-19 45.5t19.5 46t45.5 19t45 -19t19 -46t-19 -45.5t-45 -18.5z" />
    <glyph glyph-name="uni1E6A" unicode="&#x1e6a;" horiz-adv-x="473" 
d="M304 0h-134v549h-148v118h430v-118h-148v-549zM237 712q-27 0 -46 18.5t-19 45.5t19.5 46t45.5 19t45 -19t19 -46t-19 -45.5t-45 -18.5z" />
    <glyph glyph-name="uni1E6B" unicode="&#x1e6b;" horiz-adv-x="298" 
d="M198 -12q-123 0 -123 128v262h-63v105h63v132h120v-132h80v-105h-80v-234q0 -50 35 -50q25 0 36 14l25 -92q-31 -28 -93 -28zM138 712q-27 0 -46 18.5t-19 45.5t19.5 46t45.5 19t45 -19t19 -46t-19 -45.5t-45 -18.5z" />
    <glyph glyph-name="Wgrave" unicode="&#x1e80;" horiz-adv-x="767" 
d="M609 0h-140l-86 444l-85 -444h-140l-152 667h144l86 -464l95 464h105l96 -464l85 464h144zM437 723h-80l-134 144h107z" />
    <glyph glyph-name="wgrave" unicode="&#x1e81;" horiz-adv-x="688" 
d="M557 0h-127l-86 329l-85 -329h-127l-129 483h124l76 -328l84 328h111l87 -328l76 328h125zM398 556h-80l-134 144h107z" />
    <glyph glyph-name="Wacute" unicode="&#x1e82;" horiz-adv-x="767" 
d="M544 867l-134 -144h-80l107 144h107zM609 0h-140l-86 444l-85 -444h-140l-152 667h144l86 -464l95 464h105l96 -464l85 464h144z" />
    <glyph glyph-name="wacute" unicode="&#x1e83;" horiz-adv-x="688" 
d="M504 700l-134 -144h-80l107 144h107zM557 0h-127l-86 329l-85 -329h-127l-129 483h124l76 -328l84 328h111l87 -328l76 328h125z" />
    <glyph glyph-name="Wdieresis" unicode="&#x1e84;" horiz-adv-x="767" 
d="M542 777q0 -27 -19.5 -46t-46.5 -19q-26 0 -45 19t-19 46t19 45.5t45 18.5q27 0 46.5 -18.5t19.5 -45.5zM354 777q0 -27 -18.5 -46t-45.5 -19t-46 19t-19 46t19 45.5t46 18.5t45.5 -18.5t18.5 -45.5zM609 0h-140l-86 444l-85 -444h-140l-152 667h144l86 -464l95 464h105
l96 -464l85 464h144z" />
    <glyph glyph-name="wdieresis" unicode="&#x1e85;" horiz-adv-x="688" 
d="M503 610q0 -27 -19.5 -46t-46.5 -19q-26 0 -45 19t-19 46t19 45.5t45 18.5q27 0 46.5 -18.5t19.5 -45.5zM315 610q0 -27 -18.5 -46t-45.5 -19t-46 19t-19 46t19 45.5t46 18.5t45.5 -18.5t18.5 -45.5zM557 0h-127l-86 329l-85 -329h-127l-129 483h124l76 -328l84 328h111
l87 -328l76 328h125z" />
    <glyph glyph-name="uni1EA0" unicode="&#x1ea0;" horiz-adv-x="554" 
d="M556 0h-146l-31 118h-205l-31 -118h-145l198 667h162zM353 236l-76 290l-76 -290h152zM278 -194q-27 0 -46 18.5t-19 45.5t19.5 46t45.5 19t45 -19t19 -46t-19 -45.5t-45 -18.5z" />
    <glyph glyph-name="uni1EA1" unicode="&#x1ea1;" 
d="M425 0h-121v48q-20 -28 -54.5 -44t-72.5 -16q-61 0 -105 43t-44 117q0 75 43.5 116t105.5 41q39 0 73.5 -15t53.5 -42v63q0 39 -23.5 61.5t-65.5 22.5q-66 0 -119 -52l-45 82q73 70 186 70q85 0 136.5 -41.5t51.5 -129.5v-324zM223 69q56 0 81 46v62q-26 47 -81 47
q-34 0 -54.5 -21.5t-20.5 -56.5t20.5 -56t54.5 -21zM240 -194q-27 0 -46 18.5t-19 45.5t19.5 46t45.5 19t45 -19t19 -46t-19 -45.5t-45 -18.5z" />
    <glyph glyph-name="uni1EA2" unicode="&#x1ea2;" horiz-adv-x="554" 
d="M556 0h-146l-31 118h-205l-31 -118h-145l198 667h162zM353 236l-76 290l-76 -290h152zM249 754l-44 11q16 55 73 55q31 0 50.5 -17.5t19.5 -51.5q0 -28 -16 -54h-50q19 23 19 51q0 31 -24 31q-20 0 -28 -25z" />
    <glyph glyph-name="uni1EA3" unicode="&#x1ea3;" 
d="M425 0h-121v48q-20 -28 -54.5 -44t-72.5 -16q-61 0 -105 43t-44 117q0 75 43.5 116t105.5 41q39 0 73.5 -15t53.5 -42v63q0 39 -23.5 61.5t-65.5 22.5q-66 0 -119 -52l-45 82q73 70 186 70q85 0 136.5 -41.5t51.5 -129.5v-324zM223 69q56 0 81 46v62q-26 47 -81 47
q-34 0 -54.5 -21.5t-20.5 -56.5t20.5 -56t54.5 -21zM211 584l-44 11q16 55 73 55q31 0 50.5 -17.5t19.5 -51.5q0 -28 -16 -54h-50q19 23 19 51q0 31 -24 31q-20 0 -28 -25z" />
    <glyph glyph-name="uni1EA4" unicode="&#x1ea4;" horiz-adv-x="554" 
d="M410 682h-70l-64 68l-61 -68h-70l77 108h108zM556 0h-146l-31 118h-205l-31 -118h-145l198 667h162zM353 236l-76 290l-76 -290h152zM596 843l-134 -108h-80l107 108h107z" />
    <glyph glyph-name="uni1EA5" unicode="&#x1ea5;" 
d="M425 0h-121v48q-20 -28 -54.5 -44t-72.5 -16q-61 0 -105 43t-44 117q0 75 43.5 116t105.5 41q39 0 73.5 -15t53.5 -42v63q0 39 -23.5 61.5t-65.5 22.5q-66 0 -119 -52l-45 82q73 70 186 70q85 0 136.5 -41.5t51.5 -129.5v-324zM223 69q56 0 81 46v62q-26 47 -81 47
q-34 0 -54.5 -21.5t-20.5 -56.5t20.5 -56t54.5 -21zM373 556h-70l-64 91l-61 -91h-70l77 144h108zM555 770l-134 -144h-80l107 144h107z" />
    <glyph glyph-name="uni1EA6" unicode="&#x1ea6;" horiz-adv-x="554" 
d="M410 682h-70l-64 68l-61 -68h-70l77 108h108zM556 0h-146l-31 118h-205l-31 -118h-145l198 667h162zM353 236l-76 290l-76 -290h152zM174 735h-80l-134 108h107z" />
    <glyph glyph-name="uni1EA7" unicode="&#x1ea7;" 
d="M425 0h-121v48q-20 -28 -54.5 -44t-72.5 -16q-61 0 -105 43t-44 117q0 75 43.5 116t105.5 41q39 0 73.5 -15t53.5 -42v63q0 39 -23.5 61.5t-65.5 22.5q-66 0 -119 -52l-45 82q73 70 186 70q85 0 136.5 -41.5t51.5 -129.5v-324zM223 69q56 0 81 46v62q-26 47 -81 47
q-34 0 -54.5 -21.5t-20.5 -56.5t20.5 -56t54.5 -21zM373 556h-70l-64 91l-61 -91h-70l77 144h108zM137 626h-80l-134 144h107z" />
    <glyph glyph-name="uni1EA8" unicode="&#x1ea8;" horiz-adv-x="554" 
d="M410 682h-70l-64 68l-61 -68h-70l77 108h108zM556 0h-146l-31 118h-205l-31 -118h-145l198 667h162zM353 236l-76 290l-76 -290h152zM394 787l-44 8q16 41 73 41q31 0 50.5 -12.5t19.5 -38.5q0 -22 -16 -41h-50q19 18 19 38q0 24 -24 24q-19 0 -28 -19z" />
    <glyph glyph-name="uni1EA9" unicode="&#x1ea9;" 
d="M425 0h-121v48q-20 -28 -54.5 -44t-72.5 -16q-61 0 -105 43t-44 117q0 75 43.5 116t105.5 41q39 0 73.5 -15t53.5 -42v63q0 39 -23.5 61.5t-65.5 22.5q-66 0 -119 -52l-45 82q73 70 186 70q85 0 136.5 -41.5t51.5 -129.5v-324zM223 69q56 0 81 46v62q-26 47 -81 47
q-34 0 -54.5 -21.5t-20.5 -56.5t20.5 -56t54.5 -21zM373 556h-70l-64 91l-61 -91h-70l77 144h108zM307 724l-44 11q16 55 73 55q31 0 50.5 -17.5t19.5 -51.5q0 -28 -16 -54h-50q19 23 19 51q0 31 -24 31q-20 0 -28 -25z" />
    <glyph glyph-name="uni1EAA" unicode="&#x1eaa;" horiz-adv-x="554" 
d="M410 678h-70l-64 45l-61 -45h-70l77 72h108zM556 0h-146l-31 118h-205l-31 -118h-145l198 667h162zM353 236l-76 290l-76 -290h152zM326 757q-34 0 -62 17.5t-40 17.5q-31 0 -31 -32h-62q0 31 25 49t71 18q33 0 61.5 -18t41.5 -18q30 0 30 33h62q0 -31 -25 -49t-71 -18z
" />
    <glyph glyph-name="uni1EAB" unicode="&#x1eab;" 
d="M425 0h-121v48q-20 -28 -54.5 -44t-72.5 -16q-61 0 -105 43t-44 117q0 75 43.5 116t105.5 41q39 0 73.5 -15t53.5 -42v63q0 39 -23.5 61.5t-65.5 22.5q-66 0 -119 -52l-45 82q73 70 186 70q85 0 136.5 -41.5t51.5 -129.5v-324zM223 69q56 0 81 46v62q-26 47 -81 47
q-34 0 -54.5 -21.5t-20.5 -56.5t20.5 -56t54.5 -21zM373 523h-70l-64 91l-61 -91h-70l77 144h108zM288 682q-26 0 -44.5 18t-31.5 35.5t-26 17.5q-31 0 -31 -65h-62q0 62 25 98t71 36q26 0 44.5 -18t32 -35.5t26.5 -17.5q30 0 30 65h62q0 -62 -25 -98t-71 -36z" />
    <glyph glyph-name="uni1EAC" unicode="&#x1eac;" horiz-adv-x="554" 
d="M556 0h-146l-31 118h-205l-31 -118h-145l198 667h162zM353 236l-76 290l-76 -290h152zM410 723h-70l-64 91l-61 -91h-70l77 144h108zM278 -194q-27 0 -46 18.5t-19 45.5t19.5 46t45.5 19t45 -19t19 -46t-19 -45.5t-45 -18.5z" />
    <glyph glyph-name="uni1EAD" unicode="&#x1ead;" 
d="M425 0h-121v48q-20 -28 -54.5 -44t-72.5 -16q-61 0 -105 43t-44 117q0 75 43.5 116t105.5 41q39 0 73.5 -15t53.5 -42v63q0 39 -23.5 61.5t-65.5 22.5q-66 0 -119 -52l-45 82q73 70 186 70q85 0 136.5 -41.5t51.5 -129.5v-324zM223 69q56 0 81 46v62q-26 47 -81 47
q-34 0 -54.5 -21.5t-20.5 -56.5t20.5 -56t54.5 -21zM372 556h-70l-64 91l-61 -91h-70l77 144h108zM240 -194q-27 0 -46 18.5t-19 45.5t19.5 46t45.5 19t45 -19t19 -46t-19 -45.5t-45 -18.5z" />
    <glyph glyph-name="uni1EAE" unicode="&#x1eae;" horiz-adv-x="554" 
d="M556 0h-146l-31 118h-205l-31 -118h-145l198 667h162zM353 236l-76 290l-76 -290h152zM437 833l-134 -87h-80l107 87h107zM427 736q-58 -53 -150 -53t-150 53l55 30q36 -34 95 -34q61 0 95 34z" />
    <glyph glyph-name="uni1EAF" unicode="&#x1eaf;" 
d="M425 0h-121v48q-20 -28 -54.5 -44t-72.5 -16q-61 0 -105 43t-44 117q0 75 43.5 116t105.5 41q39 0 73.5 -15t53.5 -42v63q0 39 -23.5 61.5t-65.5 22.5q-66 0 -119 -52l-45 82q73 70 186 70q85 0 136.5 -41.5t51.5 -129.5v-324zM223 69q56 0 81 46v62q-26 47 -81 47
q-34 0 -54.5 -21.5t-20.5 -56.5t20.5 -56t54.5 -21zM400 777l-134 -144h-80l107 144h107zM389 593q-57 -75 -150 -75t-150 75l55 44q35 -50 95 -50q61 0 95 50z" />
    <glyph glyph-name="uni1EB0" unicode="&#x1eb0;" horiz-adv-x="554" 
d="M556 0h-146l-31 118h-205l-31 -118h-145l198 667h162zM353 236l-76 290l-76 -290h152zM332 746h-80l-134 87h107zM427 733q-58 -53 -150 -53t-150 53l55 30q36 -34 95 -34q61 0 95 34z" />
    <glyph glyph-name="uni1EB1" unicode="&#x1eb1;" 
d="M425 0h-121v48q-20 -28 -54.5 -44t-72.5 -16q-61 0 -105 43t-44 117q0 75 43.5 116t105.5 41q39 0 73.5 -15t53.5 -42v63q0 39 -23.5 61.5t-65.5 22.5q-66 0 -119 -52l-45 82q73 70 186 70q85 0 136.5 -41.5t51.5 -129.5v-324zM223 69q56 0 81 46v62q-26 47 -81 47
q-34 0 -54.5 -21.5t-20.5 -56.5t20.5 -56t54.5 -21zM291 633h-80l-134 144h107zM389 594q-57 -75 -150 -75t-150 75l55 44q35 -50 95 -50q61 0 95 50z" />
    <glyph glyph-name="uni1EB2" unicode="&#x1eb2;" horiz-adv-x="554" 
d="M556 0h-146l-31 118h-205l-31 -118h-145l198 667h162zM353 236l-76 290l-76 -290h152zM249 782l-44 7q17 33 73 33q30 0 50 -10.5t20 -31.5q0 -16 -16 -32h-50q19 14 19 31q0 18 -24 18q-20 0 -28 -15zM427 734q-58 -53 -150 -53t-150 53l55 30q36 -34 95 -34q61 0 95 34
z" />
    <glyph glyph-name="uni1EB3" unicode="&#x1eb3;" 
d="M425 0h-121v48q-20 -28 -54.5 -44t-72.5 -16q-61 0 -105 43t-44 117q0 75 43.5 116t105.5 41q39 0 73.5 -15t53.5 -42v63q0 39 -23.5 61.5t-65.5 22.5q-66 0 -119 -52l-45 82q73 70 186 70q85 0 136.5 -41.5t51.5 -129.5v-324zM223 69q56 0 81 46v62q-26 47 -81 47
q-34 0 -54.5 -21.5t-20.5 -56.5t20.5 -56t54.5 -21zM212 691l-44 11q16 55 73 55q31 0 50.5 -17.5t19.5 -51.5q0 -28 -16 -54h-50q19 23 19 51q0 31 -24 31q-20 0 -28 -25zM389 594q-57 -75 -150 -75t-150 75l55 44q35 -50 95 -50q61 0 95 50z" />
    <glyph glyph-name="uni1EB4" unicode="&#x1eb4;" horiz-adv-x="554" 
d="M556 0h-146l-31 118h-205l-31 -118h-145l198 667h162zM353 236l-76 290l-76 -290h152zM427 724q-57 -44 -150 -44t-150 44l55 26q35 -30 95 -30t95 30zM326 757q-34 0 -62 17.5t-40 17.5q-31 0 -31 -32h-62q0 31 25 49t71 18q33 0 61.5 -18t41.5 -18q30 0 30 33h62
q0 -31 -25 -49t-71 -18z" />
    <glyph glyph-name="uni1EB5" unicode="&#x1eb5;" 
d="M425 0h-121v48q-20 -28 -54.5 -44t-72.5 -16q-61 0 -105 43t-44 117q0 75 43.5 116t105.5 41q39 0 73.5 -15t53.5 -42v63q0 39 -23.5 61.5t-65.5 22.5q-66 0 -119 -52l-45 82q73 70 186 70q85 0 136.5 -41.5t51.5 -129.5v-324zM223 69q56 0 81 46v62q-26 47 -81 47
q-34 0 -54.5 -21.5t-20.5 -56.5t20.5 -56t54.5 -21zM389 594q-57 -75 -150 -75t-150 75l55 44q35 -50 95 -50q61 0 95 50zM287 654q-26 0 -44.5 18t-31.5 35.5t-26 17.5q-31 0 -31 -65h-62q0 62 25 98t71 36q26 0 44.5 -18t32 -35.5t26.5 -17.5q30 0 30 65h62q0 -62 -25 -98
t-71 -36z" />
    <glyph glyph-name="uni1EB6" unicode="&#x1eb6;" horiz-adv-x="554" 
d="M556 0h-146l-31 118h-205l-31 -118h-145l198 667h162zM353 236l-76 290l-76 -290h152zM278 -194q-27 0 -46 18.5t-19 45.5t19.5 46t45.5 19t45 -19t19 -46t-19 -45.5t-45 -18.5zM427 780q-57 -75 -150 -75t-150 75l55 44q35 -50 95 -50q61 0 95 50z" />
    <glyph glyph-name="uni1EB7" unicode="&#x1eb7;" 
d="M425 0h-121v48q-20 -28 -54.5 -44t-72.5 -16q-61 0 -105 43t-44 117q0 75 43.5 116t105.5 41q39 0 73.5 -15t53.5 -42v63q0 39 -23.5 61.5t-65.5 22.5q-66 0 -119 -52l-45 82q73 70 186 70q85 0 136.5 -41.5t51.5 -129.5v-324zM223 69q56 0 81 46v62q-26 47 -81 47
q-34 0 -54.5 -21.5t-20.5 -56.5t20.5 -56t54.5 -21zM240 -194q-27 0 -46 18.5t-19 45.5t19.5 46t45.5 19t45 -19t19 -46t-19 -45.5t-45 -18.5zM388 613q-57 -75 -150 -75t-150 75l55 44q35 -50 95 -50q61 0 95 50z" />
    <glyph glyph-name="uni1EB8" unicode="&#x1eb8;" horiz-adv-x="481" 
d="M441 0h-382v667h382v-118h-248v-151h241v-118h-241v-162h248v-118zM253 -194q-27 0 -46 18.5t-19 45.5t19.5 46t45.5 19t45 -19t19 -46t-19 -45.5t-45 -18.5z" />
    <glyph glyph-name="uni1EB9" unicode="&#x1eb9;" 
d="M254 -12q-102 0 -163.5 70t-61.5 184q0 108 59 180.5t157 72.5t153 -71.5t55 -186.5v-34h-303q4 -52 34 -85t83 -33q27 0 56 12.5t49 34.5l55 -72q-66 -72 -173 -72zM337 285q-2 45 -24 79t-70 34q-46 0 -68.5 -34t-24.5 -79h187zM246 -194q-27 0 -46 18.5t-19 45.5
t19.5 46t45.5 19t45 -19t19 -46t-19 -45.5t-45 -18.5z" />
    <glyph glyph-name="uni1EBA" unicode="&#x1eba;" horiz-adv-x="481" 
d="M441 0h-382v667h382v-118h-248v-151h241v-118h-241v-162h248v-118zM216 754l-44 11q16 55 73 55q31 0 50.5 -17.5t19.5 -51.5q0 -28 -16 -54h-50q19 23 19 51q0 31 -24 31q-20 0 -28 -25z" />
    <glyph glyph-name="uni1EBB" unicode="&#x1ebb;" 
d="M254 -12q-102 0 -163.5 70t-61.5 184q0 108 59 180.5t157 72.5t153 -71.5t55 -186.5v-34h-303q4 -52 34 -85t83 -33q27 0 56 12.5t49 34.5l55 -72q-66 -72 -173 -72zM337 285q-2 45 -24 79t-70 34q-46 0 -68.5 -34t-24.5 -79h187zM215 584l-44 11q16 55 73 55
q31 0 50.5 -17.5t19.5 -51.5q0 -28 -16 -54h-50q19 23 19 51q0 31 -24 31q-20 0 -28 -25z" />
    <glyph glyph-name="uni1EBC" unicode="&#x1ebc;" horiz-adv-x="481" 
d="M441 0h-382v667h382v-118h-248v-151h241v-118h-241v-162h248v-118zM302 721q-26 0 -44.5 17.5t-31.5 35.5t-26 18q-31 0 -31 -65h-62q0 62 25 98t71 36q20 0 36.5 -11t25 -24.5t19.5 -24.5t22 -11q30 0 30 65h62q0 -62 -25 -98t-71 -36z" />
    <glyph glyph-name="uni1EBD" unicode="&#x1ebd;" 
d="M254 -12q-102 0 -163.5 70t-61.5 184q0 108 59 180.5t157 72.5t153 -71.5t55 -186.5v-34h-303q4 -52 34 -85t83 -33q27 0 56 12.5t49 34.5l55 -72q-66 -72 -173 -72zM337 285q-2 45 -24 79t-70 34q-46 0 -68.5 -34t-24.5 -79h187zM293 554q-26 0 -44.5 18t-31.5 35.5
t-26 17.5q-31 0 -31 -65h-62q0 62 25 98t71 36q26 0 44.5 -18t32 -35.5t26.5 -17.5q30 0 30 65h62q0 -62 -25 -98t-71 -36z" />
    <glyph glyph-name="uni1EBE" unicode="&#x1ebe;" horiz-adv-x="481" 
d="M386 682h-70l-64 68l-61 -68h-70l77 108h108zM571 843l-134 -108h-80l107 108h107zM441 0h-382v667h382v-118h-248v-151h241v-118h-241v-162h248v-118z" />
    <glyph glyph-name="uni1EBF" unicode="&#x1ebf;" 
d="M378 556h-70l-64 91l-61 -91h-70l77 144h108zM558 770l-134 -144h-80l107 144h107zM254 -12q-102 0 -163.5 70t-61.5 184q0 108 59 180.5t157 72.5t153 -71.5t55 -186.5v-34h-303q4 -52 34 -85t83 -33q27 0 56 12.5t49 34.5l55 -72q-66 -72 -173 -72zM337 285
q-2 45 -24 79t-70 34q-46 0 -68.5 -34t-24.5 -79h187z" />
    <glyph glyph-name="uni1EC0" unicode="&#x1ec0;" horiz-adv-x="481" 
d="M386 682h-70l-64 68l-61 -68h-70l77 108h108zM441 0h-382v667h382v-118h-248v-151h241v-118h-241v-162h248v-118zM150 735h-80l-134 108h107z" />
    <glyph glyph-name="uni1EC1" unicode="&#x1ec1;" 
d="M378 556h-70l-64 91l-61 -91h-70l77 144h108zM254 -12q-102 0 -163.5 70t-61.5 184q0 108 59 180.5t157 72.5t153 -71.5t55 -186.5v-34h-303q4 -52 34 -85t83 -33q27 0 56 12.5t49 34.5l55 -72q-66 -72 -173 -72zM337 285q-2 45 -24 79t-70 34q-46 0 -68.5 -34t-24.5 -79
h187zM141 626h-80l-134 144h107z" />
    <glyph glyph-name="uni1EC2" unicode="&#x1ec2;" horiz-adv-x="481" 
d="M385 682h-70l-64 68l-61 -68h-70l77 108h108zM441 0h-382v667h382v-118h-248v-151h241v-118h-241v-162h248v-118zM368 787l-44 8q16 41 73 41q31 0 50.5 -12.5t19.5 -38.5q0 -22 -16 -41h-50q19 18 19 38q0 24 -24 24q-19 0 -28 -19z" />
    <glyph glyph-name="uni1EC3" unicode="&#x1ec3;" 
d="M377 556h-70l-64 91l-61 -91h-70l77 144h108zM254 -12q-102 0 -163.5 70t-61.5 184q0 108 59 180.5t157 72.5t153 -71.5t55 -186.5v-34h-303q4 -52 34 -85t83 -33q27 0 56 12.5t49 34.5l55 -72q-66 -72 -173 -72zM337 285q-2 45 -24 79t-70 34q-46 0 -68.5 -34t-24.5 -79
h187zM311 724l-44 11q16 55 73 55q31 0 50.5 -17.5t19.5 -51.5q0 -28 -16 -54h-50q19 23 19 51q0 31 -24 31q-20 0 -28 -25z" />
    <glyph glyph-name="uni1EC4" unicode="&#x1ec4;" horiz-adv-x="481" 
d="M385 678h-70l-64 45l-61 -45h-70l77 72h108zM441 0h-382v667h382v-118h-248v-151h241v-118h-241v-162h248v-118zM300 757q-34 0 -62 17.5t-40 17.5q-31 0 -31 -32h-62q0 31 25 49t71 18q33 0 61.5 -18t41.5 -18q30 0 30 33h62q0 -31 -25 -49t-71 -18z" />
    <glyph glyph-name="uni1EC5" unicode="&#x1ec5;" 
d="M377 523h-70l-64 91l-61 -91h-70l77 144h108zM254 -12q-102 0 -163.5 70t-61.5 184q0 108 59 180.5t157 72.5t153 -71.5t55 -186.5v-34h-303q4 -52 34 -85t83 -33q27 0 56 12.5t49 34.5l55 -72q-66 -72 -173 -72zM337 285q-2 45 -24 79t-70 34q-46 0 -68.5 -34t-24.5 -79
h187zM293 682q-26 0 -44.5 18t-31.5 35.5t-26 17.5q-31 0 -31 -65h-62q0 62 25 98t71 36q26 0 44.5 -18t32 -35.5t26.5 -17.5q30 0 30 65h62q0 -62 -25 -98t-71 -36z" />
    <glyph glyph-name="uni1EC6" unicode="&#x1ec6;" horiz-adv-x="481" 
d="M383 723h-70l-64 91l-61 -91h-70l77 144h108zM441 0h-382v667h382v-118h-248v-151h241v-118h-241v-162h248v-118zM253 -194q-27 0 -46 18.5t-19 45.5t19.5 46t45.5 19t45 -19t19 -46t-19 -45.5t-45 -18.5z" />
    <glyph glyph-name="uni1EC7" unicode="&#x1ec7;" 
d="M379 556h-70l-64 91l-61 -91h-70l77 144h108zM254 -12q-102 0 -163.5 70t-61.5 184q0 108 59 180.5t157 72.5t153 -71.5t55 -186.5v-34h-303q4 -52 34 -85t83 -33q27 0 56 12.5t49 34.5l55 -72q-66 -72 -173 -72zM337 285q-2 45 -24 79t-70 34q-46 0 -68.5 -34t-24.5 -79
h187zM246 -194q-27 0 -46 18.5t-19 45.5t19.5 46t45.5 19t45 -19t19 -46t-19 -45.5t-45 -18.5z" />
    <glyph glyph-name="uni1EC8" unicode="&#x1ec8;" horiz-adv-x="252" 
d="M193 0h-134v667h134v-667zM99 754l-44 11q16 55 73 55q31 0 50.5 -17.5t19.5 -51.5q0 -28 -16 -54h-50q19 23 19 51q0 31 -24 31q-20 0 -28 -25z" />
    <glyph glyph-name="uni1EC9" unicode="&#x1ec9;" horiz-adv-x="228" 
d="M174 0h-120v483h120v-483zM86 584l-44 11q16 55 73 55q31 0 50.5 -17.5t19.5 -51.5q0 -28 -16 -54h-50q19 23 19 51q0 31 -24 31q-20 0 -28 -25z" />
    <glyph glyph-name="uni1ECA" unicode="&#x1eca;" horiz-adv-x="252" 
d="M193 0h-134v667h134v-667zM128 -194q-27 0 -46 18.5t-19 45.5t19.5 46t45.5 19t45 -19t19 -46t-19 -45.5t-45 -18.5z" />
    <glyph glyph-name="uni1ECB" unicode="&#x1ecb;" horiz-adv-x="228" 
d="M114 537q-29 0 -50.5 21t-21.5 51t21.5 51.5t50.5 21.5q30 0 51 -21.5t21 -51.5t-21 -51t-51 -21zM174 0h-120v483h120v-483zM116 -194q-27 0 -46 18.5t-19 45.5t19.5 46t45.5 19t45 -19t19 -46t-19 -45.5t-45 -18.5z" />
    <glyph glyph-name="uni1ECC" unicode="&#x1ecc;" horiz-adv-x="622" 
d="M310 -12q-128 0 -203 96.5t-75 248.5t75 248.5t203 96.5q129 0 204 -96.5t75 -248.5t-75 -248.5t-204 -96.5zM310 107q67 0 104.5 63.5t37.5 162.5q0 100 -37.5 163t-104.5 63q-66 0 -103 -63t-37 -163q0 -99 37 -162.5t103 -63.5zM313 -194q-27 0 -46 18.5t-19 45.5
t19.5 46t45.5 19t45 -19t19 -46t-19 -45.5t-45 -18.5z" />
    <glyph glyph-name="uni1ECD" unicode="&#x1ecd;" horiz-adv-x="495" 
d="M247 -12q-102 0 -160 73.5t-58 180.5t58 180t160 73q103 0 161 -73t58 -180q0 -108 -58 -181t-161 -73zM247 94q47 0 71 42t24 106t-24 105.5t-71 41.5q-46 0 -69.5 -42t-23.5 -105q0 -64 23.5 -106t69.5 -42zM248 -194q-27 0 -46 18.5t-19 45.5t19.5 46t45.5 19t45 -19
t19 -46t-19 -45.5t-45 -18.5z" />
    <glyph glyph-name="uni1ECE" unicode="&#x1ece;" horiz-adv-x="622" 
d="M310 -12q-128 0 -203 96.5t-75 248.5t75 248.5t203 96.5q129 0 204 -96.5t75 -248.5t-75 -248.5t-204 -96.5zM310 107q67 0 104.5 63.5t37.5 162.5q0 100 -37.5 163t-104.5 63q-66 0 -103 -63t-37 -163q0 -99 37 -162.5t103 -63.5zM282 754l-44 11q16 55 73 55
q31 0 50.5 -17.5t19.5 -51.5q0 -28 -16 -54h-50q19 23 19 51q0 31 -24 31q-20 0 -28 -25z" />
    <glyph glyph-name="uni1ECF" unicode="&#x1ecf;" horiz-adv-x="495" 
d="M247 -12q-102 0 -160 73.5t-58 180.5t58 180t160 73q103 0 161 -73t58 -180q0 -108 -58 -181t-161 -73zM247 94q47 0 71 42t24 106t-24 105.5t-71 41.5q-46 0 -69.5 -42t-23.5 -105q0 -64 23.5 -106t69.5 -42zM221 584l-44 11q16 55 73 55q31 0 50.5 -17.5t19.5 -51.5
q0 -28 -16 -54h-50q19 23 19 51q0 31 -24 31q-20 0 -28 -25z" />
    <glyph glyph-name="uni1ED0" unicode="&#x1ed0;" horiz-adv-x="622" 
d="M440 682h-70l-64 68l-61 -68h-70l77 108h108zM626 843l-134 -108h-80l107 108h107zM310 -12q-128 0 -203 96.5t-75 248.5t75 248.5t203 96.5q129 0 204 -96.5t75 -248.5t-75 -248.5t-204 -96.5zM310 107q67 0 104.5 63.5t37.5 162.5q0 100 -37.5 163t-104.5 63
q-66 0 -103 -63t-37 -163q0 -99 37 -162.5t103 -63.5z" />
    <glyph glyph-name="uni1ED1" unicode="&#x1ed1;" horiz-adv-x="495" 
d="M380 556h-70l-64 91l-61 -91h-70l77 144h108zM561 770l-134 -144h-80l107 144h107zM247 -12q-102 0 -160 73.5t-58 180.5t58 180t160 73q103 0 161 -73t58 -180q0 -108 -58 -181t-161 -73zM247 94q47 0 71 42t24 106t-24 105.5t-71 41.5q-46 0 -69.5 -42t-23.5 -105
q0 -64 23.5 -106t69.5 -42z" />
    <glyph glyph-name="uni1ED2" unicode="&#x1ed2;" horiz-adv-x="622" 
d="M439 682h-70l-64 68l-61 -68h-70l77 108h108zM310 -12q-128 0 -203 96.5t-75 248.5t75 248.5t203 96.5q129 0 204 -96.5t75 -248.5t-75 -248.5t-204 -96.5zM310 107q67 0 104.5 63.5t37.5 162.5q0 100 -37.5 163t-104.5 63q-66 0 -103 -63t-37 -163q0 -99 37 -162.5
t103 -63.5zM202 735h-80l-134 108h107z" />
    <glyph glyph-name="uni1ED3" unicode="&#x1ed3;" horiz-adv-x="495" 
d="M380 556h-70l-64 91l-61 -91h-70l77 144h108zM247 -12q-102 0 -160 73.5t-58 180.5t58 180t160 73q103 0 161 -73t58 -180q0 -108 -58 -181t-161 -73zM247 94q47 0 71 42t24 106t-24 105.5t-71 41.5q-46 0 -69.5 -42t-23.5 -105q0 -64 23.5 -106t69.5 -42zM144 626h-80
l-134 144h107z" />
    <glyph glyph-name="uni1ED4" unicode="&#x1ed4;" horiz-adv-x="622" 
d="M439 682h-70l-64 68l-61 -68h-70l77 108h108zM310 -12q-128 0 -203 96.5t-75 248.5t75 248.5t203 96.5q129 0 204 -96.5t75 -248.5t-75 -248.5t-204 -96.5zM310 107q67 0 104.5 63.5t37.5 162.5q0 100 -37.5 163t-104.5 63q-66 0 -103 -63t-37 -163q0 -99 37 -162.5
t103 -63.5zM422 787l-44 8q16 41 73 41q31 0 50.5 -12.5t19.5 -38.5q0 -22 -16 -41h-50q19 18 19 38q0 24 -24 24q-19 0 -28 -19z" />
    <glyph glyph-name="uni1ED5" unicode="&#x1ed5;" horiz-adv-x="495" 
d="M380 556h-70l-64 91l-61 -91h-70l77 144h108zM247 -12q-102 0 -160 73.5t-58 180.5t58 180t160 73q103 0 161 -73t58 -180q0 -108 -58 -181t-161 -73zM247 94q47 0 71 42t24 106t-24 105.5t-71 41.5q-46 0 -69.5 -42t-23.5 -105q0 -64 23.5 -106t69.5 -42zM314 724
l-44 11q16 55 73 55q31 0 50.5 -17.5t19.5 -51.5q0 -28 -16 -54h-50q19 23 19 51q0 31 -24 31q-20 0 -28 -25z" />
    <glyph glyph-name="uni1ED6" unicode="&#x1ed6;" horiz-adv-x="622" 
d="M442 678h-70l-64 45l-61 -45h-70l77 72h108zM310 -12q-128 0 -203 96.5t-75 248.5t75 248.5t203 96.5q129 0 204 -96.5t75 -248.5t-75 -248.5t-204 -96.5zM310 107q67 0 104.5 63.5t37.5 162.5q0 100 -37.5 163t-104.5 63q-66 0 -103 -63t-37 -163q0 -99 37 -162.5
t103 -63.5zM357 757q-33 0 -61 17.5t-41 17.5q-31 0 -31 -32h-62q0 31 25 49t71 18q33 0 61.5 -18t41.5 -18q30 0 30 33h62q0 -31 -25 -49t-71 -18z" />
    <glyph glyph-name="uni1ED7" unicode="&#x1ed7;" horiz-adv-x="495" 
d="M380 523h-70l-64 91l-61 -91h-70l77 144h108zM247 -12q-102 0 -160 73.5t-58 180.5t58 180t160 73q103 0 161 -73t58 -180q0 -108 -58 -181t-161 -73zM247 94q47 0 71 42t24 106t-24 105.5t-71 41.5q-46 0 -69.5 -42t-23.5 -105q0 -64 23.5 -106t69.5 -42zM297 682
q-26 0 -44.5 18t-31.5 35.5t-26 17.5q-31 0 -31 -65h-62q0 62 25 98t71 36q26 0 44.5 -18t32 -35.5t26.5 -17.5q30 0 30 65h62q0 -62 -25 -98t-71 -36z" />
    <glyph glyph-name="uni1ED8" unicode="&#x1ed8;" horiz-adv-x="622" 
d="M445 723h-70l-64 91l-61 -91h-70l77 144h108zM310 -12q-128 0 -203 96.5t-75 248.5t75 248.5t203 96.5q129 0 204 -96.5t75 -248.5t-75 -248.5t-204 -96.5zM310 107q67 0 104.5 63.5t37.5 162.5q0 100 -37.5 163t-104.5 63q-66 0 -103 -63t-37 -163q0 -99 37 -162.5
t103 -63.5zM313 -194q-27 0 -46 18.5t-19 45.5t19.5 46t45.5 19t45 -19t19 -46t-19 -45.5t-45 -18.5z" />
    <glyph glyph-name="uni1ED9" unicode="&#x1ed9;" horiz-adv-x="495" 
d="M381 556h-70l-64 91l-61 -91h-70l77 144h108zM247 -12q-102 0 -160 73.5t-58 180.5t58 180t160 73q103 0 161 -73t58 -180q0 -108 -58 -181t-161 -73zM247 94q47 0 71 42t24 106t-24 105.5t-71 41.5q-46 0 -69.5 -42t-23.5 -105q0 -64 23.5 -106t69.5 -42zM248 -194
q-27 0 -46 18.5t-19 45.5t19.5 46t45.5 19t45 -19t19 -46t-19 -45.5t-45 -18.5z" />
    <glyph glyph-name="uni1EDA" unicode="&#x1eda;" horiz-adv-x="622" 
d="M471 867l-134 -144h-80l107 144h107zM310 -12q-128 0 -203 96.5t-75 248.5t75 248.5t203 96.5q132 0 209 -104q33 29 39 62q-4 -2 -13 -2q-20 0 -33.5 14t-13.5 36t16 38t38 16q25 0 43 -19.5t18 -52.5q0 -78 -70 -131q46 -86 46 -202q0 -152 -75 -248.5t-204 -96.5z
M310 107q67 0 104.5 63.5t37.5 162.5q0 100 -37.5 163t-104.5 63q-66 0 -103 -63t-37 -163q0 -99 37 -162.5t103 -63.5z" />
    <glyph glyph-name="uni1EDB" unicode="&#x1edb;" horiz-adv-x="495" 
d="M408 700l-134 -144h-80l107 144h107zM480 532q0 -72 -61 -125q47 -68 47 -165q0 -108 -58 -181t-161 -73q-102 0 -160 73.5t-58 180.5t58 180t160 73q84 0 141 -52q30 27 38 59q-4 -2 -14 -2q-20 0 -33.5 14t-13.5 36t15.5 38t38.5 16q25 0 43 -19.5t18 -52.5zM247 94
q47 0 71 42t24 106t-24 105.5t-71 41.5q-46 0 -69.5 -42t-23.5 -105q0 -64 23.5 -106t69.5 -42z" />
    <glyph glyph-name="uni1EDC" unicode="&#x1edc;" horiz-adv-x="622" 
d="M310 -12q-128 0 -203 96.5t-75 248.5t75 248.5t203 96.5q132 0 209 -104q33 29 39 62q-4 -2 -13 -2q-20 0 -33.5 14t-13.5 36t16 38t38 16q25 0 43 -19.5t18 -52.5q0 -78 -70 -131q46 -86 46 -202q0 -152 -75 -248.5t-204 -96.5zM310 107q67 0 104.5 63.5t37.5 162.5
q0 100 -37.5 163t-104.5 63q-66 0 -103 -63t-37 -163q0 -99 37 -162.5t103 -63.5zM365 723h-80l-134 144h107z" />
    <glyph glyph-name="uni1EDD" unicode="&#x1edd;" horiz-adv-x="495" 
d="M480 532q0 -72 -61 -125q47 -68 47 -165q0 -108 -58 -181t-161 -73q-102 0 -160 73.5t-58 180.5t58 180t160 73q84 0 141 -52q30 27 38 59q-4 -2 -14 -2q-20 0 -33.5 14t-13.5 36t15.5 38t38.5 16q25 0 43 -19.5t18 -52.5zM247 94q47 0 71 42t24 106t-24 105.5t-71 41.5
q-46 0 -69.5 -42t-23.5 -105q0 -64 23.5 -106t69.5 -42zM302 556h-80l-134 144h107z" />
    <glyph glyph-name="uni1EDE" unicode="&#x1ede;" horiz-adv-x="622" 
d="M310 -12q-128 0 -203 96.5t-75 248.5t75 248.5t203 96.5q132 0 209 -104q33 29 39 62q-4 -2 -13 -2q-20 0 -33.5 14t-13.5 36t16 38t38 16q25 0 43 -19.5t18 -52.5q0 -78 -70 -131q46 -86 46 -202q0 -152 -75 -248.5t-204 -96.5zM310 107q67 0 104.5 63.5t37.5 162.5
q0 100 -37.5 163t-104.5 63q-66 0 -103 -63t-37 -163q0 -99 37 -162.5t103 -63.5zM283 754l-44 11q16 55 73 55q31 0 50.5 -17.5t19.5 -51.5q0 -28 -16 -54h-50q19 23 19 51q0 31 -24 31q-20 0 -28 -25z" />
    <glyph glyph-name="uni1EDF" unicode="&#x1edf;" horiz-adv-x="495" 
d="M480 532q0 -72 -61 -125q47 -68 47 -165q0 -108 -58 -181t-161 -73q-102 0 -160 73.5t-58 180.5t58 180t160 73q84 0 141 -52q30 27 38 59q-4 -2 -14 -2q-20 0 -33.5 14t-13.5 36t15.5 38t38.5 16q25 0 43 -19.5t18 -52.5zM247 94q47 0 71 42t24 106t-24 105.5t-71 41.5
q-46 0 -69.5 -42t-23.5 -105q0 -64 23.5 -106t69.5 -42zM220 584l-44 11q16 55 73 55q31 0 50.5 -17.5t19.5 -51.5q0 -28 -16 -54h-50q19 23 19 51q0 31 -24 31q-20 0 -28 -25z" />
    <glyph glyph-name="uni1EE0" unicode="&#x1ee0;" horiz-adv-x="622" 
d="M310 -12q-128 0 -203 96.5t-75 248.5t75 248.5t203 96.5q132 0 209 -104q33 29 39 62q-4 -2 -13 -2q-20 0 -33.5 14t-13.5 36t16 38t38 16q25 0 43 -19.5t18 -52.5q0 -78 -70 -131q46 -86 46 -202q0 -152 -75 -248.5t-204 -96.5zM310 107q67 0 104.5 63.5t37.5 162.5
q0 100 -37.5 163t-104.5 63q-66 0 -103 -63t-37 -163q0 -99 37 -162.5t103 -63.5zM361 721q-26 0 -44.5 17.5t-31.5 35.5t-26 18q-31 0 -31 -65h-62q0 62 25 98t71 36q20 0 36.5 -11t25 -24.5t19.5 -24.5t22 -11q30 0 30 65h62q0 -62 -25 -98t-71 -36z" />
    <glyph glyph-name="uni1EE1" unicode="&#x1ee1;" horiz-adv-x="495" 
d="M480 532q0 -72 -61 -125q47 -68 47 -165q0 -108 -58 -181t-161 -73q-102 0 -160 73.5t-58 180.5t58 180t160 73q84 0 141 -52q30 27 38 59q-4 -2 -14 -2q-20 0 -33.5 14t-13.5 36t15.5 38t38.5 16q25 0 43 -19.5t18 -52.5zM247 94q47 0 71 42t24 106t-24 105.5t-71 41.5
q-46 0 -69.5 -42t-23.5 -105q0 -64 23.5 -106t69.5 -42zM284 554q-26 0 -44.5 18t-31.5 35.5t-26 17.5q-31 0 -31 -65h-62q0 62 25 98t71 36q26 0 44.5 -18t32 -35.5t26.5 -17.5q30 0 30 65h62q0 -62 -25 -98t-71 -36z" />
    <glyph glyph-name="uni1EE2" unicode="&#x1ee2;" horiz-adv-x="622" 
d="M310 -12q-128 0 -203 96.5t-75 248.5t75 248.5t203 96.5q132 0 209 -104q33 29 39 62q-4 -2 -13 -2q-20 0 -33.5 14t-13.5 36t16 38t38 16q25 0 43 -19.5t18 -52.5q0 -78 -70 -131q46 -86 46 -202q0 -152 -75 -248.5t-204 -96.5zM310 107q67 0 104.5 63.5t37.5 162.5
q0 100 -37.5 163t-104.5 63q-66 0 -103 -63t-37 -163q0 -99 37 -162.5t103 -63.5zM313 -194q-27 0 -46 18.5t-19 45.5t19.5 46t45.5 19t45 -19t19 -46t-19 -45.5t-45 -18.5z" />
    <glyph glyph-name="uni1EE3" unicode="&#x1ee3;" horiz-adv-x="495" 
d="M480 532q0 -72 -61 -125q47 -68 47 -165q0 -108 -58 -181t-161 -73q-102 0 -160 73.5t-58 180.5t58 180t160 73q84 0 141 -52q30 27 38 59q-4 -2 -14 -2q-20 0 -33.5 14t-13.5 36t15.5 38t38.5 16q25 0 43 -19.5t18 -52.5zM247 94q47 0 71 42t24 106t-24 105.5t-71 41.5
q-46 0 -69.5 -42t-23.5 -105q0 -64 23.5 -106t69.5 -42zM249 -194q-27 0 -46 18.5t-19 45.5t19.5 46t45.5 19t45 -19t19 -46t-19 -45.5t-45 -18.5z" />
    <glyph glyph-name="uni1EE4" unicode="&#x1ee4;" horiz-adv-x="609" 
d="M305 -12q-114 0 -180 63.5t-66 178.5v437h135v-438q0 -59 29 -91t82 -32t81.5 32t28.5 91v438h135v-437q0 -114 -65.5 -178t-179.5 -64zM307 -194q-27 0 -46 18.5t-19 45.5t19.5 46t45.5 19t45 -19t19 -46t-19 -45.5t-45 -18.5z" />
    <glyph glyph-name="uni1EE5" unicode="&#x1ee5;" horiz-adv-x="499" 
d="M445 0h-120v61q-21 -31 -59 -52t-83 -21q-129 0 -129 130v365h120v-319q0 -70 64 -70q54 0 87 59v330h120v-483zM251 -194q-27 0 -46 18.5t-19 45.5t19.5 46t45.5 19t45 -19t19 -46t-19 -45.5t-45 -18.5z" />
    <glyph glyph-name="uni1EE6" unicode="&#x1ee6;" horiz-adv-x="609" 
d="M305 -12q-114 0 -180 63.5t-66 178.5v437h135v-438q0 -59 29 -91t82 -32t81.5 32t28.5 91v438h135v-437q0 -114 -65.5 -178t-179.5 -64zM277 754l-44 11q16 55 73 55q31 0 50.5 -17.5t19.5 -51.5q0 -28 -16 -54h-50q19 23 19 51q0 31 -24 31q-20 0 -28 -25z" />
    <glyph glyph-name="uni1EE7" unicode="&#x1ee7;" horiz-adv-x="499" 
d="M445 0h-120v61q-21 -31 -59 -52t-83 -21q-129 0 -129 130v365h120v-319q0 -70 64 -70q54 0 87 59v330h120v-483zM222 584l-44 11q16 55 73 55q31 0 50.5 -17.5t19.5 -51.5q0 -28 -16 -54h-50q19 23 19 51q0 31 -24 31q-20 0 -28 -25z" />
    <glyph glyph-name="uni1EE8" unicode="&#x1ee8;" horiz-adv-x="609" 
d="M465 867l-134 -144h-80l107 144h107zM652 727q0 -44 -26.5 -85t-75.5 -67v-345q0 -114 -65.5 -178t-179.5 -64t-180 63.5t-66 178.5v437h135v-438q0 -59 29 -91t82 -32t81.5 32t28.5 91v438h135v-39q40 29 48 69q-4 -2 -14 -2q-20 0 -33 14t-13 36q0 23 15.5 38.5
t37.5 15.5q25 0 43 -19.5t18 -52.5z" />
    <glyph glyph-name="uni1EE9" unicode="&#x1ee9;" horiz-adv-x="499" 
d="M410 700l-134 -144h-80l107 144h107zM445 0h-120v61q-21 -31 -59 -52t-83 -21q-129 0 -129 130v365h120v-319q0 -70 64 -70q54 0 87 59v330h120v-11q18 25 20 42q-4 -2 -13 -2q-20 0 -33.5 14t-13.5 36t15.5 38t37.5 16q26 0 44 -19.5t18 -52.5q0 -80 -75 -135v-409z" />
    <glyph glyph-name="uni1EEA" unicode="&#x1eea;" horiz-adv-x="609" 
d="M358 723h-80l-134 144h107zM652 727q0 -44 -26.5 -85t-75.5 -67v-345q0 -114 -65.5 -178t-179.5 -64t-180 63.5t-66 178.5v437h135v-438q0 -59 29 -91t82 -32t81.5 32t28.5 91v438h135v-39q40 29 48 69q-4 -2 -14 -2q-20 0 -33 14t-13 36q0 23 15.5 38.5t37.5 15.5
q25 0 43 -19.5t18 -52.5z" />
    <glyph glyph-name="uni1EEB" unicode="&#x1eeb;" horiz-adv-x="499" 
d="M303 556h-80l-134 144h107zM445 0h-120v61q-21 -31 -59 -52t-83 -21q-129 0 -129 130v365h120v-319q0 -70 64 -70q54 0 87 59v330h120v-11q18 25 20 42q-4 -2 -13 -2q-20 0 -33.5 14t-13.5 36t15.5 38t37.5 16q26 0 44 -19.5t18 -52.5q0 -80 -75 -135v-409z" />
    <glyph glyph-name="uni1EEC" unicode="&#x1eec;" horiz-adv-x="609" 
d="M277 754l-44 11q16 55 73 55q31 0 50.5 -17.5t19.5 -51.5q0 -28 -16 -54h-50q19 23 19 51q0 31 -24 31q-20 0 -28 -25zM652 727q0 -44 -26.5 -85t-75.5 -67v-345q0 -114 -65.5 -178t-179.5 -64t-180 63.5t-66 178.5v437h135v-438q0 -59 29 -91t82 -32t81.5 32t28.5 91
v438h135v-39q40 29 48 69q-4 -2 -14 -2q-20 0 -33 14t-13 36q0 23 15.5 38.5t37.5 15.5q25 0 43 -19.5t18 -52.5z" />
    <glyph glyph-name="uni1EED" unicode="&#x1eed;" horiz-adv-x="499" 
d="M222 584l-44 11q16 55 73 55q31 0 50.5 -17.5t19.5 -51.5q0 -28 -16 -54h-50q19 23 19 51q0 31 -24 31q-20 0 -28 -25zM445 0h-120v61q-21 -31 -59 -52t-83 -21q-129 0 -129 130v365h120v-319q0 -70 64 -70q54 0 87 59v330h120v-11q18 25 20 42q-4 -2 -13 -2
q-20 0 -33.5 14t-13.5 36t15.5 38t37.5 16q26 0 44 -19.5t18 -52.5q0 -80 -75 -135v-409z" />
    <glyph glyph-name="uni1EEE" unicode="&#x1eee;" horiz-adv-x="609" 
d="M652 727q0 -44 -26.5 -85t-75.5 -67v-345q0 -114 -65.5 -178t-179.5 -64t-180 63.5t-66 178.5v437h135v-438q0 -59 29 -91t82 -32t81.5 32t28.5 91v438h135v-39q40 29 48 69q-4 -2 -14 -2q-20 0 -33 14t-13 36q0 23 15.5 38.5t37.5 15.5q25 0 43 -19.5t18 -52.5zM354 721
q-26 0 -44.5 17.5t-31.5 35.5t-26 18q-31 0 -31 -65h-62q0 62 25 98t71 36q20 0 36.5 -11t25 -24.5t19.5 -24.5t22 -11q30 0 30 65h62q0 -62 -25 -98t-71 -36z" />
    <glyph glyph-name="uni1EEF" unicode="&#x1eef;" horiz-adv-x="499" 
d="M445 0h-120v61q-21 -31 -59 -52t-83 -21q-129 0 -129 130v365h120v-319q0 -70 64 -70q54 0 87 59v330h120v-11q18 25 20 42q-4 -2 -13 -2q-20 0 -33.5 14t-13.5 36t15.5 38t37.5 16q26 0 44 -19.5t18 -52.5q0 -80 -75 -135v-409zM297 554q-26 0 -44.5 18t-31.5 35.5
t-26 17.5q-31 0 -31 -65h-62q0 62 25 98t71 36q26 0 44.5 -18t32 -35.5t26.5 -17.5q30 0 30 65h62q0 -62 -25 -98t-71 -36z" />
    <glyph glyph-name="uni1EF0" unicode="&#x1ef0;" horiz-adv-x="609" 
d="M307 -194q-27 0 -46 18.5t-19 45.5t19.5 46t45.5 19t45 -19t19 -46t-19 -45.5t-45 -18.5zM652 727q0 -44 -26.5 -85t-75.5 -67v-345q0 -114 -65.5 -178t-179.5 -64t-180 63.5t-66 178.5v437h135v-438q0 -59 29 -91t82 -32t81.5 32t28.5 91v438h135v-39q40 29 48 69
q-4 -2 -14 -2q-20 0 -33 14t-13 36q0 23 15.5 38.5t37.5 15.5q25 0 43 -19.5t18 -52.5z" />
    <glyph glyph-name="uni1EF1" unicode="&#x1ef1;" horiz-adv-x="499" 
d="M251 -194q-27 0 -46 18.5t-19 45.5t19.5 46t45.5 19t45 -19t19 -46t-19 -45.5t-45 -18.5zM445 0h-120v61q-21 -31 -59 -52t-83 -21q-129 0 -129 130v365h120v-319q0 -70 64 -70q54 0 87 59v330h120v-11q18 25 20 42q-4 -2 -13 -2q-20 0 -33.5 14t-13.5 36t15.5 38
t37.5 16q26 0 44 -19.5t18 -52.5q0 -80 -75 -135v-409z" />
    <glyph glyph-name="Ygrave" unicode="&#x1ef2;" horiz-adv-x="538" 
d="M336 0h-134v275l-206 392h148l125 -268l125 268h148l-206 -392v-275zM323 723h-80l-134 144h107z" />
    <glyph glyph-name="ygrave" unicode="&#x1ef3;" horiz-adv-x="447" 
d="M43 -189l18 106q14 -7 31 -7q40 0 53 35l16 46l-163 492h128l97 -338l98 338h128l-189 -565q-21 -64 -59 -88.5t-100 -25.5q-35 0 -58 7zM276 556h-80l-134 144h107z" />
    <glyph glyph-name="thinspace" unicode="&#x2009;" horiz-adv-x="42" 
 />
    <glyph glyph-name="endash" unicode="&#x2013;" horiz-adv-x="527" 
d="M497 191h-467v102h467v-102z" />
    <glyph glyph-name="emdash" unicode="&#x2014;" horiz-adv-x="737" 
d="M707 191h-677v102h677v-102z" />
    <glyph glyph-name="afii00208" unicode="&#x2015;" horiz-adv-x="527" 
d="M497 191h-467v102h467v-102z" />
    <glyph glyph-name="quoteleft" unicode="&#x2018;" horiz-adv-x="253" 
d="M42 498q0 53 27 100t73 79l53 -42q-25 -14 -47.5 -41.5t-28.5 -52.5q6 2 19 2q27 0 46 -19.5t19 -49.5q0 -31 -22.5 -53.5t-53.5 -22.5q-35 0 -60 27t-25 73z" />
    <glyph glyph-name="quoteright" unicode="&#x2019;" horiz-adv-x="253" 
d="M209 578q0 -54 -27 -101t-73 -79l-52 42q25 15 47 42.5t28 52.5q-9 -3 -18 -3q-28 0 -46.5 19.5t-18.5 49.5q0 31 22 53.5t53 22.5q35 0 60 -27t25 -72z" />
    <glyph glyph-name="quotesinglbase" unicode="&#x201a;" horiz-adv-x="252" 
d="M209 45q0 -109 -100 -181l-52 43q25 14 47 41.5t28 53.5q-4 -3 -18 -3q-28 0 -47 19.5t-19 49.5q0 31 22.5 53.5t53.5 22.5q35 0 60 -27t25 -72z" />
    <glyph glyph-name="quotereversed" unicode="&#x201b;" horiz-adv-x="253" 
d="M44 578q0 45 25 72t60 27q31 0 53 -22.5t22 -53.5q0 -30 -18.5 -49.5t-46.5 -19.5q-7 0 -19 3q7 -26 29 -53t47 -42l-52 -42q-46 32 -73 79t-27 101z" />
    <glyph glyph-name="quotedblleft" unicode="&#x201c;" horiz-adv-x="450" 
d="M44 498q0 53 27 100t72 79l53 -42q-25 -14 -47.5 -41.5t-28.5 -52.5q6 2 19 2q27 0 46 -19.5t19 -49.5q0 -31 -22 -53.5t-53 -22.5q-35 0 -60 27t-25 73zM241 498q0 53 27 100t73 79l53 -42q-25 -14 -48 -41.5t-28 -52.5q6 2 19 2q27 0 45.5 -19.5t18.5 -49.5
q0 -31 -22 -53.5t-53 -22.5q-35 0 -60 27t-25 73z" />
    <glyph glyph-name="quotedblright" unicode="&#x201d;" horiz-adv-x="450" 
d="M407 578q0 -53 -27 -100t-73 -80l-53 42q25 15 47.5 42.5t28.5 52.5q-9 -3 -19 -3q-27 0 -46 19.5t-19 49.5q0 31 22 53.5t54 22.5q35 0 60 -27t25 -72zM209 578q0 -54 -27 -101t-73 -79l-52 42q25 15 47 42.5t28 52.5q-9 -3 -18 -3q-28 0 -46.5 19.5t-18.5 49.5
q0 31 22 53.5t53 22.5q35 0 60 -27t25 -72z" />
    <glyph glyph-name="quotedblbase" unicode="&#x201e;" horiz-adv-x="450" 
d="M209 45q0 -109 -100 -181l-52 43q25 14 47 41.5t28 53.5q-4 -3 -18 -3q-28 0 -47 19.5t-19 49.5q0 31 22.5 53.5t53.5 22.5q35 0 60 -27t25 -72zM407 45q0 -108 -100 -181l-53 43q25 14 47.5 41.5t28.5 53.5q-4 -3 -19 -3q-27 0 -46 19.5t-19 49.5q0 31 22 53.5t53 22.5
q36 0 61 -27t25 -72z" />
    <glyph glyph-name="dagger" unicode="&#x2020;" horiz-adv-x="275" 
d="M255 523l-89 4l4 -200h-66l5 200l-89 -4v60l89 -3l-5 97h66l-4 -97l89 3v-60z" />
    <glyph glyph-name="daggerdbl" unicode="&#x2021;" horiz-adv-x="275" 
d="M255 583v-60l-89 4v-196l89 4v-60l-89 3l4 -98h-66l4 98l-88 -3v60l88 -4v196l-88 -4v60l88 -3l-4 97h66l-4 -97z" />
    <glyph glyph-name="bullet" unicode="&#x2022;" horiz-adv-x="358" 
d="M297 242q0 -48 -34 -82t-83 -34t-83 34t-34 82q0 49 34 83t83 34t83 -34t34 -83z" />
    <glyph glyph-name="ellipsis" unicode="&#x2026;" horiz-adv-x="756" 
d="M203 66q0 -31 -23 -54t-55 -23q-31 0 -53.5 23t-22.5 54q0 32 22.5 55t53.5 23q32 0 55 -23t23 -55zM455 66q0 -31 -23 -54t-54 -23t-54 23t-23 54q0 32 23 55t54 23t54 -23t23 -55zM707 66q0 -31 -23 -54t-54 -23t-54 23t-23 54q0 32 23 55t54 23t54 -23t23 -55z" />
    <glyph glyph-name="perthousand" unicode="&#x2030;" horiz-adv-x="994" 
d="M323 510q0 -71 -41.5 -118t-109.5 -47q-66 0 -107.5 47t-41.5 118q0 72 41.5 119.5t107.5 47.5q68 0 109.5 -47.5t41.5 -119.5zM545 667l-353 -667h-63l353 667h63zM649 153q0 -71 -41.5 -118t-107.5 -47q-67 0 -108.5 47t-41.5 118q0 72 41.5 119.5t108.5 47.5
q66 0 107.5 -47.5t41.5 -119.5zM239 510q0 44 -18.5 70t-48.5 26t-48 -26t-18 -70q0 -43 18.5 -69t47.5 -26q30 0 48.5 26t18.5 69zM566 153q0 44 -18 70t-48 26t-48.5 -26t-18.5 -70q0 -43 18.5 -68.5t48.5 -25.5t48 25.5t18 68.5zM971 153q0 -71 -41.5 -118t-108.5 -47
q-66 0 -107.5 47t-41.5 118q0 72 41.5 119.5t107.5 47.5q67 0 108.5 -47.5t41.5 -119.5zM888 153q0 44 -18.5 70t-48.5 26t-48 -26t-18 -70q0 -43 18 -68.5t48 -25.5t48.5 25.5t18.5 68.5z" />
    <glyph glyph-name="guilsinglleft" unicode="&#x2039;" horiz-adv-x="287" 
d="M257 63h-102l-125 180l125 177h102l-125 -177z" />
    <glyph glyph-name="guilsinglright" unicode="&#x203a;" horiz-adv-x="287" 
d="M257 243l-125 -180h-102l125 180l-125 177h102z" />
    <glyph glyph-name="uni203E" unicode="&#x203e;" horiz-adv-x="311" 
d="M311 563h-311v69h311v-69z" />
    <glyph glyph-name="fraction" unicode="&#x2044;" horiz-adv-x="146" 
d="M281 667l-353 -667h-63l352 667h64z" />
    <glyph glyph-name="zerosuperior" unicode="&#x2070;" horiz-adv-x="345" 
d="M325 621q0 -86 -39 -146.5t-113 -60.5q-75 0 -114 60.5t-39 146.5t39 146t114 60q74 0 113 -60t39 -146zM233 621q0 133 -60 133q-61 0 -61 -133q0 -134 61 -134q60 0 60 134z" />
    <glyph glyph-name="foursuperior" unicode="&#x2074;" horiz-adv-x="345" 
d="M327 509h-43v-88h-91v88h-172v66l144 246h119v-241h43v-71zM193 580v154l-88 -154h88z" />
    <glyph glyph-name="fivesuperior" unicode="&#x2075;" horiz-adv-x="345" 
d="M320 552q0 -61 -41.5 -99.5t-110.5 -38.5q-96 0 -144 63l53 57q35 -47 89 -47q29 0 45.5 18t16.5 45q0 29 -15.5 46t-42.5 17q-40 0 -70 -37l-64 21v224h259v-73h-169v-102q30 33 78 33q49 0 82.5 -33t33.5 -94z" />
    <glyph glyph-name="sixsuperior" unicode="&#x2076;" horiz-adv-x="345" 
d="M323 552q0 -60 -39 -99t-102 -39q-80 0 -120 57.5t-40 148.5q0 94 46.5 150.5t127.5 56.5q66 0 110 -41l-42 -63q-28 31 -67 31q-38 0 -61 -32t-23 -79v-9q33 51 91 51q50 0 84.5 -36t34.5 -97zM232 548q0 33 -17 49.5t-41 16.5q-36 0 -61 -39q6 -88 64 -88q25 0 40 18.5
t15 42.5z" />
    <glyph glyph-name="sevensuperior" unicode="&#x2077;" horiz-adv-x="319" 
d="M298 758l-130 -337h-94l132 327h-186v73h278v-63z" />
    <glyph glyph-name="eightsuperior" unicode="&#x2078;" horiz-adv-x="345" 
d="M322 524q0 -54 -42 -82t-108 -28t-108 28t-42 82q0 35 24.5 64t60.5 39q-34 9 -56 34.5t-22 60.5q0 52 42 78.5t101 26.5t101.5 -26.5t42.5 -78.5q0 -35 -22 -60.5t-56 -34.5q35 -10 59.5 -39t24.5 -64zM226 709q0 23 -14.5 35.5t-39.5 12.5q-24 0 -38.5 -12.5
t-14.5 -35.5q0 -17 11.5 -29.5t21.5 -17t20 -6.5q10 2 20.5 6.5t22 17t11.5 29.5zM232 534q0 27 -21.5 43t-38.5 18q-17 -3 -38 -19t-21 -43q0 -24 16.5 -37t42.5 -13t43 13.5t17 37.5z" />
    <glyph glyph-name="ninesuperior" unicode="&#x2079;" horiz-adv-x="345" 
d="M22 689q0 60 40 99t102 39q80 0 120 -57.5t40 -149.5q0 -93 -46.5 -149.5t-127.5 -56.5q-70 0 -109 41l41 63q27 -31 67 -31q37 0 60 31.5t23 80.5v8q-32 -51 -90 -51q-50 0 -85 35.5t-35 97.5zM114 693q0 -33 16.5 -49.5t40.5 -16.5q37 0 61 39q-2 37 -16.5 62.5
t-45.5 25.5q-26 0 -41 -18.5t-15 -42.5z" />
    <glyph glyph-name="parenleftsuperior" unicode="&#x207d;" horiz-adv-x="177" 
d="M164 378l-52 -22q-41 52 -64 122.5t-23 142.5t23 142t64 123l52 -21q-54 -112 -54 -244q0 -134 54 -243z" />
    <glyph glyph-name="parenrightsuperior" unicode="&#x207e;" horiz-adv-x="177" 
d="M154 621q0 -152 -87 -265l-52 22q55 113 55 243t-55 244l52 21q41 -53 64 -123t23 -142z" />
    <glyph glyph-name="nsuperior" unicode="&#x207f;" horiz-adv-x="361" 
d="M317 326h-87v202q0 46 -42 46q-34 0 -57 -35v-213h-87v314h87v-40q14 19 40 33.5t56 14.5q90 0 90 -91v-231z" />
    <glyph glyph-name="zeroinferior" unicode="&#x2080;" horiz-adv-x="345" 
d="M325 54q0 -86 -39 -146.5t-113 -60.5q-75 0 -114 60.5t-39 146.5t39 146t114 60q74 0 113 -60t39 -146zM233 54q0 133 -60 133q-61 0 -61 -133q0 -134 61 -134q60 0 60 134z" />
    <glyph glyph-name="oneinferior" unicode="&#x2081;" horiz-adv-x="265" 
d="M213 -146h-91v283l-62 -63l-52 54l127 126h78v-400z" />
    <glyph glyph-name="twoinferior" unicode="&#x2082;" horiz-adv-x="345" 
d="M318 -146h-281v66q118 103 153 142.5t35 72.5q0 24 -16 38t-42 14q-57 0 -90 -49l-51 56q54 66 145 66q65 0 105 -32t40 -88q0 -44 -35 -90t-121 -123h158v-73z" />
    <glyph glyph-name="threeinferior" unicode="&#x2083;" horiz-adv-x="345" 
d="M319 -35q0 -53 -40.5 -85.5t-107.5 -32.5q-100 0 -147 64l50 57q37 -48 93 -48q31 0 47 14t16 37q0 51 -72 51q-31 0 -37 -1v72q7 -1 35 -1q68 0 68 48q0 47 -60 47q-53 0 -87 -43l-49 52q51 64 143 64q66 0 104 -29t38 -80q0 -34 -23 -59.5t-56 -31.5q33 -4 59 -30
t26 -65z" />
    <glyph glyph-name="fourinferior" unicode="&#x2084;" horiz-adv-x="345" 
d="M327 -58h-43v-88h-91v88h-172v66l144 246h119v-241h43v-71zM193 13v154l-88 -154h88z" />
    <glyph glyph-name="fiveinferior" unicode="&#x2085;" horiz-adv-x="345" 
d="M320 -15q0 -61 -41.5 -99.5t-110.5 -38.5q-96 0 -144 63l53 57q35 -47 89 -47q29 0 45.5 18t16.5 45q0 29 -15.5 46t-42.5 17q-40 0 -70 -37l-64 21v224h259v-73h-169v-102q30 33 78 33q49 0 82.5 -33t33.5 -94z" />
    <glyph glyph-name="sixinferior" unicode="&#x2086;" horiz-adv-x="345" 
d="M323 -15q0 -60 -39 -99t-102 -39q-80 0 -120 57.5t-40 148.5q0 94 46.5 150.5t127.5 56.5q66 0 110 -41l-42 -63q-28 31 -67 31q-38 0 -61 -32t-23 -79v-9q33 51 91 51q50 0 84.5 -36t34.5 -97zM232 -19q0 33 -17 49.5t-41 16.5q-36 0 -61 -39q6 -88 64 -88q25 0 40 18.5
t15 42.5z" />
    <glyph glyph-name="seveninferior" unicode="&#x2087;" horiz-adv-x="319" 
d="M298 191l-130 -337h-94l132 327h-186v73h278v-63z" />
    <glyph glyph-name="eightinferior" unicode="&#x2088;" horiz-adv-x="345" 
d="M322 -43q0 -54 -42 -82t-108 -28t-108 28t-42 82q0 35 24.5 64t60.5 39q-34 9 -56 34.5t-22 60.5q0 52 42 78.5t101 26.5t101.5 -26.5t42.5 -78.5q0 -35 -22 -60.5t-56 -34.5q35 -10 59.5 -39t24.5 -64zM226 142q0 23 -14.5 35.5t-39.5 12.5q-24 0 -38.5 -12.5
t-14.5 -35.5q0 -17 11.5 -29.5t21.5 -17t20 -6.5q10 2 20.5 6.5t22 17t11.5 29.5zM232 -33q0 27 -21.5 43t-38.5 18q-17 -3 -38 -19t-21 -43q0 -24 16.5 -37t42.5 -13t43 13.5t17 37.5z" />
    <glyph glyph-name="nineinferior" unicode="&#x2089;" horiz-adv-x="345" 
d="M22 122q0 60 40 99t102 39q80 0 120 -57.5t40 -149.5q0 -93 -46.5 -149.5t-127.5 -56.5q-70 0 -109 41l41 63q27 -31 67 -31q37 0 60 31.5t23 80.5v8q-32 -51 -90 -51q-50 0 -85 35.5t-35 97.5zM114 126q0 -33 16.5 -49.5t40.5 -16.5q37 0 61 39q-2 37 -16.5 62.5
t-45.5 25.5q-26 0 -41 -18.5t-15 -42.5z" />
    <glyph glyph-name="parenleftinferior" unicode="&#x208d;" horiz-adv-x="177" 
d="M164 -189l-52 -22q-41 52 -64 122.5t-23 142.5t23 142t64 123l52 -21q-54 -112 -54 -244q0 -134 54 -243z" />
    <glyph glyph-name="parenrightinferior" unicode="&#x208e;" horiz-adv-x="177" 
d="M154 54q0 -152 -87 -265l-52 22q55 113 55 243t-55 244l52 21q41 -53 64 -123t23 -142z" />
    <glyph glyph-name="colonmonetary" unicode="&#x20a1;" horiz-adv-x="554" 
d="M315 -12h-4l-24 -88h-68l26 97q-24 5 -49 17l-30 -114h-69l40 154q-104 96 -104 279q0 150 74 245t199 99l24 91h68l-26 -96q20 -4 49 -18l31 114h68l-42 -157q37 -39 60 -93l-96 -43l-97 -364q56 17 83 93l111 -48q-69 -168 -224 -168zM230 143q21 -21 47 -30l111 416
q-20 20 -47 26zM171 333q0 -58 14 -106l87 324q-48 -19 -74.5 -77.5t-26.5 -140.5z" />
    <glyph glyph-name="frenchfranc" unicode="&#x20a3;" horiz-adv-x="484" 
d="M204 0h-134v113h-58v69h58v485h382v-118h-248v-151h241v-118h-241v-98h121v-69h-121v-113z" />
    <glyph glyph-name="lira" unicode="&#x20a4;" horiz-adv-x="487" 
d="M26 333v62h35q-16 37 -16 79q0 87 65.5 145t150.5 58q154 0 199 -126l-107 -54q-22 71 -80 71q-35 0 -58.5 -26.5t-23.5 -69.5q0 -41 17 -77h132v-62h-100q12 -28 16 -55h84v-63h-85q-14 -56 -57 -87q20 8 43 8q26 0 59.5 -14.5t54.5 -14.5q51 0 76 33l45 -106
q-39 -46 -130 -46q-43 0 -88.5 21t-69.5 21q-44 0 -100 -37l-43 92q42 23 68 57t26 71v2h-113v63h98q-5 12 -30 55h-68z" />
    <glyph glyph-name="uni20A6" unicode="&#x20a6;" horiz-adv-x="628" 
d="M559 0h-128l-123 232h-104v-232h-134v232h-58v69h58v70h-58v69h58v227h136l119 -227h99v227h135v-227h55v-69h-55v-70h55v-69h-55v-232zM204 371v-70h67l-37 70h-30zM361 371l37 -70h26v70h-63z" />
    <glyph glyph-name="peseta" unicode="&#x20a7;" horiz-adv-x="583" 
d="M574 412h-54q-10 -80 -63 -131.5t-141 -51.5h-112v-229h-134v412h-58v72h58v183h246q88 0 141 -51.5t63 -131.5h54v-72zM204 549v-65h176q-18 65 -80 65h-96zM300 347q62 0 80 65h-176v-65h96z" />
    <glyph glyph-name="rupee" unicode="&#x20a8;" horiz-adv-x="921" 
d="M713 -12q-120 0 -186 69l51 84q23 -25 60 -42t73 -17q34 0 52.5 14t18.5 37q0 22 -24.5 35.5t-60 24.5t-70.5 26t-59.5 48t-24.5 83q0 61 47 103t129 42q98 0 168 -62l-48 -81q-19 21 -51 35.5t-67 14.5q-28 0 -46 -13t-18 -33t24.5 -33t60 -24t71 -26.5t60 -50
t24.5 -84.5q0 -66 -50 -108t-134 -42zM516 0h-149l-102 241h-72v-241h-134v667h249q91 0 147 -59t56 -152q0 -79 -34 -127t-82 -64zM288 359q39 0 62.5 26t23.5 69t-23.5 69t-62.5 26h-95v-190h95z" />
    <glyph glyph-name="uni20A9" unicode="&#x20a9;" horiz-adv-x="784" 
d="M617 0h-140l-40 232h-92l-39 -232h-140l-53 232h-93v70h77l-16 69h-61v69h46l-52 227h144l38 -227h100l43 227h105l43 -227h99l39 227h144l-52 -227h45v-69h-61l-15 -69h76v-70h-92zM500 371l13 -69h50l12 69h-75zM208 371l12 -69h50l13 69h-75zM369 371l-12 -69h68
l-12 69h-44zM527 232l13 -69l11 69h-24zM232 232l12 -69l13 69h-25zM391 499l-10 -59h20z" />
    <glyph glyph-name="afii57636" unicode="&#x20aa;" horiz-adv-x="702" 
d="M446 0h-229v383h102v-288h127q52 0 76 25.5t24 78.5v351h102v-342q0 -106 -49.5 -157t-152.5 -51zM283 550q103 0 152.5 -51t49.5 -157v-176h-102v185q0 53 -23.5 78.5t-76.5 25.5h-127v-455h-102v550h229z" />
    <glyph glyph-name="dong" unicode="&#x20ab;" horiz-adv-x="512" 
d="M418 -167h-311v69h311v-69zM450 0h-120v61q-46 -73 -122 -73q-82 0 -130.5 67.5t-48.5 185.5q0 116 48.5 185t130.5 69q78 0 122 -73v107h-132v69h132v69h120v-69h52v-69h-52v-529zM246 94q24 0 48 16.5t36 40.5v181q-12 24 -36 40.5t-48 16.5q-44 0 -68.5 -41
t-24.5 -107q0 -65 24.5 -106t68.5 -41z" />
    <glyph glyph-name="Euro" unicode="&#x20ac;" horiz-adv-x="577" 
d="M334 -12q-104 0 -175.5 64.5t-95.5 174.5h-45v74h35q-1 10 -1 32q0 6 0.5 17.5t0.5 17.5h-35v73h45q24 109 96 173t175 64q152 0 223 -160l-111 -49q-16 41 -44.5 65.5t-67.5 24.5q-46 0 -79.5 -31.5t-50.5 -86.5h173v-73h-186q-1 -12 -1 -35q0 -22 1 -32h186v-74h-173
q16 -56 50 -88t80 -32q40 0 69 26.5t44 70.5l111 -48q-69 -168 -224 -168z" />
    <glyph glyph-name="afii61289" unicode="&#x2113;" horiz-adv-x="478" 
d="M177 239v-108q0 -50 36 -50q21 0 35 14l26 -79q-31 -28 -93 -28q-124 0 -124 128v377q0 81 58 132.5t151 51.5q78 0 135.5 -40t57.5 -104q0 -43 -28.5 -80.5t-88.5 -84.5zM177 359l103 80q35 27 50 46.5t15 44.5q0 26 -23.5 43t-56.5 17q-40 0 -64 -25.5t-24 -71.5v-134z
" />
    <glyph glyph-name="afii61352" unicode="&#x2116;" horiz-adv-x="963" 
d="M785 350q-70 0 -110.5 48t-40.5 117t40.5 117t110.5 48q71 0 111.5 -48t40.5 -117t-40.5 -117t-111.5 -48zM785 420q62 0 62 95q0 93 -62 93q-61 0 -61 -93q0 -95 61 -95zM548 0h-128l-227 394v-394h-134v667h136l218 -380v380h135v-667z" />
    <glyph glyph-name="published" unicode="&#x2117;" horiz-adv-x="778" 
d="M734 334q0 -142 -101 -243.5t-244 -101.5t-244 101.5t-101 243.5t101 243.5t244 101.5t244 -101.5t101 -243.5zM698 334q0 127 -91 218t-218 91t-218 -91t-91 -218q0 -128 91 -218.5t218 -90.5t218 91t91 218zM554 416q0 -52 -37 -84.5t-90 -32.5h-112v-168h-44v405h156
q52 0 89.5 -33t37.5 -87zM508 416q0 35 -23.5 57t-57.5 22h-112v-156h112q34 0 57.5 21.5t23.5 55.5z" />
    <glyph glyph-name="servicemark" unicode="&#x2120;" horiz-adv-x="425" 
d="M388 447h-28v182l-65 -182h-8l-65 182v-182h-28v220h43l54 -158l54 158h43v-220zM155 504q0 -29 -19 -46.5t-52 -17.5q-43 0 -69 29l16 23q22 -26 51 -26q20 0 31 10t11 26q0 18 -16 30.5t-36 18.5t-36 22t-16 40q0 26 19 43t48 17q41 0 63 -24l-15 -21q-18 20 -46 20
q-16 0 -26.5 -9t-10.5 -24q0 -16 16 -27t35.5 -18t35.5 -23.5t16 -42.5z" />
    <glyph glyph-name="trademark" unicode="&#x2122;" horiz-adv-x="414" 
d="M379 447h-28v182l-65 -182h-8l-65 182v-182h-28v220h43l54 -158l54 158h43v-220zM149 641h-52v-194h-28v194h-52v26h132v-26z" />
    <glyph glyph-name="Omega" unicode="&#x2126;" horiz-adv-x="617" 
d="M44 118h98q-112 89 -112 245q0 143 75 229t203 86t203.5 -86t75.5 -229q0 -156 -112 -245h98v-118h-220v118q42 19 69 78.5t27 137.5q0 101 -35 162.5t-106 61.5q-70 0 -105.5 -62t-35.5 -162q0 -77 27.5 -137t69.5 -79v-118h-220v118z" />
    <glyph glyph-name="estimated" unicode="&#x212e;" horiz-adv-x="842" 
d="M811 324h-632q-5 0 -5 -5v-190q0 -14 9 -23q98 -103 240 -103q151 0 250 115h57q-54 -63 -135 -99.5t-174 -36.5q-161 0 -275.5 103t-114.5 248t114.5 248t275.5 103t275.5 -103t114.5 -248v-9zM668 349v191q0 14 -10 24q-97 99 -235 99q-140 0 -239 -102
q-10 -10 -10 -24v-188q0 -6 5 -6h485q4 0 4 6z" />
    <glyph glyph-name="onethird" unicode="&#x2153;" horiz-adv-x="775" 
d="M213 267h-91v283l-62 -63l-52 54l127 126h78v-400zM565 667l-353 -667h-63l352 667h64zM749 111q0 -53 -40.5 -85.5t-107.5 -32.5q-100 0 -147 64l50 57q37 -48 93 -48q31 0 47 14t16 37q0 51 -72 51q-31 0 -37 -1v72q7 -1 35 -1q68 0 68 48q0 47 -60 47q-53 0 -87 -43
l-49 52q51 64 143 64q66 0 104 -29t38 -80q0 -34 -23 -59.5t-56 -31.5q33 -4 59 -30t26 -65z" />
    <glyph glyph-name="twothirds" unicode="&#x2154;" horiz-adv-x="837" 
d="M318 267h-281v66q118 103 153 142.5t35 72.5q0 24 -16 38t-42 14q-57 0 -90 -49l-51 56q54 66 145 66q65 0 105 -32t40 -88q0 -44 -35 -90t-121 -123h158v-73zM626 667l-353 -667h-63l352 667h64zM811 111q0 -53 -40.5 -85.5t-107.5 -32.5q-100 0 -147 64l50 57
q37 -48 93 -48q31 0 47 14t16 37q0 51 -72 51q-31 0 -37 -1v72q7 -1 35 -1q68 0 68 48q0 47 -60 47q-53 0 -87 -43l-49 52q51 64 143 64q66 0 104 -29t38 -80q0 -34 -23 -59.5t-56 -31.5q33 -4 59 -30t26 -65z" />
    <glyph glyph-name="oneeighth" unicode="&#x215b;" horiz-adv-x="775" 
d="M213 267h-91v283l-62 -63l-52 54l127 126h78v-400zM752 103q0 -54 -42 -82t-108 -28t-108 28t-42 82q0 35 24.5 64t60.5 39q-34 9 -56 34.5t-22 60.5q0 52 42 78.5t101 26.5t101.5 -26.5t42.5 -78.5q0 -35 -22 -60.5t-56 -34.5q35 -10 59.5 -39t24.5 -64zM656 288
q0 23 -14.5 35.5t-39.5 12.5q-24 0 -38.5 -12.5t-14.5 -35.5q0 -17 11.5 -29.5t21.5 -17t20 -6.5q10 2 20.5 6.5t22 17t11.5 29.5zM662 113q0 27 -21.5 43t-38.5 18q-17 -3 -38 -19t-21 -43q0 -24 16.5 -37t42.5 -13t43 13.5t17 37.5zM565 667l-353 -667h-63l352 667h64z
" />
    <glyph glyph-name="threeeighths" unicode="&#x215c;" horiz-adv-x="837" 
d="M814 103q0 -54 -42 -82t-108 -28t-108 28t-42 82q0 35 24.5 64t60.5 39q-34 9 -56 34.5t-22 60.5q0 52 42 78.5t101 26.5t101.5 -26.5t42.5 -78.5q0 -35 -22 -60.5t-56 -34.5q35 -10 59.5 -39t24.5 -64zM718 288q0 23 -14.5 35.5t-39.5 12.5q-24 0 -38.5 -12.5
t-14.5 -35.5q0 -17 11.5 -29.5t21.5 -17t20 -6.5q10 2 20.5 6.5t22 17t11.5 29.5zM724 113q0 27 -21.5 43t-38.5 18q-17 -3 -38 -19t-21 -43q0 -24 16.5 -37t42.5 -13t43 13.5t17 37.5zM626 667l-353 -667h-63l352 667h64zM319 378q0 -53 -40.5 -85.5t-107.5 -32.5
q-100 0 -147 64l50 57q37 -48 93 -48q31 0 47 14t16 37q0 51 -72 51q-31 0 -37 -1v72q7 -1 35 -1q68 0 68 48q0 47 -60 47q-53 0 -87 -43l-49 52q51 64 143 64q66 0 104 -29t38 -80q0 -34 -23 -59.5t-56 -31.5q33 -4 59 -30t26 -65z" />
    <glyph glyph-name="fiveeighths" unicode="&#x215d;" horiz-adv-x="831" 
d="M808 103q0 -54 -42 -82t-108 -28t-108 28t-42 82q0 35 24.5 64t60.5 39q-34 9 -56 34.5t-22 60.5q0 52 42 78.5t101 26.5t101.5 -26.5t42.5 -78.5q0 -35 -22 -60.5t-56 -34.5q35 -10 59.5 -39t24.5 -64zM712 288q0 23 -14.5 35.5t-39.5 12.5q-24 0 -38.5 -12.5
t-14.5 -35.5q0 -17 11.5 -29.5t21.5 -17t20 -6.5q10 2 20.5 6.5t22 17t11.5 29.5zM718 113q0 27 -21.5 43t-38.5 18q-17 -3 -38 -19t-21 -43q0 -24 16.5 -37t42.5 -13t43 13.5t17 37.5zM320 398q0 -61 -41.5 -99.5t-110.5 -38.5q-96 0 -144 63l53 57q35 -47 89 -47
q29 0 45.5 18t16.5 45q0 29 -15.5 46t-42.5 17q-40 0 -70 -37l-64 21v224h259v-73h-169v-102q30 33 78 33q49 0 82.5 -33t33.5 -94zM620 667l-353 -667h-63l352 667h64z" />
    <glyph glyph-name="seveneighths" unicode="&#x215e;" horiz-adv-x="767" 
d="M744 103q0 -54 -42 -82t-108 -28t-108 28t-42 82q0 35 24.5 64t60.5 39q-34 9 -56 34.5t-22 60.5q0 52 42 78.5t101 26.5t101.5 -26.5t42.5 -78.5q0 -35 -22 -60.5t-56 -34.5q35 -10 59.5 -39t24.5 -64zM648 288q0 23 -14.5 35.5t-39.5 12.5q-24 0 -38.5 -12.5
t-14.5 -35.5q0 -17 11.5 -29.5t21.5 -17t20 -6.5q10 2 20.5 6.5t22 17t11.5 29.5zM654 113q0 27 -21.5 43t-38.5 18q-17 -3 -38 -19t-21 -43q0 -24 16.5 -37t42.5 -13t43 13.5t17 37.5zM298 604l-130 -337h-94l132 327h-186v73h278v-63zM556 667l-353 -667h-63l352 667h64z
" />
    <glyph glyph-name="arrowleft" unicode="&#x2190;" horiz-adv-x="582" 
d="M538 211h-269l12 -130l-281 205l281 204l-12 -129h269v-150z" />
    <glyph glyph-name="arrowup" unicode="&#x2191;" horiz-adv-x="582" 
d="M216 17v269l-130 -12l205 281l204 -281l-129 12v-269h-150z" />
    <glyph glyph-name="arrowright" unicode="&#x2192;" horiz-adv-x="582" 
d="M584 286l-281 -205l12 130h-268v150h268l-12 129z" />
    <glyph glyph-name="arrowdown" unicode="&#x2193;" horiz-adv-x="582" 
d="M366 555v-269l130 12l-205 -281l-204 281l129 -12v269h150z" />
    <glyph glyph-name="partialdiff" unicode="&#x2202;" horiz-adv-x="495" 
d="M247 -12q-102 0 -160 69t-58 169q0 98 50.5 167.5t131.5 69.5q82 0 123 -74q-41 147 -157 236l98 58q84 -80 137.5 -191.5t53.5 -242.5q0 -117 -57 -189t-162 -72zM247 94q46 0 70.5 37.5t24.5 94.5q0 56 -24.5 93.5t-70.5 37.5t-69.5 -37.5t-23.5 -93.5
q0 -57 23.5 -94.5t69.5 -37.5z" />
    <glyph glyph-name="Delta" unicode="&#x2206;" horiz-adv-x="563" 
d="M565 0h-567l202 667h162zM392 118l-111 408l-110 -408h221z" />
    <glyph glyph-name="product" unicode="&#x220f;" horiz-adv-x="652" 
d="M553 -90h-134v639h-186v-639h-134v639h-77v118h608v-118h-77v-639z" />
    <glyph glyph-name="summation" unicode="&#x2211;" horiz-adv-x="474" 
d="M195 549l155 -252l-160 -269h247v-118h-397v120l158 267l-157 252v118h396v-118h-242z" />
    <glyph glyph-name="minus" unicode="&#x2212;" horiz-adv-x="444" 
d="M415 299h-386v75h386v-75z" />
    <glyph glyph-name="uni2215" unicode="&#x2215;" horiz-adv-x="146" 
d="M281 667l-353 -667h-63l352 667h64z" />
    <glyph glyph-name="uni2219" unicode="&#x2219;" horiz-adv-x="252" 
d="M203 244q0 -31 -23 -54t-54 -23t-54 23t-23 54q0 32 23 55t54 23t54 -23t23 -55z" />
    <glyph glyph-name="radical" unicode="&#x221a;" horiz-adv-x="574" 
d="M347 0h-81l-90 302l-112 -33l-18 73l185 52l77 -274l160 547h84z" />
    <glyph glyph-name="infinity" unicode="&#x221e;" horiz-adv-x="592" 
d="M169 160q-69 0 -104.5 52t-35.5 123q0 72 35.5 124t104.5 52q43 0 75.5 -28t51.5 -73q19 44 52 72t75 28q70 0 105 -51.5t35 -123.5t-35 -123.5t-105 -51.5q-42 0 -75 28t-52 72q-43 -100 -127 -100zM412 235q33 0 53.5 27.5t20.5 72.5q0 46 -20.5 73.5t-53.5 27.5
q-55 0 -83 -101q12 -44 33.5 -72t49.5 -28zM181 235q54 0 82 100q-28 101 -82 101q-34 0 -54.5 -27.5t-20.5 -73.5q0 -45 20.5 -72.5t54.5 -27.5z" />
    <glyph glyph-name="integral" unicode="&#x222b;" horiz-adv-x="309" 
d="M61 -100h-44v80h44q21 0 35.5 17t14.5 42v590q0 61 40.5 100t95.5 39h45v-81h-45q-21 0 -35 -16t-14 -42v-591q0 -61 -41 -99.5t-96 -38.5z" />
    <glyph glyph-name="approxequal" unicode="&#x2248;" horiz-adv-x="444" 
d="M29 202v80q43 -24 96 -24q39 0 91 21.5t102 21.5q55 0 97 -20v-80q-43 25 -97 25q-39 0 -91 -22t-102 -22q-51 0 -96 20zM29 387v80q43 -25 96 -25q39 0 91 21.5t102 21.5q54 0 97 -19v-80q-43 24 -97 24q-39 0 -91 -21.5t-102 -21.5q-51 0 -96 20z" />
    <glyph glyph-name="notequal" unicode="&#x2260;" horiz-adv-x="444" 
d="M126 93h-63l57 109h-91v75h131l60 114h-191v75h231l57 108h64l-57 -108h91v-75h-132l-59 -114h191v-75h-231z" />
    <glyph glyph-name="lessequal" unicode="&#x2264;" horiz-adv-x="444" 
d="M415 133l-386 168v87l386 169v-90l-299 -123l299 -122v-89zM415 13h-386v75h386v-75z" />
    <glyph glyph-name="greaterequal" unicode="&#x2265;" horiz-adv-x="444" 
d="M414 301l-385 -168v89l298 122l-298 123v90l385 -169v-87zM414 13h-385v75h385v-75z" />
    <glyph glyph-name="triangleright" unicode="&#x22b2;" horiz-adv-x="587" 
d="M589 286l-535 -309v618z" />
    <glyph glyph-name="triangleleft" unicode="&#x22b3;" horiz-adv-x="587" 
d="M535 595v-618l-535 309z" />
    <glyph glyph-name="dotmath" unicode="&#x22c5;" horiz-adv-x="252" 
d="M203 244q0 -31 -23 -54t-54 -23t-54 23t-23 54q0 32 23 55t54 23t54 -23t23 -55z" />
    <glyph glyph-name="uni2318" unicode="&#x2318;" horiz-adv-x="667" 
d="M220 154v67h-67q-28 0 -47 -19.5t-19 -47.5q0 -29 19 -48.5t47 -19.5t47.5 20t19.5 48zM220 446v68q0 28 -19 47.5t-47 19.5t-47.5 -19.5t-19.5 -47.5t19.5 -48t47.5 -20h66zM265 265h137v137h-137v-137zM580 154q0 28 -19 47.5t-47 19.5h-67v-67q0 -28 19.5 -48
t47.5 -20t47 19.5t19 48.5zM580 514q0 28 -19 47.5t-47 19.5t-47.5 -19.5t-19.5 -47.5v-68h67q28 0 47 20t19 48zM625 154q0 -46 -32.5 -79t-78.5 -33t-79 33t-33 79v67h-137v-67q0 -46 -33 -79t-79 -33t-78.5 33t-32.5 79t32.5 78.5t78.5 32.5h67v137h-66q-46 0 -79 33
t-33 79t33 78.5t79 32.5t78.5 -32.5t32.5 -78.5v-68h137v68q0 46 33 78.5t79 32.5t78.5 -32.5t32.5 -78.5t-32.5 -79t-78.5 -33h-67v-137h67q46 0 78.5 -32.5t32.5 -78.5z" />
    <glyph glyph-name="blacksquare" unicode="&#x25a0;" horiz-adv-x="661" 
d="M618 0h-571v572h571v-572z" />
    <glyph glyph-name="triagup" unicode="&#x25b2;" horiz-adv-x="616" 
d="M617 29l-619 1l309 535z" />
    <glyph glyph-name="triagdn" unicode="&#x25bc;" horiz-adv-x="616" 
d="M617 510l-310 -535l-309 535h619z" />
    <glyph glyph-name="lozenge" unicode="&#x25ca;" horiz-adv-x="375" 
d="M198 0h-21l-158 334l158 333h21l158 -333zM188 41l132 293l-133 292l-132 -292z" />
    <glyph glyph-name="circlesolid" unicode="&#x25cf;" horiz-adv-x="695" 
d="M644 285q0 -123 -87 -210t-210 -87t-210 87t-87 210t87 210t210 87t210 -87t87 -210z" />
    <glyph glyph-name="blackstar" unicode="&#x2605;" horiz-adv-x="759" 
d="M759 421l-235 -171l90 -275l-235 170l-234 -170l89 275l-234 171h290l89 276l90 -276h290z" />
    <glyph glyph-name="ballotbox" unicode="&#x2610;" horiz-adv-x="661" 
d="M616 0h-571v572h571v-572zM534 75v422h-407v-422h407z" />
    <glyph glyph-name="boxchecked" unicode="&#x2611;" horiz-adv-x="661" 
d="M616 0h-571v572h489l90 166l65 -40l-73 -135v-563zM534 75v337l-174 -321l-202 246l59 55l132 -161l144 266h-366v-422h407z" />
    <glyph glyph-name="diamond" unicode="&#x2666;" horiz-adv-x="501" 
d="M501 285l-251 -250l-250 250l250 251z" />
    <glyph glyph-name="checkmark" unicode="&#x2713;" horiz-adv-x="531" 
d="M531 698l-329 -607l-202 246l59 55l132 -161l275 507z" />
    <glyph glyph-name="perthousand.onum" unicode="&#xf628;" horiz-adv-x="810" 
d="M264 424q0 -59 -34 -98.5t-88 -39.5t-88 39.5t-34 98.5t34 98.5t88 39.5t88 -39.5t34 -98.5zM526 127q0 -59 -34 -98t-88 -39q-55 0 -88.5 39t-33.5 98q0 60 33.5 99.5t88.5 39.5q54 0 88 -40t34 -99zM464 550l-316 -550h-60l315 550h61zM192 424q0 33 -14 54t-36 21
t-36 -21t-14 -54t14 -53.5t36 -20.5q23 0 36.5 20t13.5 54zM454 127q0 33 -14 54t-36 21q-23 0 -37 -20.5t-14 -54.5q0 -33 14 -53.5t37 -20.5q22 0 36 20.5t14 53.5zM790 127q0 -59 -33.5 -98t-88.5 -39q-54 0 -88 39.5t-34 97.5q0 60 33.5 99.5t88.5 39.5t88.5 -39.5
t33.5 -99.5zM718 127q0 34 -14 54.5t-36 20.5t-36 -20.5t-14 -54.5q0 -33 14 -53.5t36 -20.5t36 20.5t14 53.5z" />
    <glyph glyph-name="uniF637" unicode="&#xf637;" horiz-adv-x="360" 
d="M317 326h-87v203q0 45 -43 45q-34 0 -57 -36v-212h-86v434h86v-160q14 19 40 33.5t57 14.5q90 0 90 -90v-232z" />
    <glyph glyph-name="zero.tzero" unicode="&#xf638;" horiz-adv-x="532" 
d="M266 -12q-72 0 -127 45l-19 -33h-86l53 94q-57 95 -57 239q0 90 23.5 165.5t78.5 127t134 51.5q72 0 126 -44l20 34h86l-54 -95q58 -94 58 -239q0 -67 -14 -126.5t-41 -109.5t-74 -79.5t-107 -29.5zM266 107q100 0 100 226q0 45 -5 92l-160 -282q23 -36 65 -36zM167 333
q0 -54 4 -90l159 280q-24 35 -64 35q-99 0 -99 -225z" />
    <glyph glyph-name="zero.tnum" unicode="&#xf639;" horiz-adv-x="532" 
d="M265 -12q-79 0 -134 52t-78.5 127.5t-23.5 165.5t23.5 165.5t78.5 127t134 51.5q60 0 106.5 -29t74 -78.5t41.5 -109.5t14 -127t-14 -126.5t-41 -109.5t-74 -79.5t-107 -29.5zM265 107q100 0 100 226q0 225 -100 225q-99 0 -99 -225q0 -226 99 -226z" />
    <glyph glyph-name="two.tnum" unicode="&#xf63a;" horiz-adv-x="532" 
d="M490 0h-434v108q192 187 243.5 249t51.5 117q0 38 -25.5 61t-63.5 23q-86 0 -142 -75l-80 84q83 110 224 110q98 0 160.5 -55t62.5 -147q0 -72 -50.5 -146.5t-182.5 -210.5h236v-118z" />
    <glyph glyph-name="three.tnum" unicode="&#xf63b;" horiz-adv-x="532" 
d="M262 -12q-76 0 -136 30t-93 78l80 84q26 -34 64 -53.5t79 -19.5q51 0 76.5 24t25.5 65q0 84 -108 84q-52 0 -62 -2v121q10 -1 59 -1q47 0 74.5 19.5t27.5 57.5q0 41 -26.5 62t-71.5 21q-80 0 -133 -67l-76 78q77 108 220 108q101 0 160 -47t59 -134q0 -56 -36.5 -98.5
t-89.5 -53.5q55 -8 95.5 -52t40.5 -108q0 -88 -62.5 -142t-166.5 -54z" />
    <glyph glyph-name="four.tnum" unicode="&#xf63c;" horiz-adv-x="532" 
d="M434 0h-134v142h-272v112l234 413h172v-407h67v-118h-67v-142zM300 260v271l-151 -271h151z" />
    <glyph glyph-name="five.tnum" unicode="&#xf63d;" horiz-adv-x="532" 
d="M262 -12q-146 0 -224 105l81 86q55 -72 139 -72q46 0 73.5 30.5t27.5 74.5q0 50 -25 77.5t-70 27.5q-66 0 -110 -55l-97 26v379h400v-118h-266v-171q45 55 122 55q78 0 130 -58.5t52 -158.5q0 -101 -63.5 -164.5t-169.5 -63.5z" />
    <glyph glyph-name="six.tnum" unicode="&#xf63e;" horiz-adv-x="532" 
d="M283 -12q-85 0 -142 48.5t-80.5 123.5t-23.5 172q0 154 70.5 249.5t196.5 95.5q107 0 171 -72l-65 -100q-39 53 -104 53q-59 0 -96 -58.5t-37 -140.5v-12q20 36 58.5 60.5t83.5 24.5q79 0 133 -57.5t54 -159.5q0 -98 -61 -162.5t-158 -64.5zM275 107q43 0 67 31t24 72
q0 54 -27 80.5t-66 26.5q-59 0 -100 -68q5 -58 28.5 -100t73.5 -42z" />
    <glyph glyph-name="seven.tnum" unicode="&#xf63f;" horiz-adv-x="532" 
d="M273 0h-145l200 549h-276v118h428v-93z" />
    </font>
</defs>
</svg>
