<?xml version="1.0" standalone="no"?>
<!DOCTYPE svg PUBLIC "-//W3C//DTD SVG 1.1//EN" "http://www.w3.org/Graphics/SVG/1.1/DTD/svg11.dtd" >
<svg xmlns="http://www.w3.org/2000/svg" xmlns:xlink="http://www.w3.org/1999/xlink" version="1.1">
<metadata>
Created by FontForge 20170731 at Tue Nov 30 17:34:09 2010
 By ,,,
Copyright (c) Mark Simonson, 2005. All rights reserved.
</metadata>
<defs>
<font id="ProximaNovaCond-BoldIt" horiz-adv-x="479" >
  <font-face 
    font-family="Proxima Nova Cn Rg"
    font-weight="700"
    font-style="italic"
    font-stretch="normal"
    units-per-em="1000"
    panose-1="2 0 5 6 3 0 0 2 0 4"
    ascent="790"
    descent="-210"
    x-height="483"
    cap-height="667"
    bbox="-189 -280 993 886"
    underline-thickness="20"
    underline-position="-173"
    unicode-range="U+000D-FB04"
  />
<missing-glyph horiz-adv-x="469" 
d="M430 -90h-351v842h351v-842zM398 -60v782h-288v-782h288z" />
    <glyph glyph-name="f_f_j" unicode="ffj" horiz-adv-x="805" 
d="M431 0h-121l84 378h-62l23 105h62l8 38q36 156 163 156q53 0 89 -20l-40 -89q-13 10 -33 10q-46 0 -59 -57l-8 -38h80l-24 -105h-79zM523 -196q-71 0 -104 34l48 87q15 -20 43 -20q46 0 60 67l114 511h120l-114 -511q-18 -84 -56.5 -126t-110.5 -42zM763 537
q-28 0 -46.5 18t-18.5 44q0 37 25.5 60t56.5 23q27 0 46 -18.5t19 -43.5q0 -37 -25.5 -60t-56.5 -23zM143 0h-120l83 379h-62l23 104h62l8 38q34 156 166 156q74 0 110 -38l-54 -80q-18 19 -44 19q-45 0 -58 -57l-8 -38h80l-24 -104h-79z" />
    <glyph glyph-name="f_j" unicode="fj" horiz-adv-x="517" 
d="M143 0h-121l84 378h-62l23 105h62l8 38q36 156 163 156q53 0 89 -20l-40 -89q-13 10 -33 10q-46 0 -59 -57l-8 -38h80l-24 -105h-79zM234 -196q-71 0 -104 34l48 87q15 -20 43 -20q46 0 60 67l114 511h120l-114 -511q-18 -84 -56.5 -126t-110.5 -42zM474 537
q-28 0 -46.5 18t-18.5 44q0 37 25.5 60t56.5 23q27 0 46 -18.5t19 -43.5q0 -37 -25.5 -60t-56.5 -23z" />
    <glyph glyph-name="f_f" unicode="ff" horiz-adv-x="577" 
d="M143 0h-120l83 379h-62l23 104h62l8 38q34 156 166 156q74 0 110 -38l-54 -80q-18 19 -44 19q-45 0 -58 -57l-8 -38h80l-24 -104h-79zM431 0h-120l83 379h-62l23 104h62l8 38q34 156 166 156q74 0 110 -38l-54 -80q-18 19 -44 19q-45 0 -58 -57l-8 -38h80l-24 -104h-79z
" />
    <glyph glyph-name="fi" unicode="fi" horiz-adv-x="517" 
d="M143 0h-121l84 378h-62l23 105h62l8 38q36 156 163 156q53 0 89 -20l-40 -89q-13 10 -33 10q-46 0 -59 -57l-8 -38h80l-24 -105h-79zM474 537q-28 0 -46.5 18t-18.5 44q0 37 25.5 60t56.5 23q27 0 46 -18.5t19 -43.5q0 -37 -25.5 -60t-56.5 -23zM408 0h-120l107 483h120z
" />
    <glyph glyph-name="fl" unicode="fl" horiz-adv-x="517" 
d="M143 0h-121l84 378h-62l23 105h62l8 38q36 156 163 156q53 0 89 -20l-40 -89q-13 10 -33 10q-46 0 -59 -57l-8 -38h80l-24 -105h-79zM408 0h-120l147 667h120z" />
    <glyph glyph-name="f_f_i" unicode="ffi" horiz-adv-x="805" 
d="M431 0h-121l84 378h-62l23 105h62l8 38q36 156 163 156q53 0 89 -20l-40 -89q-13 10 -33 10q-46 0 -59 -57l-8 -38h80l-24 -105h-79zM763 537q-28 0 -46.5 18t-18.5 44q0 37 25.5 60t56.5 23q27 0 46 -18.5t19 -43.5q0 -37 -25.5 -60t-56.5 -23zM697 0h-120l107 483h120z
M143 0h-120l83 379h-62l23 104h62l8 38q34 156 166 156q74 0 110 -38l-54 -80q-18 19 -44 19q-45 0 -58 -57l-8 -38h80l-24 -104h-79z" />
    <glyph glyph-name="f_f_l" unicode="ffl" horiz-adv-x="805" 
d="M431 0h-121l84 378h-62l23 105h62l8 38q36 156 163 156q53 0 89 -20l-40 -89q-13 10 -33 10q-46 0 -59 -57l-8 -38h80l-24 -105h-79zM697 0h-120l147 667h120zM143 0h-120l83 379h-62l23 104h62l8 38q34 156 166 156q74 0 110 -38l-54 -80q-18 19 -44 19q-45 0 -58 -57
l-8 -38h80l-24 -104h-79z" />
    <glyph glyph-name="f_b" unicode="fb" horiz-adv-x="793" 
d="M143 0h-121l84 378h-62l23 105h62l8 38q36 156 163 156q53 0 89 -20l-40 -89q-13 10 -33 10q-46 0 -59 -57l-8 -38h80l-24 -105h-79zM547 -12q-91 0 -125 75l-14 -63h-119l146 667h120l-53 -243q52 71 124 71q68 0 106.5 -46t38.5 -131q0 -72 -24.5 -145.5t-77.5 -129
t-122 -55.5zM523 94q53 0 88 68t35 135q0 43 -21 67.5t-56 24.5q-50 0 -88 -58l-40 -180q10 -25 32 -41t50 -16z" />
    <glyph glyph-name="f_h" unicode="fh" horiz-adv-x="788" 
d="M143 0h-121l84 378h-62l23 105h62l8 38q36 156 163 156q53 0 89 -20l-40 -89q-13 10 -33 10q-46 0 -59 -57l-8 -38h80l-24 -105h-79zM680 0h-120l69 317q4 10 4 25q0 47 -56 47q-47 0 -97 -61l-71 -328h-121l147 667h121l-55 -246q66 74 142 74q55 0 87.5 -28t32.5 -74
q0 -15 -4 -35z" />
    <glyph glyph-name="f_k" unicode="fk" horiz-adv-x="758" 
d="M143 0h-121l84 378h-62l23 105h62l8 38q36 156 163 156q53 0 89 -20l-40 -89q-13 10 -33 10q-46 0 -59 -57l-8 -38h80l-24 -105h-79zM700 0h-137l-60 192l-69 -74l-26 -118h-120l147 667h120l-87 -396l190 212h144l-201 -217z" />
    <glyph glyph-name=".notdef" horiz-adv-x="469" 
d="M430 -90h-351v842h351v-842zM398 -60v782h-288v-782h288z" />
    <glyph glyph-name=".null" horiz-adv-x="0" 
 />
    <glyph glyph-name=".null" horiz-adv-x="0" 
 />
    <glyph glyph-name="nonmarkingreturn" horiz-adv-x="333" 
 />
    <glyph glyph-name="CR" unicode="&#xd;" horiz-adv-x="0" 
 />
    <glyph glyph-name="space" unicode=" " horiz-adv-x="210" 
 />
    <glyph glyph-name="exclam" unicode="!" horiz-adv-x="252" 
d="M172 213h-106l80 454h146zM79 -11q-29 0 -49.5 20.5t-20.5 49.5q0 35 25 60t60 25q29 0 49.5 -21.5t20.5 -50.5q0 -34 -25 -58.5t-60 -24.5z" />
    <glyph glyph-name="quotedbl" unicode="&#x22;" horiz-adv-x="397" 
d="M166 381h-53q10 203 11 219q1 33 22.5 55t53.5 22q24 0 41 -17t17 -43q0 -8 -7 -29zM344 381h-53q10 203 10 219q1 33 22.5 55t53.5 22q24 0 41 -17t17 -43q0 -8 -7 -29z" />
    <glyph glyph-name="numbersign" unicode="#" horiz-adv-x="536" 
d="M248 0h-90l87 171h-79l-85 -171h-90l87 171h-78l38 77h79l85 170h-79l37 76h81l86 173h90l-87 -173h79l86 173h89l-87 -173h79l-37 -76h-80l-87 -170h83l-38 -77h-84zM283 248l86 170h-78l-85 -170h77z" />
    <glyph glyph-name="dollar" unicode="$" horiz-adv-x="501" 
d="M136 -100l21 96q-110 20 -164 92l81 99q36 -54 110 -74l38 173q-30 18 -49 31.5t-41 35t-33 49t-11 59.5q0 86 62 149.5t159 67.5l20 90h90l-22 -99q84 -21 134 -78l-78 -96q-32 37 -83 55l-35 -160q39 -24 63.5 -43t46.5 -55t22 -78q0 -91 -61 -156t-161 -69l-19 -89
h-90zM326 190q0 23 -26 46l-27 -124q53 19 53 78zM230 486q0 -23 26 -46l25 115q-23 -7 -37 -26.5t-14 -42.5z" />
    <glyph glyph-name="percent" unicode="%" horiz-adv-x="672" 
d="M138 0h-63l500 667h63zM463 -12q-60 0 -98.5 37t-38.5 95q0 85 51 142.5t119 57.5q60 0 98.5 -37t38.5 -95q0 -85 -51 -142.5t-119 -57.5zM467 62q32 0 57 34.5t25 84.5q0 30 -15.5 47t-41.5 17q-32 0 -57 -34t-25 -84q0 -30 15.5 -47.5t41.5 -17.5zM215 345
q-60 0 -98.5 37t-38.5 95q0 85 51 142.5t119 57.5q60 0 98.5 -36.5t38.5 -94.5q0 -85 -51 -143t-119 -58zM219 419q32 0 57 34.5t25 84.5q0 30 -15.5 47t-41.5 17q-32 0 -57 -34t-25 -84q0 -30 15.5 -47.5t41.5 -17.5z" />
    <glyph glyph-name="ampersand" unicode="&#x26;" horiz-adv-x="547" 
d="M477 0h-132l-20 35q-69 -47 -143 -47q-79 0 -128 41t-49 119q0 87 45.5 139t125.5 92q-14 54 -14 101q0 82 54 139.5t129 57.5q62 0 103 -33.5t41 -95.5q0 -40 -14 -71t-45.5 -56t-54.5 -38.5t-69 -35.5q10 -27 28 -67q16 -40 33 -75q39 52 73 120l86 -52
q-55 -95 -113 -160q34 -62 64 -113zM206 83q35 0 76 31q-30 57 -44 93q-24 56 -34 83q-72 -51 -72 -126q0 -37 21 -59t53 -22zM276 478q0 -22 5 -50q50 25 76 50.5t26 62.5q0 49 -41 49q-25 0 -45.5 -33t-20.5 -79z" />
    <glyph glyph-name="quotesingle" unicode="'" horiz-adv-x="222" 
d="M166 381h-53q10 203 11 219q1 33 22.5 55t53.5 22q24 0 41 -17t17 -43q0 -8 -7 -29z" />
    <glyph glyph-name="parenleft" unicode="(" horiz-adv-x="277" 
d="M171 -158l-90 -41q-58 111 -58 271q0 169 66.5 326.5t185.5 286.5l70 -56q-92 -132 -144.5 -289.5t-52.5 -314.5q0 -87 23 -183z" />
    <glyph glyph-name="parenright" unicode=")" horiz-adv-x="278" 
d="M106 644l90 41q58 -116 58 -271q0 -169 -66.5 -326.5t-186.5 -286.5l-70 56q92 131 145 289t53 314q0 88 -23 184z" />
    <glyph glyph-name="asterisk" unicode="*" horiz-adv-x="336" 
d="M226 369h-62l30 114l-106 -48l-18 55l109 39l-86 60l41 48l79 -68l20 108h61l-31 -114l106 49l18 -55l-107 -40l85 -59l-42 -48l-79 68z" />
    <glyph glyph-name="plus" unicode="+" horiz-adv-x="444" 
d="M427 300h-152l-39 -175h-82l39 175h-152l17 75h151l37 167h83l-37 -167h151z" />
    <glyph glyph-name="comma" unicode="," horiz-adv-x="252" 
d="M168 65q0 -55 -41 -109.5t-102 -85.5l-43 46q30 13 57.5 36t38.5 48q-2 -1 -10 -1q-25 0 -42 16.5t-17 45.5q0 33 26 58t59 25q31 0 52.5 -21t21.5 -58z" />
    <glyph glyph-name="hyphen" unicode="-" horiz-adv-x="270" 
d="M229 191h-211l22 102h211z" />
    <glyph glyph-name="period" unicode="." horiz-adv-x="252" 
d="M79 -11q-29 0 -49.5 20.5t-20.5 49.5q0 35 25 60t60 25q29 0 49.5 -21.5t20.5 -50.5q0 -34 -25 -58.5t-60 -24.5z" />
    <glyph glyph-name="slash" unicode="/" horiz-adv-x="278" 
d="M29 -20h-89l348 707h90z" />
    <glyph glyph-name="zero" unicode="0" horiz-adv-x="537" 
d="M237 -12q-91 0 -145.5 62.5t-54.5 177.5q0 109 37.5 211.5t108.5 170t156 67.5q91 0 145 -62t54 -177q0 -109 -37.5 -211.5t-108 -170.5t-155.5 -68zM249 107q45 0 82.5 63.5t55 141.5t17.5 140q0 106 -78 106q-45 0 -82.5 -63.5t-55 -141t-17.5 -139.5q0 -107 78 -107z
" />
    <glyph glyph-name="one" unicode="1" horiz-adv-x="380" 
d="M267 0h-135l109 494l-124 -105l-59 81l239 197h117z" />
    <glyph glyph-name="two" unicode="2" horiz-adv-x="521" 
d="M424 0h-434l29 129q222 169 265 206q98 84 106 140q1 6 1 13q0 32 -25.5 51.5t-66.5 19.5q-78 0 -138 -62l-62 92q88 88 212 88q95 0 158 -47t63 -130q0 -37 -14.5 -73.5t-37.5 -69t-66.5 -73.5t-87 -77t-112.5 -89h236z" />
    <glyph glyph-name="three" unicode="3" horiz-adv-x="513" 
d="M234 -12q-83 0 -151 36t-96 101l98 74q21 -44 61.5 -68t86.5 -24q49 0 76.5 31.5t27.5 75.5q0 66 -96 66q-48 0 -59 -2l27 121q10 -1 73 -1q49 0 78.5 26t29.5 67q0 32 -26.5 49.5t-74.5 17.5q-75 0 -130 -55l-59 86q86 88 206 88q100 0 161 -42.5t61 -118.5
q0 -66 -49.5 -117t-114.5 -61q49 -13 76.5 -49.5t27.5 -87.5q0 -89 -68 -151t-166 -62z" />
    <glyph glyph-name="four" unicode="4" horiz-adv-x="514" 
d="M372 0h-134l30 142h-271l27 123l316 402h179l-91 -407h68l-25 -118h-68zM294 260l60 269l-210 -269h150z" />
    <glyph glyph-name="five" unicode="5" horiz-adv-x="527" 
d="M242 -12q-168 0 -236 131l101 76q38 -88 136 -88q48 0 80.5 39.5t32.5 92.5q0 37 -25 58t-68 21q-54 0 -103 -44l-89 35l79 358h400l-26 -118h-266l-36 -166q46 44 115 44q70 0 114.5 -45.5t44.5 -125.5q0 -110 -71.5 -189t-182.5 -79z" />
    <glyph glyph-name="six" unicode="6" horiz-adv-x="525" 
d="M249 -12q-103 0 -159 61.5t-56 171.5q0 73 21 150.5t59.5 147t103.5 114t143 44.5q125 0 187 -91l-86 -91q-32 63 -109 63q-56 0 -98.5 -52.5t-63.5 -125.5q-5 -14 -7 -26q25 33 64.5 54t82.5 21q72 0 119.5 -45t47.5 -120q0 -108 -71.5 -192t-177.5 -84zM251 107
q46 0 76.5 44t30.5 92q0 35 -25 56t-65 21q-55 0 -100 -61q-4 -26 -4 -52q0 -47 23.5 -73.5t63.5 -26.5z" />
    <glyph glyph-name="seven" unicode="7" horiz-adv-x="468" 
d="M190 0h-151l320 549h-271l26 118h428l-21 -93z" />
    <glyph glyph-name="eight" unicode="8" horiz-adv-x="523" 
d="M239 -12q-104 0 -167 40.5t-63 123.5q0 66 45 122.5t127 81.5q-37 18 -62 53.5t-25 78.5q0 86 70 137.5t161 51.5q90 0 155 -40t65 -119q0 -69 -45 -119t-116 -66q44 -24 69.5 -63t25.5 -84q0 -88 -69.5 -143t-170.5 -55zM294 392q47 7 78.5 33.5t31.5 69.5q0 29 -24 47
t-61 18q-39 0 -66 -26t-27 -65q0 -25 21 -46t47 -31zM241 105q42 0 73 28.5t31 70.5q0 32 -22.5 55t-51.5 31q-50 -6 -85.5 -37t-35.5 -77q0 -34 25 -52.5t66 -18.5z" />
    <glyph glyph-name="nine" unicode="9" horiz-adv-x="525" 
d="M314 678q103 0 159.5 -61.5t56.5 -171.5q0 -57 -12.5 -118.5t-39.5 -122t-64.5 -108.5t-92.5 -77.5t-119 -29.5q-124 0 -186 90l85 92q31 -63 109 -63q57 0 99 52t64 126q5 16 7 26q-26 -33 -65.5 -54t-82.5 -21q-72 0 -119.5 45t-47.5 120q0 108 72 192t177 84zM312 559
q-46 0 -76.5 -44t-30.5 -92q0 -34 25 -56t65 -22q55 0 101 62q4 24 4 52q0 46 -23.5 73t-64.5 27z" />
    <glyph glyph-name="colon" unicode=":" horiz-adv-x="252" 
d="M80 -11q-30 0 -50.5 20.5t-20.5 49.5q0 35 25 60t60 25q29 0 49.5 -21.5t20.5 -50.5q0 -34 -25 -58.5t-59 -24.5zM156 335q-29 0 -50 21t-21 50q0 34 25 59t60 25q29 0 49.5 -21t20.5 -50q0 -35 -25 -59.5t-59 -24.5z" />
    <glyph glyph-name="semicolon" unicode=";" horiz-adv-x="252" 
d="M168 65q0 -55 -41 -109.5t-102 -85.5l-43 46q30 13 57.5 36t38.5 48q-2 -1 -10 -1q-25 0 -42 16.5t-17 45.5q0 33 26 58t59 25q31 0 52.5 -21t21.5 -58zM156 335q-29 0 -49.5 21t-20.5 50q0 34 25 59t59 25q29 0 50 -21t21 -50q0 -34 -25 -59t-60 -25z" />
    <glyph glyph-name="less" unicode="&#x3c;" horiz-adv-x="444" 
d="M387 123l-348 169l19 86l423 169l-21 -93l-325 -124l271 -122z" />
    <glyph glyph-name="equal" unicode="=" horiz-adv-x="444" 
d="M447 391h-386l17 75h385zM405 202h-386l17 75h386z" />
    <glyph glyph-name="greater" unicode="&#x3e;" horiz-adv-x="444" 
d="M424 292l-423 -169l22 93l325 122l-271 123l19 86l348 -169z" />
    <glyph glyph-name="question" unicode="?" horiz-adv-x="391" 
d="M248 235l-109 -33q-14 28 -14 65q0 40 17.5 71.5t42.5 52t50.5 38t43 38t17.5 43.5t-17 37.5t-48 14.5q-49 0 -88 -36l-48 91q73 60 166 60q75 0 125.5 -37.5t50.5 -97.5q0 -44 -20.5 -80t-49.5 -59t-58 -43t-49.5 -43.5t-20.5 -49.5q0 -20 9 -32zM149 -11
q-29 0 -49.5 20.5t-20.5 49.5q0 35 24.5 60t59.5 25q29 0 50 -21.5t21 -50.5q0 -34 -25 -58.5t-60 -24.5z" />
    <glyph glyph-name="at" unicode="@" horiz-adv-x="709" 
d="M331 -70q-124 0 -200 83.5t-76 215.5q0 162 112 285.5t261 123.5q118 0 192 -77t74 -196q0 -122 -56.5 -201t-126.5 -79q-38 0 -62 19.5t-29 50.5l-2 8q-52 -78 -128 -78q-56 0 -90.5 38.5t-34.5 109.5q0 103 61.5 184t146.5 81q73 0 99 -66l11 52h106l-52 -249
q-3 -15 -3 -26q0 -42 33 -42q29 0 57 54t28 143q0 108 -61.5 172t-165.5 64q-133 0 -232 -112.5t-99 -256.5q0 -115 66 -189.5t176 -74.5q85 0 165 56l20 -30q-90 -63 -190 -63zM337 170q50 0 92 64l27 127q-17 52 -61 52q-51 0 -85 -53t-34 -114q0 -35 16 -55.5t45 -20.5z
" />
    <glyph glyph-name="A" unicode="A" horiz-adv-x="554" 
d="M502 0h-140l-5 118h-206l-56 -118h-151l345 667h162zM355 236l-11 290l-140 -290h151z" />
    <glyph glyph-name="B" unicode="B" horiz-adv-x="558" 
d="M299 0h-294l147 667h245q79 0 124 -43.5t45 -108.5q0 -67 -41.5 -121t-102.5 -61q41 -11 64 -47t23 -80q0 -82 -53.5 -144t-156.5 -62zM227 397h113q41 0 62.5 28.5t21.5 64.5q0 27 -18 43.5t-47 16.5h-98zM281 117q42 0 67.5 29t25.5 71q0 30 -17.5 47t-49.5 17h-106
l-36 -164h116z" />
    <glyph glyph-name="C" unicode="C" horiz-adv-x="558" 
d="M287 -12q-111 0 -180.5 69t-69.5 186q0 109 40 207.5t118.5 163t177.5 64.5q97 0 153.5 -54t75.5 -136l-127 -34q-12 49 -40 77t-70 28q-52 0 -97 -48.5t-69 -120.5t-24 -144q0 -64 32 -101.5t88 -37.5q68 0 120 79l105 -58q-88 -140 -233 -140z" />
    <glyph glyph-name="D" unicode="D" horiz-adv-x="597" 
d="M220 0h-215l147 667h210q93 0 161.5 -69t68.5 -183q0 -55 -11.5 -110t-39.5 -111t-69 -98.5t-106.5 -69t-145.5 -26.5zM165 118h78q66 0 115.5 47.5t72 112.5t22.5 132q0 64 -32.5 101.5t-83.5 37.5h-77z" />
    <glyph glyph-name="E" unicode="E" horiz-adv-x="481" 
d="M387 0h-382l147 667h382l-26 -118h-248l-33 -151h241l-27 -118h-240l-36 -162h248z" />
    <glyph glyph-name="F" unicode="F" horiz-adv-x="473" 
d="M139 0h-134l147 667h382l-26 -118h-248l-33 -151h241l-27 -118h-240z" />
    <glyph glyph-name="G" unicode="G" horiz-adv-x="586" 
d="M287 -12q-112 0 -181 69t-69 186q0 111 40 209t119.5 162t182.5 64q90 0 144 -48.5t71 -121.5l-118 -41q-10 40 -39.5 66t-71.5 26q-51 0 -96 -47.5t-69.5 -119t-24.5 -146.5q0 -65 31.5 -102t88.5 -37q53 0 100 47l21 94h-126l27 118h252l-58 -262q-88 -116 -224 -116z
" />
    <glyph glyph-name="H" unicode="H" horiz-adv-x="608" 
d="M495 0h-135l63 284h-221l-63 -284h-134l147 667h134l-58 -265h221l58 265h135z" />
    <glyph glyph-name="I" unicode="I" horiz-adv-x="252" 
d="M139 0h-134l147 667h134z" />
    <glyph glyph-name="J" unicode="J" horiz-adv-x="417" 
d="M126 -12q-106 0 -159 59l64 103q29 -43 84 -43q79 0 99 90l104 470h134l-105 -474q-23 -106 -76.5 -155.5t-144.5 -49.5z" />
    <glyph glyph-name="K" unicode="K" horiz-adv-x="553" 
d="M498 0h-150l-102 265l-66 -78l-41 -187h-134l147 667h134l-63 -289l243 289h164l-282 -314z" />
    <glyph glyph-name="L" unicode="L" horiz-adv-x="444" 
d="M363 0h-358l147 667h134l-121 -549h224z" />
    <glyph glyph-name="M" unicode="M" horiz-adv-x="735" 
d="M623 0h-134l98 444l-247 -444h-53l-50 444l-98 -444h-134l147 667h176l43 -386l216 386h183z" />
    <glyph glyph-name="N" unicode="N" horiz-adv-x="606" 
d="M494 0h-128l-137 410l-90 -410h-134l147 667h136l131 -395l87 395h135z" />
    <glyph glyph-name="O" unicode="O" horiz-adv-x="622" 
d="M287 -12q-113 0 -181.5 71t-68.5 184q0 78 23 155t65 139.5t107 101.5t141 39q113 0 181.5 -71t68.5 -185q0 -78 -23 -154.5t-65 -139t-107 -101.5t-141 -39zM295 107q53 0 97.5 48t68 119.5t23.5 144.5q0 64 -33 102t-87 38q-53 0 -97.5 -48.5t-68 -120t-23.5 -144.5
q0 -64 32.5 -101.5t87.5 -37.5z" />
    <glyph glyph-name="P" unicode="P" horiz-adv-x="533" 
d="M139 0h-134l147 667h230q80 0 129 -50.5t49 -126.5q0 -45 -14.5 -87t-44 -79.5t-81 -60t-118.5 -22.5h-110zM218 359h94q48 0 78 35t30 82q0 33 -19.5 53t-50.5 20h-90z" />
    <glyph glyph-name="Q" unicode="Q" horiz-adv-x="622" 
d="M287 -12q-113 0 -181.5 71t-68.5 184q0 78 23 155t65 139.5t107 101.5t141 39q113 0 181.5 -71t68.5 -185q0 -113 -46 -218t-127 -163l17 -43l-104 -36l-13 33q-35 -7 -63 -7zM295 107h10l-42 108l104 36l34 -86q38 46 60.5 115.5t22.5 138.5q0 64 -33 102t-87 38
q-53 0 -97.5 -48.5t-68 -120t-23.5 -144.5q0 -64 32.5 -101.5t87.5 -37.5z" />
    <glyph glyph-name="R" unicode="R" horiz-adv-x="551" 
d="M462 0h-144l-48 241h-78l-53 -241h-134l147 667h225q77 0 130 -50.5t53 -128.5q0 -84 -46.5 -148.5t-113.5 -81.5zM218 359h95q48 0 77.5 34t29.5 82q0 35 -20 54.5t-51 19.5h-89z" />
    <glyph glyph-name="S" unicode="S" horiz-adv-x="498" 
d="M226 -12q-75 0 -139.5 27.5t-98.5 72.5l81 99q26 -37 70 -59t93 -22q41 0 65 24t24 60q0 24 -24.5 45.5t-59.5 40.5t-70 42t-59.5 60t-24.5 83q0 89 65.5 153t167.5 64q62 0 118.5 -23t91.5 -64l-78 -96q-25 31 -64 48t-79 17q-35 0 -57.5 -22t-22.5 -52
q0 -19 17.5 -37.5t44 -32.5t57 -34t57 -41t44 -54.5t17.5 -72.5q0 -95 -65 -160.5t-171 -65.5z" />
    <glyph glyph-name="T" unicode="T" horiz-adv-x="473" 
d="M250 0h-134l121 549h-148l26 118h430l-26 -118h-148z" />
    <glyph glyph-name="U" unicode="U" horiz-adv-x="609" 
d="M282 -12q-107 0 -169 54.5t-62 145.5q0 14 5 44l96 435h135l-97 -439q-3 -18 -3 -31q0 -40 27 -65.5t73 -25.5q97 0 124 122l97 439h135l-97 -437q-52 -242 -264 -242z" />
    <glyph glyph-name="V" unicode="V" horiz-adv-x="554" 
d="M304 0h-162l-51 667h140l21 -509l246 509h151z" />
    <glyph glyph-name="W" unicode="W" horiz-adv-x="767" 
d="M555 0h-140l13 444l-184 -444h-140l-5 667h141l-17 -464l198 464h105l-7 -464l188 464h147z" />
    <glyph glyph-name="X" unicode="X" horiz-adv-x="553" 
d="M501 0h-146l-78 230l-172 -230h-161l274 349l-116 318h147l69 -217l157 217h162l-260 -333z" />
    <glyph glyph-name="Y" unicode="Y" horiz-adv-x="538" 
d="M282 0h-134l60 275l-119 392h141l66 -268l185 268h154l-293 -392z" />
    <glyph glyph-name="Z" unicode="Z" horiz-adv-x="484" 
d="M394 0h-412l24 110l331 439h-234l26 118h405l-23 -108l-334 -441h243z" />
    <glyph glyph-name="bracketleft" unicode="[" horiz-adv-x="242" 
d="M128 -190h-183l192 868h184l-18 -81h-97l-156 -706h96z" />
    <glyph glyph-name="backslash" unicode="\" horiz-adv-x="278" 
d="M133 -20l-40 707h86l40 -707h-86z" />
    <glyph glyph-name="bracketright" unicode="]" horiz-adv-x="242" 
d="M104 -190h-183l18 81h97l157 706h-97l17 81h184z" />
    <glyph glyph-name="asciicircum" unicode="^" horiz-adv-x="389" 
d="M389 333h-84l-34 245l-141 -245h-92l206 334h88z" />
    <glyph glyph-name="underscore" unicode="_" horiz-adv-x="422" 
d="M343 -121h-427l19 81h427z" />
    <glyph glyph-name="grave" unicode="`" horiz-adv-x="214" 
d="M283 556h-80l-102 144h107z" />
    <glyph glyph-name="a" unicode="a" horiz-adv-x="504" 
d="M245 495q89 0 124 -75l14 63h120l-107 -483h-120l13 59q-52 -71 -124 -71q-68 0 -106.5 46t-38.5 131q0 72 24.5 145.5t77.5 129t123 55.5zM268 389q-53 0 -88 -68t-35 -136q0 -43 21 -67t57 -24q50 0 87 57l40 181q-10 25 -32 41t-50 16z" />
    <glyph glyph-name="b" unicode="b" horiz-adv-x="504" 
d="M259 -12q-91 0 -125 75l-14 -63h-119l146 667h120l-53 -243q52 71 124 71q68 0 106.5 -46t38.5 -131q0 -72 -24.5 -145.5t-77.5 -129t-122 -55.5zM235 94q53 0 88 68t35 135q0 43 -21 67.5t-56 24.5q-50 0 -88 -58l-40 -180q10 -25 32 -41t50 -16z" />
    <glyph glyph-name="c" unicode="c" horiz-adv-x="421" 
d="M222 -12q-91 0 -145 53.5t-54 146.5q0 77 31.5 146.5t91 115t132.5 45.5q109 0 159 -72l-74 -79q-26 45 -81 45q-60 0 -98.5 -60.5t-38.5 -131.5q0 -50 27 -76.5t69 -26.5q47 0 80 38l45 -87q-59 -57 -144 -57z" />
    <glyph glyph-name="d" unicode="d" horiz-adv-x="504" 
d="M245 495q89 0 124 -75l55 247h120l-148 -667h-120l13 59q-52 -71 -124 -71q-68 0 -106.5 46t-38.5 131q0 72 24.5 145.5t77.5 129t123 55.5zM268 389q-53 0 -88 -68t-35 -136q0 -43 21 -67t57 -24q50 0 87 57l40 181q-10 25 -32 41t-50 16z" />
    <glyph glyph-name="e" unicode="e" 
d="M230 -12q-97 0 -152.5 52.5t-55.5 147.5q0 71 29.5 140t89 118t133.5 49q85 0 134 -50.5t49 -139.5q0 -47 -15 -102h-302q-2 -18 -2 -27q0 -35 27.5 -63t79.5 -28q58 0 103 38l39 -78q-65 -57 -157 -57zM155 285h191q3 13 3 30q0 35 -22 59.5t-61 24.5q-43 0 -73 -35.5
t-38 -78.5z" />
    <glyph glyph-name="f" unicode="f" horiz-adv-x="288" 
d="M143 0h-120l83 379h-62l23 104h62l8 38q34 156 166 156q74 0 110 -38l-54 -80q-18 19 -44 19q-45 0 -58 -57l-8 -38h80l-24 -104h-79z" />
    <glyph glyph-name="g" unicode="g" horiz-adv-x="504" 
d="M166 -196q-129 0 -195 72l66 86q19 -27 53.5 -42t72.5 -15q91 0 116 115l14 56q-51 -72 -126 -72q-66 0 -106 43t-40 129q0 71 23.5 142t76 124t122.5 53q37 0 73 -20.5t52 -54.5l15 63h119l-102 -458q-48 -221 -234 -221zM225 111q49 0 87 56l37 163q-12 26 -35 42.5
t-51 16.5q-51 0 -84 -62t-33 -128q0 -43 21 -65.5t58 -22.5z" />
    <glyph glyph-name="h" unicode="h" horiz-adv-x="500" 
d="M392 0h-120l69 317q4 10 4 25q0 47 -56 47q-47 0 -97 -61l-71 -328h-121l147 667h121l-55 -246q66 74 142 74q55 0 87.5 -28t32.5 -74q0 -15 -4 -35z" />
    <glyph glyph-name="i" unicode="i" horiz-adv-x="228" 
d="M186 537q-28 0 -46.5 18t-18.5 44q0 37 25.5 60t56.5 23q27 0 46 -18.5t19 -43.5q0 -37 -25.5 -60t-56.5 -23zM120 0h-120l107 483h120z" />
    <glyph glyph-name="j" unicode="j" horiz-adv-x="228" 
d="M-54 -196q-71 0 -104 34l48 87q15 -20 43 -20q46 0 60 67l114 511h120l-114 -511q-18 -84 -56.5 -126t-110.5 -42zM186 537q-28 0 -46.5 18t-18.5 44q0 37 25.5 60t56.5 23q27 0 46 -18.5t19 -43.5q0 -37 -25.5 -60t-56.5 -23z" />
    <glyph glyph-name="k" unicode="k" horiz-adv-x="469" 
d="M412 0h-137l-60 192l-69 -74l-26 -118h-120l147 667h120l-87 -396l190 212h144l-201 -217z" />
    <glyph glyph-name="l" unicode="l" horiz-adv-x="228" 
d="M120 0h-120l147 667h120z" />
    <glyph glyph-name="m" unicode="m" horiz-adv-x="744" 
d="M636 0h-120l70 318q4 16 4 26q0 21 -14 33t-36 12q-46 0 -90 -61l-72 -328h-120l70 318q0 2 1.5 7.5t2 11t0.5 9.5q0 19 -13.5 31t-37.5 12q-43 0 -89 -61l-72 -328h-120l107 483h120l-14 -62q59 74 135 74q50 0 80.5 -26.5t30.5 -52.5q0 -3 -1 -5q63 84 148 84
q49 0 81 -27.5t32 -74.5q0 -19 -4 -35z" />
    <glyph glyph-name="n" unicode="n" horiz-adv-x="500" 
d="M391 0h-120l70 316q4 24 4 26q0 47 -52 47q-51 0 -101 -61l-72 -328h-120l107 483h120l-14 -62q66 74 142 74q55 0 87.5 -27.5t32.5 -74.5q0 -3 -4 -35z" />
    <glyph glyph-name="o" unicode="o" horiz-adv-x="495" 
d="M220 -12q-94 0 -146 53.5t-52 144.5q0 117 71 213t181 96q94 0 146 -53.5t52 -144.5q0 -74 -30 -144t-89 -117.5t-133 -47.5zM225 94q53 0 88.5 67.5t35.5 133.5q0 94 -80 94q-53 0 -88.5 -67.5t-35.5 -133.5q0 -94 80 -94z" />
    <glyph glyph-name="p" unicode="p" horiz-adv-x="503" 
d="M259 -12q-91 0 -125 75l-55 -247h-119l147 667h120l-13 -59q52 71 124 71q68 0 106.5 -46t38.5 -131q0 -72 -24.5 -145.5t-77.5 -129t-122 -55.5zM235 94q53 0 88 68t35 135q0 43 -21 67.5t-56 24.5q-50 0 -88 -58l-40 -180q10 -25 32 -41t50 -16z" />
    <glyph glyph-name="q" unicode="q" horiz-adv-x="503" 
d="M245 495q89 0 124 -75l14 63h120l-148 -667h-120l54 243q-52 -71 -124 -71q-68 0 -106.5 46t-38.5 131q0 72 24.5 145.5t77.5 129t123 55.5zM268 389q-53 0 -88 -68t-35 -136q0 -43 21 -67t57 -24q50 0 87 57l40 181q-10 25 -32 41t-50 16z" />
    <glyph glyph-name="r" unicode="r" horiz-adv-x="320" 
d="M120 0h-120l107 483h120l-14 -63q57 75 148 75l-26 -119q-17 5 -37 5q-63 0 -107 -61z" />
    <glyph glyph-name="s" unicode="s" horiz-adv-x="412" 
d="M176 -12q-60 0 -111.5 21.5t-80.5 57.5l66 79q19 -26 55.5 -45.5t76.5 -19.5q29 0 47.5 16t18.5 38t-30.5 41t-67 33.5t-67 46.5t-30.5 77q0 67 48.5 114.5t133.5 47.5q51 0 98 -19.5t76 -52.5l-61 -76q-15 21 -48 38t-67 17q-29 0 -46 -14t-17 -35q0 -19 31 -37t68 -33
t68 -48.5t31 -78.5q0 -70 -52.5 -119t-139.5 -49z" />
    <glyph glyph-name="t" unicode="t" horiz-adv-x="298" 
d="M171 -12q-61 0 -94.5 24t-33.5 72q0 18 4 37l58 258h-63l24 104h62l29 132h120l-29 -132h80l-24 -104h-79l-51 -229q-3 -21 -3 -22q0 -34 37 -34q18 0 30 10l4 -98q-26 -18 -71 -18z" />
    <glyph glyph-name="u" unicode="u" horiz-adv-x="499" 
d="M107 483h120l-70 -317q-4 -18 -4 -25q0 -23 15.5 -35t40.5 -12q48 0 96 60l73 329h120l-107 -483h-120l14 62q-64 -74 -141 -74q-56 0 -88.5 27.5t-32.5 74.5q0 15 5 35z" />
    <glyph glyph-name="v" unicode="v" horiz-adv-x="447" 
d="M234 0h-129l-54 483h124l22 -339l174 339h131z" />
    <glyph glyph-name="w" unicode="w" horiz-adv-x="688" 
d="M503 0h-127l-14 329l-157 -329h-127l-22 483h120l3 -328l158 328h110l15 -328l149 328h128z" />
    <glyph glyph-name="x" unicode="x" horiz-adv-x="438" 
d="M382 0h-127l-51 161l-122 -161h-135l196 246l-81 237h127l45 -152l112 152h135l-188 -237z" />
    <glyph glyph-name="y" unicode="y" horiz-adv-x="447" 
d="M-51 -184l39 102q11 -7 36 -7q31 0 51 34l28 50l-52 488h124l22 -338l174 338h131l-315 -565q-36 -64 -73 -89t-90 -25q-44 0 -75 12z" />
    <glyph glyph-name="z" unicode="z" horiz-adv-x="407" 
d="M318 0h-338l20 90l241 288h-177l23 105h334l-19 -87l-243 -291h182z" />
    <glyph glyph-name="braceleft" unicode="{" horiz-adv-x="254" 
d="M140 -190h-33q-48 0 -84 31.5t-36 79.5q0 16 3 28l43 194q2 10 2 18q0 22 -10.5 35.5t-28.5 13.5l15 68q53 0 67 67l43 194q31 139 167 139h45l-18 -81h-45q-48 0 -62 -58l-48 -215q-15 -72 -65 -89q29 -15 29 -56q0 -18 -4 -34l-42 -192q-2 -12 -2 -19q0 -20 11.5 -32
t29.5 -12h41z" />
    <glyph glyph-name="bar" unicode="|" horiz-adv-x="198" 
d="M159 -20h-80v707h80v-707z" />
    <glyph glyph-name="braceright" unicode="}" horiz-adv-x="254" 
d="M113 678h33q48 0 84 -31.5t36 -79.5q0 -17 -3 -29l-43 -193q-2 -10 -2 -18q0 -22 10.5 -35.5t28.5 -13.5l-16 -68q-52 0 -66 -67l-43 -194q-31 -139 -168 -139h-44l18 81h44q49 0 63 58l47 215q16 72 65 89q-29 17 -29 56q0 18 4 34l43 193q2 10 2 18q0 19 -12 31.5
t-29 12.5h-41z" />
    <glyph glyph-name="asciitilde" unicode="~" horiz-adv-x="463" 
d="M448 667l80 -9q-50 -244 -176 -244q-45 0 -66 28t-21.5 61t-6.5 61t-24 28q-24 0 -47 -47t-41 -132l-81 9q49 244 177 244q37 0 57 -18.5t25.5 -45t7 -52.5t7.5 -44.5t21 -18.5q23 0 47 48t41 132z" />
    <glyph glyph-name="nbspace" unicode="&#xa0;" horiz-adv-x="210" 
 />
    <glyph glyph-name="exclamdown" unicode="&#xa1;" horiz-adv-x="252" 
d="M79 270h105l-80 -454h-145zM172 494q29 0 49.5 -20.5t20.5 -50.5q0 -34 -25.5 -59t-59.5 -25q-29 0 -49.5 21.5t-20.5 50.5q0 34 25 58.5t60 24.5z" />
    <glyph glyph-name="cent" unicode="&#xa2;" horiz-adv-x="421" 
d="M128 -100l21 99q-59 18 -92.5 67t-33.5 122q0 114 67 205.5t170 100.5l16 71h87l-18 -79q59 -17 92 -63l-74 -79q-14 24 -41 37l-64 -286q36 7 63 37l45 -87q-55 -53 -131 -57l-20 -88h-87zM145 197q0 -53 30 -80l58 259q-40 -22 -64 -73.5t-24 -105.5z" />
    <glyph glyph-name="sterling" unicode="&#xa3;" horiz-adv-x="487" 
d="M32 272l17 78h64q-22 58 -22 99q0 95 72.5 161.5t167.5 66.5q77 0 131.5 -36t65.5 -102l-119 -42q-4 33 -24 52t-51 19q-40 0 -69 -39.5t-29 -96.5q0 -11 2 -23t4.5 -20t7 -20.5t6.5 -18.5h107l-18 -78h-83q-7 -45 -32.5 -84.5t-57.5 -59.5q21 8 39 8q27 0 64 -14.5
t59 -14.5q41 0 74 33l21 -107q-43 -45 -112 -45q-44 0 -102.5 21t-85.5 21q-43 0 -98 -37l-22 92q55 27 91 75t36 100q0 8 -1 12h-103z" />
    <glyph glyph-name="currency" unicode="&#xa4;" horiz-adv-x="532" 
d="M263 94q-71 0 -120 32l-89 -73l-63 79l87 70q-17 40 -17 89q0 112 70 195l-55 72l81 65l56 -74q47 22 99 22q68 0 118 -32l89 72l63 -77l-89 -72q18 -41 18 -89q0 -113 -71 -195l55 -69l-80 -66l-56 72q-43 -21 -96 -21zM181 297q0 -43 22.5 -70.5t64.5 -27.5q52 0 88 50
t36 116q0 44 -22 72t-66 28q-53 0 -88 -50.5t-35 -117.5z" />
    <glyph glyph-name="yen" unicode="&#xa5;" horiz-adv-x="538" 
d="M283 0h-134l25 116h-179l17 75h179l18 84h-178l16 75h139l-96 317h141l66 -268l185 268h154l-237 -317h137l-16 -75h-177l-18 -84h176l-17 -75h-176z" />
    <glyph glyph-name="brokenbar" unicode="&#xa6;" horiz-adv-x="198" 
d="M159 -20h-80v316h80v-316zM159 371h-80v316h80v-316z" />
    <glyph glyph-name="section" unicode="&#xa7;" horiz-adv-x="415" 
d="M406 334q0 -49 -29 -89t-80 -59q54 -38 54 -98q0 -71 -53 -120t-135 -49q-139 0 -202 75l67 74q21 -29 56 -46t75 -17q32 0 52.5 19t20.5 46q0 21 -20 37.5t-48 29.5t-56 28.5t-48 43.5t-20 66q0 50 31 87t87 53q-63 37 -63 106q0 67 51 111.5t128 44.5q121 0 183 -69
l-63 -66q-38 50 -114 50q-32 0 -50.5 -17t-18.5 -41q0 -20 20 -36t48.5 -29t57.5 -28.5t49 -43t20 -63.5zM287 306q0 44 -50 67q-42 -6 -61.5 -27t-19.5 -49q0 -42 66 -71q65 22 65 80z" />
    <glyph glyph-name="dieresis" unicode="&#xa8;" horiz-adv-x="286" 
d="M383 617q0 -28 -22.5 -50t-51.5 -22q-24 0 -40.5 16.5t-16.5 41.5q0 28 22 49.5t51 21.5q25 0 41.5 -16t16.5 -41zM196 617q0 -28 -22 -50t-51 -22q-25 0 -41.5 16.5t-16.5 41.5q0 28 22 49.5t51 21.5q25 0 41.5 -16t16.5 -41z" />
    <glyph glyph-name="copyright" unicode="&#xa9;" horiz-adv-x="778" 
d="M754 334q0 -143 -101.5 -244t-244.5 -101q-142 0 -243 101t-101 244t100.5 244t243.5 101t244.5 -101t101.5 -244zM718 334q0 127 -91 218t-219 91q-127 0 -217.5 -90.5t-90.5 -218.5t90.5 -218.5t217.5 -90.5q128 0 219 91t91 218zM506 210l24 -33q-63 -54 -138 -54
q-87 0 -139 52t-52 132q0 100 70.5 169.5t162.5 69.5q110 0 159 -81l-37 -26q-37 68 -124 68q-71 0 -129 -57.5t-58 -141.5q0 -61 40.5 -103.5t107.5 -42.5q65 0 113 48z" />
    <glyph glyph-name="ordfeminine" unicode="&#xaa;" horiz-adv-x="363" 
d="M246 579q-34 0 -58.5 -42t-24.5 -89q0 -60 51 -60q31 0 58 36l27 123q-15 32 -53 32zM319 640h88l-70 -314h-87l8 39q-36 -47 -84 -47q-44 0 -72.5 31t-28.5 90q0 80 43.5 144.5t107.5 64.5q60 0 87 -46z" />
    <glyph glyph-name="guillemotleft" unicode="&#xab;" horiz-adv-x="456" 
d="M213 63h-99l-85 180l165 177h105l-168 -181zM382 63h-100l-85 180l165 177h106l-169 -181z" />
    <glyph glyph-name="logicalnot" unicode="&#xac;" horiz-adv-x="449" 
d="M463 466l-58 -264h-78l42 189h-308l17 75h385z" />
    <glyph glyph-name="uni00AD" unicode="&#xad;" horiz-adv-x="270" 
d="M229 191h-211l22 102h211z" />
    <glyph glyph-name="registered" unicode="&#xae;" horiz-adv-x="494" 
d="M508 465q0 -88 -62.5 -150t-150.5 -62t-149.5 62t-61.5 150t62 150t150 62t150 -61.5t62 -150.5zM476 465q0 75 -53 127.5t-128 52.5t-127.5 -52t-52.5 -128q0 -75 52.5 -128t127.5 -53t128 53.5t53 127.5zM369 343h-40l-42 96h-44l-21 -96h-34l53 243h92q31 0 51.5 -18
t20.5 -46q0 -35 -25 -58.5t-55 -23.5zM369 519q0 17 -11.5 27.5t-30.5 10.5h-58l-20 -88h65q23 0 39 14.5t16 35.5z" />
    <glyph glyph-name="macron" unicode="&#xaf;" horiz-adv-x="311" 
d="M380 563h-309l15 69h309z" />
    <glyph glyph-name="degree" unicode="&#xb0;" horiz-adv-x="308" 
d="M353 543q0 -55 -39 -94t-94 -39q-56 0 -94.5 39t-38.5 94q0 56 39 95t94 39t94 -39.5t39 -94.5zM287 543q0 28 -20 48t-47 20q-28 0 -47 -20t-19 -48t18.5 -47t46.5 -19q27 0 47.5 19.5t20.5 46.5z" />
    <glyph glyph-name="plusminus" unicode="&#xb1;" horiz-adv-x="444" 
d="M429 314h-151l-39 -175h-82l38 175h-151l16 75h152l37 167h83l-37 -167h151zM364 13h-386l16 75h385z" />
    <glyph glyph-name="twosuperior" unicode="&#xb2;" horiz-adv-x="345" 
d="M357 421h-281l16 71q144 100 189.5 141.5t45.5 75.5q0 21 -16 33t-41 12q-55 0 -94 -44l-41 60q59 57 141 57q62 0 103 -29t41 -80t-46 -98t-158 -126h157z" />
    <glyph glyph-name="threesuperior" unicode="&#xb3;" horiz-adv-x="345" 
d="M384 537q0 -48 -40.5 -85.5t-105.5 -37.5q-54 0 -95.5 19t-60.5 53l61 53q31 -52 90 -52q30 0 46 18t16 42q0 42 -67 42q-25 0 -31 -1l15 72q9 -1 49 -1q31 0 48.5 14.5t17.5 39.5q0 19 -18 30t-45 11q-50 0 -88 -38l-38 55q58 56 134 56q67 0 107 -26.5t40 -74.5
q0 -39 -27.5 -70t-74.5 -36q31 -8 49 -30t18 -53z" />
    <glyph glyph-name="acute" unicode="&#xb4;" horiz-adv-x="214" 
d="M315 700l-166 -144h-82l139 144h109z" />
    <glyph glyph-name="mu" unicode="&#xb5;" horiz-adv-x="512" 
d="M122 10l-43 -194h-121l150 667h120l-71 -319q-8 -34 5.5 -52t42.5 -18q54 0 99 59l73 330h121l-77 -347q-10 -42 23 -42q8 0 18 2l-14 -101q-24 -7 -58 -7q-49 0 -71 21t-22 65q-24 -39 -57.5 -62.5t-67.5 -23.5q-36 0 -50 22z" />
    <glyph glyph-name="paragraph" unicode="&#xb6;" horiz-adv-x="449" 
d="M322 -100h-60l157 707h-80l-157 -707h-60l94 423q-57 0 -97 44.5t-40 111.5q0 73 56.5 130.5t137.5 57.5h219z" />
    <glyph glyph-name="periodcentered" unicode="&#xb7;" horiz-adv-x="252" 
d="M119 167q-30 0 -50.5 21t-20.5 50q0 34 25 59.5t60 25.5q29 0 49.5 -21.5t20.5 -50.5q0 -35 -24.5 -59.5t-59.5 -24.5z" />
    <glyph glyph-name="cedilla" unicode="&#xb8;" horiz-adv-x="202" 
d="M17 -195q-68 0 -106 40l33 46q31 -34 73 -34q21 0 33.5 10.5t12.5 26.5q0 23 -26 23q-16 0 -27 -13l-38 25l49 82h60l-40 -63q13 10 27 10q24 0 40 -16.5t16 -43.5q0 -41 -30.5 -67t-76.5 -26z" />
    <glyph glyph-name="onesuperior" unicode="&#xb9;" horiz-adv-x="265" 
d="M252 421h-91l61 279l-73 -60l-42 55l155 126h78z" />
    <glyph glyph-name="ordmasculine" unicode="&#xba;" horiz-adv-x="357" 
d="M212 318q-65 0 -101.5 36.5t-36.5 96.5q0 77 50 137t123 60q65 0 101.5 -37t36.5 -97q0 -76 -50 -136t-123 -60zM215 388q37 0 59 43.5t22 85.5q0 59 -52 59q-37 0 -59 -43.5t-22 -85.5q0 -28 13.5 -43.5t38.5 -15.5z" />
    <glyph glyph-name="guillemotright" unicode="&#xbb;" horiz-adv-x="456" 
d="M75 420h99l85 -180l-165 -177h-105l169 182zM243 420h100l85 -180l-165 -177h-106l169 182z" />
    <glyph glyph-name="onequarter" unicode="&#xbc;" horiz-adv-x="741" 
d="M218 267h-91l61 279l-73 -60l-42 55l155 126h78zM687 88h-43l-19 -88h-91l19 88h-172l15 66l198 246h119l-53 -241h42zM569 159l33 150l-121 -150h88zM658 667l-500 -667h-63l499 667h64z" />
    <glyph glyph-name="onehalf" unicode="&#xbd;" horiz-adv-x="775" 
d="M218 267h-91l61 279l-73 -60l-42 55l155 126h78zM694 0h-281l16 71q144 100 189.5 141.5t45.5 75.5q0 21 -16 33t-41 12q-55 0 -94 -44l-41 60q59 57 141 57q62 0 103 -29t41 -80t-46 -98t-158 -126h157zM658 667l-500 -667h-63l499 667h64z" />
    <glyph glyph-name="threequarters" unicode="&#xbe;" horiz-adv-x="802" 
d="M749 88h-43l-19 -88h-91l19 88h-172l15 66l198 246h119l-53 -241h42zM631 159l33 150l-121 -150h88zM719 667l-500 -667h-63l499 667h64zM350 383q0 -48 -40.5 -85.5t-105.5 -37.5q-54 0 -95.5 19t-60.5 53l61 53q31 -52 90 -52q30 0 46 18t16 42q0 42 -67 42
q-25 0 -31 -1l15 72q9 -1 49 -1q31 0 48.5 14.5t17.5 39.5q0 19 -18 30t-45 11q-50 0 -88 -38l-38 55q58 56 134 56q67 0 107 -26.5t40 -74.5q0 -39 -27.5 -70t-74.5 -36q31 -8 49 -30t18 -53z" />
    <glyph glyph-name="questiondown" unicode="&#xbf;" horiz-adv-x="342" 
d="M141 248l110 32q12 -27 12 -65q0 -40 -17.5 -71.5t-42.5 -52t-49.5 -38t-42 -38t-17.5 -43.5t16.5 -37t47.5 -14q52 0 88 35l48 -90q-72 -61 -166 -61q-75 0 -125.5 37.5t-50.5 97.5q0 45 20.5 80.5t49.5 58.5t58 43t49.5 43.5t20.5 50.5q0 17 -9 32zM240 494
q30 0 50.5 -21t20.5 -50q0 -34 -25 -59t-60 -25q-29 0 -49.5 21t-20.5 50q0 34 25 59t59 25z" />
    <glyph glyph-name="Agrave" unicode="&#xc0;" horiz-adv-x="554" 
d="M502 0h-140l-5 118h-206l-56 -118h-151l345 667h162zM355 236l-11 290l-140 -290h151zM436 723h-80l-102 144h107z" />
    <glyph glyph-name="Aacute" unicode="&#xc1;" horiz-adv-x="554" 
d="M502 0h-140l-5 118h-206l-56 -118h-151l345 667h162zM355 236l-11 290l-140 -290h151zM574 867l-166 -144h-82l139 144h109z" />
    <glyph glyph-name="Acircumflex" unicode="&#xc2;" horiz-adv-x="554" 
d="M515 723h-68l-44 91l-81 -91h-72l109 144h108zM502 0h-140l-5 118h-206l-56 -118h-151l345 667h162zM355 236l-11 290l-140 -290h151z" />
    <glyph glyph-name="Atilde" unicode="&#xc3;" horiz-adv-x="554" 
d="M502 0h-140l-5 118h-206l-56 -118h-151l345 667h162zM355 236l-11 290l-140 -290h151zM444 721q-22 0 -38 11t-22.5 24.5t-17 24.5t-23.5 11q-27 0 -41 -65h-64q28 134 112 134q23 0 38.5 -11t22.5 -24.5t17.5 -24.5t23.5 -11q27 0 41 65h64q-28 -134 -113 -134z" />
    <glyph glyph-name="Adieresis" unicode="&#xc4;" horiz-adv-x="554" 
d="M553 784q0 -28 -22.5 -50t-51.5 -22q-24 0 -40.5 16.5t-16.5 41.5q0 28 22 49.5t51 21.5q25 0 41.5 -16t16.5 -41zM366 784q0 -28 -22 -50t-51 -22q-25 0 -41.5 16.5t-16.5 41.5q0 28 22 49.5t51 21.5q25 0 41.5 -16t16.5 -41zM502 0h-140l-5 118h-206l-56 -118h-151
l345 667h162zM355 236l-11 290l-140 -290h151z" />
    <glyph glyph-name="Aring" unicode="&#xc5;" horiz-adv-x="554" 
d="M502 0h-140l-5 118h-206l-56 -118h-151l345 667h162zM355 236l-11 290l-140 -290h151zM386 690q-38 0 -62.5 24.5t-24.5 63.5q0 43 32 75t75 32q39 0 63 -24.5t24 -63.5q0 -43 -31.5 -75t-75.5 -32zM392 744q19 0 33.5 14t14.5 33q0 17 -11 28.5t-27 11.5
q-20 0 -34 -14.5t-14 -33.5q0 -17 10.5 -28t27.5 -11z" />
    <glyph glyph-name="AE" unicode="&#xc6;" horiz-adv-x="787" 
d="M697 0h-382l26 118h-171l-77 -118h-149l462 667h438l-26 -118h-247l-34 -151h241l-26 -118h-241l-36 -162h248zM367 236l62 280l-184 -280h122z" />
    <glyph glyph-name="Ccedilla" unicode="&#xc7;" horiz-adv-x="558" 
d="M228 -195q-68 0 -106 40l33 46q31 -34 73 -34q21 0 33.5 10.5t12.5 26.5q0 23 -26 23q-16 0 -27 -13l-38 25l39 66q-85 18 -135 83.5t-50 164.5q0 109 40 207.5t118.5 163t177.5 64.5q97 0 153.5 -54t75.5 -136l-127 -34q-12 49 -40 77t-70 28q-52 0 -97 -48.5
t-69 -120.5t-24 -144q0 -64 32 -101.5t88 -37.5q68 0 120 79l105 -58q-88 -140 -233 -140h-10l-25 -40q13 10 27 10q24 0 40 -16.5t16 -43.5q0 -41 -30.5 -67t-76.5 -26z" />
    <glyph glyph-name="Egrave" unicode="&#xc8;" horiz-adv-x="481" 
d="M387 0h-382l147 667h382l-26 -118h-248l-33 -151h241l-27 -118h-240l-36 -162h248zM410 723h-80l-102 144h107z" />
    <glyph glyph-name="Eacute" unicode="&#xc9;" horiz-adv-x="481" 
d="M548 867l-166 -144h-82l139 144h109zM387 0h-382l147 667h382l-26 -118h-248l-33 -151h241l-27 -118h-240l-36 -162h248z" />
    <glyph glyph-name="Ecircumflex" unicode="&#xca;" horiz-adv-x="481" 
d="M488 723h-68l-44 91l-81 -91h-72l109 144h108zM387 0h-382l147 667h382l-26 -118h-248l-33 -151h241l-27 -118h-240l-36 -162h248z" />
    <glyph glyph-name="Edieresis" unicode="&#xcb;" horiz-adv-x="481" 
d="M526 784q0 -28 -22.5 -50t-51.5 -22q-24 0 -40.5 16.5t-16.5 41.5q0 28 22 49.5t51 21.5q25 0 41.5 -16t16.5 -41zM339 784q0 -28 -22 -50t-51 -22q-25 0 -41.5 16.5t-16.5 41.5q0 28 22 49.5t51 21.5q25 0 41.5 -16t16.5 -41zM387 0h-382l147 667h382l-26 -118h-248
l-33 -151h241l-27 -118h-240l-36 -162h248z" />
    <glyph glyph-name="Igrave" unicode="&#xcc;" horiz-adv-x="252" 
d="M139 0h-134l147 667h134zM285 723h-80l-102 144h107z" />
    <glyph glyph-name="Iacute" unicode="&#xcd;" horiz-adv-x="252" 
d="M139 0h-134l147 667h134zM424 867l-166 -144h-82l139 144h109z" />
    <glyph glyph-name="Icircumflex" unicode="&#xce;" horiz-adv-x="252" 
d="M364 723h-68l-44 91l-81 -91h-72l109 144h108zM139 0h-134l147 667h134z" />
    <glyph glyph-name="Idieresis" unicode="&#xcf;" horiz-adv-x="252" 
d="M403 784q0 -28 -22.5 -50t-51.5 -22q-24 0 -40.5 16.5t-16.5 41.5q0 28 22 49.5t51 21.5q25 0 41.5 -16t16.5 -41zM216 784q0 -28 -22 -50t-51 -22q-25 0 -41.5 16.5t-16.5 41.5q0 28 22 49.5t51 21.5q25 0 41.5 -16t16.5 -41zM139 0h-134l147 667h134z" />
    <glyph glyph-name="Eth" unicode="&#xd0;" horiz-adv-x="620" 
d="M244 0h-215l61 280h-70l24 107h70l62 280h210q93 0 161.5 -69t68.5 -183q0 -55 -11.5 -110t-39.5 -111t-69 -98.5t-106.5 -69t-145.5 -26.5zM333 280h-109l-35 -162h78q66 0 115.5 47.5t72 112.5t22.5 132q0 64 -32.5 101.5t-83.5 37.5h-77l-36 -162h109z" />
    <glyph glyph-name="Ntilde" unicode="&#xd1;" horiz-adv-x="606" 
d="M471 721q-22 0 -38 11t-22.5 24.5t-17 24.5t-23.5 11q-27 0 -41 -65h-64q28 134 112 134q23 0 38.5 -11t22.5 -24.5t17.5 -24.5t23.5 -11q27 0 41 65h64q-28 -134 -113 -134zM494 0h-128l-137 410l-90 -410h-134l147 667h136l131 -395l87 395h135z" />
    <glyph glyph-name="Ograve" unicode="&#xd2;" horiz-adv-x="622" 
d="M471 723h-80l-102 144h107zM287 -12q-113 0 -181.5 71t-68.5 184q0 78 23 155t65 139.5t107 101.5t141 39q113 0 181.5 -71t68.5 -185q0 -78 -23 -154.5t-65 -139t-107 -101.5t-141 -39zM295 107q53 0 97.5 48t68 119.5t23.5 144.5q0 64 -33 102t-87 38
q-53 0 -97.5 -48.5t-68 -120t-23.5 -144.5q0 -64 32.5 -101.5t87.5 -37.5z" />
    <glyph glyph-name="Oacute" unicode="&#xd3;" horiz-adv-x="622" 
d="M609 867l-166 -144h-82l139 144h109zM287 -12q-113 0 -181.5 71t-68.5 184q0 78 23 155t65 139.5t107 101.5t141 39q113 0 181.5 -71t68.5 -185q0 -78 -23 -154.5t-65 -139t-107 -101.5t-141 -39zM295 107q53 0 97.5 48t68 119.5t23.5 144.5q0 64 -33 102t-87 38
q-53 0 -97.5 -48.5t-68 -120t-23.5 -144.5q0 -64 32.5 -101.5t87.5 -37.5z" />
    <glyph glyph-name="Ocircumflex" unicode="&#xd4;" horiz-adv-x="622" 
d="M550 723h-68l-44 91l-81 -91h-72l109 144h108zM287 -12q-113 0 -181.5 71t-68.5 184q0 78 23 155t65 139.5t107 101.5t141 39q113 0 181.5 -71t68.5 -185q0 -78 -23 -154.5t-65 -139t-107 -101.5t-141 -39zM295 107q53 0 97.5 48t68 119.5t23.5 144.5q0 64 -33 102
t-87 38q-53 0 -97.5 -48.5t-68 -120t-23.5 -144.5q0 -64 32.5 -101.5t87.5 -37.5z" />
    <glyph glyph-name="Otilde" unicode="&#xd5;" horiz-adv-x="622" 
d="M287 -12q-113 0 -181.5 71t-68.5 184q0 78 23 155t65 139.5t107 101.5t141 39q113 0 181.5 -71t68.5 -185q0 -78 -23 -154.5t-65 -139t-107 -101.5t-141 -39zM295 107q53 0 97.5 48t68 119.5t23.5 144.5q0 64 -33 102t-87 38q-53 0 -97.5 -48.5t-68 -120t-23.5 -144.5
q0 -64 32.5 -101.5t87.5 -37.5zM478 721q-22 0 -38 11t-22.5 24.5t-17 24.5t-23.5 11q-27 0 -41 -65h-64q28 134 112 134q23 0 38.5 -11t22.5 -24.5t17.5 -24.5t23.5 -11q27 0 41 65h64q-28 -134 -113 -134z" />
    <glyph glyph-name="Odieresis" unicode="&#xd6;" horiz-adv-x="622" 
d="M587 784q0 -28 -22.5 -50t-51.5 -22q-24 0 -40.5 16.5t-16.5 41.5q0 28 22 49.5t51 21.5q25 0 41.5 -16t16.5 -41zM400 784q0 -28 -22 -50t-51 -22q-25 0 -41.5 16.5t-16.5 41.5q0 28 22 49.5t51 21.5q25 0 41.5 -16t16.5 -41zM287 -12q-113 0 -181.5 71t-68.5 184
q0 78 23 155t65 139.5t107 101.5t141 39q113 0 181.5 -71t68.5 -185q0 -78 -23 -154.5t-65 -139t-107 -101.5t-141 -39zM295 107q53 0 97.5 48t68 119.5t23.5 144.5q0 64 -33 102t-87 38q-53 0 -97.5 -48.5t-68 -120t-23.5 -144.5q0 -64 32.5 -101.5t87.5 -37.5z" />
    <glyph glyph-name="multiply" unicode="&#xd7;" horiz-adv-x="444" 
d="M327 162l-93 119l-150 -123l-46 57l152 124l-93 118l60 49l91 -118l150 122l47 -58l-150 -123l91 -118z" />
    <glyph glyph-name="Oslash" unicode="&#xd8;" horiz-adv-x="622" 
d="M287 -12q-97 0 -162 53l-35 -41h-88l77 91q-42 63 -42 152q0 78 23 155t65 139.5t107 101.5t141 39q93 0 157 -50l33 39h88l-74 -88q46 -67 46 -157q0 -78 -23 -154.5t-65 -139t-107 -101.5t-141 -39zM295 107q53 0 97.5 48t68 119.5t23.5 144.5q0 21 -5 44l-270 -321
q32 -35 86 -35zM175 246q0 -19 3 -37l267 318q-32 32 -81 32q-53 0 -97.5 -48.5t-68 -120t-23.5 -144.5z" />
    <glyph glyph-name="Ugrave" unicode="&#xd9;" horiz-adv-x="609" 
d="M282 -12q-107 0 -169 54.5t-62 145.5q0 14 5 44l96 435h135l-97 -439q-3 -18 -3 -31q0 -40 27 -65.5t73 -25.5q97 0 124 122l97 439h135l-97 -437q-52 -242 -264 -242zM463 723h-80l-102 144h107z" />
    <glyph glyph-name="Uacute" unicode="&#xda;" horiz-adv-x="609" 
d="M601 867l-166 -144h-82l139 144h109zM282 -12q-107 0 -169 54.5t-62 145.5q0 14 5 44l96 435h135l-97 -439q-3 -18 -3 -31q0 -40 27 -65.5t73 -25.5q97 0 124 122l97 439h135l-97 -437q-52 -242 -264 -242z" />
    <glyph glyph-name="Ucircumflex" unicode="&#xdb;" horiz-adv-x="609" 
d="M542 723h-68l-44 91l-81 -91h-72l109 144h108zM282 -12q-107 0 -169 54.5t-62 145.5q0 14 5 44l96 435h135l-97 -439q-3 -18 -3 -31q0 -40 27 -65.5t73 -25.5q97 0 124 122l97 439h135l-97 -437q-52 -242 -264 -242z" />
    <glyph glyph-name="Udieresis" unicode="&#xdc;" horiz-adv-x="609" 
d="M580 784q0 -28 -22.5 -50t-51.5 -22q-24 0 -40.5 16.5t-16.5 41.5q0 28 22 49.5t51 21.5q25 0 41.5 -16t16.5 -41zM393 784q0 -28 -22 -50t-51 -22q-25 0 -41.5 16.5t-16.5 41.5q0 28 22 49.5t51 21.5q25 0 41.5 -16t16.5 -41zM282 -12q-107 0 -169 54.5t-62 145.5
q0 14 5 44l96 435h135l-97 -439q-3 -18 -3 -31q0 -40 27 -65.5t73 -25.5q97 0 124 122l97 439h135l-97 -437q-52 -242 -264 -242z" />
    <glyph glyph-name="Yacute" unicode="&#xdd;" horiz-adv-x="538" 
d="M282 0h-134l60 275l-119 392h141l66 -268l185 268h154l-293 -392zM567 867l-166 -144h-82l139 144h109z" />
    <glyph glyph-name="Thorn" unicode="&#xde;" horiz-adv-x="533" 
d="M139 0h-134l147 667h134l-24 -109h101q75 0 123.5 -51t48.5 -126q0 -45 -14.5 -87t-44 -79.5t-80.5 -60t-117 -22.5h-111zM287 250q50 0 79.5 34.5t29.5 82.5q0 33 -19.5 53t-50.5 20h-90l-42 -190h93z" />
    <glyph glyph-name="germandbls" unicode="&#xdf;" horiz-adv-x="580" 
d="M546 156q0 -66 -52 -117t-133 -51q-119 0 -184 78l64 77q46 -60 115 -60q28 0 46.5 16.5t18.5 39.5q0 17 -17.5 30.5t-42.5 25t-50.5 26t-43 39.5t-17.5 59q0 45 23.5 77.5t52 47.5t52 35t23.5 42q0 23 -21 37.5t-53 14.5q-77 0 -97 -91l-107 -482h-120l106 482
q20 87 77.5 141t149.5 54q78 0 134.5 -39.5t56.5 -100.5q0 -35 -16 -62.5t-39 -44t-46 -30t-39 -29t-16 -32.5q0 -19 27.5 -35.5t60 -29.5t60 -43.5t27.5 -74.5z" />
    <glyph glyph-name="agrave" unicode="&#xe0;" horiz-adv-x="504" 
d="M245 495q89 0 124 -75l14 63h120l-107 -483h-120l13 59q-52 -71 -124 -71q-68 0 -106.5 46t-38.5 131q0 72 24.5 145.5t77.5 129t123 55.5zM268 389q-53 0 -88 -68t-35 -136q0 -43 21 -67t57 -24q50 0 87 57l40 181q-10 25 -32 41t-50 16zM371 556h-80l-102 144h107z" />
    <glyph glyph-name="aacute" unicode="&#xe1;" horiz-adv-x="504" 
d="M245 495q89 0 124 -75l14 63h120l-107 -483h-120l13 59q-52 -71 -124 -71q-68 0 -106.5 46t-38.5 131q0 72 24.5 145.5t77.5 129t123 55.5zM268 389q-53 0 -88 -68t-35 -136q0 -43 21 -67t57 -24q50 0 87 57l40 181q-10 25 -32 41t-50 16zM509 700l-166 -144h-82l139 144
h109z" />
    <glyph glyph-name="acircumflex" unicode="&#xe2;" horiz-adv-x="504" 
d="M245 495q89 0 124 -75l14 63h120l-107 -483h-120l13 59q-52 -71 -124 -71q-68 0 -106.5 46t-38.5 131q0 72 24.5 145.5t77.5 129t123 55.5zM268 389q-53 0 -88 -68t-35 -136q0 -43 21 -67t57 -24q50 0 87 57l40 181q-10 25 -32 41t-50 16zM450 556h-68l-44 91l-81 -91
h-72l109 144h108z" />
    <glyph glyph-name="atilde" unicode="&#xe3;" horiz-adv-x="504" 
d="M245 495q89 0 124 -75l14 63h120l-107 -483h-120l13 59q-52 -71 -124 -71q-68 0 -106.5 46t-38.5 131q0 72 24.5 145.5t77.5 129t123 55.5zM268 389q-53 0 -88 -68t-35 -136q0 -43 21 -67t57 -24q50 0 87 57l40 181q-10 25 -32 41t-50 16zM379 554q-22 0 -38 11
t-22.5 24.5t-17 24.5t-23.5 11q-27 0 -41 -65h-64q28 134 112 134q23 0 38.5 -11t22.5 -24.5t17.5 -24.5t23.5 -11q27 0 41 65h64q-28 -134 -113 -134z" />
    <glyph glyph-name="adieresis" unicode="&#xe4;" horiz-adv-x="504" 
d="M245 495q89 0 124 -75l14 63h120l-107 -483h-120l13 59q-52 -71 -124 -71q-68 0 -106.5 46t-38.5 131q0 72 24.5 145.5t77.5 129t123 55.5zM268 389q-53 0 -88 -68t-35 -136q0 -43 21 -67t57 -24q50 0 87 57l40 181q-10 25 -32 41t-50 16zM488 617q0 -28 -22.5 -50
t-51.5 -22q-24 0 -40.5 16.5t-16.5 41.5q0 28 22 49.5t51 21.5q25 0 41.5 -16t16.5 -41zM301 617q0 -28 -22 -50t-51 -22q-25 0 -41.5 16.5t-16.5 41.5q0 28 22 49.5t51 21.5q25 0 41.5 -16t16.5 -41z" />
    <glyph glyph-name="aring" unicode="&#xe5;" horiz-adv-x="504" 
d="M245 495q89 0 124 -75l14 63h120l-107 -483h-120l13 59q-52 -71 -124 -71q-68 0 -106.5 46t-38.5 131q0 72 24.5 145.5t77.5 129t123 55.5zM268 389q-53 0 -88 -68t-35 -136q0 -43 21 -67t57 -24q50 0 87 57l40 181q-10 25 -32 41t-50 16zM323 529q-38 0 -62.5 24.5
t-24.5 63.5q0 43 32 75t75 32q39 0 63 -24.5t24 -63.5q0 -44 -32 -75.5t-75 -31.5zM329 583q19 0 33.5 14t14.5 33q0 17 -11 28.5t-27 11.5q-19 0 -33.5 -14t-14.5 -34q0 -17 10.5 -28t27.5 -11z" />
    <glyph glyph-name="ae" unicode="&#xe6;" horiz-adv-x="781" 
d="M268 389q-53 0 -88 -68t-35 -136q0 -43 21 -67t57 -24q50 0 87 57l40 181q-10 25 -32 41t-50 16zM414 81l-18 -81h-120l13 59q-52 -71 -124 -71q-68 0 -106.5 46t-38.5 131q0 72 24.5 145.5t77.5 129t123 55.5q89 0 124 -75l14 63h120l-12 -56q54 68 126 68
q143 -2 143 -181q0 -53 -15 -111h-301q-2 -18 -2 -27q0 -34 28 -61.5t81 -27.5q56 0 100 39l39 -84q-63 -54 -136 -54q-110 0 -140 93zM459 285h189q3 15 3 30q0 36 -20.5 60t-59.5 24q-43 0 -73 -35t-39 -79z" />
    <glyph glyph-name="ccedilla" unicode="&#xe7;" horiz-adv-x="421" 
d="M170 -195q-68 0 -106 40l33 46q31 -34 73 -34q21 0 33.5 10.5t12.5 26.5q0 23 -26 23q-16 0 -27 -13l-38 25l39 66q-67 15 -104 65.5t-37 127.5t31.5 146.5t91 115t132.5 45.5q109 0 159 -72l-74 -79q-26 45 -81 45q-60 0 -98.5 -60.5t-38.5 -131.5q0 -50 27 -76.5
t69 -26.5q47 0 80 38l45 -87q-59 -57 -144 -57h-3l-25 -40q13 10 27 10q24 0 40 -16.5t16 -43.5q0 -41 -30.5 -67t-76.5 -26z" />
    <glyph glyph-name="egrave" unicode="&#xe8;" 
d="M230 -12q-97 0 -152.5 52.5t-55.5 147.5q0 71 29.5 140t89 118t133.5 49q85 0 134 -50.5t49 -139.5q0 -47 -15 -102h-302q-2 -18 -2 -27q0 -35 27.5 -63t79.5 -28q58 0 103 38l39 -78q-65 -57 -157 -57zM155 285h191q3 13 3 30q0 35 -22 59.5t-61 24.5q-43 0 -73 -35.5
t-38 -78.5zM372 556h-80l-102 144h107z" />
    <glyph glyph-name="eacute" unicode="&#xe9;" 
d="M511 700l-166 -144h-82l139 144h109zM230 -12q-97 0 -152.5 52.5t-55.5 147.5q0 71 29.5 140t89 118t133.5 49q85 0 134 -50.5t49 -139.5q0 -47 -15 -102h-302q-2 -18 -2 -27q0 -35 27.5 -63t79.5 -28q58 0 103 38l39 -78q-65 -57 -157 -57zM155 285h191q3 13 3 30
q0 35 -22 59.5t-61 24.5q-43 0 -73 -35.5t-38 -78.5z" />
    <glyph glyph-name="ecircumflex" unicode="&#xea;" 
d="M450 556h-68l-44 91l-81 -91h-72l109 144h108zM230 -12q-97 0 -152.5 52.5t-55.5 147.5q0 71 29.5 140t89 118t133.5 49q85 0 134 -50.5t49 -139.5q0 -47 -15 -102h-302q-2 -18 -2 -27q0 -35 27.5 -63t79.5 -28q58 0 103 38l39 -78q-65 -57 -157 -57zM155 285h191
q3 13 3 30q0 35 -22 59.5t-61 24.5q-43 0 -73 -35.5t-38 -78.5z" />
    <glyph glyph-name="edieresis" unicode="&#xeb;" 
d="M489 617q0 -28 -22.5 -50t-51.5 -22q-24 0 -40.5 16.5t-16.5 41.5q0 28 22 49.5t51 21.5q25 0 41.5 -16t16.5 -41zM302 617q0 -28 -22 -50t-51 -22q-25 0 -41.5 16.5t-16.5 41.5q0 28 22 49.5t51 21.5q25 0 41.5 -16t16.5 -41zM230 -12q-97 0 -152.5 52.5t-55.5 147.5
q0 71 29.5 140t89 118t133.5 49q85 0 134 -50.5t49 -139.5q0 -47 -15 -102h-302q-2 -18 -2 -27q0 -35 27.5 -63t79.5 -28q58 0 103 38l39 -78q-65 -57 -157 -57zM155 285h191q3 13 3 30q0 35 -22 59.5t-61 24.5q-43 0 -73 -35.5t-38 -78.5z" />
    <glyph glyph-name="igrave" unicode="&#xec;" horiz-adv-x="228" 
d="M120 0h-120l107 483h120zM237 556h-80l-102 144h107z" />
    <glyph glyph-name="iacute" unicode="&#xed;" horiz-adv-x="228" 
d="M375 700l-166 -144h-82l139 144h109zM120 0h-120l107 483h120z" />
    <glyph glyph-name="icircumflex" unicode="&#xee;" horiz-adv-x="228" 
d="M316 556h-68l-44 91l-81 -91h-72l109 144h108zM120 0h-120l107 483h120z" />
    <glyph glyph-name="idieresis" unicode="&#xef;" horiz-adv-x="228" 
d="M354 617q0 -28 -22.5 -50t-51.5 -22q-24 0 -40.5 16.5t-16.5 41.5q0 28 22 49.5t51 21.5q25 0 41.5 -16t16.5 -41zM167 617q0 -28 -22 -50t-51 -22q-25 0 -41.5 16.5t-16.5 41.5q0 28 22 49.5t51 21.5q25 0 41.5 -16t16.5 -41zM120 0h-120l107 483h120z" />
    <glyph glyph-name="eth" unicode="&#xf0;" horiz-adv-x="495" 
d="M173 492l-14 57l121 36q-16 25 -45 60l100 64q38 -44 67 -88l86 25l14 -55l-70 -21q51 -96 51 -203q0 -92 -27.5 -176t-88.5 -143.5t-144 -59.5q-96 0 -149.5 52t-53.5 139q0 107 63 195.5t157 88.5q47 0 80 -24.5t47 -69.5q-9 77 -56 164zM225 94q51 0 85 57t34 119
q0 35 -21.5 61t-63.5 26q-49 0 -82.5 -57.5t-33.5 -116.5q0 -89 82 -89z" />
    <glyph glyph-name="ntilde" unicode="&#xf1;" horiz-adv-x="500" 
d="M391 0h-120l70 316q4 24 4 26q0 47 -52 47q-51 0 -101 -61l-72 -328h-120l107 483h120l-14 -62q66 74 142 74q55 0 87.5 -27.5t32.5 -74.5q0 -3 -4 -35zM380 554q-22 0 -38 11t-22.5 24.5t-17 24.5t-23.5 11q-27 0 -41 -65h-64q28 134 112 134q23 0 38.5 -11t22.5 -24.5
t17.5 -24.5t23.5 -11q27 0 41 65h64q-28 -134 -113 -134z" />
    <glyph glyph-name="ograve" unicode="&#xf2;" horiz-adv-x="495" 
d="M220 -12q-94 0 -146 53.5t-52 144.5q0 117 71 213t181 96q94 0 146 -53.5t52 -144.5q0 -74 -30 -144t-89 -117.5t-133 -47.5zM225 94q53 0 88.5 67.5t35.5 133.5q0 94 -80 94q-53 0 -88.5 -67.5t-35.5 -133.5q0 -94 80 -94zM371 556h-80l-102 144h107z" />
    <glyph glyph-name="oacute" unicode="&#xf3;" horiz-adv-x="495" 
d="M509 700l-166 -144h-82l139 144h109zM220 -12q-94 0 -146 53.5t-52 144.5q0 117 71 213t181 96q94 0 146 -53.5t52 -144.5q0 -74 -30 -144t-89 -117.5t-133 -47.5zM225 94q53 0 88.5 67.5t35.5 133.5q0 94 -80 94q-53 0 -88.5 -67.5t-35.5 -133.5q0 -94 80 -94z" />
    <glyph glyph-name="ocircumflex" unicode="&#xf4;" horiz-adv-x="495" 
d="M450 556h-68l-44 91l-81 -91h-72l109 144h108zM220 -12q-94 0 -146 53.5t-52 144.5q0 117 71 213t181 96q94 0 146 -53.5t52 -144.5q0 -74 -30 -144t-89 -117.5t-133 -47.5zM225 94q53 0 88.5 67.5t35.5 133.5q0 94 -80 94q-53 0 -88.5 -67.5t-35.5 -133.5q0 -94 80 -94z
" />
    <glyph glyph-name="otilde" unicode="&#xf5;" horiz-adv-x="495" 
d="M220 -12q-94 0 -146 53.5t-52 144.5q0 117 71 213t181 96q94 0 146 -53.5t52 -144.5q0 -74 -30 -144t-89 -117.5t-133 -47.5zM225 94q53 0 88.5 67.5t35.5 133.5q0 94 -80 94q-53 0 -88.5 -67.5t-35.5 -133.5q0 -94 80 -94zM379 554q-22 0 -38 11t-22.5 24.5t-17 24.5
t-23.5 11q-27 0 -41 -65h-64q28 134 112 134q23 0 38.5 -11t22.5 -24.5t17.5 -24.5t23.5 -11q27 0 41 65h64q-28 -134 -113 -134z" />
    <glyph glyph-name="odieresis" unicode="&#xf6;" horiz-adv-x="495" 
d="M488 617q0 -28 -22.5 -50t-51.5 -22q-24 0 -40.5 16.5t-16.5 41.5q0 28 22 49.5t51 21.5q25 0 41.5 -16t16.5 -41zM301 617q0 -28 -22 -50t-51 -22q-25 0 -41.5 16.5t-16.5 41.5q0 28 22 49.5t51 21.5q25 0 41.5 -16t16.5 -41zM220 -12q-94 0 -146 53.5t-52 144.5
q0 117 71 213t181 96q94 0 146 -53.5t52 -144.5q0 -74 -30 -144t-89 -117.5t-133 -47.5zM225 94q53 0 88.5 67.5t35.5 133.5q0 94 -80 94q-53 0 -88.5 -67.5t-35.5 -133.5q0 -94 80 -94z" />
    <glyph glyph-name="divide" unicode="&#xf7;" horiz-adv-x="443" 
d="M426 300h-385l17 75h384zM200 115q-22 0 -38 15.5t-16 38.5q0 26 19.5 45t45.5 19q22 0 37.5 -16t15.5 -38q0 -26 -19 -45t-45 -19zM272 439q-22 0 -38 16t-16 38q0 26 19.5 45t45.5 19q22 0 37.5 -16t15.5 -38q0 -26 -19 -45t-45 -19z" />
    <glyph glyph-name="oslash" unicode="&#xf8;" horiz-adv-x="495" 
d="M56 0h-75l69 73q-28 46 -28 113q0 117 71 213t181 96q82 0 133 -42l29 30h75l-68 -72q29 -47 29 -114q0 -74 -30 -144t-89 -117.5t-133 -47.5q-84 0 -135 43zM225 94q53 0 88.5 67.5t35.5 133.5q0 10 -1 15l-182 -193q20 -23 59 -23zM145 188v-14l181 193q-20 22 -57 22
q-53 0 -88.5 -67.5t-35.5 -133.5z" />
    <glyph glyph-name="ugrave" unicode="&#xf9;" horiz-adv-x="499" 
d="M107 483h120l-70 -317q-4 -18 -4 -25q0 -23 15.5 -35t40.5 -12q48 0 96 60l73 329h120l-107 -483h-120l14 62q-64 -74 -141 -74q-56 0 -88.5 27.5t-32.5 74.5q0 15 5 35zM373 556h-80l-102 144h107z" />
    <glyph glyph-name="uacute" unicode="&#xfa;" horiz-adv-x="499" 
d="M511 700l-166 -144h-82l139 144h109zM107 483h120l-70 -317q-4 -18 -4 -25q0 -23 15.5 -35t40.5 -12q48 0 96 60l73 329h120l-107 -483h-120l14 62q-64 -74 -141 -74q-56 0 -88.5 27.5t-32.5 74.5q0 15 5 35z" />
    <glyph glyph-name="ucircumflex" unicode="&#xfb;" horiz-adv-x="499" 
d="M451 556h-68l-44 91l-81 -91h-72l109 144h108zM107 483h120l-70 -317q-4 -18 -4 -25q0 -23 15.5 -35t40.5 -12q48 0 96 60l73 329h120l-107 -483h-120l14 62q-64 -74 -141 -74q-56 0 -88.5 27.5t-32.5 74.5q0 15 5 35z" />
    <glyph glyph-name="udieresis" unicode="&#xfc;" horiz-adv-x="499" 
d="M490 617q0 -28 -22.5 -50t-51.5 -22q-24 0 -40.5 16.5t-16.5 41.5q0 28 22 49.5t51 21.5q25 0 41.5 -16t16.5 -41zM303 617q0 -28 -22 -50t-51 -22q-25 0 -41.5 16.5t-16.5 41.5q0 28 22 49.5t51 21.5q25 0 41.5 -16t16.5 -41zM107 483h120l-70 -317q-4 -18 -4 -25
q0 -23 15.5 -35t40.5 -12q48 0 96 60l73 329h120l-107 -483h-120l14 62q-64 -74 -141 -74q-56 0 -88.5 27.5t-32.5 74.5q0 15 5 35z" />
    <glyph glyph-name="yacute" unicode="&#xfd;" horiz-adv-x="447" 
d="M-51 -184l39 102q11 -7 36 -7q31 0 51 34l28 50l-52 488h124l22 -338l174 338h131l-315 -565q-36 -64 -73 -89t-90 -25q-44 0 -75 12zM481 700l-166 -144h-82l139 144h109z" />
    <glyph glyph-name="thorn" unicode="&#xfe;" horiz-adv-x="503" 
d="M259 -12q-91 0 -125 75l-55 -247h-119l187 851h120l-53 -243q52 71 124 71q68 0 106.5 -46t38.5 -131q0 -72 -24.5 -145.5t-77.5 -129t-122 -55.5zM235 94q53 0 88 68t35 135q0 43 -21 67.5t-56 24.5q-50 0 -88 -58l-40 -180q10 -25 32 -41t50 -16z" />
    <glyph glyph-name="ydieresis" unicode="&#xff;" horiz-adv-x="447" 
d="M-51 -184l39 102q11 -7 36 -7q31 0 51 34l28 50l-52 488h124l22 -338l174 338h131l-315 -565q-36 -64 -73 -89t-90 -25q-44 0 -75 12zM460 617q0 -28 -22.5 -50t-51.5 -22q-24 0 -40.5 16.5t-16.5 41.5q0 28 22 49.5t51 21.5q25 0 41.5 -16t16.5 -41zM273 617
q0 -28 -22 -50t-51 -22q-25 0 -41.5 16.5t-16.5 41.5q0 28 22 49.5t51 21.5q25 0 41.5 -16t16.5 -41z" />
    <glyph glyph-name="Amacron" unicode="&#x100;" horiz-adv-x="554" 
d="M502 0h-140l-5 118h-206l-56 -118h-151l345 667h162zM355 236l-11 290l-140 -290h151zM539 730h-309l15 69h309z" />
    <glyph glyph-name="amacron" unicode="&#x101;" horiz-adv-x="504" 
d="M245 495q89 0 124 -75l14 63h120l-107 -483h-120l13 59q-52 -71 -124 -71q-68 0 -106.5 46t-38.5 131q0 72 24.5 145.5t77.5 129t123 55.5zM268 389q-53 0 -88 -68t-35 -136q0 -43 21 -67t57 -24q50 0 87 57l40 181q-10 25 -32 41t-50 16zM474 563h-309l15 69h309z" />
    <glyph glyph-name="Abreve" unicode="&#x102;" horiz-adv-x="554" 
d="M502 0h-140l-5 118h-206l-56 -118h-151l345 667h162zM355 236l-11 290l-140 -290h151zM542 780q-73 -75 -166 -75t-134 75l61 44q25 -50 85 -50t105 50z" />
    <glyph glyph-name="abreve" unicode="&#x103;" horiz-adv-x="504" 
d="M245 495q89 0 124 -75l14 63h120l-107 -483h-120l13 59q-52 -71 -124 -71q-68 0 -106.5 46t-38.5 131q0 72 24.5 145.5t77.5 129t123 55.5zM268 389q-53 0 -88 -68t-35 -136q0 -43 21 -67t57 -24q50 0 87 57l40 181q-10 25 -32 41t-50 16zM477 613q-73 -75 -166 -75
t-134 75l61 44q25 -50 85 -50t105 50z" />
    <glyph glyph-name="Aogonek" unicode="&#x104;" horiz-adv-x="554" 
d="M481 -104l42 -33q-33 -49 -86 -49q-36 0 -59.5 18t-23.5 52q0 65 63 116h-55l-5 118h-206l-56 -118h-151l345 667h162l51 -667q-88 -47 -88 -108q0 -27 28 -27q24 0 39 31zM355 236l-11 290l-140 -290h151z" />
    <glyph glyph-name="aogonek" unicode="&#x105;" horiz-adv-x="504" 
d="M375 -104l42 -33q-33 -49 -86 -49q-36 0 -59.5 18t-23.5 52q0 65 63 116h-35l13 59q-52 -71 -124 -71q-68 0 -106.5 46t-38.5 131q0 72 24.5 145.5t77.5 129t123 55.5q89 0 124 -75l14 63h120l-107 -483q-88 -47 -88 -108q0 -27 28 -27q24 0 39 31zM268 389
q-53 0 -88 -68t-35 -136q0 -43 21 -67t57 -24q50 0 87 57l40 181q-10 25 -32 41t-50 16z" />
    <glyph glyph-name="Cacute" unicode="&#x106;" horiz-adv-x="558" 
d="M610 872l-166 -144h-82l139 144h109zM287 -12q-111 0 -180.5 69t-69.5 186q0 109 40 207.5t118.5 163t177.5 64.5q97 0 153.5 -54t75.5 -136l-127 -34q-12 49 -40 77t-70 28q-52 0 -97 -48.5t-69 -120.5t-24 -144q0 -64 32 -101.5t88 -37.5q68 0 120 79l105 -58
q-88 -140 -233 -140z" />
    <glyph glyph-name="cacute" unicode="&#x107;" horiz-adv-x="421" 
d="M515 700l-166 -144h-82l139 144h109zM222 -12q-91 0 -145 53.5t-54 146.5q0 77 31.5 146.5t91 115t132.5 45.5q109 0 159 -72l-74 -79q-26 45 -81 45q-60 0 -98.5 -60.5t-38.5 -131.5q0 -50 27 -76.5t69 -26.5q47 0 80 38l45 -87q-59 -57 -144 -57z" />
    <glyph glyph-name="Ccircumflex" unicode="&#x108;" horiz-adv-x="558" 
d="M550 723h-68l-44 91l-81 -91h-72l109 144h108zM287 -12q-111 0 -180.5 69t-69.5 186q0 109 40 207.5t118.5 163t177.5 64.5q97 0 153.5 -54t75.5 -136l-127 -34q-12 49 -40 77t-70 28q-52 0 -97 -48.5t-69 -120.5t-24 -144q0 -64 32 -101.5t88 -37.5q68 0 120 79l105 -58
q-88 -140 -233 -140z" />
    <glyph glyph-name="ccircumflex" unicode="&#x109;" horiz-adv-x="421" 
d="M455 556h-68l-44 91l-81 -91h-72l109 144h108zM222 -12q-91 0 -145 53.5t-54 146.5q0 77 31.5 146.5t91 115t132.5 45.5q109 0 159 -72l-74 -79q-26 45 -81 45q-60 0 -98.5 -60.5t-38.5 -131.5q0 -50 27 -76.5t69 -26.5q47 0 80 38l45 -87q-59 -57 -144 -57z" />
    <glyph glyph-name="Cdotaccent" unicode="&#x10a;" horiz-adv-x="558" 
d="M287 -12q-111 0 -180.5 69t-69.5 186q0 109 40 207.5t118.5 163t177.5 64.5q97 0 153.5 -54t75.5 -136l-127 -34q-12 49 -40 77t-70 28q-52 0 -97 -48.5t-69 -120.5t-24 -144q0 -64 32 -101.5t88 -37.5q68 0 120 79l105 -58q-88 -140 -233 -140zM495 784
q0 -29 -22.5 -50.5t-51.5 -21.5q-25 0 -41.5 16t-16.5 41q0 29 22.5 51t51.5 22q25 0 41.5 -16.5t16.5 -41.5z" />
    <glyph glyph-name="cdotaccent" unicode="&#x10b;" horiz-adv-x="421" 
d="M222 -12q-91 0 -145 53.5t-54 146.5q0 77 31.5 146.5t91 115t132.5 45.5q109 0 159 -72l-74 -79q-26 45 -81 45q-60 0 -98.5 -60.5t-38.5 -131.5q0 -50 27 -76.5t69 -26.5q47 0 80 38l45 -87q-59 -57 -144 -57zM401 617q0 -29 -22.5 -50.5t-51.5 -21.5q-25 0 -41.5 16
t-16.5 41q0 29 22.5 51t51.5 22q25 0 41.5 -16.5t16.5 -41.5z" />
    <glyph glyph-name="Ccaron" unicode="&#x10c;" horiz-adv-x="558" 
d="M473 723h-108l-48 144h68l44 -91l81 91h72zM287 -12q-111 0 -180.5 69t-69.5 186q0 109 40 207.5t118.5 163t177.5 64.5q97 0 153.5 -54t75.5 -136l-127 -34q-12 49 -40 77t-70 28q-52 0 -97 -48.5t-69 -120.5t-24 -144q0 -64 32 -101.5t88 -37.5q68 0 120 79l105 -58
q-88 -140 -233 -140z" />
    <glyph glyph-name="ccaron" unicode="&#x10d;" horiz-adv-x="421" 
d="M378 556h-108l-48 144h68l44 -91l81 91h72zM222 -12q-91 0 -145 53.5t-54 146.5q0 77 31.5 146.5t91 115t132.5 45.5q109 0 159 -72l-74 -79q-26 45 -81 45q-60 0 -98.5 -60.5t-38.5 -131.5q0 -50 27 -76.5t69 -26.5q47 0 80 38l45 -87q-59 -57 -144 -57z" />
    <glyph glyph-name="Dcaron" unicode="&#x10e;" horiz-adv-x="597" 
d="M466 723h-108l-48 144h68l44 -91l81 91h72zM220 0h-215l147 667h210q93 0 161.5 -69t68.5 -183q0 -55 -11.5 -110t-39.5 -111t-69 -98.5t-106.5 -69t-145.5 -26.5zM165 118h78q66 0 115.5 47.5t72 112.5t22.5 132q0 64 -32.5 101.5t-83.5 37.5h-77z" />
    <glyph glyph-name="dcaron" unicode="&#x10f;" horiz-adv-x="613" 
d="M697 617q0 -44 -33.5 -89.5t-82.5 -69.5l-34 36q61 29 79 71h-9q-19 0 -32.5 13.5t-13.5 35.5q0 27 20.5 46.5t46.5 19.5q25 0 42 -17t17 -46zM245 495q89 0 124 -75l55 247h120l-148 -667h-120l13 59q-52 -71 -124 -71q-68 0 -106.5 46t-38.5 131q0 72 24.5 145.5
t77.5 129t123 55.5zM268 389q-53 0 -88 -68t-35 -136q0 -43 21 -67t57 -24q50 0 87 57l40 181q-10 25 -32 41t-50 16z" />
    <glyph glyph-name="Dcroat" unicode="&#x110;" horiz-adv-x="620" 
d="M244 0h-215l61 280h-70l24 107h70l62 280h210q93 0 161.5 -69t68.5 -183q0 -55 -11.5 -110t-39.5 -111t-69 -98.5t-106.5 -69t-145.5 -26.5zM333 280h-109l-35 -162h78q66 0 115.5 47.5t72 112.5t22.5 132q0 64 -32.5 101.5t-83.5 37.5h-77l-36 -162h109z" />
    <glyph glyph-name="dcroat" unicode="&#x111;" horiz-adv-x="508" 
d="M245 495q89 0 124 -75l24 110h-134l15 69h135l15 68h120l-15 -68h48l-15 -69h-49l-117 -530h-120l13 59q-52 -71 -124 -71q-68 0 -106.5 46t-38.5 131q0 72 24.5 145.5t77.5 129t123 55.5zM268 389q-53 0 -88 -68t-35 -136q0 -43 21 -67t57 -24q50 0 87 57l40 181
q-10 25 -32 41t-50 16z" />
    <glyph glyph-name="Emacron" unicode="&#x112;" horiz-adv-x="481" 
d="M387 0h-382l147 667h382l-26 -118h-248l-33 -151h241l-27 -118h-240l-36 -162h248zM511 730h-309l15 69h309z" />
    <glyph glyph-name="emacron" unicode="&#x113;" 
d="M230 -12q-97 0 -152.5 52.5t-55.5 147.5q0 71 29.5 140t89 118t133.5 49q85 0 134 -50.5t49 -139.5q0 -47 -15 -102h-302q-2 -18 -2 -27q0 -35 27.5 -63t79.5 -28q58 0 103 38l39 -78q-65 -57 -157 -57zM155 285h191q3 13 3 30q0 35 -22 59.5t-61 24.5q-43 0 -73 -35.5
t-38 -78.5zM475 563h-309l15 69h309z" />
    <glyph glyph-name="Ebreve" unicode="&#x114;" horiz-adv-x="481" 
d="M387 0h-382l147 667h382l-26 -118h-248l-33 -151h241l-27 -118h-240l-36 -162h248zM515 780q-73 -75 -166 -75t-134 75l61 44q25 -50 85 -50t105 50z" />
    <glyph glyph-name="ebreve" unicode="&#x115;" 
d="M230 -12q-97 0 -152.5 52.5t-55.5 147.5q0 71 29.5 140t89 118t133.5 49q85 0 134 -50.5t49 -139.5q0 -47 -15 -102h-302q-2 -18 -2 -27q0 -35 27.5 -63t79.5 -28q58 0 103 38l39 -78q-65 -57 -157 -57zM155 285h191q3 13 3 30q0 35 -22 59.5t-61 24.5q-43 0 -73 -35.5
t-38 -78.5zM478 613q-73 -75 -166 -75t-134 75l61 44q25 -50 85 -50t105 50z" />
    <glyph glyph-name="Edotaccent" unicode="&#x116;" horiz-adv-x="481" 
d="M387 0h-382l147 667h382l-26 -118h-248l-33 -151h241l-27 -118h-240l-36 -162h248zM435 789q0 -29 -22.5 -50.5t-51.5 -21.5q-25 0 -41.5 16t-16.5 41q0 29 22.5 51t51.5 22q25 0 41.5 -16.5t16.5 -41.5z" />
    <glyph glyph-name="edotaccent" unicode="&#x117;" 
d="M230 -12q-97 0 -152.5 52.5t-55.5 147.5q0 71 29.5 140t89 118t133.5 49q85 0 134 -50.5t49 -139.5q0 -47 -15 -102h-302q-2 -18 -2 -27q0 -35 27.5 -63t79.5 -28q58 0 103 38l39 -78q-65 -57 -157 -57zM155 285h191q3 13 3 30q0 35 -22 59.5t-61 24.5q-43 0 -73 -35.5
t-38 -78.5zM396 617q0 -29 -22.5 -50.5t-51.5 -21.5q-25 0 -41.5 16t-16.5 41q0 29 22.5 51t51.5 22q25 0 41.5 -16.5t16.5 -41.5z" />
    <glyph glyph-name="Eogonek" unicode="&#x118;" horiz-adv-x="481" 
d="M387 0q-88 -47 -88 -108q0 -27 28 -27q23 0 39 31l42 -33q-33 -49 -86 -49q-36 0 -59.5 18t-23.5 52q0 65 63 116h-297l147 667h382l-26 -118h-248l-33 -151h241l-27 -118h-240l-36 -162h248z" />
    <glyph glyph-name="eogonek" unicode="&#x119;" 
d="M285 -104l42 -33q-33 -49 -86 -49q-36 0 -59.5 18t-23.5 52q0 56 50 105q-87 6 -136.5 58t-49.5 141q0 71 29.5 140t89 118t133.5 49q85 0 134 -50.5t49 -139.5q0 -47 -15 -102h-302q-2 -18 -2 -27q0 -35 27.5 -63t79.5 -28q58 0 103 38l39 -78q-36 -32 -81 -45
q-88 -47 -88 -108q0 -27 28 -27q24 0 39 31zM155 285h191q3 13 3 30q0 35 -22 59.5t-61 24.5q-43 0 -73 -35.5t-38 -78.5z" />
    <glyph glyph-name="Ecaron" unicode="&#x11a;" horiz-adv-x="481" 
d="M411 723h-108l-48 144h68l44 -91l81 91h72zM387 0h-382l147 667h382l-26 -118h-248l-33 -151h241l-27 -118h-240l-36 -162h248z" />
    <glyph glyph-name="ecaron" unicode="&#x11b;" 
d="M374 556h-108l-48 144h68l44 -91l81 91h72zM230 -12q-97 0 -152.5 52.5t-55.5 147.5q0 71 29.5 140t89 118t133.5 49q85 0 134 -50.5t49 -139.5q0 -47 -15 -102h-302q-2 -18 -2 -27q0 -35 27.5 -63t79.5 -28q58 0 103 38l39 -78q-65 -57 -157 -57zM155 285h191q3 13 3 30
q0 35 -22 59.5t-61 24.5q-43 0 -73 -35.5t-38 -78.5z" />
    <glyph glyph-name="Gcircumflex" unicode="&#x11c;" horiz-adv-x="586" 
d="M554 723h-68l-44 91l-81 -91h-72l109 144h108zM287 -12q-112 0 -181 69t-69 186q0 111 40 209t119.5 162t182.5 64q90 0 144 -48.5t71 -121.5l-118 -41q-10 40 -39.5 66t-71.5 26q-51 0 -96 -47.5t-69.5 -119t-24.5 -146.5q0 -65 31.5 -102t88.5 -37q53 0 100 47l21 94
h-126l27 118h252l-58 -262q-88 -116 -224 -116z" />
    <glyph glyph-name="gcircumflex" unicode="&#x11d;" horiz-adv-x="504" 
d="M443 548h-68l-44 91l-81 -91h-72l109 144h108zM166 -196q-129 0 -195 72l66 86q19 -27 53.5 -42t72.5 -15q91 0 116 115l14 56q-51 -72 -126 -72q-66 0 -106 43t-40 129q0 71 23.5 142t76 124t122.5 53q37 0 73 -20.5t52 -54.5l15 63h119l-102 -458q-48 -221 -234 -221z
M225 111q49 0 87 56l37 163q-12 26 -35 42.5t-51 16.5q-51 0 -84 -62t-33 -128q0 -43 21 -65.5t58 -22.5z" />
    <glyph glyph-name="Gbreve" unicode="&#x11e;" horiz-adv-x="586" 
d="M287 -12q-112 0 -181 69t-69 186q0 111 40 209t119.5 162t182.5 64q90 0 144 -48.5t71 -121.5l-118 -41q-10 40 -39.5 66t-71.5 26q-51 0 -96 -47.5t-69.5 -119t-24.5 -146.5q0 -65 31.5 -102t88.5 -37q53 0 100 47l21 94h-126l27 118h252l-58 -262q-88 -116 -224 -116z
M580 780q-73 -75 -166 -75t-134 75l61 44q25 -50 85 -50t105 50z" />
    <glyph glyph-name="gbreve" unicode="&#x11f;" horiz-adv-x="504" 
d="M166 -196q-129 0 -195 72l66 86q19 -27 53.5 -42t72.5 -15q91 0 116 115l14 56q-51 -72 -126 -72q-66 0 -106 43t-40 129q0 71 23.5 142t76 124t122.5 53q37 0 73 -20.5t52 -54.5l15 63h119l-102 -458q-48 -221 -234 -221zM225 111q49 0 87 56l37 163q-12 26 -35 42.5
t-51 16.5q-51 0 -84 -62t-33 -128q0 -43 21 -65.5t58 -22.5zM473 613q-73 -75 -166 -75t-134 75l61 44q25 -50 85 -50t105 50z" />
    <glyph glyph-name="Gdotaccent" unicode="&#x120;" horiz-adv-x="586" 
d="M287 -12q-112 0 -181 69t-69 186q0 111 40 209t119.5 162t182.5 64q90 0 144 -48.5t71 -121.5l-118 -41q-10 40 -39.5 66t-71.5 26q-51 0 -96 -47.5t-69.5 -119t-24.5 -146.5q0 -65 31.5 -102t88.5 -37q53 0 100 47l21 94h-126l27 118h252l-58 -262q-88 -116 -224 -116z
M498 784q0 -29 -22.5 -50.5t-51.5 -21.5q-25 0 -41.5 16t-16.5 41q0 29 22.5 51t51.5 22q25 0 41.5 -16.5t16.5 -41.5z" />
    <glyph glyph-name="gdotaccent" unicode="&#x121;" horiz-adv-x="504" 
d="M166 -196q-129 0 -195 72l66 86q19 -27 53.5 -42t72.5 -15q91 0 116 115l14 56q-51 -72 -126 -72q-66 0 -106 43t-40 129q0 71 23.5 142t76 124t122.5 53q37 0 73 -20.5t52 -54.5l15 63h119l-102 -458q-48 -221 -234 -221zM225 111q49 0 87 56l37 163q-12 26 -35 42.5
t-51 16.5q-51 0 -84 -62t-33 -128q0 -43 21 -65.5t58 -22.5zM392 617q0 -29 -22.5 -50.5t-51.5 -21.5q-25 0 -41.5 16t-16.5 41q0 29 22.5 51t51.5 22q25 0 41.5 -16.5t16.5 -41.5z" />
    <glyph glyph-name="Gcommaaccent" unicode="&#x122;" horiz-adv-x="586" 
d="M295 -121q0 -44 -33.5 -89.5t-82.5 -69.5l-34 36q61 29 79 71h-9q-19 0 -32.5 13.5t-13.5 35.5q0 27 20.5 46.5t46.5 19.5q25 0 42 -17t17 -46zM287 -12q-112 0 -181 69t-69 186q0 111 40 209t119.5 162t182.5 64q90 0 144 -48.5t71 -121.5l-118 -41q-10 40 -39.5 66
t-71.5 26q-51 0 -96 -47.5t-69.5 -119t-24.5 -146.5q0 -65 31.5 -102t88.5 -37q53 0 100 47l21 94h-126l27 118h252l-58 -262q-88 -116 -224 -116z" />
    <glyph glyph-name="gcommaaccent" unicode="&#x123;" horiz-adv-x="504" 
d="M263 608q0 45 34 90.5t83 70.5l35 -36q-26 -12 -49 -32t-31 -40h8q20 0 34 -13.5t14 -36.5q0 -27 -21 -46.5t-47 -19.5q-25 0 -42.5 16.5t-17.5 46.5zM166 -196q-129 0 -195 72l66 86q19 -27 53.5 -42t72.5 -15q91 0 116 115l14 56q-51 -72 -126 -72q-66 0 -106 43
t-40 129q0 71 23.5 142t76 124t122.5 53q37 0 73 -20.5t52 -54.5l15 63h119l-102 -458q-48 -221 -234 -221zM225 111q49 0 87 56l37 163q-12 26 -35 42.5t-51 16.5q-51 0 -84 -62t-33 -128q0 -43 21 -65.5t58 -22.5z" />
    <glyph glyph-name="Hcircumflex" unicode="&#x124;" horiz-adv-x="608" 
d="M542 723h-68l-44 91l-81 -91h-72l109 144h108zM495 0h-135l63 284h-221l-63 -284h-134l147 667h134l-58 -265h221l58 265h135z" />
    <glyph glyph-name="hcircumflex" unicode="&#x125;" horiz-adv-x="500" 
d="M490 723h-68l-44 91l-81 -91h-72l109 144h108zM392 0h-120l69 317q4 10 4 25q0 47 -56 47q-47 0 -97 -61l-71 -328h-121l147 667h121l-55 -246q66 74 142 74q55 0 87.5 -28t32.5 -74q0 -15 -4 -35z" />
    <glyph glyph-name="Hbar" unicode="&#x126;" horiz-adv-x="626" 
d="M504 0h-135l63 284h-221l-63 -284h-134l110 501h-58l16 69h57l22 97h134l-22 -97h221l22 97h135l-22 -97h57l-15 -69h-57zM237 402h221l21 99h-221z" />
    <glyph glyph-name="hbar" unicode="&#x127;" horiz-adv-x="502" 
d="M394 0h-120l69 317q4 10 4 25q0 47 -56 47q-47 0 -97 -61l-71 -328h-121l116 529h-48l15 69h48l16 69h121l-16 -69h132l-15 -69h-132l-24 -108q66 74 142 74q55 0 87.5 -28t32.5 -74q0 -15 -4 -35z" />
    <glyph glyph-name="Itilde" unicode="&#x128;" horiz-adv-x="252" 
d="M139 0h-134l147 667h134zM294 721q-22 0 -38 11t-22.5 24.5t-17 24.5t-23.5 11q-27 0 -41 -65h-64q28 134 112 134q23 0 38.5 -11t22.5 -24.5t17.5 -24.5t23.5 -11q27 0 41 65h64q-28 -134 -113 -134z" />
    <glyph glyph-name="itilde" unicode="&#x129;" horiz-adv-x="228" 
d="M120 0h-120l107 483h120zM245 554q-22 0 -38 11t-22.5 24.5t-17 24.5t-23.5 11q-27 0 -41 -65h-64q28 134 112 134q23 0 38.5 -11t22.5 -24.5t17.5 -24.5t23.5 -11q27 0 41 65h64q-28 -134 -113 -134z" />
    <glyph glyph-name="Imacron" unicode="&#x12a;" horiz-adv-x="252" 
d="M139 0h-134l147 667h134zM388 730h-309l15 69h309z" />
    <glyph glyph-name="imacron" unicode="&#x12b;" horiz-adv-x="228" 
d="M120 0h-120l107 483h120zM340 563h-309l15 69h309z" />
    <glyph glyph-name="Ibreve" unicode="&#x12c;" horiz-adv-x="252" 
d="M139 0h-134l147 667h134zM391 780q-73 -75 -166 -75t-134 75l61 44q25 -50 85 -50t105 50z" />
    <glyph glyph-name="ibreve" unicode="&#x12d;" horiz-adv-x="228" 
d="M120 0h-120l107 483h120zM344 613q-73 -75 -166 -75t-134 75l61 44q25 -50 85 -50t105 50z" />
    <glyph glyph-name="Iogonek" unicode="&#x12e;" horiz-adv-x="252" 
d="M118 -104l42 -33q-33 -49 -86 -49q-36 0 -59.5 18t-23.5 52q0 65 63 116h-49l147 667h134l-147 -667q-88 -47 -88 -108q0 -27 28 -27q23 0 39 31z" />
    <glyph glyph-name="iogonek" unicode="&#x12f;" horiz-adv-x="228" 
d="M99 -104l42 -33q-33 -49 -86 -49q-36 0 -59.5 18t-23.5 52q0 64 63 116h-35l107 483h120l-107 -483q-88 -47 -88 -108q0 -27 28 -27q24 0 39 31zM186 537q-28 0 -46.5 18t-18.5 44q0 37 25.5 60t56.5 23q27 0 46 -18.5t19 -43.5q0 -37 -25.5 -60t-56.5 -23z" />
    <glyph glyph-name="Idotaccent" unicode="&#x130;" horiz-adv-x="252" 
d="M139 0h-134l147 667h134zM310 784q0 -29 -22.5 -50.5t-51.5 -21.5q-25 0 -41.5 16t-16.5 41q0 29 22.5 51t51.5 22q25 0 41.5 -16.5t16.5 -41.5z" />
    <glyph glyph-name="dotlessi" unicode="&#x131;" horiz-adv-x="228" 
d="M120 0h-120l107 483h120z" />
    <glyph glyph-name="IJ" unicode="&#x132;" horiz-adv-x="669" 
d="M139 0h-134l147 667h134zM378 -12q-106 0 -159 59l64 103q29 -43 84 -43q79 0 99 90l104 470h134l-105 -474q-23 -106 -76.5 -155.5t-144.5 -49.5z" />
    <glyph glyph-name="ij" unicode="&#x133;" horiz-adv-x="457" 
d="M186 537q-28 0 -46.5 18t-18.5 44q0 37 25.5 60t56.5 23q27 0 46 -18.5t19 -43.5q0 -37 -25.5 -60t-56.5 -23zM120 0h-120l107 483h120zM174 -196q-71 0 -104 34l48 87q15 -20 43 -20q46 0 60 67l114 511h120l-114 -511q-18 -84 -56.5 -126t-110.5 -42zM414 537
q-28 0 -46.5 18t-18.5 44q0 37 25.5 60t56.5 23q27 0 46 -18.5t19 -43.5q0 -37 -25.5 -60t-56.5 -23z" />
    <glyph glyph-name="Jcircumflex" unicode="&#x134;" horiz-adv-x="417" 
d="M530 723h-68l-44 91l-81 -91h-72l109 144h108zM126 -12q-106 0 -159 59l64 103q29 -43 84 -43q79 0 99 90l104 470h134l-105 -474q-23 -106 -76.5 -155.5t-144.5 -49.5z" />
    <glyph glyph-name="jcircumflex" unicode="&#x135;" horiz-adv-x="228" 
d="M317 556h-68l-44 91l-81 -91h-72l109 144h108zM-54 -196q-71 0 -104 34l48 87q15 -20 43 -20q46 0 60 67l114 511h120l-114 -511q-18 -84 -56.5 -126t-110.5 -42z" />
    <glyph glyph-name="Kcommaaccent" unicode="&#x136;" horiz-adv-x="553" 
d="M274 -121q0 -44 -33.5 -89.5t-82.5 -69.5l-34 36q61 29 79 71h-9q-19 0 -32.5 13.5t-13.5 35.5q0 27 20.5 46.5t46.5 19.5q25 0 42 -17t17 -46zM498 0h-150l-102 265l-66 -78l-41 -187h-134l147 667h134l-63 -289l243 289h164l-282 -314z" />
    <glyph glyph-name="kcommaaccent" unicode="&#x137;" horiz-adv-x="469" 
d="M226 -121q0 -44 -33.5 -89.5t-82.5 -69.5l-34 36q61 29 79 71h-9q-19 0 -32.5 13.5t-13.5 35.5q0 27 20.5 46.5t46.5 19.5q25 0 42 -17t17 -46zM412 0h-137l-60 192l-69 -74l-26 -118h-120l147 667h120l-87 -396l190 212h144l-201 -217z" />
    <glyph glyph-name="kgreenlandic" unicode="&#x138;" horiz-adv-x="469" 
d="M412 0h-137l-60 192l-69 -74l-26 -118h-120l107 483h120l-47 -212l190 212h144l-201 -217z" />
    <glyph glyph-name="Lacute" unicode="&#x139;" horiz-adv-x="444" 
d="M535 867l-166 -144h-82l139 144h109zM363 0h-358l147 667h134l-121 -549h224z" />
    <glyph glyph-name="lacute" unicode="&#x13a;" horiz-adv-x="228" 
d="M413 867l-166 -144h-82l139 144h109zM120 0h-120l147 667h120z" />
    <glyph glyph-name="Lcommaaccent" unicode="&#x13b;" horiz-adv-x="444" 
d="M220 -121q0 -44 -33.5 -89.5t-82.5 -69.5l-34 36q61 29 79 71h-9q-19 0 -32.5 13.5t-13.5 35.5q0 27 20.5 46.5t46.5 19.5q25 0 42 -17t17 -46zM363 0h-358l147 667h134l-121 -549h224z" />
    <glyph glyph-name="lcommaaccent" unicode="&#x13c;" horiz-adv-x="228" 
d="M94 -121q0 -44 -33.5 -89.5t-82.5 -69.5l-34 36q61 29 79 71h-9q-19 0 -32.5 13.5t-13.5 35.5q0 27 20.5 46.5t46.5 19.5q25 0 42 -17t17 -46zM120 0h-120l147 667h120z" />
    <glyph glyph-name="Lcaron" unicode="&#x13d;" horiz-adv-x="444" 
d="M464 618q0 -44 -33.5 -89.5t-82.5 -69.5l-34 36q61 29 79 71h-9q-19 0 -32.5 13.5t-13.5 35.5q0 27 20.5 46.5t46.5 19.5q25 0 42 -17t17 -46zM363 0h-358l147 667h134l-121 -549h224z" />
    <glyph glyph-name="lcaron" unicode="&#x13e;" horiz-adv-x="335" 
d="M433 618q0 -44 -33.5 -89.5t-82.5 -69.5l-34 36q61 29 79 71h-9q-19 0 -32.5 13.5t-13.5 35.5q0 27 20.5 46.5t46.5 19.5q25 0 42 -17t17 -46zM120 0h-120l147 667h120z" />
    <glyph glyph-name="Ldot" unicode="&#x13f;" horiz-adv-x="485" 
d="M363 0h-358l147 667h134l-121 -549h224zM383 264q-30 0 -50.5 21t-20.5 50q0 35 25 60t60 25q29 0 49.5 -21.5t20.5 -50.5q0 -34 -24.5 -59t-59.5 -25z" />
    <glyph glyph-name="ldot" unicode="&#x140;" horiz-adv-x="371" 
d="M120 0h-120l147 667h120zM292 167q-30 0 -50.5 21t-20.5 50q0 34 25.5 59.5t59.5 25.5q29 0 49.5 -21.5t20.5 -50.5q0 -35 -25 -59.5t-59 -24.5z" />
    <glyph glyph-name="Lslash" unicode="&#x141;" horiz-adv-x="458" 
d="M6 205l25 110l66 34l70 318h134l-53 -240l76 39l-24 -111l-77 -39l-43 -198h224l-26 -118h-358l52 239z" />
    <glyph glyph-name="lslash" unicode="&#x142;" horiz-adv-x="275" 
d="M6 219l20 89l73 37l71 322h120l-56 -254l74 38l-20 -88l-73 -38l-72 -325h-120l56 256z" />
    <glyph glyph-name="Nacute" unicode="&#x143;" horiz-adv-x="606" 
d="M602 867l-166 -144h-82l139 144h109zM494 0h-128l-137 410l-90 -410h-134l147 667h136l131 -395l87 395h135z" />
    <glyph glyph-name="nacute" unicode="&#x144;" horiz-adv-x="500" 
d="M510 700l-166 -144h-82l139 144h109zM391 0h-120l70 316q4 24 4 26q0 47 -52 47q-51 0 -101 -61l-72 -328h-120l107 483h120l-14 -62q66 74 142 74q55 0 87.5 -27.5t32.5 -74.5q0 -3 -4 -35z" />
    <glyph glyph-name="Ncommaaccent" unicode="&#x145;" horiz-adv-x="606" 
d="M285 -121q0 -44 -33.5 -89.5t-82.5 -69.5l-34 36q61 29 79 71h-9q-19 0 -32.5 13.5t-13.5 35.5q0 27 20.5 46.5t46.5 19.5q25 0 42 -17t17 -46zM494 0h-128l-137 410l-90 -410h-134l147 667h136l131 -395l87 395h135z" />
    <glyph glyph-name="ncommaaccent" unicode="&#x146;" horiz-adv-x="500" 
d="M229 -121q0 -44 -33.5 -89.5t-82.5 -69.5l-34 36q61 29 79 71h-9q-19 0 -32.5 13.5t-13.5 35.5q0 27 20.5 46.5t46.5 19.5q25 0 42 -17t17 -46zM391 0h-120l70 316q4 24 4 26q0 47 -52 47q-51 0 -101 -61l-72 -328h-120l107 483h120l-14 -62q66 74 142 74
q55 0 87.5 -27.5t32.5 -74.5q0 -3 -4 -35z" />
    <glyph glyph-name="Ncaron" unicode="&#x147;" horiz-adv-x="606" 
d="M465 723h-108l-48 144h68l44 -91l81 91h72zM494 0h-128l-137 410l-90 -410h-134l147 667h136l131 -395l87 395h135z" />
    <glyph glyph-name="ncaron" unicode="&#x148;" horiz-adv-x="500" 
d="M373 556h-108l-48 144h68l44 -91l81 91h72zM391 0h-120l70 316q4 24 4 26q0 47 -52 47q-51 0 -101 -61l-72 -328h-120l107 483h120l-14 -62q66 74 142 74q55 0 87.5 -27.5t32.5 -74.5q0 -3 -4 -35z" />
    <glyph glyph-name="napostrophe" unicode="&#x149;" horiz-adv-x="500" 
d="M260 699q0 -44 -33.5 -89.5t-82.5 -69.5l-34 36q61 29 79 71h-9q-19 0 -32.5 13.5t-13.5 35.5q0 27 20.5 46.5t46.5 19.5q25 0 42 -17t17 -46zM391 0h-120l70 316q4 24 4 26q0 47 -52 47q-51 0 -101 -61l-72 -328h-120l107 483h120l-14 -62q66 74 142 74q55 0 87.5 -27.5
t32.5 -74.5q0 -3 -4 -35z" />
    <glyph glyph-name="Eng" unicode="&#x14a;" horiz-adv-x="606" 
d="M274 -196q-105 0 -159 59l61 94q30 -42 86 -42q79 0 97 88l2 10l-132 397l-90 -410h-134l147 667h136l131 -395l87 395h135l-146 -659q-24 -106 -77.5 -155t-143.5 -49z" />
    <glyph glyph-name="eng" unicode="&#x14b;" horiz-adv-x="500" 
d="M471 358l-86 -385q-19 -86 -58.5 -127.5t-109.5 -41.5t-104 34l50 93q16 -21 42 -21q45 0 60 63l77 345q0 3 1 8t1.5 8.5t0.5 6.5q0 48 -51 48q-53 0 -102 -61l-72 -328h-120l107 483h120l-14 -63q65 75 142 75q54 0 87 -27t33 -75q0 -11 -4 -35z" />
    <glyph glyph-name="Omacron" unicode="&#x14c;" horiz-adv-x="622" 
d="M573 730h-309l15 69h309zM287 -12q-113 0 -181.5 71t-68.5 184q0 78 23 155t65 139.5t107 101.5t141 39q113 0 181.5 -71t68.5 -185q0 -78 -23 -154.5t-65 -139t-107 -101.5t-141 -39zM295 107q53 0 97.5 48t68 119.5t23.5 144.5q0 64 -33 102t-87 38q-53 0 -97.5 -48.5
t-68 -120t-23.5 -144.5q0 -64 32.5 -101.5t87.5 -37.5z" />
    <glyph glyph-name="omacron" unicode="&#x14d;" horiz-adv-x="495" 
d="M473 563h-309l15 69h309zM220 -12q-94 0 -146 53.5t-52 144.5q0 117 71 213t181 96q94 0 146 -53.5t52 -144.5q0 -74 -30 -144t-89 -117.5t-133 -47.5zM225 94q53 0 88.5 67.5t35.5 133.5q0 94 -80 94q-53 0 -88.5 -67.5t-35.5 -133.5q0 -94 80 -94z" />
    <glyph glyph-name="Obreve" unicode="&#x14e;" horiz-adv-x="622" 
d="M287 -12q-113 0 -181.5 71t-68.5 184q0 78 23 155t65 139.5t107 101.5t141 39q113 0 181.5 -71t68.5 -185q0 -78 -23 -154.5t-65 -139t-107 -101.5t-141 -39zM295 107q53 0 97.5 48t68 119.5t23.5 144.5q0 64 -33 102t-87 38q-53 0 -97.5 -48.5t-68 -120t-23.5 -144.5
q0 -64 32.5 -101.5t87.5 -37.5zM576 780q-73 -75 -166 -75t-134 75l61 44q25 -50 85 -50t105 50z" />
    <glyph glyph-name="obreve" unicode="&#x14f;" horiz-adv-x="495" 
d="M220 -12q-94 0 -146 53.5t-52 144.5q0 117 71 213t181 96q94 0 146 -53.5t52 -144.5q0 -74 -30 -144t-89 -117.5t-133 -47.5zM225 94q53 0 88.5 67.5t35.5 133.5q0 94 -80 94q-53 0 -88.5 -67.5t-35.5 -133.5q0 -94 80 -94zM477 613q-73 -75 -166 -75t-134 75l61 44
q25 -50 85 -50t105 50z" />
    <glyph glyph-name="Ohungarumlaut" unicode="&#x150;" horiz-adv-x="622" 
d="M492 867l-130 -144h-68l102 144h96zM631 867l-130 -144h-68l102 144h96zM287 -12q-113 0 -181.5 71t-68.5 184q0 78 23 155t65 139.5t107 101.5t141 39q113 0 181.5 -71t68.5 -185q0 -78 -23 -154.5t-65 -139t-107 -101.5t-141 -39zM295 107q53 0 97.5 48t68 119.5
t23.5 144.5q0 64 -33 102t-87 38q-53 0 -97.5 -48.5t-68 -120t-23.5 -144.5q0 -64 32.5 -101.5t87.5 -37.5z" />
    <glyph glyph-name="ohungarumlaut" unicode="&#x151;" horiz-adv-x="495" 
d="M394 700l-130 -144h-68l102 144h96zM533 700l-130 -144h-68l102 144h96zM220 -12q-94 0 -146 53.5t-52 144.5q0 117 71 213t181 96q94 0 146 -53.5t52 -144.5q0 -74 -30 -144t-89 -117.5t-133 -47.5zM225 94q53 0 88.5 67.5t35.5 133.5q0 94 -80 94q-53 0 -88.5 -67.5
t-35.5 -133.5q0 -94 80 -94z" />
    <glyph glyph-name="OE" unicode="&#x152;" horiz-adv-x="858" 
d="M767 0h-381l13 63q-58 -75 -156 -75q-90 0 -148.5 70t-58.5 185q0 111 41 209.5t117.5 161.5t170.5 63q112 0 151 -87l17 77h381l-25 -118h-248l-33 -151h241l-27 -118h-240l-36 -162h248zM431 205l54 243q-9 54 -39 82t-76 28q-57 0 -102.5 -48.5t-69 -119t-23.5 -144.5
q0 -63 31 -101t84 -38q40 0 78 26t63 72z" />
    <glyph glyph-name="oe" unicode="&#x153;" horiz-adv-x="791" 
d="M756 203h-298q-2 -10 -2 -27q0 -37 27 -64t78 -27q57 0 101 39l39 -79q-65 -57 -156 -57q-61 0 -103 28t-57 70q-37 -47 -75 -72.5t-92 -25.5q-92 0 -144 52.5t-52 145.5q0 118 70 213.5t180 95.5q56 0 95.5 -27.5t56.5 -69.5q70 97 166 97q81 0 131 -48.5t50 -141.5
q0 -46 -15 -102zM472 285h187q4 14 4 30q0 36 -20.5 59.5t-60.5 23.5q-43 0 -72.5 -35t-37.5 -78zM345 295q0 45 -21 69.5t-58 24.5q-51 0 -86 -65.5t-35 -135.5q0 -44 20 -69t59 -25q52 0 86.5 66.5t34.5 134.5z" />
    <glyph glyph-name="Racute" unicode="&#x154;" horiz-adv-x="551" 
d="M576 867l-166 -144h-82l139 144h109zM462 0h-144l-48 241h-78l-53 -241h-134l147 667h225q77 0 130 -50.5t53 -128.5q0 -84 -46.5 -148.5t-113.5 -81.5zM218 359h95q48 0 77.5 34t29.5 82q0 35 -20 54.5t-51 19.5h-89z" />
    <glyph glyph-name="racute" unicode="&#x155;" horiz-adv-x="320" 
d="M445 700l-166 -144h-82l139 144h109zM120 0h-120l107 483h120l-14 -63q57 75 148 75l-26 -119q-17 5 -37 5q-63 0 -107 -61z" />
    <glyph glyph-name="Rcommaaccent" unicode="&#x156;" horiz-adv-x="551" 
d="M259 -121q0 -44 -33.5 -89.5t-82.5 -69.5l-34 36q61 29 79 71h-9q-19 0 -32.5 13.5t-13.5 35.5q0 27 20.5 46.5t46.5 19.5q25 0 42 -17t17 -46zM462 0h-144l-48 241h-78l-53 -241h-134l147 667h225q77 0 130 -50.5t53 -128.5q0 -84 -46.5 -148.5t-113.5 -81.5zM218 359
h95q48 0 77.5 34t29.5 82q0 35 -20 54.5t-51 19.5h-89z" />
    <glyph glyph-name="rcommaaccent" unicode="&#x157;" horiz-adv-x="320" 
d="M166 -121q0 -44 -33.5 -89.5t-82.5 -69.5l-34 36q61 29 79 71h-9q-19 0 -32.5 13.5t-13.5 35.5q0 27 20.5 46.5t46.5 19.5q25 0 42 -17t17 -46zM120 0h-120l107 483h120l-14 -63q57 75 148 75l-26 -119q-17 5 -37 5q-63 0 -107 -61z" />
    <glyph glyph-name="Rcaron" unicode="&#x158;" horiz-adv-x="551" 
d="M439 723h-108l-48 144h68l44 -91l81 91h72zM462 0h-144l-48 241h-78l-53 -241h-134l147 667h225q77 0 130 -50.5t53 -128.5q0 -84 -46.5 -148.5t-113.5 -81.5zM218 359h95q48 0 77.5 34t29.5 82q0 35 -20 54.5t-51 19.5h-89z" />
    <glyph glyph-name="rcaron" unicode="&#x159;" horiz-adv-x="320" 
d="M310 556h-108l-48 144h68l44 -91l81 91h72zM120 0h-120l107 483h120l-14 -63q57 75 148 75l-26 -119q-17 5 -37 5q-63 0 -107 -61z" />
    <glyph glyph-name="Sacute" unicode="&#x15a;" horiz-adv-x="498" 
d="M550 867l-166 -144h-82l139 144h109zM226 -12q-75 0 -139.5 27.5t-98.5 72.5l81 99q26 -37 70 -59t93 -22q41 0 65 24t24 60q0 24 -24.5 45.5t-59.5 40.5t-70 42t-59.5 60t-24.5 83q0 89 65.5 153t167.5 64q62 0 118.5 -23t91.5 -64l-78 -96q-25 31 -64 48t-79 17
q-35 0 -57.5 -22t-22.5 -52q0 -19 17.5 -37.5t44 -32.5t57 -34t57 -41t44 -54.5t17.5 -72.5q0 -95 -65 -160.5t-171 -65.5z" />
    <glyph glyph-name="sacute" unicode="&#x15b;" horiz-adv-x="412" 
d="M469 700l-166 -144h-82l139 144h109zM176 -12q-60 0 -111.5 21.5t-80.5 57.5l66 79q19 -26 55.5 -45.5t76.5 -19.5q29 0 47.5 16t18.5 38t-30.5 41t-67 33.5t-67 46.5t-30.5 77q0 67 48.5 114.5t133.5 47.5q51 0 98 -19.5t76 -52.5l-61 -76q-15 21 -48 38t-67 17
q-29 0 -46 -14t-17 -35q0 -19 31 -37t68 -33t68 -48.5t31 -78.5q0 -70 -52.5 -119t-139.5 -49z" />
    <glyph glyph-name="Scircumflex" unicode="&#x15c;" horiz-adv-x="498" 
d="M491 723h-68l-44 91l-81 -91h-72l109 144h108zM226 -12q-75 0 -139.5 27.5t-98.5 72.5l81 99q26 -37 70 -59t93 -22q41 0 65 24t24 60q0 24 -24.5 45.5t-59.5 40.5t-70 42t-59.5 60t-24.5 83q0 89 65.5 153t167.5 64q62 0 118.5 -23t91.5 -64l-78 -96q-25 31 -64 48
t-79 17q-35 0 -57.5 -22t-22.5 -52q0 -19 17.5 -37.5t44 -32.5t57 -34t57 -41t44 -54.5t17.5 -72.5q0 -95 -65 -160.5t-171 -65.5z" />
    <glyph glyph-name="scircumflex" unicode="&#x15d;" horiz-adv-x="412" 
d="M410 556h-68l-44 91l-81 -91h-72l109 144h108zM176 -12q-60 0 -111.5 21.5t-80.5 57.5l66 79q19 -26 55.5 -45.5t76.5 -19.5q29 0 47.5 16t18.5 38t-30.5 41t-67 33.5t-67 46.5t-30.5 77q0 67 48.5 114.5t133.5 47.5q51 0 98 -19.5t76 -52.5l-61 -76q-15 21 -48 38
t-67 17q-29 0 -46 -14t-17 -35q0 -19 31 -37t68 -33t68 -48.5t31 -78.5q0 -70 -52.5 -119t-139.5 -49z" />
    <glyph glyph-name="Scedilla" unicode="&#x15e;" horiz-adv-x="498" 
d="M161 -195q-68 0 -106 40l33 46q31 -34 73 -34q21 0 33.5 10.5t12.5 26.5q0 23 -26 23q-16 0 -27 -13l-38 25l39 66q-113 22 -167 93l81 99q26 -37 70 -59t93 -22q41 0 65 24t24 60q0 24 -24.5 45.5t-59.5 40.5t-70 42t-59.5 60t-24.5 83q0 89 65.5 153t167.5 64
q62 0 118.5 -23t91.5 -64l-78 -96q-25 31 -64 48t-79 17q-35 0 -57.5 -22t-22.5 -52q0 -19 17.5 -37.5t44 -32.5t57 -34t57 -41t44 -54.5t17.5 -72.5q0 -95 -65 -160.5t-171 -65.5q-3 0 -8.5 0.5t-7.5 0.5l-25 -41q13 10 27 10q24 0 40 -16.5t16 -43.5q0 -41 -30.5 -67
t-76.5 -26z" />
    <glyph glyph-name="scedilla" unicode="&#x15f;" horiz-adv-x="412" 
d="M120 -195q-68 0 -106 40l33 46q31 -34 73 -34q21 0 33.5 10.5t12.5 26.5q0 23 -26 23q-16 0 -27 -13l-38 25l39 65q-85 17 -130 73l66 79q19 -26 55.5 -45.5t76.5 -19.5q29 0 47.5 16t18.5 38t-30.5 41t-67 33.5t-67 46.5t-30.5 77q0 67 48.5 114.5t133.5 47.5
q51 0 98 -19.5t76 -52.5l-61 -76q-15 21 -48 38t-67 17q-29 0 -46 -14t-17 -35q0 -19 31 -37t68 -33t68 -48.5t31 -78.5q0 -70 -52.5 -119t-139.5 -49h-7l-25 -40q13 10 27 10q24 0 40 -16.5t16 -43.5q0 -41 -30.5 -67t-76.5 -26z" />
    <glyph glyph-name="Scaron" unicode="&#x160;" horiz-adv-x="498" 
d="M414 723h-108l-48 144h68l44 -91l81 91h72zM226 -12q-75 0 -139.5 27.5t-98.5 72.5l81 99q26 -37 70 -59t93 -22q41 0 65 24t24 60q0 24 -24.5 45.5t-59.5 40.5t-70 42t-59.5 60t-24.5 83q0 89 65.5 153t167.5 64q62 0 118.5 -23t91.5 -64l-78 -96q-25 31 -64 48t-79 17
q-35 0 -57.5 -22t-22.5 -52q0 -19 17.5 -37.5t44 -32.5t57 -34t57 -41t44 -54.5t17.5 -72.5q0 -95 -65 -160.5t-171 -65.5z" />
    <glyph glyph-name="scaron" unicode="&#x161;" horiz-adv-x="412" 
d="M334 556h-108l-48 144h68l44 -91l81 91h72zM176 -12q-60 0 -111.5 21.5t-80.5 57.5l66 79q19 -26 55.5 -45.5t76.5 -19.5q29 0 47.5 16t18.5 38t-30.5 41t-67 33.5t-67 46.5t-30.5 77q0 67 48.5 114.5t133.5 47.5q51 0 98 -19.5t76 -52.5l-61 -76q-15 21 -48 38t-67 17
q-29 0 -46 -14t-17 -35q0 -19 31 -37t68 -33t68 -48.5t31 -78.5q0 -70 -52.5 -119t-139.5 -49z" />
    <glyph glyph-name="Tcommaaccent" unicode="&#x162;" horiz-adv-x="473" 
d="M221 -121q0 -44 -33.5 -89.5t-82.5 -69.5l-34 36q61 29 79 71h-9q-19 0 -32.5 13.5t-13.5 35.5q0 27 20.5 46.5t46.5 19.5q25 0 42 -17t17 -46zM250 0h-134l121 549h-148l26 118h430l-26 -118h-148z" />
    <glyph glyph-name="tcommaaccent" unicode="&#x163;" horiz-adv-x="298" 
d="M127 -121q0 -44 -33.5 -89.5t-82.5 -69.5l-34 36q61 29 79 71h-9q-19 0 -32.5 13.5t-13.5 35.5q0 27 20.5 46.5t46.5 19.5q25 0 42 -17t17 -46zM171 -12q-61 0 -94.5 24t-33.5 72q0 18 4 37l58 258h-63l24 104h62l29 132h120l-29 -132h80l-24 -104h-79l-51 -229
q-3 -21 -3 -22q0 -34 37 -34q18 0 30 10l4 -98q-26 -18 -71 -18z" />
    <glyph glyph-name="Tcaron" unicode="&#x164;" horiz-adv-x="473" 
d="M393 723h-108l-48 144h68l44 -91l81 91h72zM250 0h-134l121 549h-148l26 118h430l-26 -118h-148z" />
    <glyph glyph-name="tcaron" unicode="&#x165;" horiz-adv-x="337" 
d="M460 699q0 -44 -33.5 -89.5t-82.5 -69.5l-34 36q61 29 79 71h-9q-19 0 -32.5 13.5t-13.5 35.5q0 27 20.5 46.5t46.5 19.5q25 0 42 -17t17 -46zM171 -12q-61 0 -94.5 24t-33.5 72q0 18 4 37l58 258h-63l24 104h62l29 132h120l-29 -132h80l-24 -104h-79l-51 -229
q-3 -21 -3 -22q0 -34 37 -34q18 0 30 10l4 -98q-26 -18 -71 -18z" />
    <glyph glyph-name="Tbar" unicode="&#x166;" horiz-adv-x="473" 
d="M250 0h-134l59 267h-102l15 69h102l47 213h-148l26 118h430l-26 -118h-148l-47 -213h101l-15 -69h-101z" />
    <glyph glyph-name="tbar" unicode="&#x167;" horiz-adv-x="298" 
d="M171 -12q-61 0 -94.5 24t-33.5 72q0 18 4 37l20 90h-62l15 70h63l22 98h-63l24 104h62l29 132h120l-29 -132h80l-24 -104h-79l-22 -98h52l-16 -70h-52l-13 -61q-3 -21 -3 -22q0 -34 37 -34q18 0 30 10l4 -98q-26 -18 -71 -18z" />
    <glyph glyph-name="Utilde" unicode="&#x168;" horiz-adv-x="609" 
d="M282 -12q-107 0 -169 54.5t-62 145.5q0 14 5 44l96 435h135l-97 -439q-3 -18 -3 -31q0 -40 27 -65.5t73 -25.5q97 0 124 122l97 439h135l-97 -437q-52 -242 -264 -242zM471 721q-22 0 -38 11t-22.5 24.5t-17 24.5t-23.5 11q-27 0 -41 -65h-64q28 134 112 134
q23 0 38.5 -11t22.5 -24.5t17.5 -24.5t23.5 -11q27 0 41 65h64q-28 -134 -113 -134z" />
    <glyph glyph-name="utilde" unicode="&#x169;" horiz-adv-x="499" 
d="M107 483h120l-70 -317q-4 -18 -4 -25q0 -23 15.5 -35t40.5 -12q48 0 96 60l73 329h120l-107 -483h-120l14 62q-64 -74 -141 -74q-56 0 -88.5 27.5t-32.5 74.5q0 15 5 35zM380 554q-22 0 -38 11t-22.5 24.5t-17 24.5t-23.5 11q-27 0 -41 -65h-64q28 134 112 134
q23 0 38.5 -11t22.5 -24.5t17.5 -24.5t23.5 -11q27 0 41 65h64q-28 -134 -113 -134z" />
    <glyph glyph-name="Umacron" unicode="&#x16a;" horiz-adv-x="609" 
d="M282 -12q-107 0 -169 54.5t-62 145.5q0 14 5 44l96 435h135l-97 -439q-3 -18 -3 -31q0 -40 27 -65.5t73 -25.5q97 0 124 122l97 439h135l-97 -437q-52 -242 -264 -242zM566 730h-309l15 69h309z" />
    <glyph glyph-name="umacron" unicode="&#x16b;" horiz-adv-x="499" 
d="M107 483h120l-70 -317q-4 -18 -4 -25q0 -23 15.5 -35t40.5 -12q48 0 96 60l73 329h120l-107 -483h-120l14 62q-64 -74 -141 -74q-56 0 -88.5 27.5t-32.5 74.5q0 15 5 35zM475 563h-309l15 69h309z" />
    <glyph glyph-name="Ubreve" unicode="&#x16c;" horiz-adv-x="609" 
d="M282 -12q-107 0 -169 54.5t-62 145.5q0 14 5 44l96 435h135l-97 -439q-3 -18 -3 -31q0 -40 27 -65.5t73 -25.5q97 0 124 122l97 439h135l-97 -437q-52 -242 -264 -242zM569 780q-73 -75 -166 -75t-134 75l61 44q25 -50 85 -50t105 50z" />
    <glyph glyph-name="ubreve" unicode="&#x16d;" horiz-adv-x="499" 
d="M107 483h120l-70 -317q-4 -18 -4 -25q0 -23 15.5 -35t40.5 -12q48 0 96 60l73 329h120l-107 -483h-120l14 62q-64 -74 -141 -74q-56 0 -88.5 27.5t-32.5 74.5q0 15 5 35zM479 613q-73 -75 -166 -75t-134 75l61 44q25 -50 85 -50t105 50z" />
    <glyph glyph-name="Uring" unicode="&#x16e;" horiz-adv-x="609" 
d="M414 690q-38 0 -62.5 24.5t-24.5 63.5q0 43 32 75t75 32q39 0 63 -24.5t24 -63.5q0 -43 -31.5 -75t-75.5 -32zM420 744q19 0 33.5 14t14.5 33q0 17 -11 28.5t-27 11.5q-20 0 -34 -14.5t-14 -33.5q0 -17 10.5 -28t27.5 -11zM282 -12q-107 0 -169 54.5t-62 145.5q0 14 5 44
l96 435h135l-97 -439q-3 -18 -3 -31q0 -40 27 -65.5t73 -25.5q97 0 124 122l97 439h135l-97 -437q-52 -242 -264 -242z" />
    <glyph glyph-name="uring" unicode="&#x16f;" horiz-adv-x="499" 
d="M325 534q-38 0 -62.5 24.5t-24.5 63.5q0 43 32 75t75 32q39 0 63 -24.5t24 -63.5q0 -43 -32 -75t-75 -32zM331 588q19 0 33.5 14t14.5 33q0 17 -11 28.5t-27 11.5q-19 0 -33.5 -14.5t-14.5 -33.5q0 -17 10.5 -28t27.5 -11zM107 483h120l-70 -317q-4 -18 -4 -25
q0 -23 15.5 -35t40.5 -12q48 0 96 60l73 329h120l-107 -483h-120l14 62q-64 -74 -141 -74q-56 0 -88.5 27.5t-32.5 74.5q0 15 5 35z" />
    <glyph glyph-name="Uhungarumlaut" unicode="&#x170;" horiz-adv-x="609" 
d="M282 -12q-107 0 -169 54.5t-62 145.5q0 14 5 44l96 435h135l-97 -439q-3 -18 -3 -31q0 -40 27 -65.5t73 -25.5q97 0 124 122l97 439h135l-97 -437q-52 -242 -264 -242zM486 867l-130 -144h-68l102 144h96zM625 867l-130 -144h-68l102 144h96z" />
    <glyph glyph-name="uhungarumlaut" unicode="&#x171;" horiz-adv-x="499" 
d="M107 483h120l-70 -317q-4 -18 -4 -25q0 -23 15.5 -35t40.5 -12q48 0 96 60l73 329h120l-107 -483h-120l14 62q-64 -74 -141 -74q-56 0 -88.5 27.5t-32.5 74.5q0 15 5 35zM396 700l-130 -144h-68l102 144h96zM535 700l-130 -144h-68l102 144h96z" />
    <glyph glyph-name="Uogonek" unicode="&#x172;" horiz-adv-x="609" 
d="M347 -104l42 -33q-33 -49 -86 -49q-36 0 -59.5 18t-23.5 52q0 57 50 104q-102 4 -160.5 57.5t-58.5 142.5q0 14 5 44l96 435h135l-97 -439q-3 -18 -3 -31q0 -40 27 -65.5t73 -25.5q97 0 124 122l97 439h135l-97 -437q-40 -188 -178 -230q-88 -47 -88 -108q0 -27 28 -27
q24 0 39 31z" />
    <glyph glyph-name="uogonek" unicode="&#x173;" horiz-adv-x="499" 
d="M107 483h120l-70 -317q-4 -18 -4 -25q0 -23 15.5 -35t40.5 -12q48 0 96 60l73 329h120l-107 -483q-88 -47 -88 -108q0 -27 28 -27q23 0 39 31l42 -33q-33 -49 -86 -49q-36 0 -59.5 18t-23.5 52q0 65 63 116h-35l14 62q-64 -74 -141 -74q-56 0 -88.5 27.5t-32.5 74.5
q0 15 5 35z" />
    <glyph glyph-name="Wcircumflex" unicode="&#x174;" horiz-adv-x="767" 
d="M619 723h-68l-44 91l-81 -91h-72l109 144h108zM555 0h-140l13 444l-184 -444h-140l-5 667h141l-17 -464l198 464h105l-7 -464l188 464h147z" />
    <glyph glyph-name="wcircumflex" unicode="&#x175;" horiz-adv-x="688" 
d="M542 556h-68l-44 91l-81 -91h-72l109 144h108zM503 0h-127l-14 329l-157 -329h-127l-22 483h120l3 -328l158 328h110l15 -328l149 328h128z" />
    <glyph glyph-name="Ycircumflex" unicode="&#x176;" horiz-adv-x="538" 
d="M508 723h-68l-44 91l-81 -91h-72l109 144h108zM282 0h-134l60 275l-119 392h141l66 -268l185 268h154l-293 -392z" />
    <glyph glyph-name="ycircumflex" unicode="&#x177;" horiz-adv-x="447" 
d="M-51 -184l39 102q11 -7 36 -7q31 0 51 34l28 50l-52 488h124l22 -338l174 338h131l-315 -565q-36 -64 -73 -89t-90 -25q-44 0 -75 12zM421 556h-68l-44 91l-81 -91h-72l109 144h108z" />
    <glyph glyph-name="Ydieresis" unicode="&#x178;" horiz-adv-x="538" 
d="M547 784q0 -28 -22.5 -50t-51.5 -22q-24 0 -40.5 16.5t-16.5 41.5q0 28 22 49.5t51 21.5q25 0 41.5 -16t16.5 -41zM360 784q0 -28 -22 -50t-51 -22q-25 0 -41.5 16.5t-16.5 41.5q0 28 22 49.5t51 21.5q25 0 41.5 -16t16.5 -41zM282 0h-134l60 275l-119 392h141l66 -268
l185 268h154l-293 -392z" />
    <glyph glyph-name="Zacute" unicode="&#x179;" horiz-adv-x="484" 
d="M536 867l-166 -144h-82l139 144h109zM394 0h-412l24 110l331 439h-234l26 118h405l-23 -108l-334 -441h243z" />
    <glyph glyph-name="zacute" unicode="&#x17a;" horiz-adv-x="407" 
d="M461 700l-166 -144h-82l139 144h109zM318 0h-338l20 90l241 288h-177l23 105h334l-19 -87l-243 -291h182z" />
    <glyph glyph-name="Zdotaccent" unicode="&#x17b;" horiz-adv-x="484" 
d="M394 0h-412l24 110l331 439h-234l26 118h405l-23 -108l-334 -441h243zM422 784q0 -29 -22.5 -50.5t-51.5 -21.5q-25 0 -41.5 16t-16.5 41q0 29 22.5 51t51.5 22q25 0 41.5 -16.5t16.5 -41.5z" />
    <glyph glyph-name="zdotaccent" unicode="&#x17c;" horiz-adv-x="407" 
d="M318 0h-338l20 90l241 288h-177l23 105h334l-19 -87l-243 -291h182zM348 617q0 -29 -22.5 -50.5t-51.5 -21.5q-25 0 -41.5 16t-16.5 41q0 29 22.5 51t51.5 22q25 0 41.5 -16.5t16.5 -41.5z" />
    <glyph glyph-name="Zcaron" unicode="&#x17d;" horiz-adv-x="484" 
d="M400 723h-108l-48 144h68l44 -91l81 91h72zM394 0h-412l24 110l331 439h-234l26 118h405l-23 -108l-334 -441h243z" />
    <glyph glyph-name="zcaron" unicode="&#x17e;" horiz-adv-x="407" 
d="M325 556h-108l-48 144h68l44 -91l81 91h72zM318 0h-338l20 90l241 288h-177l23 105h334l-19 -87l-243 -291h182z" />
    <glyph glyph-name="longs" unicode="&#x17f;" horiz-adv-x="288" 
d="M143 0h-120l83 379h-62l23 104h62l8 38q34 156 166 156q74 0 110 -38l-54 -80q-18 19 -44 19q-45 0 -58 -57z" />
    <glyph glyph-name="florin" unicode="&#x192;" horiz-adv-x="426" 
d="M93 -161h-137l89 402h-48v105h71l41 186q16 68 56.5 106.5t104.5 38.5q74 0 115 -37l-44 -98q-14 17 -42 17q-46 0 -59 -59l-34 -154h96v-105h-120z" />
    <glyph glyph-name="Ohorn" unicode="&#x1a0;" horiz-adv-x="622" 
d="M287 -12q-113 0 -181.5 71t-68.5 184q0 78 23 155t65 139.5t107 101.5t141 39q134 0 204 -99q41 25 53 56q-1 -1 -7 -1q-17 0 -29.5 12.5t-12.5 32.5q0 24 18.5 41.5t42.5 17.5q22 0 37 -15t15 -42q0 -39 -27 -78.5t-68 -62.5q24 -56 24 -118q0 -78 -23 -154.5t-65 -139
t-107 -101.5t-141 -39zM295 107q53 0 97.5 48t68 119.5t23.5 144.5q0 64 -33 102t-87 38q-53 0 -97.5 -48.5t-68 -120t-23.5 -144.5q0 -64 32.5 -101.5t87.5 -37.5z" />
    <glyph glyph-name="ohorn" unicode="&#x1a1;" horiz-adv-x="495" 
d="M534 548q0 -37 -25.5 -75t-64.5 -63q28 -48 28 -113q0 -74 -30 -144t-89 -117.5t-133 -47.5q-94 0 -146 53.5t-52 144.5q0 117 71 213t181 96q89 0 143 -51q40 28 53 57q-1 -1 -7 -1q-18 0 -30 12.5t-12 32.5q0 24 18 41.5t42 17.5q22 0 37.5 -15t15.5 -41zM225 94
q53 0 88.5 67.5t35.5 133.5q0 94 -80 94q-53 0 -88.5 -67.5t-35.5 -133.5q0 -94 80 -94z" />
    <glyph glyph-name="Uhorn" unicode="&#x1af;" horiz-adv-x="609" 
d="M755 743q0 -48 -37 -92t-94 -67l-78 -354q-52 -242 -264 -242q-107 0 -169 54.5t-62 145.5q0 14 5 44l96 435h135l-97 -439q-3 -18 -3 -31q0 -40 27 -65.5t73 -25.5q97 0 124 122l97 439h135l-7 -28q43 25 56 57q-1 -1 -7 -1q-18 0 -30.5 12.5t-12.5 32.5q0 24 18.5 41.5
t42.5 17.5q22 0 37 -14.5t15 -41.5z" />
    <glyph glyph-name="uhorn" unicode="&#x1b0;" horiz-adv-x="499" 
d="M583 559q0 -39 -27.5 -78t-72.5 -64l-92 -417h-120l14 61q-65 -73 -141 -73q-56 0 -88.5 27.5t-32.5 74.5q0 12 5 35l79 358h120l-71 -318q-3 -21 -3 -24q0 -47 57 -47q47 0 95 60l73 329h120l-1 -2q16 16 22 32q-1 -1 -7 -1q-17 0 -29.5 12.5t-12.5 32.5q0 24 18 41.5
t42 17.5q22 0 37.5 -15t15.5 -42z" />
    <glyph glyph-name="AEacute" unicode="&#x1fc;" horiz-adv-x="787" 
d="M736 867l-166 -144h-82l139 144h109zM697 0h-382l26 118h-171l-77 -118h-149l462 667h438l-26 -118h-247l-34 -151h241l-26 -118h-241l-36 -162h248zM367 236l62 280l-184 -280h122z" />
    <glyph glyph-name="aeacute" unicode="&#x1fd;" horiz-adv-x="781" 
d="M652 700l-166 -144h-82l139 144h109zM268 389q-53 0 -88 -68t-35 -136q0 -43 21 -67t57 -24q50 0 87 57l40 181q-10 25 -32 41t-50 16zM414 81l-18 -81h-120l13 59q-52 -71 -124 -71q-68 0 -106.5 46t-38.5 131q0 72 24.5 145.5t77.5 129t123 55.5q89 0 124 -75l14 63
h120l-12 -56q54 68 126 68q143 -2 143 -181q0 -53 -15 -111h-301q-2 -18 -2 -27q0 -34 28 -61.5t81 -27.5q56 0 100 39l39 -84q-63 -54 -136 -54q-110 0 -140 93zM459 285h189q3 15 3 30q0 36 -20.5 60t-59.5 24q-43 0 -73 -35t-39 -79z" />
    <glyph glyph-name="Oslashacute" unicode="&#x1fe;" horiz-adv-x="622" 
d="M609 867l-166 -144h-82l139 144h109zM287 -12q-97 0 -162 53l-35 -41h-88l77 91q-42 63 -42 152q0 78 23 155t65 139.5t107 101.5t141 39q93 0 157 -50l33 39h88l-74 -88q46 -67 46 -157q0 -78 -23 -154.5t-65 -139t-107 -101.5t-141 -39zM295 107q53 0 97.5 48t68 119.5
t23.5 144.5q0 21 -5 44l-270 -321q32 -35 86 -35zM175 246q0 -19 3 -37l267 318q-32 32 -81 32q-53 0 -97.5 -48.5t-68 -120t-23.5 -144.5z" />
    <glyph glyph-name="oslashacute" unicode="&#x1ff;" horiz-adv-x="495" 
d="M509 700l-166 -144h-82l139 144h109zM56 0h-75l69 73q-28 46 -28 113q0 117 71 213t181 96q82 0 133 -42l29 30h75l-68 -72q29 -47 29 -114q0 -74 -30 -144t-89 -117.5t-133 -47.5q-84 0 -135 43zM225 94q53 0 88.5 67.5t35.5 133.5q0 10 -1 15l-182 -193q20 -23 59 -23z
M145 188v-14l181 193q-20 22 -57 22q-53 0 -88.5 -67.5t-35.5 -133.5z" />
    <glyph glyph-name="Scommaaccent" unicode="&#x218;" horiz-adv-x="498" 
d="M230 -121q0 -44 -33.5 -89.5t-82.5 -69.5l-34 36q61 29 79 71h-9q-19 0 -32.5 13.5t-13.5 35.5q0 27 20.5 46.5t46.5 19.5q25 0 42 -17t17 -46zM226 -12q-75 0 -139.5 27.5t-98.5 72.5l81 99q26 -37 70 -59t93 -22q41 0 65 24t24 60q0 24 -24.5 45.5t-59.5 40.5t-70 42
t-59.5 60t-24.5 83q0 89 65.5 153t167.5 64q62 0 118.5 -23t91.5 -64l-78 -96q-25 31 -64 48t-79 17q-35 0 -57.5 -22t-22.5 -52q0 -19 17.5 -37.5t44 -32.5t57 -34t57 -41t44 -54.5t17.5 -72.5q0 -95 -65 -160.5t-171 -65.5z" />
    <glyph glyph-name="scommaaccent" unicode="&#x219;" horiz-adv-x="412" 
d="M188 -121q0 -44 -33.5 -89.5t-82.5 -69.5l-34 36q61 29 79 71h-9q-19 0 -32.5 13.5t-13.5 35.5q0 27 20.5 46.5t46.5 19.5q25 0 42 -17t17 -46zM176 -12q-60 0 -111.5 21.5t-80.5 57.5l66 79q19 -26 55.5 -45.5t76.5 -19.5q29 0 47.5 16t18.5 38t-30.5 41t-67 33.5
t-67 46.5t-30.5 77q0 67 48.5 114.5t133.5 47.5q51 0 98 -19.5t76 -52.5l-61 -76q-15 21 -48 38t-67 17q-29 0 -46 -14t-17 -35q0 -19 31 -37t68 -33t68 -48.5t31 -78.5q0 -70 -52.5 -119t-139.5 -49z" />
    <glyph glyph-name="uni021A" unicode="&#x21a;" horiz-adv-x="473" 
d="M221 -121q0 -44 -33.5 -89.5t-82.5 -69.5l-34 36q61 29 79 71h-9q-19 0 -32.5 13.5t-13.5 35.5q0 27 20.5 46.5t46.5 19.5q25 0 42 -17t17 -46zM250 0h-134l121 549h-148l26 118h430l-26 -118h-148z" />
    <glyph glyph-name="uni021B" unicode="&#x21b;" horiz-adv-x="298" 
d="M126 -121q0 -44 -33.5 -89.5t-82.5 -69.5l-34 36q61 29 79 71h-9q-19 0 -32.5 13.5t-13.5 35.5q0 27 20.5 46.5t46.5 19.5q25 0 42 -17t17 -46zM171 -12q-61 0 -94.5 24t-33.5 72q0 18 4 37l58 258h-63l24 104h62l29 132h120l-29 -132h80l-24 -104h-79l-51 -229
q-3 -21 -3 -22q0 -34 37 -34q18 0 30 10l4 -98q-26 -18 -71 -18z" />
    <glyph glyph-name="uni0237" unicode="&#x237;" horiz-adv-x="228" 
d="M-54 -196q-71 0 -104 34l48 87q15 -20 43 -20q46 0 60 67l114 511h120l-114 -511q-18 -84 -56.5 -126t-110.5 -42z" />
    <glyph glyph-name="hsuperior" unicode="&#x2b0;" horiz-adv-x="360" 
d="M333 326h-87l44 200q3 15 3 18q0 30 -38 30q-28 0 -62 -39l-46 -209h-87l95 434h88l-35 -160q40 48 93 48q40 0 63 -19t23 -51q0 -8 -4 -26z" />
    <glyph glyph-name="uni02BC" unicode="&#x2bc;" horiz-adv-x="253" 
d="M286 599q0 -55 -41 -110t-102 -85l-43 45q30 13 57.5 36t38.5 48q-2 -1 -10 -1q-25 0 -42 16.5t-17 46.5q0 33 26 57.5t59 24.5q31 0 52.5 -20.5t21.5 -57.5z" />
    <glyph glyph-name="circumflex" unicode="&#x2c6;" horiz-adv-x="265" 
d="M334 556h-68l-44 91l-81 -91h-72l109 144h108z" />
    <glyph glyph-name="caron" unicode="&#x2c7;" horiz-adv-x="265" 
d="M257 556h-108l-48 144h68l44 -91l81 91h72z" />
    <glyph glyph-name="uni02C9" unicode="&#x2c9;" horiz-adv-x="311" 
d="M387 591h-310l15 69h309z" />
    <glyph glyph-name="uni02CB" unicode="&#x2cb;" horiz-adv-x="214" 
d="M283 556h-80l-102 144h107z" />
    <glyph glyph-name="breve" unicode="&#x2d8;" horiz-adv-x="300" 
d="M381 613q-73 -75 -166 -75t-134 75l61 44q25 -50 85 -50t105 50z" />
    <glyph glyph-name="dotaccent" unicode="&#x2d9;" horiz-adv-x="165" 
d="M230 617q0 -29 -22.5 -50.5t-51.5 -21.5q-25 0 -41.5 16t-16.5 41q0 29 22.5 51t51.5 22q25 0 41.5 -16.5t16.5 -41.5z" />
    <glyph glyph-name="ring" unicode="&#x2da;" horiz-adv-x="193" 
d="M171 534q-38 0 -62.5 24.5t-24.5 63.5q0 43 32 75t75 32q39 0 63 -24.5t24 -63.5q0 -43 -32 -75t-75 -32zM177 588q19 0 33.5 14t14.5 33q0 17 -11 28.5t-27 11.5q-19 0 -33.5 -14.5t-14.5 -33.5q0 -17 10.5 -28t27.5 -11z" />
    <glyph glyph-name="ogonek" unicode="&#x2db;" horiz-adv-x="175" 
d="M49 -104l42 -33q-33 -49 -86 -49q-36 0 -59.5 18t-23.5 52q0 85 107 145l41 -29q-88 -47 -88 -108q0 -27 28 -27q24 0 39 31z" />
    <glyph glyph-name="tilde" unicode="&#x2dc;" horiz-adv-x="291" 
d="M276 554q-22 0 -38 11t-22.5 24.5t-17 24.5t-23.5 11q-27 0 -41 -65h-64q28 134 112 134q23 0 38.5 -11t22.5 -24.5t17.5 -24.5t23.5 -11q27 0 41 65h64q-28 -134 -113 -134z" />
    <glyph glyph-name="hungarumlaut" unicode="&#x2dd;" horiz-adv-x="303" 
d="M265 700l-130 -144h-68l102 144h96zM404 700l-130 -144h-68l102 144h96z" />
    <glyph glyph-name="hookabovecomb" unicode="&#x309;" horiz-adv-x="175" 
d="M222 726l-39 16q23 48 73 48q29 0 47.5 -15t18.5 -43q0 -34 -27 -65h-52q29 29 30 57q1 11 -5 18t-16 7q-18 0 -30 -23z" />
    <glyph glyph-name="uni037E" unicode="&#x37e;" horiz-adv-x="252" 
d="M168 65q0 -55 -41 -109.5t-102 -85.5l-43 46q30 13 57.5 36t38.5 48q-2 -1 -10 -1q-25 0 -42 16.5t-17 45.5q0 33 26 58t59 25q31 0 52.5 -21t21.5 -58zM156 335q-29 0 -49.5 21t-20.5 50q0 34 25 59t59 25q29 0 50 -21t21 -50q0 -34 -25 -59t-60 -25z" />
    <glyph glyph-name="tonos" unicode="&#x384;" horiz-adv-x="500" 
d="M232 555h-53l68 210h101z" />
    <glyph glyph-name="dieresistonos" unicode="&#x385;" horiz-adv-x="500" 
d="M332 555h-54l68 210h102zM542 617q0 -28 -22 -50t-51 -22q-25 0 -41.5 16.5t-16.5 41.5q0 28 22 49.5t51 21.5q25 0 41.5 -16t16.5 -41zM256 617q0 -28 -22 -50t-51 -22q-24 0 -40.5 16.5t-16.5 41.5q0 28 22 49.5t51 21.5q24 0 40.5 -16t16.5 -41z" />
    <glyph glyph-name="Alphatonos" unicode="&#x386;" horiz-adv-x="554" 
d="M162 555h-53l68 210h101zM502 0h-140l-5 118h-206l-56 -118h-151l345 667h162zM355 236l-11 290l-140 -290h151z" />
    <glyph glyph-name="Epsilontonos" unicode="&#x388;" horiz-adv-x="524" 
d="M113 555h-53l68 210h101zM431 0h-382l147 667h382l-26 -118h-248l-33 -151h241l-27 -118h-240l-36 -162h248z" />
    <glyph glyph-name="Etatonos" unicode="&#x389;" horiz-adv-x="651" 
d="M113 555h-53l68 210h101zM539 0h-135l63 284h-221l-63 -284h-134l147 667h134l-58 -265h221l58 265h135z" />
    <glyph glyph-name="Iotatonos" unicode="&#x38a;" horiz-adv-x="296" 
d="M113 555h-53l68 210h101zM183 0h-134l147 667h134z" />
    <glyph glyph-name="Omicrontonos" unicode="&#x38c;" horiz-adv-x="633" 
d="M127 555h-53l68 210h101zM299 -12q-113 0 -181.5 71t-68.5 184q0 78 23 155t65 139.5t107 101.5t141 39q113 0 181.5 -71t68.5 -185q0 -78 -23 -154.5t-65 -139t-107 -101.5t-141 -39zM307 107q53 0 97.5 48t68 119.5t23.5 144.5q0 64 -33 102t-87 38q-53 0 -97.5 -48.5
t-68 -120t-23.5 -144.5q0 -64 32.5 -101.5t87.5 -37.5z" />
    <glyph glyph-name="Upsilontonos" unicode="&#x38e;" horiz-adv-x="627" 
d="M111 555h-53l68 210h101zM371 0h-134l60 275l-119 392h141l66 -268l185 268h154l-293 -392z" />
    <glyph glyph-name="Omegatonos" unicode="&#x38f;" horiz-adv-x="636" 
d="M127 555h-53l68 210h101zM35 118h112q-80 72 -80 191q0 60 21.5 124t60.5 119t101 90.5t135 35.5q113 0 185 -61.5t72 -176.5q0 -107 -49.5 -191t-119.5 -131h91l-26 -118h-220l27 118q66 29 110.5 123.5t44.5 177.5q0 65 -30.5 102t-88.5 37q-54 0 -98.5 -51.5
t-66.5 -121t-22 -133.5q0 -93 60 -134l-25 -118h-220z" />
    <glyph glyph-name="iotadieresistonos" unicode="&#x390;" horiz-adv-x="241" 
d="M205 555h-54l68 210h102zM415 617q0 -28 -22 -50t-51 -22q-25 0 -41.5 16.5t-16.5 41.5q0 28 22 49.5t51 21.5q25 0 41.5 -16t16.5 -41zM129 617q0 -28 -22 -50t-51 -22q-24 0 -40.5 16.5t-16.5 41.5q0 28 22 49.5t51 21.5q24 0 40.5 -16t16.5 -41zM120 -12
q-124 0 -95 128l82 367h121l-78 -347q-10 -42 24 -42q7 0 17 2l-14 -101q-25 -7 -57 -7z" />
    <glyph glyph-name="Alpha" unicode="&#x391;" horiz-adv-x="554" 
d="M502 0h-140l-5 118h-206l-56 -118h-151l345 667h162zM355 236l-11 290l-140 -290h151z" />
    <glyph glyph-name="Beta" unicode="&#x392;" horiz-adv-x="558" 
d="M299 0h-294l147 667h245q79 0 124 -43.5t45 -108.5q0 -67 -41.5 -121t-102.5 -61q41 -11 64 -47t23 -80q0 -82 -53.5 -144t-156.5 -62zM227 397h113q41 0 62.5 28.5t21.5 64.5q0 27 -18 43.5t-47 16.5h-98zM281 117q42 0 67.5 29t25.5 71q0 30 -17.5 47t-49.5 17h-106
l-36 -164h116z" />
    <glyph glyph-name="Gamma" unicode="&#x393;" horiz-adv-x="473" 
d="M139 0h-134l147 667h382l-26 -118h-248z" />
    <glyph glyph-name="uni0394" unicode="&#x394;" horiz-adv-x="554" 
d="M502 0h-558l345 667h162zM361 118l-18 408l-196 -408h214z" />
    <glyph glyph-name="Epsilon" unicode="&#x395;" horiz-adv-x="481" 
d="M387 0h-382l147 667h382l-26 -118h-248l-33 -151h241l-27 -118h-240l-36 -162h248z" />
    <glyph glyph-name="Zeta" unicode="&#x396;" horiz-adv-x="484" 
d="M394 0h-412l24 110l331 439h-234l26 118h405l-23 -108l-334 -441h243z" />
    <glyph glyph-name="Eta" unicode="&#x397;" horiz-adv-x="608" 
d="M495 0h-135l63 284h-221l-63 -284h-134l147 667h134l-58 -265h221l58 265h135z" />
    <glyph glyph-name="Theta" unicode="&#x398;" horiz-adv-x="622" 
d="M421 280h-208l26 118h208zM287 -12q-113 0 -181.5 71t-68.5 184q0 78 23 155t65 139.5t107 101.5t141 39q113 0 181.5 -71t68.5 -185q0 -78 -23 -154.5t-65 -139t-107 -101.5t-141 -39zM295 107q53 0 97.5 48t68 119.5t23.5 144.5q0 64 -33 102t-87 38q-53 0 -97.5 -48.5
t-68 -120t-23.5 -144.5q0 -64 32.5 -101.5t87.5 -37.5z" />
    <glyph glyph-name="Iota" unicode="&#x399;" horiz-adv-x="252" 
d="M139 0h-134l147 667h134z" />
    <glyph glyph-name="Kappa" unicode="&#x39a;" horiz-adv-x="553" 
d="M498 0h-150l-102 265l-66 -78l-41 -187h-134l147 667h134l-63 -289l243 289h164l-282 -314z" />
    <glyph glyph-name="Lambda" unicode="&#x39b;" horiz-adv-x="554" 
d="M502 0h-140l-18 526l-249 -526h-151l345 667h162z" />
    <glyph glyph-name="Mu" unicode="&#x39c;" horiz-adv-x="735" 
d="M623 0h-134l98 444l-247 -444h-53l-50 444l-98 -444h-134l147 667h176l43 -386l216 386h183z" />
    <glyph glyph-name="Nu" unicode="&#x39d;" horiz-adv-x="606" 
d="M494 0h-128l-137 410l-90 -410h-134l147 667h136l131 -395l87 395h135z" />
    <glyph glyph-name="Xi" unicode="&#x39e;" horiz-adv-x="512" 
d="M539 549h-431l26 118h431zM418 0h-430l26 118h430zM473 280h-417l26 118h417z" />
    <glyph glyph-name="Omicron" unicode="&#x39f;" horiz-adv-x="622" 
d="M287 -12q-113 0 -181.5 71t-68.5 184q0 78 23 155t65 139.5t107 101.5t141 39q113 0 181.5 -71t68.5 -185q0 -78 -23 -154.5t-65 -139t-107 -101.5t-141 -39zM295 107q53 0 97.5 48t68 119.5t23.5 144.5q0 64 -33 102t-87 38q-53 0 -97.5 -48.5t-68 -120t-23.5 -144.5
q0 -64 32.5 -101.5t87.5 -37.5z" />
    <glyph glyph-name="Pi" unicode="&#x3a0;" horiz-adv-x="608" 
d="M495 0h-135l121 549h-221l-121 -549h-134l147 667h490z" />
    <glyph glyph-name="Rho" unicode="&#x3a1;" horiz-adv-x="533" 
d="M139 0h-134l147 667h230q80 0 129 -50.5t49 -126.5q0 -45 -14.5 -87t-44 -79.5t-81 -60t-118.5 -22.5h-110zM218 359h94q48 0 78 35t30 82q0 33 -19.5 53t-50.5 20h-90z" />
    <glyph glyph-name="Sigma" unicode="&#x3a3;" horiz-adv-x="463" 
d="M264 549l111 -213l-205 -218h229l-26 -118h-383l29 133l207 222l-110 207l23 105h381l-26 -118h-230z" />
    <glyph glyph-name="Tau" unicode="&#x3a4;" horiz-adv-x="473" 
d="M250 0h-134l121 549h-148l26 118h430l-26 -118h-148z" />
    <glyph glyph-name="Upsilon" unicode="&#x3a5;" horiz-adv-x="538" 
d="M282 0h-134l60 275l-119 392h141l66 -268l185 268h154l-293 -392z" />
    <glyph glyph-name="Phi" unicode="&#x3a6;" horiz-adv-x="755" 
d="M391 0h-135l16 70q-226 30 -226 229q0 116 95 203t252 98l15 67h135l-16 -71q226 -32 226 -230q0 -115 -95 -202t-252 -99zM186 299q0 -89 113 -111l66 290q-88 -15 -133.5 -64.5t-45.5 -114.5zM612 367q0 89 -112 110l-66 -289q88 15 133 64t45 115z" />
    <glyph glyph-name="Chi" unicode="&#x3a7;" horiz-adv-x="553" 
d="M501 0h-146l-78 230l-172 -230h-161l274 349l-116 318h147l69 -217l157 217h162l-260 -333z" />
    <glyph glyph-name="Psi" unicode="&#x3a8;" horiz-adv-x="773" 
d="M400 0h-134l29 130q-208 29 -208 196q0 32 9 75l61 266h136l-65 -285q-5 -20 -5 -40q0 -76 99 -95l96 420h134l-96 -420q129 24 154 135l66 285h136l-71 -310q-22 -98 -107 -160t-206 -72z" />
    <glyph glyph-name="uni03A9" unicode="&#x3a9;" horiz-adv-x="617" 
d="M16 118h112q-80 72 -80 191q0 60 21.5 124t60.5 119t101 90.5t135 35.5q113 0 185 -61.5t72 -176.5q0 -107 -49.5 -191t-119.5 -131h91l-26 -118h-220l27 118q66 29 110.5 123.5t44.5 177.5q0 65 -30.5 102t-88.5 37q-54 0 -98.5 -51.5t-66.5 -121t-22 -133.5
q0 -93 60 -134l-25 -118h-220z" />
    <glyph glyph-name="Iotadieresis" unicode="&#x3aa;" horiz-adv-x="252" 
d="M139 0h-134l147 667h134zM406 801q0 -28 -22.5 -50t-51.5 -22q-24 0 -40.5 16.5t-16.5 41.5q0 28 22 49.5t51 21.5q25 0 41.5 -16t16.5 -41zM219 801q0 -28 -22 -50t-51 -22q-25 0 -41.5 16.5t-16.5 41.5q0 28 22 49.5t51 21.5q25 0 41.5 -16t16.5 -41z" />
    <glyph glyph-name="Upsilondieresis" unicode="&#x3ab;" horiz-adv-x="538" 
d="M282 0h-134l60 275l-119 392h141l66 -268l185 268h154l-293 -392zM550 801q0 -28 -22.5 -50t-51.5 -22q-24 0 -40.5 16.5t-16.5 41.5q0 28 22 49.5t51 21.5q25 0 41.5 -16t16.5 -41zM363 801q0 -28 -22 -50t-51 -22q-25 0 -41.5 16.5t-16.5 41.5q0 28 22 49.5t51 21.5
q25 0 41.5 -16t16.5 -41z" />
    <glyph glyph-name="alphatonos" unicode="&#x3ac;" horiz-adv-x="517" 
d="M344 555h-53l68 210h101zM467 96l-14 -101q-25 -7 -57 -7q-96 0 -98 83q-60 -83 -133 -83q-67 0 -106 47t-39 130q0 72 24.5 145.5t77.5 129t123 55.5q89 0 124 -75l14 63h120l-77 -347q-8 -42 24 -42q7 0 17 2zM223 94q50 0 87 57l40 181q-10 25 -32 41t-50 16
q-53 0 -88 -68t-35 -136q0 -43 21 -67t57 -24z" />
    <glyph glyph-name="epsilontonos" unicode="&#x3ad;" horiz-adv-x="441" 
d="M312 555h-53l68 210h101zM182 -12q-89 0 -135 33.5t-46 89.5q0 55 46 92.5t102 44.5q-39 7 -63.5 33.5t-24.5 62.5q0 67 64 109t159 42q120 0 177 -77l-72 -68q-37 49 -106 49q-46 0 -75 -17.5t-29 -46.5q0 -44 73 -44h88l-21 -94h-90q-103 0 -103 -66q0 -21 18.5 -34
t53.5 -13q85 0 150 53l43 -76q-90 -73 -209 -73z" />
    <glyph glyph-name="etatonos" unicode="&#x3ae;" horiz-adv-x="500" 
d="M340 555h-53l68 210h101zM350 -184h-120l112 502q3 18 3 24q0 47 -56 47q-47 0 -97 -61l-72 -328h-120l107 483h120l-14 -62q66 74 142 74q55 0 87.5 -27.5t32.5 -74.5q0 -3 -4 -35z" />
    <glyph glyph-name="iotatonos" unicode="&#x3af;" horiz-adv-x="241" 
d="M210 555h-53l68 210h101zM120 -12q-124 0 -95 128l82 367h121l-78 -347q-10 -42 24 -42q7 0 17 2l-14 -101q-25 -7 -57 -7z" />
    <glyph glyph-name="upsilondieresistonos" unicode="&#x3b0;" horiz-adv-x="498" 
d="M341 555h-54l68 210h102zM551 617q0 -28 -22 -50t-51 -22q-25 0 -41.5 16.5t-16.5 41.5q0 28 22 49.5t51 21.5q25 0 41.5 -16t16.5 -41zM265 617q0 -28 -22 -50t-51 -22q-24 0 -40.5 16.5t-16.5 41.5q0 28 22 49.5t51 21.5q24 0 40.5 -16t16.5 -41zM210 -12
q-97 0 -142 57.5t-24 151.5l64 286h120l-64 -290q-11 -47 3.5 -73t52.5 -26q59 0 99.5 72.5t40.5 167.5q0 72 -19 120l119 41q24 -58 24 -150q0 -91 -30.5 -171t-94.5 -133t-149 -53z" />
    <glyph glyph-name="alpha" unicode="&#x3b1;" horiz-adv-x="517" 
d="M467 96l-14 -101q-25 -7 -57 -7q-96 0 -98 83q-60 -83 -133 -83q-67 0 -106 47t-39 130q0 72 24.5 145.5t77.5 129t123 55.5q89 0 124 -75l14 63h120l-77 -347q-8 -42 24 -42q7 0 17 2zM223 94q50 0 87 57l40 181q-10 25 -32 41t-50 16q-53 0 -88 -68t-35 -136
q0 -43 21 -67t57 -24z" />
    <glyph glyph-name="beta" unicode="&#x3b2;" horiz-adv-x="504" 
d="M261 -12q-90 0 -128 72l-54 -244h-120l142 638q26 115 96 169t154 54q83 0 128 -37t45 -108q0 -66 -44 -119.5t-110 -68.5q42 -12 68.5 -44.5t26.5 -88.5q0 -91 -62 -157t-142 -66zM221 453l-68 -303q9 -25 29.5 -40.5t49.5 -15.5q49 0 79.5 37.5t30.5 84.5q0 69 -71 69
h-27l23 107h24q46 0 74.5 33.5t28.5 82.5q0 29 -16 45.5t-45 16.5q-38 0 -68 -29t-44 -88z" />
    <glyph glyph-name="gamma" unicode="&#x3b3;" horiz-adv-x="447" 
d="M188 -184h-120l25 113q34 166 19 308t-70 246h134q29 -72 41.5 -160t0.5 -170q44 61 85 153.5t59 176.5h121q-27 -117 -97.5 -248t-155.5 -229z" />
    <glyph glyph-name="delta" unicode="&#x3b4;" horiz-adv-x="495" 
d="M212 -12q-97 0 -145.5 54t-48.5 137q0 79 43.5 142t116.5 105q-42 39 -42 94q0 66 57.5 112.5t146.5 46.5q106 0 163 -62l-67 -81q-35 48 -107 48q-32 0 -53.5 -15.5t-21.5 -37.5q0 -15 16 -28.5t40 -25t51.5 -30t51.5 -40.5t40 -60.5t16 -86.5q0 -45 -18 -92
t-49.5 -87.5t-81.5 -66.5t-108 -26zM352 248q0 44 -23 71.5t-65 51.5q-53 -28 -86 -75t-33 -105q0 -42 20.5 -69.5t62.5 -27.5q52 0 88 50t36 104z" />
    <glyph glyph-name="epsilon" unicode="&#x3b5;" horiz-adv-x="441" 
d="M182 -12q-89 0 -135 33.5t-46 89.5q0 55 46 92.5t102 44.5q-39 7 -63.5 33.5t-24.5 62.5q0 67 64 109t159 42q120 0 177 -77l-72 -68q-37 49 -106 49q-46 0 -75 -17.5t-29 -46.5q0 -44 73 -44h88l-21 -94h-90q-103 0 -103 -66q0 -21 18.5 -34t53.5 -13q85 0 150 53
l43 -76q-90 -73 -209 -73z" />
    <glyph glyph-name="zeta" unicode="&#x3b6;" horiz-adv-x="415" 
d="M214 -30q0 18 -26 18q-81 0 -128 46t-47 121q0 102 77 208.5t225 198.5h-203l24 105h342l-20 -87q-135 -84 -225.5 -192t-90.5 -205q0 -42 25 -65.5t71 -23.5q101 0 101 -73q0 -64 -86 -178h-122q83 87 83 127z" />
    <glyph glyph-name="eta" unicode="&#x3b7;" horiz-adv-x="500" 
d="M350 -184h-120l112 502q3 18 3 24q0 47 -56 47q-47 0 -97 -61l-72 -328h-120l107 483h120l-14 -62q66 74 142 74q55 0 87.5 -27.5t32.5 -74.5q0 -3 -4 -35z" />
    <glyph glyph-name="theta" unicode="&#x3b8;" horiz-adv-x="495" 
d="M220 -12q-86 0 -137 63t-51 178q0 109 35.5 211.5t103 170.5t148.5 68q86 0 136 -63t50 -178q0 -109 -35 -211.5t-102 -170.5t-148 -68zM227 94q39 0 72.5 54t55.5 135h-196q-7 -43 -7 -81q0 -108 75 -108zM310 573q-39 0 -72 -52.5t-56 -133.5h196q7 51 7 77
q0 109 -75 109z" />
    <glyph glyph-name="iota" unicode="&#x3b9;" horiz-adv-x="241" 
d="M120 -12q-124 0 -95 128l82 367h121l-78 -347q-10 -42 24 -42q7 0 17 2l-14 -101q-25 -7 -57 -7z" />
    <glyph glyph-name="kappa" unicode="&#x3ba;" horiz-adv-x="469" 
d="M412 0h-137l-60 192l-69 -74l-26 -118h-120l107 483h120l-47 -212l190 212h144l-201 -217z" />
    <glyph glyph-name="lambda" unicode="&#x3bb;" horiz-adv-x="447" 
d="M135 565l6 106q24 8 59 8q61 -1 93.5 -26t39.5 -88l62 -565h-125l-21 338l-174 -338h-131l274 492l-5 46q-6 35 -46 35q-18 0 -32 -8z" />
    <glyph glyph-name="uni03BC" unicode="&#x3bc;" horiz-adv-x="512" 
d="M122 10l-43 -194h-121l150 667h120l-71 -319q-8 -34 5.5 -52t42.5 -18q54 0 99 59l73 330h121l-77 -347q-10 -42 23 -42q8 0 18 2l-14 -101q-24 -7 -58 -7q-49 0 -71 21t-22 65q-24 -39 -57.5 -62.5t-67.5 -23.5q-36 0 -50 22z" />
    <glyph glyph-name="nu" unicode="&#x3bd;" horiz-adv-x="447" 
d="M225 0h-120l-53 483h128l22 -356q55 75 98 171.5t62 184.5h121q-27 -119 -99 -252t-159 -231z" />
    <glyph glyph-name="xi" unicode="&#x3be;" horiz-adv-x="415" 
d="M191 -12q-88 0 -135.5 40t-47.5 109q0 68 41.5 115t107.5 68q-35 7 -56.5 33.5t-21.5 65.5q0 42 33 82t84 61h-77l24 105h329l-24 -105h-156q-35 -14 -58.5 -43t-23.5 -61t22 -49.5t60 -17.5h113l-24 -104h-111q-57 0 -94 -30.5t-37 -86.5q0 -34 25.5 -55t73.5 -21
q101 0 101 -73q0 -64 -86 -178h-117q78 91 78 127q0 18 -23 18z" />
    <glyph glyph-name="omicron" unicode="&#x3bf;" horiz-adv-x="495" 
d="M220 -12q-94 0 -146 53.5t-52 144.5q0 117 71 213t181 96q94 0 146 -53.5t52 -144.5q0 -74 -30 -144t-89 -117.5t-133 -47.5zM225 94q53 0 88.5 67.5t35.5 133.5q0 94 -80 94q-53 0 -88.5 -67.5t-35.5 -133.5q0 -94 80 -94z" />
    <glyph glyph-name="pi" unicode="&#x3c0;" horiz-adv-x="541" 
d="M413 0h-121l85 378h-151l-85 -378h-120l84 378h-62l23 105h517l-23 -105h-63z" />
    <glyph glyph-name="rho" unicode="&#x3c1;" horiz-adv-x="503" 
d="M259 -12q-42 0 -75 19t-50 56l-55 -247h-120l95 426q25 114 91.5 183.5t161.5 69.5q83 0 129.5 -51.5t46.5 -137.5q0 -48 -15 -102t-41.5 -103t-71 -81t-96.5 -32zM235 94q53 0 88 68t35 135q0 42 -18.5 67t-49.5 25q-42 0 -72 -40t-45 -107l-19 -91q8 -25 30.5 -41
t50.5 -16z" />
    <glyph glyph-name="sigma1" unicode="&#x3c2;" horiz-adv-x="416" 
d="M193 -12q-69 0 -119.5 54.5t-50.5 145.5q0 77 31.5 146.5t91 115t132.5 45.5q109 0 159 -72l-74 -79q-26 45 -81 45q-60 0 -98.5 -60.5t-38.5 -131.5q0 -103 104 -103q92 0 92 -75q0 -63 -85 -176h-120q83 88 83 127q0 18 -26 18z" />
    <glyph glyph-name="sigma" unicode="&#x3c3;" horiz-adv-x="495" 
d="M461 273q0 -65 -27.5 -129t-84.5 -110t-129 -46q-94 0 -146 53.5t-52 144.5q0 117 77.5 207t199.5 90h233l-24 -106h-78q31 -40 31 -104zM348 288q0 62 -27 89h-35q-63 0 -102 -60t-39 -129q0 -94 80 -94q36 0 65.5 34.5t43.5 78.5t14 81z" />
    <glyph glyph-name="tau" unicode="&#x3c4;" horiz-adv-x="394" 
d="M215 -12q-134 0 -105 129l57 261h-119l24 105h358l-24 -105h-119l-52 -236q-5 -23 3 -35.5t26 -12.5q21 0 36 13l4 -94q-34 -25 -89 -25z" />
    <glyph glyph-name="upsilon" unicode="&#x3c5;" horiz-adv-x="498" 
d="M210 -12q-97 0 -142 57.5t-24 151.5l64 286h120l-64 -290q-11 -47 3.5 -73t52.5 -26q59 0 99.5 72.5t40.5 167.5q0 72 -19 120l119 41q24 -58 24 -150q0 -91 -30.5 -171t-94.5 -133t-149 -53z" />
    <glyph glyph-name="phi" unicode="&#x3c6;" horiz-adv-x="702" 
d="M681 282q0 -110 -86.5 -195.5t-239.5 -96.5l-39 -174h-120l39 177q-106 15 -159 70.5t-53 143.5q0 92 58.5 167.5t169.5 120.5l32 -94q-63 -27 -98 -76.5t-35 -108.5q0 -98 109 -118l88 397h60q133 0 203.5 -57.5t70.5 -155.5zM443 384l-64 -286q90 15 132.5 66.5
t42.5 108.5q0 48 -28.5 77.5t-82.5 33.5z" />
    <glyph glyph-name="chi" unicode="&#x3c7;" horiz-adv-x="438" 
d="M341 -184h-126l-37 224l-139 -224h-133l218 339l-61 328h125l34 -211l127 211h133l-208 -328z" />
    <glyph glyph-name="psi" unicode="&#x3c8;" horiz-adv-x="702" 
d="M316 -184h-120l39 178q-93 13 -141 58.5t-48 120.5q0 31 9 72l53 238h120l-56 -252q-5 -20 -5 -43q0 -73 92 -90l127 569h121l-128 -568q122 21 147 132l56 252h120l-60 -268q-22 -99 -98 -158t-189 -67z" />
    <glyph glyph-name="omega" unicode="&#x3c9;" horiz-adv-x="744" 
d="M725 316q0 -76 -28.5 -150.5t-85 -126t-125.5 -51.5q-64 0 -99 34t-40 94q-65 -128 -175 -128q-71 0 -112 52.5t-41 133.5q0 93 48 182t123 139l77 -69q-58 -40 -91.5 -108t-33.5 -135q0 -39 15 -64t44 -25q40 0 68 41t43 107l27 122h120l-27 -122q-16 -60 -4.5 -104
t52.5 -44q51 0 86 70.5t35 141.5q0 86 -36 126l102 63q27 -26 42.5 -75t15.5 -104z" />
    <glyph glyph-name="iotadieresis" unicode="&#x3ca;" horiz-adv-x="241" 
d="M358 617q0 -28 -22.5 -50t-51.5 -22q-24 0 -40.5 16.5t-16.5 41.5q0 28 22 49.5t51 21.5q25 0 41.5 -16t16.5 -41zM171 617q0 -28 -22 -50t-51 -22q-25 0 -41.5 16.5t-16.5 41.5q0 28 22 49.5t51 21.5q25 0 41.5 -16t16.5 -41zM120 -12q-124 0 -95 128l82 367h121
l-78 -347q-10 -42 24 -42q7 0 17 2l-14 -101q-25 -7 -57 -7z" />
    <glyph glyph-name="upsilondieresis" unicode="&#x3cb;" horiz-adv-x="498" 
d="M495 617q0 -28 -22.5 -50t-51.5 -22q-24 0 -40.5 16.5t-16.5 41.5q0 28 22 49.5t51 21.5q25 0 41.5 -16t16.5 -41zM308 617q0 -28 -22 -50t-51 -22q-25 0 -41.5 16.5t-16.5 41.5q0 28 22 49.5t51 21.5q25 0 41.5 -16t16.5 -41zM210 -12q-97 0 -142 57.5t-24 151.5l64 286
h120l-64 -290q-11 -47 3.5 -73t52.5 -26q59 0 99.5 72.5t40.5 167.5q0 72 -19 120l119 41q24 -58 24 -150q0 -91 -30.5 -171t-94.5 -133t-149 -53z" />
    <glyph glyph-name="omicrontonos" unicode="&#x3cc;" horiz-adv-x="495" 
d="M338 555h-53l68 210h101zM220 -12q-94 0 -146 53.5t-52 144.5q0 117 71 213t181 96q94 0 146 -53.5t52 -144.5q0 -74 -30 -144t-89 -117.5t-133 -47.5zM225 94q53 0 88.5 67.5t35.5 133.5q0 94 -80 94q-53 0 -88.5 -67.5t-35.5 -133.5q0 -94 80 -94z" />
    <glyph glyph-name="upsilontonos" unicode="&#x3cd;" horiz-adv-x="498" 
d="M345 555h-53l68 210h101zM210 -12q-97 0 -142 57.5t-24 151.5l64 286h120l-64 -290q-11 -47 3.5 -73t52.5 -26q59 0 99.5 72.5t40.5 167.5q0 72 -19 120l119 41q24 -58 24 -150q0 -91 -30.5 -171t-94.5 -133t-149 -53z" />
    <glyph glyph-name="omegatonos" unicode="&#x3ce;" horiz-adv-x="744" 
d="M463 555h-53l68 210h101zM725 316q0 -76 -28.5 -150.5t-85 -126t-125.5 -51.5q-64 0 -99 34t-40 94q-65 -128 -175 -128q-71 0 -112 52.5t-41 133.5q0 93 48 182t123 139l77 -69q-58 -40 -91.5 -108t-33.5 -135q0 -39 15 -64t44 -25q40 0 68 41t43 107l27 122h120
l-27 -122q-16 -60 -4.5 -104t52.5 -44q51 0 86 70.5t35 141.5q0 86 -36 126l102 63q27 -26 42.5 -75t15.5 -104z" />
    <glyph glyph-name="afii10023" unicode="&#x401;" horiz-adv-x="481" 
d="M527 784q0 -28 -22.5 -50t-51.5 -22q-24 0 -40.5 16.5t-16.5 41.5q0 28 22 49.5t51 21.5q25 0 41.5 -16t16.5 -41zM340 784q0 -28 -22 -50t-51 -22q-25 0 -41.5 16.5t-16.5 41.5q0 28 22 49.5t51 21.5q25 0 41.5 -16t16.5 -41zM387 0h-382l147 667h382l-26 -118h-248
l-33 -151h241l-27 -118h-240l-36 -162h248z" />
    <glyph glyph-name="afii10051" unicode="&#x402;" horiz-adv-x="646" 
d="M343 -12l26 117q84 0 105 89l3 13q10 46 -12.5 72t-71.5 26q-50 0 -90 -14l-64 -291h-134l120 549h-148l26 118h430l-26 -118h-148l-31 -141q60 14 110 14q106 0 149.5 -61t23.5 -153l-3 -14q-21 -102 -94.5 -154t-170.5 -52z" />
    <glyph glyph-name="afii10052" unicode="&#x403;" horiz-adv-x="473" 
d="M554 867l-166 -144h-82l139 144h109zM139 0h-134l147 667h382l-26 -118h-248z" />
    <glyph glyph-name="afii10053" unicode="&#x404;" horiz-adv-x="558" 
d="M287 -12q-111 0 -180.5 69t-69.5 186q0 109 40 207.5t118.5 163t177.5 64.5q97 0 153 -52.5t75 -131.5l-126 -37q-12 47 -40 74.5t-70 27.5q-51 0 -94 -45t-69 -116h252l-26 -118h-252q-1 -12 -1 -34q0 -64 32 -101.5t88 -37.5q68 0 120 79l105 -58q-88 -140 -233 -140z
" />
    <glyph glyph-name="afii10054" unicode="&#x405;" horiz-adv-x="498" 
d="M226 -12q-75 0 -139.5 27.5t-98.5 72.5l81 99q26 -37 70 -59t93 -22q41 0 65 24t24 60q0 24 -24.5 45.5t-59.5 40.5t-70 42t-59.5 60t-24.5 83q0 89 65.5 153t167.5 64q62 0 118.5 -23t91.5 -64l-78 -96q-25 31 -64 48t-79 17q-35 0 -57.5 -22t-22.5 -52
q0 -19 17.5 -37.5t44 -32.5t57 -34t57 -41t44 -54.5t17.5 -72.5q0 -95 -65 -160.5t-171 -65.5z" />
    <glyph glyph-name="afii10055" unicode="&#x406;" horiz-adv-x="252" 
d="M139 0h-134l147 667h134z" />
    <glyph glyph-name="afii10056" unicode="&#x407;" horiz-adv-x="252" 
d="M403 784q0 -28 -22.5 -50t-51.5 -22q-24 0 -40.5 16.5t-16.5 41.5q0 28 22 49.5t51 21.5q25 0 41.5 -16t16.5 -41zM216 784q0 -28 -22 -50t-51 -22q-25 0 -41.5 16.5t-16.5 41.5q0 28 22 49.5t51 21.5q25 0 41.5 -16t16.5 -41zM139 0h-134l147 667h134z" />
    <glyph glyph-name="afii10057" unicode="&#x408;" horiz-adv-x="417" 
d="M126 -12q-106 0 -159 59l64 103q29 -43 84 -43q79 0 99 90l104 470h134l-105 -474q-23 -106 -76.5 -155.5t-144.5 -49.5z" />
    <glyph glyph-name="afii10058" unicode="&#x409;" horiz-adv-x="888" 
d="M-35 -12l26 119q30 0 50.5 13.5t45 60t52.5 134.5l109 352h393l-53 -241h95q81 0 130 -50.5t49 -126.5q0 -45 -14.5 -87t-44 -79.5t-81 -60t-117.5 -22.5h-244l120 549h-136l-74 -240q-31 -100 -65.5 -165.5t-74.5 -98.5t-78 -45t-88 -12zM653 308h-91l-42 -190h92
q50 0 80 35t30 82q0 33 -19 53t-50 20z" />
    <glyph glyph-name="afii10059" unicode="&#x40a;" horiz-adv-x="888" 
d="M605 0h-249l63 288h-221l-63 -288h-134l146 667h134l-57 -261h221l58 261h134l-57 -261h100q79 0 126.5 -48t47.5 -122q0 -92 -63.5 -164t-185.5 -72zM649 288h-95l-38 -170h98q44 0 73 31t29 73q0 31 -18.5 48.5t-48.5 17.5z" />
    <glyph glyph-name="afii10060" unicode="&#x40b;" horiz-adv-x="662" 
d="M427 0l42 194q24 111 -76 111q-50 0 -90 -14l-64 -291h-134l120 549h-148l26 118h430l-26 -118h-148l-31 -141q60 14 110 14q107 0 148 -63t18 -165l-42 -194h-135z" />
    <glyph glyph-name="afii10061" unicode="&#x40c;" horiz-adv-x="553" 
d="M584 867l-166 -144h-82l139 144h109zM498 0h-150l-102 265l-66 -78l-41 -187h-134l147 667h134l-63 -289l243 289h164l-282 -314z" />
    <glyph glyph-name="afii10062" unicode="&#x40e;" horiz-adv-x="538" 
d="M68 -12q-76 0 -117 38l65 109q27 -27 65 -27q44 0 84 59l19 31l-96 469h143l54 -326l197 326h152l-348 -543q-45 -69 -95.5 -102.5t-122.5 -33.5zM530 780q-73 -75 -166 -75t-134 75l61 44q25 -50 85 -50t105 50z" />
    <glyph glyph-name="afii10145" unicode="&#x40f;" horiz-adv-x="608" 
d="M154 -127l28 127h-177l146 667h135l-121 -549h221l121 549h134l-146 -667h-178l-28 -127h-135z" />
    <glyph glyph-name="afii10017" unicode="&#x410;" horiz-adv-x="554" 
d="M502 0h-140l-5 118h-206l-56 -118h-151l345 667h162zM355 236l-11 290l-140 -290h151z" />
    <glyph glyph-name="afii10018" unicode="&#x411;" horiz-adv-x="533" 
d="M151 667h410l-26 -118h-275l-28 -126h91q84 0 133.5 -50t49.5 -126q0 -44 -14.5 -86t-44 -79t-80.5 -59.5t-117 -22.5h-245zM299 305h-93l-41 -187h94q50 0 79 34t29 82q0 33 -19 52t-49 19z" />
    <glyph glyph-name="afii10019" unicode="&#x412;" horiz-adv-x="558" 
d="M299 0h-294l147 667h245q79 0 124 -43.5t45 -108.5q0 -67 -41.5 -121t-102.5 -61q41 -11 64 -47t23 -80q0 -82 -53.5 -144t-156.5 -62zM227 397h113q41 0 62.5 28.5t21.5 64.5q0 27 -18 43.5t-47 16.5h-98zM281 117q42 0 67.5 29t25.5 71q0 30 -17.5 47t-49.5 17h-106
l-36 -164h116z" />
    <glyph glyph-name="afii10020" unicode="&#x413;" horiz-adv-x="473" 
d="M139 0h-134l147 667h382l-26 -118h-248z" />
    <glyph glyph-name="afii10021" unicode="&#x414;" horiz-adv-x="619" 
d="M-61 -123l50 230q33 6 52.5 18.5t45.5 60t54 138.5l107 343h393l-121 -549h56l-53 -241h-134l27 123h-316l-27 -123h-134zM345 549l-71 -227q-43 -140 -115 -204h227l95 431h-136z" />
    <glyph glyph-name="afii10022" unicode="&#x415;" horiz-adv-x="481" 
d="M387 0h-382l147 667h382l-26 -118h-248l-33 -151h241l-27 -118h-240l-36 -162h248z" />
    <glyph glyph-name="afii10024" unicode="&#x416;" horiz-adv-x="802" 
d="M113 0h-166l306 353l-145 314h149l109 -274l60 274h134l-54 -247l208 247h164l-282 -314l151 -353h-151l-99 267l-33 -40l-50 -227h-134l50 228l-11 27z" />
    <glyph glyph-name="afii10025" unicode="&#x417;" horiz-adv-x="525" 
d="M242 -12q-83 0 -152.5 36t-97.5 101l99 74q20 -44 61.5 -68t86.5 -24q50 0 79.5 31t29.5 70q0 72 -103 72h-101l27 118h110q55 0 87 25.5t32 66.5q0 32 -27.5 50t-75.5 18q-79 0 -132 -55l-59 86q85 88 208 88q101 0 163.5 -42.5t62.5 -118.5q0 -66 -51.5 -117.5
t-117.5 -60.5q51 -13 80 -49.5t29 -87.5q0 -89 -69.5 -151t-168.5 -62z" />
    <glyph glyph-name="afii10026" unicode="&#x418;" horiz-adv-x="606" 
d="M133 0h-128l147 667h134l-87 -395l305 395h137l-147 -667h-135l90 410z" />
    <glyph glyph-name="afii10027" unicode="&#x419;" horiz-adv-x="606" 
d="M133 0h-128l147 667h134l-87 -395l305 395h137l-147 -667h-135l90 410zM568 780q-73 -75 -166 -75t-134 75l61 44q25 -50 85 -50t105 50z" />
    <glyph glyph-name="afii10028" unicode="&#x41a;" horiz-adv-x="553" 
d="M498 0h-150l-102 265l-66 -78l-41 -187h-134l147 667h134l-63 -289l243 289h164l-282 -314z" />
    <glyph glyph-name="afii10029" unicode="&#x41b;" horiz-adv-x="608" 
d="M-35 -12l26 119q30 0 50.5 13.5t45 60.5t52.5 136l109 350h393l-146 -667h-135l121 549h-136l-74 -240q-31 -100 -65.5 -165.5t-74.5 -98.5t-78 -45t-88 -12z" />
    <glyph glyph-name="afii10030" unicode="&#x41c;" horiz-adv-x="735" 
d="M623 0h-134l98 444l-247 -444h-53l-50 444l-98 -444h-134l147 667h176l43 -386l216 386h183z" />
    <glyph glyph-name="afii10031" unicode="&#x41d;" horiz-adv-x="608" 
d="M495 0h-135l63 284h-221l-63 -284h-134l147 667h134l-58 -265h221l58 265h135z" />
    <glyph glyph-name="afii10032" unicode="&#x41e;" horiz-adv-x="622" 
d="M287 -12q-113 0 -181.5 71t-68.5 184q0 78 23 155t65 139.5t107 101.5t141 39q113 0 181.5 -71t68.5 -185q0 -78 -23 -154.5t-65 -139t-107 -101.5t-141 -39zM295 107q53 0 97.5 48t68 119.5t23.5 144.5q0 64 -33 102t-87 38q-53 0 -97.5 -48.5t-68 -120t-23.5 -144.5
q0 -64 32.5 -101.5t87.5 -37.5z" />
    <glyph glyph-name="afii10033" unicode="&#x41f;" horiz-adv-x="608" 
d="M495 0h-135l121 549h-221l-121 -549h-134l147 667h490z" />
    <glyph glyph-name="afii10034" unicode="&#x420;" horiz-adv-x="533" 
d="M139 0h-134l147 667h230q80 0 129 -50.5t49 -126.5q0 -45 -14.5 -87t-44 -79.5t-81 -60t-118.5 -22.5h-110zM218 359h94q48 0 78 35t30 82q0 33 -19.5 53t-50.5 20h-90z" />
    <glyph glyph-name="afii10035" unicode="&#x421;" horiz-adv-x="558" 
d="M287 -12q-111 0 -180.5 69t-69.5 186q0 109 40 207.5t118.5 163t177.5 64.5q97 0 153.5 -54t75.5 -136l-127 -34q-12 49 -40 77t-70 28q-52 0 -97 -48.5t-69 -120.5t-24 -144q0 -64 32 -101.5t88 -37.5q68 0 120 79l105 -58q-88 -140 -233 -140z" />
    <glyph glyph-name="afii10036" unicode="&#x422;" horiz-adv-x="473" 
d="M250 0h-134l121 549h-148l26 118h430l-26 -118h-148z" />
    <glyph glyph-name="afii10037" unicode="&#x423;" horiz-adv-x="538" 
d="M68 -12q-76 0 -117 38l65 109q27 -27 65 -27q44 0 84 59l19 31l-96 469h143l54 -326l197 326h152l-348 -543q-45 -69 -95.5 -102.5t-122.5 -33.5z" />
    <glyph glyph-name="afii10038" unicode="&#x424;" horiz-adv-x="755" 
d="M391 0h-135l16 70q-226 30 -226 229q0 116 95 203t252 98l15 67h135l-16 -71q226 -32 226 -230q0 -115 -95 -202t-252 -99zM186 299q0 -89 113 -111l66 290q-88 -15 -133.5 -64.5t-45.5 -114.5zM612 367q0 89 -112 110l-66 -289q88 15 133 64t45 115z" />
    <glyph glyph-name="afii10039" unicode="&#x425;" horiz-adv-x="553" 
d="M501 0h-146l-78 230l-172 -230h-161l274 349l-116 318h147l69 -217l157 217h162l-260 -333z" />
    <glyph glyph-name="afii10040" unicode="&#x426;" horiz-adv-x="619" 
d="M389 -123l27 123h-411l146 667h135l-121 -549h221l121 549h134l-121 -549h57l-54 -241h-134z" />
    <glyph glyph-name="afii10041" unicode="&#x427;" horiz-adv-x="560" 
d="M271 667l-43 -199q-13 -54 7 -82.5t69 -28.5q50 0 90 14l65 296h135l-147 -667h-134l55 254q-55 -15 -110 -15q-106 0 -147 63.5t-18 165.5l44 199h134z" />
    <glyph glyph-name="afii10042" unicode="&#x428;" horiz-adv-x="838" 
d="M737 667h134l-146 -667h-720l146 667h134l-120 -549h159l120 549h134l-120 -549h159z" />
    <glyph glyph-name="afii10043" unicode="&#x429;" horiz-adv-x="850" 
d="M737 667h134l-121 -549h55l-53 -241h-134l27 123h-640l146 667h134l-120 -549h159l120 549h134l-120 -549h159z" />
    <glyph glyph-name="afii10044" unicode="&#x42a;" horiz-adv-x="643" 
d="M360 0h-244l120 549h-148l26 118h282l-53 -241h96q80 0 129 -50.5t49 -126.5q0 -45 -14.5 -87t-44 -79.5t-81 -60t-117.5 -22.5zM408 308h-91l-42 -190h93q50 0 79.5 34.5t29.5 82.5q0 33 -19 53t-50 20z" />
    <glyph glyph-name="afii10045" unicode="&#x42b;" horiz-adv-x="756" 
d="M644 0h-135l147 667h134zM151 667h135l-53 -241h95q81 0 129.5 -50.5t48.5 -126.5q0 -45 -14.5 -87t-44 -79.5t-80.5 -60t-117 -22.5h-245zM297 308h-90l-42 -190h92q50 0 80 35t30 82q0 33 -19.5 53t-50.5 20z" />
    <glyph glyph-name="afii10046" unicode="&#x42c;" horiz-adv-x="533" 
d="M151 667h135l-53 -241h95q81 0 129.5 -50.5t48.5 -126.5q0 -45 -14.5 -87t-44 -79.5t-80.5 -60t-117 -22.5h-245zM297 308h-90l-42 -190h92q50 0 80 35t30 82q0 33 -19.5 53t-50.5 20z" />
    <glyph glyph-name="afii10047" unicode="&#x42d;" horiz-adv-x="558" 
d="M308 678q112 0 181.5 -69t69.5 -186q0 -109 -40 -207.5t-118.5 -163t-177.5 -64.5q-98 0 -154 52.5t-74 131.5l126 37q11 -47 39.5 -74.5t70.5 -27.5q53 0 96.5 48.5t69.5 124.5h-253l27 118h248q1 7 1 22q0 65 -32 102t-87 37q-69 0 -120 -79l-105 58q88 140 232 140z
" />
    <glyph glyph-name="afii10048" unicode="&#x42e;" horiz-adv-x="870" 
d="M535 -12q-113 0 -181.5 71t-68.5 184q0 27 1 41h-84l-63 -284h-134l146 667h135l-58 -265h81q36 120 117.5 198t194.5 78t181.5 -71t68.5 -185q0 -78 -23 -154.5t-65 -139t-107 -101.5t-141 -39zM543 107q53 0 97.5 48t68 119.5t23.5 144.5q0 64 -33 102t-87 38
q-53 0 -97.5 -48.5t-68 -120t-23.5 -144.5q0 -64 32.5 -101.5t87.5 -37.5z" />
    <glyph glyph-name="afii10049" unicode="&#x42f;" horiz-adv-x="551" 
d="M142 0h-161l183 269q-33 19 -56.5 58t-23.5 92q0 44 14.5 86.5t44 79.5t81 59.5t117.5 22.5h244l-147 -667h-134l54 241h-61zM293 359h90l42 190h-93q-49 0 -79 -35t-30 -82q0 -33 19.5 -53t50.5 -20z" />
    <glyph glyph-name="afii10065" unicode="&#x430;" horiz-adv-x="504" 
d="M245 495q89 0 124 -75l14 63h120l-107 -483h-120l13 59q-52 -71 -124 -71q-68 0 -106.5 46t-38.5 131q0 72 24.5 145.5t77.5 129t123 55.5zM268 389q-53 0 -88 -68t-35 -136q0 -43 21 -67t57 -24q50 0 87 57l40 181q-10 25 -32 41t-50 16z" />
    <glyph glyph-name="afii10066" unicode="&#x431;" horiz-adv-x="497" 
d="M225 94q53 0 88.5 67.5t35.5 133.5q0 94 -80 94q-53 0 -88.5 -67.5t-35.5 -133.5q0 -94 80 -94zM220 -12q-95 0 -146 54.5t-51 148.5q0 98 51 220q39 88 102.5 142.5t165.5 73.5q72 13 78 40h122q-23 -103 -197 -131q-137 -22 -173 -111q59 69 144 69q71 0 113.5 -54
t42.5 -143q0 -117 -71 -213t-181 -96z" />
    <glyph glyph-name="afii10067" unicode="&#x432;" horiz-adv-x="502" 
d="M272 0h-272l106 483h236q60 0 95 -28.5t36 -74.5q0 -49 -29 -86t-81 -49q68 -24 69 -92q0 -62 -42 -107.5t-118 -45.5zM141 97h111q27 0 43.5 18t15.5 42q0 41 -48 41h-99zM185 295h105q25 0 40 16t15 37q0 38 -45 38h-96z" />
    <glyph glyph-name="afii10068" unicode="&#x433;" horiz-adv-x="383" 
d="M418 483l-23 -105h-192l-83 -378h-120l106 483h312z" />
    <glyph glyph-name="afii10069" unicode="&#x434;" horiz-adv-x="510" 
d="M-63 -123l47 219q21 5 34 13t31 39t36 87l78 248h335l-83 -378h50l-50 -228h-121l27 123h-238l-27 -123h-119zM248 378l-45 -151q-24 -79 -75 -122h166l60 273h-106z" />
    <glyph glyph-name="afii10070" unicode="&#x435;" 
d="M230 -12q-97 0 -152.5 52.5t-55.5 147.5q0 71 29.5 140t89 118t133.5 49q85 0 134 -50.5t49 -139.5q0 -47 -15 -102h-302q-2 -18 -2 -27q0 -35 27.5 -63t79.5 -28q58 0 103 38l39 -78q-65 -57 -157 -57zM155 285h191q3 13 3 30q0 35 -22 59.5t-61 24.5q-43 0 -73 -35.5
t-38 -78.5z" />
    <glyph glyph-name="afii10072" unicode="&#x436;" horiz-adv-x="645" 
d="M97 0h-148l216 266l-105 217h134l80 -180l40 180h120l-35 -161l143 161h146l-200 -217l100 -266h-135l-60 195l-29 -32l-36 -163h-120l36 164l-10 20z" />
    <glyph glyph-name="afii10073" unicode="&#x437;" horiz-adv-x="441" 
d="M261 495q88 0 132.5 -32.5t44.5 -89.5q0 -55 -43.5 -91t-98.5 -43q39 -7 65.5 -35t26.5 -63q0 -67 -63.5 -110t-155.5 -43q-61 0 -110.5 21t-75.5 56l72 69q40 -50 114 -50q43 0 72 18t29 47q0 22 -18.5 35t-53.5 13h-93l21 94h89q45 0 72 16t27 46q0 46 -70 46
q-79 0 -145 -53l-45 76q90 73 207 73z" />
    <glyph glyph-name="afii10074" unicode="&#x438;" horiz-adv-x="500" 
d="M116 0h-116l106 483h120l-60 -272l209 272h123l-106 -483h-121l62 283z" />
    <glyph glyph-name="afii10075" unicode="&#x439;" horiz-adv-x="500" 
d="M116 0h-116l106 483h120l-60 -272l209 272h123l-106 -483h-121l62 283zM479 613q-73 -75 -166 -75t-134 75l61 44q25 -50 85 -50t105 50z" />
    <glyph glyph-name="afii10076" unicode="&#x43a;" horiz-adv-x="469" 
d="M412 0h-137l-60 192l-69 -74l-26 -118h-120l107 483h120l-47 -212l190 212h144l-201 -217z" />
    <glyph glyph-name="afii10077" unicode="&#x43b;" horiz-adv-x="500" 
d="M-40 -12l22 101q29 0 52.5 30.5t50.5 115.5l78 248h335l-106 -483h-121l83 378h-106l-46 -155q-40 -128 -97 -181.5t-145 -53.5z" />
    <glyph glyph-name="afii10078" unicode="&#x43c;" horiz-adv-x="614" 
d="M506 0h-119l63 293l-171 -293h-52l-43 293l-64 -293h-120l106 483h149l40 -269l160 269h157z" />
    <glyph glyph-name="afii10079" unicode="&#x43d;" horiz-adv-x="500" 
d="M120 0h-120l108 483h121l-40 -178h150l40 178h121l-108 -483h-121l45 200h-151z" />
    <glyph glyph-name="afii10080" unicode="&#x43e;" horiz-adv-x="495" 
d="M220 -12q-94 0 -146 53.5t-52 144.5q0 117 71 213t181 96q94 0 146 -53.5t52 -144.5q0 -74 -30 -144t-89 -117.5t-133 -47.5zM225 94q53 0 88.5 67.5t35.5 133.5q0 94 -80 94q-53 0 -88.5 -67.5t-35.5 -133.5q0 -94 80 -94z" />
    <glyph glyph-name="afii10081" unicode="&#x43f;" horiz-adv-x="500" 
d="M392 0h-121l85 378h-151l-85 -378h-120l108 483h392z" />
    <glyph glyph-name="afii10082" unicode="&#x440;" horiz-adv-x="503" 
d="M259 -12q-91 0 -125 75l-55 -247h-119l147 667h120l-13 -59q52 71 124 71q68 0 106.5 -46t38.5 -131q0 -72 -24.5 -145.5t-77.5 -129t-122 -55.5zM235 94q53 0 88 68t35 135q0 43 -21 67.5t-56 24.5q-50 0 -88 -58l-40 -180q10 -25 32 -41t50 -16z" />
    <glyph glyph-name="afii10083" unicode="&#x441;" horiz-adv-x="421" 
d="M222 -12q-91 0 -145 53.5t-54 146.5q0 77 31.5 146.5t91 115t132.5 45.5q109 0 159 -72l-74 -79q-26 45 -81 45q-60 0 -98.5 -60.5t-38.5 -131.5q0 -50 27 -76.5t69 -26.5q47 0 80 38l45 -87q-59 -57 -144 -57z" />
    <glyph glyph-name="afii10084" unicode="&#x442;" horiz-adv-x="367" 
d="M190 0h-121l83 378h-107l24 105h334l-24 -105h-107z" />
    <glyph glyph-name="afii10085" unicode="&#x443;" horiz-adv-x="447" 
d="M-51 -184l39 102q11 -7 36 -7q31 0 51 34l28 50l-52 488h124l22 -338l174 338h131l-315 -565q-36 -64 -73 -89t-90 -25q-44 0 -75 12z" />
    <glyph glyph-name="afii10086" unicode="&#x444;" horiz-adv-x="735" 
d="M233 495q36 0 66.5 -19t45.5 -55l54 246h120l-53 -244q49 72 117 72q62 0 93.5 -47.5t31.5 -122.5q0 -72 -23.5 -147.5t-73 -132.5t-112.5 -57q-37 0 -67 19t-45 55l-55 -246h-120l54 244q-48 -72 -118 -72q-61 0 -93 48t-32 122q0 72 23.5 147.5t73.5 132.5t113 57z
M261 389q-32 0 -59 -36.5t-40.5 -84t-13.5 -89.5q0 -85 60 -85q42 0 78 56l39 180q-6 25 -23 42t-41 17zM471 94q32 0 59 36.5t40 84t13 89.5q0 85 -59 85q-43 0 -78 -56l-39 -180q6 -25 23 -42t41 -17z" />
    <glyph glyph-name="afii10087" unicode="&#x445;" horiz-adv-x="438" 
d="M382 0h-127l-51 161l-122 -161h-135l196 246l-81 237h127l45 -152l112 152h135l-188 -237z" />
    <glyph glyph-name="afii10088" unicode="&#x446;" horiz-adv-x="510" 
d="M295 -123l27 123h-322l106 483h120l-83 -378h151l83 378h121l-83 -378h50l-50 -228h-120z" />
    <glyph glyph-name="afii10089" unicode="&#x447;" horiz-adv-x="488" 
d="M94 483h121l-32 -147q-9 -37 5.5 -53t54.5 -16q43 0 79 17l43 199h121l-106 -483h-121l42 190q-53 -29 -124 -29q-83 0 -111 33.5t-13 100.5z" />
    <glyph glyph-name="afii10090" unicode="&#x448;" horiz-adv-x="717" 
d="M595 483h120l-106 -483h-609l106 483h120l-83 -378h124l83 378h121l-83 -378h124z" />
    <glyph glyph-name="afii10091" unicode="&#x449;" horiz-adv-x="731" 
d="M595 483h120l-83 -378h50l-50 -228h-120l27 123h-539l106 483h120l-83 -378h124l83 378h121l-83 -378h124z" />
    <glyph glyph-name="afii10092" unicode="&#x44a;" horiz-adv-x="546" 
d="M315 0h-246l83 378h-107l24 105h227l-38 -169h88q72 0 114 -36t42 -96q0 -72 -50.5 -127t-136.5 -55zM325 216h-88l-26 -118h101q29 0 47 21.5t18 50.5q0 46 -52 46z" />
    <glyph glyph-name="afii10093" unicode="&#x44b;" horiz-adv-x="680" 
d="M572 0h-120l106 483h120zM106 483h120l-37 -169h88q72 0 114 -36t42 -96q0 -72 -50.5 -127t-136.5 -55h-246zM256 216h-88l-26 -118h100q30 0 48 21.5t18 50.5q0 46 -52 46z" />
    <glyph glyph-name="afii10094" unicode="&#x44c;" horiz-adv-x="477" 
d="M106 483h120l-37 -169h88q72 0 114 -36t42 -96q0 -72 -50.5 -127t-136.5 -55h-246zM256 216h-88l-26 -118h100q30 0 48 21.5t18 50.5q0 46 -52 46z" />
    <glyph glyph-name="afii10095" unicode="&#x44d;" horiz-adv-x="421" 
d="M198 495q92 0 146 -53.5t54 -146.5q0 -77 -31.5 -146.5t-91 -115t-132.5 -45.5q-109 0 -160 72l70 72q27 -44 82 -44q42 0 74 30t50 79h-167l20 93h163q-1 49 -28 77t-68 28q-47 0 -83 -36l-42 81q59 55 144 55z" />
    <glyph glyph-name="afii10096" unicode="&#x44e;" horiz-adv-x="709" 
d="M434 -12q-94 0 -146 53.5t-52 144.5v12h-72l-44 -198h-120l106 483h120l-39 -180h69q29 83 90 137.5t142 54.5q94 0 146 -53.5t52 -144.5q0 -74 -30 -144t-89 -117.5t-133 -47.5zM439 94q53 0 88.5 67.5t35.5 133.5q0 94 -80 94q-53 0 -88.5 -67.5t-35.5 -133.5
q0 -94 80 -94z" />
    <glyph glyph-name="afii10097" unicode="&#x44f;" horiz-adv-x="497" 
d="M122 0h-139l141 190q-66 33 -66 111q0 73 51 127.5t137 54.5h249l-106 -483h-120l37 169h-69zM235 267h92l26 118h-104q-29 0 -47.5 -21.5t-18.5 -50.5q0 -46 52 -46z" />
    <glyph glyph-name="afii10071" unicode="&#x451;" 
d="M488 617q0 -28 -22.5 -50t-51.5 -22q-24 0 -40.5 16.5t-16.5 41.5q0 28 22 49.5t51 21.5q25 0 41.5 -16t16.5 -41zM301 617q0 -28 -22 -50t-51 -22q-25 0 -41.5 16.5t-16.5 41.5q0 28 22 49.5t51 21.5q25 0 41.5 -16t16.5 -41zM230 -12q-97 0 -152.5 52.5t-55.5 147.5
q0 71 29.5 140t89 118t133.5 49q85 0 134 -50.5t49 -139.5q0 -47 -15 -102h-302q-2 -18 -2 -27q0 -35 27.5 -63t79.5 -28q58 0 103 38l39 -78q-65 -57 -157 -57zM155 285h191q3 13 3 30q0 35 -22 59.5t-61 24.5q-43 0 -73 -35.5t-38 -78.5z" />
    <glyph glyph-name="afii10099" unicode="&#x452;" horiz-adv-x="508" 
d="M376 529h-132l-24 -109q28 31 71 53t87 22q130 0 101 -131l-86 -392q-36 -168 -190 -168q-55 0 -85 29l50 91q16 -19 41 -19q50 0 64 67l76 347q16 70 -48 70q-51 0 -101 -60l-72 -329h-120l116 529h-48l14 69h49l15 69h121l-16 -69h131z" />
    <glyph glyph-name="afii10100" unicode="&#x453;" horiz-adv-x="383" 
d="M479 700l-166 -144h-82l139 144h109zM418 483l-23 -105h-192l-83 -378h-120l106 483h312z" />
    <glyph glyph-name="afii10101" unicode="&#x454;" horiz-adv-x="421" 
d="M222 -12q-91 0 -145 53.5t-54 146.5q0 77 31.5 146.5t91 115t132.5 45.5q109 0 159 -72l-69 -72q-28 44 -83 44q-41 0 -73 -29.5t-50 -75.5h168l-21 -93h-164q1 -51 28 -80t69 -29q48 0 82 36l42 -81q-59 -55 -144 -55z" />
    <glyph glyph-name="afii10102" unicode="&#x455;" horiz-adv-x="412" 
d="M176 -12q-60 0 -111.5 21.5t-80.5 57.5l66 79q19 -26 55.5 -45.5t76.5 -19.5q29 0 47.5 16t18.5 38t-30.5 41t-67 33.5t-67 46.5t-30.5 77q0 67 48.5 114.5t133.5 47.5q51 0 98 -19.5t76 -52.5l-61 -76q-15 21 -48 38t-67 17q-29 0 -46 -14t-17 -35q0 -19 31 -37t68 -33
t68 -48.5t31 -78.5q0 -70 -52.5 -119t-139.5 -49z" />
    <glyph glyph-name="afii10103" unicode="&#x456;" horiz-adv-x="228" 
d="M186 537q-28 0 -46.5 18t-18.5 44q0 37 25.5 60t56.5 23q27 0 46 -18.5t19 -43.5q0 -37 -25.5 -60t-56.5 -23zM120 0h-120l107 483h120z" />
    <glyph glyph-name="afii10104" unicode="&#x457;" horiz-adv-x="228" 
d="M354 617q0 -28 -22.5 -50t-51.5 -22q-24 0 -40.5 16.5t-16.5 41.5q0 28 22 49.5t51 21.5q25 0 41.5 -16t16.5 -41zM167 617q0 -28 -22 -50t-51 -22q-25 0 -41.5 16.5t-16.5 41.5q0 28 22 49.5t51 21.5q25 0 41.5 -16t16.5 -41zM120 0h-120l107 483h120z" />
    <glyph glyph-name="afii10105" unicode="&#x458;" horiz-adv-x="228" 
d="M-54 -196q-71 0 -104 34l48 87q15 -20 43 -20q46 0 60 67l114 511h120l-114 -511q-18 -84 -56.5 -126t-110.5 -42zM186 537q-28 0 -46.5 18t-18.5 44q0 37 25.5 60t56.5 23q27 0 46 -18.5t19 -43.5q0 -37 -25.5 -60t-56.5 -23z" />
    <glyph glyph-name="afii10106" unicode="&#x459;" horiz-adv-x="749" 
d="M-40 -12l22 101q29 0 52.5 30.5t50.5 115.5l78 248h335l-38 -172h92q80 0 119.5 -40.5t31.5 -105.5q-7 -69 -59.5 -117t-136.5 -48h-236l83 378h-106l-46 -155q-40 -128 -97 -181.5t-145 -53.5zM525 213h-87l-25 -115h94q31 0 50.5 17t23.5 44q3 25 -11.5 39.5
t-44.5 14.5z" />
    <glyph glyph-name="afii10107" unicode="&#x45a;" horiz-adv-x="745" 
d="M120 0h-120l106 483h120l-39 -179h151l39 179h121l-40 -179h94q73 0 113.5 -36t38.5 -95q-2 -70 -52.5 -121.5t-135.5 -51.5h-245l44 199h-151zM529 204h-93l-23 -106h104q27 0 44.5 19t17.5 45q1 20 -12.5 31t-37.5 11z" />
    <glyph glyph-name="afii10108" unicode="&#x45b;" horiz-adv-x="508" 
d="M402 0h-120l69 317q4 10 4 25q0 47 -56 47q-47 0 -97 -61l-71 -328h-121l116 529h-48l15 69h48l16 69h121l-16 -69h132l-15 -69h-132l-24 -108q66 74 142 74q55 0 87.5 -28t32.5 -74q0 -15 -4 -35z" />
    <glyph glyph-name="afii10109" unicode="&#x45c;" horiz-adv-x="469" 
d="M505 700l-166 -144h-82l139 144h109zM412 0h-137l-60 192l-69 -74l-26 -118h-120l107 483h120l-47 -212l190 212h144l-201 -217z" />
    <glyph glyph-name="afii10110" unicode="&#x45e;" horiz-adv-x="447" 
d="M-51 -184l39 102q11 -7 36 -7q31 0 51 34l28 50l-52 488h124l22 -338l174 338h131l-315 -565q-36 -64 -73 -89t-90 -25q-44 0 -75 12zM450 613q-73 -75 -166 -75t-134 75l61 44q25 -50 85 -50t105 50z" />
    <glyph glyph-name="afii10193" unicode="&#x45f;" horiz-adv-x="500" 
d="M108 -126l28 126h-136l106 483h120l-83 -378h151l83 378h121l-106 -483h-136l-28 -126h-120z" />
    <glyph glyph-name="afii10050" unicode="&#x490;" horiz-adv-x="473" 
d="M139 0h-134l146 667h248l28 125h134l-53 -243h-248z" />
    <glyph glyph-name="afii10098" unicode="&#x491;" horiz-adv-x="383" 
d="M203 378l-83 -378h-120l106 483h192l28 126h120l-51 -231h-192z" />
    <glyph glyph-name="uni1E02" unicode="&#x1e02;" horiz-adv-x="558" 
d="M299 0h-294l147 667h245q79 0 124 -43.5t45 -108.5q0 -67 -41.5 -121t-102.5 -61q41 -11 64 -47t23 -80q0 -82 -53.5 -144t-156.5 -62zM227 397h113q41 0 62.5 28.5t21.5 64.5q0 27 -18 43.5t-47 16.5h-98zM281 117q42 0 67.5 29t25.5 71q0 30 -17.5 47t-49.5 17h-106
l-36 -164h116zM463 784q0 -29 -22.5 -50.5t-51.5 -21.5q-25 0 -41.5 16t-16.5 41q0 29 22.5 51t51.5 22q25 0 41.5 -16.5t16.5 -41.5z" />
    <glyph glyph-name="uni1E03" unicode="&#x1e03;" horiz-adv-x="504" 
d="M259 -12q-91 0 -125 75l-14 -63h-119l146 667h120l-53 -243q52 71 124 71q68 0 106.5 -46t38.5 -131q0 -72 -24.5 -145.5t-77.5 -129t-122 -55.5zM235 94q53 0 88 68t35 135q0 43 -21 67.5t-56 24.5q-50 0 -88 -58l-40 -180q10 -25 32 -41t50 -16zM444 784
q0 -29 -22.5 -50.5t-51.5 -21.5q-25 0 -41.5 16t-16.5 41q0 29 22.5 51t51.5 22q25 0 41.5 -16.5t16.5 -41.5z" />
    <glyph glyph-name="uni1E0A" unicode="&#x1e0a;" horiz-adv-x="597" 
d="M220 0h-215l147 667h210q93 0 161.5 -69t68.5 -183q0 -55 -11.5 -110t-39.5 -111t-69 -98.5t-106.5 -69t-145.5 -26.5zM165 118h78q66 0 115.5 47.5t72 112.5t22.5 132q0 64 -32.5 101.5t-83.5 37.5h-77zM488 784q0 -29 -22.5 -50.5t-51.5 -21.5q-25 0 -41.5 16t-16.5 41
q0 29 22.5 51t51.5 22q25 0 41.5 -16.5t16.5 -41.5z" />
    <glyph glyph-name="uni1E0B" unicode="&#x1e0b;" horiz-adv-x="504" 
d="M245 495q89 0 124 -75l55 247h120l-148 -667h-120l13 59q-52 -71 -124 -71q-68 0 -106.5 46t-38.5 131q0 72 24.5 145.5t77.5 129t123 55.5zM268 389q-53 0 -88 -68t-35 -136q0 -43 21 -67t57 -24q50 0 87 57l40 181q-10 25 -32 41t-50 16zM431 784q0 -29 -22.5 -50.5
t-51.5 -21.5q-25 0 -41.5 16t-16.5 41q0 29 22.5 51t51.5 22q25 0 41.5 -16.5t16.5 -41.5z" />
    <glyph glyph-name="uni1E1E" unicode="&#x1e1e;" horiz-adv-x="473" 
d="M433 784q0 -29 -22.5 -50.5t-51.5 -21.5q-25 0 -41.5 16t-16.5 41q0 29 22.5 51t51.5 22q25 0 41.5 -16.5t16.5 -41.5zM139 0h-134l147 667h382l-26 -118h-248l-33 -151h241l-27 -118h-240z" />
    <glyph glyph-name="uni1E1F" unicode="&#x1e1f;" horiz-adv-x="288" 
d="M386 784q0 -29 -22.5 -50.5t-51.5 -21.5q-25 0 -41.5 16t-16.5 41q0 29 22.5 51t51.5 22q25 0 41.5 -16.5t16.5 -41.5zM143 0h-120l83 379h-62l23 104h62l8 38q34 156 166 156q74 0 110 -38l-54 -80q-18 19 -44 19q-45 0 -58 -57l-8 -38h80l-24 -104h-79z" />
    <glyph glyph-name="uni1E22" unicode="&#x1e22;" horiz-adv-x="608" 
d="M495 0h-135l63 284h-221l-63 -284h-134l147 667h134l-58 -265h221l58 265h135zM488 784q0 -29 -22.5 -50.5t-51.5 -21.5q-25 0 -41.5 16t-16.5 41q0 29 22.5 51t51.5 22q25 0 41.5 -16.5t16.5 -41.5z" />
    <glyph glyph-name="uni1E23" unicode="&#x1e23;" horiz-adv-x="500" 
d="M392 0h-120l69 317q4 10 4 25q0 47 -56 47q-47 0 -97 -61l-71 -328h-121l147 667h121l-55 -246q66 74 142 74q55 0 87.5 -28t32.5 -74q0 -15 -4 -35zM436 784q0 -29 -22.5 -50.5t-51.5 -21.5q-25 0 -41.5 16t-16.5 41q0 29 22.5 51t51.5 22q25 0 41.5 -16.5t16.5 -41.5z
" />
    <glyph glyph-name="uni1E56" unicode="&#x1e56;" horiz-adv-x="533" 
d="M139 0h-134l147 667h230q80 0 129 -50.5t49 -126.5q0 -45 -14.5 -87t-44 -79.5t-81 -60t-118.5 -22.5h-110zM218 359h94q48 0 78 35t30 82q0 33 -19.5 53t-50.5 20h-90zM462 784q0 -29 -22.5 -50.5t-51.5 -21.5q-25 0 -41.5 16t-16.5 41q0 29 22.5 51t51.5 22
q25 0 41.5 -16.5t16.5 -41.5z" />
    <glyph glyph-name="uni1E57" unicode="&#x1e57;" horiz-adv-x="503" 
d="M259 -12q-91 0 -125 75l-55 -247h-119l147 667h120l-13 -59q52 71 124 71q68 0 106.5 -46t38.5 -131q0 -72 -24.5 -145.5t-77.5 -129t-122 -55.5zM235 94q53 0 88 68t35 135q0 43 -21 67.5t-56 24.5q-50 0 -88 -58l-40 -180q10 -25 32 -41t50 -16zM408 617
q0 -29 -22.5 -50.5t-51.5 -21.5q-25 0 -41.5 16t-16.5 41q0 29 22.5 51t51.5 22q25 0 41.5 -16.5t16.5 -41.5z" />
    <glyph glyph-name="uni1E60" unicode="&#x1e60;" horiz-adv-x="498" 
d="M226 -12q-75 0 -139.5 27.5t-98.5 72.5l81 99q26 -37 70 -59t93 -22q41 0 65 24t24 60q0 24 -24.5 45.5t-59.5 40.5t-70 42t-59.5 60t-24.5 83q0 89 65.5 153t167.5 64q62 0 118.5 -23t91.5 -64l-78 -96q-25 31 -64 48t-79 17q-35 0 -57.5 -22t-22.5 -52
q0 -19 17.5 -37.5t44 -32.5t57 -34t57 -41t44 -54.5t17.5 -72.5q0 -95 -65 -160.5t-171 -65.5zM436 784q0 -29 -22.5 -50.5t-51.5 -21.5q-25 0 -41.5 16t-16.5 41q0 29 22.5 51t51.5 22q25 0 41.5 -16.5t16.5 -41.5z" />
    <glyph glyph-name="uni1E61" unicode="&#x1e61;" horiz-adv-x="412" 
d="M176 -12q-60 0 -111.5 21.5t-80.5 57.5l66 79q19 -26 55.5 -45.5t76.5 -19.5q29 0 47.5 16t18.5 38t-30.5 41t-67 33.5t-67 46.5t-30.5 77q0 67 48.5 114.5t133.5 47.5q51 0 98 -19.5t76 -52.5l-61 -76q-15 21 -48 38t-67 17q-29 0 -46 -14t-17 -35q0 -19 31 -37t68 -33
t68 -48.5t31 -78.5q0 -70 -52.5 -119t-139.5 -49zM355 617q0 -29 -22.5 -50.5t-51.5 -21.5q-25 0 -41.5 16t-16.5 41q0 29 22.5 51t51.5 22q25 0 41.5 -16.5t16.5 -41.5z" />
    <glyph glyph-name="uni1E6A" unicode="&#x1e6a;" horiz-adv-x="473" 
d="M250 0h-134l121 549h-148l26 118h430l-26 -118h-148zM421 784q0 -29 -22.5 -50.5t-51.5 -21.5q-25 0 -41.5 16t-16.5 41q0 29 22.5 51t51.5 22q25 0 41.5 -16.5t16.5 -41.5z" />
    <glyph glyph-name="uni1E6B" unicode="&#x1e6b;" horiz-adv-x="298" 
d="M171 -12q-61 0 -94.5 24t-33.5 72q0 18 4 37l58 258h-63l24 104h62l29 132h120l-29 -132h80l-24 -104h-79l-51 -229q-3 -21 -3 -22q0 -34 37 -34q18 0 30 10l4 -98q-26 -18 -71 -18zM320 784q0 -29 -22.5 -50.5t-51.5 -21.5q-25 0 -41.5 16t-16.5 41q0 29 22.5 51
t51.5 22q25 0 41.5 -16.5t16.5 -41.5z" />
    <glyph glyph-name="Wgrave" unicode="&#x1e80;" horiz-adv-x="767" 
d="M555 0h-140l13 444l-184 -444h-140l-5 667h141l-17 -464l198 464h105l-7 -464l188 464h147zM539 723h-80l-102 144h107z" />
    <glyph glyph-name="wgrave" unicode="&#x1e81;" horiz-adv-x="688" 
d="M503 0h-127l-14 329l-157 -329h-127l-22 483h120l3 -328l158 328h110l15 -328l149 328h128zM463 556h-80l-102 144h107z" />
    <glyph glyph-name="Wacute" unicode="&#x1e82;" horiz-adv-x="767" 
d="M676 867l-166 -144h-82l139 144h109zM555 0h-140l13 444l-184 -444h-140l-5 667h141l-17 -464l198 464h105l-7 -464l188 464h147z" />
    <glyph glyph-name="wacute" unicode="&#x1e83;" horiz-adv-x="688" 
d="M601 700l-166 -144h-82l139 144h109zM503 0h-127l-14 329l-157 -329h-127l-22 483h120l3 -328l158 328h110l15 -328l149 328h128z" />
    <glyph glyph-name="Wdieresis" unicode="&#x1e84;" horiz-adv-x="767" 
d="M656 784q0 -28 -22.5 -50t-51.5 -22q-24 0 -40.5 16.5t-16.5 41.5q0 28 22 49.5t51 21.5q25 0 41.5 -16t16.5 -41zM469 784q0 -28 -22 -50t-51 -22q-25 0 -41.5 16.5t-16.5 41.5q0 28 22 49.5t51 21.5q25 0 41.5 -16t16.5 -41zM555 0h-140l13 444l-184 -444h-140l-5 667
h141l-17 -464l198 464h105l-7 -464l188 464h147z" />
    <glyph glyph-name="wdieresis" unicode="&#x1e85;" horiz-adv-x="688" 
d="M580 617q0 -28 -22.5 -50t-51.5 -22q-24 0 -40.5 16.5t-16.5 41.5q0 28 22 49.5t51 21.5q25 0 41.5 -16t16.5 -41zM393 617q0 -28 -22 -50t-51 -22q-25 0 -41.5 16.5t-16.5 41.5q0 28 22 49.5t51 21.5q25 0 41.5 -16t16.5 -41zM503 0h-127l-14 329l-157 -329h-127
l-22 483h120l3 -328l158 328h110l15 -328l149 328h128z" />
    <glyph glyph-name="uni1EA0" unicode="&#x1ea0;" horiz-adv-x="554" 
d="M502 0h-140l-5 118h-206l-56 -118h-151l345 667h162zM355 236l-11 290l-140 -290h151zM261 -122q0 -29 -22.5 -50.5t-51.5 -21.5q-25 0 -41.5 16t-16.5 41q0 29 22.5 51t51.5 22q25 0 41.5 -16.5t16.5 -41.5z" />
    <glyph glyph-name="uni1EA1" unicode="&#x1ea1;" horiz-adv-x="504" 
d="M245 495q89 0 124 -75l14 63h120l-107 -483h-120l13 59q-52 -71 -124 -71q-68 0 -106.5 46t-38.5 131q0 72 24.5 145.5t77.5 129t123 55.5zM268 389q-53 0 -88 -68t-35 -136q0 -43 21 -67t57 -24q50 0 87 57l40 181q-10 25 -32 41t-50 16zM231 -122q0 -29 -22.5 -50.5
t-51.5 -21.5q-25 0 -41.5 16t-16.5 41q0 29 22.5 51t51.5 22q25 0 41.5 -16.5t16.5 -41.5z" />
    <glyph glyph-name="uni1EA2" unicode="&#x1ea2;" horiz-adv-x="554" 
d="M502 0h-140l-5 118h-206l-56 -118h-151l345 667h162zM355 236l-11 290l-140 -290h151zM361 756l-39 16q23 48 73 48q29 0 47.5 -15t18.5 -43q0 -34 -27 -65h-52q29 29 30 57q1 11 -5 18t-16 7q-18 0 -30 -23z" />
    <glyph glyph-name="uni1EA3" unicode="&#x1ea3;" horiz-adv-x="504" 
d="M245 495q89 0 124 -75l14 63h120l-107 -483h-120l13 59q-52 -71 -124 -71q-68 0 -106.5 46t-38.5 131q0 72 24.5 145.5t77.5 129t123 55.5zM268 389q-53 0 -88 -68t-35 -136q0 -43 21 -67t57 -24q50 0 87 57l40 181q-10 25 -32 41t-50 16zM295 586l-39 16q23 48 73 48
q29 0 47.5 -15t18.5 -43q0 -34 -27 -65h-52q29 29 30 57q1 11 -5 18t-16 7q-18 0 -30 -23z" />
    <glyph glyph-name="uni1EA4" unicode="&#x1ea4;" horiz-adv-x="554" 
d="M500 682h-68l-44 68l-81 -68h-72l109 108h108zM502 0h-140l-5 118h-206l-56 -118h-151l345 667h162zM355 236l-11 290l-140 -290h151zM730 843l-166 -108h-82l139 108h109z" />
    <glyph glyph-name="uni1EA5" unicode="&#x1ea5;" horiz-adv-x="504" 
d="M245 495q89 0 124 -75l14 63h120l-107 -483h-120l13 59q-52 -71 -124 -71q-68 0 -106.5 46t-38.5 131q0 72 24.5 145.5t77.5 129t123 55.5zM268 389q-53 0 -88 -68t-35 -136q0 -43 21 -67t57 -24q50 0 87 57l40 181q-10 25 -32 41t-50 16zM450 556h-68l-44 91l-81 -91
h-72l109 144h108zM680 770l-166 -144h-82l139 144h109z" />
    <glyph glyph-name="uni1EA6" unicode="&#x1ea6;" horiz-adv-x="554" 
d="M501 682h-68l-44 68l-81 -68h-72l109 108h108zM502 0h-140l-5 118h-206l-56 -118h-151l345 667h162zM355 236l-11 290l-140 -290h151zM281 735h-80l-102 108h107z" />
    <glyph glyph-name="uni1EA7" unicode="&#x1ea7;" horiz-adv-x="504" 
d="M245 495q89 0 124 -75l14 63h120l-107 -483h-120l13 59q-52 -71 -124 -71q-68 0 -106.5 46t-38.5 131q0 72 24.5 145.5t77.5 129t123 55.5zM268 389q-53 0 -88 -68t-35 -136q0 -43 21 -67t57 -24q50 0 87 57l40 181q-10 25 -32 41t-50 16zM450 556h-68l-44 91l-81 -91
h-72l109 144h108zM231 626h-80l-102 144h107z" />
    <glyph glyph-name="uni1EA8" unicode="&#x1ea8;" horiz-adv-x="554" 
d="M501 682h-68l-44 68l-81 -68h-72l109 108h108zM502 0h-140l-5 118h-206l-56 -118h-151l345 667h162zM355 236l-11 290l-140 -290h151zM466 800l-39 12q23 36 73 36q29 0 47.5 -11t18.5 -32q0 -26 -27 -49h-52q29 22 30 43q1 8 -5 13.5t-16 5.5q-18 0 -30 -18z" />
    <glyph glyph-name="uni1EA9" unicode="&#x1ea9;" horiz-adv-x="504" 
d="M245 495q89 0 124 -75l14 63h120l-107 -483h-120l13 59q-52 -71 -124 -71q-68 0 -106.5 46t-38.5 131q0 72 24.5 145.5t77.5 129t123 55.5zM268 389q-53 0 -88 -68t-35 -136q0 -43 21 -67t57 -24q50 0 87 57l40 181q-10 25 -32 41t-50 16zM450 556h-68l-44 91l-81 -91
h-72l109 144h108zM409 726l-39 16q23 48 73 48q29 0 47.5 -15t18.5 -43q0 -34 -27 -65h-52q29 29 30 57q1 11 -5 18t-16 7q-18 0 -30 -23z" />
    <glyph glyph-name="uni1EAA" unicode="&#x1eaa;" horiz-adv-x="554" 
d="M498 678h-68l-44 45l-81 -45h-72l109 72h108zM502 0h-140l-5 118h-206l-56 -118h-151l345 667h162zM355 236l-11 290l-140 -290h151zM446 757q-36 0 -60 17.5t-41 17.5q-26 0 -41 -32h-64q28 67 112 67q37 0 61 -18t41 -18q27 0 41 33h64q-28 -67 -113 -67z" />
    <glyph glyph-name="uni1EAB" unicode="&#x1eab;" horiz-adv-x="504" 
d="M245 495q89 0 124 -75l14 63h120l-107 -483h-120l13 59q-52 -71 -124 -71q-68 0 -106.5 46t-38.5 131q0 72 24.5 145.5t77.5 129t123 55.5zM268 389q-53 0 -88 -68t-35 -136q0 -43 21 -67t57 -24q50 0 87 57l40 181q-10 25 -32 41t-50 16zM442 523h-68l-44 91l-81 -91
h-72l109 144h108zM408 682q-22 0 -38 11t-22.5 24.5t-17 24.5t-23.5 11q-27 0 -41 -65h-64q28 134 112 134q23 0 38.5 -11t22.5 -24.5t17.5 -24.5t23.5 -11q27 0 41 65h64q-28 -134 -113 -134z" />
    <glyph glyph-name="uni1EAC" unicode="&#x1eac;" horiz-adv-x="554" 
d="M502 0h-140l-5 118h-206l-56 -118h-151l345 667h162zM355 236l-11 290l-140 -290h151zM515 723h-68l-44 91l-81 -91h-72l109 144h108zM260 -122q0 -29 -22.5 -50.5t-51.5 -21.5q-25 0 -41.5 16t-16.5 41q0 29 22.5 51t51.5 22q25 0 41.5 -16.5t16.5 -41.5z" />
    <glyph glyph-name="uni1EAD" unicode="&#x1ead;" horiz-adv-x="504" 
d="M245 495q89 0 124 -75l14 63h120l-107 -483h-120l13 59q-52 -71 -124 -71q-68 0 -106.5 46t-38.5 131q0 72 24.5 145.5t77.5 129t123 55.5zM268 389q-53 0 -88 -68t-35 -136q0 -43 21 -67t57 -24q50 0 87 57l40 181q-10 25 -32 41t-50 16zM450 556h-68l-44 91l-81 -91
h-72l109 144h108zM231 -122q0 -29 -22.5 -50.5t-51.5 -21.5q-25 0 -41.5 16t-16.5 41q0 29 22.5 51t51.5 22q25 0 41.5 -16.5t16.5 -41.5z" />
    <glyph glyph-name="uni1EAE" unicode="&#x1eae;" horiz-adv-x="554" 
d="M502 0h-140l-5 118h-206l-56 -118h-151l345 667h162zM355 236l-11 290l-140 -290h151zM569 834l-166 -87h-82l139 87h109zM531 730q-75 -53 -166 -53q-93 0 -134 53l61 30q25 -34 85 -34t105 34z" />
    <glyph glyph-name="uni1EAF" unicode="&#x1eaf;" horiz-adv-x="504" 
d="M245 495q89 0 124 -75l14 63h120l-107 -483h-120l13 59q-52 -71 -124 -71q-68 0 -106.5 46t-38.5 131q0 72 24.5 145.5t77.5 129t123 55.5zM268 389q-53 0 -88 -68t-35 -136q0 -43 21 -67t57 -24q50 0 87 57l40 181q-10 25 -32 41t-50 16zM514 775l-166 -144h-82l139 144
h109zM472 590q-73 -75 -166 -75t-134 75l61 44q25 -50 85 -50t105 50z" />
    <glyph glyph-name="uni1EB0" unicode="&#x1eb0;" horiz-adv-x="554" 
d="M502 0h-140l-5 118h-206l-56 -118h-151l345 667h162zM355 236l-11 290l-140 -290h151zM450 749h-80l-102 87h107zM533 730q-75 -53 -166 -53q-93 0 -134 53l61 30q26 -34 85 -34q60 0 105 34z" />
    <glyph glyph-name="uni1EB1" unicode="&#x1eb1;" horiz-adv-x="504" 
d="M245 495q89 0 124 -75l14 63h120l-107 -483h-120l13 59q-52 -71 -124 -71q-68 0 -106.5 46t-38.5 131q0 72 24.5 145.5t77.5 129t123 55.5zM268 389q-53 0 -88 -68t-35 -136q0 -43 21 -67t57 -24q50 0 87 57l40 181q-10 25 -32 41t-50 16zM394 634h-80l-102 144h107z
M472 592q-73 -75 -166 -75t-134 75l61 44q25 -50 85 -50t105 50z" />
    <glyph glyph-name="uni1EB2" unicode="&#x1eb2;" horiz-adv-x="554" 
d="M502 0h-140l-5 118h-206l-56 -118h-151l345 667h162zM355 236l-11 290l-140 -290h151zM368 783l-39 10q24 29 73 29q28 0 47 -9t19 -26q0 -20 -27 -39h-52q29 17 30 34q1 7 -5 11t-16 4q-18 0 -30 -14zM533 730q-75 -53 -166 -53q-93 0 -134 53l61 30q26 -34 85 -34
q60 0 105 34z" />
    <glyph glyph-name="uni1EB3" unicode="&#x1eb3;" horiz-adv-x="504" 
d="M245 495q89 0 124 -75l14 63h120l-107 -483h-120l13 59q-52 -71 -124 -71q-68 0 -106.5 46t-38.5 131q0 72 24.5 145.5t77.5 129t123 55.5zM268 389q-53 0 -88 -68t-35 -136q0 -43 21 -67t57 -24q50 0 87 57l40 181q-10 25 -32 41t-50 16zM314 696l-39 16q23 48 73 48
q29 0 47.5 -15t18.5 -43q0 -34 -27 -65h-52q29 29 30 57q1 11 -5 18t-16 7q-18 0 -30 -23zM472 592q-73 -75 -166 -75t-134 75l61 44q25 -50 85 -50t105 50z" />
    <glyph glyph-name="uni1EB4" unicode="&#x1eb4;" horiz-adv-x="554" 
d="M502 0h-140l-5 118h-206l-56 -118h-151l345 667h162zM355 236l-11 290l-140 -290h151zM532 722q-73 -44 -166 -44t-134 44l61 26q25 -30 85 -30q58 0 105 30zM446 758q-36 0 -60 17.5t-41 17.5q-26 0 -41 -32h-64q28 67 112 67q37 0 61 -18t41 -18q27 0 41 33h64
q-28 -67 -113 -67z" />
    <glyph glyph-name="uni1EB5" unicode="&#x1eb5;" horiz-adv-x="504" 
d="M245 495q89 0 124 -75l14 63h120l-107 -483h-120l13 59q-52 -71 -124 -71q-68 0 -106.5 46t-38.5 131q0 72 24.5 145.5t77.5 129t123 55.5zM268 389q-53 0 -88 -68t-35 -136q0 -43 21 -67t57 -24q50 0 87 57l40 181q-10 25 -32 41t-50 16zM472 592q-73 -75 -166 -75
t-134 75l61 44q25 -50 85 -50t105 50zM402 656q-22 0 -38 11t-22.5 24.5t-17 24.5t-23.5 11q-27 0 -41 -65h-64q28 134 112 134q23 0 38.5 -11t22.5 -24.5t17.5 -24.5t23.5 -11q27 0 41 65h64q-28 -134 -113 -134z" />
    <glyph glyph-name="uni1EB6" unicode="&#x1eb6;" horiz-adv-x="554" 
d="M502 0h-140l-5 118h-206l-56 -118h-151l345 667h162zM355 236l-11 290l-140 -290h151zM261 -122q0 -29 -22.5 -50.5t-51.5 -21.5q-25 0 -41.5 16t-16.5 41q0 29 22.5 51t51.5 22q25 0 41.5 -16.5t16.5 -41.5zM541 780q-73 -75 -166 -75t-134 75l61 44q25 -50 85 -50
t105 50z" />
    <glyph glyph-name="uni1EB7" unicode="&#x1eb7;" horiz-adv-x="504" 
d="M245 495q89 0 124 -75l14 63h120l-107 -483h-120l13 59q-52 -71 -124 -71q-68 0 -106.5 46t-38.5 131q0 72 24.5 145.5t77.5 129t123 55.5zM268 389q-53 0 -88 -68t-35 -136q0 -43 21 -67t57 -24q50 0 87 57l40 181q-10 25 -32 41t-50 16zM231 -122q0 -29 -22.5 -50.5
t-51.5 -21.5q-25 0 -41.5 16t-16.5 41q0 29 22.5 51t51.5 22q25 0 41.5 -16.5t16.5 -41.5zM477 613q-73 -75 -166 -75t-134 75l61 44q25 -50 85 -50t105 50z" />
    <glyph glyph-name="uni1EB8" unicode="&#x1eb8;" horiz-adv-x="481" 
d="M387 0h-382l147 667h382l-26 -118h-248l-33 -151h241l-27 -118h-240l-36 -162h248zM233 -122q0 -29 -22.5 -50.5t-51.5 -21.5q-25 0 -41.5 16t-16.5 41q0 29 22.5 51t51.5 22q25 0 41.5 -16.5t16.5 -41.5z" />
    <glyph glyph-name="uni1EB9" unicode="&#x1eb9;" 
d="M230 -12q-97 0 -152.5 52.5t-55.5 147.5q0 71 29.5 140t89 118t133.5 49q85 0 134 -50.5t49 -139.5q0 -47 -15 -102h-302q-2 -18 -2 -27q0 -35 27.5 -63t79.5 -28q58 0 103 38l39 -78q-65 -57 -157 -57zM155 285h191q3 13 3 30q0 35 -22 59.5t-61 24.5q-43 0 -73 -35.5
t-38 -78.5zM233 -122q0 -29 -22.5 -50.5t-51.5 -21.5q-25 0 -41.5 16t-16.5 41q0 29 22.5 51t51.5 22q25 0 41.5 -16.5t16.5 -41.5z" />
    <glyph glyph-name="uni1EBA" unicode="&#x1eba;" horiz-adv-x="481" 
d="M387 0h-382l147 667h382l-26 -118h-248l-33 -151h241l-27 -118h-240l-36 -162h248zM333 756l-39 16q23 48 73 48q29 0 47.5 -15t18.5 -43q0 -34 -27 -65h-52q29 29 30 57q1 11 -5 18t-16 7q-18 0 -30 -23z" />
    <glyph glyph-name="uni1EBB" unicode="&#x1ebb;" 
d="M230 -12q-97 0 -152.5 52.5t-55.5 147.5q0 71 29.5 140t89 118t133.5 49q85 0 134 -50.5t49 -139.5q0 -47 -15 -102h-302q-2 -18 -2 -27q0 -35 27.5 -63t79.5 -28q58 0 103 38l39 -78q-65 -57 -157 -57zM155 285h191q3 13 3 30q0 35 -22 59.5t-61 24.5q-43 0 -73 -35.5
t-38 -78.5zM296 586l-39 16q23 48 73 48q29 0 47.5 -15t18.5 -43q0 -34 -27 -65h-52q29 29 30 57q1 11 -5 18t-16 7q-18 0 -30 -23z" />
    <glyph glyph-name="uni1EBC" unicode="&#x1ebc;" horiz-adv-x="481" 
d="M387 0h-382l147 667h382l-26 -118h-248l-33 -151h241l-27 -118h-240l-36 -162h248zM418 721q-22 0 -38 11t-22.5 24.5t-17 24.5t-23.5 11q-27 0 -41 -65h-64q28 134 112 134q23 0 38.5 -11t22.5 -24.5t17.5 -24.5t23.5 -11q27 0 41 65h64q-28 -134 -113 -134z" />
    <glyph glyph-name="uni1EBD" unicode="&#x1ebd;" 
d="M230 -12q-97 0 -152.5 52.5t-55.5 147.5q0 71 29.5 140t89 118t133.5 49q85 0 134 -50.5t49 -139.5q0 -47 -15 -102h-302q-2 -18 -2 -27q0 -35 27.5 -63t79.5 -28q58 0 103 38l39 -78q-65 -57 -157 -57zM155 285h191q3 13 3 30q0 35 -22 59.5t-61 24.5q-43 0 -73 -35.5
t-38 -78.5zM380 554q-22 0 -38 11t-22.5 24.5t-17 24.5t-23.5 11q-27 0 -41 -65h-64q28 134 112 134q23 0 38.5 -11t22.5 -24.5t17.5 -24.5t23.5 -11q27 0 41 65h64q-28 -134 -113 -134z" />
    <glyph glyph-name="uni1EBE" unicode="&#x1ebe;" horiz-adv-x="481" 
d="M474 682h-68l-44 68l-81 -68h-72l109 108h108zM704 843l-166 -108h-82l139 108h109zM387 0h-382l147 667h382l-26 -118h-248l-33 -151h241l-27 -118h-240l-36 -162h248z" />
    <glyph glyph-name="uni1EBF" unicode="&#x1ebf;" 
d="M450 556h-68l-44 91l-81 -91h-72l109 144h108zM680 770l-166 -144h-82l139 144h109zM230 -12q-97 0 -152.5 52.5t-55.5 147.5q0 71 29.5 140t89 118t133.5 49q85 0 134 -50.5t49 -139.5q0 -47 -15 -102h-302q-2 -18 -2 -27q0 -35 27.5 -63t79.5 -28q58 0 103 38l39 -78
q-65 -57 -157 -57zM155 285h191q3 13 3 30q0 35 -22 59.5t-61 24.5q-43 0 -73 -35.5t-38 -78.5z" />
    <glyph glyph-name="uni1EC0" unicode="&#x1ec0;" horiz-adv-x="481" 
d="M474 682h-68l-44 68l-81 -68h-72l109 108h108zM387 0h-382l147 667h382l-26 -118h-248l-33 -151h241l-27 -118h-240l-36 -162h248zM254 735h-80l-102 108h107z" />
    <glyph glyph-name="uni1EC1" unicode="&#x1ec1;" 
d="M451 556h-68l-44 91l-81 -91h-72l109 144h108zM230 -12q-97 0 -152.5 52.5t-55.5 147.5q0 71 29.5 140t89 118t133.5 49q85 0 134 -50.5t49 -139.5q0 -47 -15 -102h-302q-2 -18 -2 -27q0 -35 27.5 -63t79.5 -28q58 0 103 38l39 -78q-65 -57 -157 -57zM155 285h191
q3 13 3 30q0 35 -22 59.5t-61 24.5q-43 0 -73 -35.5t-38 -78.5zM233 626h-80l-102 144h107z" />
    <glyph glyph-name="uni1EC2" unicode="&#x1ec2;" horiz-adv-x="481" 
d="M473 682h-68l-44 68l-81 -68h-72l109 108h108zM387 0h-382l147 667h382l-26 -118h-248l-33 -151h241l-27 -118h-240l-36 -162h248zM439 800l-39 12q23 36 73 36q29 0 47.5 -11t18.5 -32q0 -26 -27 -49h-52q29 22 30 43q1 8 -5 13.5t-16 5.5q-18 0 -30 -18z" />
    <glyph glyph-name="uni1EC3" unicode="&#x1ec3;" 
d="M451 556h-68l-44 91l-81 -91h-72l109 144h108zM230 -12q-97 0 -152.5 52.5t-55.5 147.5q0 71 29.5 140t89 118t133.5 49q85 0 134 -50.5t49 -139.5q0 -47 -15 -102h-302q-2 -18 -2 -27q0 -35 27.5 -63t79.5 -28q58 0 103 38l39 -78q-65 -57 -157 -57zM155 285h191
q3 13 3 30q0 35 -22 59.5t-61 24.5q-43 0 -73 -35.5t-38 -78.5zM410 726l-39 16q23 48 73 48q29 0 47.5 -15t18.5 -43q0 -34 -27 -65h-52q29 29 30 57q1 11 -5 18t-16 7q-18 0 -30 -23z" />
    <glyph glyph-name="uni1EC4" unicode="&#x1ec4;" horiz-adv-x="481" 
d="M472 678h-68l-44 45l-81 -45h-72l109 72h108zM387 0h-382l147 667h382l-26 -118h-248l-33 -151h241l-27 -118h-240l-36 -162h248zM418 757q-36 0 -60 17.5t-41 17.5q-26 0 -41 -32h-64q28 67 112 67q37 0 61 -18t41 -18q27 0 41 33h64q-28 -67 -113 -67z" />
    <glyph glyph-name="uni1EC5" unicode="&#x1ec5;" 
d="M445 523h-68l-44 91l-81 -91h-72l109 144h108zM230 -12q-97 0 -152.5 52.5t-55.5 147.5q0 71 29.5 140t89 118t133.5 49q85 0 134 -50.5t49 -139.5q0 -47 -15 -102h-302q-2 -18 -2 -27q0 -35 27.5 -63t79.5 -28q58 0 103 38l39 -78q-65 -57 -157 -57zM155 285h191
q3 13 3 30q0 35 -22 59.5t-61 24.5q-43 0 -73 -35.5t-38 -78.5zM409 682q-22 0 -38 11t-22.5 24.5t-17 24.5t-23.5 11q-27 0 -41 -65h-64q28 134 112 134q23 0 38.5 -11t22.5 -24.5t17.5 -24.5t23.5 -11q27 0 41 65h64q-28 -134 -113 -134z" />
    <glyph glyph-name="uni1EC6" unicode="&#x1ec6;" horiz-adv-x="481" 
d="M488 723h-68l-44 91l-81 -91h-72l109 144h108zM387 0h-382l147 667h382l-26 -118h-248l-33 -151h241l-27 -118h-240l-36 -162h248zM233 -122q0 -29 -22.5 -50.5t-51.5 -21.5q-25 0 -41.5 16t-16.5 41q0 29 22.5 51t51.5 22q25 0 41.5 -16.5t16.5 -41.5z" />
    <glyph glyph-name="uni1EC7" unicode="&#x1ec7;" 
d="M451 556h-68l-44 91l-81 -91h-72l109 144h108zM230 -12q-97 0 -152.5 52.5t-55.5 147.5q0 71 29.5 140t89 118t133.5 49q85 0 134 -50.5t49 -139.5q0 -47 -15 -102h-302q-2 -18 -2 -27q0 -35 27.5 -63t79.5 -28q58 0 103 38l39 -78q-65 -57 -157 -57zM155 285h191
q3 13 3 30q0 35 -22 59.5t-61 24.5q-43 0 -73 -35.5t-38 -78.5zM233 -122q0 -29 -22.5 -50.5t-51.5 -21.5q-25 0 -41.5 16t-16.5 41q0 29 22.5 51t51.5 22q25 0 41.5 -16.5t16.5 -41.5z" />
    <glyph glyph-name="uni1EC8" unicode="&#x1ec8;" horiz-adv-x="252" 
d="M139 0h-134l147 667h134zM209 756l-39 16q23 48 73 48q29 0 47.5 -15t18.5 -43q0 -34 -27 -65h-52q29 29 30 57q1 11 -5 18t-16 7q-18 0 -30 -23z" />
    <glyph glyph-name="uni1EC9" unicode="&#x1ec9;" horiz-adv-x="228" 
d="M120 0h-120l107 483h120zM160 586l-39 16q23 48 73 48q29 0 47.5 -15t18.5 -43q0 -34 -27 -65h-52q29 29 30 57q1 11 -5 18t-16 7q-18 0 -30 -23z" />
    <glyph glyph-name="uni1ECA" unicode="&#x1eca;" horiz-adv-x="252" 
d="M139 0h-134l147 667h134zM109 -122q0 -29 -22.5 -50.5t-51.5 -21.5q-25 0 -41.5 16t-16.5 41q0 29 22.5 51t51.5 22q25 0 41.5 -16.5t16.5 -41.5z" />
    <glyph glyph-name="uni1ECB" unicode="&#x1ecb;" horiz-adv-x="228" 
d="M186 537q-28 0 -46.5 18t-18.5 44q0 37 25.5 60t56.5 23q27 0 46 -18.5t19 -43.5q0 -37 -25.5 -60t-56.5 -23zM120 0h-120l107 483h120zM99 -122q0 -29 -22.5 -50.5t-51.5 -21.5q-25 0 -41.5 16t-16.5 41q0 29 22.5 51t51.5 22q25 0 41.5 -16.5t16.5 -41.5z" />
    <glyph glyph-name="uni1ECC" unicode="&#x1ecc;" horiz-adv-x="622" 
d="M287 -12q-113 0 -181.5 71t-68.5 184q0 78 23 155t65 139.5t107 101.5t141 39q113 0 181.5 -71t68.5 -185q0 -78 -23 -154.5t-65 -139t-107 -101.5t-141 -39zM295 107q53 0 97.5 48t68 119.5t23.5 144.5q0 64 -33 102t-87 38q-53 0 -97.5 -48.5t-68 -120t-23.5 -144.5
q0 -64 32.5 -101.5t87.5 -37.5zM294 -122q0 -29 -22.5 -50.5t-51.5 -21.5q-25 0 -41.5 16t-16.5 41q0 29 22.5 51t51.5 22q25 0 41.5 -16.5t16.5 -41.5z" />
    <glyph glyph-name="uni1ECD" unicode="&#x1ecd;" horiz-adv-x="495" 
d="M220 -12q-94 0 -146 53.5t-52 144.5q0 117 71 213t181 96q94 0 146 -53.5t52 -144.5q0 -74 -30 -144t-89 -117.5t-133 -47.5zM225 94q53 0 88.5 67.5t35.5 133.5q0 94 -80 94q-53 0 -88.5 -67.5t-35.5 -133.5q0 -94 80 -94zM231 -122q0 -29 -22.5 -50.5t-51.5 -21.5
q-25 0 -41.5 16t-16.5 41q0 29 22.5 51t51.5 22q25 0 41.5 -16.5t16.5 -41.5z" />
    <glyph glyph-name="uni1ECE" unicode="&#x1ece;" horiz-adv-x="622" 
d="M287 -12q-113 0 -181.5 71t-68.5 184q0 78 23 155t65 139.5t107 101.5t141 39q113 0 181.5 -71t68.5 -185q0 -78 -23 -154.5t-65 -139t-107 -101.5t-141 -39zM295 107q53 0 97.5 48t68 119.5t23.5 144.5q0 64 -33 102t-87 38q-53 0 -97.5 -48.5t-68 -120t-23.5 -144.5
q0 -64 32.5 -101.5t87.5 -37.5zM395 756l-39 16q23 48 73 48q29 0 47.5 -15t18.5 -43q0 -34 -27 -65h-52q29 29 30 57q1 11 -5 18t-16 7q-18 0 -30 -23z" />
    <glyph glyph-name="uni1ECF" unicode="&#x1ecf;" horiz-adv-x="495" 
d="M220 -12q-94 0 -146 53.5t-52 144.5q0 117 71 213t181 96q94 0 146 -53.5t52 -144.5q0 -74 -30 -144t-89 -117.5t-133 -47.5zM225 94q53 0 88.5 67.5t35.5 133.5q0 94 -80 94q-53 0 -88.5 -67.5t-35.5 -133.5q0 -94 80 -94zM294 586l-39 16q23 48 73 48q29 0 47.5 -15
t18.5 -43q0 -34 -27 -65h-52q29 29 30 57q1 11 -5 18t-16 7q-18 0 -30 -23z" />
    <glyph glyph-name="uni1ED0" unicode="&#x1ed0;" horiz-adv-x="622" 
d="M534 682h-68l-44 68l-81 -68h-72l109 108h108zM764 843l-166 -108h-82l139 108h109zM287 -12q-113 0 -181.5 71t-68.5 184q0 78 23 155t65 139.5t107 101.5t141 39q113 0 181.5 -71t68.5 -185q0 -78 -23 -154.5t-65 -139t-107 -101.5t-141 -39zM295 107q53 0 97.5 48
t68 119.5t23.5 144.5q0 64 -33 102t-87 38q-53 0 -97.5 -48.5t-68 -120t-23.5 -144.5q0 -64 32.5 -101.5t87.5 -37.5z" />
    <glyph glyph-name="uni1ED1" unicode="&#x1ed1;" horiz-adv-x="495" 
d="M449 556h-68l-44 91l-81 -91h-72l109 144h108zM679 770l-166 -144h-82l139 144h109zM220 -12q-94 0 -146 53.5t-52 144.5q0 117 71 213t181 96q94 0 146 -53.5t52 -144.5q0 -74 -30 -144t-89 -117.5t-133 -47.5zM225 94q53 0 88.5 67.5t35.5 133.5q0 94 -80 94
q-53 0 -88.5 -67.5t-35.5 -133.5q0 -94 80 -94z" />
    <glyph glyph-name="uni1ED2" unicode="&#x1ed2;" horiz-adv-x="622" 
d="M534 682h-68l-44 68l-81 -68h-72l109 108h108zM287 -12q-113 0 -181.5 71t-68.5 184q0 78 23 155t65 139.5t107 101.5t141 39q113 0 181.5 -71t68.5 -185q0 -78 -23 -154.5t-65 -139t-107 -101.5t-141 -39zM295 107q53 0 97.5 48t68 119.5t23.5 144.5q0 64 -33 102
t-87 38q-53 0 -97.5 -48.5t-68 -120t-23.5 -144.5q0 -64 32.5 -101.5t87.5 -37.5zM314 735h-80l-102 108h107z" />
    <glyph glyph-name="uni1ED3" unicode="&#x1ed3;" horiz-adv-x="495" 
d="M450 556h-68l-44 91l-81 -91h-72l109 144h108zM220 -12q-94 0 -146 53.5t-52 144.5q0 117 71 213t181 96q94 0 146 -53.5t52 -144.5q0 -74 -30 -144t-89 -117.5t-133 -47.5zM225 94q53 0 88.5 67.5t35.5 133.5q0 94 -80 94q-53 0 -88.5 -67.5t-35.5 -133.5q0 -94 80 -94z
M231 626h-80l-102 144h107z" />
    <glyph glyph-name="uni1ED4" unicode="&#x1ed4;" horiz-adv-x="622" 
d="M534 682h-68l-44 68l-81 -68h-72l109 108h108zM287 -12q-113 0 -181.5 71t-68.5 184q0 78 23 155t65 139.5t107 101.5t141 39q113 0 181.5 -71t68.5 -185q0 -78 -23 -154.5t-65 -139t-107 -101.5t-141 -39zM295 107q53 0 97.5 48t68 119.5t23.5 144.5q0 64 -33 102
t-87 38q-53 0 -97.5 -48.5t-68 -120t-23.5 -144.5q0 -64 32.5 -101.5t87.5 -37.5zM499 800l-39 12q23 36 73 36q29 0 47.5 -11t18.5 -32q0 -26 -27 -49h-52q29 22 30 43q1 8 -5 13.5t-16 5.5q-18 0 -30 -18z" />
    <glyph glyph-name="uni1ED5" unicode="&#x1ed5;" horiz-adv-x="495" 
d="M449 556h-68l-44 91l-81 -91h-72l109 144h108zM220 -12q-94 0 -146 53.5t-52 144.5q0 117 71 213t181 96q94 0 146 -53.5t52 -144.5q0 -74 -30 -144t-89 -117.5t-133 -47.5zM225 94q53 0 88.5 67.5t35.5 133.5q0 94 -80 94q-53 0 -88.5 -67.5t-35.5 -133.5q0 -94 80 -94z
M408 726l-39 16q23 48 73 48q29 0 47.5 -15t18.5 -43q0 -34 -27 -65h-52q29 29 30 57q1 11 -5 18t-16 7q-18 0 -30 -23z" />
    <glyph glyph-name="uni1ED6" unicode="&#x1ed6;" horiz-adv-x="622" 
d="M529 678h-68l-44 45l-81 -45h-72l109 72h108zM287 -12q-113 0 -181.5 71t-68.5 184q0 78 23 155t65 139.5t107 101.5t141 39q113 0 181.5 -71t68.5 -185q0 -78 -23 -154.5t-65 -139t-107 -101.5t-141 -39zM295 107q53 0 97.5 48t68 119.5t23.5 144.5q0 64 -33 102t-87 38
q-53 0 -97.5 -48.5t-68 -120t-23.5 -144.5q0 -64 32.5 -101.5t87.5 -37.5zM478 757q-36 0 -60 17.5t-41 17.5q-26 0 -41 -32h-64q28 67 112 67q37 0 61 -18t41 -18q27 0 41 33h64q-28 -67 -113 -67z" />
    <glyph glyph-name="uni1ED7" unicode="&#x1ed7;" horiz-adv-x="495" 
d="M442 523h-68l-44 91l-81 -91h-72l109 144h108zM220 -12q-94 0 -146 53.5t-52 144.5q0 117 71 213t181 96q94 0 146 -53.5t52 -144.5q0 -74 -30 -144t-89 -117.5t-133 -47.5zM225 94q53 0 88.5 67.5t35.5 133.5q0 94 -80 94q-53 0 -88.5 -67.5t-35.5 -133.5q0 -94 80 -94z
M407 682q-22 0 -38 11t-22.5 24.5t-17 24.5t-23.5 11q-27 0 -41 -65h-64q28 134 112 134q23 0 38.5 -11t22.5 -24.5t17.5 -24.5t23.5 -11q27 0 41 65h64q-28 -134 -113 -134z" />
    <glyph glyph-name="uni1ED8" unicode="&#x1ed8;" horiz-adv-x="622" 
d="M549 723h-68l-44 91l-81 -91h-72l109 144h108zM287 -12q-113 0 -181.5 71t-68.5 184q0 78 23 155t65 139.5t107 101.5t141 39q113 0 181.5 -71t68.5 -185q0 -78 -23 -154.5t-65 -139t-107 -101.5t-141 -39zM295 107q53 0 97.5 48t68 119.5t23.5 144.5q0 64 -33 102
t-87 38q-53 0 -97.5 -48.5t-68 -120t-23.5 -144.5q0 -64 32.5 -101.5t87.5 -37.5zM294 -122q0 -29 -22.5 -50.5t-51.5 -21.5q-25 0 -41.5 16t-16.5 41q0 29 22.5 51t51.5 22q25 0 41.5 -16.5t16.5 -41.5z" />
    <glyph glyph-name="uni1ED9" unicode="&#x1ed9;" horiz-adv-x="495" 
d="M449 556h-68l-44 91l-81 -91h-72l109 144h108zM220 -12q-94 0 -146 53.5t-52 144.5q0 117 71 213t181 96q94 0 146 -53.5t52 -144.5q0 -74 -30 -144t-89 -117.5t-133 -47.5zM225 94q53 0 88.5 67.5t35.5 133.5q0 94 -80 94q-53 0 -88.5 -67.5t-35.5 -133.5q0 -94 80 -94z
M231 -122q0 -29 -22.5 -50.5t-51.5 -21.5q-25 0 -41.5 16t-16.5 41q0 29 22.5 51t51.5 22q25 0 41.5 -16.5t16.5 -41.5z" />
    <glyph glyph-name="uni1EDA" unicode="&#x1eda;" horiz-adv-x="622" 
d="M609 867l-166 -144h-82l139 144h109zM287 -12q-113 0 -181.5 71t-68.5 184q0 78 23 155t65 139.5t107 101.5t141 39q134 0 204 -99q41 25 53 56q-1 -1 -7 -1q-17 0 -29.5 12.5t-12.5 32.5q0 24 18.5 41.5t42.5 17.5q22 0 37 -15t15 -42q0 -39 -27 -78.5t-68 -62.5
q24 -56 24 -118q0 -78 -23 -154.5t-65 -139t-107 -101.5t-141 -39zM295 107q53 0 97.5 48t68 119.5t23.5 144.5q0 64 -33 102t-87 38q-53 0 -97.5 -48.5t-68 -120t-23.5 -144.5q0 -64 32.5 -101.5t87.5 -37.5z" />
    <glyph glyph-name="uni1EDB" unicode="&#x1edb;" horiz-adv-x="495" 
d="M509 700l-166 -144h-82l139 144h109zM534 548q0 -37 -25.5 -75t-64.5 -63q28 -48 28 -113q0 -74 -30 -144t-89 -117.5t-133 -47.5q-94 0 -146 53.5t-52 144.5q0 117 71 213t181 96q89 0 143 -51q40 28 53 57q-1 -1 -7 -1q-18 0 -30 12.5t-12 32.5q0 24 18 41.5t42 17.5
q22 0 37.5 -15t15.5 -41zM225 94q53 0 88.5 67.5t35.5 133.5q0 94 -80 94q-53 0 -88.5 -67.5t-35.5 -133.5q0 -94 80 -94z" />
    <glyph glyph-name="uni1EDC" unicode="&#x1edc;" horiz-adv-x="622" 
d="M287 -12q-113 0 -181.5 71t-68.5 184q0 78 23 155t65 139.5t107 101.5t141 39q134 0 204 -99q41 25 53 56q-1 -1 -7 -1q-17 0 -29.5 12.5t-12.5 32.5q0 24 18.5 41.5t42.5 17.5q22 0 37 -15t15 -42q0 -39 -27 -78.5t-68 -62.5q24 -56 24 -118q0 -78 -23 -154.5t-65 -139
t-107 -101.5t-141 -39zM295 107q53 0 97.5 48t68 119.5t23.5 144.5q0 64 -33 102t-87 38q-53 0 -97.5 -48.5t-68 -120t-23.5 -144.5q0 -64 32.5 -101.5t87.5 -37.5zM471 723h-80l-102 144h107z" />
    <glyph glyph-name="uni1EDD" unicode="&#x1edd;" horiz-adv-x="495" 
d="M534 548q0 -37 -25.5 -75t-64.5 -63q28 -48 28 -113q0 -74 -30 -144t-89 -117.5t-133 -47.5q-94 0 -146 53.5t-52 144.5q0 117 71 213t181 96q89 0 143 -51q40 28 53 57q-1 -1 -7 -1q-18 0 -30 12.5t-12 32.5q0 24 18 41.5t42 17.5q22 0 37.5 -15t15.5 -41zM225 94
q53 0 88.5 67.5t35.5 133.5q0 94 -80 94q-53 0 -88.5 -67.5t-35.5 -133.5q0 -94 80 -94zM371 556h-80l-102 144h107z" />
    <glyph glyph-name="uni1EDE" unicode="&#x1ede;" horiz-adv-x="622" 
d="M287 -12q-113 0 -181.5 71t-68.5 184q0 78 23 155t65 139.5t107 101.5t141 39q134 0 204 -99q41 25 53 56q-1 -1 -7 -1q-17 0 -29.5 12.5t-12.5 32.5q0 24 18.5 41.5t42.5 17.5q22 0 37 -15t15 -42q0 -39 -27 -78.5t-68 -62.5q24 -56 24 -118q0 -78 -23 -154.5t-65 -139
t-107 -101.5t-141 -39zM295 107q53 0 97.5 48t68 119.5t23.5 144.5q0 64 -33 102t-87 38q-53 0 -97.5 -48.5t-68 -120t-23.5 -144.5q0 -64 32.5 -101.5t87.5 -37.5zM395 756l-39 16q23 48 73 48q29 0 47.5 -15t18.5 -43q0 -34 -27 -65h-52q29 29 30 57q1 11 -5 18t-16 7
q-18 0 -30 -23z" />
    <glyph glyph-name="uni1EDF" unicode="&#x1edf;" horiz-adv-x="495" 
d="M534 548q0 -37 -25.5 -75t-64.5 -63q28 -48 28 -113q0 -74 -30 -144t-89 -117.5t-133 -47.5q-94 0 -146 53.5t-52 144.5q0 117 71 213t181 96q89 0 143 -51q40 28 53 57q-1 -1 -7 -1q-18 0 -30 12.5t-12 32.5q0 24 18 41.5t42 17.5q22 0 37.5 -15t15.5 -41zM225 94
q53 0 88.5 67.5t35.5 133.5q0 94 -80 94q-53 0 -88.5 -67.5t-35.5 -133.5q0 -94 80 -94zM294 586l-39 16q23 48 73 48q29 0 47.5 -15t18.5 -43q0 -34 -27 -65h-52q29 29 30 57q1 11 -5 18t-16 7q-18 0 -30 -23z" />
    <glyph glyph-name="uni1EE0" unicode="&#x1ee0;" horiz-adv-x="622" 
d="M287 -12q-113 0 -181.5 71t-68.5 184q0 78 23 155t65 139.5t107 101.5t141 39q134 0 204 -99q41 25 53 56q-1 -1 -7 -1q-17 0 -29.5 12.5t-12.5 32.5q0 24 18.5 41.5t42.5 17.5q22 0 37 -15t15 -42q0 -39 -27 -78.5t-68 -62.5q24 -56 24 -118q0 -78 -23 -154.5t-65 -139
t-107 -101.5t-141 -39zM295 107q53 0 97.5 48t68 119.5t23.5 144.5q0 64 -33 102t-87 38q-53 0 -97.5 -48.5t-68 -120t-23.5 -144.5q0 -64 32.5 -101.5t87.5 -37.5zM479 721q-22 0 -38 11t-22.5 24.5t-17 24.5t-23.5 11q-27 0 -41 -65h-64q28 134 112 134q23 0 38.5 -11
t22.5 -24.5t17.5 -24.5t23.5 -11q27 0 41 65h64q-28 -134 -113 -134z" />
    <glyph glyph-name="uni1EE1" unicode="&#x1ee1;" horiz-adv-x="495" 
d="M534 548q0 -37 -25.5 -75t-64.5 -63q28 -48 28 -113q0 -74 -30 -144t-89 -117.5t-133 -47.5q-94 0 -146 53.5t-52 144.5q0 117 71 213t181 96q89 0 143 -51q40 28 53 57q-1 -1 -7 -1q-18 0 -30 12.5t-12 32.5q0 24 18 41.5t42 17.5q22 0 37.5 -15t15.5 -41zM225 94
q53 0 88.5 67.5t35.5 133.5q0 94 -80 94q-53 0 -88.5 -67.5t-35.5 -133.5q0 -94 80 -94zM347 554q-22 0 -38 11t-22.5 24.5t-17 24.5t-23.5 11q-27 0 -41 -65h-64q28 134 112 134q23 0 38.5 -11t22.5 -24.5t17.5 -24.5t23.5 -11q27 0 41 65h64q-28 -134 -113 -134z" />
    <glyph glyph-name="uni1EE2" unicode="&#x1ee2;" horiz-adv-x="622" 
d="M287 -12q-113 0 -181.5 71t-68.5 184q0 78 23 155t65 139.5t107 101.5t141 39q134 0 204 -99q41 25 53 56q-1 -1 -7 -1q-17 0 -29.5 12.5t-12.5 32.5q0 24 18.5 41.5t42.5 17.5q22 0 37 -15t15 -42q0 -39 -27 -78.5t-68 -62.5q24 -56 24 -118q0 -78 -23 -154.5t-65 -139
t-107 -101.5t-141 -39zM295 107q53 0 97.5 48t68 119.5t23.5 144.5q0 64 -33 102t-87 38q-53 0 -97.5 -48.5t-68 -120t-23.5 -144.5q0 -64 32.5 -101.5t87.5 -37.5zM294 -122q0 -29 -22.5 -50.5t-51.5 -21.5q-25 0 -41.5 16t-16.5 41q0 29 22.5 51t51.5 22q25 0 41.5 -16.5
t16.5 -41.5z" />
    <glyph glyph-name="uni1EE3" unicode="&#x1ee3;" horiz-adv-x="495" 
d="M534 548q0 -37 -25.5 -75t-64.5 -63q28 -48 28 -113q0 -74 -30 -144t-89 -117.5t-133 -47.5q-94 0 -146 53.5t-52 144.5q0 117 71 213t181 96q89 0 143 -51q40 28 53 57q-1 -1 -7 -1q-18 0 -30 12.5t-12 32.5q0 24 18 41.5t42 17.5q22 0 37.5 -15t15.5 -41zM225 94
q53 0 88.5 67.5t35.5 133.5q0 94 -80 94q-53 0 -88.5 -67.5t-35.5 -133.5q0 -94 80 -94zM231 -122q0 -29 -22.5 -50.5t-51.5 -21.5q-25 0 -41.5 16t-16.5 41q0 29 22.5 51t51.5 22q25 0 41.5 -16.5t16.5 -41.5z" />
    <glyph glyph-name="uni1EE4" unicode="&#x1ee4;" horiz-adv-x="609" 
d="M282 -12q-107 0 -169 54.5t-62 145.5q0 14 5 44l96 435h135l-97 -439q-3 -18 -3 -31q0 -40 27 -65.5t73 -25.5q97 0 124 122l97 439h135l-97 -437q-52 -242 -264 -242zM286 -122q0 -29 -22.5 -50.5t-51.5 -21.5q-25 0 -41.5 16t-16.5 41q0 29 22.5 51t51.5 22
q25 0 41.5 -16.5t16.5 -41.5z" />
    <glyph glyph-name="uni1EE5" unicode="&#x1ee5;" horiz-adv-x="499" 
d="M107 483h120l-70 -317q-4 -18 -4 -25q0 -23 15.5 -35t40.5 -12q48 0 96 60l73 329h120l-107 -483h-120l14 62q-64 -74 -141 -74q-56 0 -88.5 27.5t-32.5 74.5q0 15 5 35zM232 -122q0 -29 -22.5 -50.5t-51.5 -21.5q-25 0 -41.5 16t-16.5 41q0 29 22.5 51t51.5 22
q25 0 41.5 -16.5t16.5 -41.5z" />
    <glyph glyph-name="uni1EE6" unicode="&#x1ee6;" horiz-adv-x="609" 
d="M282 -12q-107 0 -169 54.5t-62 145.5q0 14 5 44l96 435h135l-97 -439q-3 -18 -3 -31q0 -40 27 -65.5t73 -25.5q97 0 124 122l97 439h135l-97 -437q-52 -242 -264 -242zM387 756l-39 16q23 48 73 48q29 0 47.5 -15t18.5 -43q0 -34 -27 -65h-52q29 29 30 57q1 11 -5 18
t-16 7q-18 0 -30 -23z" />
    <glyph glyph-name="uni1EE7" unicode="&#x1ee7;" horiz-adv-x="499" 
d="M107 483h120l-70 -317q-4 -18 -4 -25q0 -23 15.5 -35t40.5 -12q48 0 96 60l73 329h120l-107 -483h-120l14 62q-64 -74 -141 -74q-56 0 -88.5 27.5t-32.5 74.5q0 15 5 35zM296 586l-39 16q23 48 73 48q29 0 47.5 -15t18.5 -43q0 -34 -27 -65h-52q29 29 30 57q1 11 -5 18
t-16 7q-18 0 -30 -23z" />
    <glyph glyph-name="uni1EE8" unicode="&#x1ee8;" horiz-adv-x="609" 
d="M601 867l-166 -144h-82l139 144h109zM755 743q0 -48 -37 -92t-94 -67l-78 -354q-52 -242 -264 -242q-107 0 -169 54.5t-62 145.5q0 14 5 44l96 435h135l-97 -439q-3 -18 -3 -31q0 -40 27 -65.5t73 -25.5q97 0 124 122l97 439h135l-7 -28q43 25 56 57q-1 -1 -7 -1
q-18 0 -30.5 12.5t-12.5 32.5q0 24 18.5 41.5t42.5 17.5q22 0 37 -14.5t15 -41.5z" />
    <glyph glyph-name="uni1EE9" unicode="&#x1ee9;" horiz-adv-x="499" 
d="M511 700l-166 -144h-82l139 144h109zM583 559q0 -39 -27.5 -78t-72.5 -64l-92 -417h-120l14 61q-65 -73 -141 -73q-56 0 -88.5 27.5t-32.5 74.5q0 12 5 35l79 358h120l-71 -318q-3 -21 -3 -24q0 -47 57 -47q47 0 95 60l73 329h120l-1 -2q16 16 22 32q-1 -1 -7 -1
q-17 0 -29.5 12.5t-12.5 32.5q0 24 18 41.5t42 17.5q22 0 37.5 -15t15.5 -42z" />
    <glyph glyph-name="uni1EEA" unicode="&#x1eea;" horiz-adv-x="609" 
d="M463 723h-80l-102 144h107zM755 743q0 -48 -37 -92t-94 -67l-78 -354q-52 -242 -264 -242q-107 0 -169 54.5t-62 145.5q0 14 5 44l96 435h135l-97 -439q-3 -18 -3 -31q0 -40 27 -65.5t73 -25.5q97 0 124 122l97 439h135l-7 -28q43 25 56 57q-1 -1 -7 -1q-18 0 -30.5 12.5
t-12.5 32.5q0 24 18.5 41.5t42.5 17.5q22 0 37 -14.5t15 -41.5z" />
    <glyph glyph-name="uni1EEB" unicode="&#x1eeb;" horiz-adv-x="499" 
d="M373 556h-80l-102 144h107zM583 559q0 -39 -27.5 -78t-72.5 -64l-92 -417h-120l14 61q-65 -73 -141 -73q-56 0 -88.5 27.5t-32.5 74.5q0 12 5 35l79 358h120l-71 -318q-3 -21 -3 -24q0 -47 57 -47q47 0 95 60l73 329h120l-1 -2q16 16 22 32q-1 -1 -7 -1q-17 0 -29.5 12.5
t-12.5 32.5q0 24 18 41.5t42 17.5q22 0 37.5 -15t15.5 -42z" />
    <glyph glyph-name="uni1EEC" unicode="&#x1eec;" horiz-adv-x="609" 
d="M387 756l-39 16q23 48 73 48q29 0 47.5 -15t18.5 -43q0 -34 -27 -65h-52q29 29 30 57q1 11 -5 18t-16 7q-18 0 -30 -23zM755 743q0 -48 -37 -92t-94 -67l-78 -354q-52 -242 -264 -242q-107 0 -169 54.5t-62 145.5q0 14 5 44l96 435h135l-97 -439q-3 -18 -3 -31
q0 -40 27 -65.5t73 -25.5q97 0 124 122l97 439h135l-7 -28q43 25 56 57q-1 -1 -7 -1q-18 0 -30.5 12.5t-12.5 32.5q0 24 18.5 41.5t42.5 17.5q22 0 37 -14.5t15 -41.5z" />
    <glyph glyph-name="uni1EED" unicode="&#x1eed;" horiz-adv-x="499" 
d="M296 586l-39 16q23 48 73 48q29 0 47.5 -15t18.5 -43q0 -34 -27 -65h-52q29 29 30 57q1 11 -5 18t-16 7q-18 0 -30 -23zM583 559q0 -39 -27.5 -78t-72.5 -64l-92 -417h-120l14 61q-65 -73 -141 -73q-56 0 -88.5 27.5t-32.5 74.5q0 12 5 35l79 358h120l-71 -318
q-3 -21 -3 -24q0 -47 57 -47q47 0 95 60l73 329h120l-1 -2q16 16 22 32q-1 -1 -7 -1q-17 0 -29.5 12.5t-12.5 32.5q0 24 18 41.5t42 17.5q22 0 37.5 -15t15.5 -42z" />
    <glyph glyph-name="uni1EEE" unicode="&#x1eee;" horiz-adv-x="609" 
d="M755 743q0 -48 -37 -92t-94 -67l-78 -354q-52 -242 -264 -242q-107 0 -169 54.5t-62 145.5q0 14 5 44l96 435h135l-97 -439q-3 -18 -3 -31q0 -40 27 -65.5t73 -25.5q97 0 124 122l97 439h135l-7 -28q43 25 56 57q-1 -1 -7 -1q-18 0 -30.5 12.5t-12.5 32.5q0 24 18.5 41.5
t42.5 17.5q22 0 37 -14.5t15 -41.5zM471 721q-22 0 -38 11t-22.5 24.5t-17 24.5t-23.5 11q-27 0 -41 -65h-64q28 134 112 134q23 0 38.5 -11t22.5 -24.5t17.5 -24.5t23.5 -11q27 0 41 65h64q-28 -134 -113 -134z" />
    <glyph glyph-name="uni1EEF" unicode="&#x1eef;" horiz-adv-x="499" 
d="M583 559q0 -39 -27.5 -78t-72.5 -64l-92 -417h-120l14 61q-65 -73 -141 -73q-56 0 -88.5 27.5t-32.5 74.5q0 12 5 35l79 358h120l-71 -318q-3 -21 -3 -24q0 -47 57 -47q47 0 95 60l73 329h120l-1 -2q16 16 22 32q-1 -1 -7 -1q-17 0 -29.5 12.5t-12.5 32.5q0 24 18 41.5
t42 17.5q22 0 37.5 -15t15.5 -42zM367 554q-22 0 -38 11t-22.5 24.5t-17 24.5t-23.5 11q-27 0 -41 -65h-64q28 134 112 134q23 0 38.5 -11t22.5 -24.5t17.5 -24.5t23.5 -11q27 0 41 65h64q-28 -134 -113 -134z" />
    <glyph glyph-name="uni1EF0" unicode="&#x1ef0;" horiz-adv-x="609" 
d="M286 -122q0 -29 -22.5 -50.5t-51.5 -21.5q-25 0 -41.5 16t-16.5 41q0 29 22.5 51t51.5 22q25 0 41.5 -16.5t16.5 -41.5zM755 743q0 -48 -37 -92t-94 -67l-78 -354q-52 -242 -264 -242q-107 0 -169 54.5t-62 145.5q0 14 5 44l96 435h135l-97 -439q-3 -18 -3 -31
q0 -40 27 -65.5t73 -25.5q97 0 124 122l97 439h135l-7 -28q43 25 56 57q-1 -1 -7 -1q-18 0 -30.5 12.5t-12.5 32.5q0 24 18.5 41.5t42.5 17.5q22 0 37 -14.5t15 -41.5z" />
    <glyph glyph-name="uni1EF1" unicode="&#x1ef1;" horiz-adv-x="499" 
d="M232 -122q0 -29 -22.5 -50.5t-51.5 -21.5q-25 0 -41.5 16t-16.5 41q0 29 22.5 51t51.5 22q25 0 41.5 -16.5t16.5 -41.5zM583 559q0 -39 -27.5 -78t-72.5 -64l-92 -417h-120l14 61q-65 -73 -141 -73q-56 0 -88.5 27.5t-32.5 74.5q0 12 5 35l79 358h120l-71 -318
q-3 -21 -3 -24q0 -47 57 -47q47 0 95 60l73 329h120l-1 -2q16 16 22 32q-1 -1 -7 -1q-17 0 -29.5 12.5t-12.5 32.5q0 24 18 41.5t42 17.5q22 0 37.5 -15t15.5 -42z" />
    <glyph glyph-name="Ygrave" unicode="&#x1ef2;" horiz-adv-x="538" 
d="M282 0h-134l60 275l-119 392h141l66 -268l185 268h154l-293 -392zM429 723h-80l-102 144h107z" />
    <glyph glyph-name="ygrave" unicode="&#x1ef3;" horiz-adv-x="447" 
d="M-51 -184l39 102q11 -7 36 -7q31 0 51 34l28 50l-52 488h124l22 -338l174 338h131l-315 -565q-36 -64 -73 -89t-90 -25q-44 0 -75 12zM343 556h-80l-102 144h107z" />
    <glyph glyph-name="thinspace" unicode="&#x2009;" horiz-adv-x="42" 
 />
    <glyph glyph-name="endash" unicode="&#x2013;" horiz-adv-x="527" 
d="M484 191h-466l22 102h467z" />
    <glyph glyph-name="emdash" unicode="&#x2014;" horiz-adv-x="737" 
d="M694 191h-676l22 102h677z" />
    <glyph glyph-name="afii00208" unicode="&#x2015;" horiz-adv-x="527" 
d="M484 191h-466l22 102h467z" />
    <glyph glyph-name="quoteleft" unicode="&#x2018;" horiz-adv-x="253" 
d="M95 483q0 55 41 110t102 84l44 -45q-30 -13 -57.5 -36t-38.5 -48q2 1 9 1q25 0 42.5 -16.5t17.5 -45.5q0 -34 -26 -58.5t-59 -24.5q-31 0 -53 21t-22 58z" />
    <glyph glyph-name="quoteright" unicode="&#x2019;" horiz-adv-x="253" 
d="M286 599q0 -55 -41 -110t-102 -85l-43 45q30 13 57.5 36t38.5 48q-2 -1 -10 -1q-25 0 -42 16.5t-17 46.5q0 33 26 57.5t59 24.5q31 0 52.5 -20.5t21.5 -57.5z" />
    <glyph glyph-name="quotesinglbase" unicode="&#x201a;" horiz-adv-x="253" 
d="M168 65q0 -55 -41 -109.5t-102 -85.5l-43 46q30 13 57.5 36t38.5 48q-2 -1 -10 -1q-25 0 -42 16.5t-17 45.5q0 33 26 58t59 25q31 0 52.5 -21t21.5 -58z" />
    <glyph glyph-name="quotereversed" unicode="&#x201b;" horiz-adv-x="253" 
d="M118 548q0 61 31.5 95t69.5 34q32 0 51 -20t19 -48q0 -34 -23 -55t-57 -21q-16 0 -28 5q0 -56 54 -107l-52 -32q-65 68 -65 149z" />
    <glyph glyph-name="quotedblleft" unicode="&#x201c;" horiz-adv-x="450" 
d="M294 483q0 55 41 110t102 84l43 -45q-30 -13 -57.5 -36t-38.5 -48q2 1 10 1q25 0 42 -16.5t17 -45.5q0 -34 -25.5 -58.5t-58.5 -24.5q-31 0 -53 21t-22 58zM98 483q0 55 40.5 110t101.5 84l43 -45q-29 -13 -57 -36t-39 -48q3 1 10 1q25 0 42.5 -16.5t17.5 -45.5
q0 -34 -26 -58.5t-59 -24.5q-31 0 -52.5 21t-21.5 58z" />
    <glyph glyph-name="quotedblright" unicode="&#x201d;" horiz-adv-x="450" 
d="M286 599q0 -55 -41 -110t-102 -85l-43 45q30 13 57.5 36t38.5 48q-2 -1 -10 -1q-25 0 -42 16.5t-17 46.5q0 33 26 57.5t59 24.5q31 0 52.5 -20.5t21.5 -57.5zM483 599q0 -56 -41 -110.5t-102 -84.5l-43 45q30 13 57.5 36t38.5 48q-2 -1 -10 -1q-25 0 -42 16.5t-17 46.5
q0 33 25.5 57.5t58.5 24.5q31 0 53 -21t22 -57z" />
    <glyph glyph-name="quotedblbase" unicode="&#x201e;" horiz-adv-x="450" 
d="M168 65q0 -55 -41 -109.5t-102 -85.5l-43 46q30 13 57.5 36t38.5 48q-2 -1 -10 -1q-25 0 -42 16.5t-17 45.5q0 33 26 58t59 25q31 0 52.5 -21t21.5 -58zM365 65q0 -55 -41 -109.5t-102 -85.5l-43 46q30 13 57.5 36t38.5 48q-2 -1 -10 -1q-25 0 -42.5 16.5t-17.5 45.5
q0 33 26 58t59 25q31 0 53 -21t22 -58z" />
    <glyph glyph-name="dagger" unicode="&#x2020;" horiz-adv-x="275" 
d="M316 523l-88 4l-40 -200h-66l50 200l-90 -4l13 60l88 -3l17 97h66l-26 -97l90 3z" />
    <glyph glyph-name="daggerdbl" unicode="&#x2021;" horiz-adv-x="275" 
d="M330 583l-14 -60l-88 4l-43 -196l90 4l-14 -60l-88 3l-18 -98h-66l27 98l-89 -3l13 60l87 -4l44 196l-89 -4l13 60l88 -3l17 97h66l-26 -97z" />
    <glyph glyph-name="bullet" unicode="&#x2022;" horiz-adv-x="358" 
d="M297 254q0 -52 -39 -90t-92 -38q-45 0 -75 30t-30 75q0 52 39 90t92 38q45 0 75 -30t30 -75z" />
    <glyph glyph-name="ellipsis" unicode="&#x2026;" horiz-adv-x="757" 
d="M79 -11q-29 0 -49.5 20.5t-20.5 49.5q0 35 25 60t60 25q29 0 49.5 -21.5t20.5 -50.5q0 -34 -25 -58.5t-60 -24.5zM332 -11q-30 0 -50.5 20.5t-20.5 49.5q0 35 25 60t60 25q29 0 49.5 -21.5t20.5 -50.5q0 -34 -25 -58.5t-59 -24.5zM584 -11q-30 0 -50.5 20.5t-20.5 49.5
q0 35 25 60t60 25q29 0 49.5 -21.5t20.5 -50.5q0 -34 -25 -58.5t-59 -24.5z" />
    <glyph glyph-name="perthousand" unicode="&#x2030;" horiz-adv-x="994" 
d="M138 0h-63l500 667h63zM463 -12q-60 0 -98.5 37t-38.5 95q0 85 51 142.5t119 57.5q60 0 98.5 -37t38.5 -95q0 -85 -51 -142.5t-119 -57.5zM467 62q32 0 57 34.5t25 84.5q0 30 -15.5 47t-41.5 17q-32 0 -57 -34t-25 -84q0 -30 15.5 -47.5t41.5 -17.5zM215 345
q-60 0 -98.5 37t-38.5 95q0 85 51 142.5t119 57.5q60 0 98.5 -36.5t38.5 -94.5q0 -85 -51 -143t-119 -58zM219 419q32 0 57 34.5t25 84.5q0 30 -15.5 47t-41.5 17q-32 0 -57 -34t-25 -84q0 -30 15.5 -47.5t41.5 -17.5zM785 -12q-60 0 -98.5 37t-38.5 95q0 85 51 142.5
t119 57.5q59 0 97.5 -37t38.5 -95q0 -85 -50.5 -142.5t-118.5 -57.5zM788 62q32 0 57.5 34.5t25.5 84.5q0 30 -15.5 47t-41.5 17q-32 0 -57 -34t-25 -84q0 -30 15 -47.5t41 -17.5z" />
    <glyph glyph-name="guilsinglleft" unicode="&#x2039;" horiz-adv-x="287" 
d="M213 63h-99l-85 180l165 177h105l-168 -181z" />
    <glyph glyph-name="guilsinglright" unicode="&#x203a;" horiz-adv-x="287" 
d="M75 420h99l85 -180l-165 -177h-105l169 182z" />
    <glyph glyph-name="uni203E" unicode="&#x203e;" horiz-adv-x="311" 
d="M380 563h-309l15 69h309z" />
    <glyph glyph-name="fraction" unicode="&#x2044;" horiz-adv-x="146" 
d="M374 667l-500 -667h-63l499 667h64z" />
    <glyph glyph-name="zerosuperior" unicode="&#x2070;" horiz-adv-x="345" 
d="M407 679q0 -39 -11 -82.5t-32.5 -85.5t-59.5 -69.5t-85 -27.5q-62 0 -97.5 39t-35.5 109q0 54 18 112t62.5 105.5t106.5 47.5q63 0 98.5 -39t35.5 -109zM317 688q0 66 -48 66q-42 0 -68 -71.5t-26 -129.5q0 -66 48 -66q42 0 68 71.5t26 129.5z" />
    <glyph glyph-name="foursuperior" unicode="&#x2074;" horiz-adv-x="345" 
d="M376 509h-43l-19 -88h-91l19 88h-172l15 66l198 246h119l-53 -241h42zM258 580l33 150l-121 -150h88z" />
    <glyph glyph-name="fivesuperior" unicode="&#x2075;" horiz-adv-x="345" 
d="M381 577q0 -68 -44 -115.5t-116 -47.5q-106 0 -151 70l62 51q28 -48 86 -48q31 0 50.5 23.5t19.5 53.5q0 24 -15 36.5t-40 12.5q-39 0 -68 -33l-60 20l49 221h259l-16 -73h-169l-21 -98q31 29 71 29q43 0 73 -27t30 -75z" />
    <glyph glyph-name="sixsuperior" unicode="&#x2076;" horiz-adv-x="345" 
d="M385 576q0 -65 -43 -113.5t-113 -48.5q-67 0 -104.5 37.5t-37.5 105.5q0 102 58 186t146 84q78 0 121 -49l-54 -58q-23 34 -69 34q-42 0 -68.5 -37t-33.5 -78q-1 -2 -1 -6q39 52 92 52q45 0 76 -28.5t31 -80.5zM292 564q0 24 -15.5 37t-39.5 13q-32 0 -60 -39
q-3 -13 -3 -29q0 -26 14.5 -42.5t39.5 -16.5q27 0 45.5 25t18.5 52z" />
    <glyph glyph-name="sevensuperior" unicode="&#x2077;" horiz-adv-x="319" 
d="M402 758l-204 -337h-95l203 327h-184l16 73h278z" />
    <glyph glyph-name="eightsuperior" unicode="&#x2078;" horiz-adv-x="345" 
d="M376 531q0 -51 -39 -84t-108 -33q-68 0 -112.5 26t-44.5 77q0 42 31.5 75.5t78.5 41.5q-59 25 -59 80q0 53 42 83t100 30t103.5 -25.5t45.5 -74.5q0 -39 -27 -69t-75 -39q26 -11 45 -35t19 -53zM320 716q0 20 -15 30.5t-38 10.5q-25 0 -41 -15.5t-16 -38.5q0 -19 15 -32
t29 -16q66 12 66 61zM287 540q0 20 -14.5 35t-31.5 20q-30 -3 -53 -22t-23 -46q0 -19 17 -31.5t41 -12.5q28 0 46 16.5t18 40.5z" />
    <glyph glyph-name="ninesuperior" unicode="&#x2079;" horiz-adv-x="345" 
d="M110 666q0 65 42.5 113.5t112.5 48.5q67 0 105 -38t38 -105q0 -102 -58 -186t-147 -84q-78 0 -121 49l54 58q23 -34 69 -34q42 0 69 37t34 78v3l1 3q-39 -52 -93 -52q-45 0 -75.5 28.5t-30.5 80.5zM202 678q0 -24 15.5 -37t39.5 -13q31 0 60 38q3 15 3 30
q0 26 -14.5 42.5t-39.5 16.5q-27 0 -45.5 -25t-18.5 -52z" />
    <glyph glyph-name="parenleftsuperior" unicode="&#x207d;" horiz-adv-x="177" 
d="M193 378l-57 -22q-40 71 -40 174q0 98 42.5 190.5t114.5 165.5l47 -21q-124 -176 -124 -368q0 -71 17 -119z" />
    <glyph glyph-name="parenrightsuperior" unicode="&#x207e;" horiz-adv-x="177" 
d="M152 865l56 21q40 -71 40 -174q0 -98 -42.5 -190.5t-114.5 -165.5l-47 22q125 176 125 367q0 66 -17 120z" />
    <glyph glyph-name="nsuperior" unicode="&#x207f;" horiz-adv-x="361" 
d="M333 326h-87l44 200q3 15 3 18q0 30 -38 30q-28 0 -62 -39l-46 -209h-87l69 314h87l-8 -40q40 48 93 48q41 0 63.5 -18.5t22.5 -51.5q0 -8 -4 -26z" />
    <glyph glyph-name="zeroinferior" unicode="&#x2080;" horiz-adv-x="345" 
d="M291 112q0 -39 -11 -82.5t-32.5 -85.5t-59.5 -69.5t-85 -27.5q-62 0 -97.5 39t-35.5 109q0 54 18 112t62.5 105.5t106.5 47.5q63 0 98.5 -39t35.5 -109zM201 121q0 66 -48 66q-42 0 -68 -71.5t-26 -129.5q0 -66 48 -66q42 0 68 71.5t26 129.5z" />
    <glyph glyph-name="oneinferior" unicode="&#x2081;" horiz-adv-x="265" 
d="M127 -146h-91l61 279l-73 -60l-42 55l155 126h78z" />
    <glyph glyph-name="twoinferior" unicode="&#x2082;" horiz-adv-x="345" 
d="M232 -146h-281l16 71q144 100 189.5 141.5t45.5 75.5q0 21 -16 33t-41 12q-55 0 -94 -44l-41 60q59 57 141 57q62 0 103 -29t41 -80t-46 -98t-158 -126h157z" />
    <glyph glyph-name="threeinferior" unicode="&#x2083;" horiz-adv-x="345" 
d="M259 -30q0 -48 -40.5 -85.5t-105.5 -37.5q-54 0 -95.5 19t-60.5 53l61 53q31 -52 90 -52q30 0 46 18t16 42q0 42 -67 42q-25 0 -31 -1l15 72q9 -1 49 -1q31 0 48.5 14.5t17.5 39.5q0 19 -18 30t-45 11q-50 0 -88 -38l-38 55q58 56 134 56q67 0 107 -26.5t40 -74.5
q0 -39 -27.5 -70t-74.5 -36q31 -8 49 -30t18 -53z" />
    <glyph glyph-name="fourinferior" unicode="&#x2084;" horiz-adv-x="345" 
d="M260 -58h-43l-19 -88h-91l19 88h-172l15 66l198 246h119l-53 -241h42zM142 13l33 150l-121 -150h88z" />
    <glyph glyph-name="fiveinferior" unicode="&#x2085;" horiz-adv-x="345" 
d="M265 10q0 -68 -44 -115.5t-116 -47.5q-106 0 -151 70l62 51q28 -48 86 -48q31 0 50.5 23.5t19.5 53.5q0 24 -15 36.5t-40 12.5q-40 0 -68 -33l-60 20l49 221h259l-16 -73h-169l-21 -98q31 29 71 29q43 0 73 -27t30 -75z" />
    <glyph glyph-name="sixinferior" unicode="&#x2086;" horiz-adv-x="345" 
d="M269 9q0 -65 -43 -113.5t-113 -48.5q-67 0 -104.5 37.5t-37.5 105.5q0 102 58 186t146 84q78 0 121 -49l-54 -58q-23 34 -69 34q-42 0 -68.5 -37t-33.5 -78q-1 -2 -1 -6q39 52 92 52q45 0 76 -28.5t31 -80.5zM176 -3q0 24 -15.5 37t-39.5 13q-32 0 -60 -39q-3 -13 -3 -29
q0 -26 14.5 -42.5t39.5 -16.5q27 0 45.5 25t18.5 52z" />
    <glyph glyph-name="seveninferior" unicode="&#x2087;" horiz-adv-x="319" 
d="M286 191l-204 -337h-95l203 327h-184l16 73h278z" />
    <glyph glyph-name="eightinferior" unicode="&#x2088;" horiz-adv-x="345" 
d="M260 -36q0 -51 -39 -84t-108 -33q-68 0 -112.5 26t-44.5 77q0 42 31.5 75.5t78.5 41.5q-59 25 -59 80q0 53 42 83t100 30t103.5 -25.5t45.5 -74.5q0 -39 -27 -69t-75 -39q26 -11 45 -35t19 -53zM204 149q0 20 -15 30.5t-38 10.5q-25 0 -41 -15.5t-16 -38.5q0 -19 15 -32
t29 -16q66 12 66 61zM171 -27q0 20 -14.5 35t-31.5 20q-30 -3 -53 -22t-23 -46q0 -19 17 -31.5t41 -12.5q28 0 46 16.5t18 40.5z" />
    <glyph glyph-name="nineinferior" unicode="&#x2089;" horiz-adv-x="345" 
d="M-6 99q0 65 42.5 113.5t112.5 48.5q67 0 105 -37.5t38 -105.5q0 -102 -58 -186t-147 -84q-78 0 -121 49l54 58q23 -34 69 -34q42 0 69 37t34 78v4l1 2q-39 -52 -93 -52q-45 0 -75.5 28.5t-30.5 80.5zM86 111q0 -24 15.5 -37t39.5 -13q31 0 60 38q3 15 3 30
q0 26 -14.5 42.5t-39.5 16.5q-27 0 -45.5 -25t-18.5 -52z" />
    <glyph glyph-name="parenleftinferior" unicode="&#x208d;" horiz-adv-x="177" 
d="M68 -189l-57 -22q-40 71 -40 174q0 98 42.5 190.5t114.5 165.5l47 -21q-124 -176 -124 -368q0 -71 17 -119z" />
    <glyph glyph-name="parenrightinferior" unicode="&#x208e;" horiz-adv-x="177" 
d="M27 298l56 21q40 -71 40 -174q0 -98 -42.5 -190.5t-114.5 -165.5l-47 22q125 176 125 367q0 66 -17 120z" />
    <glyph glyph-name="colonmonetary" unicode="&#x20a1;" horiz-adv-x="554" 
d="M289 -12q-11 0 -33 2l-44 -90h-71l52 104q-21 7 -42 20l-61 -124h-71l81 165q-61 69 -61 178t40 207.5t118.5 163t177.5 64.5q4 0 12 -0.5t12 -0.5l45 91h71l-52 -105q24 -9 41 -21l62 126h71l-84 -171q36 -44 51 -109l-120 -32l-171 -348q60 11 104 78l105 -58
q-88 -140 -233 -140zM209 145h-1q16 -19 38 -29l199 406q-14 18 -37 28zM177 246q0 -14 1 -20l161 329q-69 -19 -115.5 -113t-46.5 -196z" />
    <glyph glyph-name="frenchfranc" unicode="&#x20a3;" horiz-adv-x="484" 
d="M150 0h-134l25 113h-59l16 69h58l107 485h382l-26 -118h-248l-33 -151h241l-27 -118h-240l-22 -98h120l-16 -69h-119z" />
    <glyph glyph-name="lira" unicode="&#x20a4;" horiz-adv-x="487" 
d="M46 333l13 62h39q-7 28 -7 54q0 95 72.5 161.5t167.5 66.5q77 0 131.5 -36t65.5 -102l-119 -42q-4 33 -24 52t-51 19q-40 0 -69 -39.5t-29 -96.5q0 -19 5 -37h132l-14 -62h-98q4 -13 4 -32q0 -9 -2 -23h84l-14 -63h-88q-27 -58 -73 -87q21 8 39 8q27 0 64 -14.5t59 -14.5
q41 0 74 33l21 -107q-43 -45 -112 -45q-44 0 -102.5 21t-85.5 21q-43 0 -98 -37l-22 92q42 20 74 55t45 75h-108l13 63h102q-4 28 -15 55h-74z" />
    <glyph glyph-name="uni20A6" unicode="&#x20a6;" horiz-adv-x="628" 
d="M505 0h-128l-78 232h-98l-51 -232h-134l51 232h-58l16 69h57l15 70h-57l15 69h58l50 227h136l75 -227h93l50 227h135l-50 -227h55l-15 -69h-56l-15 -70h56l-16 -69h-55zM231 371l-15 -70h60l-23 70h-22zM397 371l23 -70h16l16 70h-55z" />
    <glyph glyph-name="peseta" unicode="&#x20a7;" horiz-adv-x="583" 
d="M150 0h-134l91 413h-58l16 70h57l41 184h228q80 0 129 -51.5t49 -131.5v-1h58l-15 -70h-52q-20 -81 -83.5 -132.5t-165.5 -51.5h-110zM320 347q68 0 98 66h-178l-14 -66h94zM271 549l-15 -66h173q-3 29 -21.5 47.5t-47.5 18.5h-89z" />
    <glyph glyph-name="rupee" unicode="&#x20a8;" horiz-adv-x="921" 
d="M686 -12q-60 0 -111.5 21.5t-80.5 57.5l66 79q19 -26 55.5 -45.5t76.5 -19.5q29 0 47.5 16t18.5 38t-30.5 41t-67 33.5t-67 46.5t-30.5 77q0 67 48.5 114.5t133.5 47.5q51 0 98 -19.5t76 -52.5l-61 -76q-15 21 -48 38t-67 17q-29 0 -46 -14t-17 -35q0 -19 31 -37t68 -33
t68 -48.5t31 -78.5q0 -70 -52.5 -119t-139.5 -49zM462 0h-144l-48 241h-78l-53 -241h-134l147 667h225q77 0 130 -50.5t53 -128.5q0 -84 -46.5 -148.5t-113.5 -81.5zM218 359h95q48 0 77.5 34t29.5 82q0 35 -20 54.5t-51 19.5h-89z" />
    <glyph glyph-name="uni20A9" unicode="&#x20a9;" horiz-adv-x="784" 
d="M563 0h-140l7 232h-82l-96 -232h-140l-2 232h-94l16 69h77v70h-61l14 69h46l-1 227h141l-9 -227h93l97 227h105l-4 -227h93l92 227h147l-102 -227h44l-14 -69h-61l-31 -70h76l-15 -69h-92zM237 371l-3 -70h39l30 70h-66zM529 371l-1 -70h38l29 70h-66zM405 371l-29 -70
h56l2 70h-29zM243 232h-11l-1 -29zM538 232h-11v-29z" />
    <glyph glyph-name="afii57636" unicode="&#x20aa;" horiz-adv-x="702" 
d="M431 0h-268l85 383h102l-64 -288h144q46 0 69.5 24.5t35.5 79.5l78 351h102l-80 -361q-21 -95 -69 -142t-135 -47zM121 550h202q83 0 136.5 -35.5t53.5 -112.5q0 -24 -8 -64l-37 -172h-103l40 179q5 30 5 35q0 37 -23.5 56t-65.5 19h-119l-100 -455h-102z" />
    <glyph glyph-name="dong" unicode="&#x20ab;" horiz-adv-x="512" 
d="M324 -167h-309l15 69h309zM245 495q89 0 124 -75l24 110h-134l15 69h135l15 68h120l-15 -68h48l-15 -69h-49l-117 -530h-120l13 59q-52 -71 -124 -71q-68 0 -106.5 46t-38.5 131q0 72 24.5 145.5t77.5 129t123 55.5zM268 389q-53 0 -88 -68t-35 -136q0 -43 21 -67t57 -24
q50 0 87 57l40 181q-10 25 -32 41t-50 16z" />
    <glyph glyph-name="Euro" unicode="&#x20ac;" horiz-adv-x="577" 
d="M309 -12q-108 0 -176.5 64.5t-73.5 174.5h-45l16 74h32q3 29 11 66h-28l17 75h34q42 106 119.5 171t179.5 65q97 0 153.5 -54t75.5 -136l-127 -34q-12 49 -40 77t-70 28q-85 0 -144 -117h178l-18 -75h-188q-12 -44 -15 -66h189l-17 -74h-174q5 -56 36 -88t83 -32
q68 0 120 79l105 -58q-88 -140 -233 -140z" />
    <glyph glyph-name="afii61289" unicode="&#x2113;" horiz-adv-x="478" 
d="M232 493l-30 -135l121 80q29 20 44.5 32t28.5 29.5t13 35.5q0 24 -20 39.5t-50 15.5q-86 0 -107 -97zM369 367l-193 -130l-22 -98q-3 -10 -3 -20q0 -15 10 -23.5t27 -8.5q19 0 30 11l5 -91q-22 -19 -72 -19q-58 0 -92 24t-34 69q0 21 5 40l84 379q39 177 235 177
q76 0 126.5 -36t50.5 -93q0 -26 -13 -51t-40.5 -50t-47 -40t-56.5 -40z" />
    <glyph glyph-name="afii61352" unicode="&#x2116;" horiz-adv-x="963" 
d="M819 350q-65 0 -101.5 36.5t-36.5 96.5q0 77 50 137t123 60q65 0 101.5 -37t36.5 -97q0 -76 -50 -136t-123 -60zM822 420q37 0 59 43.5t22 85.5q0 59 -52 59q-37 0 -59 -43.5t-22 -85.5q0 -28 13.5 -43.5t38.5 -15.5zM494 0h-128l-137 410l-90 -410h-134l147 667h136
l131 -395l87 395h135z" />
    <glyph glyph-name="published" unicode="&#x2117;" horiz-adv-x="778" 
d="M754 334q0 -142 -101.5 -243.5t-244.5 -101.5q-142 0 -243 101t-101 244t101 244t243 101q143 0 244.5 -101.5t101.5 -243.5zM718 334q0 127 -91.5 218t-218.5 91t-217.5 -91t-90.5 -218q0 -128 90.5 -218.5t217.5 -90.5t218.5 91t91.5 218zM595 430q0 -57 -42 -94
t-105 -37h-121l-37 -168h-44l89 405h136q52 0 88 -28.5t36 -77.5zM548 427q0 31 -22 49.5t-61 18.5h-94l-35 -156h119q41 0 67 25.5t26 62.5z" />
    <glyph glyph-name="servicemark" unicode="&#x2120;" horiz-adv-x="425" 
d="M433 447h-28l40 182l-105 -182h-8l-25 182l-40 -182h-28l48 220h42l20 -158l88 158h44zM214 512q0 -30 -21.5 -51t-54.5 -21q-51 0 -73 32l20 21q18 -26 53 -26q18 0 31 12t13 28q0 17 -20.5 31t-41 29t-20.5 37q0 29 20.5 49t52.5 20q46 0 65 -26l-20 -21q-15 22 -47 22
q-17 0 -28 -10.5t-11 -26.5q0 -12 13 -23.5t28 -19.5t28 -22.5t13 -33.5z" />
    <glyph glyph-name="trademark" unicode="&#x2122;" horiz-adv-x="414" 
d="M424 447h-28l40 182l-105 -182h-8l-25 182l-40 -182h-28l48 220h43l20 -158l88 158h43zM237 641h-52l-43 -194h-28l43 194h-52l5 26h132z" />
    <glyph glyph-name="Omega" unicode="&#x2126;" horiz-adv-x="617" 
d="M16 118h112q-80 72 -80 191q0 60 21.5 124t60.5 119t101 90.5t135 35.5q113 0 185 -61.5t72 -176.5q0 -107 -49.5 -191t-119.5 -131h91l-26 -118h-220l27 118q66 29 110.5 123.5t44.5 177.5q0 65 -30.5 102t-88.5 37q-54 0 -98.5 -51.5t-66.5 -121t-22 -133.5
q0 -93 60 -134l-25 -118h-220z" />
    <glyph glyph-name="estimated" unicode="&#x212e;" horiz-adv-x="842" 
d="M829 324h-632q-4 0 -4 -5v-190q0 -15 9 -23q98 -103 240 -103q151 0 250 115h57q-54 -63 -135 -99.5t-174 -36.5q-161 0 -275.5 103t-114.5 248t114.5 248t275.5 103t275.5 -103t114.5 -248zM687 349v191q0 14 -10 24q-97 99 -236 99t-238 -102q-10 -10 -10 -24v-188
q0 -6 5 -6h485q4 0 4 6z" />
    <glyph glyph-name="onethird" unicode="&#x2153;" horiz-adv-x="775" 
d="M218 267h-91l61 279l-73 -60l-42 55l155 126h78zM658 667l-500 -667h-63l499 667h64zM721 116q0 -48 -40.5 -85.5t-105.5 -37.5q-54 0 -95.5 19t-60.5 53l61 53q31 -52 90 -52q30 0 46 18t16 42q0 42 -67 42q-25 0 -31 -1l15 72q9 -1 49 -1q31 0 48.5 14.5t17.5 39.5
q0 19 -18 30t-45 11q-50 0 -88 -38l-38 55q58 56 134 56q67 0 107 -26.5t40 -74.5q0 -39 -27.5 -70t-74.5 -36q31 -8 49 -30t18 -53z" />
    </font>
</defs>
</svg>
