<?xml version="1.0" standalone="no"?>
<!DOCTYPE svg PUBLIC "-//W3C//DTD SVG 1.1//EN" "http://www.w3.org/Graphics/SVG/1.1/DTD/svg11.dtd" >
<svg xmlns="http://www.w3.org/2000/svg" xmlns:xlink="http://www.w3.org/1999/xlink" version="1.1">
<metadata>
Created by FontForge 20170731 at Tue Nov 30 17:35:48 2010
 By ,,,
Copyright (c) Mark Simonson, 2005. All rights reserved.
</metadata>
<defs>
<font id="ProximaNovaCond-Extrabld" horiz-adv-x="517" >
  <font-face 
    font-family="Proxima Nova Cn Th"
    font-weight="800"
    font-stretch="normal"
    units-per-em="1000"
    panose-1="2 0 5 6 3 0 0 2 0 4"
    ascent="790"
    descent="-210"
    x-height="483"
    cap-height="667"
    bbox="-135 -293 1026 891"
    underline-thickness="20"
    underline-position="-173"
    unicode-range="U+000D-FB04"
  />
<missing-glyph horiz-adv-x="458" 
d="M404 -90h-351v842h351v-842zM372 -60v782h-288v-782h288z" />
    <glyph glyph-name="f_f_j" unicode="ffj" horiz-adv-x="853" 
d="M524 0h-145v357h-62v126h62v29q0 76 41.5 120.5t110.5 44.5q54 0 90 -18l-25 -107q-11 9 -29 9q-20 0 -31.5 -13t-11.5 -36v-29h78v-126h-78v-357zM732 529q-35 0 -59.5 24.5t-24.5 59.5t24.5 59.5t59.5 24.5t59 -24.5t24 -59.5t-24.5 -59.5t-58.5 -24.5zM636 -196
q-58 0 -98 27l33 110q17 -16 43 -16q45 0 45 63v495h145v-495q0 -87 -41.5 -135.5t-126.5 -48.5zM218 0h-145v357h-62v126h62v29q0 77 42 121t116 44q77 0 115 -37l-43 -96q-17 17 -41 17q-20 0 -32 -13t-12 -36v-29h78v-126h-78v-357z" />
    <glyph glyph-name="f_j" unicode="fj" horiz-adv-x="547" 
d="M218 0h-145v357h-62v126h62v29q0 76 41.5 120.5t110.5 44.5q54 0 90 -18l-25 -107q-11 9 -29 9q-20 0 -31.5 -13t-11.5 -36v-29h78v-126h-78v-357zM427 529q-35 0 -59.5 24.5t-24.5 59.5t24.5 59.5t59.5 24.5t59 -24.5t24 -59.5t-24.5 -59.5t-58.5 -24.5zM331 -196
q-58 0 -98 27l33 110q17 -16 43 -16q45 0 45 63v495h145v-495q0 -87 -41.5 -135.5t-126.5 -48.5z" />
    <glyph glyph-name="f_f" unicode="ff" horiz-adv-x="611" 
d="M218 0h-145v357h-62v126h62v29q0 77 42 121t116 44q77 0 115 -37l-43 -96q-17 17 -41 17q-20 0 -32 -13t-12 -36v-29h78v-126h-78v-357zM524 0h-145v357h-62v126h62v29q0 77 42 121t116 44q77 0 115 -37l-43 -96q-17 17 -41 17q-20 0 -32 -13t-12 -36v-29h78v-126h-78
v-357z" />
    <glyph glyph-name="fi" unicode="fi" horiz-adv-x="547" 
d="M218 0h-145v357h-62v126h62v29q0 76 41.5 120.5t110.5 44.5q54 0 90 -18l-25 -107q-11 9 -29 9q-20 0 -31.5 -13t-11.5 -36v-29h78v-126h-78v-357zM427 529q-35 0 -59.5 24.5t-24.5 59.5t24.5 59.5t59.5 24.5t59 -24.5t24 -59.5t-24.5 -59.5t-58.5 -24.5zM499 0h-145v483
h145v-483z" />
    <glyph glyph-name="fl" unicode="fl" horiz-adv-x="547" 
d="M218 0h-145v357h-62v126h62v29q0 76 41.5 120.5t110.5 44.5q54 0 90 -18l-25 -107q-11 9 -29 9q-20 0 -31.5 -13t-11.5 -36v-29h78v-126h-78v-357zM499 0h-145v667h145v-667z" />
    <glyph glyph-name="f_f_i" unicode="ffi" horiz-adv-x="853" 
d="M524 0h-145v357h-62v126h62v29q0 76 41.5 120.5t110.5 44.5q54 0 90 -18l-25 -107q-11 9 -29 9q-20 0 -31.5 -13t-11.5 -36v-29h78v-126h-78v-357zM732 529q-35 0 -59.5 24.5t-24.5 59.5t24.5 59.5t59.5 24.5t59 -24.5t24 -59.5t-24.5 -59.5t-58.5 -24.5zM804 0h-145v483
h145v-483zM218 0h-145v357h-62v126h62v29q0 77 42 121t116 44q77 0 115 -37l-43 -96q-17 17 -41 17q-20 0 -32 -13t-12 -36v-29h78v-126h-78v-357z" />
    <glyph glyph-name="f_f_l" unicode="ffl" horiz-adv-x="853" 
d="M524 0h-145v357h-62v126h62v29q0 76 41.5 120.5t110.5 44.5q54 0 90 -18l-25 -107q-11 9 -29 9q-20 0 -31.5 -13t-11.5 -36v-29h78v-126h-78v-357zM804 0h-145v667h145v-667zM218 0h-145v357h-62v126h62v29q0 77 42 121t116 44q77 0 115 -37l-43 -96q-17 17 -41 17
q-20 0 -32 -13t-12 -36v-29h78v-126h-78v-357z" />
    <glyph glyph-name="f_b" unicode="fb" horiz-adv-x="822" 
d="M218 0h-145v357h-62v126h62v29q0 76 41.5 120.5t110.5 44.5q54 0 90 -18l-25 -107q-11 9 -29 9q-20 0 -31.5 -13t-11.5 -36v-29h78v-126h-78v-357zM499 161q10 -20 30 -32.5t41 -12.5q38 0 60 34.5t22 91.5q0 56 -22 90.5t-60 34.5q-20 0 -40.5 -13t-30.5 -32v-161z
M499 0h-145v667h145v-241q42 69 119 69q82 0 132 -68.5t50 -184.5q0 -119 -50 -186.5t-132 -67.5q-73 0 -119 69v-57z" />
    <glyph glyph-name="f_h" unicode="fh" horiz-adv-x="823" 
d="M218 0h-145v357h-62v126h62v29q0 76 41.5 120.5t110.5 44.5q54 0 90 -18l-25 -107q-11 9 -29 9q-20 0 -31.5 -13t-11.5 -36v-29h78v-126h-78v-357zM775 0h-144v307q0 60 -57 60q-46 0 -75 -51v-316h-144v667h144v-244q20 29 59 50.5t84 21.5q67 0 100 -35t33 -96v-364z
" />
    <glyph glyph-name="f_k" unicode="fk" horiz-adv-x="791" 
d="M218 0h-145v357h-62v126h62v29q0 76 41.5 120.5t110.5 44.5q54 0 90 -18l-25 -107q-11 9 -29 9q-20 0 -31.5 -13t-11.5 -36v-29h78v-126h-78v-357zM794 0h-169l-84 175l-42 -63v-112h-145v667h145v-381l120 197h167l-145 -217z" />
    <glyph glyph-name=".notdef" horiz-adv-x="458" 
d="M404 -90h-351v842h351v-842zM372 -60v782h-288v-782h288z" />
    <glyph glyph-name=".null" horiz-adv-x="0" 
 />
    <glyph glyph-name=".null" horiz-adv-x="0" 
 />
    <glyph glyph-name="nonmarkingreturn" horiz-adv-x="333" 
 />
    <glyph glyph-name="CR" unicode="&#xd;" horiz-adv-x="0" 
 />
    <glyph glyph-name="space" unicode=" " horiz-adv-x="207" 
 />
    <glyph glyph-name="exclam" unicode="!" horiz-adv-x="263" 
d="M197 227h-129l-23 440h174zM132 -11q-37 0 -63 26.5t-26 62.5t26 62.5t63 26.5t63 -26.5t26 -62.5t-26 -62.5t-63 -26.5z" />
    <glyph glyph-name="quotedbl" unicode="&#x22;" horiz-adv-x="426" 
d="M148 364h-62q-45 217 -45 237q0 31 22.5 53.5t53.5 22.5t53.5 -22.5t22.5 -53.5q0 -9 -11 -68t-22 -114zM340 364h-60q-46 217 -46 237q0 31 22 53.5t54 22.5t54 -22.5t22 -53.5q0 -9 -11.5 -68t-22.5 -114z" />
    <glyph glyph-name="numbersign" unicode="#" horiz-adv-x="551" 
d="M321 0h-104l47 166h-73l-46 -166h-105l47 166h-72l25 90h74l43 154h-75l24 89h76l47 168h105l-47 -168h72l47 168h104l-47 -168h74l-23 -89h-76l-44 -154h77l-24 -90h-79zM289 256l44 154h-72l-43 -154h71z" />
    <glyph glyph-name="dollar" unicode="$" horiz-adv-x="518" 
d="M214 -100v90q-123 11 -198 85l77 124q66 -71 163 -71q35 0 55.5 16t20.5 41q0 22 -22 38.5t-55 27t-71 27.5t-71 38t-55 61.5t-22 95.5q0 73 47 129t131 71v95h105v-93q98 -14 165 -73l-75 -120q-59 55 -145 55q-30 0 -46.5 -14t-16.5 -37q0 -20 22 -36t54.5 -27t71 -29
t71 -39t54.5 -61t22 -93q0 -82 -46.5 -137t-130.5 -70v-94h-105z" />
    <glyph glyph-name="percent" unicode="%" horiz-adv-x="683" 
d="M173 343q-68 0 -110.5 47.5t-42.5 118.5q0 72 42.5 120t110.5 48q70 0 112.5 -48t42.5 -120q0 -71 -42.5 -118.5t-112.5 -47.5zM201 0h-71l354 667h71zM510 -12q-70 0 -112 47.5t-42 118.5q0 72 42 119.5t112 47.5q69 0 111.5 -47.5t42.5 -119.5q0 -71 -42.5 -118.5
t-111.5 -47.5zM173 431q26 0 42 20.5t16 57.5q0 38 -16 59.5t-42 21.5q-25 0 -41 -21.5t-16 -59.5q0 -37 16 -57.5t41 -20.5zM510 75q25 0 41 21t16 58q0 38 -15.5 59t-41.5 21t-42 -21t-16 -59q0 -37 16 -58t42 -21z" />
    <glyph glyph-name="ampersand" unicode="&#x26;" horiz-adv-x="560" 
d="M565 0h-167l-30 39q-70 -51 -154 -51q-85 0 -139.5 51t-54.5 143q0 68 33 112.5t91 78.5q-39 81 -39 139q0 71 49.5 118t125.5 47q68 0 116.5 -41.5t48.5 -105.5q0 -35 -11 -63t-34 -50.5t-42.5 -36t-52.5 -32.5q19 -30 39 -59q4 -6 37 -53q25 51 42 111l113 -53
q-36 -97 -79 -159q35 -45 108 -135zM240 101q32 0 61 23q-33 43 -56 78l-47 72q-31 -34 -31 -80q0 -39 21.5 -66t51.5 -27zM239 510q0 -31 19 -74q64 40 64 87q0 24 -11 37.5t-27 13.5q-45 0 -45 -64z" />
    <glyph glyph-name="quotesingle" unicode="'" horiz-adv-x="234" 
d="M148 364h-62q-45 217 -45 237q0 31 22.5 53.5t53.5 22.5t53.5 -22.5t22.5 -53.5q0 -9 -11 -68t-22 -114z" />
    <glyph glyph-name="parenleft" unicode="(" horiz-adv-x="302" 
d="M282 -139l-98 -60q-67 89 -104 205t-37 237t37 237t104 205l98 -59q-83 -181 -83 -383t83 -382z" />
    <glyph glyph-name="parenright" unicode=")" horiz-adv-x="302" 
d="M118 -199l-99 60q84 179 84 382t-84 383l99 59q66 -90 103.5 -206t37.5 -236t-37.5 -236t-103.5 -206z" />
    <glyph glyph-name="asterisk" unicode="*" horiz-adv-x="343" 
d="M206 359h-69l5 108l-91 -58l-34 59l95 50l-95 49l34 60l91 -58l-5 108h69l-5 -108l91 58l34 -60l-95 -49l95 -50l-34 -59l-91 58z" />
    <glyph glyph-name="plus" unicode="+" horiz-adv-x="446" 
d="M417 294h-146v-170h-96v170h-146v87h146v162h96v-162h146v-87z" />
    <glyph glyph-name="comma" unicode="," horiz-adv-x="264" 
d="M227 56q0 -58 -29.5 -109t-80.5 -87l-61 49q25 13 50 41t32 54q-12 -3 -22 -3q-31 0 -52.5 22t-21.5 57q0 36 26 61.5t61 25.5q41 0 69.5 -30t28.5 -81z" />
    <glyph glyph-name="hyphen" unicode="-" horiz-adv-x="272" 
d="M242 181h-212v122h212v-122z" />
    <glyph glyph-name="period" unicode="." horiz-adv-x="264" 
d="M132 -11q-37 0 -63.5 26t-26.5 63q0 36 26.5 62.5t63.5 26.5q36 0 62.5 -26.5t26.5 -62.5q0 -37 -26.5 -63t-62.5 -26z" />
    <glyph glyph-name="slash" unicode="/" horiz-adv-x="293" 
d="M101 -20h-101l192 707h101z" />
    <glyph glyph-name="zero" unicode="0" horiz-adv-x="549" 
d="M275 -12q-82 0 -140 50.5t-84 126.5t-26 168t26 168t84 126t140 50t140 -50t83.5 -126t25.5 -168t-25.5 -168t-83.5 -126.5t-140 -50.5zM275 131q46 0 65.5 51t19.5 151q0 101 -19.5 151t-65.5 50q-47 0 -66.5 -50t-19.5 -151q0 -100 19.5 -151t66.5 -51z" />
    <glyph glyph-name="one" unicode="1" horiz-adv-x="412" 
d="M359 0h-162v460l-100 -102l-92 96l214 213h140v-667z" />
    <glyph glyph-name="two" unicode="2" horiz-adv-x="536" 
d="M503 0h-463v130q197 177 246 231.5t49 101.5q0 31 -22 51t-57 20q-83 0 -143 -71l-94 103q91 111 240 111q106 0 172.5 -58.5t66.5 -153.5q0 -70 -47.5 -139.5t-169.5 -184.5h222v-141z" />
    <glyph glyph-name="three" unicode="3" horiz-adv-x="533" 
d="M260 -12q-81 0 -144.5 29.5t-99.5 76.5l93 104q59 -67 144 -67q46 0 69 19.5t23 50.5q0 65 -98 65q-56 0 -67 -1v144q11 -1 63 -1q93 0 93 61q0 32 -24 48.5t-66 16.5q-80 0 -132 -60l-89 94q82 109 235 109q109 0 171.5 -47.5t62.5 -134.5q0 -55 -37 -97.5t-92 -53.5
q57 -8 98 -52t41 -107q0 -88 -67 -142.5t-177 -54.5z" />
    <glyph glyph-name="four" unicode="4" horiz-adv-x="540" 
d="M456 0h-162v128h-275v133l230 406h207v-398h65v-141h-65v-128zM294 269v237l-130 -237h130z" />
    <glyph glyph-name="five" unicode="5" horiz-adv-x="544" 
d="M269 -12q-155 0 -238 102l95 106q56 -65 138 -65q43 0 67 24.5t24 60.5q0 39 -22 61.5t-63 22.5q-62 0 -104 -51l-116 28v390h430v-141h-268v-140q43 53 121 53q80 0 133.5 -59t53.5 -159q0 -105 -68 -169t-183 -64z" />
    <glyph glyph-name="six" unicode="6" horiz-adv-x="542" 
d="M288 -12q-89 0 -149.5 47.5t-87 123t-26.5 173.5q0 158 77.5 251.5t210.5 93.5q109 0 178 -67l-75 -121q-41 45 -101 45q-53 0 -89.5 -47t-36.5 -118v-8q20 35 57.5 56.5t81.5 21.5q80 0 136 -58.5t56 -160.5t-65 -167t-167 -65zM278 131q37 0 58 25t21 58
q0 44 -24.5 65.5t-58.5 21.5q-50 0 -86 -51q4 -50 25 -84.5t65 -34.5z" />
    <glyph glyph-name="seven" unicode="7" horiz-adv-x="490" 
d="M270 0h-174l196 526h-274v141h456v-112z" />
    <glyph glyph-name="eight" unicode="8" horiz-adv-x="542" 
d="M271 -12q-110 0 -178 48t-68 137q0 56 35.5 103t89.5 68q-52 19 -84 59.5t-32 97.5q0 87 70 131.5t167 44.5t167 -44.5t70 -131.5q0 -57 -32.5 -97.5t-84.5 -59.5q54 -21 90 -67.5t36 -102.5q0 -89 -68.5 -137.5t-177.5 -48.5zM271 401q26 6 50.5 24.5t24.5 47.5
q0 31 -20 48.5t-55 17.5t-55 -17.5t-20 -48.5q0 -29 24.5 -47.5t50.5 -24.5zM271 126q36 0 60 18.5t24 50.5q0 34 -28.5 56.5t-55.5 26.5q-27 -4 -55.5 -26.5t-28.5 -56.5q0 -32 23.5 -50.5t60.5 -18.5z" />
    <glyph glyph-name="nine" unicode="9" horiz-adv-x="542" 
d="M228 -11q-109 0 -178 67l75 121q42 -45 101 -45q56 0 91.5 47t35.5 117v9q-20 -35 -57.5 -56.5t-81.5 -21.5q-81 0 -137 58.5t-56 160.5t65.5 167t166.5 65q89 0 149.5 -47.5t87 -123t26.5 -173.5q0 -158 -77.5 -251.5t-210.5 -93.5zM267 365q50 0 86 51q-8 119 -90 119
q-36 0 -57 -25t-21 -58q0 -44 24.5 -65.5t57.5 -21.5z" />
    <glyph glyph-name="colon" unicode=":" horiz-adv-x="259" 
d="M132 311q-37 0 -63.5 26.5t-26.5 63.5q0 36 26.5 62.5t63.5 26.5q36 0 62.5 -26.5t26.5 -62.5q0 -37 -26.5 -63.5t-62.5 -26.5zM132 -11q-37 0 -63.5 26t-26.5 63q0 36 26.5 62.5t63.5 26.5q36 0 62.5 -26.5t26.5 -62.5q0 -37 -26.5 -63t-62.5 -26z" />
    <glyph glyph-name="semicolon" unicode=";" horiz-adv-x="264" 
d="M132 311q-37 0 -63.5 27t-26.5 63q0 37 26.5 63t63.5 26q36 0 62.5 -26t26.5 -63q0 -36 -26.5 -63t-62.5 -27zM227 57q0 -117 -110 -196l-61 49q25 13 50 41t32 55q-8 -4 -22 -4q-31 0 -52.5 22t-21.5 57q0 36 26 62t61 26q41 0 69.5 -30.5t28.5 -81.5z" />
    <glyph glyph-name="less" unicode="&#x3c;" horiz-adv-x="446" 
d="M417 121l-388 162v104l388 161v-104l-288 -110l288 -109v-104z" />
    <glyph glyph-name="equal" unicode="=" horiz-adv-x="446" 
d="M417 384h-388v87h388v-87zM417 197h-388v87h388v-87z" />
    <glyph glyph-name="greater" unicode="&#x3e;" horiz-adv-x="446" 
d="M417 283l-388 -162v104l288 109l-288 110v104l388 -161v-104z" />
    <glyph glyph-name="question" unicode="?" horiz-adv-x="392" 
d="M138 211q-27 35 -27 91q0 30 11 55.5t26.5 42t31.5 31t27 30.5t11 32q0 18 -13 30.5t-38 12.5q-44 0 -76 -40l-79 101q72 80 184 80q84 0 134 -42t50 -110q0 -35 -13.5 -65.5t-33 -51t-39 -39t-33 -39t-13.5 -42.5q0 -23 13 -40zM197 -11q-36 0 -62.5 26t-26.5 63
q0 36 26.5 62.5t62.5 26.5q37 0 63.5 -26.5t26.5 -62.5q0 -37 -26.5 -63t-63.5 -26z" />
    <glyph glyph-name="at" unicode="@" horiz-adv-x="718" 
d="M313 -70q-126 0 -202 83.5t-76 215.5q0 106 51.5 200.5t139.5 151.5t187 57q120 0 194.5 -76.5t74.5 -193.5q0 -122 -59.5 -202.5t-133.5 -80.5q-39 0 -64 18.5t-32 49.5l-1 8q-52 -76 -127 -76q-57 0 -91.5 39.5t-34.5 111.5q0 101 61.5 181.5t146.5 80.5q70 0 98 -62
l10 48h127l-49 -235q-3 -15 -3 -26q0 -42 30 -42q27 0 52 52t25 134q0 106 -61.5 168t-165.5 62q-89 0 -166.5 -52t-122 -136t-44.5 -177q0 -114 64.5 -188t176.5 -74q86 0 167 54l22 -31q-93 -63 -194 -63zM326 186q42 0 77 53l24 116q-15 42 -53 42q-45 0 -74 -46t-29 -99
q0 -30 14.5 -48t40.5 -18z" />
    <glyph glyph-name="A" unicode="A" horiz-adv-x="575" 
d="M582 0h-175l-25 102h-189l-25 -102h-175l197 667h195zM350 243l-62 256l-63 -256h125z" />
    <glyph glyph-name="B" unicode="B" horiz-adv-x="579" 
d="M367 0h-314v667h304q89 0 135.5 -49.5t46.5 -120.5q0 -60 -30.5 -100.5t-79.5 -52.5q52 -8 86.5 -54.5t34.5 -108.5q0 -79 -46.5 -130t-136.5 -51zM317 408q27 0 42 16t15 44t-15 44t-42 16h-102v-120h102zM322 139q63 0 63 65q0 29 -17 47t-46 18h-107v-130h107z" />
    <glyph glyph-name="C" unicode="C" horiz-adv-x="570" 
d="M319 -12q-134 0 -214 95.5t-80 249.5q0 155 80 250t214 95q168 0 236 -175l-133 -57q-13 41 -40 65t-63 24q-60 0 -94.5 -56t-34.5 -146t34.5 -146t94.5 -56q37 0 64 27t39 69l134 -57q-69 -182 -237 -182z" />
    <glyph glyph-name="D" unicode="D" horiz-adv-x="613" 
d="M287 0h-234v667h234q140 0 220.5 -91.5t80.5 -242.5t-80 -242t-221 -91zM287 141q64 0 100 52t36 140q0 93 -35 143t-101 50h-72v-385h72z" />
    <glyph glyph-name="E" unicode="E" horiz-adv-x="491" 
d="M455 0h-402v667h402v-141h-240v-117h233v-141h-233v-127h240v-141z" />
    <glyph glyph-name="F" unicode="F" horiz-adv-x="485" 
d="M215 0h-162v667h402v-141h-240v-117h233v-141h-233v-268z" />
    <glyph glyph-name="G" unicode="G" horiz-adv-x="598" 
d="M319 -12q-133 0 -213.5 94.5t-80.5 250.5q0 157 80.5 251t213.5 94q88 0 146.5 -46.5t86.5 -120.5l-132 -59q-13 36 -39 59.5t-62 23.5q-58 0 -93.5 -52.5t-35.5 -149.5t35.5 -149.5t93.5 -52.5q57 0 89 32v73h-109v142h261v-279q-98 -111 -241 -111z" />
    <glyph glyph-name="H" unicode="H" horiz-adv-x="625" 
d="M571 0h-162v272h-194v-272h-162v667h162v-253h194v253h162v-667z" />
    <glyph glyph-name="I" unicode="I" horiz-adv-x="268" 
d="M215 0h-162v667h162v-667z" />
    <glyph glyph-name="J" unicode="J" horiz-adv-x="427" 
d="M152 -12q-91 0 -146 46l54 127q35 -30 76 -30q35 0 56 20.5t21 57.5v458h161v-463q0 -108 -59.5 -162t-162.5 -54z" />
    <glyph glyph-name="K" unicode="K" horiz-adv-x="575" 
d="M581 0h-191l-133 244l-42 -70v-174h-162v667h162v-282l165 282h188l-209 -312z" />
    <glyph glyph-name="L" unicode="L" horiz-adv-x="455" 
d="M430 0h-377v667h162v-526h215v-141z" />
    <glyph glyph-name="M" unicode="M" horiz-adv-x="761" 
d="M708 0h-161v396l-135 -396h-63l-134 396v-396h-162v667h215l113 -333l114 333h213v-667z" />
    <glyph glyph-name="N" unicode="N" horiz-adv-x="624" 
d="M570 0h-153l-202 351v-351h-162v667h165l191 -334v334h161v-667z" />
    <glyph glyph-name="O" unicode="O" horiz-adv-x="633" 
d="M316 -12q-133 0 -212 96t-79 249t79 249t212 96t212 -96t79 -249t-79 -249t-212 -96zM316 131q60 0 93.5 56.5t33.5 145.5q0 90 -33.5 146t-93.5 56q-59 0 -92.5 -56t-33.5 -146q0 -89 33.5 -145.5t92.5 -56.5z" />
    <glyph glyph-name="P" unicode="P" horiz-adv-x="556" 
d="M215 0h-162v667h268q104 0 160.5 -63t56.5 -157q0 -93 -56.5 -155.5t-160.5 -62.5h-106v-229zM301 370q33 0 53 21t20 57t-20 57t-53 21h-86v-156h86z" />
    <glyph glyph-name="Q" unicode="Q" horiz-adv-x="633" 
d="M316 -12q-133 0 -212 96t-79 249t79 249t212 96t212 -96t79 -249q0 -169 -93 -265l25 -40l-111 -69l-26 41q-45 -12 -86 -12zM316 131h7l-54 90l112 68l43 -72q19 52 19 116q0 90 -33.5 146t-93.5 56q-59 0 -92.5 -56t-33.5 -146q0 -89 33.5 -145.5t92.5 -56.5z" />
    <glyph glyph-name="R" unicode="R" horiz-adv-x="573" 
d="M543 0h-180l-88 229h-60v-229h-162v667h272q96 0 154.5 -61.5t58.5 -155.5q0 -77 -31.5 -124.5t-76.5 -67.5zM300 370q33 0 53.5 21t20.5 57t-20.5 57t-53.5 21h-85v-156h85z" />
    <glyph glyph-name="S" unicode="S" horiz-adv-x="511" 
d="M251 -12q-151 0 -241 87l77 124q66 -71 163 -71q35 0 55.5 16t20.5 41q0 22 -22 38.5t-55 27t-71 27.5t-71 38t-55 61.5t-22 95.5q0 85 63 145t171 60q129 0 214 -76l-75 -120q-59 55 -145 55q-30 0 -46.5 -14t-16.5 -37q0 -20 22 -36t54.5 -27t71 -29t71 -39t54.5 -61
t22 -93q0 -97 -63.5 -155t-175.5 -58z" />
    <glyph glyph-name="T" unicode="T" horiz-adv-x="487" 
d="M325 0h-162v526h-143v141h447v-141h-142v-526z" />
    <glyph glyph-name="U" unicode="U" horiz-adv-x="629" 
d="M315 -12q-121 0 -191.5 66t-70.5 183v430h163v-431q0 -51 25.5 -78.5t73.5 -27.5q47 0 72.5 28t25.5 78v431h163v-430q0 -117 -70.5 -183t-190.5 -66z" />
    <glyph glyph-name="V" unicode="V" horiz-adv-x="575" 
d="M385 0h-195l-197 667h175l120 -477l119 477h175z" />
    <glyph glyph-name="W" unicode="W" horiz-adv-x="793" 
d="M638 0h-167l-75 403l-74 -403h-167l-154 667h173l74 -425l87 425h124l86 -425l74 425h173z" />
    <glyph glyph-name="X" unicode="X" horiz-adv-x="575" 
d="M582 0h-185l-110 217l-109 -217h-185l193 341l-182 326h185l98 -204l97 204h186l-181 -325z" />
    <glyph glyph-name="Y" unicode="Y" horiz-adv-x="557" 
d="M360 0h-162v271l-206 396h177l110 -248l109 248h177l-205 -396v-271z" />
    <glyph glyph-name="Z" unicode="Z" horiz-adv-x="495" 
d="M462 0h-429v132l223 394h-223v141h422v-129l-225 -397h232v-141z" />
    <glyph glyph-name="bracketleft" unicode="[" horiz-adv-x="257" 
d="M240 -190h-197v868h197v-94h-95v-680h95v-94z" />
    <glyph glyph-name="backslash" unicode="\" horiz-adv-x="293" 
d="M192 -20l-192 707h101l192 -707h-101z" />
    <glyph glyph-name="bracketright" unicode="]" horiz-adv-x="257" 
d="M214 -190h-196v94h94v680h-94v94h196v-868z" />
    <glyph glyph-name="asciicircum" unicode="^" horiz-adv-x="393" 
d="M374 333h-103l-75 229l-74 -229h-103l126 334h105z" />
    <glyph glyph-name="underscore" unicode="_" horiz-adv-x="422" 
d="M425 -134h-428v94h428v-94z" />
    <glyph glyph-name="grave" unicode="`" horiz-adv-x="228" 
d="M228 556h-94l-134 144h125z" />
    <glyph glyph-name="a" unicode="a" horiz-adv-x="492" 
d="M444 0h-144v47q-19 -27 -54.5 -43t-72.5 -16q-61 0 -106 42.5t-45 117.5q0 76 44 115.5t107 39.5q39 0 74 -14.5t53 -40.5v55q0 34 -22.5 54.5t-62.5 20.5q-63 0 -119 -50l-51 97q76 70 198 70q90 0 145.5 -42.5t55.5 -134.5v-318zM230 83q49 0 70 38v49q-21 38 -70 38
q-28 0 -46 -16.5t-18 -45.5t18 -46t46 -17z" />
    <glyph glyph-name="b" unicode="b" horiz-adv-x="516" 
d="M193 161q10 -20 30 -32.5t41 -12.5q38 0 60 34.5t22 91.5q0 56 -22 90.5t-60 34.5q-20 0 -40.5 -13t-30.5 -32v-161zM193 0h-145v667h145v-241q42 69 119 69q82 0 132 -68.5t50 -184.5q0 -119 -50 -186.5t-132 -67.5q-73 0 -119 69v-57z" />
    <glyph glyph-name="c" unicode="c" horiz-adv-x="429" 
d="M253 -12q-102 0 -166 70.5t-64 183.5q0 112 64 182.5t166 70.5q56 0 98 -19t64 -47l-70 -99q-31 37 -75 37t-71.5 -34.5t-27.5 -90.5t27.5 -91t71.5 -35q45 0 75 38l70 -100q-22 -28 -64 -47t-98 -19z" />
    <glyph glyph-name="d" unicode="d" horiz-adv-x="516" 
d="M468 0h-144v57q-46 -69 -120 -69q-82 0 -131.5 67t-49.5 187q0 116 49.5 184.5t131.5 68.5q77 0 120 -69v241h144v-667zM253 116q20 0 40 13t31 32v162q-11 19 -31 31.5t-40 12.5q-39 0 -60.5 -34t-21.5 -91t21.5 -91.5t60.5 -34.5z" />
    <glyph glyph-name="e" unicode="e" horiz-adv-x="484" 
d="M257 -12q-105 0 -169.5 69.5t-64.5 184.5q0 108 62 180.5t164 72.5q101 0 158.5 -71t57.5 -189v-40h-297q4 -40 31 -66.5t74 -26.5q24 0 53 11.5t47 30.5l64 -87q-68 -69 -180 -69zM327 292q-2 36 -20.5 62.5t-59.5 26.5q-39 0 -58 -26.5t-22 -62.5h160z" />
    <glyph glyph-name="f" unicode="f" horiz-adv-x="306" 
d="M218 0h-145v357h-62v126h62v29q0 77 42 121t116 44q77 0 115 -37l-43 -96q-17 17 -41 17q-20 0 -32 -13t-12 -36v-29h78v-126h-78v-357z" />
    <glyph glyph-name="g" unicode="g" horiz-adv-x="516" 
d="M229 -196q-113 0 -186 63l55 108q49 -50 124 -50q42 0 71.5 25t29.5 80v49q-45 -70 -119 -70q-83 0 -132 62.5t-49 180.5q0 116 49 179.5t132 63.5q77 0 119 -69v57h144v-450q0 -66 -21 -113t-57.5 -71t-75.5 -34.5t-84 -10.5zM253 136q20 0 40 12.5t30 32.5v142
q-10 19 -30 31.5t-40 12.5q-40 0 -61 -30t-21 -85q0 -56 21 -86t61 -30z" />
    <glyph glyph-name="h" unicode="h" horiz-adv-x="518" 
d="M469 0h-144v307q0 60 -57 60q-46 0 -75 -51v-316h-144v667h144v-244q20 29 59 50.5t84 21.5q67 0 100 -35t33 -96v-364z" />
    <glyph glyph-name="i" unicode="i" horiz-adv-x="241" 
d="M121 529q-35 0 -59.5 24.5t-24.5 59.5t24.5 59.5t59.5 24.5t59 -24.5t24 -59.5t-24.5 -59.5t-58.5 -24.5zM193 0h-145v483h145v-483z" />
    <glyph glyph-name="j" unicode="j" horiz-adv-x="241" 
d="M121 529q-35 0 -59.5 24.5t-24.5 59.5t24.5 59.5t59.5 24.5t59 -24.5t24 -59.5t-24.5 -59.5t-58.5 -24.5zM25 -196q-58 0 -98 27l33 110q17 -16 43 -16q45 0 45 63v495h145v-495q0 -87 -41.5 -135.5t-126.5 -48.5z" />
    <glyph glyph-name="k" unicode="k" horiz-adv-x="485" 
d="M488 0h-169l-84 175l-42 -63v-112h-145v667h145v-381l120 197h167l-145 -217z" />
    <glyph glyph-name="l" unicode="l" horiz-adv-x="241" 
d="M193 0h-145v667h145v-667z" />
    <glyph glyph-name="m" unicode="m" horiz-adv-x="770" 
d="M722 0h-145v312q0 55 -48 55q-44 0 -72 -51v-316h-144v312q0 55 -49 55q-43 0 -71 -51v-316h-145v483h145v-60q15 26 55 49t83 23q98 0 120 -83q19 33 59 58t85 25q59 0 93 -32t34 -97v-366z" />
    <glyph glyph-name="n" unicode="n" 
d="M469 0h-145v305q0 62 -56 62q-46 0 -75 -51v-316h-145v483h145v-60q20 29 58.5 50.5t83.5 21.5q67 0 100.5 -36t33.5 -97v-362z" />
    <glyph glyph-name="o" unicode="o" horiz-adv-x="505" 
d="M252 -12q-108 0 -168.5 73.5t-60.5 180.5t60.5 180t168.5 73t169 -73t61 -180t-61 -180.5t-169 -73.5zM252 116q40 0 60.5 35t20.5 91t-20.5 90.5t-60.5 34.5q-39 0 -59.5 -34.5t-20.5 -90.5t20 -91t60 -35z" />
    <glyph glyph-name="p" unicode="p" horiz-adv-x="515" 
d="M312 -12q-77 0 -119 69v-241h-145v667h145v-57q43 69 119 69q83 0 132 -67t49 -186q0 -118 -49 -186t-132 -68zM263 116q39 0 60.5 34.5t21.5 91.5t-21.5 91t-60.5 34q-20 0 -40 -12t-30 -32v-162q10 -19 30 -32t40 -13z" />
    <glyph glyph-name="q" unicode="q" horiz-adv-x="515" 
d="M252 116q20 0 40.5 13t30.5 32v162q-11 20 -31 32t-40 12q-38 0 -59.5 -34t-21.5 -91t21.5 -91.5t59.5 -34.5zM203 -12q-83 0 -132 68t-49 186q0 119 49 186t132 67q77 0 120 -69v57h144v-667h-144v241q-42 -69 -120 -69z" />
    <glyph glyph-name="r" unicode="r" horiz-adv-x="335" 
d="M193 0h-145v483h145v-61q19 31 56.5 52.5t72.5 21.5v-140q-16 4 -31 4q-27 0 -55 -13.5t-43 -34.5v-312z" />
    <glyph glyph-name="s" unicode="s" horiz-adv-x="424" 
d="M210 -12q-61 0 -114 19t-84 50l58 99q25 -23 64 -40t73 -17q60 0 60 39q0 17 -24.5 27.5t-59.5 19.5t-70 23.5t-59.5 49t-24.5 85.5q0 64 50 108t138 44q100 0 178 -61l-56 -97q-20 20 -53 34t-68 14q-23 0 -38 -10t-15 -24q0 -15 24.5 -25.5t60 -20t71 -25t60 -50
t24.5 -86.5q0 -69 -53.5 -112.5t-141.5 -43.5z" />
    <glyph glyph-name="t" unicode="t" horiz-adv-x="315" 
d="M209 -12q-137 0 -137 137v232h-61v126h61v132h145v-132h78v-126h-78v-196q0 -45 33 -45q22 0 33 11l26 -112q-32 -27 -100 -27z" />
    <glyph glyph-name="u" unicode="u" 
d="M468 0h-144v58q-21 -29 -59 -49.5t-84 -20.5q-67 0 -100 35t-33 96v364h145v-306q0 -61 56 -61q47 0 75 50v317h144v-483z" />
    <glyph glyph-name="v" unicode="v" horiz-adv-x="466" 
d="M310 0h-154l-162 483h153l85 -310l87 310h153z" />
    <glyph glyph-name="w" unicode="w" horiz-adv-x="714" 
d="M588 0h-154l-77 299l-77 -299h-154l-128 483h148l67 -299l76 299h132l79 -299l67 299h150z" />
    <glyph glyph-name="x" unicode="x" horiz-adv-x="454" 
d="M457 0h-157l-73 145l-75 -145h-156l140 245l-132 238h156l66 -136l67 136h156l-132 -238z" />
    <glyph glyph-name="y" unicode="y" horiz-adv-x="466" 
d="M45 -188l20 127q11 -7 30 -7q42 0 52 28l11 31l-164 492h153l85 -309l87 309h153l-187 -555q-23 -70 -65 -96.5t-112 -27.5q-41 0 -63 8z" />
    <glyph glyph-name="z" unicode="z" horiz-adv-x="417" 
d="M387 0h-357v107l167 250h-167v126h353v-103l-169 -254h173v-126z" />
    <glyph glyph-name="braceleft" unicode="{" horiz-adv-x="265" 
d="M248 -190h-44q-60 0 -104.5 41.5t-44.5 106.5v181q0 29 -13.5 47.5t-38.5 18.5v78q25 0 38.5 18.5t13.5 47.5v180q0 65 44.5 107t104.5 42h44v-94h-44q-19 0 -33 -15.5t-14 -39.5v-195q0 -71 -45 -90q45 -19 45 -90v-196q0 -23 14 -38.5t33 -15.5h44v-94z" />
    <glyph glyph-name="bar" unicode="|" horiz-adv-x="201" 
d="M147 -20h-94v707h94v-707z" />
    <glyph glyph-name="braceright" unicode="}" horiz-adv-x="265" 
d="M17 -190v94h44q19 0 33 15.5t14 38.5v196q0 71 45 90q-45 19 -45 90v195q0 24 -14 39.5t-33 15.5h-44v94h44q61 0 105 -42t44 -107v-180q0 -29 13.5 -47.5t38.5 -18.5v-78q-25 0 -38.5 -18.5t-13.5 -47.5v-181q0 -65 -44 -106.5t-105 -41.5h-44z" />
    <glyph glyph-name="asciitilde" unicode="~" horiz-adv-x="470" 
d="M349 667l96 -10q-3 -50 -9 -86t-20.5 -77t-42.5 -63t-69 -22t-65.5 26.5t-31.5 59t-16.5 59t-23.5 26.5q-20 0 -29 -41.5t-15 -130.5l-97 10q3 49 9.5 86t21 77.5t42.5 63t68 22.5q34 0 56 -18t32 -43.5t16 -50.5t13.5 -43t19.5 -18q20 0 29.5 42t15.5 131z" />
    <glyph glyph-name="nbspace" unicode="&#xa0;" horiz-adv-x="207" 
 />
    <glyph glyph-name="exclamdown" unicode="&#xa1;" horiz-adv-x="263" 
d="M45 -184l22 440h129l23 -440h-174zM42 405q0 36 26.5 62.5t62.5 26.5q37 0 63.5 -26.5t26.5 -62.5t-26.5 -62.5t-63.5 -26.5q-36 0 -62.5 26.5t-26.5 62.5z" />
    <glyph glyph-name="cent" unicode="&#xa2;" horiz-adv-x="429" 
d="M198 -100v95q-80 17 -127.5 84t-47.5 163t47.5 162.5t127.5 84.5v76h104v-74q74 -14 113 -62l-70 -99q-31 37 -75 37t-71.5 -34.5t-27.5 -90.5t27.5 -91t71.5 -35q45 0 75 38l70 -100q-39 -48 -113 -62v-92h-104z" />
    <glyph glyph-name="sterling" unicode="&#xa3;" horiz-adv-x="506" 
d="M27 274v90h45q-28 52 -28 105q0 91 70.5 149.5t157.5 58.5q168 0 213 -133l-129 -64q-17 66 -69 66q-29 0 -48 -22t-19 -57q0 -39 29 -103h105v-90h-81q1 -5 1 -15q0 -29 -16 -61t-39 -49q20 8 42 8q25 0 56.5 -13t51.5 -13q51 0 75 31l52 -128q-42 -46 -137 -46
q-44 0 -92.5 21t-70.5 21q-45 0 -101 -37l-50 108q86 51 86 115q0 30 -11 58h-93z" />
    <glyph glyph-name="currency" unicode="&#xa4;" horiz-adv-x="551" 
d="M275 89q-58 0 -108 24l-69 -69l-85 84l68 68q-35 61 -35 137q0 77 35 138l-68 69l85 84l71 -72q48 24 106 24q59 0 107 -24l72 72l84 -84l-69 -69q36 -60 36 -138t-36 -138l69 -68l-84 -84l-71 70q-47 -24 -108 -24zM275 215q43 0 66 33t23 85q0 51 -23 83.5t-66 32.5
q-41 0 -64.5 -32.5t-23.5 -83.5t23.5 -84.5t64.5 -33.5z" />
    <glyph glyph-name="yen" unicode="&#xa5;" horiz-adv-x="557" 
d="M360 0h-162v112h-173v87h173v72h-173v87h127l-160 309h177l110 -248l109 248h177l-160 -309h126v-87h-171v-72h171v-87h-171v-112z" />
    <glyph glyph-name="brokenbar" unicode="&#xa6;" horiz-adv-x="201" 
d="M147 -20h-94v316h94v-316zM147 371h-94v316h94v-316z" />
    <glyph glyph-name="section" unicode="&#xa7;" horiz-adv-x="429" 
d="M405 326q0 -83 -75 -126q75 -43 75 -125q0 -69 -55 -112.5t-140 -43.5q-123 0 -197 72l57 93q23 -24 60 -43.5t73 -19.5q30 0 47 12.5t17 33.5q0 22 -24.5 36t-59.5 24.5t-70 25.5t-59.5 47.5t-24.5 81.5q0 43 24.5 75t59.5 46q-84 44 -84 130q0 63 51.5 103.5
t130.5 40.5q118 0 182 -64l-54 -85q-52 49 -116 49q-27 0 -42.5 -11t-15.5 -31q0 -19 24.5 -32t60 -23t71 -25t60 -47.5t24.5 -81.5zM270 294q0 51 -56 70q-52 -12 -52 -57t69 -70q39 18 39 57z" />
    <glyph glyph-name="dieresis" unicode="&#xa8;" horiz-adv-x="295" 
d="M320 613q0 -31 -22 -52.5t-54 -21.5q-30 0 -52 21.5t-22 52.5t22 53t52 22q32 0 54 -22t22 -53zM125 613q0 -31 -21.5 -52.5t-52.5 -21.5t-53 21.5t-22 52.5t22 53t53 22t52.5 -21.5t21.5 -53.5z" />
    <glyph glyph-name="copyright" unicode="&#xa9;" horiz-adv-x="778" 
d="M734 334q0 -143 -101 -244t-244 -101t-244 101.5t-101 243.5q0 143 101 244t244 101t244 -101t101 -244zM696 334q0 126 -90.5 216.5t-216.5 90.5t-216.5 -90.5t-90.5 -216.5t90.5 -216.5t216.5 -90.5t216.5 90.5t90.5 216.5zM511 224l34 -32q-58 -68 -150 -68
q-87 0 -147.5 60t-60.5 151q0 90 60.5 150t147.5 60q92 0 149 -67l-33 -33q-42 57 -116 57q-67 0 -113 -47t-46 -120q0 -72 46.5 -120.5t112.5 -48.5q73 0 116 58z" />
    <glyph glyph-name="ordfeminine" unicode="&#xaa;" horiz-adv-x="350" 
d="M311 326h-104v31q-25 -39 -86 -39q-41 0 -71 27t-30 76t30 75t71 26q61 0 86 -35v33q0 24 -14.5 37.5t-41.5 13.5q-43 0 -78 -37l-37 67q51 47 136 47q62 0 100.5 -29t38.5 -94v-199zM163 383q32 0 44 24v31q-12 24 -44 24q-17 0 -29 -10.5t-12 -28.5q0 -19 11.5 -29.5
t29.5 -10.5z" />
    <glyph glyph-name="guillemotleft" unicode="&#xab;" horiz-adv-x="493" 
d="M463 63h-121l-125 180l125 177h121l-125 -177zM275 63h-120l-125 180l125 177h120l-125 -177z" />
    <glyph glyph-name="logicalnot" unicode="&#xac;" horiz-adv-x="453" 
d="M417 471v-274h-90v187h-298v87h388z" />
    <glyph glyph-name="uni00AD" unicode="&#xad;" horiz-adv-x="272" 
d="M242 181h-212v122h212v-122z" />
    <glyph glyph-name="registered" unicode="&#xae;" horiz-adv-x="494" 
d="M459 465q0 -88 -62 -150t-150 -62t-150 62t-62 150t62 150t150 62q89 0 150.5 -61.5t61.5 -150.5zM426 465q0 75 -52.5 127t-126.5 52t-126.5 -52t-52.5 -127q0 -74 52.5 -126.5t126.5 -52.5t126.5 52.5t52.5 126.5zM348 343h-44l-63 96h-40v-96h-36v243h99
q32 0 56.5 -21t24.5 -53q0 -35 -22.5 -53.5t-39.5 -18.5zM308 512q0 19 -13.5 31.5t-30.5 12.5h-63v-86h63q17 0 30.5 12t13.5 30z" />
    <glyph glyph-name="macron" unicode="&#xaf;" horiz-adv-x="313" 
d="M313 558h-313v81h313v-81z" />
    <glyph glyph-name="degree" unicode="&#xb0;" horiz-adv-x="317" 
d="M298 537q0 -58 -41 -98.5t-99 -40.5t-98.5 40.5t-40.5 98.5t40.5 99t98.5 41t99 -41t41 -99zM222 537q0 26 -19 45t-45 19t-44 -19t-18 -45t18 -44.5t44 -18.5t45 18.5t19 44.5z" />
    <glyph glyph-name="plusminus" unicode="&#xb1;" horiz-adv-x="446" 
d="M417 312h-146v-170h-96v170h-146v87h146v162h96v-162h146v-87zM417 9h-388v87h388v-87z" />
    <glyph glyph-name="twosuperior" unicode="&#xb2;" horiz-adv-x="355" 
d="M332 421h-297v78q121 98 154 133.5t33 63.5q0 21 -14 33.5t-38 12.5q-26 0 -50.5 -13.5t-39.5 -34.5l-59 66q57 67 154 67q70 0 112 -33.5t42 -91.5q0 -41 -32.5 -83.5t-115.5 -112.5h151v-85z" />
    <glyph glyph-name="threesuperior" unicode="&#xb3;" horiz-adv-x="355" 
d="M333 533q0 -53 -43.5 -86t-113.5 -33q-107 0 -156 63l58 68q40 -46 93 -46q27 0 41.5 11.5t14.5 29.5q0 42 -67 42q-32 0 -38 -1v84q7 -1 36 -1q63 0 63 39t-54 39q-53 0 -87 -41l-55 61q52 65 151 65q71 0 110.5 -29t39.5 -81q0 -33 -23 -58.5t-58 -31.5q35 -4 61.5 -30
t26.5 -64z" />
    <glyph glyph-name="acute" unicode="&#xb4;" horiz-adv-x="228" 
d="M228 700l-134 -144h-94l103 144h125z" />
    <glyph glyph-name="mu" unicode="&#xb5;" horiz-adv-x="530" 
d="M193 2v-186h-145v667h145v-306q0 -62 57 -62q45 0 74 51v317h144v-332q0 -35 31 -35q7 0 17 2l9 -121q-27 -9 -64 -9q-106 0 -131 87q-14 -39 -40 -63t-58 -24q-27 0 -39 14z" />
    <glyph glyph-name="paragraph" unicode="&#xb6;" horiz-adv-x="449" 
d="M410 -100h-68v699h-75v-699h-68v423q-71 0 -121.5 50.5t-50.5 121.5t50.5 121.5t121.5 50.5h211v-767z" />
    <glyph glyph-name="periodcentered" unicode="&#xb7;" horiz-adv-x="264" 
d="M221 244q0 -36 -26 -62.5t-63 -26.5t-63 26.5t-26 62.5q0 37 26 63.5t63 26.5t63 -26.5t26 -63.5z" />
    <glyph glyph-name="cedilla" unicode="&#xb8;" horiz-adv-x="210" 
d="M102 -197q-64 0 -102 33l26 54q37 -29 72 -29q18 0 30.5 8t12.5 22q0 23 -23 23q-16 0 -27 -13l-50 29l31 81h68l-26 -61q17 10 32 10q27 0 45.5 -20t18.5 -51q0 -40 -30.5 -63t-77.5 -23z" />
    <glyph glyph-name="onesuperior" unicode="&#xb9;" horiz-adv-x="285" 
d="M235 421h-108v263l-61 -62l-61 63l138 136h92v-400z" />
    <glyph glyph-name="ordmasculine" unicode="&#xba;" horiz-adv-x="361" 
d="M180 318q-73 0 -115.5 48t-42.5 117t42.5 117t115.5 48q74 0 116.5 -48t42.5 -117t-42.5 -117t-116.5 -48zM180 400q53 0 53 83q0 81 -53 81q-51 0 -51 -81q0 -83 51 -83z" />
    <glyph glyph-name="guillemotright" unicode="&#xbb;" horiz-adv-x="493" 
d="M275 243l-125 -180h-120l125 180l-125 177h120zM463 243l-125 -180h-121l125 180l-125 177h121z" />
    <glyph glyph-name="onequarter" unicode="&#xbc;" horiz-adv-x="775" 
d="M235 267h-108v263l-61 -62l-61 63l138 136h92v-400zM760 81h-41v-81h-107v81h-174v77l140 242h141v-235h41v-84zM612 165v133l-76 -133h76zM589 667l-355 -667h-71l354 667h72z" />
    <glyph glyph-name="onehalf" unicode="&#xbd;" horiz-adv-x="809" 
d="M235 267h-108v263l-61 -62l-61 63l138 136h92v-400zM786 0h-297v78q121 98 154 133.5t33 63.5q0 21 -14 33.5t-38 12.5q-26 0 -50.5 -13.5t-39.5 -34.5l-59 66q57 67 154 67q70 0 112 -33.5t42 -91.5q0 -41 -32.5 -83.5t-115.5 -112.5h151v-85zM589 667l-355 -667h-71
l354 667h72z" />
    <glyph glyph-name="threequarters" unicode="&#xbe;" horiz-adv-x="831" 
d="M816 81h-41v-81h-107v81h-174v77l140 242h141v-235h41v-84zM668 165v133l-76 -133h76zM646 667l-355 -667h-71l354 667h72zM333 379q0 -53 -43.5 -86t-113.5 -33q-107 0 -156 63l58 68q40 -46 93 -46q27 0 41.5 11.5t14.5 29.5q0 42 -67 42q-32 0 -38 -1v84q7 -1 36 -1
q63 0 63 39t-54 39q-53 0 -87 -41l-55 61q52 65 151 65q71 0 110.5 -29t39.5 -81q0 -33 -23 -58.5t-58 -31.5q35 -4 61.5 -30t26.5 -64z" />
    <glyph glyph-name="questiondown" unicode="&#xbf;" horiz-adv-x="347" 
d="M254 271q27 -35 27 -90q0 -31 -11 -56t-26.5 -42t-31.5 -31.5t-27 -30.5t-11 -32q0 -18 13 -30.5t38 -12.5q43 0 77 40l78 -101q-72 -80 -184 -80q-84 0 -134 42t-50 110q0 35 13.5 65.5t33 51t39 39t33 39t13.5 42.5q0 25 -14 41zM195 494q36 0 62.5 -26.5t26.5 -62.5
t-26.5 -62.5t-62.5 -26.5q-37 0 -63.5 26.5t-26.5 62.5t26.5 62.5t63.5 26.5z" />
    <glyph glyph-name="Agrave" unicode="&#xc0;" horiz-adv-x="575" 
d="M582 0h-175l-25 102h-189l-25 -102h-175l197 667h195zM350 243l-62 256l-63 -256h125zM344 723h-94l-134 144h125z" />
    <glyph glyph-name="Aacute" unicode="&#xc1;" horiz-adv-x="575" 
d="M582 0h-175l-25 102h-189l-25 -102h-175l197 667h195zM350 243l-62 256l-63 -256h125zM458 867l-134 -144h-94l103 144h125z" />
    <glyph glyph-name="Acircumflex" unicode="&#xc2;" horiz-adv-x="575" 
d="M429 723h-82l-60 83l-57 -83h-82l75 144h128zM582 0h-175l-25 102h-189l-25 -102h-175l197 667h195zM350 243l-62 256l-63 -256h125z" />
    <glyph glyph-name="Atilde" unicode="&#xc3;" horiz-adv-x="575" 
d="M582 0h-175l-25 102h-189l-25 -102h-175l197 667h195zM350 243l-62 256l-63 -256h125zM338 721q-32 0 -61 29.5t-41 29.5q-27 0 -27 -53h-72q0 63 26.5 98.5t75.5 35.5q25 0 44 -15t32.5 -30t24.5 -15q28 0 28 54h71q0 -63 -26.5 -98.5t-74.5 -35.5z" />
    <glyph glyph-name="Adieresis" unicode="&#xc4;" horiz-adv-x="575" 
d="M460 780q0 -31 -22 -52.5t-54 -21.5q-30 0 -52 21.5t-22 52.5t22 53t52 22q32 0 54 -22t22 -53zM265 780q0 -31 -21.5 -52.5t-52.5 -21.5t-53 21.5t-22 52.5q0 32 22 53.5t53 21.5t52.5 -21.5t21.5 -53.5zM582 0h-175l-25 102h-189l-25 -102h-175l197 667h195zM350 243
l-62 256l-63 -256h125z" />
    <glyph glyph-name="Aring" unicode="&#xc5;" horiz-adv-x="575" 
d="M582 0h-175l-25 102h-189l-25 -102h-175l197 667h195zM350 243l-62 256l-63 -256h125zM288 688q-41 0 -70.5 30t-29.5 71t29.5 70.5t70.5 29.5t70 -29.5t29 -70.5t-29 -71t-70 -30zM288 751q16 0 26.5 11t10.5 27t-10.5 27t-26.5 11q-15 0 -26.5 -11t-11.5 -27t11.5 -27
t26.5 -11z" />
    <glyph glyph-name="AE" unicode="&#xc6;" horiz-adv-x="806" 
d="M775 0h-401v102h-165l-42 -102h-175l314 667h469v-141h-239v-117h232v-141h-232v-127h239v-141zM374 243v256l-107 -256h107z" />
    <glyph glyph-name="Ccedilla" unicode="&#xc7;" horiz-adv-x="570" 
d="M313 -193q-63 0 -102 33l26 54q37 -29 72 -29q18 0 30.5 8t12.5 22q0 23 -23 23q-16 0 -27 -13l-50 29l22 57q-116 16 -182.5 109t-66.5 233q0 155 80 250t214 95q168 0 236 -175l-133 -57q-13 41 -40 65t-63 24q-60 0 -94.5 -56t-34.5 -146t34.5 -146t94.5 -56
q37 0 64 27t39 69l134 -57q-66 -170 -217 -181l-14 -35q17 10 32 10q27 0 45.5 -20t18.5 -51q0 -40 -30.5 -63t-77.5 -23z" />
    <glyph glyph-name="Egrave" unicode="&#xc8;" horiz-adv-x="491" 
d="M455 0h-402v667h402v-141h-240v-117h233v-141h-233v-127h240v-141zM309 723h-94l-134 144h125z" />
    <glyph glyph-name="Eacute" unicode="&#xc9;" horiz-adv-x="491" 
d="M425 867l-134 -144h-94l103 144h125zM455 0h-402v667h402v-141h-240v-117h233v-141h-233v-127h240v-141z" />
    <glyph glyph-name="Ecircumflex" unicode="&#xca;" horiz-adv-x="491" 
d="M395 723h-82l-60 83l-57 -83h-82l75 144h128zM455 0h-402v667h402v-141h-240v-117h233v-141h-233v-127h240v-141z" />
    <glyph glyph-name="Edieresis" unicode="&#xcb;" horiz-adv-x="491" 
d="M428 780q0 -31 -22 -52.5t-54 -21.5q-30 0 -52 21.5t-22 52.5t22 53t52 22q32 0 54 -22t22 -53zM233 780q0 -31 -21.5 -52.5t-52.5 -21.5t-53 21.5t-22 52.5q0 32 22 53.5t53 21.5t52.5 -21.5t21.5 -53.5zM455 0h-402v667h402v-141h-240v-117h233v-141h-233v-127h240
v-141z" />
    <glyph glyph-name="Igrave" unicode="&#xcc;" horiz-adv-x="268" 
d="M215 0h-162v667h162v-667zM191 723h-94l-134 144h125z" />
    <glyph glyph-name="Iacute" unicode="&#xcd;" horiz-adv-x="268" 
d="M215 0h-162v667h162v-667zM305 867l-134 -144h-94l103 144h125z" />
    <glyph glyph-name="Icircumflex" unicode="&#xce;" horiz-adv-x="268" 
d="M274 723h-82l-60 83l-57 -83h-82l75 144h128zM215 0h-162v667h162v-667z" />
    <glyph glyph-name="Idieresis" unicode="&#xcf;" horiz-adv-x="268" 
d="M307 780q0 -31 -22 -52.5t-54 -21.5q-30 0 -52 21.5t-22 52.5t22 53t52 22q32 0 54 -22t22 -53zM112 780q0 -31 -21.5 -52.5t-52.5 -21.5t-53 21.5t-22 52.5q0 32 21.5 53.5t53.5 21.5q31 0 52.5 -21.5t21.5 -53.5zM215 0h-162v667h162v-667z" />
    <glyph glyph-name="Eth" unicode="&#xd0;" horiz-adv-x="637" 
d="M311 0h-234v271h-66v123h66v273h234q140 0 220.5 -91.5t80.5 -242.5t-80 -242t-221 -91zM311 141q64 0 100 52t36 140q0 93 -35 143t-101 50h-72v-132h99v-123h-99v-130h72z" />
    <glyph glyph-name="Ntilde" unicode="&#xd1;" horiz-adv-x="624" 
d="M361 721q-25 0 -44 14.5t-32.5 29.5t-25.5 15q-27 0 -27 -53h-72q0 63 26.5 98.5t75.5 35.5q25 0 44 -15t32.5 -30t24.5 -15q28 0 28 54h71q0 -63 -26.5 -98.5t-74.5 -35.5zM570 0h-153l-202 351v-351h-162v667h165l191 -334v334h161v-667z" />
    <glyph glyph-name="Ograve" unicode="&#xd2;" horiz-adv-x="633" 
d="M374 723h-94l-134 144h125zM316 -12q-133 0 -212 96t-79 249t79 249t212 96t212 -96t79 -249t-79 -249t-212 -96zM316 131q60 0 93.5 56.5t33.5 145.5q0 90 -33.5 146t-93.5 56q-59 0 -92.5 -56t-33.5 -146q0 -89 33.5 -145.5t92.5 -56.5z" />
    <glyph glyph-name="Oacute" unicode="&#xd3;" horiz-adv-x="633" 
d="M487 867l-134 -144h-94l103 144h125zM316 -12q-133 0 -212 96t-79 249t79 249t212 96t212 -96t79 -249t-79 -249t-212 -96zM316 131q60 0 93.5 56.5t33.5 145.5q0 90 -33.5 146t-93.5 56q-59 0 -92.5 -56t-33.5 -146q0 -89 33.5 -145.5t92.5 -56.5z" />
    <glyph glyph-name="Ocircumflex" unicode="&#xd4;" horiz-adv-x="633" 
d="M459 723h-82l-60 83l-57 -83h-82l75 144h128zM316 -12q-133 0 -212 96t-79 249t79 249t212 96t212 -96t79 -249t-79 -249t-212 -96zM316 131q60 0 93.5 56.5t33.5 145.5q0 90 -33.5 146t-93.5 56q-59 0 -92.5 -56t-33.5 -146q0 -89 33.5 -145.5t92.5 -56.5z" />
    <glyph glyph-name="Otilde" unicode="&#xd5;" horiz-adv-x="633" 
d="M316 -12q-133 0 -212 96t-79 249t79 249t212 96t212 -96t79 -249t-79 -249t-212 -96zM316 131q60 0 93.5 56.5t33.5 145.5q0 90 -33.5 146t-93.5 56q-59 0 -92.5 -56t-33.5 -146q0 -89 33.5 -145.5t92.5 -56.5zM367 721q-25 0 -44 14.5t-32.5 29.5t-25.5 15
q-27 0 -27 -53h-72q0 63 26.5 98.5t75.5 35.5q25 0 44 -15t32.5 -30t24.5 -15q28 0 28 54h71q0 -63 -26.5 -98.5t-74.5 -35.5z" />
    <glyph glyph-name="Odieresis" unicode="&#xd6;" horiz-adv-x="633" 
d="M490 780q0 -31 -22 -52.5t-54 -21.5q-30 0 -52 21.5t-22 52.5t22 53t52 22q32 0 54 -22t22 -53zM295 780q0 -31 -21.5 -52.5t-52.5 -21.5t-53 21.5t-22 52.5q0 32 22 53.5t53 21.5t52.5 -21.5t21.5 -53.5zM316 -12q-133 0 -212 96t-79 249t79 249t212 96t212 -96t79 -249
t-79 -249t-212 -96zM316 131q60 0 93.5 56.5t33.5 145.5q0 90 -33.5 146t-93.5 56q-59 0 -92.5 -56t-33.5 -146q0 -89 33.5 -145.5t92.5 -56.5z" />
    <glyph glyph-name="multiply" unicode="&#xd7;" horiz-adv-x="446" 
d="M341 155l-118 117l-117 -117l-62 62l118 117l-118 117l62 62l117 -118l118 118l62 -62l-118 -117l118 -117z" />
    <glyph glyph-name="Oslash" unicode="&#xd8;" horiz-adv-x="633" 
d="M316 -12q-87 0 -153 43l-20 -31h-103l59 89q-74 94 -74 244q0 153 79 249t212 96q82 0 146 -39l19 28h102l-56 -84q80 -94 80 -250q0 -153 -79 -249t-212 -96zM316 131q60 0 93.5 56.5t33.5 145.5q0 54 -14 101l-182 -276q29 -27 69 -27zM190 333q0 -48 11 -90l178 270
q-27 22 -63 22q-59 0 -92.5 -56t-33.5 -146z" />
    <glyph glyph-name="Ugrave" unicode="&#xd9;" horiz-adv-x="629" 
d="M315 -12q-121 0 -191.5 66t-70.5 183v430h163v-431q0 -51 25.5 -78.5t73.5 -27.5q47 0 72.5 28t25.5 78v431h163v-430q0 -117 -70.5 -183t-190.5 -66zM372 723h-94l-134 144h125z" />
    <glyph glyph-name="Uacute" unicode="&#xda;" horiz-adv-x="629" 
d="M486 867l-134 -144h-94l103 144h125zM315 -12q-121 0 -191.5 66t-70.5 183v430h163v-431q0 -51 25.5 -78.5t73.5 -27.5q47 0 72.5 28t25.5 78v431h163v-430q0 -117 -70.5 -183t-190.5 -66z" />
    <glyph glyph-name="Ucircumflex" unicode="&#xdb;" horiz-adv-x="629" 
d="M459 723h-82l-60 83l-57 -83h-82l75 144h128zM315 -12q-121 0 -191.5 66t-70.5 183v430h163v-431q0 -51 25.5 -78.5t73.5 -27.5q47 0 72.5 28t25.5 78v431h163v-430q0 -117 -70.5 -183t-190.5 -66z" />
    <glyph glyph-name="Udieresis" unicode="&#xdc;" horiz-adv-x="629" 
d="M488 780q0 -31 -22 -52.5t-54 -21.5q-30 0 -52 21.5t-22 52.5t22 53t52 22q32 0 54 -22t22 -53zM293 780q0 -31 -21.5 -52.5t-52.5 -21.5t-53 21.5t-22 52.5q0 32 22 53.5t53 21.5t52.5 -21.5t21.5 -53.5zM315 -12q-121 0 -191.5 66t-70.5 183v430h163v-431
q0 -51 25.5 -78.5t73.5 -27.5q47 0 72.5 28t25.5 78v431h163v-430q0 -117 -70.5 -183t-190.5 -66z" />
    <glyph glyph-name="Yacute" unicode="&#xdd;" horiz-adv-x="557" 
d="M360 0h-162v271l-206 396h177l110 -248l109 248h177l-205 -396v-271zM449 867l-134 -144h-94l103 144h125z" />
    <glyph glyph-name="Thorn" unicode="&#xde;" horiz-adv-x="556" 
d="M215 0h-162v667h162v-104h106q104 0 160.5 -63t56.5 -157t-56.5 -156t-160.5 -62h-106v-125zM300 266q33 0 53.5 21t20.5 56q0 36 -20.5 57.5t-53.5 21.5h-85v-156h85z" />
    <glyph glyph-name="germandbls" unicode="&#xdf;" horiz-adv-x="607" 
d="M594 144q0 -66 -52 -111t-134 -45q-107 0 -179 69l53 100q18 -23 49 -40t63 -17q26 0 40.5 10.5t14.5 28.5q0 17 -21.5 28.5t-51.5 22t-60.5 25.5t-52 47t-21.5 78q0 33 16 60t34.5 41t34.5 31t16 32q0 21 -19 33t-47 12q-37 0 -59.5 -20t-22.5 -60v-469h-144v469
q0 88 61.5 148t166.5 60q85 0 148 -44t63 -110q0 -38 -17 -67t-37.5 -43.5t-37.5 -31.5t-17 -32t22 -24.5t53.5 -19t62.5 -25t53 -50t22 -86.5z" />
    <glyph glyph-name="agrave" unicode="&#xe0;" horiz-adv-x="492" 
d="M444 0h-144v47q-19 -27 -54.5 -43t-72.5 -16q-61 0 -106 42.5t-45 117.5q0 76 44 115.5t107 39.5q39 0 74 -14.5t53 -40.5v55q0 34 -22.5 54.5t-62.5 20.5q-63 0 -119 -50l-51 97q76 70 198 70q90 0 145.5 -42.5t55.5 -134.5v-318zM230 83q49 0 70 38v49q-21 38 -70 38
q-28 0 -46 -16.5t-18 -45.5t18 -46t46 -17zM300 556h-94l-134 144h125z" />
    <glyph glyph-name="aacute" unicode="&#xe1;" horiz-adv-x="492" 
d="M444 0h-144v47q-19 -27 -54.5 -43t-72.5 -16q-61 0 -106 42.5t-45 117.5q0 76 44 115.5t107 39.5q39 0 74 -14.5t53 -40.5v55q0 34 -22.5 54.5t-62.5 20.5q-63 0 -119 -50l-51 97q76 70 198 70q90 0 145.5 -42.5t55.5 -134.5v-318zM230 83q49 0 70 38v49q-21 38 -70 38
q-28 0 -46 -16.5t-18 -45.5t18 -46t46 -17zM414 700l-134 -144h-94l103 144h125z" />
    <glyph glyph-name="acircumflex" unicode="&#xe2;" horiz-adv-x="492" 
d="M444 0h-144v47q-19 -27 -54.5 -43t-72.5 -16q-61 0 -106 42.5t-45 117.5q0 76 44 115.5t107 39.5q39 0 74 -14.5t53 -40.5v55q0 34 -22.5 54.5t-62.5 20.5q-63 0 -119 -50l-51 97q76 70 198 70q90 0 145.5 -42.5t55.5 -134.5v-318zM230 83q49 0 70 38v49q-21 38 -70 38
q-28 0 -46 -16.5t-18 -45.5t18 -46t46 -17zM388 556h-82l-60 83l-57 -83h-82l75 144h128z" />
    <glyph glyph-name="atilde" unicode="&#xe3;" horiz-adv-x="492" 
d="M444 0h-144v47q-19 -27 -54.5 -43t-72.5 -16q-61 0 -106 42.5t-45 117.5q0 76 44 115.5t107 39.5q39 0 74 -14.5t53 -40.5v55q0 34 -22.5 54.5t-62.5 20.5q-63 0 -119 -50l-51 97q76 70 198 70q90 0 145.5 -42.5t55.5 -134.5v-318zM230 83q49 0 70 38v49q-21 38 -70 38
q-28 0 -46 -16.5t-18 -45.5t18 -46t46 -17zM295 554q-25 0 -44 15t-32.5 29.5t-25.5 14.5q-27 0 -27 -53h-72q0 64 26.5 99t75.5 35q25 0 44 -15t32.5 -30t24.5 -15q28 0 28 54h71q0 -63 -26.5 -98.5t-74.5 -35.5z" />
    <glyph glyph-name="adieresis" unicode="&#xe4;" horiz-adv-x="492" 
d="M444 0h-144v47q-19 -27 -54.5 -43t-72.5 -16q-61 0 -106 42.5t-45 117.5q0 76 44 115.5t107 39.5q39 0 74 -14.5t53 -40.5v55q0 34 -22.5 54.5t-62.5 20.5q-63 0 -119 -50l-51 97q76 70 198 70q90 0 145.5 -42.5t55.5 -134.5v-318zM230 83q49 0 70 38v49q-21 38 -70 38
q-28 0 -46 -16.5t-18 -45.5t18 -46t46 -17zM417 613q0 -31 -22 -52.5t-54 -21.5q-30 0 -52 21.5t-22 52.5t22 53t52 22q32 0 54 -22t22 -53zM222 613q0 -31 -21.5 -52.5t-52.5 -21.5t-53 21.5t-22 52.5t21.5 53t53.5 22q31 0 52.5 -21.5t21.5 -53.5z" />
    <glyph glyph-name="aring" unicode="&#xe5;" horiz-adv-x="492" 
d="M444 0h-144v47q-19 -27 -54.5 -43t-72.5 -16q-61 0 -106 42.5t-45 117.5q0 76 44 115.5t107 39.5q39 0 74 -14.5t53 -40.5v55q0 34 -22.5 54.5t-62.5 20.5q-63 0 -119 -50l-51 97q76 70 198 70q90 0 145.5 -42.5t55.5 -134.5v-318zM230 83q49 0 70 38v49q-21 38 -70 38
q-28 0 -46 -16.5t-18 -45.5t18 -46t46 -17zM245 528q-41 0 -70.5 30t-29.5 71t29.5 70.5t70.5 29.5t70 -29.5t29 -70.5t-29 -71t-70 -30zM245 591q16 0 26.5 11t10.5 27t-10.5 27t-26.5 11q-15 0 -26.5 -11t-11.5 -27t11.5 -27t26.5 -11z" />
    <glyph glyph-name="ae" unicode="&#xe6;" horiz-adv-x="758" 
d="M739 195h-289q5 -40 30.5 -65.5t71.5 -25.5q55 0 94 41l65 -88q-32 -33 -79.5 -51t-94.5 -18q-99 0 -158 74q-65 -74 -175 -74q-79 0 -130.5 41t-51.5 116t43.5 116.5t110.5 41.5q39 0 75.5 -14.5t56.5 -39.5v54q0 34 -23.5 54t-65.5 20q-65 0 -123 -49l-51 97
q38 35 91.5 52.5t102.5 17.5q102 0 143 -66q57 66 150 66q95 0 151 -72t56 -189v-39zM449 292h152q-2 35 -19.5 62t-56.5 27q-37 0 -55.5 -27t-20.5 -62zM308 160v10q-24 38 -76 38q-29 0 -48.5 -15.5t-19.5 -40.5q0 -27 18 -41.5t46 -14.5q33 0 56.5 20t23.5 44z" />
    <glyph glyph-name="ccedilla" unicode="&#xe7;" horiz-adv-x="429" 
d="M255 -195q-63 0 -102 33l26 54q37 -29 72 -29q18 0 30.5 8t12.5 22q0 23 -23 23q-16 0 -27 -13l-50 29l22 59q-87 12 -140 80.5t-53 170.5q0 112 64 182.5t166 70.5q56 0 98 -19t64 -47l-70 -99q-31 37 -75 37t-71.5 -34.5t-27.5 -90.5t27.5 -91t71.5 -35q45 0 75 38
l70 -100q-43 -54 -132 -64l-16 -38q17 10 32 10q27 0 45.5 -20t18.5 -51q0 -40 -30.5 -63t-77.5 -23z" />
    <glyph glyph-name="egrave" unicode="&#xe8;" horiz-adv-x="484" 
d="M257 -12q-105 0 -169.5 69.5t-64.5 184.5q0 108 62 180.5t164 72.5q101 0 158.5 -71t57.5 -189v-40h-297q4 -40 31 -66.5t74 -26.5q24 0 53 11.5t47 30.5l64 -87q-68 -69 -180 -69zM327 292q-2 36 -20.5 62.5t-59.5 26.5q-39 0 -58 -26.5t-22 -62.5h160zM306 556h-94
l-134 144h125z" />
    <glyph glyph-name="eacute" unicode="&#xe9;" horiz-adv-x="484" 
d="M419 700l-134 -144h-94l103 144h125zM257 -12q-105 0 -169.5 69.5t-64.5 184.5q0 108 62 180.5t164 72.5q101 0 158.5 -71t57.5 -189v-40h-297q4 -40 31 -66.5t74 -26.5q24 0 53 11.5t47 30.5l64 -87q-68 -69 -180 -69zM327 292q-2 36 -20.5 62.5t-59.5 26.5
q-39 0 -58 -26.5t-22 -62.5h160z" />
    <glyph glyph-name="ecircumflex" unicode="&#xea;" horiz-adv-x="484" 
d="M389 556h-82l-60 83l-57 -83h-82l75 144h128zM257 -12q-105 0 -169.5 69.5t-64.5 184.5q0 108 62 180.5t164 72.5q101 0 158.5 -71t57.5 -189v-40h-297q4 -40 31 -66.5t74 -26.5q24 0 53 11.5t47 30.5l64 -87q-68 -69 -180 -69zM327 292q-2 36 -20.5 62.5t-59.5 26.5
q-39 0 -58 -26.5t-22 -62.5h160z" />
    <glyph glyph-name="edieresis" unicode="&#xeb;" horiz-adv-x="484" 
d="M420 613q0 -31 -22 -52.5t-54 -21.5q-30 0 -52 21.5t-22 52.5t22 53t52 22q32 0 54 -22t22 -53zM225 613q0 -31 -21.5 -52.5t-52.5 -21.5t-53 21.5t-22 52.5t22 53t53 22t52.5 -21.5t21.5 -53.5zM257 -12q-105 0 -169.5 69.5t-64.5 184.5q0 108 62 180.5t164 72.5
q101 0 158.5 -71t57.5 -189v-40h-297q4 -40 31 -66.5t74 -26.5q24 0 53 11.5t47 30.5l64 -87q-68 -69 -180 -69zM327 292q-2 36 -20.5 62.5t-59.5 26.5q-39 0 -58 -26.5t-22 -62.5h160z" />
    <glyph glyph-name="igrave" unicode="&#xec;" horiz-adv-x="241" 
d="M193 0h-145v483h145v-483zM178 556h-94l-134 144h125z" />
    <glyph glyph-name="iacute" unicode="&#xed;" horiz-adv-x="241" 
d="M292 700l-134 -144h-94l103 144h125zM193 0h-145v483h145v-483z" />
    <glyph glyph-name="icircumflex" unicode="&#xee;" horiz-adv-x="241" 
d="M262 556h-82l-60 83l-57 -83h-82l75 144h128zM193 0h-145v483h145v-483z" />
    <glyph glyph-name="idieresis" unicode="&#xef;" horiz-adv-x="241" 
d="M293 613q0 -31 -22 -52.5t-54 -21.5q-30 0 -52 21.5t-22 52.5t22 53t52 22q32 0 54 -22t22 -53zM98 613q0 -31 -21.5 -52.5t-52.5 -21.5t-53 21.5t-22 52.5t21.5 53t53.5 22q31 0 52.5 -21.5t21.5 -53.5zM193 0h-145v483h145v-483z" />
    <glyph glyph-name="eth" unicode="&#xf0;" horiz-adv-x="505" 
d="M119 472l-28 65l103 45q-47 44 -49 46l100 88q45 -40 79 -77l84 37l27 -63l-65 -29q112 -149 112 -318q0 -129 -59.5 -203.5t-170.5 -74.5q-106 0 -167.5 66t-61.5 168q0 99 51 165.5t132 66.5q83 0 129 -83q-19 71 -92 156zM252 116q39 0 60 29.5t21 75.5
q0 47 -20.5 76.5t-60.5 29.5q-39 0 -59.5 -29.5t-20.5 -76.5q0 -46 20.5 -75.5t59.5 -29.5z" />
    <glyph glyph-name="ntilde" unicode="&#xf1;" 
d="M469 0h-145v305q0 62 -56 62q-46 0 -75 -51v-316h-145v483h145v-60q20 29 58.5 50.5t83.5 21.5q67 0 100.5 -36t33.5 -97v-362zM309 554q-25 0 -44 15t-32.5 29.5t-25.5 14.5q-27 0 -27 -53h-72q0 64 26.5 99t75.5 35q25 0 44 -15t32.5 -30t24.5 -15q28 0 28 54h71
q0 -63 -26.5 -98.5t-74.5 -35.5z" />
    <glyph glyph-name="ograve" unicode="&#xf2;" horiz-adv-x="505" 
d="M252 -12q-108 0 -168.5 73.5t-60.5 180.5t60.5 180t168.5 73t169 -73t61 -180t-61 -180.5t-169 -73.5zM252 116q40 0 60.5 35t20.5 91t-20.5 90.5t-60.5 34.5q-39 0 -59.5 -34.5t-20.5 -90.5t20 -91t60 -35zM309 556h-94l-134 144h125z" />
    <glyph glyph-name="oacute" unicode="&#xf3;" horiz-adv-x="505" 
d="M423 700l-134 -144h-94l103 144h125zM252 -12q-108 0 -168.5 73.5t-60.5 180.5t60.5 180t168.5 73t169 -73t61 -180t-61 -180.5t-169 -73.5zM252 116q40 0 60.5 35t20.5 91t-20.5 90.5t-60.5 34.5q-39 0 -59.5 -34.5t-20.5 -90.5t20 -91t60 -35z" />
    <glyph glyph-name="ocircumflex" unicode="&#xf4;" horiz-adv-x="505" 
d="M394 556h-82l-60 83l-57 -83h-82l75 144h128zM252 -12q-108 0 -168.5 73.5t-60.5 180.5t60.5 180t168.5 73t169 -73t61 -180t-61 -180.5t-169 -73.5zM252 116q40 0 60.5 35t20.5 91t-20.5 90.5t-60.5 34.5q-39 0 -59.5 -34.5t-20.5 -90.5t20 -91t60 -35z" />
    <glyph glyph-name="otilde" unicode="&#xf5;" horiz-adv-x="505" 
d="M252 -12q-108 0 -168.5 73.5t-60.5 180.5t60.5 180t168.5 73t169 -73t61 -180t-61 -180.5t-169 -73.5zM252 116q40 0 60.5 35t20.5 91t-20.5 90.5t-60.5 34.5q-39 0 -59.5 -34.5t-20.5 -90.5t20 -91t60 -35zM302 554q-32 0 -61 29.5t-41 29.5q-27 0 -27 -53h-72
q0 64 26.5 99t75.5 35q25 0 44 -15t32.5 -30t24.5 -15q28 0 28 54h71q0 -63 -26.5 -98.5t-74.5 -35.5z" />
    <glyph glyph-name="odieresis" unicode="&#xf6;" horiz-adv-x="505" 
d="M425 613q0 -31 -22 -52.5t-54 -21.5q-30 0 -52 21.5t-22 52.5t22 53t52 22q32 0 54 -22t22 -53zM230 613q0 -31 -21.5 -52.5t-52.5 -21.5t-53 21.5t-22 52.5t21.5 53t53.5 22q31 0 52.5 -21.5t21.5 -53.5zM252 -12q-108 0 -168.5 73.5t-60.5 180.5t60.5 180t168.5 73
t169 -73t61 -180t-61 -180.5t-169 -73.5zM252 116q40 0 60.5 35t20.5 91t-20.5 90.5t-60.5 34.5q-39 0 -59.5 -34.5t-20.5 -90.5t20 -91t60 -35z" />
    <glyph glyph-name="divide" unicode="&#xf7;" horiz-adv-x="443" 
d="M287 497q0 -27 -19.5 -47t-46.5 -20t-46 20t-19 47t19 46t46 19q28 0 47 -19t19 -46zM414 294h-385v87h385v-87zM287 177q0 -28 -19 -47t-47 -19q-27 0 -46 19t-19 47q0 27 19 46.5t46 19.5q28 0 47 -19.5t19 -46.5z" />
    <glyph glyph-name="oslash" unicode="&#xf8;" horiz-adv-x="505" 
d="M109 0h-81l51 67q-56 71 -56 175q0 107 60.5 180t168.5 73q71 0 125 -35l17 23h82l-51 -67q57 -69 57 -174q0 -107 -61 -180.5t-169 -73.5q-72 0 -126 35zM252 116q40 0 60.5 35t20.5 91q0 22 -5 47l-120 -158q18 -15 44 -15zM172 242q0 -18 4 -46l119 156q-20 15 -43 15
q-39 0 -59.5 -34.5t-20.5 -90.5z" />
    <glyph glyph-name="ugrave" unicode="&#xf9;" 
d="M468 0h-144v58q-21 -29 -59 -49.5t-84 -20.5q-67 0 -100 35t-33 96v364h145v-306q0 -61 56 -61q47 0 75 50v317h144v-483zM315 556h-94l-134 144h125z" />
    <glyph glyph-name="uacute" unicode="&#xfa;" 
d="M429 700l-134 -144h-94l103 144h125zM468 0h-144v58q-21 -29 -59 -49.5t-84 -20.5q-67 0 -100 35t-33 96v364h145v-306q0 -61 56 -61q47 0 75 50v317h144v-483z" />
    <glyph glyph-name="ucircumflex" unicode="&#xfb;" 
d="M400 556h-82l-60 83l-57 -83h-82l75 144h128zM468 0h-144v58q-21 -29 -59 -49.5t-84 -20.5q-67 0 -100 35t-33 96v364h145v-306q0 -61 56 -61q47 0 75 50v317h144v-483z" />
    <glyph glyph-name="udieresis" unicode="&#xfc;" 
d="M431 613q0 -31 -22 -52.5t-54 -21.5q-30 0 -52 21.5t-22 52.5t22 53t52 22q32 0 54 -22t22 -53zM236 613q0 -31 -21.5 -52.5t-52.5 -21.5t-53 21.5t-22 52.5t21.5 53t53.5 22q31 0 52.5 -21.5t21.5 -53.5zM468 0h-144v58q-21 -29 -59 -49.5t-84 -20.5q-67 0 -100 35
t-33 96v364h145v-306q0 -61 56 -61q47 0 75 50v317h144v-483z" />
    <glyph glyph-name="yacute" unicode="&#xfd;" horiz-adv-x="466" 
d="M45 -188l20 127q11 -7 30 -7q42 0 52 28l11 31l-164 492h153l85 -309l87 309h153l-187 -555q-23 -70 -65 -96.5t-112 -27.5q-41 0 -63 8zM403 700l-134 -144h-94l103 144h125z" />
    <glyph glyph-name="thorn" unicode="&#xfe;" horiz-adv-x="515" 
d="M312 -12q-76 0 -119 68v-240h-145v851h145v-240q43 68 119 68q83 0 132 -67t49 -186q0 -118 -49 -186t-132 -68zM263 116q39 0 60.5 34.5t21.5 91.5t-21.5 91t-60.5 34q-20 0 -40 -12t-30 -32v-162q10 -19 30 -32t40 -13z" />
    <glyph glyph-name="ydieresis" unicode="&#xff;" horiz-adv-x="466" 
d="M45 -188l20 127q11 -7 30 -7q42 0 52 28l11 31l-164 492h153l85 -309l87 309h153l-187 -555q-23 -70 -65 -96.5t-112 -27.5q-41 0 -63 8zM406 613q0 -31 -22 -52.5t-54 -21.5q-30 0 -52 21.5t-22 52.5t22 53t52 22q32 0 54 -22t22 -53zM211 613q0 -31 -21.5 -52.5
t-52.5 -21.5t-53 21.5t-22 52.5t22 53t53 22t52.5 -21.5t21.5 -53.5z" />
    <glyph glyph-name="Amacron" unicode="&#x100;" horiz-adv-x="575" 
d="M582 0h-175l-25 102h-189l-25 -102h-175l197 667h195zM350 243l-62 256l-63 -256h125zM444 725h-313v81h313v-81z" />
    <glyph glyph-name="amacron" unicode="&#x101;" horiz-adv-x="492" 
d="M444 0h-144v47q-19 -27 -54.5 -43t-72.5 -16q-61 0 -106 42.5t-45 117.5q0 76 44 115.5t107 39.5q39 0 74 -14.5t53 -40.5v55q0 34 -22.5 54.5t-62.5 20.5q-63 0 -119 -50l-51 97q76 70 198 70q90 0 145.5 -42.5t55.5 -134.5v-318zM230 83q49 0 70 38v49q-21 38 -70 38
q-28 0 -46 -16.5t-18 -45.5t18 -46t46 -17zM401 558h-313v81h313v-81z" />
    <glyph glyph-name="Abreve" unicode="&#x102;" horiz-adv-x="575" 
d="M582 0h-175l-25 102h-189l-25 -102h-175l197 667h195zM350 243l-62 256l-63 -256h125zM438 777q-55 -75 -151 -75q-94 0 -151 75l64 51q31 -46 87 -46q57 0 87 46z" />
    <glyph glyph-name="abreve" unicode="&#x103;" horiz-adv-x="492" 
d="M444 0h-144v47q-19 -27 -54.5 -43t-72.5 -16q-61 0 -106 42.5t-45 117.5q0 76 44 115.5t107 39.5q39 0 74 -14.5t53 -40.5v55q0 34 -22.5 54.5t-62.5 20.5q-63 0 -119 -50l-51 97q76 70 198 70q90 0 145.5 -42.5t55.5 -134.5v-318zM230 83q49 0 70 38v49q-21 38 -70 38
q-28 0 -46 -16.5t-18 -45.5t18 -46t46 -17zM396 610q-55 -75 -151 -75q-94 0 -151 75l64 51q31 -46 87 -46q57 0 87 46z" />
    <glyph glyph-name="Aogonek" unicode="&#x104;" horiz-adv-x="575" 
d="M580 -99l56 -33q-29 -54 -88 -54q-42 0 -68.5 22.5t-26.5 66.5q0 55 41 97h-87l-25 102h-189l-25 -102h-175l197 667h195l197 -667q-60 -37 -60 -92q0 -36 27 -36q22 0 31 29zM350 243l-62 256l-63 -256h125z" />
    <glyph glyph-name="aogonek" unicode="&#x105;" horiz-adv-x="492" 
d="M442 -99l56 -33q-29 -54 -88 -54q-42 0 -68.5 22.5t-26.5 66.5q0 55 41 97h-56v47q-19 -27 -54.5 -43t-72.5 -16q-61 0 -106 42.5t-45 117.5q0 76 44 115.5t107 39.5q39 0 74 -14.5t53 -40.5v55q0 34 -22.5 54.5t-62.5 20.5q-63 0 -119 -50l-51 97q76 70 198 70
q90 0 145.5 -42.5t55.5 -134.5v-318q-60 -37 -60 -92q0 -36 27 -36q22 0 31 29zM230 83q49 0 70 38v49q-21 38 -70 38q-28 0 -46 -16.5t-18 -45.5t18 -46t46 -17z" />
    <glyph glyph-name="Cacute" unicode="&#x106;" horiz-adv-x="570" 
d="M489 867l-134 -144h-94l103 144h125zM319 -12q-134 0 -214 95.5t-80 249.5q0 155 80 250t214 95q168 0 236 -175l-133 -57q-13 41 -40 65t-63 24q-60 0 -94.5 -56t-34.5 -146t34.5 -146t94.5 -56q37 0 64 27t39 69l134 -57q-69 -182 -237 -182z" />
    <glyph glyph-name="cacute" unicode="&#x107;" horiz-adv-x="429" 
d="M424 700l-134 -144h-94l103 144h125zM253 -12q-102 0 -166 70.5t-64 183.5q0 112 64 182.5t166 70.5q56 0 98 -19t64 -47l-70 -99q-31 37 -75 37t-71.5 -34.5t-27.5 -90.5t27.5 -91t71.5 -35q45 0 75 38l70 -100q-22 -28 -64 -47t-98 -19z" />
    <glyph glyph-name="Ccircumflex" unicode="&#x108;" horiz-adv-x="570" 
d="M459 723h-82l-60 83l-57 -83h-82l75 144h128zM319 -12q-134 0 -214 95.5t-80 249.5q0 155 80 250t214 95q168 0 236 -175l-133 -57q-13 41 -40 65t-63 24q-60 0 -94.5 -56t-34.5 -146t34.5 -146t94.5 -56q37 0 64 27t39 69l134 -57q-69 -182 -237 -182z" />
    <glyph glyph-name="ccircumflex" unicode="&#x109;" horiz-adv-x="429" 
d="M398 556h-82l-60 83l-57 -83h-82l75 144h128zM253 -12q-102 0 -166 70.5t-64 183.5q0 112 64 182.5t166 70.5q56 0 98 -19t64 -47l-70 -99q-31 37 -75 37t-71.5 -34.5t-27.5 -90.5t27.5 -91t71.5 -35q45 0 75 38l70 -100q-22 -28 -64 -47t-98 -19z" />
    <glyph glyph-name="Cdotaccent" unicode="&#x10a;" horiz-adv-x="570" 
d="M319 -12q-134 0 -214 95.5t-80 249.5q0 155 80 250t214 95q168 0 236 -175l-133 -57q-13 41 -40 65t-63 24q-60 0 -94.5 -56t-34.5 -146t34.5 -146t94.5 -56q37 0 64 27t39 69l134 -57q-69 -182 -237 -182zM319 706q-30 0 -52 21.5t-22 52.5t22 53t52 22q31 0 53 -22
t22 -53t-22 -52.5t-53 -21.5z" />
    <glyph glyph-name="cdotaccent" unicode="&#x10b;" horiz-adv-x="429" 
d="M253 -12q-102 0 -166 70.5t-64 183.5q0 112 64 182.5t166 70.5q56 0 98 -19t64 -47l-70 -99q-31 37 -75 37t-71.5 -34.5t-27.5 -90.5t27.5 -91t71.5 -35q45 0 75 38l70 -100q-22 -28 -64 -47t-98 -19zM253 539q-30 0 -52 21.5t-22 52.5t22 53t52 22q31 0 53 -22t22 -53
t-22 -52.5t-53 -21.5z" />
    <glyph glyph-name="Ccaron" unicode="&#x10c;" horiz-adv-x="570" 
d="M384 723h-128l-78 144h82l60 -84l57 84h82zM319 -12q-134 0 -214 95.5t-80 249.5q0 155 80 250t214 95q168 0 236 -175l-133 -57q-13 41 -40 65t-63 24q-60 0 -94.5 -56t-34.5 -146t34.5 -146t94.5 -56q37 0 64 27t39 69l134 -57q-69 -182 -237 -182z" />
    <glyph glyph-name="ccaron" unicode="&#x10d;" horiz-adv-x="429" 
d="M323 556h-128l-78 144h82l60 -84l57 84h82zM253 -12q-102 0 -166 70.5t-64 183.5q0 112 64 182.5t166 70.5q56 0 98 -19t64 -47l-70 -99q-31 37 -75 37t-71.5 -34.5t-27.5 -90.5t27.5 -91t71.5 -35q45 0 75 38l70 -100q-22 -28 -64 -47t-98 -19z" />
    <glyph glyph-name="Dcaron" unicode="&#x10e;" horiz-adv-x="613" 
d="M373 723h-128l-78 144h82l60 -84l57 84h82zM287 0h-234v667h234q140 0 220.5 -91.5t80.5 -242.5t-80 -242t-221 -91zM287 141q64 0 100 52t36 140q0 93 -35 143t-101 50h-72v-385h72z" />
    <glyph glyph-name="dcaron" unicode="&#x10f;" horiz-adv-x="642" 
d="M647 592q0 -92 -86 -154l-48 38q21 11 40.5 33.5t24.5 43.5q-6 -2 -16 -2q-24 0 -41 16.5t-17 43.5q0 28 20 48t48 20q31 0 53 -23.5t22 -63.5zM468 0h-144v57q-46 -69 -120 -69q-82 0 -131.5 67t-49.5 187q0 116 49.5 184.5t131.5 68.5q77 0 120 -69v241h144v-667z
M253 116q20 0 40 13t31 32v162q-11 19 -31 31.5t-40 12.5q-39 0 -60.5 -34t-21.5 -91t21.5 -91.5t60.5 -34.5z" />
    <glyph glyph-name="Dcroat" unicode="&#x110;" horiz-adv-x="637" 
d="M311 0h-234v270h-66v123h66v274h234q140 0 220.5 -91.5t80.5 -242.5t-80 -242t-221 -91zM311 141q64 0 100 52t36 140q0 93 -35 143t-101 50h-72v-133h99v-123h-99v-129h72z" />
    <glyph glyph-name="dcroat" unicode="&#x111;" horiz-adv-x="521" 
d="M468 0h-144v57q-46 -69 -120 -69q-82 0 -131.5 67t-49.5 187q0 116 49.5 184.5t131.5 68.5q77 0 120 -69v100h-130v81h130v60h144v-60h47v-81h-47v-526zM253 116q20 0 40 13t31 32v162q-11 19 -31 31.5t-40 12.5q-39 0 -60.5 -34t-21.5 -91t21.5 -91.5t60.5 -34.5z" />
    <glyph glyph-name="Emacron" unicode="&#x112;" horiz-adv-x="491" 
d="M455 0h-402v667h402v-141h-240v-117h233v-141h-233v-127h240v-141zM409 725h-313v81h313v-81z" />
    <glyph glyph-name="emacron" unicode="&#x113;" horiz-adv-x="484" 
d="M257 -12q-105 0 -169.5 69.5t-64.5 184.5q0 108 62 180.5t164 72.5q101 0 158.5 -71t57.5 -189v-40h-297q4 -40 31 -66.5t74 -26.5q24 0 53 11.5t47 30.5l64 -87q-68 -69 -180 -69zM327 292q-2 36 -20.5 62.5t-59.5 26.5q-39 0 -58 -26.5t-22 -62.5h160zM401 558h-313v81
h313v-81z" />
    <glyph glyph-name="Ebreve" unicode="&#x114;" horiz-adv-x="491" 
d="M455 0h-402v667h402v-141h-240v-117h233v-141h-233v-127h240v-141zM403 777q-55 -75 -151 -75q-94 0 -151 75l64 51q31 -46 87 -46q57 0 87 46z" />
    <glyph glyph-name="ebreve" unicode="&#x115;" horiz-adv-x="484" 
d="M257 -12q-105 0 -169.5 69.5t-64.5 184.5q0 108 62 180.5t164 72.5q101 0 158.5 -71t57.5 -189v-40h-297q4 -40 31 -66.5t74 -26.5q24 0 53 11.5t47 30.5l64 -87q-68 -69 -180 -69zM327 292q-2 36 -20.5 62.5t-59.5 26.5q-39 0 -58 -26.5t-22 -62.5h160zM401 610
q-55 -75 -151 -75q-94 0 -151 75l64 51q31 -46 87 -46q57 0 87 46z" />
    <glyph glyph-name="Edotaccent" unicode="&#x116;" horiz-adv-x="491" 
d="M455 0h-402v667h402v-141h-240v-117h233v-141h-233v-127h240v-141zM256 706q-30 0 -52 21.5t-22 52.5t22 53t52 22q31 0 53 -22t22 -53t-22 -52.5t-53 -21.5z" />
    <glyph glyph-name="edotaccent" unicode="&#x117;" horiz-adv-x="484" 
d="M257 -12q-105 0 -169.5 69.5t-64.5 184.5q0 108 62 180.5t164 72.5q101 0 158.5 -71t57.5 -189v-40h-297q4 -40 31 -66.5t74 -26.5q24 0 53 11.5t47 30.5l64 -87q-68 -69 -180 -69zM327 292q-2 36 -20.5 62.5t-59.5 26.5q-39 0 -58 -26.5t-22 -62.5h160zM249 539
q-30 0 -52 21.5t-22 52.5t22 53t52 22q31 0 53 -22t22 -53t-22 -52.5t-53 -21.5z" />
    <glyph glyph-name="Eogonek" unicode="&#x118;" horiz-adv-x="491" 
d="M455 0q-60 -37 -60 -92q0 -36 27 -36q22 0 31 29l56 -33q-29 -54 -88 -54q-42 0 -68.5 22.5t-26.5 66.5q0 55 41 97h-314v667h402v-141h-240v-117h233v-141h-233v-127h240v-141z" />
    <glyph glyph-name="eogonek" unicode="&#x119;" horiz-adv-x="484" 
d="M336 -99l56 -33q-29 -54 -88 -54q-42 0 -68.5 22.5t-26.5 66.5q0 46 31 86q-99 5 -158 73.5t-59 179.5q0 108 62 180.5t164 72.5q101 0 158.5 -71t57.5 -189v-40h-297q4 -40 31 -66.5t74 -26.5q24 0 53 11.5t47 30.5l64 -87q-42 -42 -100 -57q-59 -37 -59 -92
q0 -36 27 -36q22 0 31 29zM327 292q-2 36 -20.5 62.5t-59.5 26.5q-39 0 -58 -26.5t-22 -62.5h160z" />
    <glyph glyph-name="Ecaron" unicode="&#x11a;" horiz-adv-x="491" 
d="M319 723h-128l-78 144h82l60 -84l57 84h82zM455 0h-402v667h402v-141h-240v-117h233v-141h-233v-127h240v-141z" />
    <glyph glyph-name="ecaron" unicode="&#x11b;" horiz-adv-x="484" 
d="M314 556h-128l-78 144h82l60 -84l57 84h82zM257 -12q-105 0 -169.5 69.5t-64.5 184.5q0 108 62 180.5t164 72.5q101 0 158.5 -71t57.5 -189v-40h-297q4 -40 31 -66.5t74 -26.5q24 0 53 11.5t47 30.5l64 -87q-68 -69 -180 -69zM327 292q-2 36 -20.5 62.5t-59.5 26.5
q-39 0 -58 -26.5t-22 -62.5h160z" />
    <glyph glyph-name="Gcircumflex" unicode="&#x11c;" horiz-adv-x="598" 
d="M460 723h-82l-60 83l-57 -83h-82l75 144h128zM319 -12q-133 0 -213.5 94.5t-80.5 250.5q0 157 80.5 251t213.5 94q88 0 146.5 -46.5t86.5 -120.5l-132 -59q-13 36 -39 59.5t-62 23.5q-58 0 -93.5 -52.5t-35.5 -149.5t35.5 -149.5t93.5 -52.5q57 0 89 32v73h-109v142h261
v-279q-98 -111 -241 -111z" />
    <glyph glyph-name="gcircumflex" unicode="&#x11d;" horiz-adv-x="516" 
d="M403 556h-82l-60 83l-57 -83h-82l75 144h128zM229 -196q-113 0 -186 63l55 108q49 -50 124 -50q42 0 71.5 25t29.5 80v49q-45 -70 -119 -70q-83 0 -132 62.5t-49 180.5q0 116 49 179.5t132 63.5q77 0 119 -69v57h144v-450q0 -66 -21 -113t-57.5 -71t-75.5 -34.5
t-84 -10.5zM253 136q20 0 40 12.5t30 32.5v142q-10 19 -30 31.5t-40 12.5q-40 0 -61 -30t-21 -85q0 -56 21 -86t61 -30z" />
    <glyph glyph-name="Gbreve" unicode="&#x11e;" horiz-adv-x="598" 
d="M319 -12q-133 0 -213.5 94.5t-80.5 250.5q0 157 80.5 251t213.5 94q88 0 146.5 -46.5t86.5 -120.5l-132 -59q-13 36 -39 59.5t-62 23.5q-58 0 -93.5 -52.5t-35.5 -149.5t35.5 -149.5t93.5 -52.5q57 0 89 32v73h-109v142h261v-279q-98 -111 -241 -111zM471 777
q-55 -75 -151 -75q-94 0 -151 75l64 51q31 -46 87 -46q57 0 87 46z" />
    <glyph glyph-name="gbreve" unicode="&#x11f;" horiz-adv-x="516" 
d="M229 -196q-113 0 -186 63l55 108q49 -50 124 -50q42 0 71.5 25t29.5 80v49q-45 -70 -119 -70q-83 0 -132 62.5t-49 180.5q0 116 49 179.5t132 63.5q77 0 119 -69v57h144v-450q0 -66 -21 -113t-57.5 -71t-75.5 -34.5t-84 -10.5zM253 136q20 0 40 12.5t30 32.5v142
q-10 19 -30 31.5t-40 12.5q-40 0 -61 -30t-21 -85q0 -56 21 -86t61 -30zM407 610q-55 -75 -151 -75q-94 0 -151 75l64 51q31 -46 87 -46q57 0 87 46z" />
    <glyph glyph-name="Gdotaccent" unicode="&#x120;" horiz-adv-x="598" 
d="M319 -12q-133 0 -213.5 94.5t-80.5 250.5q0 157 80.5 251t213.5 94q88 0 146.5 -46.5t86.5 -120.5l-132 -59q-13 36 -39 59.5t-62 23.5q-58 0 -93.5 -52.5t-35.5 -149.5t35.5 -149.5t93.5 -52.5q57 0 89 32v73h-109v142h261v-279q-98 -111 -241 -111zM319 706
q-30 0 -52 21.5t-22 52.5t22 53t52 22q31 0 53 -22t22 -53t-22 -52.5t-53 -21.5z" />
    <glyph glyph-name="gdotaccent" unicode="&#x121;" horiz-adv-x="516" 
d="M229 -196q-113 0 -186 63l55 108q49 -50 124 -50q42 0 71.5 25t29.5 80v49q-45 -70 -119 -70q-83 0 -132 62.5t-49 180.5q0 116 49 179.5t132 63.5q77 0 119 -69v57h144v-450q0 -66 -21 -113t-57.5 -71t-75.5 -34.5t-84 -10.5zM253 136q20 0 40 12.5t30 32.5v142
q-10 19 -30 31.5t-40 12.5q-40 0 -61 -30t-21 -85q0 -56 21 -86t61 -30zM263 539q-30 0 -52 21.5t-22 52.5t22 53t52 22q31 0 53 -22t22 -53t-22 -52.5t-53 -21.5z" />
    <glyph glyph-name="Gcommaaccent" unicode="&#x122;" horiz-adv-x="598" 
d="M389 -139q0 -92 -86 -154l-48 38q21 11 40.5 33.5t24.5 43.5q-6 -2 -16 -2q-24 0 -41 17t-17 43q0 28 20 48t48 20q31 0 53 -23.5t22 -63.5zM319 -12q-133 0 -213.5 94.5t-80.5 250.5q0 157 80.5 251t213.5 94q88 0 146.5 -46.5t86.5 -120.5l-132 -59q-13 36 -39 59.5
t-62 23.5q-58 0 -93.5 -52.5t-35.5 -149.5t35.5 -149.5t93.5 -52.5q57 0 89 32v73h-109v142h261v-279q-98 -111 -241 -111z" />
    <glyph glyph-name="gcommaaccent" unicode="&#x123;" horiz-adv-x="516" 
d="M186 612q0 102 83 160l48 -38q-19 -9 -40 -30.5t-24 -41.5h3q2 1 4 1q25 0 45 -18.5t20 -45.5q0 -28 -20 -48t-49 -20q-26 0 -48 19t-22 62zM229 -196q-113 0 -186 63l55 108q49 -50 124 -50q42 0 71.5 25t29.5 80v49q-45 -70 -119 -70q-83 0 -132 62.5t-49 180.5
q0 116 49 179.5t132 63.5q77 0 119 -69v57h144v-450q0 -66 -21 -113t-57.5 -71t-75.5 -34.5t-84 -10.5zM253 136q20 0 40 12.5t30 32.5v142q-10 19 -30 31.5t-40 12.5q-40 0 -61 -30t-21 -85q0 -56 21 -86t61 -30z" />
    <glyph glyph-name="Hcircumflex" unicode="&#x124;" horiz-adv-x="625" 
d="M452 723h-82l-60 83l-57 -83h-82l75 144h128zM571 0h-162v272h-194v-272h-162v667h162v-253h194v253h162v-667z" />
    <glyph glyph-name="hcircumflex" unicode="&#x125;" horiz-adv-x="518" 
d="M399 723h-82l-60 83l-57 -83h-82l75 144h128zM469 0h-144v307q0 60 -57 60q-46 0 -75 -51v-316h-144v667h144v-244q20 29 59 50.5t84 21.5q67 0 100 -35t33 -96v-364z" />
    <glyph glyph-name="Hbar" unicode="&#x126;" horiz-adv-x="645" 
d="M582 0h-162v272h-194v-272h-162v500h-53v81h53v86h162v-86h194v86h162v-86h48v-81h-48v-500zM226 414h194v86h-194v-86z" />
    <glyph glyph-name="hbar" unicode="&#x127;" horiz-adv-x="525" 
d="M332 526h-132v-103q20 29 59 50.5t84 21.5q67 0 100 -35t33 -96v-364h-144v307q0 60 -57 60q-46 0 -75 -51v-316h-144v526h-45v81h45v60h144v-60h132v-81z" />
    <glyph glyph-name="Itilde" unicode="&#x128;" horiz-adv-x="268" 
d="M215 0h-162v667h162v-667zM186 721q-32 0 -61 29.5t-41 29.5q-27 0 -27 -53h-72q0 63 26.5 98.5t75.5 35.5q25 0 44 -15t32.5 -30t24.5 -15q28 0 28 54h71q0 -63 -26.5 -98.5t-74.5 -35.5z" />
    <glyph glyph-name="itilde" unicode="&#x129;" horiz-adv-x="241" 
d="M193 0h-145v483h145v-483zM171 554q-25 0 -44 15t-32.5 29.5t-25.5 14.5q-27 0 -27 -53h-72q0 64 26.5 99t75.5 35q25 0 44 -15t32.5 -30t24.5 -15q28 0 28 54h71q0 -63 -26.5 -98.5t-74.5 -35.5z" />
    <glyph glyph-name="Imacron" unicode="&#x12a;" horiz-adv-x="268" 
d="M215 0h-162v667h162v-667zM291 725h-313v81h313v-81z" />
    <glyph glyph-name="imacron" unicode="&#x12b;" horiz-adv-x="241" 
d="M193 0h-145v483h145v-483zM277 558h-313v81h313v-81z" />
    <glyph glyph-name="Ibreve" unicode="&#x12c;" horiz-adv-x="268" 
d="M215 0h-162v667h162v-667zM287 777q-55 -75 -151 -75q-94 0 -151 75l64 51q31 -46 87 -46q57 0 87 46z" />
    <glyph glyph-name="ibreve" unicode="&#x12d;" horiz-adv-x="241" 
d="M193 0h-145v483h145v-483zM272 610q-55 -75 -151 -75q-94 0 -151 75l64 51q31 -46 87 -46q57 0 87 46z" />
    <glyph glyph-name="Iogonek" unicode="&#x12e;" horiz-adv-x="268" 
d="M213 -99l56 -33q-29 -54 -88 -54q-42 0 -68.5 22.5t-26.5 66.5q0 55 41 97h-74v667h162v-667q-60 -37 -60 -92q0 -36 27 -36q22 0 31 29z" />
    <glyph glyph-name="iogonek" unicode="&#x12f;" horiz-adv-x="241" 
d="M191 -99l56 -33q-29 -54 -88 -54q-42 0 -68.5 22.5t-26.5 66.5q0 55 41 97h-57v483h145v-483q-60 -37 -60 -92q0 -36 27 -36q22 0 31 29zM121 529q-35 0 -59.5 24.5t-24.5 59.5t24.5 59.5t59.5 24.5t59 -24.5t24 -59.5t-24.5 -59.5t-58.5 -24.5z" />
    <glyph glyph-name="Idotaccent" unicode="&#x130;" horiz-adv-x="268" 
d="M215 0h-162v667h162v-667zM135 706q-30 0 -52 21.5t-22 52.5t22 53t52 22q31 0 53 -22t22 -53t-22 -52.5t-53 -21.5z" />
    <glyph glyph-name="dotlessi" unicode="&#x131;" horiz-adv-x="241" 
d="M193 0h-145v483h145v-483z" />
    <glyph glyph-name="IJ" unicode="&#x132;" horiz-adv-x="695" 
d="M215 0h-162v667h162v-667zM420 -12q-91 0 -146 46l54 127q35 -30 76 -30q35 0 56 20.5t21 57.5v458h161v-463q0 -108 -59.5 -162t-162.5 -54z" />
    <glyph glyph-name="ij" unicode="&#x133;" horiz-adv-x="482" 
d="M121 529q-35 0 -59.5 24.5t-24.5 59.5t24.5 59.5t59.5 24.5t59 -24.5t24 -59.5t-24.5 -59.5t-58.5 -24.5zM193 0h-145v483h145v-483zM362 529q-35 0 -59.5 24.5t-24.5 59.5t24.5 59.5t59.5 24.5t59 -24.5t24 -59.5t-24.5 -59.5t-58.5 -24.5zM266 -196q-58 0 -98 27
l33 110q17 -16 43 -16q45 0 45 63v495h145v-495q0 -87 -41.5 -135.5t-126.5 -48.5z" />
    <glyph glyph-name="Jcircumflex" unicode="&#x134;" horiz-adv-x="427" 
d="M435 723h-82l-60 83l-57 -83h-82l75 144h128zM152 -12q-91 0 -146 46l54 127q35 -30 76 -30q35 0 56 20.5t21 57.5v458h161v-463q0 -108 -59.5 -162t-162.5 -54z" />
    <glyph glyph-name="jcircumflex" unicode="&#x135;" horiz-adv-x="241" 
d="M263 556h-82l-60 83l-57 -83h-82l75 144h128zM21 -196q-57 0 -94 27l33 115q19 -16 43 -16q45 0 45 58v495h145v-495q0 -184 -172 -184z" />
    <glyph glyph-name="Kcommaaccent" unicode="&#x136;" horiz-adv-x="583" 
d="M367 -139q0 -92 -86 -154l-48 38q21 11 40.5 33.5t24.5 43.5q-6 -2 -16 -2q-24 0 -41 17t-17 43q0 28 20 48t48 20q31 0 53 -23.5t22 -63.5zM581 0h-191l-133 244l-42 -70v-174h-162v667h162v-282l165 282h188l-209 -312z" />
    <glyph glyph-name="kcommaaccent" unicode="&#x137;" horiz-adv-x="485" 
d="M319 -139q0 -92 -86 -154l-48 38q21 11 40.5 33.5t24.5 43.5q-6 -2 -16 -2q-24 0 -41 17t-17 43q0 28 20 48t48 20q31 0 53 -23.5t22 -63.5zM488 0h-169l-84 175l-42 -63v-112h-145v667h145v-381l120 197h167l-145 -217z" />
    <glyph glyph-name="kgreenlandic" unicode="&#x138;" horiz-adv-x="485" 
d="M488 0h-169l-84 175l-42 -63v-112h-145v483h145v-197l120 197h167l-145 -217z" />
    <glyph glyph-name="Lacute" unicode="&#x139;" horiz-adv-x="455" 
d="M412 867l-134 -144h-94l103 144h125zM430 0h-377v667h162v-526h215v-141z" />
    <glyph glyph-name="lacute" unicode="&#x13a;" horiz-adv-x="241" 
d="M292 867l-134 -144h-94l103 144h125zM193 0h-145v667h145v-667z" />
    <glyph glyph-name="Lcommaaccent" unicode="&#x13b;" horiz-adv-x="455" 
d="M302 -139q0 -92 -86 -154l-48 38q21 11 40.5 33.5t24.5 43.5q-6 -2 -16 -2q-25 0 -41.5 17t-16.5 43q0 28 20 48t48 20q31 0 53 -23.5t22 -63.5zM430 0h-377v667h162v-526h215v-141z" />
    <glyph glyph-name="lcommaaccent" unicode="&#x13c;" horiz-adv-x="241" 
d="M197 -139q0 -92 -86 -154l-48 38q21 11 40.5 33.5t24.5 43.5q-6 -2 -16 -2q-24 0 -41 17t-17 43q0 28 20 48t48 20q31 0 53 -23.5t22 -63.5zM193 0h-145v667h145v-667z" />
    <glyph glyph-name="Lcaron" unicode="&#x13d;" horiz-adv-x="455" 
d="M416 593q0 -92 -86 -154l-48 38q21 11 40.5 33.5t24.5 43.5q-6 -2 -16 -2q-25 0 -41.5 17t-16.5 43q0 28 20 48t48 20q31 0 53 -23.5t22 -63.5zM430 0h-377v667h162v-526h215v-141z" />
    <glyph glyph-name="lcaron" unicode="&#x13e;" horiz-adv-x="365" 
d="M382 593q0 -92 -86 -154l-48 38q21 11 40.5 33.5t24.5 43.5q-6 -2 -16 -2q-25 0 -41.5 17t-16.5 43q0 28 20 48t48 20q31 0 53 -23.5t22 -63.5zM193 0h-145v667h145v-667z" />
    <glyph glyph-name="Ldot" unicode="&#x13f;" horiz-adv-x="516" 
d="M430 0h-377v667h162v-526h215v-141zM482 342q0 -36 -26 -62.5t-63 -26.5t-63 26.5t-26 62.5q0 37 26 63.5t63 26.5t63 -26.5t26 -63.5z" />
    <glyph glyph-name="ldot" unicode="&#x140;" horiz-adv-x="407" 
d="M193 0h-145v667h145v-667zM413 244q0 -36 -26 -62.5t-63 -26.5t-63 26.5t-26 62.5q0 37 26 63.5t63 26.5t63 -26.5t26 -63.5z" />
    <glyph glyph-name="Lslash" unicode="&#x141;" horiz-adv-x="464" 
d="M11 191v130l52 30v316h162v-222l62 36v-131l-62 -36v-173h215v-141h-377v221z" />
    <glyph glyph-name="lslash" unicode="&#x142;" horiz-adv-x="285" 
d="M11 206v104l59 34v323h145v-239l59 34v-104l-59 -34v-324h-145v240z" />
    <glyph glyph-name="Nacute" unicode="&#x143;" horiz-adv-x="624" 
d="M482 867l-134 -144h-94l103 144h125zM570 0h-153l-202 351v-351h-162v667h165l191 -334v334h161v-667z" />
    <glyph glyph-name="nacute" unicode="&#x144;" 
d="M429 700l-134 -144h-94l103 144h125zM469 0h-145v305q0 62 -56 62q-46 0 -75 -51v-316h-145v483h145v-60q20 29 58.5 50.5t83.5 21.5q67 0 100.5 -36t33.5 -97v-362z" />
    <glyph glyph-name="Ncommaaccent" unicode="&#x145;" horiz-adv-x="624" 
d="M387 -139q0 -92 -86 -154l-48 38q21 11 40.5 33.5t24.5 43.5q-6 -2 -16 -2q-24 0 -41 17t-17 43q0 28 20 48t48 20q31 0 53 -23.5t22 -63.5zM570 0h-153l-202 351v-351h-162v667h165l191 -334v334h161v-667z" />
    <glyph glyph-name="ncommaaccent" unicode="&#x146;" 
d="M333 -139q0 -92 -86 -154l-48 38q21 11 40.5 33.5t24.5 43.5q-6 -2 -16 -2q-24 0 -41 17t-17 43q0 28 20 48t48 20q31 0 53 -23.5t22 -63.5zM469 0h-145v305q0 62 -56 62q-46 0 -75 -51v-316h-145v483h145v-60q20 29 58.5 50.5t83.5 21.5q67 0 100.5 -36t33.5 -97v-362z
" />
    <glyph glyph-name="Ncaron" unicode="&#x147;" horiz-adv-x="624" 
d="M376 723h-128l-78 144h82l60 -84l57 84h82zM570 0h-153l-202 351v-351h-162v667h165l191 -334v334h161v-667z" />
    <glyph glyph-name="ncaron" unicode="&#x148;" 
d="M324 556h-128l-78 144h82l60 -84l57 84h82zM469 0h-145v305q0 62 -56 62q-46 0 -75 -51v-316h-145v483h145v-60q20 29 58.5 50.5t83.5 21.5q67 0 100.5 -36t33.5 -97v-362z" />
    <glyph glyph-name="napostrophe" unicode="&#x149;" 
d="M173 684q0 -92 -86 -154l-48 38q21 11 40.5 33.5t24.5 43.5q-6 -2 -16 -2q-24 0 -41 16.5t-17 43.5q0 28 20 48t48 20q31 0 53 -23.5t22 -63.5zM469 0h-145v305q0 62 -56 62q-46 0 -75 -51v-316h-145v483h145v-60q20 29 58.5 50.5t83.5 21.5q67 0 100.5 -36t33.5 -97
v-362z" />
    <glyph glyph-name="Eng" unicode="&#x14a;" horiz-adv-x="624" 
d="M348 -196q-90 0 -147 46l55 126q34 -31 76 -31q32 0 53 18.5t24 50.5l-194 344v-358h-162v667h165l191 -341v341h161v-647q0 -108 -59.5 -162t-162.5 -54z" />
    <glyph glyph-name="eng" unicode="&#x14b;" 
d="M469 362v-374q0 -184 -172 -184q-57 0 -94 27l32 117q19 -16 44 -16q45 0 45 56v317q0 62 -56 62q-46 0 -75 -51v-316h-145v483h145v-60q20 29 58.5 50.5t83.5 21.5q67 0 100.5 -36t33.5 -97z" />
    <glyph glyph-name="Omacron" unicode="&#x14c;" horiz-adv-x="633" 
d="M472 725h-313v81h313v-81zM316 -12q-133 0 -212 96t-79 249t79 249t212 96t212 -96t79 -249t-79 -249t-212 -96zM316 131q60 0 93.5 56.5t33.5 145.5q0 90 -33.5 146t-93.5 56q-59 0 -92.5 -56t-33.5 -146q0 -89 33.5 -145.5t92.5 -56.5z" />
    <glyph glyph-name="omacron" unicode="&#x14d;" horiz-adv-x="505" 
d="M409 558h-313v81h313v-81zM252 -12q-108 0 -168.5 73.5t-60.5 180.5t60.5 180t168.5 73t169 -73t61 -180t-61 -180.5t-169 -73.5zM252 116q40 0 60.5 35t20.5 91t-20.5 90.5t-60.5 34.5q-39 0 -59.5 -34.5t-20.5 -90.5t20 -91t60 -35z" />
    <glyph glyph-name="Obreve" unicode="&#x14e;" horiz-adv-x="633" 
d="M316 -12q-133 0 -212 96t-79 249t79 249t212 96t212 -96t79 -249t-79 -249t-212 -96zM316 131q60 0 93.5 56.5t33.5 145.5q0 90 -33.5 146t-93.5 56q-59 0 -92.5 -56t-33.5 -146q0 -89 33.5 -145.5t92.5 -56.5zM468 777q-55 -75 -151 -75q-94 0 -151 75l64 51
q31 -46 87 -46q57 0 87 46z" />
    <glyph glyph-name="obreve" unicode="&#x14f;" horiz-adv-x="505" 
d="M252 -12q-108 0 -168.5 73.5t-60.5 180.5t60.5 180t168.5 73t169 -73t61 -180t-61 -180.5t-169 -73.5zM252 116q40 0 60.5 35t20.5 91t-20.5 90.5t-60.5 34.5q-39 0 -59.5 -34.5t-20.5 -90.5t20 -91t60 -35zM403 610q-55 -75 -151 -75q-94 0 -151 75l64 51q31 -46 87 -46
q57 0 87 46z" />
    <glyph glyph-name="Ohungarumlaut" unicode="&#x150;" horiz-adv-x="633" 
d="M372 867l-99 -144h-78l68 144h109zM515 867l-99 -144h-78l68 144h109zM316 -12q-133 0 -212 96t-79 249t79 249t212 96t212 -96t79 -249t-79 -249t-212 -96zM316 131q60 0 93.5 56.5t33.5 145.5q0 90 -33.5 146t-93.5 56q-59 0 -92.5 -56t-33.5 -146q0 -89 33.5 -145.5
t92.5 -56.5z" />
    <glyph glyph-name="ohungarumlaut" unicode="&#x151;" horiz-adv-x="505" 
d="M308 700l-99 -144h-78l68 144h109zM451 700l-99 -144h-78l68 144h109zM252 -12q-108 0 -168.5 73.5t-60.5 180.5t60.5 180t168.5 73t169 -73t61 -180t-61 -180.5t-169 -73.5zM252 116q40 0 60.5 35t20.5 91t-20.5 90.5t-60.5 34.5q-39 0 -59.5 -34.5t-20.5 -90.5t20 -91
t60 -35z" />
    <glyph glyph-name="OE" unicode="&#x152;" horiz-adv-x="862" 
d="M832 0h-401v50q-23 -30 -62 -46t-78 -16q-122 0 -194 95.5t-72 249.5t72 249t194 95q39 0 78 -15.5t62 -44.5v50h401v-141h-240v-117h233v-141h-233v-127h240v-141zM431 215v236q-32 83 -111 83q-63 0 -96.5 -55.5t-33.5 -145.5t33.5 -146t96.5 -56q36 0 65.5 22t45.5 62
z" />
    <glyph glyph-name="oe" unicode="&#x153;" horiz-adv-x="794" 
d="M775 195h-297q6 -40 32.5 -66.5t74.5 -26.5q56 0 97 41l65 -86q-32 -33 -80.5 -51t-99.5 -18q-99 0 -160 85q-60 -85 -155 -85q-108 0 -168.5 73.5t-60.5 180.5t60.5 180t168.5 73q95 0 155 -84q57 84 152 84q100 0 158 -72t58 -189v-39zM477 292h160q-2 35 -20.5 62
t-59.5 27q-39 0 -58 -27t-22 -62zM333 242q0 57 -21 91t-60 34t-59.5 -34t-20.5 -91q0 -58 20.5 -92.5t59.5 -34.5t60 34.5t21 92.5z" />
    <glyph glyph-name="Racute" unicode="&#x154;" horiz-adv-x="573" 
d="M465 867l-134 -144h-94l103 144h125zM543 0h-180l-88 229h-60v-229h-162v667h272q96 0 154.5 -61.5t58.5 -155.5q0 -77 -31.5 -124.5t-76.5 -67.5zM300 370q33 0 53.5 21t20.5 57t-20.5 57t-53.5 21h-85v-156h85z" />
    <glyph glyph-name="racute" unicode="&#x155;" horiz-adv-x="335" 
d="M355 700l-134 -144h-94l103 144h125zM193 0h-145v483h145v-61q19 31 56.5 52.5t72.5 21.5v-140q-16 4 -31 4q-27 0 -55 -13.5t-43 -34.5v-312z" />
    <glyph glyph-name="Rcommaaccent" unicode="&#x156;" horiz-adv-x="573" 
d="M363 -139q0 -92 -86 -154l-48 38q21 11 40.5 33.5t24.5 43.5q-6 -2 -16 -2q-24 0 -41 17t-17 43q0 28 20 48t48 20q31 0 53 -23.5t22 -63.5zM543 0h-180l-88 229h-60v-229h-162v667h272q96 0 154.5 -61.5t58.5 -155.5q0 -77 -31.5 -124.5t-76.5 -67.5zM300 370
q33 0 53.5 21t20.5 57t-20.5 57t-53.5 21h-85v-156h85z" />
    <glyph glyph-name="rcommaaccent" unicode="&#x157;" horiz-adv-x="335" 
d="M243 -139q0 -92 -86 -154l-48 38q21 11 40.5 33.5t24.5 43.5q-6 -2 -16 -2q-24 0 -41 17t-17 43q0 28 20 48t48 20q31 0 53 -23.5t22 -63.5zM193 0h-145v483h145v-61q19 31 56.5 52.5t72.5 21.5v-140q-16 4 -31 4q-27 0 -55 -13.5t-43 -34.5v-312z" />
    <glyph glyph-name="Rcaron" unicode="&#x158;" horiz-adv-x="573" 
d="M353 723h-128l-78 144h82l60 -84l57 84h82zM543 0h-180l-88 229h-60v-229h-162v667h272q96 0 154.5 -61.5t58.5 -155.5q0 -77 -31.5 -124.5t-76.5 -67.5zM300 370q33 0 53.5 21t20.5 57t-20.5 57t-53.5 21h-85v-156h85z" />
    <glyph glyph-name="rcaron" unicode="&#x159;" horiz-adv-x="335" 
d="M249 556h-128l-78 144h82l60 -84l57 84h82zM193 0h-145v483h145v-61q19 31 56.5 52.5t72.5 21.5v-140q-16 4 -31 4q-27 0 -55 -13.5t-43 -34.5v-312z" />
    <glyph glyph-name="Sacute" unicode="&#x15a;" horiz-adv-x="511" 
d="M428 867l-134 -144h-94l103 144h125zM251 -12q-151 0 -241 87l77 124q66 -71 163 -71q35 0 55.5 16t20.5 41q0 22 -22 38.5t-55 27t-71 27.5t-71 38t-55 61.5t-22 95.5q0 85 63 145t171 60q129 0 214 -76l-75 -120q-59 55 -145 55q-30 0 -46.5 -14t-16.5 -37
q0 -20 22 -36t54.5 -27t71 -29t71 -39t54.5 -61t22 -93q0 -97 -63.5 -155t-175.5 -58z" />
    <glyph glyph-name="sacute" unicode="&#x15b;" horiz-adv-x="424" 
d="M384 700l-134 -144h-94l103 144h125zM210 -12q-61 0 -114 19t-84 50l58 99q25 -23 64 -40t73 -17q60 0 60 39q0 17 -24.5 27.5t-59.5 19.5t-70 23.5t-59.5 49t-24.5 85.5q0 64 50 108t138 44q100 0 178 -61l-56 -97q-20 20 -53 34t-68 14q-23 0 -38 -10t-15 -24
q0 -15 24.5 -25.5t60 -20t71 -25t60 -50t24.5 -86.5q0 -69 -53.5 -112.5t-141.5 -43.5z" />
    <glyph glyph-name="Scircumflex" unicode="&#x15c;" horiz-adv-x="511" 
d="M403 723h-82l-60 83l-57 -83h-82l75 144h128zM251 -12q-151 0 -241 87l77 124q66 -71 163 -71q35 0 55.5 16t20.5 41q0 22 -22 38.5t-55 27t-71 27.5t-71 38t-55 61.5t-22 95.5q0 85 63 145t171 60q129 0 214 -76l-75 -120q-59 55 -145 55q-30 0 -46.5 -14t-16.5 -37
q0 -20 22 -36t54.5 -27t71 -29t71 -39t54.5 -61t22 -93q0 -97 -63.5 -155t-175.5 -58z" />
    <glyph glyph-name="scircumflex" unicode="&#x15d;" horiz-adv-x="424" 
d="M354 556h-82l-60 83l-57 -83h-82l75 144h128zM210 -12q-61 0 -114 19t-84 50l58 99q25 -23 64 -40t73 -17q60 0 60 39q0 17 -24.5 27.5t-59.5 19.5t-70 23.5t-59.5 49t-24.5 85.5q0 64 50 108t138 44q100 0 178 -61l-56 -97q-20 20 -53 34t-68 14q-23 0 -38 -10t-15 -24
q0 -15 24.5 -25.5t60 -20t71 -25t60 -50t24.5 -86.5q0 -69 -53.5 -112.5t-141.5 -43.5z" />
    <glyph glyph-name="Scedilla" unicode="&#x15e;" horiz-adv-x="511" 
d="M242 -197q-64 0 -102 33l26 54q37 -29 72 -29q18 0 30.5 8t12.5 22q0 23 -23 23q-16 0 -27 -13l-50 29l23 60q-120 13 -194 85l77 124q66 -71 163 -71q35 0 55.5 16t20.5 41q0 22 -22 38.5t-55 27t-71 27.5t-71 38t-55 61.5t-22 95.5q0 85 63 145t171 60q129 0 214 -76
l-75 -120q-59 55 -145 55q-30 0 -46.5 -14t-16.5 -37q0 -20 22 -36t54.5 -27t71 -29t71 -39t54.5 -61t22 -93q0 -92 -58.5 -149.5t-161.5 -62.5l-16 -39q17 10 32 10q27 0 45.5 -20t18.5 -51q0 -40 -30.5 -63t-77.5 -23z" />
    <glyph glyph-name="scedilla" unicode="&#x15f;" horiz-adv-x="424" 
d="M206 -197q-64 0 -102 33l26 54q37 -29 72 -29q18 0 30.5 8t12.5 22q0 23 -23 23q-16 0 -27 -13l-50 29l23 61q-101 11 -156 66l58 99q25 -23 64 -40t73 -17q60 0 60 39q0 17 -24.5 27.5t-59.5 19.5t-70 23.5t-59.5 49t-24.5 85.5q0 64 50 108t138 44q100 0 178 -61
l-56 -97q-20 20 -53 34t-68 14q-23 0 -38 -10t-15 -24q0 -15 24.5 -25.5t60 -20t71 -25t60 -50t24.5 -86.5q0 -64 -46.5 -106t-124.5 -49l-16 -39q17 10 32 10q27 0 45.5 -20t18.5 -51q0 -40 -30.5 -63t-77.5 -23z" />
    <glyph glyph-name="Scaron" unicode="&#x160;" horiz-adv-x="511" 
d="M328 723h-128l-78 144h82l60 -84l57 84h82zM251 -12q-151 0 -241 87l77 124q66 -71 163 -71q35 0 55.5 16t20.5 41q0 22 -22 38.5t-55 27t-71 27.5t-71 38t-55 61.5t-22 95.5q0 85 63 145t171 60q129 0 214 -76l-75 -120q-59 55 -145 55q-30 0 -46.5 -14t-16.5 -37
q0 -20 22 -36t54.5 -27t71 -29t71 -39t54.5 -61t22 -93q0 -97 -63.5 -155t-175.5 -58z" />
    <glyph glyph-name="scaron" unicode="&#x161;" horiz-adv-x="424" 
d="M279 556h-128l-78 144h82l60 -84l57 84h82zM210 -12q-61 0 -114 19t-84 50l58 99q25 -23 64 -40t73 -17q60 0 60 39q0 17 -24.5 27.5t-59.5 19.5t-70 23.5t-59.5 49t-24.5 85.5q0 64 50 108t138 44q100 0 178 -61l-56 -97q-20 20 -53 34t-68 14q-23 0 -38 -10t-15 -24
q0 -15 24.5 -25.5t60 -20t71 -25t60 -50t24.5 -86.5q0 -69 -53.5 -112.5t-141.5 -43.5z" />
    <glyph glyph-name="Tcommaaccent" unicode="&#x162;" horiz-adv-x="487" 
d="M319 -139q0 -92 -86 -154l-48 38q21 11 40.5 33.5t24.5 43.5q-6 -2 -16 -2q-24 0 -41 17t-17 43q0 28 20 48t48 20q31 0 53 -23.5t22 -63.5zM325 0h-162v526h-143v141h447v-141h-142v-526z" />
    <glyph glyph-name="tcommaaccent" unicode="&#x163;" horiz-adv-x="315" 
d="M233 -139q0 -92 -86 -154l-48 38q21 11 40.5 33.5t24.5 43.5q-6 -2 -16 -2q-24 0 -41 17t-17 43q0 28 20 48t48 20q31 0 53 -23.5t22 -63.5zM209 -12q-137 0 -137 137v232h-61v126h61v132h145v-132h78v-126h-78v-196q0 -45 33 -45q22 0 33 11l26 -112q-32 -27 -100 -27z
" />
    <glyph glyph-name="Tcaron" unicode="&#x164;" horiz-adv-x="487" 
d="M309 723h-128l-78 144h82l60 -84l57 84h82zM325 0h-162v526h-143v141h447v-141h-142v-526z" />
    <glyph glyph-name="tcaron" unicode="&#x165;" horiz-adv-x="342" 
d="M398 684q0 -92 -86 -154l-48 38q21 11 40.5 33.5t24.5 43.5q-6 -2 -16 -2q-25 0 -41.5 16.5t-16.5 43.5q0 28 20 48t48 20q31 0 53 -23.5t22 -63.5zM209 -12q-137 0 -137 137v232h-61v126h61v132h145v-132h78v-126h-78v-196q0 -45 33 -45q22 0 33 11l26 -112
q-32 -27 -100 -27z" />
    <glyph glyph-name="Tbar" unicode="&#x166;" horiz-adv-x="487" 
d="M325 0h-162v253h-96v81h96v192h-143v141h447v-141h-142v-192h93v-81h-93v-253z" />
    <glyph glyph-name="tbar" unicode="&#x167;" horiz-adv-x="315" 
d="M209 -12q-137 0 -137 137v78h-61v81h61v73h-61v126h61v132h145v-132h78v-126h-78v-73h49v-81h-49v-42q0 -45 33 -45q22 0 33 11l26 -112q-32 -27 -100 -27z" />
    <glyph glyph-name="Utilde" unicode="&#x168;" horiz-adv-x="629" 
d="M315 -12q-121 0 -191.5 66t-70.5 183v430h163v-431q0 -51 25.5 -78.5t73.5 -27.5q47 0 72.5 28t25.5 78v431h163v-430q0 -117 -70.5 -183t-190.5 -66zM366 721q-32 0 -61 29.5t-41 29.5q-27 0 -27 -53h-72q0 63 26.5 98.5t75.5 35.5q25 0 44 -15t32.5 -30t24.5 -15
q28 0 28 54h71q0 -63 -26.5 -98.5t-74.5 -35.5z" />
    <glyph glyph-name="utilde" unicode="&#x169;" 
d="M468 0h-144v58q-21 -29 -59 -49.5t-84 -20.5q-67 0 -100 35t-33 96v364h145v-306q0 -61 56 -61q47 0 75 50v317h144v-483zM308 554q-32 0 -61 29.5t-41 29.5q-27 0 -27 -53h-72q0 64 26.5 99t75.5 35q25 0 44 -15t32.5 -30t24.5 -15q28 0 28 54h71q0 -63 -26.5 -98.5
t-74.5 -35.5z" />
    <glyph glyph-name="Umacron" unicode="&#x16a;" horiz-adv-x="629" 
d="M315 -12q-121 0 -191.5 66t-70.5 183v430h163v-431q0 -51 25.5 -78.5t73.5 -27.5q47 0 72.5 28t25.5 78v431h163v-430q0 -117 -70.5 -183t-190.5 -66zM472 725h-313v81h313v-81z" />
    <glyph glyph-name="umacron" unicode="&#x16b;" 
d="M468 0h-144v58q-21 -29 -59 -49.5t-84 -20.5q-67 0 -100 35t-33 96v364h145v-306q0 -61 56 -61q47 0 75 50v317h144v-483zM414 558h-313v81h313v-81z" />
    <glyph glyph-name="Ubreve" unicode="&#x16c;" horiz-adv-x="629" 
d="M315 -12q-121 0 -191.5 66t-70.5 183v430h163v-431q0 -51 25.5 -78.5t73.5 -27.5q47 0 72.5 28t25.5 78v431h163v-430q0 -117 -70.5 -183t-190.5 -66zM467 777q-55 -75 -151 -75q-94 0 -151 75l64 51q31 -46 87 -46q57 0 87 46z" />
    <glyph glyph-name="ubreve" unicode="&#x16d;" 
d="M468 0h-144v58q-21 -29 -59 -49.5t-84 -20.5q-67 0 -100 35t-33 96v364h145v-306q0 -61 56 -61q47 0 75 50v317h144v-483zM410 610q-55 -75 -151 -75q-94 0 -151 75l64 51q31 -46 87 -46q57 0 87 46z" />
    <glyph glyph-name="Uring" unicode="&#x16e;" horiz-adv-x="629" 
d="M316 690q-41 0 -70.5 30t-29.5 71t29.5 70.5t70.5 29.5t70 -29.5t29 -70.5t-29 -71t-70 -30zM316 753q16 0 26.5 11t10.5 27t-10.5 27t-26.5 11q-15 0 -26.5 -11t-11.5 -27t11.5 -27t26.5 -11zM315 -12q-121 0 -191.5 66t-70.5 183v430h163v-431q0 -51 25.5 -78.5
t73.5 -27.5q47 0 72.5 28t25.5 78v431h163v-430q0 -117 -70.5 -183t-190.5 -66z" />
    <glyph glyph-name="uring" unicode="&#x16f;" 
d="M259 528q-41 0 -70.5 30t-29.5 71t29.5 70.5t70.5 29.5t70 -29.5t29 -70.5t-29 -71t-70 -30zM259 591q16 0 26.5 11t10.5 27t-10.5 27t-26.5 11q-15 0 -26.5 -11t-11.5 -27t11.5 -27t26.5 -11zM468 0h-144v58q-21 -29 -59 -49.5t-84 -20.5q-67 0 -100 35t-33 96v364h145
v-306q0 -61 56 -61q47 0 75 50v317h144v-483z" />
    <glyph glyph-name="Uhungarumlaut" unicode="&#x170;" horiz-adv-x="629" 
d="M315 -12q-121 0 -191.5 66t-70.5 183v430h163v-431q0 -51 25.5 -78.5t73.5 -27.5q47 0 72.5 28t25.5 78v431h163v-430q0 -117 -70.5 -183t-190.5 -66zM372 867l-99 -144h-78l68 144h109zM515 867l-99 -144h-78l68 144h109z" />
    <glyph glyph-name="uhungarumlaut" unicode="&#x171;" 
d="M468 0h-144v58q-21 -29 -59 -49.5t-84 -20.5q-67 0 -100 35t-33 96v364h145v-306q0 -61 56 -61q47 0 75 50v317h144v-483zM314 700l-99 -144h-78l68 144h109zM457 700l-99 -144h-78l68 144h109z" />
    <glyph glyph-name="Uogonek" unicode="&#x172;" horiz-adv-x="629" 
d="M406 -99l56 -33q-29 -54 -88 -54q-42 0 -68.5 22.5t-26.5 66.5q0 47 31 85q-119 2 -188 67.5t-69 181.5v430h163v-431q0 -51 25.5 -78.5t73.5 -27.5q47 0 72.5 28t25.5 78v431h163v-430q0 -92 -44.5 -153.5t-123.5 -83.5q-60 -37 -60 -92q0 -36 27 -36q22 0 31 29z" />
    <glyph glyph-name="uogonek" unicode="&#x173;" 
d="M468 0q-60 -37 -60 -92q0 -36 27 -36q22 0 31 29l56 -33q-29 -54 -88 -54q-42 0 -68.5 22.5t-26.5 66.5q0 55 41 97h-56v58q-21 -29 -59 -49.5t-84 -20.5q-67 0 -100 35t-33 96v364h145v-306q0 -61 56 -61q47 0 75 50v317h144v-483z" />
    <glyph glyph-name="Wcircumflex" unicode="&#x174;" horiz-adv-x="793" 
d="M537 723h-82l-60 83l-57 -83h-82l75 144h128zM638 0h-167l-75 403l-74 -403h-167l-154 667h173l74 -425l87 425h124l86 -425l74 425h173z" />
    <glyph glyph-name="wcircumflex" unicode="&#x175;" horiz-adv-x="714" 
d="M498 556h-82l-60 83l-57 -83h-82l75 144h128zM588 0h-154l-77 299l-77 -299h-154l-128 483h148l67 -299l76 299h132l79 -299l67 299h150z" />
    <glyph glyph-name="Ycircumflex" unicode="&#x176;" horiz-adv-x="557" 
d="M420 723h-82l-60 83l-57 -83h-82l75 144h128zM360 0h-162v271l-206 396h177l110 -248l109 248h177l-205 -396v-271z" />
    <glyph glyph-name="ycircumflex" unicode="&#x177;" horiz-adv-x="466" 
d="M45 -188l20 127q11 -7 30 -7q42 0 52 28l11 31l-164 492h153l85 -309l87 309h153l-187 -555q-23 -70 -65 -96.5t-112 -27.5q-41 0 -63 8zM374 556h-82l-60 83l-57 -83h-82l75 144h128z" />
    <glyph glyph-name="Ydieresis" unicode="&#x178;" horiz-adv-x="557" 
d="M452 780q0 -31 -22 -52.5t-54 -21.5q-30 0 -52 21.5t-22 52.5t22 53t52 22q32 0 54 -22t22 -53zM257 780q0 -31 -21.5 -52.5t-52.5 -21.5t-53 21.5t-22 52.5q0 32 22 53.5t53 21.5t52.5 -21.5t21.5 -53.5zM360 0h-162v271l-206 396h177l110 -248l109 248h177l-205 -396
v-271z" />
    <glyph glyph-name="Zacute" unicode="&#x179;" horiz-adv-x="495" 
d="M402 867l-134 -144h-94l103 144h125zM462 0h-429v132l223 394h-223v141h422v-129l-225 -397h232v-141z" />
    <glyph glyph-name="zacute" unicode="&#x17a;" horiz-adv-x="417" 
d="M379 700l-134 -144h-94l103 144h125zM387 0h-357v107l167 250h-167v126h353v-103l-169 -254h173v-126z" />
    <glyph glyph-name="Zdotaccent" unicode="&#x17b;" horiz-adv-x="495" 
d="M462 0h-429v132l223 394h-223v141h422v-129l-225 -397h232v-141zM243 706q-30 0 -52 21.5t-22 52.5t22 53t52 22q31 0 53 -22t22 -53t-22 -52.5t-53 -21.5z" />
    <glyph glyph-name="zdotaccent" unicode="&#x17c;" horiz-adv-x="417" 
d="M387 0h-357v107l167 250h-167v126h353v-103l-169 -254h173v-126zM206 539q-30 0 -52 21.5t-22 52.5t22 53t52 22q31 0 53 -22t22 -53t-22 -52.5t-53 -21.5z" />
    <glyph glyph-name="Zcaron" unicode="&#x17d;" horiz-adv-x="495" 
d="M312 723h-128l-78 144h82l60 -84l57 84h82zM462 0h-429v132l223 394h-223v141h422v-129l-225 -397h232v-141z" />
    <glyph glyph-name="zcaron" unicode="&#x17e;" horiz-adv-x="417" 
d="M270 556h-128l-78 144h82l60 -84l57 84h82zM387 0h-357v107l167 250h-167v126h353v-103l-169 -254h173v-126z" />
    <glyph glyph-name="longs" unicode="&#x17f;" horiz-adv-x="306" 
d="M218 0h-145v357h-62v126h62v29q0 77 42 121t116 44q77 0 115 -37l-43 -97q-17 17 -42 17q-19 0 -31 -13t-12 -35v-512z" />
    <glyph glyph-name="florin" unicode="&#x192;" horiz-adv-x="440" 
d="M168 -161h-164l87 395h-43v126h71l36 164q15 68 69 110.5t122 42.5q72 0 109 -34l-50 -123q-16 16 -37 16q-20 0 -35.5 -14t-20.5 -38l-28 -124h87v-126h-115z" />
    <glyph glyph-name="Ohorn" unicode="&#x1a0;" horiz-adv-x="633" 
d="M316 -12q-133 0 -212 96t-79 249t79 249t212 96q136 0 217 -102q30 27 38 56q-3 -3 -15 -3q-21 0 -36 15.5t-15 39.5q0 25 17.5 42.5t42.5 17.5q28 0 47.5 -21.5t19.5 -56.5q0 -80 -71 -134q46 -84 46 -199q0 -153 -79 -249t-212 -96zM316 131q60 0 93.5 56.5t33.5 145.5
q0 90 -33.5 146t-93.5 56q-59 0 -92.5 -56t-33.5 -146q0 -89 33.5 -145.5t92.5 -56.5z" />
    <glyph glyph-name="ohorn" unicode="&#x1a1;" horiz-adv-x="505" 
d="M497 533q0 -73 -63 -128q48 -67 48 -163q0 -107 -61 -180.5t-169 -73.5t-168.5 73.5t-60.5 180.5t60.5 180t168.5 73q88 0 147 -51q29 26 37 54q-6 -2 -15 -2q-22 0 -36.5 15t-14.5 39q0 25 17.5 42.5t41.5 17.5q28 0 48 -21t20 -56zM252 116q40 0 60.5 35t20.5 91
t-20.5 90.5t-60.5 34.5q-39 0 -59.5 -34.5t-20.5 -90.5t20 -91t60 -35z" />
    <glyph glyph-name="Uhorn" unicode="&#x1af;" horiz-adv-x="629" 
d="M677 726q0 -43 -26 -84.5t-75 -68.5v-336q0 -117 -70.5 -183t-190.5 -66q-121 0 -191.5 66t-70.5 183v430h163v-431q0 -51 25.5 -78.5t73.5 -27.5q47 0 72.5 28t25.5 78v431h163v-34q34 28 40 58q-4 -2 -14 -2q-22 0 -36.5 15t-14.5 39q0 25 17 42.5t42 17.5
q28 0 47.5 -21t19.5 -56z" />
    <glyph glyph-name="uhorn" unicode="&#x1b0;" 
d="M468 0h-144v58q-21 -29 -59 -49.5t-84 -20.5q-67 0 -100 35t-33 96v364h145v-306q0 -61 56 -61q47 0 75 50v317h138q10 15 15 30q-4 -2 -15 -2q-22 0 -36.5 15t-14.5 39q0 25 17.5 42.5t41.5 17.5q28 0 48 -21t20 -56q0 -78 -70 -133v-415z" />
    <glyph glyph-name="AEacute" unicode="&#x1fc;" horiz-adv-x="806" 
d="M627 867l-134 -144h-94l103 144h125zM775 0h-401v102h-165l-42 -102h-175l314 667h469v-141h-239v-117h232v-141h-232v-127h239v-141zM374 243v256l-107 -256h107z" />
    <glyph glyph-name="aeacute" unicode="&#x1fd;" horiz-adv-x="758" 
d="M543 700l-134 -144h-94l103 144h125zM739 195h-289q5 -40 30.5 -65.5t71.5 -25.5q55 0 94 41l65 -88q-32 -33 -79.5 -51t-94.5 -18q-99 0 -158 74q-65 -74 -175 -74q-79 0 -130.5 41t-51.5 116t43.5 116.5t110.5 41.5q39 0 75.5 -14.5t56.5 -39.5v54q0 34 -23.5 54
t-65.5 20q-65 0 -123 -49l-51 97q38 35 91.5 52.5t102.5 17.5q102 0 143 -66q57 66 150 66q95 0 151 -72t56 -189v-39zM449 292h152q-2 35 -19.5 62t-56.5 27q-37 0 -55.5 -27t-20.5 -62zM308 160v10q-24 38 -76 38q-29 0 -48.5 -15.5t-19.5 -40.5q0 -27 18 -41.5t46 -14.5
q33 0 56.5 20t23.5 44z" />
    <glyph glyph-name="Oslashacute" unicode="&#x1fe;" horiz-adv-x="633" 
d="M487 867l-134 -144h-94l103 144h125zM316 -12q-87 0 -153 43l-20 -31h-103l59 89q-74 94 -74 244q0 153 79 249t212 96q82 0 146 -39l19 28h102l-56 -84q80 -94 80 -250q0 -153 -79 -249t-212 -96zM316 131q60 0 93.5 56.5t33.5 145.5q0 54 -14 101l-182 -276
q29 -27 69 -27zM190 333q0 -48 11 -90l178 270q-27 22 -63 22q-59 0 -92.5 -56t-33.5 -146z" />
    <glyph glyph-name="oslashacute" unicode="&#x1ff;" horiz-adv-x="505" 
d="M423 700l-134 -144h-94l103 144h125zM109 0h-81l51 67q-56 71 -56 175q0 107 60.5 180t168.5 73q71 0 125 -35l17 23h82l-51 -67q57 -69 57 -174q0 -107 -61 -180.5t-169 -73.5q-72 0 -126 35zM252 116q40 0 60.5 35t20.5 91q0 22 -5 47l-120 -158q18 -15 44 -15z
M172 242q0 -18 4 -46l119 156q-20 15 -43 15q-39 0 -59.5 -34.5t-20.5 -90.5z" />
    <glyph glyph-name="Scommaaccent" unicode="&#x218;" horiz-adv-x="511" 
d="M328 -139q0 -92 -86 -154l-48 38q21 11 40.5 33.5t24.5 43.5q-6 -2 -16 -2q-25 0 -41.5 17t-16.5 43q0 28 20 48t48 20q31 0 53 -23.5t22 -63.5zM251 -12q-151 0 -241 87l77 124q66 -71 163 -71q35 0 55.5 16t20.5 41q0 22 -22 38.5t-55 27t-71 27.5t-71 38t-55 61.5
t-22 95.5q0 85 63 145t171 60q129 0 214 -76l-75 -120q-59 55 -145 55q-30 0 -46.5 -14t-16.5 -37q0 -20 22 -36t54.5 -27t71 -29t71 -39t54.5 -61t22 -93q0 -97 -63.5 -155t-175.5 -58z" />
    <glyph glyph-name="scommaaccent" unicode="&#x219;" horiz-adv-x="424" 
d="M291 -139q0 -92 -86 -154l-48 38q21 11 40.5 33.5t24.5 43.5q-6 -2 -16 -2q-24 0 -41 17t-17 43q0 28 20 48t48 20q31 0 53 -23.5t22 -63.5zM210 -12q-61 0 -114 19t-84 50l58 99q25 -23 64 -40t73 -17q60 0 60 39q0 17 -24.5 27.5t-59.5 19.5t-70 23.5t-59.5 49
t-24.5 85.5q0 64 50 108t138 44q100 0 178 -61l-56 -97q-20 20 -53 34t-68 14q-23 0 -38 -10t-15 -24q0 -15 24.5 -25.5t60 -20t71 -25t60 -50t24.5 -86.5q0 -69 -53.5 -112.5t-141.5 -43.5z" />
    <glyph glyph-name="uni021A" unicode="&#x21a;" horiz-adv-x="487" 
d="M319 -139q0 -92 -86 -154l-48 38q21 11 40.5 33.5t24.5 43.5q-6 -2 -16 -2q-24 0 -41 17t-17 43q0 28 20 48t48 20q31 0 53 -23.5t22 -63.5zM325 0h-162v526h-143v141h447v-141h-142v-526z" />
    <glyph glyph-name="uni021B" unicode="&#x21b;" horiz-adv-x="315" 
d="M233 -139q0 -92 -86 -154l-48 38q21 11 40.5 33.5t24.5 43.5q-6 -2 -16 -2q-24 0 -41 17t-17 43q0 28 20 48t48 20q31 0 53 -23.5t22 -63.5zM209 -12q-137 0 -137 137v232h-61v126h61v132h145v-132h78v-126h-78v-196q0 -45 33 -45q22 0 33 11l26 -112q-32 -27 -100 -27z
" />
    <glyph glyph-name="uni0237" unicode="&#x237;" horiz-adv-x="241" 
d="M21 -196q-57 0 -94 27l33 115q19 -16 43 -16q45 0 45 58v495h145v-495q0 -184 -172 -184z" />
    <glyph glyph-name="hsuperior" unicode="&#x2b0;" horiz-adv-x="369" 
d="M331 326h-104v195q0 39 -38 39q-28 0 -47 -30v-204h-103v434h103v-157q34 45 96 45q45 0 69 -23t24 -66v-233z" />
    <glyph glyph-name="uni02BC" unicode="&#x2bc;" horiz-adv-x="265" 
d="M227 566q0 -118 -110 -197l-61 50q25 12 50 40.5t32 54.5q-8 -4 -21 -4q-31 0 -52.5 22t-21.5 57q0 37 25.5 62.5t61.5 25.5q40 0 68.5 -30t28.5 -81z" />
    <glyph glyph-name="circumflex" unicode="&#x2c6;" horiz-adv-x="281" 
d="M281 556h-82l-60 83l-57 -83h-82l75 144h128z" />
    <glyph glyph-name="caron" unicode="&#x2c7;" horiz-adv-x="281" 
d="M206 556h-128l-78 144h82l60 -84l57 84h82z" />
    <glyph glyph-name="uni02C9" unicode="&#x2c9;" horiz-adv-x="313" 
d="M313 591h-313v80h313v-80z" />
    <glyph glyph-name="uni02CB" unicode="&#x2cb;" horiz-adv-x="228" 
d="M228 556h-94l-134 144h125z" />
    <glyph glyph-name="breve" unicode="&#x2d8;" horiz-adv-x="302" 
d="M302 610q-55 -75 -151 -75q-94 0 -151 75l64 51q31 -46 87 -46q57 0 87 46z" />
    <glyph glyph-name="dotaccent" unicode="&#x2d9;" horiz-adv-x="194" 
d="M97 539q-30 0 -52 21.5t-22 52.5t22 53t52 22q31 0 53 -22t22 -53t-22 -52.5t-53 -21.5z" />
    <glyph glyph-name="ring" unicode="&#x2da;" horiz-adv-x="199" 
d="M100 528q-41 0 -70.5 30t-29.5 71t29.5 70.5t70.5 29.5t70 -29.5t29 -70.5t-29 -71t-70 -30zM100 591q16 0 26.5 11t10.5 27t-10.5 27t-26.5 11q-15 0 -26.5 -11t-11.5 -27t11.5 -27t26.5 -11z" />
    <glyph glyph-name="ogonek" unicode="&#x2db;" horiz-adv-x="183" 
d="M127 -99l56 -33q-29 -54 -88 -54q-42 0 -68.5 22.5t-26.5 66.5q0 74 80 129l49 -32q-60 -37 -60 -92q0 -36 27 -36q22 0 31 29z" />
    <glyph glyph-name="tilde" unicode="&#x2dc;" horiz-adv-x="302" 
d="M201 554q-25 0 -44 15t-32.5 29.5t-25.5 14.5q-27 0 -27 -53h-72q0 64 26.5 99t75.5 35q25 0 44 -15t32.5 -30t24.5 -15q28 0 28 54h71q0 -63 -26.5 -98.5t-74.5 -35.5z" />
    <glyph glyph-name="hungarumlaut" unicode="&#x2dd;" horiz-adv-x="320" 
d="M177 700l-99 -144h-78l68 144h109zM320 700l-99 -144h-78l68 144h109z" />
    <glyph glyph-name="hookabovecomb" unicode="&#x309;" horiz-adv-x="183" 
d="M65 721l-51 12q17 57 76 57q33 0 53.5 -17.5t20.5 -53.5q0 -26 -14 -52h-56q17 23 17 49q0 28 -22 28q-17 0 -24 -23z" />
    <glyph glyph-name="uni037E" unicode="&#x37e;" horiz-adv-x="264" 
d="M132 311q-37 0 -63.5 27t-26.5 63q0 37 26.5 63t63.5 26q36 0 62.5 -26t26.5 -63q0 -36 -26.5 -63t-62.5 -27zM227 57q0 -117 -110 -196l-61 49q25 13 50 41t32 55q-8 -4 -22 -4q-31 0 -52.5 22t-21.5 57q0 36 26 62t61 26q41 0 69.5 -30.5t28.5 -81.5z" />
    <glyph glyph-name="tonos" unicode="&#x384;" horiz-adv-x="234" 
d="M173 549h-62l21 216h115z" />
    <glyph glyph-name="dieresistonos" unicode="&#x385;" 
d="M271 549h-62l21 216h115zM485 613q0 -31 -22 -52.5t-53 -21.5q-32 0 -53.5 21.5t-21.5 52.5t21.5 53t53.5 22q31 0 53 -22t22 -53zM181 613q0 -31 -21.5 -52.5t-52.5 -21.5t-53 21.5t-22 52.5t22 53t53 22t52.5 -22t21.5 -53z" />
    <glyph glyph-name="Alphatonos" unicode="&#x386;" horiz-adv-x="575" 
d="M114 549h-62l21 216h115zM582 0h-175l-25 102h-189l-25 -102h-175l197 667h195zM350 243l-62 256l-63 -256h125z" />
    <glyph glyph-name="Epsilontonos" unicode="&#x388;" horiz-adv-x="546" 
d="M50 549h-62l21 216h115zM510 0h-402v667h402v-141h-240v-117h233v-141h-233v-127h240v-141z" />
    <glyph glyph-name="Etatonos" unicode="&#x389;" horiz-adv-x="680" 
d="M50 549h-62l21 216h115zM626 0h-162v272h-194v-272h-162v667h162v-253h194v253h162v-667z" />
    <glyph glyph-name="Iotatonos" unicode="&#x38a;" horiz-adv-x="324" 
d="M50 549h-62l21 216h115zM270 0h-162v667h162v-667z" />
    <glyph glyph-name="Omicrontonos" unicode="&#x38c;" horiz-adv-x="647" 
d="M58 549h-62l21 216h115zM331 -12q-133 0 -212 96t-79 249t79 249t212 96t212 -96t79 -249t-79 -249t-212 -96zM331 131q60 0 93.5 56.5t33.5 145.5q0 90 -33.5 146t-93.5 56q-59 0 -92.5 -56t-33.5 -146q0 -89 33.5 -145.5t92.5 -56.5z" />
    <glyph glyph-name="Upsilontonos" unicode="&#x38e;" horiz-adv-x="660" 
d="M49 549h-62l21 216h115zM463 0h-162v271l-206 396h177l110 -248l109 248h177l-205 -396v-271z" />
    <glyph glyph-name="Omegatonos" unicode="&#x38f;" horiz-adv-x="653" 
d="M58 549h-62l21 216h115zM62 141h94q-108 91 -108 230q0 140 79 223.5t212 83.5t212 -83.5t79 -223.5t-109 -230h95v-141h-236v141q39 19 62 74t23 119q0 88 -30.5 144t-95.5 56t-96 -56t-31 -144q0 -64 23.5 -119t62.5 -74v-141h-236v141z" />
    <glyph glyph-name="iotadieresistonos" unicode="&#x390;" horiz-adv-x="255" 
d="M140 549h-62l21 216h115zM354 613q0 -31 -22 -52.5t-53 -21.5q-32 0 -53.5 21.5t-21.5 52.5t22 53t53 22t53 -22t22 -53zM50 613q0 -31 -21.5 -52.5t-52.5 -21.5t-53 21.5t-22 52.5t21.5 53t53.5 22q31 0 52.5 -22t21.5 -53zM185 -12q-137 0 -137 137v358h145v-332
q0 -35 31 -35q6 0 16 2l10 -121q-29 -9 -65 -9z" />
    <glyph glyph-name="Alpha" unicode="&#x391;" horiz-adv-x="575" 
d="M582 0h-175l-25 102h-189l-25 -102h-175l197 667h195zM350 243l-62 256l-63 -256h125z" />
    <glyph glyph-name="Beta" unicode="&#x392;" horiz-adv-x="579" 
d="M367 0h-314v667h304q89 0 135.5 -49.5t46.5 -120.5q0 -60 -30.5 -100.5t-79.5 -52.5q52 -8 86.5 -54.5t34.5 -108.5q0 -79 -46.5 -130t-136.5 -51zM317 408q27 0 42 16t15 44t-15 44t-42 16h-102v-120h102zM322 139q63 0 63 65q0 29 -17 47t-46 18h-107v-130h107z" />
    <glyph glyph-name="Gamma" unicode="&#x393;" horiz-adv-x="485" 
d="M215 0h-162v667h402v-141h-240v-526z" />
    <glyph glyph-name="uni0394" unicode="&#x394;" horiz-adv-x="581" 
d="M588 0h-595l200 667h195zM380 141l-89 358l-90 -358h179z" />
    <glyph glyph-name="Epsilon" unicode="&#x395;" horiz-adv-x="491" 
d="M455 0h-402v667h402v-141h-240v-117h233v-141h-233v-127h240v-141z" />
    <glyph glyph-name="Zeta" unicode="&#x396;" horiz-adv-x="495" 
d="M462 0h-429v132l223 394h-223v141h422v-129l-225 -397h232v-141z" />
    <glyph glyph-name="Eta" unicode="&#x397;" horiz-adv-x="625" 
d="M571 0h-162v272h-194v-272h-162v667h162v-253h194v253h162v-667z" />
    <glyph glyph-name="Theta" unicode="&#x398;" horiz-adv-x="633" 
d="M410 268h-187v141h187v-141zM316 -12q-133 0 -212 96t-79 249t79 249t212 96t212 -96t79 -249t-79 -249t-212 -96zM316 131q60 0 93.5 56.5t33.5 145.5q0 90 -33.5 146t-93.5 56q-59 0 -92.5 -56t-33.5 -146q0 -89 33.5 -145.5t92.5 -56.5z" />
    <glyph glyph-name="Iota" unicode="&#x399;" horiz-adv-x="268" 
d="M215 0h-162v667h162v-667z" />
    <glyph glyph-name="Kappa" unicode="&#x39a;" horiz-adv-x="575" 
d="M581 0h-191l-133 244l-42 -70v-174h-162v667h162v-282l165 282h188l-209 -312z" />
    <glyph glyph-name="Lambda" unicode="&#x39b;" horiz-adv-x="575" 
d="M582 0h-175l-119 499l-120 -499h-175l197 667h195z" />
    <glyph glyph-name="Mu" unicode="&#x39c;" horiz-adv-x="761" 
d="M708 0h-161v396l-135 -396h-63l-134 396v-396h-162v667h215l113 -333l114 333h213v-667z" />
    <glyph glyph-name="Nu" unicode="&#x39d;" horiz-adv-x="624" 
d="M570 0h-153l-202 351v-351h-162v667h165l191 -334v334h161v-667z" />
    <glyph glyph-name="Xi" unicode="&#x39e;" horiz-adv-x="520" 
d="M484 526h-448v141h448v-141zM484 0h-448v141h448v-141zM477 268h-434v141h434v-141z" />
    <glyph glyph-name="Omicron" unicode="&#x39f;" horiz-adv-x="633" 
d="M316 -12q-133 0 -212 96t-79 249t79 249t212 96t212 -96t79 -249t-79 -249t-212 -96zM316 131q60 0 93.5 56.5t33.5 145.5q0 90 -33.5 146t-93.5 56q-59 0 -92.5 -56t-33.5 -146q0 -89 33.5 -145.5t92.5 -56.5z" />
    <glyph glyph-name="Pi" unicode="&#x3a0;" horiz-adv-x="625" 
d="M571 0h-162v526h-194v-526h-162v667h518v-667z" />
    <glyph glyph-name="Rho" unicode="&#x3a1;" horiz-adv-x="556" 
d="M215 0h-162v667h268q104 0 160.5 -63t56.5 -157q0 -93 -56.5 -155.5t-160.5 -62.5h-106v-229zM301 370q33 0 53 21t20 57t-20 57t-53 21h-86v-156h86z" />
    <glyph glyph-name="Sigma" unicode="&#x3a3;" horiz-adv-x="486" 
d="M223 526l147 -185l-153 -200h235v-141h-416v144l150 198l-149 184v141h415v-141h-229z" />
    <glyph glyph-name="Tau" unicode="&#x3a4;" horiz-adv-x="487" 
d="M325 0h-162v526h-143v141h447v-141h-142v-526z" />
    <glyph glyph-name="Upsilon" unicode="&#x3a5;" horiz-adv-x="557" 
d="M360 0h-162v271l-206 396h177l110 -248l109 248h177l-205 -396v-271z" />
    <glyph glyph-name="Phi" unicode="&#x3a6;" horiz-adv-x="785" 
d="M473 0h-161v68q-140 16 -213.5 85t-73.5 180q0 110 73.5 179t213.5 85v70h161v-70q139 -16 213 -85t74 -179q0 -111 -73.5 -180t-213.5 -85v-68zM595 333q0 96 -122 119v-239q122 23 122 120zM190 333q0 -97 122 -120v239q-122 -23 -122 -119z" />
    <glyph glyph-name="Chi" unicode="&#x3a7;" horiz-adv-x="575" 
d="M582 0h-185l-110 217l-109 -217h-185l193 341l-182 326h185l98 -204l97 204h186l-181 -325z" />
    <glyph glyph-name="Psi" unicode="&#x3a8;" horiz-adv-x="812" 
d="M487 0h-161v129q-127 16 -200 82.5t-73 172.5v283h164v-279q0 -92 109 -115v394h161v-393q108 23 108 114v279h164v-282q0 -107 -72.5 -173.5t-199.5 -82.5v-129z" />
    <glyph glyph-name="uni03A9" unicode="&#x3a9;" horiz-adv-x="630" 
d="M38 141h94q-108 91 -108 230q0 140 79 223.5t212 83.5t212 -83.5t79 -223.5t-109 -230h95v-141h-236v141q39 19 62 74t23 119q0 88 -30.5 144t-95.5 56t-96 -56t-31 -144q0 -64 23.5 -119t62.5 -74v-141h-236v141z" />
    <glyph glyph-name="Iotadieresis" unicode="&#x3aa;" horiz-adv-x="268" 
d="M215 0h-162v667h162v-667zM306 797q0 -31 -22 -52.5t-54 -21.5q-30 0 -52 21.5t-22 52.5t22 53t52 22q32 0 54 -22t22 -53zM111 797q0 -31 -21.5 -52.5t-52.5 -21.5t-53 21.5t-22 52.5t22 53t53 22t52.5 -21.5t21.5 -53.5z" />
    <glyph glyph-name="Upsilondieresis" unicode="&#x3ab;" horiz-adv-x="557" 
d="M360 0h-162v271l-206 396h177l110 -248l109 248h177l-205 -396v-271zM450 797q0 -31 -22 -52.5t-54 -21.5q-30 0 -52 21.5t-22 52.5t22 53t52 22q32 0 54 -22t22 -53zM255 797q0 -31 -21.5 -52.5t-52.5 -21.5t-53 21.5t-22 52.5t22 53t53 22t52.5 -21.5t21.5 -53.5z" />
    <glyph glyph-name="alphatonos" unicode="&#x3ac;" horiz-adv-x="530" 
d="M284 549h-62l21 216h115zM515 118l10 -121q-27 -9 -65 -9q-104 0 -128 82q-19 -37 -53.5 -59.5t-74.5 -22.5q-82 0 -131.5 67t-49.5 187q0 116 49.5 184.5t131.5 68.5q77 0 119 -69v57h145v-332q0 -35 31 -35q6 0 16 2zM253 116q20 0 40 13t31 32v161q-11 19 -31 31.5
t-40 12.5q-39 0 -60.5 -33.5t-21.5 -90.5t21.5 -91.5t60.5 -34.5z" />
    <glyph glyph-name="epsilontonos" unicode="&#x3ad;" horiz-adv-x="445" 
d="M241 549h-62l21 216h115zM233 -12q-95 0 -153 40t-58 105q0 47 35 78t84 37q-46 8 -78.5 40.5t-32.5 72.5q1 63 57.5 98.5t160.5 35.5q112 0 184 -77l-68 -84q-47 48 -120 48q-32 0 -50.5 -11t-18.5 -30q0 -42 69 -42h87v-111h-90q-74 0 -74 -43q0 -44 69 -44
q83 0 135 49l66 -86q-70 -76 -204 -76z" />
    <glyph glyph-name="etatonos" unicode="&#x3ae;" 
d="M277 549h-62l21 216h115zM469 -184h-145v489q0 62 -56 62q-46 0 -75 -51v-316h-145v483h145v-60q20 29 58.5 50.5t83.5 21.5q67 0 100.5 -36t33.5 -97v-546z" />
    <glyph glyph-name="iotatonos" unicode="&#x3af;" horiz-adv-x="255" 
d="M147 549h-62l21 216h115zM185 -12q-137 0 -137 137v358h145v-332q0 -35 31 -35q6 0 16 2l10 -121q-29 -9 -65 -9z" />
    <glyph glyph-name="upsilondieresistonos" unicode="&#x3b0;" horiz-adv-x="511" 
d="M268 549h-62l21 216h115zM482 613q0 -31 -22 -52.5t-53 -21.5q-32 0 -53.5 21.5t-21.5 52.5t22 53t53 22t53 -22t22 -53zM178 613q0 -31 -21.5 -52.5t-52.5 -21.5t-53 21.5t-22 52.5t21.5 53t53.5 22q31 0 52.5 -22t21.5 -53zM258 -12q-96 0 -153 56t-57 152v287h145
v-285q0 -38 17 -60t48 -22q82 0 82 146q0 100 -47 182l135 51q61 -106 61 -233q0 -121 -60.5 -197.5t-170.5 -76.5z" />
    <glyph glyph-name="alpha" unicode="&#x3b1;" horiz-adv-x="530" 
d="M515 118l10 -121q-27 -9 -65 -9q-104 0 -128 82q-19 -37 -53.5 -59.5t-74.5 -22.5q-82 0 -131.5 67t-49.5 187q0 116 49.5 184.5t131.5 68.5q77 0 119 -69v57h145v-332q0 -35 31 -35q6 0 16 2zM253 116q20 0 40 13t31 32v161q-11 19 -31 31.5t-40 12.5q-39 0 -60.5 -33.5
t-21.5 -90.5t21.5 -91.5t60.5 -34.5z" />
    <glyph glyph-name="beta" unicode="&#x3b2;" horiz-adv-x="516" 
d="M193 451v-290q28 -45 78 -45q35 0 54 22.5t19 56.5q0 39 -20 58.5t-53 19.5h-29v128h23q32 0 48.5 20t16.5 54t-16 53.5t-44 19.5q-36 0 -56.5 -24.5t-20.5 -72.5zM193 57v-241h-145v635q0 60 19.5 105.5t52.5 70.5t71 37.5t80 12.5q98 0 153 -48t55 -134
q0 -56 -31 -97.5t-84 -53.5q55 -10 92.5 -56t37.5 -121q0 -72 -49.5 -125.5t-122.5 -53.5q-83 0 -129 69z" />
    <glyph glyph-name="gamma" unicode="&#x3b3;" horiz-adv-x="466" 
d="M305 -184h-145v100q0 159 -48.5 309.5t-127.5 257.5h159q93 -152 106 -303q24 54 41 140t17 163h144q0 -116 -42 -247.5t-104 -226.5v-193z" />
    <glyph glyph-name="delta" unicode="&#x3b4;" horiz-adv-x="505" 
d="M260 -12q-113 0 -175 67t-62 165q0 64 26.5 115.5t68.5 84.5q-49 41 -49 107q0 64 49.5 108t137.5 44q100 0 178 -61l-56 -100q-19 19 -52 33.5t-68 14.5q-23 0 -38 -10t-15 -24q0 -13 20.5 -26t51.5 -24.5t66.5 -33.5t66.5 -50t51.5 -76.5t20.5 -110.5q0 -93 -57.5 -158
t-164.5 -65zM346 211q0 54 -28.5 85.5t-82.5 58.5q-63 -49 -63 -134q0 -47 22 -76t64 -29t65 27.5t23 67.5z" />
    <glyph glyph-name="epsilon" unicode="&#x3b5;" horiz-adv-x="445" 
d="M233 -12q-95 0 -153 40t-58 105q0 47 35 78t84 37q-46 8 -78.5 40.5t-32.5 72.5q1 63 57.5 98.5t160.5 35.5q112 0 184 -77l-68 -84q-47 48 -120 48q-32 0 -50.5 -11t-18.5 -30q0 -42 69 -42h87v-111h-90q-74 0 -74 -43q0 -44 69 -44q83 0 135 49l66 -86
q-70 -76 -204 -76z" />
    <glyph glyph-name="zeta" unicode="&#x3b6;" horiz-adv-x="421" 
d="M264 -33q0 21 -23 21q-96 0 -157 59.5t-61 152.5q0 101 52 188.5t150 152.5h-191v126h357v-103q-94 -67 -157 -161t-63 -183q0 -104 104 -104q67 0 96.5 -28t29.5 -81q0 -66 -50 -164h-139q52 85 52 124z" />
    <glyph glyph-name="eta" unicode="&#x3b7;" 
d="M469 -184h-145v489q0 62 -56 62q-46 0 -75 -51v-316h-145v483h145v-60q20 29 58.5 50.5t83.5 21.5q67 0 100.5 -36t33.5 -97v-546z" />
    <glyph glyph-name="theta" unicode="&#x3b8;" horiz-adv-x="505" 
d="M252 -12q-109 0 -169 98.5t-60 247.5q0 97 25 174t77.5 124t126.5 47q110 0 170 -97.5t60 -247.5q0 -149 -60 -247.5t-170 -98.5zM252 116q37 0 55.5 37t23.5 119h-158q5 -82 23.5 -119t55.5 -37zM252 551q-37 0 -55.5 -37t-23.5 -116h158q-5 80 -23.5 116.5t-55.5 36.5z
" />
    <glyph glyph-name="iota" unicode="&#x3b9;" horiz-adv-x="255" 
d="M185 -12q-137 0 -137 137v358h145v-332q0 -35 31 -35q6 0 16 2l10 -121q-29 -9 -65 -9z" />
    <glyph glyph-name="kappa" unicode="&#x3ba;" horiz-adv-x="485" 
d="M488 0h-169l-84 175l-42 -63v-112h-145v483h145v-197l120 197h167l-145 -217z" />
    <glyph glyph-name="lambda" unicode="&#x3bb;" horiz-adv-x="466" 
d="M65 544l-20 127q22 8 63 8q70 -1 112 -27.5t65 -96.5l187 -555h-153l-87 309l-85 -309h-153l164 492l-11 31q-10 28 -52 28q-19 0 -30 -7z" />
    <glyph glyph-name="uni03BC" unicode="&#x3bc;" horiz-adv-x="530" 
d="M193 2v-186h-145v667h145v-306q0 -62 57 -62q45 0 74 51v317h144v-332q0 -35 31 -35q7 0 17 2l9 -121q-27 -9 -64 -9q-106 0 -131 87q-14 -39 -40 -63t-58 -24q-27 0 -39 14z" />
    <glyph glyph-name="nu" unicode="&#x3bd;" horiz-adv-x="466" 
d="M300 0h-144l-162 483h153l91 -330q33 68 51 158t18 172h144q0 -119 -43.5 -253.5t-107.5 -229.5z" />
    <glyph glyph-name="xi" unicode="&#x3be;" horiz-adv-x="421" 
d="M241 -12q-101 0 -159.5 48.5t-58.5 128.5q0 54 29 92.5t77 55.5q-43 8 -69.5 38.5t-26.5 71.5q0 36 22.5 68.5t60.5 49.5h-74v126h345v-126h-159q-23 -9 -36.5 -28t-13.5 -42q0 -35 23 -53t64 -18h117v-125h-117q-42 0 -68 -20t-26 -61q0 -35 26.5 -56.5t77.5 -21.5
q67 0 96.5 -28t29.5 -81q0 -66 -50 -164h-139q52 85 52 124q0 21 -23 21z" />
    <glyph glyph-name="omicron" unicode="&#x3bf;" horiz-adv-x="505" 
d="M252 -12q-108 0 -168.5 73.5t-60.5 180.5t60.5 180t168.5 73t169 -73t61 -180t-61 -180.5t-169 -73.5zM252 116q40 0 60.5 35t20.5 91t-20.5 90.5t-60.5 34.5q-39 0 -59.5 -34.5t-20.5 -90.5t20 -91t60 -35z" />
    <glyph glyph-name="pi" unicode="&#x3c0;" horiz-adv-x="565" 
d="M493 0h-145v357h-131v-357h-145v357h-61v126h544v-126h-62v-357z" />
    <glyph glyph-name="rho" unicode="&#x3c1;" horiz-adv-x="515" 
d="M312 -12q-77 0 -119 69v-241h-145v426q0 107 59 180t163 73q105 0 164 -72.5t59 -180.5q0 -118 -49 -186t-132 -68zM263 116q39 0 60.5 34.5t21.5 91.5q0 56 -19.5 90.5t-56.5 34.5q-38 0 -57 -34.5t-19 -90.5v-81q10 -19 30 -32t40 -13z" />
    <glyph glyph-name="sigma1" unicode="&#x3c2;" horiz-adv-x="426" 
d="M248 -12q-96 0 -160.5 71t-64.5 183t64 182.5t166 70.5q56 0 98 -19t64 -47l-70 -99q-31 37 -75 37t-71.5 -34.5t-27.5 -90.5q0 -57 28.5 -91.5t73.5 -34.5q132 0 132 -109q0 -66 -50 -164h-137q52 85 52 124q0 21 -22 21z" />
    <glyph glyph-name="sigma" unicode="&#x3c3;" horiz-adv-x="505" 
d="M472 212q0 -92 -57 -158t-163 -66t-167.5 72.5t-61.5 181.5q0 103 62 172t176 69h228v-128h-71q54 -54 54 -143zM333 234q0 85 -43 121h-29q-45 0 -67 -32t-22 -81q0 -56 20 -91t60 -35t60.5 33.5t20.5 84.5z" />
    <glyph glyph-name="tau" unicode="&#x3c4;" horiz-adv-x="406" 
d="M268 -12q-137 0 -137 137v232h-115v126h374v-126h-115v-196q0 -45 34 -45q23 0 32 11l27 -112q-32 -27 -100 -27z" />
    <glyph glyph-name="upsilon" unicode="&#x3c5;" horiz-adv-x="511" 
d="M258 -12q-96 0 -153 56t-57 152v287h145v-285q0 -38 17 -60t48 -22q82 0 82 146q0 100 -47 182l135 51q61 -106 61 -233q0 -121 -60.5 -197.5t-170.5 -76.5z" />
    <glyph glyph-name="phi" unicode="&#x3c6;" horiz-adv-x="734" 
d="M711 242q0 -102 -69 -168.5t-202 -81.5v-176h-145v176q-134 14 -203 83t-69 177q0 163 171 243l63 -113q-85 -40 -85 -130q0 -110 123 -131v374h71q170 0 257.5 -69t87.5 -184zM563 242q0 51 -33 82.5t-90 37.5v-241q123 21 123 121z" />
    <glyph glyph-name="chi" unicode="&#x3c7;" horiz-adv-x="454" 
d="M457 -184h-156l-74 200l-76 -200h-155l140 339l-132 328h155l67 -189l68 189h155l-132 -328z" />
    <glyph glyph-name="psi" unicode="&#x3c8;" horiz-adv-x="735" 
d="M440 -184h-145v177q-116 15 -181.5 77t-65.5 167v246h144v-246q0 -93 103 -114v544h145v-544q102 22 102 114v246h144v-246q0 -104 -65 -166.5t-181 -77.5v-177z" />
    <glyph glyph-name="omega" unicode="&#x3c9;" horiz-adv-x="770" 
d="M747 242q0 -108 -53 -181t-145 -73q-61 0 -103 32.5t-61 93.5q-19 -61 -61 -93.5t-103 -32.5q-92 0 -145 73t-53 181q0 80 28.5 147t75.5 106l110 -79q-65 -61 -65 -175q0 -55 18 -90t52 -35q35 0 53 35t18 91v122h144v-122q0 -56 18 -91t53 -35t52.5 34.5t17.5 91.5
q0 113 -64 174l109 79q47 -39 75.5 -106t28.5 -147z" />
    <glyph glyph-name="iotadieresis" unicode="&#x3ca;" horiz-adv-x="255" 
d="M300 613q0 -31 -22 -52.5t-54 -21.5q-30 0 -52 21.5t-22 52.5t22 53t52 22q32 0 54 -22t22 -53zM105 613q0 -31 -21.5 -52.5t-52.5 -21.5t-53 21.5t-22 52.5t22 53t53 22t52.5 -21.5t21.5 -53.5zM185 -12q-137 0 -137 137v358h145v-332q0 -35 31 -35q6 0 16 2l10 -121
q-29 -9 -65 -9z" />
    <glyph glyph-name="upsilondieresis" unicode="&#x3cb;" horiz-adv-x="511" 
d="M427 613q0 -31 -22 -52.5t-54 -21.5q-30 0 -52 21.5t-22 52.5t22 53t52 22q32 0 54 -22t22 -53zM232 613q0 -31 -21.5 -52.5t-52.5 -21.5t-53 21.5t-22 52.5t21.5 53t53.5 22q31 0 52.5 -21.5t21.5 -53.5zM258 -12q-96 0 -153 56t-57 152v287h145v-285q0 -38 17 -60
t48 -22q82 0 82 146q0 100 -47 182l135 51q61 -106 61 -233q0 -121 -60.5 -197.5t-170.5 -76.5z" />
    <glyph glyph-name="omicrontonos" unicode="&#x3cc;" horiz-adv-x="505" 
d="M271 549h-62l21 216h115zM252 -12q-108 0 -168.5 73.5t-60.5 180.5t60.5 180t168.5 73t169 -73t61 -180t-61 -180.5t-169 -73.5zM252 116q40 0 60.5 35t20.5 91t-20.5 90.5t-60.5 34.5q-39 0 -59.5 -34.5t-20.5 -90.5t20 -91t60 -35z" />
    <glyph glyph-name="upsilontonos" unicode="&#x3cd;" horiz-adv-x="511" 
d="M275 549h-62l21 216h115zM258 -12q-96 0 -153 56t-57 152v287h145v-285q0 -38 17 -60t48 -22q82 0 82 146q0 100 -47 182l135 51q61 -106 61 -233q0 -121 -60.5 -197.5t-170.5 -76.5z" />
    <glyph glyph-name="omegatonos" unicode="&#x3ce;" horiz-adv-x="770" 
d="M404 549h-62l21 216h115zM747 242q0 -108 -53 -181t-145 -73q-61 0 -103 32.5t-61 93.5q-19 -61 -61 -93.5t-103 -32.5q-92 0 -145 73t-53 181q0 80 28.5 147t75.5 106l110 -79q-65 -61 -65 -175q0 -55 18 -90t52 -35q35 0 53 35t18 91v122h144v-122q0 -56 18 -91t53 -35
t52.5 34.5t17.5 91.5q0 113 -64 174l109 79q47 -39 75.5 -106t28.5 -147z" />
    <glyph glyph-name="afii10023" unicode="&#x401;" horiz-adv-x="491" 
d="M426 780q0 -31 -22 -52.5t-54 -21.5q-30 0 -52 21.5t-22 52.5t22 53t52 22q32 0 54 -22t22 -53zM231 780q0 -31 -21.5 -52.5t-52.5 -21.5t-53 21.5t-22 52.5q0 32 22 53.5t53 21.5t52.5 -21.5t21.5 -53.5zM455 0h-402v667h402v-141h-240v-117h233v-141h-233v-127h240
v-141z" />
    <glyph glyph-name="afii10051" unicode="&#x402;" horiz-adv-x="654" 
d="M400 -12v139q68 0 68 72v11q0 37 -24.5 58.5t-65.5 21.5q-39 0 -77 -12v-278h-162v526h-143v141h447v-141h-142v-108q54 13 103 13q109 0 168 -62t59 -158v-12q0 -102 -64 -156.5t-167 -54.5z" />
    <glyph glyph-name="afii10052" unicode="&#x403;" horiz-adv-x="485" 
d="M422 867l-134 -144h-94l103 144h125zM215 0h-162v667h402v-141h-240v-526z" />
    <glyph glyph-name="afii10053" unicode="&#x404;" horiz-adv-x="570" 
d="M319 -12q-134 0 -214 95.5t-80 249.5q0 155 80 250t214 95q168 0 236 -175l-133 -57q-13 41 -40.5 65t-65.5 24q-94 0 -119 -126h223v-141h-225q10 -64 41 -100.5t80 -36.5q39 0 66.5 26.5t39.5 69.5l134 -57q-69 -182 -237 -182z" />
    <glyph glyph-name="afii10054" unicode="&#x405;" horiz-adv-x="511" 
d="M251 -12q-151 0 -241 87l77 124q66 -71 163 -71q35 0 55.5 16t20.5 41q0 22 -22 38.5t-55 27t-71 27.5t-71 38t-55 61.5t-22 95.5q0 85 63 145t171 60q129 0 214 -76l-75 -120q-59 55 -145 55q-30 0 -46.5 -14t-16.5 -37q0 -20 22 -36t54.5 -27t71 -29t71 -39t54.5 -61
t22 -93q0 -97 -63.5 -155t-175.5 -58z" />
    <glyph glyph-name="afii10055" unicode="&#x406;" horiz-adv-x="268" 
d="M215 0h-162v667h162v-667z" />
    <glyph glyph-name="afii10056" unicode="&#x407;" horiz-adv-x="268" 
d="M215 0h-162v667h162v-667zM306 780q0 -31 -22 -52.5t-54 -21.5q-30 0 -52 21.5t-22 52.5t22 53t52 22q32 0 54 -22t22 -53zM111 780q0 -31 -21.5 -52.5t-52.5 -21.5t-53 21.5t-22 52.5q0 32 22 53.5t53 21.5t52.5 -21.5t21.5 -53.5z" />
    <glyph glyph-name="afii10057" unicode="&#x408;" horiz-adv-x="427" 
d="M152 -12q-91 0 -146 46l54 127q35 -30 76 -30q35 0 56 20.5t21 57.5v458h161v-463q0 -108 -59.5 -162t-162.5 -54z" />
    <glyph glyph-name="afii10058" unicode="&#x409;" horiz-adv-x="912" 
d="M18 -12v143q42 0 64 37t33 149l33 350h423v-229h106q104 0 160.5 -62.5t56.5 -155.5q0 -94 -56.5 -157t-160.5 -63h-268v526h-114l-19 -217q-9 -98 -31 -163.5t-58 -99t-75.5 -46t-93.5 -12.5zM657 297h-86v-156h86q33 0 53 21t20 57t-20 57t-53 21z" />
    <glyph glyph-name="afii10059" unicode="&#x40a;" horiz-adv-x="912" 
d="M53 0v667h162v-253h194v253h162v-253h112q101 0 156 -59.5t55 -147.5t-55 -147.5t-156 -59.5h-274v272h-194v-272h-162zM571 141h94q29 0 47 18t18 48t-18 47.5t-47 17.5h-94v-131z" />
    <glyph glyph-name="afii10060" unicode="&#x40b;" horiz-adv-x="673" 
d="M466 0v196q0 94 -88 94q-39 0 -77 -12v-278h-162v526h-143v141h447v-141h-142v-108q54 13 103 13q110 0 167.5 -65t57.5 -169v-197h-163z" />
    <glyph glyph-name="afii10061" unicode="&#x40c;" horiz-adv-x="575" 
d="M466 867l-134 -144h-94l103 144h125zM581 0h-191l-133 244l-42 -70v-174h-162v667h162v-282l165 282h188l-209 -312z" />
    <glyph glyph-name="afii10062" unicode="&#x40e;" horiz-adv-x="557" 
d="M131 -12q-85 0 -137 39l51 129q32 -25 68 -25q45 0 71 57l7 18l-199 461h177l110 -288l109 288h177l-225 -523q-33 -79 -80.5 -117.5t-128.5 -38.5zM429 777q-55 -75 -151 -75q-94 0 -151 75l64 51q31 -46 87 -46q57 0 87 46z" />
    <glyph glyph-name="afii10145" unicode="&#x40f;" horiz-adv-x="625" 
d="M53 0v667h162v-526h194v526h162v-667h-178v-126h-162v126h-178z" />
    <glyph glyph-name="afii10017" unicode="&#x410;" horiz-adv-x="575" 
d="M582 0h-175l-25 102h-189l-25 -102h-175l197 667h195zM350 243l-62 256l-63 -256h125z" />
    <glyph glyph-name="afii10018" unicode="&#x411;" horiz-adv-x="556" 
d="M53 667h444v-141h-282v-94h109q102 0 158 -61.5t56 -153.5t-56 -154.5t-158 -62.5h-271v667zM305 291h-90v-150h90q31 0 50 20t19 55t-19 55t-50 20z" />
    <glyph glyph-name="afii10019" unicode="&#x412;" horiz-adv-x="579" 
d="M367 0h-314v667h304q89 0 135.5 -49.5t46.5 -120.5q0 -60 -30.5 -100.5t-79.5 -52.5q52 -8 86.5 -54.5t34.5 -108.5q0 -79 -46.5 -130t-136.5 -51zM317 408q27 0 42 16t15 44t-15 44t-42 16h-102v-120h102zM322 139q63 0 63 65q0 29 -17 47t-46 18h-107v-130h107z" />
    <glyph glyph-name="afii10020" unicode="&#x413;" horiz-adv-x="485" 
d="M215 0h-162v667h402v-141h-240v-526z" />
    <glyph glyph-name="afii10021" unicode="&#x414;" horiz-adv-x="637" 
d="M18 -123v254q29 5 45 16.5t30.5 53t21.5 119.5l33 347h423v-526h53v-264h-162v123h-282v-123h-162zM277 326q-10 -119 -64 -185h196v385h-114z" />
    <glyph glyph-name="afii10022" unicode="&#x415;" horiz-adv-x="491" 
d="M455 0h-402v667h402v-141h-240v-117h233v-141h-233v-127h240v-141z" />
    <glyph glyph-name="afii10024" unicode="&#x416;" horiz-adv-x="833" 
d="M185 0h-190l222 355l-209 312h188l139 -239v239h162v-240l140 240h188l-209 -312l222 -355h-190l-134 244l-17 -29v-215h-162v215l-17 29z" />
    <glyph glyph-name="afii10025" unicode="&#x417;" horiz-adv-x="544" 
d="M265 -12q-81 0 -147 29.5t-102 76.5l93 104q27 -31 67.5 -49t80.5 -18q48 0 72.5 19.5t24.5 50.5q0 65 -104 65h-107v142h102q99 0 99 61q0 32 -25.5 48.5t-69.5 16.5q-83 0 -135 -60l-89 94q39 52 101.5 80.5t138.5 28.5q110 0 176 -48t66 -134q0 -55 -38 -97.5
t-95 -53.5q59 -8 101 -51.5t42 -107.5q0 -87 -70.5 -142t-181.5 -55z" />
    <glyph glyph-name="afii10026" unicode="&#x418;" horiz-adv-x="624" 
d="M207 0h-154v667h162v-352l191 352h164v-667h-162v369z" />
    <glyph glyph-name="afii10027" unicode="&#x419;" horiz-adv-x="624" 
d="M207 0h-154v667h162v-352l191 352h164v-667h-162v369zM462 777q-55 -75 -151 -75q-94 0 -151 75l64 51q31 -46 87 -46q57 0 87 46z" />
    <glyph glyph-name="afii10028" unicode="&#x41a;" horiz-adv-x="575" 
d="M581 0h-191l-133 244l-42 -70v-174h-162v667h162v-282l165 282h188l-209 -312z" />
    <glyph glyph-name="afii10029" unicode="&#x41b;" horiz-adv-x="625" 
d="M18 -12v143q42 0 64 37t33 149l33 350h423v-667h-162v526h-114l-19 -217q-9 -98 -31 -163.5t-58 -99t-75.5 -46t-93.5 -12.5z" />
    <glyph glyph-name="afii10030" unicode="&#x41c;" horiz-adv-x="761" 
d="M708 0h-161v396l-135 -396h-63l-134 396v-396h-162v667h215l113 -333l114 333h213v-667z" />
    <glyph glyph-name="afii10031" unicode="&#x41d;" horiz-adv-x="625" 
d="M571 0h-162v272h-194v-272h-162v667h162v-253h194v253h162v-667z" />
    <glyph glyph-name="afii10032" unicode="&#x41e;" horiz-adv-x="633" 
d="M316 -12q-133 0 -212 96t-79 249t79 249t212 96t212 -96t79 -249t-79 -249t-212 -96zM316 131q60 0 93.5 56.5t33.5 145.5q0 90 -33.5 146t-93.5 56q-59 0 -92.5 -56t-33.5 -146q0 -89 33.5 -145.5t92.5 -56.5z" />
    <glyph glyph-name="afii10033" unicode="&#x41f;" horiz-adv-x="625" 
d="M571 0h-162v526h-194v-526h-162v667h518v-667z" />
    <glyph glyph-name="afii10034" unicode="&#x420;" horiz-adv-x="556" 
d="M215 0h-162v667h268q104 0 160.5 -63t56.5 -157q0 -93 -56.5 -155.5t-160.5 -62.5h-106v-229zM301 370q33 0 53 21t20 57t-20 57t-53 21h-86v-156h86z" />
    <glyph glyph-name="afii10035" unicode="&#x421;" horiz-adv-x="570" 
d="M319 -12q-134 0 -214 95.5t-80 249.5q0 155 80 250t214 95q168 0 236 -175l-133 -57q-13 41 -40 65t-63 24q-60 0 -94.5 -56t-34.5 -146t34.5 -146t94.5 -56q37 0 64 27t39 69l134 -57q-69 -182 -237 -182z" />
    <glyph glyph-name="afii10036" unicode="&#x422;" horiz-adv-x="487" 
d="M325 0h-162v526h-143v141h447v-141h-142v-526z" />
    <glyph glyph-name="afii10037" unicode="&#x423;" horiz-adv-x="557" 
d="M131 -12q-85 0 -137 39l51 129q32 -25 68 -25q45 0 71 57l7 18l-199 461h177l110 -288l109 288h177l-225 -523q-33 -79 -80.5 -117.5t-128.5 -38.5z" />
    <glyph glyph-name="afii10038" unicode="&#x424;" horiz-adv-x="785" 
d="M473 0h-161v68q-140 16 -213.5 85t-73.5 180q0 110 73.5 179t213.5 85v70h161v-70q139 -16 213 -85t74 -179q0 -111 -73.5 -180t-213.5 -85v-68zM595 333q0 96 -122 119v-239q122 23 122 120zM190 333q0 -97 122 -120v239q-122 -23 -122 -119z" />
    <glyph glyph-name="afii10039" unicode="&#x425;" horiz-adv-x="575" 
d="M582 0h-185l-110 217l-109 -217h-185l193 341l-182 326h185l98 -204l97 204h186l-181 -325z" />
    <glyph glyph-name="afii10040" unicode="&#x426;" horiz-adv-x="637" 
d="M462 -123v123h-409v667h162v-526h194v526h162v-526h53v-264h-162z" />
    <glyph glyph-name="afii10041" unicode="&#x427;" horiz-adv-x="583" 
d="M203 667v-208q0 -93 87 -93q45 0 78 12v289h162v-667h-162v238q-55 -13 -103 -13q-110 0 -167.5 64.5t-57.5 169.5v208h163z" />
    <glyph glyph-name="afii10042" unicode="&#x428;" horiz-adv-x="876" 
d="M660 667h162v-667h-769v667h162v-526h142v526h162v-526h141v526z" />
    <glyph glyph-name="afii10043" unicode="&#x429;" horiz-adv-x="888" 
d="M660 667h162v-526h53v-264h-162v123h-660v667h162v-526h142v526h162v-526h141v526z" />
    <glyph glyph-name="afii10044" unicode="&#x42a;" horiz-adv-x="665" 
d="M430 0h-267v526h-143v141h305v-229h105q104 0 161 -62.5t57 -155.5q0 -94 -57 -157t-161 -63zM411 297h-86v-156h86q33 0 52.5 21t19.5 57t-19.5 57t-52.5 21z" />
    <glyph glyph-name="afii10045" unicode="&#x42b;" horiz-adv-x="798" 
d="M53 667h162v-229h106q104 0 160.5 -62.5t56.5 -155.5q0 -94 -56.5 -157t-160.5 -63h-268v667zM301 297h-86v-156h86q33 0 53 21t20 57t-20 57t-53 21zM744 0h-162v667h162v-667z" />
    <glyph glyph-name="afii10046" unicode="&#x42c;" horiz-adv-x="556" 
d="M53 667h162v-229h106q104 0 160.5 -62.5t56.5 -155.5q0 -94 -56.5 -157t-160.5 -63h-268v667zM301 297h-86v-156h86q33 0 53 21t20 57t-20 57t-53 21z" />
    <glyph glyph-name="afii10047" unicode="&#x42d;" horiz-adv-x="570" 
d="M251 -12q-168 0 -237 182l134 57q12 -43 39 -69.5t66 -26.5q49 0 80 36.5t42 100.5h-225v141h223q-12 59 -42.5 92.5t-77.5 33.5q-38 0 -65 -24t-40 -65l-134 57q70 175 237 175q134 0 214 -95.5t80 -249.5t-80 -249.5t-214 -95.5z" />
    <glyph glyph-name="afii10048" unicode="&#x42e;" horiz-adv-x="907" 
d="M590 -12q-119 0 -195.5 77.5t-91.5 206.5h-88v-272h-162v667h162v-253h90q20 120 95.5 192t189.5 72q133 0 212 -96t79 -249t-79 -249t-212 -96zM590 131q60 0 93.5 56.5t33.5 145.5q0 90 -33.5 146t-93.5 56q-59 0 -92.5 -56t-33.5 -146q0 -89 33.5 -145.5t92.5 -56.5z
" />
    <glyph glyph-name="afii10049" unicode="&#x42f;" horiz-adv-x="573" 
d="M209 0h-179l112 258q-44 20 -76 67.5t-32 124.5q0 94 59 155.5t155 61.5h271v-667h-161v229h-60zM273 370h85v156h-85q-33 0 -53.5 -21t-20.5 -57t20.5 -57t53.5 -21z" />
    <glyph glyph-name="afii10065" unicode="&#x430;" horiz-adv-x="492" 
d="M444 0h-144v47q-19 -27 -54.5 -43t-72.5 -16q-61 0 -106 42.5t-45 117.5q0 76 44 115.5t107 39.5q39 0 74 -14.5t53 -40.5v55q0 34 -22.5 54.5t-62.5 20.5q-63 0 -119 -50l-51 97q76 70 198 70q90 0 145.5 -42.5t55.5 -134.5v-318zM230 83q49 0 70 38v49q-21 38 -70 38
q-28 0 -46 -16.5t-18 -45.5t18 -46t46 -17z" />
    <glyph glyph-name="afii10066" unicode="&#x431;" horiz-adv-x="505" 
d="M251 116q40 0 61 35t21 92q0 55 -21 89.5t-61 34.5q-39 0 -59.5 -34.5t-20.5 -89.5q0 -57 20.5 -92t59.5 -35zM252 -12q-111 0 -170 76.5t-59 199.5q0 180 51.5 262.5t175.5 104.5q66 11 66 36h149q0 -103 -169 -133q-70 -12 -103.5 -36.5t-43.5 -65.5q51 63 135 63
q92 0 145 -73t53 -179q0 -107 -60.5 -181t-169.5 -74z" />
    <glyph glyph-name="afii10067" unicode="&#x432;" horiz-adv-x="519" 
d="M327 0h-279v483h271q75 0 113.5 -36t38.5 -88q0 -41 -23.5 -70t-61.5 -40q42 -8 68 -40.5t26 -76.5q0 -58 -38.5 -95t-114.5 -37zM291 113q42 0 42 38q0 16 -11 27t-31 11h-98v-76h98zM286 302q38 0 38 34t-38 34h-93v-68h93z" />
    <glyph glyph-name="afii10068" unicode="&#x433;" horiz-adv-x="390" 
d="M375 483v-126h-182v-357h-145v483h327z" />
    <glyph glyph-name="afii10069" unicode="&#x434;" horiz-adv-x="530" 
d="M17 -123v239q27 3 42.5 28t23.5 98l24 241h362v-357h49v-249h-145v123h-212v-123h-144zM237 357l-10 -114q-8 -78 -43 -117h140v231h-87z" />
    <glyph glyph-name="afii10070" unicode="&#x435;" horiz-adv-x="484" 
d="M257 -12q-105 0 -169.5 69.5t-64.5 184.5q0 108 62 180.5t164 72.5q101 0 158.5 -71t57.5 -189v-40h-297q4 -40 31 -66.5t74 -26.5q24 0 53 11.5t47 30.5l64 -87q-68 -69 -180 -69zM327 292q-2 36 -20.5 62.5t-59.5 26.5q-39 0 -58 -26.5t-22 -62.5h160z" />
    <glyph glyph-name="afii10072" unicode="&#x436;" horiz-adv-x="674" 
d="M166 0h-169l153 266l-145 217h168l92 -153v153h144v-153l92 153h168l-145 -217l153 -266h-169l-84 175l-15 -23v-152h-144v152l-15 23z" />
    <glyph glyph-name="afii10073" unicode="&#x437;" horiz-adv-x="445" 
d="M212 -12q-134 0 -205 76l66 86q54 -49 136 -49q69 0 69 44q0 43 -75 43h-90v111h88q69 0 69 42q0 19 -18.5 30t-50.5 11q-73 0 -120 -48l-68 84q72 77 184 77q103 0 160 -35.5t57 -98.5q0 -40 -32 -72.5t-79 -40.5q49 -6 84 -37t35 -78q1 -65 -56.5 -105t-153.5 -40z" />
    <glyph glyph-name="afii10074" unicode="&#x438;" 
d="M187 0h-139v483h145v-235l128 235h148v-483h-145v248z" />
    <glyph glyph-name="afii10075" unicode="&#x439;" 
d="M187 0h-139v483h145v-235l128 235h148v-483h-145v248zM409 610q-55 -75 -151 -75q-94 0 -151 75l64 51q31 -46 87 -46q57 0 87 46z" />
    <glyph glyph-name="afii10076" unicode="&#x43a;" horiz-adv-x="485" 
d="M488 0h-169l-84 175l-42 -63v-112h-145v483h145v-197l120 197h167l-145 -217z" />
    <glyph glyph-name="afii10077" unicode="&#x43b;" 
d="M17 -12v121q26 0 42 27.5t24 105.5l24 241h362v-483h-145v357h-87l-12 -131q-13 -129 -61 -183.5t-147 -54.5z" />
    <glyph glyph-name="afii10078" unicode="&#x43c;" horiz-adv-x="638" 
d="M590 0h-143v267l-96 -267h-64l-94 267v-267h-145v483h184l87 -244l88 244h183v-483z" />
    <glyph glyph-name="afii10079" unicode="&#x43d;" 
d="M193 0h-145v483h145v-169h131v169h145v-483h-145v188h-131v-188z" />
    <glyph glyph-name="afii10080" unicode="&#x43e;" horiz-adv-x="505" 
d="M252 -12q-108 0 -168.5 73.5t-60.5 180.5t60.5 180t168.5 73t169 -73t61 -180t-61 -180.5t-169 -73.5zM252 116q40 0 60.5 35t20.5 91t-20.5 90.5t-60.5 34.5q-39 0 -59.5 -34.5t-20.5 -90.5t20 -91t60 -35z" />
    <glyph glyph-name="afii10081" unicode="&#x43f;" 
d="M469 0h-145v357h-131v-357h-145v483h421v-483z" />
    <glyph glyph-name="afii10082" unicode="&#x440;" horiz-adv-x="515" 
d="M312 -12q-77 0 -119 69v-241h-145v667h145v-57q43 69 119 69q83 0 132 -67t49 -186q0 -118 -49 -186t-132 -68zM263 116q39 0 60.5 34.5t21.5 91.5t-21.5 91t-60.5 34q-20 0 -40 -12t-30 -32v-162q10 -19 30 -32t40 -13z" />
    <glyph glyph-name="afii10083" unicode="&#x441;" horiz-adv-x="429" 
d="M253 -12q-102 0 -166 70.5t-64 183.5q0 112 64 182.5t166 70.5q56 0 98 -19t64 -47l-70 -99q-31 37 -75 37t-71.5 -34.5t-27.5 -90.5t27.5 -91t71.5 -35q45 0 75 38l70 -100q-22 -28 -64 -47t-98 -19z" />
    <glyph glyph-name="afii10084" unicode="&#x442;" horiz-adv-x="382" 
d="M264 0h-145v357h-104v126h353v-126h-104v-357z" />
    <glyph glyph-name="afii10085" unicode="&#x443;" horiz-adv-x="466" 
d="M45 -188l20 127q11 -7 30 -7q42 0 52 28l11 31l-164 492h153l85 -309l87 309h153l-187 -555q-23 -70 -65 -96.5t-112 -27.5q-41 0 -63 8z" />
    <glyph glyph-name="afii10086" unicode="&#x444;" horiz-adv-x="750" 
d="M193 495q70 0 110 -69v241h144v-241q40 69 110 69q76 0 121 -67t45 -186q0 -118 -45 -186t-121 -68q-71 0 -110 69v-241h-144v241q-40 -69 -110 -69q-76 0 -121 67.5t-45 186.5q0 118 45 185.5t121 67.5zM243 367q-33 0 -51.5 -34t-18.5 -91t18.5 -91.5t51.5 -34.5
q17 0 33.5 12.5t26.5 31.5v162q-9 20 -26 32.5t-34 12.5zM506 116q33 0 52 34.5t19 91.5t-18.5 91t-51.5 34q-17 0 -33.5 -12t-26.5 -32v-162q9 -19 25.5 -32t33.5 -13z" />
    <glyph glyph-name="afii10087" unicode="&#x445;" horiz-adv-x="454" 
d="M457 0h-157l-73 145l-75 -145h-156l140 245l-132 238h156l66 -136l67 136h156l-132 -238z" />
    <glyph glyph-name="afii10088" unicode="&#x446;" horiz-adv-x="530" 
d="M373 -123v123h-325v483h145v-357h131v357h145v-357h49v-249h-145z" />
    <glyph glyph-name="afii10089" unicode="&#x447;" horiz-adv-x="509" 
d="M40 483h145v-152q0 -61 62 -61q39 0 69 17v196h144v-483h-144v174q-46 -31 -122 -31q-154 0 -154 138v202z" />
    <glyph glyph-name="afii10090" unicode="&#x448;" horiz-adv-x="752" 
d="M559 483h144v-483h-655v483h145v-357h110v357h145v-357h111v357z" />
    <glyph glyph-name="afii10091" unicode="&#x449;" horiz-adv-x="766" 
d="M559 483h144v-357h51v-249h-145v123h-561v483h145v-357h110v357h145v-357h111v357z" />
    <glyph glyph-name="afii10092" unicode="&#x44a;" horiz-adv-x="569" 
d="M369 0h-250v357h-104v126h249v-159h105q87 0 133 -46t46 -116q0 -69 -47 -115.5t-132 -46.5zM349 209h-85v-94h85q24 0 38 13t14 34q0 20 -14 33.5t-38 13.5z" />
    <glyph glyph-name="afii10093" unicode="&#x44b;" horiz-adv-x="718" 
d="M48 483h145v-159h105q87 0 133 -46t46 -116q0 -69 -47 -115.5t-132 -46.5h-250v483zM278 209h-85v-94h85q24 0 38 13t14 34q0 20 -14 33.5t-38 13.5zM670 0h-145v483h145v-483z" />
    <glyph glyph-name="afii10094" unicode="&#x44c;" horiz-adv-x="498" 
d="M48 483h145v-159h105q87 0 133 -46t46 -116q0 -69 -47 -115.5t-132 -46.5h-250v483zM278 209h-85v-94h85q24 0 38 13t14 34q0 20 -14 33.5t-38 13.5z" />
    <glyph glyph-name="afii10095" unicode="&#x44d;" horiz-adv-x="429" 
d="M176 -12q-56 0 -98 19t-64 47l67 87q31 -39 78 -39q76 0 97 90h-150v102h149q-21 87 -96 87q-45 0 -78 -39l-67 87q22 28 64 47t98 19q102 0 166 -70.5t64 -182.5q0 -113 -64 -183.5t-166 -70.5z" />
    <glyph glyph-name="afii10096" unicode="&#x44e;" horiz-adv-x="734" 
d="M482 -12q-93 0 -151.5 56t-73.5 144h-64v-188h-145v483h145v-169h68q18 81 75 131t146 50q108 0 169 -73t61 -180t-61 -180.5t-169 -73.5zM482 116q40 0 60.5 35t20.5 91t-20.5 90.5t-60.5 34.5q-39 0 -59.5 -34.5t-20.5 -90.5t20 -91t60 -35z" />
    <glyph glyph-name="afii10097" unicode="&#x44f;" horiz-adv-x="514" 
d="M191 0h-159l90 180q-34 14 -59.5 49.5t-25.5 92.5q0 69 48 115t131 46h252v-483h-145v159h-65zM236 274h87v94h-87q-24 0 -38 -13t-14 -34t14 -34t38 -13z" />
    <glyph glyph-name="afii10071" unicode="&#x451;" horiz-adv-x="484" 
d="M422 613q0 -31 -22 -52.5t-54 -21.5q-30 0 -52 21.5t-22 52.5t22 53t52 22q32 0 54 -22t22 -53zM227 613q0 -31 -21.5 -52.5t-52.5 -21.5t-53 21.5t-22 52.5t22 53t53 22t52.5 -21.5t21.5 -53.5zM257 -12q-105 0 -169.5 69.5t-64.5 184.5q0 108 62 180.5t164 72.5
q101 0 158.5 -71t57.5 -189v-40h-297q4 -40 31 -66.5t74 -26.5q24 0 53 11.5t47 30.5l64 -87q-68 -69 -180 -69zM327 292q-2 36 -20.5 62.5t-59.5 26.5q-39 0 -58 -26.5t-22 -62.5h160z" />
    <glyph glyph-name="afii10099" unicode="&#x452;" horiz-adv-x="525" 
d="M329 526h-128v-103q20 29 58.5 50.5t83.5 21.5q67 0 100.5 -35t33.5 -96v-376q0 -87 -41.5 -135.5t-126.5 -48.5q-60 0 -98 27l32 110q17 -16 43 -16q46 0 46 63v319q0 60 -57 60q-45 0 -74 -51v-316h-145v526h-45v80h45v61h145v-61h128v-80z" />
    <glyph glyph-name="afii10100" unicode="&#x453;" horiz-adv-x="390" 
d="M383 700l-134 -144h-94l103 144h125zM375 483v-126h-182v-357h-145v483h327z" />
    <glyph glyph-name="afii10101" unicode="&#x454;" horiz-adv-x="429" 
d="M253 -12q-102 0 -166 70.5t-64 183.5q0 112 64 182.5t166 70.5q56 0 98 -19t64 -47l-67 -87q-33 39 -78 39q-76 0 -97 -87h150v-102h-150q9 -43 34.5 -66.5t62.5 -23.5q47 0 78 39l67 -87q-22 -28 -64 -47t-98 -19z" />
    <glyph glyph-name="afii10102" unicode="&#x455;" horiz-adv-x="424" 
d="M210 -12q-61 0 -114 19t-84 50l58 99q25 -23 64 -40t73 -17q60 0 60 39q0 17 -24.5 27.5t-59.5 19.5t-70 23.5t-59.5 49t-24.5 85.5q0 64 50 108t138 44q100 0 178 -61l-56 -97q-20 20 -53 34t-68 14q-23 0 -38 -10t-15 -24q0 -15 24.5 -25.5t60 -20t71 -25t60 -50
t24.5 -86.5q0 -69 -53.5 -112.5t-141.5 -43.5z" />
    <glyph glyph-name="afii10103" unicode="&#x456;" horiz-adv-x="241" 
d="M121 529q-35 0 -59.5 24.5t-24.5 59.5t24.5 59.5t59.5 24.5t59 -24.5t24 -59.5t-24.5 -59.5t-58.5 -24.5zM193 0h-145v483h145v-483z" />
    <glyph glyph-name="afii10104" unicode="&#x457;" horiz-adv-x="241" 
d="M293 613q0 -31 -22 -52.5t-54 -21.5q-30 0 -52 21.5t-22 52.5t22 53t52 22q32 0 54 -22t22 -53zM98 613q0 -31 -21.5 -52.5t-52.5 -21.5t-53 21.5t-22 52.5t21.5 53t53.5 22q31 0 52.5 -21.5t21.5 -53.5zM193 0h-145v483h145v-483z" />
    <glyph glyph-name="afii10105" unicode="&#x458;" horiz-adv-x="241" 
d="M121 529q-35 0 -59.5 24.5t-24.5 59.5t24.5 59.5t59.5 24.5t59 -24.5t24 -59.5t-24.5 -59.5t-58.5 -24.5zM25 -196q-58 0 -98 27l33 110q17 -16 43 -16q45 0 45 63v495h145v-495q0 -87 -41.5 -135.5t-126.5 -48.5z" />
    <glyph glyph-name="afii10106" unicode="&#x459;" horiz-adv-x="774" 
d="M17 -12v121q26 0 42 27.5t24 105.5l24 241h362v-159h105q87 0 133 -46t46 -116q0 -69 -47 -115.5t-132 -46.5h-250v357h-87l-12 -131q-13 -129 -61 -183.5t-147 -54.5zM554 209h-85v-94h85q24 0 38 13t14 34q0 20 -14 33.5t-38 13.5z" />
    <glyph glyph-name="afii10107" unicode="&#x45a;" horiz-adv-x="767" 
d="M193 0h-145v483h145v-166h131v166h145v-166h106q86 0 132 -45t46 -114q0 -67 -47 -112.5t-131 -45.5h-251v191h-131v-191zM559 197h-90v-82h90q22 0 34.5 11.5t12.5 29.5t-12.5 29.5t-34.5 11.5z" />
    <glyph glyph-name="afii10108" unicode="&#x45b;" horiz-adv-x="525" 
d="M332 526h-132v-103q20 29 59 50.5t84 21.5q67 0 100 -35t33 -96v-364h-144v307q0 60 -57 60q-46 0 -75 -51v-316h-144v526h-45v81h45v60h144v-60h132v-81z" />
    <glyph glyph-name="afii10109" unicode="&#x45c;" horiz-adv-x="485" 
d="M415 700l-134 -144h-94l103 144h125zM488 0h-169l-84 175l-42 -63v-112h-145v483h145v-197l120 197h167l-145 -217z" />
    <glyph glyph-name="afii10110" unicode="&#x45e;" horiz-adv-x="466" 
d="M45 -188l20 127q11 -7 30 -7q42 0 52 28l11 31l-164 492h153l85 -309l87 309h153l-187 -555q-23 -70 -65 -96.5t-112 -27.5q-41 0 -63 8zM384 610q-55 -75 -151 -75q-94 0 -151 75l64 51q31 -46 87 -46q57 0 87 46z" />
    <glyph glyph-name="afii10193" unicode="&#x45f;" 
d="M186 -124v124h-138v483h145v-357h131v357h145v-483h-138v-124h-145z" />
    <glyph glyph-name="afii10050" unicode="&#x490;" horiz-adv-x="485" 
d="M215 526v-526h-162v667h240v123h162v-264h-240z" />
    <glyph glyph-name="afii10098" unicode="&#x491;" horiz-adv-x="390" 
d="M193 357v-357h-145v483h183v124h144v-250h-182z" />
    <glyph glyph-name="uni1E02" unicode="&#x1e02;" horiz-adv-x="579" 
d="M367 0h-314v667h304q89 0 135.5 -49.5t46.5 -120.5q0 -60 -30.5 -100.5t-79.5 -52.5q52 -8 86.5 -54.5t34.5 -108.5q0 -79 -46.5 -130t-136.5 -51zM317 408q27 0 42 16t15 44t-15 44t-42 16h-102v-120h102zM322 139q63 0 63 65q0 29 -17 47t-46 18h-107v-130h107z
M289 706q-30 0 -52 21.5t-22 52.5t22 53t52 22q31 0 53 -22t22 -53t-22 -52.5t-53 -21.5z" />
    <glyph glyph-name="uni1E03" unicode="&#x1e03;" horiz-adv-x="516" 
d="M193 161q10 -20 30 -32.5t41 -12.5q38 0 60 34.5t22 91.5q0 56 -22 90.5t-60 34.5q-20 0 -40.5 -13t-30.5 -32v-161zM193 0h-145v667h145v-241q42 69 119 69q82 0 132 -68.5t50 -184.5q0 -119 -50 -186.5t-132 -67.5q-73 0 -119 69v-57zM264 706q-30 0 -52 21.5t-22 52.5
t22 53t52 22q31 0 53 -22t22 -53t-22 -52.5t-53 -21.5z" />
    <glyph glyph-name="uni1E0A" unicode="&#x1e0a;" horiz-adv-x="613" 
d="M287 0h-234v667h234q140 0 220.5 -91.5t80.5 -242.5t-80 -242t-221 -91zM287 141q64 0 100 52t36 140q0 93 -35 143t-101 50h-72v-385h72zM306 706q-30 0 -52 21.5t-22 52.5t22 53t52 22q31 0 53 -22t22 -53t-22 -52.5t-53 -21.5z" />
    <glyph glyph-name="uni1E0B" unicode="&#x1e0b;" horiz-adv-x="516" 
d="M468 0h-144v57q-46 -69 -120 -69q-82 0 -131.5 67t-49.5 187q0 116 49.5 184.5t131.5 68.5q77 0 120 -69v241h144v-667zM253 116q20 0 40 13t31 32v162q-11 19 -31 31.5t-40 12.5q-39 0 -60.5 -34t-21.5 -91t21.5 -91.5t60.5 -34.5zM254 706q-30 0 -52 21.5t-22 52.5
t22 53t52 22q31 0 53 -22t22 -53t-22 -52.5t-53 -21.5z" />
    <glyph glyph-name="uni1E1E" unicode="&#x1e1e;" horiz-adv-x="485" 
d="M256 706q-30 0 -52 21.5t-22 52.5t22 53t52 22q31 0 53 -22t22 -53t-22 -52.5t-53 -21.5zM215 0h-162v667h402v-141h-240v-117h233v-141h-233v-268z" />
    <glyph glyph-name="uni1E1F" unicode="&#x1e1f;" horiz-adv-x="306" 
d="M230 706q-30 0 -52 21.5t-22 52.5t22 53t52 22q31 0 53 -22t22 -53t-22 -52.5t-53 -21.5zM218 0h-145v357h-62v126h62v29q0 77 42 121t116 44q77 0 115 -37l-43 -96q-17 17 -41 17q-20 0 -32 -13t-12 -36v-29h78v-126h-78v-357z" />
    <glyph glyph-name="uni1E22" unicode="&#x1e22;" horiz-adv-x="625" 
d="M571 0h-162v272h-194v-272h-162v667h162v-253h194v253h162v-667zM311 706q-30 0 -52 21.5t-22 52.5t22 53t52 22q31 0 53 -22t22 -53t-22 -52.5t-53 -21.5z" />
    <glyph glyph-name="uni1E23" unicode="&#x1e23;" horiz-adv-x="518" 
d="M469 0h-144v307q0 60 -57 60q-46 0 -75 -51v-316h-144v667h144v-244q20 29 59 50.5t84 21.5q67 0 100 -35t33 -96v-364zM258 706q-30 0 -52 21.5t-22 52.5t22 53t52 22q31 0 53 -22t22 -53t-22 -52.5t-53 -21.5z" />
    <glyph glyph-name="uni1E56" unicode="&#x1e56;" horiz-adv-x="556" 
d="M215 0h-162v667h268q104 0 160.5 -63t56.5 -157q0 -93 -56.5 -155.5t-160.5 -62.5h-106v-229zM301 370q33 0 53 21t20 57t-20 57t-53 21h-86v-156h86zM277 706q-30 0 -52 21.5t-22 52.5t22 53t52 22q31 0 53 -22t22 -53t-22 -52.5t-53 -21.5z" />
    <glyph glyph-name="uni1E57" unicode="&#x1e57;" horiz-adv-x="515" 
d="M312 -12q-77 0 -119 69v-241h-145v667h145v-57q43 69 119 69q83 0 132 -67t49 -186q0 -118 -49 -186t-132 -68zM263 116q39 0 60.5 34.5t21.5 91.5t-21.5 91t-60.5 34q-20 0 -40 -12t-30 -32v-162q10 -19 30 -32t40 -13zM264 539q-30 0 -52 21.5t-22 52.5t22 53t52 22
q31 0 53 -22t22 -53t-22 -52.5t-53 -21.5z" />
    <glyph glyph-name="uni1E60" unicode="&#x1e60;" horiz-adv-x="511" 
d="M251 -12q-151 0 -241 87l77 124q66 -71 163 -71q35 0 55.5 16t20.5 41q0 22 -22 38.5t-55 27t-71 27.5t-71 38t-55 61.5t-22 95.5q0 85 63 145t171 60q129 0 214 -76l-75 -120q-59 55 -145 55q-30 0 -46.5 -14t-16.5 -37q0 -20 22 -36t54.5 -27t71 -29t71 -39t54.5 -61
t22 -93q0 -97 -63.5 -155t-175.5 -58zM255 706q-30 0 -52 21.5t-22 52.5t22 53t52 22q31 0 53 -22t22 -53t-22 -52.5t-53 -21.5z" />
    <glyph glyph-name="uni1E61" unicode="&#x1e61;" horiz-adv-x="424" 
d="M210 -12q-61 0 -114 19t-84 50l58 99q25 -23 64 -40t73 -17q60 0 60 39q0 17 -24.5 27.5t-59.5 19.5t-70 23.5t-59.5 49t-24.5 85.5q0 64 50 108t138 44q100 0 178 -61l-56 -97q-20 20 -53 34t-68 14q-23 0 -38 -10t-15 -24q0 -15 24.5 -25.5t60 -20t71 -25t60 -50
t24.5 -86.5q0 -69 -53.5 -112.5t-141.5 -43.5zM211 539q-30 0 -52 21.5t-22 52.5t22 53t52 22q31 0 53 -22t22 -53t-22 -52.5t-53 -21.5z" />
    <glyph glyph-name="uni1E6A" unicode="&#x1e6a;" horiz-adv-x="487" 
d="M325 0h-162v526h-143v141h447v-141h-142v-526zM243 706q-30 0 -52 21.5t-22 52.5t22 53t52 22q31 0 53 -22t22 -53t-22 -52.5t-53 -21.5z" />
    <glyph glyph-name="uni1E6B" unicode="&#x1e6b;" horiz-adv-x="315" 
d="M209 -12q-137 0 -137 137v232h-61v126h61v132h145v-132h78v-126h-78v-196q0 -45 33 -45q22 0 33 11l26 -112q-32 -27 -100 -27zM147 706q-30 0 -52 21.5t-22 52.5t22 53t52 22q31 0 53 -22t22 -53t-22 -52.5t-53 -21.5z" />
    <glyph glyph-name="Wgrave" unicode="&#x1e80;" horiz-adv-x="793" 
d="M638 0h-167l-75 403l-74 -403h-167l-154 667h173l74 -425l87 425h124l86 -425l74 425h173zM454 723h-94l-134 144h125z" />
    <glyph glyph-name="wgrave" unicode="&#x1e81;" horiz-adv-x="714" 
d="M588 0h-154l-77 299l-77 -299h-154l-128 483h148l67 -299l76 299h132l79 -299l67 299h150zM413 556h-94l-134 144h125z" />
    <glyph glyph-name="Wacute" unicode="&#x1e82;" horiz-adv-x="793" 
d="M568 867l-134 -144h-94l103 144h125zM638 0h-167l-75 403l-74 -403h-167l-154 667h173l74 -425l87 425h124l86 -425l74 425h173z" />
    <glyph glyph-name="wacute" unicode="&#x1e83;" horiz-adv-x="714" 
d="M527 700l-134 -144h-94l103 144h125zM588 0h-154l-77 299l-77 -299h-154l-128 483h148l67 -299l76 299h132l79 -299l67 299h150z" />
    <glyph glyph-name="Wdieresis" unicode="&#x1e84;" horiz-adv-x="793" 
d="M568 780q0 -31 -22 -52.5t-54 -21.5q-30 0 -52 21.5t-22 52.5t22 53t52 22q32 0 54 -22t22 -53zM373 780q0 -31 -21.5 -52.5t-52.5 -21.5t-53 21.5t-22 52.5q0 32 22 53.5t53 21.5t52.5 -21.5t21.5 -53.5zM638 0h-167l-75 403l-74 -403h-167l-154 667h173l74 -425l87 425
h124l86 -425l74 425h173z" />
    <glyph glyph-name="wdieresis" unicode="&#x1e85;" horiz-adv-x="714" 
d="M529 613q0 -31 -22 -52.5t-54 -21.5q-30 0 -52 21.5t-22 52.5t22 53t52 22q32 0 54 -22t22 -53zM334 613q0 -31 -21.5 -52.5t-52.5 -21.5t-53 21.5t-22 52.5t21.5 53t53.5 22q31 0 52.5 -21.5t21.5 -53.5zM588 0h-154l-77 299l-77 -299h-154l-128 483h148l67 -299l76 299
h132l79 -299l67 299h150z" />
    <glyph glyph-name="uni1EA0" unicode="&#x1ea0;" horiz-adv-x="575" 
d="M582 0h-175l-25 102h-189l-25 -102h-175l197 667h195zM350 243l-62 256l-63 -256h125zM288 -200q-30 0 -52 21.5t-22 52.5t22 53t52 22q31 0 53 -22t22 -53t-22 -52.5t-53 -21.5z" />
    <glyph glyph-name="uni1EA1" unicode="&#x1ea1;" horiz-adv-x="492" 
d="M444 0h-144v47q-19 -27 -54.5 -43t-72.5 -16q-61 0 -106 42.5t-45 117.5q0 76 44 115.5t107 39.5q39 0 74 -14.5t53 -40.5v55q0 34 -22.5 54.5t-62.5 20.5q-63 0 -119 -50l-51 97q76 70 198 70q90 0 145.5 -42.5t55.5 -134.5v-318zM230 83q49 0 70 38v49q-21 38 -70 38
q-28 0 -46 -16.5t-18 -45.5t18 -46t46 -17zM247 -200q-30 0 -52 21.5t-22 52.5t22 53t52 22q31 0 53 -22t22 -53t-22 -52.5t-53 -21.5z" />
    <glyph glyph-name="uni1EA2" unicode="&#x1ea2;" horiz-adv-x="575" 
d="M582 0h-175l-25 102h-189l-25 -102h-175l197 667h195zM350 243l-62 256l-63 -256h125zM263 751l-51 12q17 57 76 57q33 0 53.5 -17.5t20.5 -53.5q0 -26 -14 -52h-56q17 23 17 49q0 28 -22 28q-17 0 -24 -23z" />
    <glyph glyph-name="uni1EA3" unicode="&#x1ea3;" horiz-adv-x="492" 
d="M444 0h-144v47q-19 -27 -54.5 -43t-72.5 -16q-61 0 -106 42.5t-45 117.5q0 76 44 115.5t107 39.5q39 0 74 -14.5t53 -40.5v55q0 34 -22.5 54.5t-62.5 20.5q-63 0 -119 -50l-51 97q76 70 198 70q90 0 145.5 -42.5t55.5 -134.5v-318zM230 83q49 0 70 38v49q-21 38 -70 38
q-28 0 -46 -16.5t-18 -45.5t18 -46t46 -17zM221 581l-51 12q17 57 76 57q33 0 53.5 -17.5t20.5 -53.5q0 -26 -14 -52h-56q17 23 17 49q0 28 -22 28q-17 0 -24 -23z" />
    <glyph glyph-name="uni1EA4" unicode="&#x1ea4;" horiz-adv-x="575" 
d="M429 682h-82l-60 62l-57 -62h-82l75 108h128zM582 0h-175l-25 102h-189l-25 -102h-175l197 667h195zM350 243l-62 256l-63 -256h125zM628 843l-134 -108h-94l103 108h125z" />
    <glyph glyph-name="uni1EA5" unicode="&#x1ea5;" horiz-adv-x="492" 
d="M444 0h-144v47q-19 -27 -54.5 -43t-72.5 -16q-61 0 -106 42.5t-45 117.5q0 76 44 115.5t107 39.5q39 0 74 -14.5t53 -40.5v55q0 34 -22.5 54.5t-62.5 20.5q-63 0 -119 -50l-51 97q76 70 198 70q90 0 145.5 -42.5t55.5 -134.5v-318zM230 83q49 0 70 38v49q-21 38 -70 38
q-28 0 -46 -16.5t-18 -45.5t18 -46t46 -17zM388 556h-82l-60 83l-57 -83h-82l75 144h128zM583 770l-134 -144h-94l103 144h125z" />
    <glyph glyph-name="uni1EA6" unicode="&#x1ea6;" horiz-adv-x="575" 
d="M429 682h-82l-60 62l-57 -62h-82l75 108h128zM582 0h-175l-25 102h-189l-25 -102h-175l197 667h195zM350 243l-62 256l-63 -256h125zM177 735h-94l-134 108h125z" />
    <glyph glyph-name="uni1EA7" unicode="&#x1ea7;" horiz-adv-x="492" 
d="M444 0h-144v47q-19 -27 -54.5 -43t-72.5 -16q-61 0 -106 42.5t-45 117.5q0 76 44 115.5t107 39.5q39 0 74 -14.5t53 -40.5v55q0 34 -22.5 54.5t-62.5 20.5q-63 0 -119 -50l-51 97q76 70 198 70q90 0 145.5 -42.5t55.5 -134.5v-318zM230 83q49 0 70 38v49q-21 38 -70 38
q-28 0 -46 -16.5t-18 -45.5t18 -46t46 -17zM388 556h-82l-60 83l-57 -83h-82l75 144h128zM135 626h-94l-134 144h125z" />
    <glyph glyph-name="uni1EA8" unicode="&#x1ea8;" horiz-adv-x="575" 
d="M429 682h-82l-60 62l-57 -62h-82l75 108h128zM582 0h-175l-25 102h-189l-25 -102h-175l197 667h195zM350 243l-62 256l-63 -256h125zM420 785l-51 9q17 42 76 42q74 0 74 -53q0 -20 -14 -39h-56q17 17 17 37q0 21 -22 21q-16 0 -24 -17z" />
    <glyph glyph-name="uni1EA9" unicode="&#x1ea9;" horiz-adv-x="492" 
d="M444 0h-144v47q-19 -27 -54.5 -43t-72.5 -16q-61 0 -106 42.5t-45 117.5q0 76 44 115.5t107 39.5q39 0 74 -14.5t53 -40.5v55q0 34 -22.5 54.5t-62.5 20.5q-63 0 -119 -50l-51 97q76 70 198 70q90 0 145.5 -42.5t55.5 -134.5v-318zM230 83q49 0 70 38v49q-21 38 -70 38
q-28 0 -46 -16.5t-18 -45.5t18 -46t46 -17zM388 556h-82l-60 83l-57 -83h-82l75 144h128zM325 721l-51 12q17 57 76 57q33 0 53.5 -17.5t20.5 -53.5q0 -26 -14 -52h-56q17 23 17 49q0 28 -22 28q-17 0 -24 -23z" />
    <glyph glyph-name="uni1EAA" unicode="&#x1eaa;" horiz-adv-x="575" 
d="M429 678h-82l-60 41l-57 -41h-82l75 72h128zM582 0h-175l-25 102h-189l-25 -102h-175l197 667h195zM350 243l-62 256l-63 -256h125zM337 757q-33 0 -62 14.5t-40 14.5q-27 0 -27 -26h-72q0 32 26.5 49.5t75.5 17.5q33 0 61.5 -15t39.5 -15q28 0 28 27h71
q0 -32 -26.5 -49.5t-74.5 -17.5z" />
    <glyph glyph-name="uni1EAB" unicode="&#x1eab;" horiz-adv-x="492" 
d="M444 0h-144v47q-19 -27 -54.5 -43t-72.5 -16q-61 0 -106 42.5t-45 117.5q0 76 44 115.5t107 39.5q39 0 74 -14.5t53 -40.5v55q0 34 -22.5 54.5t-62.5 20.5q-63 0 -119 -50l-51 97q76 70 198 70q90 0 145.5 -42.5t55.5 -134.5v-318zM230 83q49 0 70 38v49q-21 38 -70 38
q-28 0 -46 -16.5t-18 -45.5t18 -46t46 -17zM388 523h-82l-60 83l-57 -83h-82l75 144h128zM296 682q-32 0 -61 29.5t-41 29.5q-27 0 -27 -53h-72q0 64 26.5 99t75.5 35q25 0 44 -15t32.5 -30t24.5 -15q28 0 28 54h71q0 -63 -26.5 -98.5t-74.5 -35.5z" />
    <glyph glyph-name="uni1EAC" unicode="&#x1eac;" horiz-adv-x="575" 
d="M582 0h-175l-25 102h-189l-25 -102h-175l197 667h195zM350 243l-62 256l-63 -256h125zM428 723h-82l-60 83l-57 -83h-82l75 144h128zM288 -200q-30 0 -52 21.5t-22 52.5t22 53t52 22q31 0 53 -22t22 -53t-22 -52.5t-53 -21.5z" />
    <glyph glyph-name="uni1EAD" unicode="&#x1ead;" horiz-adv-x="492" 
d="M444 0h-144v47q-19 -27 -54.5 -43t-72.5 -16q-61 0 -106 42.5t-45 117.5q0 76 44 115.5t107 39.5q39 0 74 -14.5t53 -40.5v55q0 34 -22.5 54.5t-62.5 20.5q-63 0 -119 -50l-51 97q76 70 198 70q90 0 145.5 -42.5t55.5 -134.5v-318zM230 83q49 0 70 38v49q-21 38 -70 38
q-28 0 -46 -16.5t-18 -45.5t18 -46t46 -17zM387 556h-82l-60 83l-57 -83h-82l75 144h128zM247 -200q-30 0 -52 21.5t-22 52.5t22 53t52 22q31 0 53 -22t22 -53t-22 -52.5t-53 -21.5z" />
    <glyph glyph-name="uni1EAE" unicode="&#x1eae;" horiz-adv-x="575" 
d="M582 0h-175l-25 102h-189l-25 -102h-175l197 667h195zM350 243l-62 256l-63 -256h125zM459 829l-134 -80h-94l103 80h125zM438 729q-56 -46 -151 -46q-93 0 -151 46l64 32q31 -29 87 -29t87 29z" />
    <glyph glyph-name="uni1EAF" unicode="&#x1eaf;" horiz-adv-x="492" 
d="M444 0h-144v47q-19 -27 -54.5 -43t-72.5 -16q-61 0 -106 42.5t-45 117.5q0 76 44 115.5t107 39.5q39 0 74 -14.5t53 -40.5v55q0 34 -22.5 54.5t-62.5 20.5q-63 0 -119 -50l-51 97q76 70 198 70q90 0 145.5 -42.5t55.5 -134.5v-318zM230 83q49 0 70 38v49q-21 38 -70 38
q-28 0 -46 -16.5t-18 -45.5t18 -46t46 -17zM417 783l-134 -144h-94l103 144h125zM396 591q-55 -75 -151 -75q-94 0 -151 75l64 51q31 -46 87 -46q57 0 87 46z" />
    <glyph glyph-name="uni1EB0" unicode="&#x1eb0;" horiz-adv-x="575" 
d="M582 0h-175l-25 102h-189l-25 -102h-175l197 667h195zM350 243l-62 256l-63 -256h125zM346 749h-94l-134 80h125zM438 726q-56 -46 -151 -46q-93 0 -151 46l64 32q31 -29 87 -29t87 29z" />
    <glyph glyph-name="uni1EB1" unicode="&#x1eb1;" horiz-adv-x="492" 
d="M444 0h-144v47q-19 -27 -54.5 -43t-72.5 -16q-61 0 -106 42.5t-45 117.5q0 76 44 115.5t107 39.5q39 0 74 -14.5t53 -40.5v55q0 34 -22.5 54.5t-62.5 20.5q-63 0 -119 -50l-51 97q76 70 198 70q90 0 145.5 -42.5t55.5 -134.5v-318zM230 83q49 0 70 38v49q-21 38 -70 38
q-28 0 -46 -16.5t-18 -45.5t18 -46t46 -17zM301 639h-94l-134 144h125zM396 591q-55 -75 -151 -75q-94 0 -151 75l64 51q31 -46 87 -46q57 0 87 46z" />
    <glyph glyph-name="uni1EB2" unicode="&#x1eb2;" horiz-adv-x="575" 
d="M582 0h-175l-25 102h-189l-25 -102h-175l197 667h195zM350 243l-62 256l-63 -256h125zM264 780l-51 7q17 32 76 32q74 0 74 -40q0 -15 -14 -29h-56q17 13 17 27q0 16 -22 16q-17 0 -24 -13zM438 727q-56 -46 -151 -46q-93 0 -151 46l64 32q31 -29 87 -29t87 29z" />
    <glyph glyph-name="uni1EB3" unicode="&#x1eb3;" horiz-adv-x="492" 
d="M444 0h-144v47q-19 -27 -54.5 -43t-72.5 -16q-61 0 -106 42.5t-45 117.5q0 76 44 115.5t107 39.5q39 0 74 -14.5t53 -40.5v55q0 34 -22.5 54.5t-62.5 20.5q-63 0 -119 -50l-51 97q76 70 198 70q90 0 145.5 -42.5t55.5 -134.5v-318zM230 83q49 0 70 38v49q-21 38 -70 38
q-28 0 -46 -16.5t-18 -45.5t18 -46t46 -17zM222 696l-51 12q17 57 76 57q33 0 53.5 -17.5t20.5 -53.5q0 -26 -14 -52h-56q17 23 17 49q0 28 -22 28q-17 0 -24 -23zM396 591q-55 -75 -151 -75q-94 0 -151 75l64 51q31 -46 87 -46q57 0 87 46z" />
    <glyph glyph-name="uni1EB4" unicode="&#x1eb4;" horiz-adv-x="575" 
d="M582 0h-175l-25 102h-189l-25 -102h-175l197 667h195zM350 243l-62 256l-63 -256h125zM439 721q-56 -41 -151 -41q-94 0 -151 41l64 28q32 -25 87 -25q57 0 87 25zM337 757q-33 0 -62 14.5t-40 14.5q-27 0 -27 -26h-72q0 32 26.5 49.5t75.5 17.5q33 0 61.5 -15t39.5 -15
q28 0 28 27h71q0 -32 -26.5 -49.5t-74.5 -17.5z" />
    <glyph glyph-name="uni1EB5" unicode="&#x1eb5;" horiz-adv-x="492" 
d="M444 0h-144v47q-19 -27 -54.5 -43t-72.5 -16q-61 0 -106 42.5t-45 117.5q0 76 44 115.5t107 39.5q39 0 74 -14.5t53 -40.5v55q0 34 -22.5 54.5t-62.5 20.5q-63 0 -119 -50l-51 97q76 70 198 70q90 0 145.5 -42.5t55.5 -134.5v-318zM230 83q49 0 70 38v49q-21 38 -70 38
q-28 0 -46 -16.5t-18 -45.5t18 -46t46 -17zM396 591q-55 -75 -151 -75q-94 0 -151 75l64 51q31 -46 87 -46q57 0 87 46zM293 654q-25 0 -44 15t-32.5 29.5t-25.5 14.5q-27 0 -27 -53h-72q0 64 26.5 99t75.5 35q25 0 44 -15t32.5 -30t24.5 -15q28 0 28 54h71
q0 -63 -26.5 -98.5t-74.5 -35.5z" />
    <glyph glyph-name="uni1EB6" unicode="&#x1eb6;" horiz-adv-x="575" 
d="M582 0h-175l-25 102h-189l-25 -102h-175l197 667h195zM350 243l-62 256l-63 -256h125zM288 -200q-30 0 -52 21.5t-22 52.5t22 53t52 22q31 0 53 -22t22 -53t-22 -52.5t-53 -21.5zM438 777q-55 -75 -151 -75q-94 0 -151 75l64 51q31 -46 87 -46q57 0 87 46z" />
    <glyph glyph-name="uni1EB7" unicode="&#x1eb7;" horiz-adv-x="492" 
d="M444 0h-144v47q-19 -27 -54.5 -43t-72.5 -16q-61 0 -106 42.5t-45 117.5q0 76 44 115.5t107 39.5q39 0 74 -14.5t53 -40.5v55q0 34 -22.5 54.5t-62.5 20.5q-63 0 -119 -50l-51 97q76 70 198 70q90 0 145.5 -42.5t55.5 -134.5v-318zM230 83q49 0 70 38v49q-21 38 -70 38
q-28 0 -46 -16.5t-18 -45.5t18 -46t46 -17zM247 -200q-30 0 -52 21.5t-22 52.5t22 53t52 22q31 0 53 -22t22 -53t-22 -52.5t-53 -21.5zM396 610q-55 -75 -151 -75q-94 0 -151 75l64 51q31 -46 87 -46q57 0 87 46z" />
    <glyph glyph-name="uni1EB8" unicode="&#x1eb8;" horiz-adv-x="491" 
d="M455 0h-402v667h402v-141h-240v-117h233v-141h-233v-127h240v-141zM256 -200q-30 0 -52 21.5t-22 52.5t22 53t52 22q31 0 53 -22t22 -53t-22 -52.5t-53 -21.5z" />
    <glyph glyph-name="uni1EB9" unicode="&#x1eb9;" horiz-adv-x="484" 
d="M257 -12q-105 0 -169.5 69.5t-64.5 184.5q0 108 62 180.5t164 72.5q101 0 158.5 -71t57.5 -189v-40h-297q4 -40 31 -66.5t74 -26.5q24 0 53 11.5t47 30.5l64 -87q-68 -69 -180 -69zM327 292q-2 36 -20.5 62.5t-59.5 26.5q-39 0 -58 -26.5t-22 -62.5h160zM249 -200
q-30 0 -52 21.5t-22 52.5t22 53t52 22q31 0 53 -22t22 -53t-22 -52.5t-53 -21.5z" />
    <glyph glyph-name="uni1EBA" unicode="&#x1eba;" horiz-adv-x="491" 
d="M455 0h-402v667h402v-141h-240v-117h233v-141h-233v-127h240v-141zM223 751l-51 12q17 57 76 57q33 0 53.5 -17.5t20.5 -53.5q0 -26 -14 -52h-56q17 23 17 49q0 28 -22 28q-17 0 -24 -23z" />
    <glyph glyph-name="uni1EBB" unicode="&#x1ebb;" horiz-adv-x="484" 
d="M257 -12q-105 0 -169.5 69.5t-64.5 184.5q0 108 62 180.5t164 72.5q101 0 158.5 -71t57.5 -189v-40h-297q4 -40 31 -66.5t74 -26.5q24 0 53 11.5t47 30.5l64 -87q-68 -69 -180 -69zM327 292q-2 36 -20.5 62.5t-59.5 26.5q-39 0 -58 -26.5t-22 -62.5h160zM219 581l-51 12
q17 57 76 57q33 0 53.5 -17.5t20.5 -53.5q0 -26 -14 -52h-56q17 23 17 49q0 28 -22 28q-17 0 -24 -23z" />
    <glyph glyph-name="uni1EBC" unicode="&#x1ebc;" horiz-adv-x="491" 
d="M455 0h-402v667h402v-141h-240v-117h233v-141h-233v-127h240v-141zM310 721q-32 0 -61 29.5t-41 29.5q-27 0 -27 -53h-72q0 63 26.5 98.5t75.5 35.5q25 0 44 -15t32.5 -30t24.5 -15q28 0 28 54h71q0 -63 -26.5 -98.5t-74.5 -35.5z" />
    <glyph glyph-name="uni1EBD" unicode="&#x1ebd;" horiz-adv-x="484" 
d="M257 -12q-105 0 -169.5 69.5t-64.5 184.5q0 108 62 180.5t164 72.5q101 0 158.5 -71t57.5 -189v-40h-297q4 -40 31 -66.5t74 -26.5q24 0 53 11.5t47 30.5l64 -87q-68 -69 -180 -69zM327 292q-2 36 -20.5 62.5t-59.5 26.5q-39 0 -58 -26.5t-22 -62.5h160zM294 554
q-25 0 -44 15t-32.5 29.5t-25.5 14.5q-27 0 -27 -53h-72q0 64 26.5 99t75.5 35q25 0 44 -15t32.5 -30t24.5 -15q28 0 28 54h71q0 -63 -26.5 -98.5t-74.5 -35.5z" />
    <glyph glyph-name="uni1EBE" unicode="&#x1ebe;" horiz-adv-x="491" 
d="M398 682h-82l-60 62l-57 -62h-82l75 108h128zM597 843l-134 -108h-94l103 108h125zM455 0h-402v667h402v-141h-240v-117h233v-141h-233v-127h240v-141z" />
    <glyph glyph-name="uni1EBF" unicode="&#x1ebf;" horiz-adv-x="484" 
d="M388 556h-82l-60 83l-57 -83h-82l75 144h128zM583 770l-134 -144h-94l103 144h125zM257 -12q-105 0 -169.5 69.5t-64.5 184.5q0 108 62 180.5t164 72.5q101 0 158.5 -71t57.5 -189v-40h-297q4 -40 31 -66.5t74 -26.5q24 0 53 11.5t47 30.5l64 -87q-68 -69 -180 -69z
M327 292q-2 36 -20.5 62.5t-59.5 26.5q-39 0 -58 -26.5t-22 -62.5h160z" />
    <glyph glyph-name="uni1EC0" unicode="&#x1ec0;" horiz-adv-x="491" 
d="M399 682h-82l-60 62l-57 -62h-82l75 108h128zM455 0h-402v667h402v-141h-240v-117h233v-141h-233v-127h240v-141zM147 735h-94l-134 108h125z" />
    <glyph glyph-name="uni1EC1" unicode="&#x1ec1;" horiz-adv-x="484" 
d="M388 556h-82l-60 83l-57 -83h-82l75 144h128zM257 -12q-105 0 -169.5 69.5t-64.5 184.5q0 108 62 180.5t164 72.5q101 0 158.5 -71t57.5 -189v-40h-297q4 -40 31 -66.5t74 -26.5q24 0 53 11.5t47 30.5l64 -87q-68 -69 -180 -69zM327 292q-2 36 -20.5 62.5t-59.5 26.5
q-39 0 -58 -26.5t-22 -62.5h160zM135 626h-94l-134 144h125z" />
    <glyph glyph-name="uni1EC2" unicode="&#x1ec2;" horiz-adv-x="491" 
d="M397 682h-82l-60 62l-57 -62h-82l75 108h128zM455 0h-402v667h402v-141h-240v-117h233v-141h-233v-127h240v-141zM387 785l-51 9q17 42 76 42q74 0 74 -53q0 -20 -14 -39h-56q17 17 17 37q0 21 -22 21q-16 0 -24 -17z" />
    <glyph glyph-name="uni1EC3" unicode="&#x1ec3;" horiz-adv-x="484" 
d="M388 556h-82l-60 83l-57 -83h-82l75 144h128zM257 -12q-105 0 -169.5 69.5t-64.5 184.5q0 108 62 180.5t164 72.5q101 0 158.5 -71t57.5 -189v-40h-297q4 -40 31 -66.5t74 -26.5q24 0 53 11.5t47 30.5l64 -87q-68 -69 -180 -69zM327 292q-2 36 -20.5 62.5t-59.5 26.5
q-39 0 -58 -26.5t-22 -62.5h160zM325 721l-51 12q17 57 76 57q33 0 53.5 -17.5t20.5 -53.5q0 -26 -14 -52h-56q17 23 17 49q0 28 -22 28q-17 0 -24 -23z" />
    <glyph glyph-name="uni1EC4" unicode="&#x1ec4;" horiz-adv-x="491" 
d="M397 678h-82l-60 41l-57 -41h-82l75 72h128zM455 0h-402v667h402v-141h-240v-117h233v-141h-233v-127h240v-141zM305 757q-33 0 -62 14.5t-40 14.5q-27 0 -27 -26h-72q0 32 26.5 49.5t75.5 17.5q33 0 61.5 -15t39.5 -15q28 0 28 27h71q0 -32 -26.5 -49.5t-74.5 -17.5z
" />
    <glyph glyph-name="uni1EC5" unicode="&#x1ec5;" horiz-adv-x="484" 
d="M387 523h-82l-60 83l-57 -83h-82l75 144h128zM257 -12q-105 0 -169.5 69.5t-64.5 184.5q0 108 62 180.5t164 72.5q101 0 158.5 -71t57.5 -189v-40h-297q4 -40 31 -66.5t74 -26.5q24 0 53 11.5t47 30.5l64 -87q-68 -69 -180 -69zM327 292q-2 36 -20.5 62.5t-59.5 26.5
q-39 0 -58 -26.5t-22 -62.5h160zM296 682q-32 0 -61 29.5t-41 29.5q-27 0 -27 -53h-72q0 64 26.5 99t75.5 35q25 0 44 -15t32.5 -30t24.5 -15q28 0 28 54h71q0 -63 -26.5 -98.5t-74.5 -35.5z" />
    <glyph glyph-name="uni1EC6" unicode="&#x1ec6;" horiz-adv-x="491" 
d="M395 723h-82l-60 83l-57 -83h-82l75 144h128zM455 0h-402v667h402v-141h-240v-117h233v-141h-233v-127h240v-141zM256 -200q-30 0 -52 21.5t-22 52.5t22 53t52 22q31 0 53 -22t22 -53t-22 -52.5t-53 -21.5z" />
    <glyph glyph-name="uni1EC7" unicode="&#x1ec7;" horiz-adv-x="484" 
d="M390 556h-82l-60 83l-57 -83h-82l75 144h128zM257 -12q-105 0 -169.5 69.5t-64.5 184.5q0 108 62 180.5t164 72.5q101 0 158.5 -71t57.5 -189v-40h-297q4 -40 31 -66.5t74 -26.5q24 0 53 11.5t47 30.5l64 -87q-68 -69 -180 -69zM327 292q-2 36 -20.5 62.5t-59.5 26.5
q-39 0 -58 -26.5t-22 -62.5h160zM249 -200q-30 0 -52 21.5t-22 52.5t22 53t52 22q31 0 53 -22t22 -53t-22 -52.5t-53 -21.5z" />
    <glyph glyph-name="uni1EC8" unicode="&#x1ec8;" horiz-adv-x="268" 
d="M215 0h-162v667h162v-667zM110 751l-51 12q17 57 76 57q33 0 53.5 -17.5t20.5 -53.5q0 -26 -14 -52h-56q17 23 17 49q0 28 -22 28q-17 0 -24 -23z" />
    <glyph glyph-name="uni1EC9" unicode="&#x1ec9;" horiz-adv-x="241" 
d="M193 0h-145v483h145v-483zM96 581l-51 12q17 57 76 57q33 0 53.5 -17.5t20.5 -53.5q0 -26 -14 -52h-56q17 23 17 49q0 28 -22 28q-17 0 -24 -23z" />
    <glyph glyph-name="uni1ECA" unicode="&#x1eca;" horiz-adv-x="268" 
d="M215 0h-162v667h162v-667zM136 -200q-30 0 -52 21.5t-22 52.5t22 53t52 22q31 0 53 -22t22 -53t-22 -52.5t-53 -21.5z" />
    <glyph glyph-name="uni1ECB" unicode="&#x1ecb;" horiz-adv-x="241" 
d="M121 529q-35 0 -59.5 24.5t-24.5 59.5t24.5 59.5t59.5 24.5t59 -24.5t24 -59.5t-24.5 -59.5t-58.5 -24.5zM193 0h-145v483h145v-483zM122 -200q-30 0 -52 21.5t-22 52.5t22 53t52 22q31 0 53 -22t22 -53t-22 -52.5t-53 -21.5z" />
    <glyph glyph-name="uni1ECC" unicode="&#x1ecc;" horiz-adv-x="633" 
d="M316 -12q-133 0 -212 96t-79 249t79 249t212 96t212 -96t79 -249t-79 -249t-212 -96zM316 131q60 0 93.5 56.5t33.5 145.5q0 90 -33.5 146t-93.5 56q-59 0 -92.5 -56t-33.5 -146q0 -89 33.5 -145.5t92.5 -56.5zM318 -200q-30 0 -52 21.5t-22 52.5t22 53t52 22
q31 0 53 -22t22 -53t-22 -52.5t-53 -21.5z" />
    <glyph glyph-name="uni1ECD" unicode="&#x1ecd;" horiz-adv-x="505" 
d="M252 -12q-108 0 -168.5 73.5t-60.5 180.5t60.5 180t168.5 73t169 -73t61 -180t-61 -180.5t-169 -73.5zM252 116q40 0 60.5 35t20.5 91t-20.5 90.5t-60.5 34.5q-39 0 -59.5 -34.5t-20.5 -90.5t20 -91t60 -35zM253 -200q-30 0 -52 21.5t-22 52.5t22 53t52 22q31 0 53 -22
t22 -53t-22 -52.5t-53 -21.5z" />
    <glyph glyph-name="uni1ECE" unicode="&#x1ece;" horiz-adv-x="633" 
d="M316 -12q-133 0 -212 96t-79 249t79 249t212 96t212 -96t79 -249t-79 -249t-212 -96zM316 131q60 0 93.5 56.5t33.5 145.5q0 90 -33.5 146t-93.5 56q-59 0 -92.5 -56t-33.5 -146q0 -89 33.5 -145.5t92.5 -56.5zM291 751l-51 12q17 57 76 57q33 0 53.5 -17.5t20.5 -53.5
q0 -26 -14 -52h-56q17 23 17 49q0 28 -22 28q-17 0 -24 -23z" />
    <glyph glyph-name="uni1ECF" unicode="&#x1ecf;" horiz-adv-x="505" 
d="M252 -12q-108 0 -168.5 73.5t-60.5 180.5t60.5 180t168.5 73t169 -73t61 -180t-61 -180.5t-169 -73.5zM252 116q40 0 60.5 35t20.5 91t-20.5 90.5t-60.5 34.5q-39 0 -59.5 -34.5t-20.5 -90.5t20 -91t60 -35zM229 581l-51 12q17 57 76 57q33 0 53.5 -17.5t20.5 -53.5
q0 -26 -14 -52h-56q17 23 17 49q0 28 -22 28q-17 0 -24 -23z" />
    <glyph glyph-name="uni1ED0" unicode="&#x1ed0;" horiz-adv-x="633" 
d="M454 682h-82l-60 62l-57 -62h-82l75 108h128zM653 843l-134 -108h-94l103 108h125zM316 -12q-133 0 -212 96t-79 249t79 249t212 96t212 -96t79 -249t-79 -249t-212 -96zM316 131q60 0 93.5 56.5t33.5 145.5q0 90 -33.5 146t-93.5 56q-59 0 -92.5 -56t-33.5 -146
q0 -89 33.5 -145.5t92.5 -56.5z" />
    <glyph glyph-name="uni1ED1" unicode="&#x1ed1;" horiz-adv-x="505" 
d="M392 556h-82l-60 83l-57 -83h-82l75 144h128zM586 770l-134 -144h-94l103 144h125zM252 -12q-108 0 -168.5 73.5t-60.5 180.5t60.5 180t168.5 73t169 -73t61 -180t-61 -180.5t-169 -73.5zM252 116q40 0 60.5 35t20.5 91t-20.5 90.5t-60.5 34.5q-39 0 -59.5 -34.5
t-20.5 -90.5t20 -91t60 -35z" />
    <glyph glyph-name="uni1ED2" unicode="&#x1ed2;" horiz-adv-x="633" 
d="M452 682h-82l-60 62l-57 -62h-82l75 108h128zM316 -12q-133 0 -212 96t-79 249t79 249t212 96t212 -96t79 -249t-79 -249t-212 -96zM316 131q60 0 93.5 56.5t33.5 145.5q0 90 -33.5 146t-93.5 56q-59 0 -92.5 -56t-33.5 -146q0 -89 33.5 -145.5t92.5 -56.5zM201 735h-94
l-134 108h125z" />
    <glyph glyph-name="uni1ED3" unicode="&#x1ed3;" horiz-adv-x="505" 
d="M392 556h-82l-60 83l-57 -83h-82l75 144h128zM252 -12q-108 0 -168.5 73.5t-60.5 180.5t60.5 180t168.5 73t169 -73t61 -180t-61 -180.5t-169 -73.5zM252 116q40 0 60.5 35t20.5 91t-20.5 90.5t-60.5 34.5q-39 0 -59.5 -34.5t-20.5 -90.5t20 -91t60 -35zM139 626h-94
l-134 144h125z" />
    <glyph glyph-name="uni1ED4" unicode="&#x1ed4;" horiz-adv-x="633" 
d="M453 682h-82l-60 62l-57 -62h-82l75 108h128zM316 -12q-133 0 -212 96t-79 249t79 249t212 96t212 -96t79 -249t-79 -249t-212 -96zM316 131q60 0 93.5 56.5t33.5 145.5q0 90 -33.5 146t-93.5 56q-59 0 -92.5 -56t-33.5 -146q0 -89 33.5 -145.5t92.5 -56.5zM444 785
l-51 9q17 42 76 42q74 0 74 -53q0 -20 -14 -39h-56q17 17 17 37q0 21 -22 21q-16 0 -24 -17z" />
    <glyph glyph-name="uni1ED5" unicode="&#x1ed5;" horiz-adv-x="505" 
d="M392 556h-82l-60 83l-57 -83h-82l75 144h128zM252 -12q-108 0 -168.5 73.5t-60.5 180.5t60.5 180t168.5 73t169 -73t61 -180t-61 -180.5t-169 -73.5zM252 116q40 0 60.5 35t20.5 91t-20.5 90.5t-60.5 34.5q-39 0 -59.5 -34.5t-20.5 -90.5t20 -91t60 -35zM329 721l-51 12
q17 57 76 57q33 0 53.5 -17.5t20.5 -53.5q0 -26 -14 -52h-56q17 23 17 49q0 28 -22 28q-17 0 -24 -23z" />
    <glyph glyph-name="uni1ED6" unicode="&#x1ed6;" horiz-adv-x="633" 
d="M455 678h-82l-60 41l-57 -41h-82l75 72h128zM316 -12q-133 0 -212 96t-79 249t79 249t212 96t212 -96t79 -249t-79 -249t-212 -96zM316 131q60 0 93.5 56.5t33.5 145.5q0 90 -33.5 146t-93.5 56q-59 0 -92.5 -56t-33.5 -146q0 -89 33.5 -145.5t92.5 -56.5zM362 757
q-32 0 -61 14.5t-41 14.5q-27 0 -27 -26h-72q0 32 26.5 49.5t75.5 17.5q33 0 61.5 -15t39.5 -15q28 0 28 27h71q0 -32 -26.5 -49.5t-74.5 -17.5z" />
    <glyph glyph-name="uni1ED7" unicode="&#x1ed7;" horiz-adv-x="505" 
d="M393 523h-82l-60 83l-57 -83h-82l75 144h128zM252 -12q-108 0 -168.5 73.5t-60.5 180.5t60.5 180t168.5 73t169 -73t61 -180t-61 -180.5t-169 -73.5zM252 116q40 0 60.5 35t20.5 91t-20.5 90.5t-60.5 34.5q-39 0 -59.5 -34.5t-20.5 -90.5t20 -91t60 -35zM301 682
q-25 0 -44 15t-32.5 29.5t-25.5 14.5q-27 0 -27 -53h-72q0 64 26.5 99t75.5 35q25 0 44 -15t32.5 -30t24.5 -15q28 0 28 54h71q0 -63 -26.5 -98.5t-74.5 -35.5z" />
    <glyph glyph-name="uni1ED8" unicode="&#x1ed8;" horiz-adv-x="633" 
d="M459 723h-82l-60 83l-57 -83h-82l75 144h128zM316 -12q-133 0 -212 96t-79 249t79 249t212 96t212 -96t79 -249t-79 -249t-212 -96zM316 131q60 0 93.5 56.5t33.5 145.5q0 90 -33.5 146t-93.5 56q-59 0 -92.5 -56t-33.5 -146q0 -89 33.5 -145.5t92.5 -56.5zM318 -200
q-30 0 -52 21.5t-22 52.5t22 53t52 22q31 0 53 -22t22 -53t-22 -52.5t-53 -21.5z" />
    <glyph glyph-name="uni1ED9" unicode="&#x1ed9;" horiz-adv-x="505" 
d="M393 556h-82l-60 83l-57 -83h-82l75 144h128zM252 -12q-108 0 -168.5 73.5t-60.5 180.5t60.5 180t168.5 73t169 -73t61 -180t-61 -180.5t-169 -73.5zM252 116q40 0 60.5 35t20.5 91t-20.5 90.5t-60.5 34.5q-39 0 -59.5 -34.5t-20.5 -90.5t20 -91t60 -35zM252 -200
q-30 0 -52 21.5t-22 52.5t22 53t52 22q31 0 53 -22t22 -53t-22 -52.5t-53 -21.5z" />
    <glyph glyph-name="uni1EDA" unicode="&#x1eda;" horiz-adv-x="633" 
d="M487 867l-134 -144h-94l103 144h125zM316 -12q-133 0 -212 96t-79 249t79 249t212 96q136 0 217 -102q30 27 38 56q-3 -3 -15 -3q-21 0 -36 15.5t-15 39.5q0 25 17.5 42.5t42.5 17.5q28 0 47.5 -21.5t19.5 -56.5q0 -80 -71 -134q46 -84 46 -199q0 -153 -79 -249t-212 -96
zM316 131q60 0 93.5 56.5t33.5 145.5q0 90 -33.5 146t-93.5 56q-59 0 -92.5 -56t-33.5 -146q0 -89 33.5 -145.5t92.5 -56.5z" />
    <glyph glyph-name="uni1EDB" unicode="&#x1edb;" horiz-adv-x="505" 
d="M423 700l-134 -144h-94l103 144h125zM497 533q0 -73 -63 -128q48 -67 48 -163q0 -107 -61 -180.5t-169 -73.5t-168.5 73.5t-60.5 180.5t60.5 180t168.5 73q88 0 147 -51q29 26 37 54q-6 -2 -15 -2q-22 0 -36.5 15t-14.5 39q0 25 17.5 42.5t41.5 17.5q28 0 48 -21t20 -56z
M252 116q40 0 60.5 35t20.5 91t-20.5 90.5t-60.5 34.5q-39 0 -59.5 -34.5t-20.5 -90.5t20 -91t60 -35z" />
    <glyph glyph-name="uni1EDC" unicode="&#x1edc;" horiz-adv-x="633" 
d="M316 -12q-133 0 -212 96t-79 249t79 249t212 96q136 0 217 -102q30 27 38 56q-3 -3 -15 -3q-21 0 -36 15.5t-15 39.5q0 25 17.5 42.5t42.5 17.5q28 0 47.5 -21.5t19.5 -56.5q0 -80 -71 -134q46 -84 46 -199q0 -153 -79 -249t-212 -96zM316 131q60 0 93.5 56.5t33.5 145.5
q0 90 -33.5 146t-93.5 56q-59 0 -92.5 -56t-33.5 -146q0 -89 33.5 -145.5t92.5 -56.5zM374 723h-94l-134 144h125z" />
    <glyph glyph-name="uni1EDD" unicode="&#x1edd;" horiz-adv-x="505" 
d="M497 533q0 -73 -63 -128q48 -67 48 -163q0 -107 -61 -180.5t-169 -73.5t-168.5 73.5t-60.5 180.5t60.5 180t168.5 73q88 0 147 -51q29 26 37 54q-6 -2 -15 -2q-22 0 -36.5 15t-14.5 39q0 25 17.5 42.5t41.5 17.5q28 0 48 -21t20 -56zM252 116q40 0 60.5 35t20.5 91
t-20.5 90.5t-60.5 34.5q-39 0 -59.5 -34.5t-20.5 -90.5t20 -91t60 -35zM309 556h-94l-134 144h125z" />
    <glyph glyph-name="uni1EDE" unicode="&#x1ede;" horiz-adv-x="633" 
d="M316 -12q-133 0 -212 96t-79 249t79 249t212 96q136 0 217 -102q30 27 38 56q-3 -3 -15 -3q-21 0 -36 15.5t-15 39.5q0 25 17.5 42.5t42.5 17.5q28 0 47.5 -21.5t19.5 -56.5q0 -80 -71 -134q46 -84 46 -199q0 -153 -79 -249t-212 -96zM316 131q60 0 93.5 56.5t33.5 145.5
q0 90 -33.5 146t-93.5 56q-59 0 -92.5 -56t-33.5 -146q0 -89 33.5 -145.5t92.5 -56.5zM292 751l-51 12q17 57 76 57q33 0 53.5 -17.5t20.5 -53.5q0 -26 -14 -52h-56q17 23 17 49q0 28 -22 28q-17 0 -24 -23z" />
    <glyph glyph-name="uni1EDF" unicode="&#x1edf;" horiz-adv-x="505" 
d="M497 533q0 -73 -63 -128q48 -67 48 -163q0 -107 -61 -180.5t-169 -73.5t-168.5 73.5t-60.5 180.5t60.5 180t168.5 73q88 0 147 -51q29 26 37 54q-6 -2 -15 -2q-22 0 -36.5 15t-14.5 39q0 25 17.5 42.5t41.5 17.5q28 0 48 -21t20 -56zM252 116q40 0 60.5 35t20.5 91
t-20.5 90.5t-60.5 34.5q-39 0 -59.5 -34.5t-20.5 -90.5t20 -91t60 -35zM228 581l-51 12q17 57 76 57q33 0 53.5 -17.5t20.5 -53.5q0 -26 -14 -52h-56q17 23 17 49q0 28 -22 28q-17 0 -24 -23z" />
    <glyph glyph-name="uni1EE0" unicode="&#x1ee0;" horiz-adv-x="633" 
d="M316 -12q-133 0 -212 96t-79 249t79 249t212 96q136 0 217 -102q30 27 38 56q-3 -3 -15 -3q-21 0 -36 15.5t-15 39.5q0 25 17.5 42.5t42.5 17.5q28 0 47.5 -21.5t19.5 -56.5q0 -80 -71 -134q46 -84 46 -199q0 -153 -79 -249t-212 -96zM316 131q60 0 93.5 56.5t33.5 145.5
q0 90 -33.5 146t-93.5 56q-59 0 -92.5 -56t-33.5 -146q0 -89 33.5 -145.5t92.5 -56.5zM367 721q-25 0 -44 14.5t-32.5 29.5t-25.5 15q-27 0 -27 -53h-72q0 63 26.5 98.5t75.5 35.5q25 0 44 -15t32.5 -30t24.5 -15q28 0 28 54h71q0 -63 -26.5 -98.5t-74.5 -35.5z" />
    <glyph glyph-name="uni1EE1" unicode="&#x1ee1;" horiz-adv-x="505" 
d="M497 533q0 -73 -63 -128q48 -67 48 -163q0 -107 -61 -180.5t-169 -73.5t-168.5 73.5t-60.5 180.5t60.5 180t168.5 73q88 0 147 -51q29 26 37 54q-6 -2 -15 -2q-22 0 -36.5 15t-14.5 39q0 25 17.5 42.5t41.5 17.5q28 0 48 -21t20 -56zM252 116q40 0 60.5 35t20.5 91
t-20.5 90.5t-60.5 34.5q-39 0 -59.5 -34.5t-20.5 -90.5t20 -91t60 -35zM283 554q-25 0 -44 15t-32.5 29.5t-25.5 14.5q-27 0 -27 -53h-72q0 64 26.5 99t75.5 35q25 0 44 -15t32.5 -30t24.5 -15q28 0 28 54h71q0 -63 -26.5 -98.5t-74.5 -35.5z" />
    <glyph glyph-name="uni1EE2" unicode="&#x1ee2;" horiz-adv-x="633" 
d="M316 -12q-133 0 -212 96t-79 249t79 249t212 96q136 0 217 -102q30 27 38 56q-3 -3 -15 -3q-21 0 -36 15.5t-15 39.5q0 25 17.5 42.5t42.5 17.5q28 0 47.5 -21.5t19.5 -56.5q0 -80 -71 -134q46 -84 46 -199q0 -153 -79 -249t-212 -96zM316 131q60 0 93.5 56.5t33.5 145.5
q0 90 -33.5 146t-93.5 56q-59 0 -92.5 -56t-33.5 -146q0 -89 33.5 -145.5t92.5 -56.5zM318 -200q-30 0 -52 21.5t-22 52.5t22 53t52 22q31 0 53 -22t22 -53t-22 -52.5t-53 -21.5z" />
    <glyph glyph-name="uni1EE3" unicode="&#x1ee3;" horiz-adv-x="505" 
d="M497 533q0 -73 -63 -128q48 -67 48 -163q0 -107 -61 -180.5t-169 -73.5t-168.5 73.5t-60.5 180.5t60.5 180t168.5 73q88 0 147 -51q29 26 37 54q-6 -2 -15 -2q-22 0 -36.5 15t-14.5 39q0 25 17.5 42.5t41.5 17.5q28 0 48 -21t20 -56zM252 116q40 0 60.5 35t20.5 91
t-20.5 90.5t-60.5 34.5q-39 0 -59.5 -34.5t-20.5 -90.5t20 -91t60 -35zM253 -200q-30 0 -52 21.5t-22 52.5t22 53t52 22q31 0 53 -22t22 -53t-22 -52.5t-53 -21.5z" />
    <glyph glyph-name="uni1EE4" unicode="&#x1ee4;" horiz-adv-x="629" 
d="M315 -12q-121 0 -191.5 66t-70.5 183v430h163v-431q0 -51 25.5 -78.5t73.5 -27.5q47 0 72.5 28t25.5 78v431h163v-430q0 -117 -70.5 -183t-190.5 -66zM317 -200q-30 0 -52 21.5t-22 52.5t22 53t52 22q31 0 53 -22t22 -53t-22 -52.5t-53 -21.5z" />
    <glyph glyph-name="uni1EE5" unicode="&#x1ee5;" 
d="M468 0h-144v58q-21 -29 -59 -49.5t-84 -20.5q-67 0 -100 35t-33 96v364h145v-306q0 -61 56 -61q47 0 75 50v317h144v-483zM259 -200q-30 0 -52 21.5t-22 52.5t22 53t52 22q31 0 53 -22t22 -53t-22 -52.5t-53 -21.5z" />
    <glyph glyph-name="uni1EE6" unicode="&#x1ee6;" horiz-adv-x="629" 
d="M315 -12q-121 0 -191.5 66t-70.5 183v430h163v-431q0 -51 25.5 -78.5t73.5 -27.5q47 0 72.5 28t25.5 78v431h163v-430q0 -117 -70.5 -183t-190.5 -66zM290 751l-51 12q17 57 76 57q33 0 53.5 -17.5t20.5 -53.5q0 -26 -14 -52h-56q17 23 17 49q0 28 -22 28q-17 0 -24 -23z
" />
    <glyph glyph-name="uni1EE7" unicode="&#x1ee7;" 
d="M468 0h-144v58q-21 -29 -59 -49.5t-84 -20.5q-67 0 -100 35t-33 96v364h145v-306q0 -61 56 -61q47 0 75 50v317h144v-483zM234 581l-51 12q17 57 76 57q33 0 53.5 -17.5t20.5 -53.5q0 -26 -14 -52h-56q17 23 17 49q0 28 -22 28q-17 0 -24 -23z" />
    <glyph glyph-name="uni1EE8" unicode="&#x1ee8;" horiz-adv-x="629" 
d="M486 867l-134 -144h-94l103 144h125zM677 726q0 -43 -26 -84.5t-75 -68.5v-336q0 -117 -70.5 -183t-190.5 -66q-121 0 -191.5 66t-70.5 183v430h163v-431q0 -51 25.5 -78.5t73.5 -27.5q47 0 72.5 28t25.5 78v431h163v-34q34 28 40 58q-4 -2 -14 -2q-22 0 -36.5 15
t-14.5 39q0 25 17 42.5t42 17.5q28 0 47.5 -21t19.5 -56z" />
    <glyph glyph-name="uni1EE9" unicode="&#x1ee9;" 
d="M429 700l-134 -144h-94l103 144h125zM468 0h-144v58q-21 -29 -59 -49.5t-84 -20.5q-67 0 -100 35t-33 96v364h145v-306q0 -61 56 -61q47 0 75 50v317h138q10 15 15 30q-4 -2 -15 -2q-22 0 -36.5 15t-14.5 39q0 25 17.5 42.5t41.5 17.5q28 0 48 -21t20 -56q0 -78 -70 -133
v-415z" />
    <glyph glyph-name="uni1EEA" unicode="&#x1eea;" horiz-adv-x="629" 
d="M372 723h-94l-134 144h125zM677 726q0 -43 -26 -84.5t-75 -68.5v-336q0 -117 -70.5 -183t-190.5 -66q-121 0 -191.5 66t-70.5 183v430h163v-431q0 -51 25.5 -78.5t73.5 -27.5q47 0 72.5 28t25.5 78v431h163v-34q34 28 40 58q-4 -2 -14 -2q-22 0 -36.5 15t-14.5 39
q0 25 17 42.5t42 17.5q28 0 47.5 -21t19.5 -56z" />
    <glyph glyph-name="uni1EEB" unicode="&#x1eeb;" 
d="M315 556h-94l-134 144h125zM468 0h-144v58q-21 -29 -59 -49.5t-84 -20.5q-67 0 -100 35t-33 96v364h145v-306q0 -61 56 -61q47 0 75 50v317h138q10 15 15 30q-4 -2 -15 -2q-22 0 -36.5 15t-14.5 39q0 25 17.5 42.5t41.5 17.5q28 0 48 -21t20 -56q0 -78 -70 -133v-415z
" />
    <glyph glyph-name="uni1EEC" unicode="&#x1eec;" horiz-adv-x="629" 
d="M290 751l-51 12q17 57 76 57q33 0 53.5 -17.5t20.5 -53.5q0 -26 -14 -52h-56q17 23 17 49q0 28 -22 28q-17 0 -24 -23zM677 726q0 -43 -26 -84.5t-75 -68.5v-336q0 -117 -70.5 -183t-190.5 -66q-121 0 -191.5 66t-70.5 183v430h163v-431q0 -51 25.5 -78.5t73.5 -27.5
q47 0 72.5 28t25.5 78v431h163v-34q34 28 40 58q-4 -2 -14 -2q-22 0 -36.5 15t-14.5 39q0 25 17 42.5t42 17.5q28 0 47.5 -21t19.5 -56z" />
    <glyph glyph-name="uni1EED" unicode="&#x1eed;" 
d="M234 581l-51 12q17 57 76 57q33 0 53.5 -17.5t20.5 -53.5q0 -26 -14 -52h-56q17 23 17 49q0 28 -22 28q-17 0 -24 -23zM468 0h-144v58q-21 -29 -59 -49.5t-84 -20.5q-67 0 -100 35t-33 96v364h145v-306q0 -61 56 -61q47 0 75 50v317h138q10 15 15 30q-4 -2 -15 -2
q-22 0 -36.5 15t-14.5 39q0 25 17.5 42.5t41.5 17.5q28 0 48 -21t20 -56q0 -78 -70 -133v-415z" />
    <glyph glyph-name="uni1EEE" unicode="&#x1eee;" horiz-adv-x="629" 
d="M677 726q0 -43 -26 -84.5t-75 -68.5v-336q0 -117 -70.5 -183t-190.5 -66q-121 0 -191.5 66t-70.5 183v430h163v-431q0 -51 25.5 -78.5t73.5 -27.5q47 0 72.5 28t25.5 78v431h163v-34q34 28 40 58q-4 -2 -14 -2q-22 0 -36.5 15t-14.5 39q0 25 17 42.5t42 17.5
q28 0 47.5 -21t19.5 -56zM364 721q-32 0 -61 29.5t-41 29.5q-27 0 -27 -53h-72q0 63 26.5 98.5t75.5 35.5q25 0 44 -15t32.5 -30t24.5 -15q28 0 28 54h71q0 -63 -26.5 -98.5t-74.5 -35.5z" />
    <glyph glyph-name="uni1EEF" unicode="&#x1eef;" 
d="M468 0h-144v58q-21 -29 -59 -49.5t-84 -20.5q-67 0 -100 35t-33 96v364h145v-306q0 -61 56 -61q47 0 75 50v317h138q10 15 15 30q-4 -2 -15 -2q-22 0 -36.5 15t-14.5 39q0 25 17.5 42.5t41.5 17.5q28 0 48 -21t20 -56q0 -78 -70 -133v-415zM303 554q-25 0 -44 15
t-32.5 29.5t-25.5 14.5q-27 0 -27 -53h-72q0 64 26.5 99t75.5 35q25 0 44 -15t32.5 -30t24.5 -15q28 0 28 54h71q0 -63 -26.5 -98.5t-74.5 -35.5z" />
    <glyph glyph-name="uni1EF0" unicode="&#x1ef0;" horiz-adv-x="629" 
d="M317 -200q-30 0 -52 21.5t-22 52.5t22 53t52 22q31 0 53 -22t22 -53t-22 -52.5t-53 -21.5zM677 726q0 -43 -26 -84.5t-75 -68.5v-336q0 -117 -70.5 -183t-190.5 -66q-121 0 -191.5 66t-70.5 183v430h163v-431q0 -51 25.5 -78.5t73.5 -27.5q47 0 72.5 28t25.5 78v431h163
v-34q34 28 40 58q-4 -2 -14 -2q-22 0 -36.5 15t-14.5 39q0 25 17 42.5t42 17.5q28 0 47.5 -21t19.5 -56z" />
    <glyph glyph-name="uni1EF1" unicode="&#x1ef1;" 
d="M259 -200q-30 0 -52 21.5t-22 52.5t22 53t52 22q31 0 53 -22t22 -53t-22 -52.5t-53 -21.5zM468 0h-144v58q-21 -29 -59 -49.5t-84 -20.5q-67 0 -100 35t-33 96v364h145v-306q0 -61 56 -61q47 0 75 50v317h138q10 15 15 30q-4 -2 -15 -2q-22 0 -36.5 15t-14.5 39
q0 25 17.5 42.5t41.5 17.5q28 0 48 -21t20 -56q0 -78 -70 -133v-415z" />
    <glyph glyph-name="Ygrave" unicode="&#x1ef2;" horiz-adv-x="557" 
d="M360 0h-162v271l-206 396h177l110 -248l109 248h177l-205 -396v-271zM336 723h-94l-134 144h125z" />
    <glyph glyph-name="ygrave" unicode="&#x1ef3;" horiz-adv-x="466" 
d="M45 -188l20 127q11 -7 30 -7q42 0 52 28l11 31l-164 492h153l85 -309l87 309h153l-187 -555q-23 -70 -65 -96.5t-112 -27.5q-41 0 -63 8zM289 556h-94l-134 144h125z" />
    <glyph glyph-name="thinspace" unicode="&#x2009;" horiz-adv-x="41" 
 />
    <glyph glyph-name="endash" unicode="&#x2013;" horiz-adv-x="527" 
d="M497 181h-467v122h467v-122z" />
    <glyph glyph-name="emdash" unicode="&#x2014;" horiz-adv-x="737" 
d="M707 181h-677v122h677v-122z" />
    <glyph glyph-name="afii00208" unicode="&#x2015;" horiz-adv-x="527" 
d="M497 181h-467v122h467v-122z" />
    <glyph glyph-name="quoteleft" unicode="&#x2018;" horiz-adv-x="265" 
d="M37 482q0 117 110 196l61 -50q-25 -12 -50 -40t-32 -54q12 3 22 3q31 0 52.5 -22t21.5 -57q0 -36 -26 -62t-61 -26q-41 0 -69.5 30.5t-28.5 81.5z" />
    <glyph glyph-name="quoteright" unicode="&#x2019;" horiz-adv-x="265" 
d="M227 566q0 -118 -110 -197l-61 50q25 12 50 40.5t32 54.5q-8 -4 -21 -4q-31 0 -52.5 22t-21.5 57q0 37 25.5 62.5t61.5 25.5q40 0 68.5 -30t28.5 -81z" />
    <glyph glyph-name="quotesinglbase" unicode="&#x201a;" horiz-adv-x="264" 
d="M227 56q0 -58 -29.5 -109t-80.5 -87l-61 49q25 13 50 41t32 54q-12 -3 -22 -3q-31 0 -52.5 22t-21.5 57q0 36 26 61.5t61 25.5q41 0 69.5 -30t28.5 -81z" />
    <glyph glyph-name="quotereversed" unicode="&#x201b;" horiz-adv-x="265" 
d="M38 566q0 51 28.5 81t69.5 30q35 0 60.5 -25.5t25.5 -62.5q0 -35 -21 -57t-53 -22q-13 0 -21 4q7 -26 32 -54.5t50 -40.5l-61 -50q-110 79 -110 197z" />
    <glyph glyph-name="quotedblleft" unicode="&#x201c;" horiz-adv-x="483" 
d="M37 482q0 117 110 196l61 -50q-25 -12 -50 -40t-32 -54q12 3 22 3q31 0 52.5 -22t21.5 -57q0 -36 -26 -62t-61 -26q-40 0 -69 30.5t-29 81.5zM255 482q0 117 110 196l61 -50q-25 -12 -50 -40t-32 -54q12 3 22 3q31 0 52 -22t21 -57q0 -36 -25.5 -62t-60.5 -26
q-41 0 -69.5 30.5t-28.5 81.5z" />
    <glyph glyph-name="quotedblright" unicode="&#x201d;" horiz-adv-x="483" 
d="M445 566q0 -118 -110 -197l-61 50q25 12 50 40.5t32 54.5q-8 -4 -22 -4q-31 0 -52.5 22t-21.5 57q0 37 26 62.5t61 25.5q41 0 69.5 -30t28.5 -81zM227 566q0 -118 -110 -197l-61 50q25 12 50 40.5t32 54.5q-8 -4 -21 -4q-31 0 -52.5 22t-21.5 57q0 37 25.5 62.5
t61.5 25.5q40 0 68.5 -30t28.5 -81z" />
    <glyph glyph-name="quotedblbase" unicode="&#x201e;" horiz-adv-x="481" 
d="M227 56q0 -58 -29.5 -109t-80.5 -87l-61 49q25 13 50 41t32 54q-12 -3 -22 -3q-31 0 -52.5 22t-21.5 57q0 36 26 61.5t61 25.5q41 0 69.5 -30t28.5 -81zM445 56q0 -58 -29.5 -109t-80.5 -87l-61 49q25 13 50 41t32 54q-12 -3 -22 -3q-31 0 -52.5 22t-21.5 57
q0 36 26 61.5t61 25.5q40 0 69 -30t29 -81z" />
    <glyph glyph-name="dagger" unicode="&#x2020;" horiz-adv-x="282" 
d="M263 519l-89 4l4 -196h-75l5 196l-89 -4v68l89 -3l-5 93h75l-4 -93l89 3v-68z" />
    <glyph glyph-name="daggerdbl" unicode="&#x2021;" horiz-adv-x="282" 
d="M263 587v-68l-89 4v-188l89 4v-68l-89 3l4 -94h-75l4 94l-88 -3v68l88 -4v188l-88 -4v68l88 -3l-4 93h75l-4 -93z" />
    <glyph glyph-name="bullet" unicode="&#x2022;" horiz-adv-x="358" 
d="M302 242q0 -50 -35.5 -85.5t-86.5 -35.5t-86.5 35.5t-35.5 85.5q0 51 35.5 86.5t86.5 35.5t86.5 -35.5t35.5 -86.5z" />
    <glyph glyph-name="ellipsis" unicode="&#x2026;" horiz-adv-x="792" 
d="M221 78q0 -36 -26.5 -62.5t-62.5 -26.5q-37 0 -63 26.5t-26 62.5t26 62.5t63 26.5q36 0 62.5 -26.5t26.5 -62.5zM485 78q0 -36 -26 -62.5t-63 -26.5t-63 26.5t-26 62.5t26 62.5t63 26.5t63 -26.5t26 -62.5zM749 78q0 -36 -26 -62.5t-63 -26.5t-63 26.5t-26 62.5t26 62.5
t63 26.5t63 -26.5t26 -62.5z" />
    <glyph glyph-name="perthousand" unicode="&#x2030;" horiz-adv-x="1010" 
d="M328 509q0 -71 -42.5 -118.5t-112.5 -47.5q-68 0 -110.5 47.5t-42.5 118.5q0 72 42.5 120t110.5 48q70 0 112.5 -48t42.5 -120zM555 667l-354 -667h-71l354 667h71zM664 154q0 -71 -42.5 -118.5t-111.5 -47.5q-70 0 -112 47.5t-42 118.5q0 72 42 119.5t112 47.5
q69 0 111.5 -47.5t42.5 -119.5zM231 509q0 41 -16 63.5t-42 22.5t-41.5 -22.5t-15.5 -63.5q0 -39 15.5 -61t41.5 -22t42 21.5t16 61.5zM567 154q0 40 -16 62.5t-41 22.5q-26 0 -42 -22.5t-16 -62.5t16 -62t42 -22q25 0 41 22t16 62zM991 154q0 -71 -42.5 -118.5
t-111.5 -47.5t-111.5 47.5t-42.5 118.5q0 72 42.5 119.5t111.5 47.5t111.5 -47.5t42.5 -119.5zM895 154q0 40 -16 62.5t-42 22.5t-42 -22.5t-16 -62.5t16 -62t42 -22t42 22t16 62z" />
    <glyph glyph-name="guilsinglleft" unicode="&#x2039;" horiz-adv-x="305" 
d="M275 63h-120l-125 180l125 177h120l-125 -177z" />
    <glyph glyph-name="guilsinglright" unicode="&#x203a;" horiz-adv-x="305" 
d="M275 243l-125 -180h-120l125 180l-125 177h120z" />
    <glyph glyph-name="uni203E" unicode="&#x203e;" horiz-adv-x="313" 
d="M313 558h-313v81h313v-81z" />
    <glyph glyph-name="fraction" unicode="&#x2044;" horiz-adv-x="156" 
d="M291 667l-355 -667h-71l354 667h72z" />
    <glyph glyph-name="zerosuperior" unicode="&#x2070;" horiz-adv-x="355" 
d="M337 621q0 -87 -41 -147t-118 -60q-78 0 -119.5 60t-41.5 147t41.5 146.5t119.5 59.5q77 0 118 -59.5t41 -146.5zM228 621q0 121 -50 121q-52 0 -52 -121q0 -122 52 -122q50 0 50 122z" />
    <glyph glyph-name="foursuperior" unicode="&#x2074;" horiz-adv-x="355" 
d="M340 502h-41v-81h-107v81h-174v77l140 242h141v-235h41v-84zM192 586v133l-76 -133h76z" />
    <glyph glyph-name="fivesuperior" unicode="&#x2075;" horiz-adv-x="355" 
d="M333 555q0 -63 -43 -102t-118 -39q-102 0 -152 61l61 67q37 -43 88 -43q26 0 41 15.5t15 37.5q0 24 -13.5 38t-37.5 14q-40 0 -67 -34l-75 24v227h276v-85h-169v-86q27 32 77 32q49 0 83 -33t34 -94z" />
    <glyph glyph-name="sixsuperior" unicode="&#x2076;" horiz-adv-x="355" 
d="M337 555q0 -63 -42 -102t-107 -39q-84 0 -126.5 57t-42.5 149q0 97 50.5 152t135.5 55q68 0 113 -37l-48 -75q-27 27 -64 27q-35 0 -57.5 -26t-22.5 -67v-6q31 46 88 46q51 0 87 -36.5t36 -97.5zM229 551q0 28 -15.5 41.5t-35.5 13.5q-29 0 -52 -29q4 -78 56 -78
q21 0 34 15.5t13 36.5z" />
    <glyph glyph-name="sevensuperior" unicode="&#x2077;" horiz-adv-x="329" 
d="M311 747l-127 -326h-111l129 315h-185v85h294v-74z" />
    <glyph glyph-name="eightsuperior" unicode="&#x2078;" horiz-adv-x="355" 
d="M336 526q0 -56 -44.5 -84t-114.5 -28t-114.5 27.5t-44.5 84.5q0 34 24 62.5t59 38.5q-34 9 -55.5 34t-21.5 60q0 53 45.5 79.5t107.5 26.5t107.5 -26.5t45.5 -79.5q0 -35 -21.5 -60t-55.5 -34q35 -10 59 -38.5t24 -62.5zM224 705q0 40 -47 40t-47 -40q0 -32 47 -45
q47 12 47 45zM230 537q0 23 -18.5 36.5t-34.5 15.5q-15 -3 -33.5 -16t-18.5 -36q0 -42 52 -42q53 0 53 42z" />
    <glyph glyph-name="ninesuperior" unicode="&#x2079;" horiz-adv-x="355" 
d="M18 686q0 62 42.5 101.5t106.5 39.5q85 0 127.5 -57t42.5 -149q0 -97 -50.5 -152t-135.5 -55q-70 0 -113 37l48 75q26 -27 64 -27q33 0 56 26t23 68v5q-31 -46 -88 -46q-51 0 -87 36t-36 98zM127 690q0 -28 15 -41.5t35 -13.5q33 0 52 30q-4 77 -54 77q-22 0 -35 -15.5
t-13 -36.5z" />
    <glyph glyph-name="parenleftsuperior" unicode="&#x207d;" horiz-adv-x="191" 
d="M178 382l-62 -26q-42 50 -66.5 121t-24.5 144q0 72 24.5 143.5t66.5 121.5l62 -25q-54 -109 -54 -240q0 -132 54 -239z" />
    <glyph glyph-name="parenrightsuperior" unicode="&#x207e;" horiz-adv-x="192" 
d="M168 621q0 -73 -24.5 -144t-67.5 -121l-62 26q55 107 55 239q0 131 -55 240l62 25q43 -50 67.5 -121.5t24.5 -143.5z" />
    <glyph glyph-name="nsuperior" unicode="&#x207f;" horiz-adv-x="371" 
d="M331 326h-103v194q0 41 -38 41q-28 0 -47 -30v-205h-104v314h104v-37q34 45 96 45q46 0 69 -24t23 -67v-231z" />
    <glyph glyph-name="zeroinferior" unicode="&#x2080;" horiz-adv-x="355" 
d="M337 54q0 -87 -41 -147t-118 -60q-78 0 -119.5 60t-41.5 147t41.5 146.5t119.5 59.5q77 0 118 -59.5t41 -146.5zM228 54q0 121 -50 121q-52 0 -52 -121q0 -122 52 -122q50 0 50 122z" />
    <glyph glyph-name="oneinferior" unicode="&#x2081;" horiz-adv-x="285" 
d="M235 -146h-108v263l-61 -62l-61 63l138 136h92v-400z" />
    <glyph glyph-name="twoinferior" unicode="&#x2082;" horiz-adv-x="355" 
d="M332 -146h-297v78q121 98 154 133.5t33 63.5q0 21 -14 33.5t-38 12.5q-26 0 -50.5 -13.5t-39.5 -34.5l-59 66q57 67 154 67q70 0 112 -33.5t42 -91.5q0 -41 -32.5 -83.5t-115.5 -112.5h151v-85z" />
    <glyph glyph-name="threeinferior" unicode="&#x2083;" horiz-adv-x="355" 
d="M333 -34q0 -53 -43.5 -86t-113.5 -33q-107 0 -156 63l58 68q40 -46 93 -46q27 0 41.5 11.5t14.5 29.5q0 42 -67 42q-32 0 -38 -1v84q7 -1 36 -1q63 0 63 39t-54 39q-53 0 -87 -41l-55 61q52 65 151 65q71 0 110.5 -29t39.5 -81q0 -33 -23 -58.5t-58 -31.5q35 -4 61.5 -30
t26.5 -64z" />
    <glyph glyph-name="fourinferior" unicode="&#x2084;" horiz-adv-x="355" 
d="M340 -65h-41v-81h-107v81h-174v77l140 242h141v-235h41v-84zM192 19v133l-76 -133h76z" />
    <glyph glyph-name="fiveinferior" unicode="&#x2085;" horiz-adv-x="355" 
d="M333 -12q0 -63 -43 -102t-118 -39q-102 0 -152 61l61 67q37 -43 88 -43q26 0 41 15.5t15 37.5q0 24 -13.5 38t-37.5 14q-40 0 -67 -34l-75 24v227h276v-85h-169v-86q27 32 77 32q49 0 83 -33t34 -94z" />
    <glyph glyph-name="sixinferior" unicode="&#x2086;" horiz-adv-x="355" 
d="M337 -12q0 -63 -42 -102t-107 -39q-84 0 -126.5 57t-42.5 149q0 97 50.5 152t135.5 55q68 0 113 -37l-48 -75q-27 27 -64 27q-35 0 -57.5 -26t-22.5 -67v-6q31 46 88 46q51 0 87 -36.5t36 -97.5zM229 -16q0 28 -15.5 41.5t-35.5 13.5q-29 0 -52 -29q4 -78 56 -78
q21 0 34 15.5t13 36.5z" />
    <glyph glyph-name="seveninferior" unicode="&#x2087;" horiz-adv-x="329" 
d="M311 180l-127 -326h-111l129 315h-185v85h294v-74z" />
    <glyph glyph-name="eightinferior" unicode="&#x2088;" horiz-adv-x="355" 
d="M336 -41q0 -56 -44.5 -84t-114.5 -28t-114.5 27.5t-44.5 84.5q0 34 24 62.5t59 38.5q-34 9 -55.5 34t-21.5 60q0 53 45.5 79.5t107.5 26.5t107.5 -26.5t45.5 -79.5q0 -35 -21.5 -60t-55.5 -34q35 -10 59 -38.5t24 -62.5zM224 138q0 40 -47 40t-47 -40q0 -32 47 -45
q47 12 47 45zM230 -30q0 23 -18.5 36.5t-34.5 15.5q-15 -3 -33.5 -16t-18.5 -36q0 -42 52 -42q53 0 53 42z" />
    <glyph glyph-name="nineinferior" unicode="&#x2089;" horiz-adv-x="355" 
d="M18 119q0 62 42.5 101.5t106.5 39.5q85 0 127.5 -57t42.5 -149q0 -97 -50.5 -152t-135.5 -55q-70 0 -113 37l48 75q26 -27 64 -27q33 0 56 26t23 68v5q-31 -46 -88 -46q-51 0 -87 36t-36 98zM127 123q0 -28 15 -41.5t35 -13.5q33 0 52 30q-4 77 -54 77q-22 0 -35 -15.5
t-13 -36.5z" />
    <glyph glyph-name="parenleftinferior" unicode="&#x208d;" horiz-adv-x="191" 
d="M178 -185l-62 -26q-42 50 -66.5 121t-24.5 144q0 72 24.5 143.5t66.5 121.5l62 -25q-54 -109 -54 -240q0 -132 54 -239z" />
    <glyph glyph-name="parenrightinferior" unicode="&#x208e;" horiz-adv-x="192" 
d="M168 54q0 -73 -24.5 -144t-67.5 -121l-62 26q55 107 55 239q0 131 -55 240l62 25q43 -50 67.5 -121.5t24.5 -143.5z" />
    <glyph glyph-name="colonmonetary" unicode="&#x20a1;" horiz-adv-x="571" 
d="M535 768l-42 -159q40 -41 65 -106l-106 -46l-83 -313q40 26 56 83l134 -57q-68 -178 -232 -182l-24 -88h-78l26 96q-30 7 -45 14l-29 -110h-79l40 152q-110 96 -110 281q0 150 75 244t203 100l24 91h78l-26 -97q26 -5 45 -15l30 112h78zM247 162q19 -19 42 -26l99 372
q-20 18 -43 24zM193 333q0 -30 5 -62l65 246q-70 -47 -70 -184z" />
    <glyph glyph-name="frenchfranc" unicode="&#x20a3;" horiz-adv-x="494" 
d="M225 0h-162v100h-52v81h52v486h402v-141h-240v-117h233v-141h-233v-87h105v-81h-105v-100z" />
    <glyph glyph-name="lira" unicode="&#x20a4;" horiz-adv-x="506" 
d="M27 335v71h27q-10 32 -10 63q0 91 70.5 149.5t157.5 58.5q168 0 213 -133l-129 -64q-17 66 -69 66q-29 0 -48 -22t-19 -57q0 -33 10 -61h124v-71h-93q8 -23 11 -47h82v-71h-88q-15 -44 -47 -68q20 8 42 8q25 0 56.5 -13t51.5 -13q51 0 75 31l52 -128q-42 -46 -137 -46
q-44 0 -92.5 21t-70.5 21q-45 0 -101 -37l-50 108q86 51 86 115v1h-104v71h87q-3 7 -26 47h-61z" />
    <glyph glyph-name="uni20A6" unicode="&#x20a6;" horiz-adv-x="643" 
d="M580 0h-153l-131 227h-71v-227h-162v227h-52v81h52v56h-52v81h52v222h165l127 -222h64v222h161v-222h51v-81h-51v-56h51v-81h-51v-227zM225 351v-43h24zM401 364l18 -31v31h-18z" />
    <glyph glyph-name="peseta" unicode="&#x20a7;" horiz-adv-x="604" 
d="M597 394h-52q-11 -83 -66.5 -137t-147.5 -54h-106v-203h-162v394h-52v83h52v190h268q92 0 147 -53.5t67 -136.5h52v-83zM311 344q48 0 66 50h-152v-50h86zM225 526v-49h152q-20 49 -66 49h-86z" />
    <glyph glyph-name="rupee" unicode="&#x20a8;" horiz-adv-x="957" 
d="M743 -12q-61 0 -114 19t-84 50l58 99q25 -23 64 -40t73 -17q60 0 60 39q0 17 -24.5 27.5t-59.5 19.5t-70 23.5t-59.5 49t-24.5 85.5q0 64 50 108t138 44q100 0 178 -61l-56 -97q-20 20 -53 34t-68 14q-23 0 -38 -10t-15 -24q0 -15 24.5 -25.5t60 -20t71 -25t60 -50
t24.5 -86.5q0 -69 -53.5 -112.5t-141.5 -43.5zM543 0h-180l-88 229h-60v-229h-162v667h272q96 0 154.5 -61.5t58.5 -155.5q0 -77 -31.5 -124.5t-76.5 -67.5zM300 370q33 0 53.5 21t20.5 57t-20.5 57t-53.5 21h-85v-156h85z" />
    <glyph glyph-name="uni20A9" unicode="&#x20a9;" horiz-adv-x="811" 
d="M647 0h-167l-42 227h-66l-41 -227h-167l-53 227h-94v81h76l-13 56h-63v81h44l-51 222h173l38 -222h77l46 222h124l45 -222h76l39 222h173l-52 -222h43v-81h-61l-13 -56h74v-81h-93zM235 364l10 -56h25l12 56h-47zM529 364l11 -56h25l10 56h-46zM398 364l-11 -56h36
l-11 56h-14z" />
    <glyph glyph-name="afii57636" unicode="&#x20aa;" horiz-adv-x="724" 
d="M463 0h-247v379h121v-266h126q49 0 70 22.5t21 70.5v344h122v-343q0 -207 -213 -207zM295 550q213 0 213 -207v-173h-122v174q0 48 -21 70.5t-70 22.5h-126v-437h-121v550h247z" />
    <glyph glyph-name="dong" unicode="&#x20ab;" horiz-adv-x="524" 
d="M427 -180h-313v81h313v-81zM468 0h-144v57q-46 -69 -120 -69q-82 0 -131.5 67t-49.5 187q0 116 49.5 184.5t131.5 68.5q77 0 120 -69v100h-130v81h130v60h144v-60h47v-81h-47v-526zM253 116q20 0 40 13t31 32v162q-11 19 -31 31.5t-40 12.5q-39 0 -60.5 -34t-21.5 -91
t21.5 -91.5t60.5 -34.5z" />
    <glyph glyph-name="Euro" unicode="&#x20ac;" horiz-adv-x="591" 
d="M340 -12q-108 0 -182 63t-100 172h-43v84h31v55h-31v84h44q26 107 100 169.5t181 62.5q168 0 236 -175l-133 -57q-13 41 -40 65t-63 24q-77 0 -111 -89h153v-84h-170q-1 -10 -1 -29q0 -18 1 -26h170v-84h-154q32 -92 112 -92q37 0 64 27t39 69l134 -57
q-69 -182 -237 -182z" />
    <glyph glyph-name="afii61289" unicode="&#x2113;" horiz-adv-x="505" 
d="M195 219v-75q0 -45 33 -45q19 0 33 11l27 -95q-31 -27 -100 -27q-137 0 -137 137v358q0 86 63 140t165 54q84 0 147 -43t63 -111q0 -44 -31 -83.5t-94 -87.5zM195 362l95 73q32 25 46.5 43.5t14.5 40.5q0 24 -21.5 39.5t-52.5 15.5q-38 0 -60 -23.5t-22 -67.5v-121z" />
    <glyph glyph-name="afii61352" unicode="&#x2116;" horiz-adv-x="985" 
d="M805 350q-73 0 -115.5 48t-42.5 117t42.5 117t115.5 48q74 0 116.5 -48t42.5 -117t-42.5 -117t-116.5 -48zM805 432q53 0 53 83q0 81 -53 81q-51 0 -51 -81q0 -83 51 -83zM570 0h-153l-202 351v-351h-162v667h165l191 -334v334h161v-667z" />
    <glyph glyph-name="published" unicode="&#x2117;" horiz-adv-x="778" 
d="M734 334q0 -142 -101 -243.5t-244 -101.5t-244 101.5t-101 243.5t101 243.5t244 101.5t244 -101.5t101 -243.5zM696 334q0 126 -90.5 216.5t-216.5 90.5t-216 -90.5t-90 -216.5t90 -216.5t216 -90.5t216.5 90.5t90.5 216.5zM556 415q0 -52 -37.5 -85.5t-89.5 -33.5h-112
v-165h-48v405h160q52 0 89.5 -33.5t37.5 -87.5zM506 415q0 34 -22.5 55.5t-54.5 21.5h-112v-152h112q31 0 54 21.5t23 53.5z" />
    <glyph glyph-name="servicemark" unicode="&#x2120;" horiz-adv-x="425" 
d="M388 447h-28v182l-65 -182h-8l-65 182v-182h-28v220h43l54 -158l54 158h43v-220zM155 504q0 -29 -19 -46.5t-52 -17.5q-43 0 -69 29l16 23q22 -26 51 -26q20 0 31 10t11 26q0 18 -16 30.5t-36 18.5t-36 22t-16 40q0 26 19 43t48 17q41 0 63 -24l-15 -21q-18 20 -46 20
q-16 0 -26.5 -9t-10.5 -24q0 -16 16 -27t35.5 -18t35.5 -23.5t16 -42.5z" />
    <glyph glyph-name="trademark" unicode="&#x2122;" horiz-adv-x="414" 
d="M379 447h-28v182l-65 -182h-8l-65 182v-182h-28v220h43l54 -158l54 158h43v-220zM149 641h-52v-194h-28v194h-52v26h132v-26z" />
    <glyph glyph-name="Omega" unicode="&#x2126;" horiz-adv-x="630" 
d="M38 141h94q-108 91 -108 230q0 140 79 223.5t212 83.5t212 -83.5t79 -223.5t-109 -230h95v-141h-236v141q39 19 62 74t23 119q0 88 -30.5 144t-95.5 56t-96 -56t-31 -144q0 -64 23.5 -119t62.5 -74v-141h-236v141z" />
    <glyph glyph-name="estimated" unicode="&#x212e;" horiz-adv-x="842" 
d="M811 324h-632q-5 0 -5 -5v-190q0 -14 9 -23q98 -103 240 -103q151 0 250 115h57q-54 -63 -135 -99.5t-174 -36.5q-161 0 -275.5 103t-114.5 248t114.5 248t275.5 103t275.5 -103t114.5 -248v-9zM668 349v191q0 14 -10 24q-97 99 -235 99q-140 0 -239 -102
q-10 -10 -10 -24v-188q0 -6 5 -6h485q4 0 4 6z" />
    <glyph glyph-name="onethird" unicode="&#x2153;" horiz-adv-x="809" 
d="M235 267h-108v263l-61 -62l-61 63l138 136h92v-400zM589 667l-355 -667h-71l354 667h72zM787 112q0 -53 -43.5 -86t-113.5 -33q-107 0 -156 63l58 68q40 -46 93 -46q27 0 41.5 11.5t14.5 29.5q0 42 -67 42q-32 0 -38 -1v84q7 -1 36 -1q63 0 63 39t-54 39q-53 0 -87 -41
l-55 61q52 65 151 65q71 0 110.5 -29t39.5 -81q0 -33 -23 -58.5t-58 -31.5q35 -4 61.5 -30t26.5 -64z" />
    <glyph glyph-name="twothirds" unicode="&#x2154;" horiz-adv-x="865" 
d="M332 267h-297v78q121 98 154 133.5t33 63.5q0 21 -14 33.5t-38 12.5q-26 0 -50.5 -13.5t-39.5 -34.5l-59 66q57 67 154 67q70 0 112 -33.5t42 -91.5q0 -41 -32.5 -83.5t-115.5 -112.5h151v-85zM646 667l-355 -667h-71l354 667h72zM844 112q0 -53 -43.5 -86t-113.5 -33
q-107 0 -156 63l58 68q40 -46 93 -46q27 0 41.5 11.5t14.5 29.5q0 42 -67 42q-32 0 -38 -1v84q7 -1 36 -1q63 0 63 39t-54 39q-53 0 -87 -41l-55 61q52 65 151 65q71 0 110.5 -29t39.5 -81q0 -33 -23 -58.5t-58 -31.5q35 -4 61.5 -30t26.5 -64z" />
    <glyph glyph-name="oneeighth" unicode="&#x215b;" horiz-adv-x="809" 
d="M235 267h-108v263l-61 -62l-61 63l138 136h92v-400zM790 105q0 -56 -44.5 -84t-114.5 -28t-114.5 27.5t-44.5 84.5q0 34 24 62.5t59 38.5q-34 9 -55.5 34t-21.5 60q0 53 45.5 79.5t107.5 26.5t107.5 -26.5t45.5 -79.5q0 -35 -21.5 -60t-55.5 -34q35 -10 59 -38.5
t24 -62.5zM678 284q0 40 -47 40t-47 -40q0 -32 47 -45q47 12 47 45zM684 116q0 23 -18.5 36.5t-34.5 15.5q-15 -3 -33.5 -16t-18.5 -36q0 -42 52 -42q53 0 53 42zM589 667l-355 -667h-71l354 667h72z" />
    <glyph glyph-name="threeeighths" unicode="&#x215c;" horiz-adv-x="865" 
d="M847 105q0 -56 -44.5 -84t-114.5 -28t-114.5 27.5t-44.5 84.5q0 34 24 62.5t59 38.5q-34 9 -55.5 34t-21.5 60q0 53 45.5 79.5t107.5 26.5t107.5 -26.5t45.5 -79.5q0 -35 -21.5 -60t-55.5 -34q35 -10 59 -38.5t24 -62.5zM735 284q0 40 -47 40t-47 -40q0 -32 47 -45
q47 12 47 45zM741 116q0 23 -18.5 36.5t-34.5 15.5q-15 -3 -33.5 -16t-18.5 -36q0 -42 52 -42q53 0 53 42zM646 667l-355 -667h-71l354 667h72zM333 379q0 -53 -43.5 -86t-113.5 -33q-107 0 -156 63l58 68q40 -46 93 -46q27 0 41.5 11.5t14.5 29.5q0 42 -67 42q-32 0 -38 -1
v84q7 -1 36 -1q63 0 63 39t-54 39q-53 0 -87 -41l-55 61q52 65 151 65q71 0 110.5 -29t39.5 -81q0 -33 -23 -58.5t-58 -31.5q35 -4 61.5 -30t26.5 -64z" />
    <glyph glyph-name="fiveeighths" unicode="&#x215d;" horiz-adv-x="858" 
d="M839 105q0 -56 -44.5 -84t-114.5 -28t-114.5 27.5t-44.5 84.5q0 34 24 62.5t59 38.5q-34 9 -55.5 34t-21.5 60q0 53 45.5 79.5t107.5 26.5t107.5 -26.5t45.5 -79.5q0 -35 -21.5 -60t-55.5 -34q35 -10 59 -38.5t24 -62.5zM727 284q0 40 -47 40t-47 -40q0 -32 47 -45
q47 12 47 45zM733 116q0 23 -18.5 36.5t-34.5 15.5q-15 -3 -33.5 -16t-18.5 -36q0 -42 52 -42q53 0 53 42zM333 401q0 -63 -43 -102t-118 -39q-102 0 -152 61l61 67q37 -43 88 -43q26 0 41 15.5t15 37.5q0 24 -13.5 38t-37.5 14q-40 0 -67 -34l-75 24v227h276v-85h-169v-86
q27 32 77 32q49 0 83 -33t34 -94zM638 667l-355 -667h-71l354 667h72z" />
    <glyph glyph-name="seveneighths" unicode="&#x215e;" horiz-adv-x="796" 
d="M777 105q0 -56 -44.5 -84t-114.5 -28t-114.5 27.5t-44.5 84.5q0 34 24 62.5t59 38.5q-34 9 -55.5 34t-21.5 60q0 53 45.5 79.5t107.5 26.5t107.5 -26.5t45.5 -79.5q0 -35 -21.5 -60t-55.5 -34q35 -10 59 -38.5t24 -62.5zM665 284q0 40 -47 40t-47 -40q0 -32 47 -45
q47 12 47 45zM671 116q0 23 -18.5 36.5t-34.5 15.5q-15 -3 -33.5 -16t-18.5 -36q0 -42 52 -42q53 0 53 42zM311 593l-127 -326h-111l129 315h-185v85h294v-74zM576 667l-355 -667h-71l354 667h72z" />
    <glyph glyph-name="arrowleft" unicode="&#x2190;" horiz-adv-x="582" 
d="M538 211h-269l12 -130l-281 205l281 204l-12 -129h269v-150z" />
    <glyph glyph-name="arrowup" unicode="&#x2191;" horiz-adv-x="582" 
d="M216 17v269l-130 -12l205 281l204 -281l-129 12v-269h-150z" />
    <glyph glyph-name="arrowright" unicode="&#x2192;" horiz-adv-x="582" 
d="M584 286l-281 -205l12 130h-268v150h268l-12 129z" />
    <glyph glyph-name="arrowdown" unicode="&#x2193;" horiz-adv-x="582" 
d="M366 555v-269l130 12l-205 -281l-204 281l129 -12v269h150z" />
    <glyph glyph-name="partialdiff" unicode="&#x2202;" horiz-adv-x="505" 
d="M252 -12q-108 0 -168.5 67.5t-60.5 166.5q0 96 51.5 164t131.5 68q85 0 125 -74q-39 149 -150 237l118 67q81 -79 132 -189.5t51 -243.5q0 -119 -60 -191t-170 -72zM252 116q40 0 60.5 29t20.5 76t-20.5 76.5t-60.5 29.5q-39 0 -59.5 -29.5t-20.5 -76.5q0 -46 20.5 -75.5
t59.5 -29.5z" />
    <glyph glyph-name="Delta" unicode="&#x2206;" horiz-adv-x="581" 
d="M588 0h-595l200 667h195zM380 141l-89 358l-90 -358h179z" />
    <glyph glyph-name="product" unicode="&#x220f;" horiz-adv-x="694" 
d="M599 -90h-161v616h-181v-616h-161v616h-76v141h655v-141h-76v-616z" />
    <glyph glyph-name="summation" unicode="&#x2211;" horiz-adv-x="486" 
d="M223 526l147 -230l-153 -245h235v-141h-416v144l150 243l-149 229v141h415v-141h-229z" />
    <glyph glyph-name="minus" unicode="&#x2212;" horiz-adv-x="446" 
d="M417 293h-388v87h388v-87z" />
    <glyph glyph-name="uni2215" unicode="&#x2215;" horiz-adv-x="156" 
d="M291 667l-355 -667h-71l354 667h72z" />
    <glyph glyph-name="uni2219" unicode="&#x2219;" horiz-adv-x="264" 
d="M221 244q0 -36 -26 -62.5t-63 -26.5t-63 26.5t-26 62.5q0 37 26 63.5t63 26.5t63 -26.5t26 -63.5z" />
    <glyph glyph-name="radical" unicode="&#x221a;" horiz-adv-x="563" 
d="M341 0h-93l-84 292l-101 -28l-21 85l187 49l67 -255l149 524h98z" />
    <glyph glyph-name="infinity" unicode="&#x221e;" horiz-adv-x="604" 
d="M174 155q-72 0 -108.5 53.5t-36.5 127.5t36.5 127.5t108.5 53.5q43 0 76 -26.5t52 -70.5q19 43 53 69.5t75 26.5q73 0 109 -53.5t36 -127.5t-36 -127t-109 -53q-41 0 -75 26.5t-53 69.5q-42 -96 -128 -96zM417 242q31 0 50 25t19 68t-19.5 69t-49.5 26q-52 0 -77 -95
q25 -93 77 -93zM188 241q26 0 46 26.5t30 68.5q-24 94 -76 94q-30 0 -50 -26t-20 -68q0 -43 20 -69t50 -26z" />
    <glyph glyph-name="integral" unicode="&#x222b;" horiz-adv-x="318" 
d="M61 -100h-44v94h44q19 0 33 15.5t14 38.5v571q0 65 44 107t105 42h44v-94h-44q-20 0 -33.5 -15.5t-13.5 -39.5v-571q0 -65 -44 -106.5t-105 -41.5z" />
    <glyph glyph-name="approxequal" unicode="&#x2248;" horiz-adv-x="446" 
d="M29 197v93q43 -24 97 -24q39 0 91.5 21t102.5 21q54 0 97 -19v-93q-43 24 -97 24q-39 0 -91.5 -21t-102.5 -21t-97 19zM29 379v93q43 -24 97 -24q39 0 91.5 20.5t102.5 20.5q53 0 97 -18v-93q-43 24 -97 24q-39 0 -91.5 -21t-102.5 -21t-97 19z" />
    <glyph glyph-name="notequal" unicode="&#x2260;" horiz-adv-x="446" 
d="M131 93h-71l54 104h-85v87h132l52 100h-184v87h231l54 103h72l-54 -103h85v-87h-132l-52 -100h184v-87h-231z" />
    <glyph glyph-name="lessequal" unicode="&#x2264;" horiz-adv-x="446" 
d="M417 134l-388 161v104l388 162v-104l-288 -111l288 -109v-103zM417 9h-388v87h388v-87z" />
    <glyph glyph-name="greaterequal" unicode="&#x2265;" horiz-adv-x="446" 
d="M417 295l-388 -161v103l288 109l-288 111v104l388 -162v-104zM417 9h-388v87h388v-87z" />
    <glyph glyph-name="triangleright" unicode="&#x22b2;" horiz-adv-x="587" 
d="M589 286l-535 -309v618z" />
    <glyph glyph-name="triangleleft" unicode="&#x22b3;" horiz-adv-x="587" 
d="M535 595v-618l-535 309z" />
    <glyph glyph-name="dotmath" unicode="&#x22c5;" horiz-adv-x="264" 
d="M221 244q0 -36 -26 -62.5t-63 -26.5t-63 26.5t-26 62.5q0 37 26 63.5t63 26.5t63 -26.5t26 -63.5z" />
    <glyph glyph-name="uni2318" unicode="&#x2318;" horiz-adv-x="667" 
d="M216 154v63h-63q-26 0 -44.5 -18.5t-18.5 -44.5q0 -27 18.5 -45.5t44.5 -18.5t44.5 18.5t18.5 45.5zM216 450v64q0 26 -18 44.5t-44 18.5q-27 0 -45.5 -18.5t-18.5 -44.5t18.5 -45t45.5 -19h62zM265 265h137v137h-137v-137zM577 154q0 26 -18.5 44.5t-44.5 18.5h-63v-63
q0 -27 18.5 -45.5t44.5 -18.5t44.5 18.5t18.5 45.5zM577 514q0 26 -18.5 44.5t-44.5 18.5t-44.5 -18.5t-18.5 -44.5v-64h63q26 0 44.5 19t18.5 45zM625 154q0 -46 -32.5 -79t-78.5 -33t-79 33t-33 79v63h-137v-63q0 -46 -33 -79t-79 -33t-78.5 33t-32.5 79t32.5 78.5
t78.5 32.5h63v137h-62q-46 0 -79 33t-33 79t33 78.5t79 32.5t78.5 -32.5t32.5 -78.5v-64h137v64q0 46 33 78.5t79 32.5t78.5 -32.5t32.5 -78.5t-32.5 -79t-78.5 -33h-63v-137h63q46 0 78.5 -32.5t32.5 -78.5z" />
    <glyph glyph-name="blacksquare" unicode="&#x25a0;" horiz-adv-x="661" 
d="M618 0h-571v572h571v-572z" />
    <glyph glyph-name="triagup" unicode="&#x25b2;" horiz-adv-x="616" 
d="M617 29l-619 1l309 535z" />
    <glyph glyph-name="triagdn" unicode="&#x25bc;" horiz-adv-x="616" 
d="M617 510l-310 -535l-309 535h619z" />
    <glyph glyph-name="lozenge" unicode="&#x25ca;" horiz-adv-x="375" 
d="M198 0h-21l-158 334l158 333h21l158 -333zM188 41l132 293l-133 292l-132 -292z" />
    <glyph glyph-name="circlesolid" unicode="&#x25cf;" horiz-adv-x="695" 
d="M644 285q0 -123 -87 -210t-210 -87t-210 87t-87 210t87 210t210 87t210 -87t87 -210z" />
    <glyph glyph-name="blackstar" unicode="&#x2605;" horiz-adv-x="759" 
d="M759 421l-235 -171l90 -275l-235 170l-234 -170l89 275l-234 171h290l89 276l90 -276h290z" />
    <glyph glyph-name="ballotbox" unicode="&#x2610;" horiz-adv-x="661" 
d="M616 0h-571v572h571v-572zM520 87v398h-379v-398h379z" />
    <glyph glyph-name="boxchecked" unicode="&#x2611;" horiz-adv-x="661" 
d="M616 0h-571v572h482l94 172l75 -46l-80 -148v-550zM520 87v286l-153 -282l-202 246l68 63l121 -145l125 230h-338v-398h379z" />
    <glyph glyph-name="diamond" unicode="&#x2666;" horiz-adv-x="501" 
d="M501 285l-251 -250l-250 250l250 251z" />
    <glyph glyph-name="checkmark" unicode="&#x2713;" horiz-adv-x="531" 
d="M531 698l-329 -607l-202 246l68 63l121 -145l267 489z" />
    <glyph glyph-name="perthousand.onum" unicode="&#xf628;" horiz-adv-x="823" 
d="M268 423q0 -59 -34.5 -98.5t-90.5 -39.5t-90.5 39.5t-34.5 98.5t34.5 99t90.5 40t90.5 -40t34.5 -99zM537 128q0 -59 -34.5 -98.5t-90.5 -39.5t-90.5 39.5t-34.5 98.5q0 60 34.5 99.5t90.5 39.5t90.5 -39.5t34.5 -99.5zM474 550l-317 -550h-68l317 550h68zM185 423
q0 30 -12 48t-30 18t-29.5 -18t-11.5 -48t11.5 -47t29.5 -17t30 17.5t12 46.5zM454 128q0 30 -12 47.5t-30 17.5q-19 0 -30.5 -17.5t-11.5 -47.5t11.5 -47t30.5 -17q18 0 30 17.5t12 46.5zM805 128q0 -59 -34.5 -98.5t-90.5 -39.5t-90.5 40t-34.5 98q0 60 34.5 99.5
t90.5 39.5t90.5 -39.5t34.5 -99.5zM722 128q0 30 -12 47.5t-30 17.5q-19 0 -30.5 -17.5t-11.5 -47.5t11.5 -47t30.5 -17q18 0 30 17.5t12 46.5z" />
    <glyph glyph-name="uniF637" unicode="&#xf637;" horiz-adv-x="369" 
d="M331 326h-104v195q0 39 -38 39q-28 0 -47 -30v-204h-103v434h103v-157q34 45 96 45q45 0 69 -23t24 -66v-233z" />
    <glyph glyph-name="zero.tzero" unicode="&#xf638;" horiz-adv-x="551" 
d="M276 -12q-76 0 -131 41l-17 -29h-100l57 97q-59 94 -59 236q0 92 26 168t84 126t140 50q72 0 128 -40l18 30h101l-58 -97q60 -96 60 -237q0 -92 -25.5 -168t-83.5 -126.5t-140 -50.5zM276 131q46 0 65.5 51t19.5 151q0 23 -2 57l-137 -231q19 -28 54 -28zM190 333
q0 -39 1 -56l137 231q-20 26 -52 26q-47 0 -66.5 -50t-19.5 -151z" />
    <glyph glyph-name="zero.tnum" unicode="&#xf639;" horiz-adv-x="551" 
d="M276 -12q-82 0 -140 50.5t-84 126.5t-26 168t26 168t84 126t140 50t140 -50t83.5 -126t25.5 -168t-25.5 -168t-83.5 -126.5t-140 -50.5zM276 131q46 0 65.5 51t19.5 151q0 101 -19.5 151t-65.5 50q-47 0 -66.5 -50t-19.5 -151q0 -100 19.5 -151t66.5 -51z" />
    <glyph glyph-name="two.tnum" unicode="&#xf63a;" horiz-adv-x="551" 
d="M517 0h-463v130q197 177 246 231.5t49 101.5q0 31 -22 51t-57 20q-83 0 -143 -71l-94 103q91 111 240 111q106 0 172.5 -58.5t66.5 -153.5q0 -70 -47.5 -139.5t-169.5 -184.5h222v-141z" />
    <glyph glyph-name="three.tnum" unicode="&#xf63b;" horiz-adv-x="551" 
d="M271 -12q-81 0 -144.5 29.5t-99.5 76.5l93 104q59 -67 144 -67q46 0 69 19.5t23 50.5q0 65 -98 65q-56 0 -67 -1v144q11 -1 63 -1q93 0 93 61q0 32 -24 48.5t-66 16.5q-80 0 -132 -60l-89 94q82 109 235 109q109 0 171.5 -47.5t62.5 -134.5q0 -55 -37 -97.5t-92 -53.5
q57 -8 98 -52t41 -107q0 -88 -67 -142.5t-177 -54.5z" />
    <glyph glyph-name="four.tnum" unicode="&#xf63c;" horiz-adv-x="551" 
d="M460 0h-162v128h-275v133l230 406h207v-398h65v-141h-65v-128zM298 269v237l-130 -237h130z" />
    <glyph glyph-name="five.tnum" unicode="&#xf63d;" horiz-adv-x="551" 
d="M269 -12q-155 0 -238 102l95 106q56 -65 138 -65q43 0 67 24.5t24 60.5q0 39 -22 61.5t-63 22.5q-62 0 -104 -51l-116 28v390h430v-141h-268v-140q43 53 121 53q80 0 133.5 -59t53.5 -159q0 -105 -68 -169t-183 -64z" />
    </font>
</defs>
</svg>
