<?xml version="1.0" standalone="no"?>
<!DOCTYPE svg PUBLIC "-//W3C//DTD SVG 1.1//EN" "http://www.w3.org/Graphics/SVG/1.1/DTD/svg11.dtd" >
<svg xmlns="http://www.w3.org/2000/svg" xmlns:xlink="http://www.w3.org/1999/xlink" version="1.1">
<metadata>
Created by FontForge 20170731 at Tue Nov 30 17:35:59 2010
 By ,,,
Copyright (c) Mark Simonson, 2005. All rights reserved.
</metadata>
<defs>
<font id="ProximaNovaCond-ExtrabldIt" horiz-adv-x="517" >
  <font-face 
    font-family="Proxima Nova Cn Th"
    font-weight="800"
    font-style="italic"
    font-stretch="normal"
    units-per-em="1000"
    panose-1="2 0 5 6 3 0 0 2 0 4"
    ascent="790"
    descent="-210"
    x-height="483"
    cap-height="667"
    bbox="-189 -287 1033 890"
    underline-thickness="20"
    underline-position="-173"
    unicode-range="U+000D-FB04"
  />
<missing-glyph horiz-adv-x="458" 
d="M424 -90h-351v842h351v-842zM392 -60v782h-288v-782h288z" />
    <glyph glyph-name="f_f_j" unicode="ffj" horiz-adv-x="853" 
d="M470 0h-145l79 357h-62l28 126h62l6 30q38 164 176 164q59 0 98 -21l-47 -104q-12 9 -30 9q-41 0 -53 -48l-6 -30h79l-29 -126h-78zM561 -196q-77 0 -111 33l54 105q14 -17 41 -17q42 0 57 63l110 495h145l-111 -495q-19 -91 -61.5 -137.5t-123.5 -46.5zM803 529
q-33 0 -54.5 21t-21.5 51q0 43 30 69.5t65 26.5q33 0 54.5 -20.5t21.5 -50.5q0 -43 -30 -70t-65 -27zM164 0h-145l79 358h-62l29 125h61l6 30q36 164 178 164q81 0 121 -40l-62 -93q-16 17 -41 17q-40 0 -52 -49l-6 -29h79l-29 -125h-78z" />
    <glyph glyph-name="f_j" unicode="fj" horiz-adv-x="547" 
d="M164 0h-145l79 357h-62l28 126h62l6 30q38 164 176 164q59 0 98 -21l-47 -104q-12 9 -30 9q-41 0 -53 -48l-6 -30h79l-29 -126h-78zM256 -196q-77 0 -111 33l54 105q14 -17 41 -17q42 0 57 63l110 495h145l-111 -495q-19 -91 -61.5 -137.5t-123.5 -46.5zM498 529
q-33 0 -54.5 21t-21.5 51q0 43 30 69.5t65 26.5q33 0 54.5 -20.5t21.5 -50.5q0 -43 -30 -70t-65 -27z" />
    <glyph glyph-name="f_f" unicode="ff" horiz-adv-x="611" 
d="M164 0h-145l79 358h-62l29 125h61l6 30q36 164 178 164q81 0 121 -40l-62 -93q-16 17 -41 17q-40 0 -52 -49l-6 -29h79l-29 -125h-78zM470 0h-145l79 358h-62l29 125h61l6 30q36 164 178 164q81 0 121 -40l-62 -93q-16 17 -41 17q-40 0 -52 -49l-6 -29h79l-29 -125h-78z
" />
    <glyph glyph-name="fi" unicode="fi" horiz-adv-x="547" 
d="M164 0h-145l79 357h-62l28 126h62l6 30q38 164 176 164q59 0 98 -21l-47 -104q-12 9 -30 9q-41 0 -53 -48l-6 -30h79l-29 -126h-78zM498 529q-33 0 -54.5 21t-21.5 51q0 43 30 69.5t65 26.5q33 0 54.5 -20.5t21.5 -50.5q0 -43 -30 -70t-65 -27zM445 0h-145l107 483h145z
" />
    <glyph glyph-name="fl" unicode="fl" horiz-adv-x="547" 
d="M164 0h-145l79 357h-62l28 126h62l6 30q38 164 176 164q59 0 98 -21l-47 -104q-12 9 -30 9q-41 0 -53 -48l-6 -30h79l-29 -126h-78zM445 0h-145l147 667h145z" />
    <glyph glyph-name="f_f_i" unicode="ffi" horiz-adv-x="853" 
d="M470 0h-145l79 357h-62l28 126h62l6 30q38 164 176 164q59 0 98 -21l-47 -104q-12 9 -30 9q-41 0 -53 -48l-6 -30h79l-29 -126h-78zM803 529q-33 0 -54.5 21t-21.5 51q0 43 30 69.5t65 26.5q33 0 54.5 -20.5t21.5 -50.5q0 -43 -30 -70t-65 -27zM750 0h-145l107 483h145z
M164 0h-145l79 358h-62l29 125h61l6 30q36 164 178 164q81 0 121 -40l-62 -93q-16 17 -41 17q-40 0 -52 -49l-6 -29h79l-29 -125h-78z" />
    <glyph glyph-name="f_f_l" unicode="ffl" horiz-adv-x="853" 
d="M470 0h-145l79 357h-62l28 126h62l6 30q38 164 176 164q59 0 98 -21l-47 -104q-12 9 -30 9q-41 0 -53 -48l-6 -30h79l-29 -126h-78zM750 0h-145l147 667h145zM164 0h-145l79 358h-62l29 125h61l6 30q36 164 178 164q81 0 121 -40l-62 -93q-16 17 -41 17q-40 0 -52 -49
l-6 -29h79l-29 -125h-78z" />
    <glyph glyph-name="f_b" unicode="fb" horiz-adv-x="822" 
d="M164 0h-145l79 357h-62l28 126h62l6 30q38 164 176 164q59 0 98 -21l-47 -104q-12 9 -30 9q-41 0 -53 -48l-6 -30h79l-29 -126h-78zM581 -12q-89 0 -124 70l-12 -58h-144l146 667h145l-53 -239q53 67 121 67q69 0 107.5 -46.5t38.5 -133.5q0 -52 -14.5 -108t-41.5 -105.5
t-71 -81.5t-98 -32zM551 116q46 0 76 57t30 116q0 36 -19 57t-50 21q-41 0 -72 -45l-36 -161q19 -45 71 -45z" />
    <glyph glyph-name="f_h" unicode="fh" horiz-adv-x="823" 
d="M164 0h-145l79 357h-62l28 126h62l6 30q38 164 176 164q59 0 98 -21l-47 -104q-12 9 -30 9q-41 0 -53 -48l-6 -30h79l-29 -126h-78zM721 0h-144l66 302q4 20 4 24q0 41 -51 41q-40 0 -82 -51l-69 -316h-144l147 667h144l-54 -243q65 71 141 71q57 0 90.5 -29t33.5 -76
q0 -14 -4 -34z" />
    <glyph glyph-name="f_k" unicode="fk" horiz-adv-x="791" 
d="M164 0h-145l79 357h-62l28 126h62l6 30q38 164 176 164q59 0 98 -21l-47 -104q-12 9 -30 9q-41 0 -53 -48l-6 -30h79l-29 -126h-78zM740 0h-166l-46 178l-59 -66l-24 -112h-145l147 667h145l-83 -373l158 189h172l-193 -217z" />
    <glyph glyph-name=".notdef" horiz-adv-x="458" 
d="M424 -90h-351v842h351v-842zM392 -60v782h-288v-782h288z" />
    <glyph glyph-name=".null" horiz-adv-x="0" 
 />
    <glyph glyph-name=".null" horiz-adv-x="0" 
 />
    <glyph glyph-name="nonmarkingreturn" horiz-adv-x="333" 
 />
    <glyph glyph-name="CR" unicode="&#xd;" horiz-adv-x="0" 
 />
    <glyph glyph-name="space" unicode=" " horiz-adv-x="207" 
 />
    <glyph glyph-name="exclam" unicode="!" horiz-adv-x="264" 
d="M192 227h-128l74 440h174zM87 -12q-34 0 -57.5 24t-23.5 58q0 40 28.5 68.5t68.5 28.5q34 0 57.5 -24t23.5 -58q0 -40 -29 -68.5t-68 -28.5z" />
    <glyph glyph-name="quotedbl" unicode="&#x22;" horiz-adv-x="426" 
d="M173 364h-61q5 205 5 224q1 38 26.5 63.5t61.5 25.5q27 0 47 -19.5t20 -49.5q0 -11 -7 -32zM367 364h-61q5 205 5 224q0 38 25.5 63.5t62.5 25.5q27 0 47 -19.5t20 -49.5q0 -11 -7 -32z" />
    <glyph glyph-name="numbersign" unicode="#" horiz-adv-x="551" 
d="M267 0h-104l84 166h-73l-83 -166h-105l84 166h-73l45 90h74l77 154h-74l44 89h76l83 168h105l-84 -168h73l83 168h104l-84 -168h74l-43 -89h-76l-78 -154h78l-45 -90h-79zM292 256l77 154h-72l-77 -154h72z" />
    <glyph glyph-name="dollar" unicode="$" horiz-adv-x="518" 
d="M137 -100l21 97q-115 24 -169 95l94 117q26 -36 71.5 -58t94.5 -22q33 0 52 18t19 44q0 20 -24.5 38.5t-60 36.5t-71 40.5t-60 59.5t-24.5 84q0 89 63 155t166 72l21 91h105l-23 -101q87 -23 139 -79l-92 -116q-27 31 -66.5 48t-79.5 17q-28 0 -45 -16t-17 -39
q0 -19 24.5 -38t59.5 -37t70.5 -41t60 -60t24.5 -84q0 -94 -63 -160.5t-166 -72.5l-19 -89h-105z" />
    <glyph glyph-name="percent" unicode="%" horiz-adv-x="683" 
d="M147 0h-71l501 667h71zM474 -12q-62 0 -102 37t-40 96q0 85 51.5 142.5t121.5 57.5q62 0 102 -37t40 -96q0 -85 -51.5 -142.5t-121.5 -57.5zM478 75q28 0 50 30.5t22 73.5q0 26 -13.5 40.5t-36.5 14.5q-28 0 -49.5 -30t-21.5 -74q0 -25 13 -40t36 -15zM216 343
q-61 0 -101 37.5t-40 96.5q0 85 51.5 142.5t121.5 57.5q61 0 101.5 -37t40.5 -96q0 -86 -51.5 -143.5t-122.5 -57.5zM222 431q27 0 49 30t22 74q0 26 -13.5 40.5t-36.5 14.5q-28 0 -49.5 -30.5t-21.5 -73.5q0 -26 13.5 -40.5t36.5 -14.5z" />
    <glyph glyph-name="ampersand" unicode="&#x26;" horiz-adv-x="560" 
d="M498 0h-156q-2 3 -7.5 12.5t-8.5 14.5q-67 -39 -138 -39q-85 0 -136.5 42.5t-51.5 124.5q0 87 46 138.5t126 89.5q-13 49 -13 96q0 84 56.5 141t136.5 57q68 0 113 -36t45 -102q0 -32 -11 -59.5t-26 -45.5t-43 -36.5t-48 -28.5t-55 -26q7 -18 23 -54q23 -54 29 -65
q42 58 67 108l101 -63q-59 -98 -114 -155q29 -55 65 -114zM218 101q27 0 57 19q-25 48 -39 82q-7 15 -31 76q-53 -43 -53 -103q0 -33 18.5 -53.5t47.5 -20.5zM294 479q0 -23 4 -42q87 40 87 94q0 43 -35 43q-22 0 -39 -27.5t-17 -67.5z" />
    <glyph glyph-name="quotesingle" unicode="'" horiz-adv-x="234" 
d="M173 364h-61q5 205 5 224q1 38 26.5 63.5t61.5 25.5q27 0 47 -19.5t20 -49.5q0 -11 -7 -32z" />
    <glyph glyph-name="parenleft" unicode="(" horiz-adv-x="302" 
d="M197 -149l-109 -50q-65 116 -65 281q0 168 68.5 324t190.5 279l85 -68q-90 -125 -142 -279.5t-52 -307.5q0 -83 24 -179z" />
    <glyph glyph-name="parenright" unicode=")" horiz-adv-x="302" 
d="M104 635l109 50q65 -116 65 -281q0 -168 -68.5 -324t-190.5 -279l-85 68q91 126 142.5 280t51.5 306q0 84 -24 180z" />
    <glyph glyph-name="asterisk" unicode="*" horiz-adv-x="343" 
d="M231 359h-70l30 112l-105 -47l-19 62l106 38l-85 59l48 55l77 -67l19 106h70l-31 -113l104 48l21 -62l-105 -39l84 -58l-48 -55l-78 66z" />
    <glyph glyph-name="plus" unicode="+" horiz-adv-x="446" 
d="M428 294h-146l-38 -170h-96l38 170h-146l19 87h146l36 162h96l-36 -162h146z" />
    <glyph glyph-name="comma" unicode="," horiz-adv-x="264" 
d="M189 78q0 -60 -44.5 -120t-112.5 -92l-50 52q30 13 60.5 36t42.5 48q-3 -1 -12 -1q-29 0 -48.5 19t-19.5 53q0 38 30.5 66t68.5 28q35 0 60 -23.5t25 -65.5z" />
    <glyph glyph-name="hyphen" unicode="-" horiz-adv-x="272" 
d="M228 181h-212l27 122h212z" />
    <glyph glyph-name="period" unicode="." horiz-adv-x="264" 
d="M87 -12q-34 0 -57.5 24t-23.5 58q0 40 29 68.5t68 28.5q34 0 58 -24t24 -58q0 -39 -29.5 -68t-68.5 -29z" />
    <glyph glyph-name="slash" unicode="/" horiz-adv-x="293" 
d="M44 -20h-104l348 707h105z" />
    <glyph glyph-name="zero" unicode="0" horiz-adv-x="549" 
d="M244 -12q-96 0 -154.5 65.5t-58.5 184.5q0 111 40 211t113 164t160 64q96 0 154 -65t58 -184q0 -111 -39.5 -211.5t-112.5 -164.5t-160 -64zM259 131q30 0 57 34.5t43.5 85t26 103t9.5 91.5q0 89 -67 89q-40 0 -72.5 -58.5t-48 -129t-15.5 -125.5q0 -90 67 -90z" />
    <glyph glyph-name="one" unicode="1" horiz-adv-x="412" 
d="M305 0h-162l101 460l-122 -102l-71 96l261 213h140z" />
    <glyph glyph-name="two" unicode="2" horiz-adv-x="536" 
d="M449 0h-463l34 154q227 156 280 200q84 71 84 120q0 28 -23 44.5t-61 16.5q-78 0 -138 -58l-72 112q93 88 225 88q102 0 170 -50t68 -138q0 -86 -68 -161.5t-227 -186.5h222z" />
    <glyph glyph-name="three" unicode="3" horiz-adv-x="533" 
d="M249 -12q-87 0 -161.5 36t-104.5 101l115 91q23 -41 64.5 -63t85.5 -22q43 0 66 24.5t23 57.5q0 53 -88 53q-54 0 -64 -1l32 144q9 -1 74 -1q45 0 70.5 19.5t25.5 51.5q0 55 -96 55q-73 0 -127 -48l-68 103q91 88 216 88q110 0 175.5 -44t65.5 -122q0 -65 -50.5 -114
t-115.5 -59q52 -14 80 -50.5t28 -88.5q0 -90 -72 -150.5t-174 -60.5z" />
    <glyph glyph-name="four" unicode="4" horiz-adv-x="540" 
d="M402 0h-162l28 128h-275l32 146l308 393h216l-88 -398h65l-31 -141h-65zM299 269l52 236l-182 -236h130z" />
    <glyph glyph-name="five" unicode="5" horiz-adv-x="544" 
d="M254 -12q-179 0 -254 130l118 94q20 -38 56 -59.5t80 -21.5t71 30.5t27 72.5q0 31 -23 49t-63 18q-54 0 -97 -40l-107 39l81 367h430l-32 -141h-267l-30 -138q43 43 114 43q72 0 118 -46.5t46 -128.5q0 -111 -75 -189.5t-193 -78.5z" />
    <glyph glyph-name="six" unicode="6" horiz-adv-x="542" 
d="M262 -12q-110 0 -172 64.5t-62 180.5q0 61 13.5 123t42.5 120t68.5 102.5t96.5 71.5t122 27q127 0 199 -85l-101 -112q-35 54 -107 54q-49 0 -88.5 -40.5t-59.5 -98.5q-4 -10 -8 -28q24 31 62.5 49.5t80.5 18.5q75 0 124 -46.5t49 -123.5q0 -110 -75 -193.5t-185 -83.5z
M263 131q39 0 65 34.5t26 73.5q0 29 -23.5 48t-59.5 19q-44 0 -83 -46q-3 -16 -3 -43q0 -40 21.5 -63t56.5 -23z" />
    <glyph glyph-name="seven" unicode="7" horiz-adv-x="490" 
d="M218 0h-181l310 526h-267l31 141h456l-25 -112z" />
    <glyph glyph-name="eight" unicode="8" horiz-adv-x="542" 
d="M250 -12q-111 0 -179 42t-68 128q0 64 43.5 119.5t125.5 80.5q-38 18 -61.5 52.5t-23.5 77.5q0 87 74 138t171 51q61 0 112.5 -15.5t88 -54.5t36.5 -95q0 -65 -43.5 -115t-113.5 -66q45 -24 69 -62.5t24 -82.5q0 -89 -73.5 -143.5t-181.5 -54.5zM305 400q42 7 68.5 28
t26.5 56q0 25 -21 39.5t-54 14.5q-34 0 -56.5 -21t-22.5 -52q0 -21 18 -38.5t41 -26.5zM253 126q38 0 64.5 23.5t26.5 58.5q0 27 -19.5 45.5t-46.5 26.5q-44 -6 -74.5 -30.5t-30.5 -63.5q0 -29 21.5 -44.5t58.5 -15.5z" />
    <glyph glyph-name="nine" unicode="9" horiz-adv-x="542" 
d="M318 678q111 0 172.5 -64.5t61.5 -180.5q0 -61 -13.5 -123t-42.5 -120t-68.5 -102.5t-96.5 -71.5t-122 -27q-127 0 -199 85l101 112q35 -54 107 -54q49 0 88 40t60 98q4 11 8 29q-55 -68 -143 -68q-75 0 -124 46.5t-49 123.5q0 110 75 193.5t185 83.5zM317 535
q-39 0 -65 -34.5t-26 -73.5q0 -29 23.5 -48t59.5 -19q44 0 83 46q3 15 3 43q0 40 -21.5 63t-56.5 23z" />
    <glyph glyph-name="colon" unicode=":" horiz-adv-x="264" 
d="M87 -12q-34 0 -57.5 24t-23.5 58q0 40 28.5 68.5t68.5 28.5q34 0 58 -24t24 -58q0 -40 -29 -68.5t-69 -28.5zM158 311q-34 0 -58 24t-24 58q0 40 29 68.5t69 28.5q34 0 57.5 -24t23.5 -58q0 -40 -28.5 -68.5t-68.5 -28.5z" />
    <glyph glyph-name="semicolon" unicode=";" horiz-adv-x="264" 
d="M189 78q0 -60 -44.5 -120t-112.5 -92l-50 52q30 13 60.5 36t42.5 48q-3 -1 -12 -1q-29 0 -48.5 19t-19.5 53q0 38 30.5 66t68.5 28q35 0 60 -23.5t25 -65.5zM158 311q-34 0 -57.5 24t-23.5 58q0 40 29 68.5t68 28.5q34 0 58 -24t24 -58q0 -40 -29 -68.5t-69 -28.5z" />
    <glyph glyph-name="less" unicode="&#x3c;" horiz-adv-x="446" 
d="M389 121l-352 162l23 104l424 161l-24 -108l-312 -110l264 -109z" />
    <glyph glyph-name="equal" unicode="=" horiz-adv-x="446" 
d="M448 384h-389l20 87h388zM406 197h-388l19 87h389z" />
    <glyph glyph-name="greater" unicode="&#x3e;" horiz-adv-x="446" 
d="M425 283l-424 -162l25 109l312 108l-264 111l22 99l352 -161z" />
    <glyph glyph-name="question" unicode="?" horiz-adv-x="392" 
d="M262 247l-132 -36q-11 27 -11 65q0 40 16 71.5t38.5 51t45 35.5t38.5 32.5t16 34.5q0 38 -49 38q-44 0 -78 -31l-57 108q76 61 173 61q76 0 128.5 -37.5t52.5 -98.5q0 -44 -19.5 -79t-47 -57.5t-55 -41.5t-47 -41.5t-19.5 -47.5q0 -16 7 -27zM152 -12q-34 0 -57.5 24
t-23.5 58q0 40 29 68.5t69 28.5q34 0 57.5 -24t23.5 -58q0 -40 -29 -68.5t-69 -28.5z" />
    <glyph glyph-name="at" unicode="@" horiz-adv-x="718" 
d="M333 -70q-126 0 -202 83.5t-76 215.5q0 106 51.5 200.5t139.5 151.5t187 57q120 0 194.5 -76.5t74.5 -193.5q0 -122 -59.5 -202.5t-133.5 -80.5q-39 0 -64 18.5t-32 49.5l-1 8q-52 -76 -127 -76q-57 0 -91.5 39.5t-34.5 111.5q0 101 61.5 181.5t146.5 80.5q70 0 98 -62
l10 48h127l-49 -235q-3 -15 -3 -27q0 -41 30 -41q27 0 52 52t25 134q0 106 -61.5 168t-165.5 62q-89 0 -166.5 -52t-122 -136t-44.5 -177q0 -114 64.5 -188t176.5 -74q86 0 167 54l22 -31q-93 -63 -194 -63zM346 186q42 0 77 53l24 116q-15 42 -53 42q-45 0 -74 -46t-29 -99
q0 -30 14.5 -48t40.5 -18z" />
    <glyph glyph-name="A" unicode="A" horiz-adv-x="575" 
d="M528 0h-169l-2 102h-190l-47 -102h-181l344 667h195zM356 243l-6 256l-119 -256h125z" />
    <glyph glyph-name="B" unicode="B" horiz-adv-x="579" 
d="M323 0h-324l147 667h269q85 0 131.5 -45t46.5 -111t-42.5 -119t-103.5 -60q43 -11 66 -47t23 -81q0 -81 -54 -142.5t-159 -61.5zM251 408h102q33 0 50.5 21.5t17.5 50.5q0 22 -14 35t-39 13h-90zM298 139q34 0 55 22.5t21 55.5q0 24 -14 38t-39 14h-101l-28 -130h106z
" />
    <glyph glyph-name="C" unicode="C" horiz-adv-x="570" 
d="M295 -12q-118 0 -191 71.5t-73 191.5q0 109 40.5 205.5t121 159t183.5 62.5q108 0 167.5 -60t75.5 -147l-153 -40q-8 47 -33.5 75.5t-64.5 28.5q-72 0 -121.5 -88.5t-49.5 -191.5q0 -57 29 -90.5t78 -33.5q31 0 61.5 21t50.5 57l128 -68q-46 -77 -111 -115t-138 -38z" />
    <glyph glyph-name="D" unicode="D" horiz-adv-x="613" 
d="M233 0h-234l147 667h229q96 0 168 -70.5t72 -185.5q0 -57 -11.5 -112t-40 -110t-71 -96t-109.5 -67t-150 -26zM192 141h69q87 0 137.5 81.5t50.5 180.5q0 56 -29 89.5t-75 33.5h-68z" />
    <glyph glyph-name="E" unicode="E" horiz-adv-x="491" 
d="M401 0h-402l147 667h402l-32 -141h-239l-25 -117h232l-31 -141h-233l-28 -127h240z" />
    <glyph glyph-name="F" unicode="F" horiz-adv-x="485" 
d="M161 0h-162l147 667h402l-32 -141h-239l-25 -117h232l-31 -141h-233z" />
    <glyph glyph-name="G" unicode="G" horiz-adv-x="598" 
d="M295 -12q-118 0 -191 71.5t-73 191.5q0 111 40.5 207t122.5 158t190 62q96 0 153 -52.5t73 -129.5l-143 -49q-7 37 -34 62.5t-65 25.5q-70 0 -120.5 -87.5t-50.5 -192.5q0 -57 28 -90.5t79 -33.5q46 0 87 39l15 67h-109l32 142h261l-60 -268q-89 -123 -235 -123z" />
    <glyph glyph-name="H" unicode="H" horiz-adv-x="625" 
d="M517 0h-162l60 272h-194l-60 -272h-162l147 667h162l-56 -253h195l55 253h162z" />
    <glyph glyph-name="I" unicode="I" horiz-adv-x="268" 
d="M161 0h-162l147 667h162z" />
    <glyph glyph-name="J" unicode="J" horiz-adv-x="427" 
d="M130 -12q-109 0 -165 55l74 126q28 -38 78 -38q71 0 87 78l102 458h161l-102 -463q-25 -112 -81 -164t-154 -52z" />
    <glyph glyph-name="K" unicode="K" horiz-adv-x="575" 
d="M527 0h-181l-86 248l-61 -74l-38 -174h-162l147 667h162l-58 -265l214 265h197l-278 -312z" />
    <glyph glyph-name="L" unicode="L" horiz-adv-x="455" 
d="M376 0h-377l147 667h162l-116 -526h215z" />
    <glyph glyph-name="M" unicode="M" horiz-adv-x="761" 
d="M654 0h-161l89 403l-224 -403h-63l-45 403l-89 -403h-162l147 667h210l37 -340l191 340h217z" />
    <glyph glyph-name="N" unicode="N" horiz-adv-x="624" 
d="M516 0h-153l-123 361l-79 -361h-162l147 667h165l115 -344l76 344h161z" />
    <glyph glyph-name="O" unicode="O" horiz-adv-x="633" 
d="M295 -12q-120 0 -192 73t-72 190q0 106 39.5 202t120 160.5t185.5 64.5q119 0 191.5 -73.5t72.5 -189.5q0 -106 -39 -202t-120 -160.5t-186 -64.5zM304 131q71 0 120.5 88.5t49.5 190.5q0 56 -29.5 90.5t-78.5 34.5q-71 0 -120 -88.5t-49 -191.5q0 -56 29 -90t78 -34z
" />
    <glyph glyph-name="P" unicode="P" horiz-adv-x="556" 
d="M161 0h-162l147 667h255q82 0 133.5 -53t51.5 -132q0 -45 -15 -88t-46 -81t-85 -61t-124 -23h-105zM243 370h84q39 0 65 28t26 67q0 28 -16.5 44.5t-43.5 16.5h-81z" />
    <glyph glyph-name="Q" unicode="Q" horiz-adv-x="633" 
d="M295 -12q-120 0 -192 73t-72 190q0 106 39.5 202t120 160.5t185.5 64.5q119 0 191.5 -73.5t72.5 -189.5q0 -112 -45.5 -214.5t-127.5 -159.5l15 -39l-124 -43l-13 33q-32 -4 -50 -4zM258 221l124 42l26 -69q31 42 48.5 100.5t17.5 115.5q0 56 -29.5 90.5t-78.5 34.5
q-71 0 -120 -88.5t-49 -191.5q0 -53 25.5 -86.5t69.5 -37.5z" />
    <glyph glyph-name="R" unicode="R" horiz-adv-x="573" 
d="M489 0h-174l-38 229h-66l-50 -229h-162l147 667h246q82 0 138 -53t56 -134q0 -82 -45 -146.5t-106 -84.5zM243 370h84q40 0 65 27t25 66q0 30 -17 46.5t-43 16.5h-80z" />
    <glyph glyph-name="S" unicode="S" horiz-adv-x="511" 
d="M237 -12q-81 0 -149.5 28.5t-104.5 75.5l94 117q26 -36 71.5 -58t94.5 -22q33 0 52 18t19 44q0 20 -24.5 38.5t-60 36.5t-71 40.5t-60 59.5t-24.5 84q0 93 69 160.5t179 67.5q64 0 124 -23.5t99 -66.5l-92 -116q-27 31 -66.5 48t-79.5 17q-28 0 -45 -16t-17 -39
q0 -19 24.5 -38t59.5 -37t70.5 -41t60 -60t24.5 -84q0 -99 -68 -166.5t-179 -67.5z" />
    <glyph glyph-name="T" unicode="T" horiz-adv-x="487" 
d="M271 0h-162l116 526h-143l31 141h447l-31 -141h-143z" />
    <glyph glyph-name="U" unicode="U" horiz-adv-x="629" 
d="M294 -12q-115 0 -181 57t-66 152q0 13 5 43l94 427h163l-95 -432q-3 -18 -3 -27q0 -34 24 -56.5t65 -22.5q87 0 111 106l95 432h163l-95 -430q-26 -120 -96 -184.5t-184 -64.5z" />
    <glyph glyph-name="V" unicode="V" horiz-adv-x="575" 
d="M331 0h-195l-50 667h169l14 -477l225 477h181z" />
    <glyph glyph-name="W" unicode="W" horiz-adv-x="793" 
d="M584 0h-167l14 403l-163 -403h-167l-7 667h170l-20 -425l180 425h124l-7 -425l167 425h177z" />
    <glyph glyph-name="X" unicode="X" horiz-adv-x="575" 
d="M528 0h-177l-68 209l-151 -209h-193l273 350l-115 317h177l59 -196l136 196h194l-258 -334z" />
    <glyph glyph-name="Y" unicode="Y" horiz-adv-x="557" 
d="M306 0h-162l59 271l-118 396h169l55 -248l165 248h184l-293 -396z" />
    <glyph glyph-name="Z" unicode="Z" horiz-adv-x="495" 
d="M408 0h-429l29 132l301 394h-214l31 141h422l-29 -129l-303 -397h223z" />
    <glyph glyph-name="bracketleft" unicode="[" horiz-adv-x="257" 
d="M143 -190h-196l192 868h197l-21 -94h-94l-151 -680h94z" />
    <glyph glyph-name="backslash" unicode="\" horiz-adv-x="293" 
d="M133 -20l-40 707h101l40 -707h-101z" />
    <glyph glyph-name="bracketright" unicode="]" horiz-adv-x="257" 
d="M117 -190h-195l20 94h94l151 680h-94l21 94h196z" />
    <glyph glyph-name="asciicircum" unicode="^" horiz-adv-x="393" 
d="M393 333h-98l-25 229l-125 -229h-107l200 334h105z" />
    <glyph glyph-name="underscore" unicode="_" horiz-adv-x="422" 
d="M340 -134h-427l22 94h427z" />
    <glyph glyph-name="grave" unicode="`" horiz-adv-x="228" 
d="M297 556h-94l-102 144h125z" />
    <glyph glyph-name="a" unicode="a" horiz-adv-x="516" 
d="M241 495q89 0 123 -70l13 58h144l-107 -483h-144l12 56q-51 -68 -120 -68t-108 46.5t-39 133.5q0 72 24 144.5t77.5 127.5t124.5 55zM271 367q-46 0 -76.5 -57.5t-30.5 -115.5q0 -36 19 -57t50 -21q42 0 73 45l36 161q-22 45 -71 45z" />
    <glyph glyph-name="b" unicode="b" horiz-adv-x="516" 
d="M275 -12q-89 0 -124 70l-12 -58h-144l146 667h145l-53 -239q53 67 121 67q69 0 107.5 -46.5t38.5 -133.5q0 -52 -14.5 -108t-41.5 -105.5t-71 -81.5t-98 -32zM245 116q46 0 76 57t30 116q0 36 -19 57t-50 21q-41 0 -72 -45l-36 -161q19 -45 71 -45z" />
    <glyph glyph-name="c" unicode="c" horiz-adv-x="429" 
d="M228 -12q-97 0 -154 55.5t-57 149.5q0 120 75 211t188 91q116 0 169 -74l-89 -94q-24 40 -75 40q-52 0 -86.5 -49.5t-34.5 -112.5q0 -43 25 -66t63 -23q43 0 74 34l51 -105q-59 -57 -149 -57z" />
    <glyph glyph-name="d" unicode="d" horiz-adv-x="516" 
d="M241 495q89 0 123 -70l54 242h144l-148 -667h-144l12 56q-51 -68 -120 -68t-108 46.5t-39 133.5q0 72 24 144.5t77.5 127.5t124.5 55zM271 367q-46 0 -76.5 -57.5t-30.5 -115.5q0 -36 19 -57t50 -21q42 0 73 45l36 161q-22 45 -71 45z" />
    <glyph glyph-name="e" unicode="e" horiz-adv-x="484" 
d="M235 -12q-101 0 -159.5 54t-58.5 150q0 73 30.5 141.5t91.5 115t137 46.5q89 0 140 -52t51 -143q0 -50 -15 -105h-295q-2 -10 -2 -17q0 -26 25 -51t74 -25q57 0 97 33l46 -93q-68 -54 -162 -54zM174 292h162q3 9 3 22q0 27 -19 47t-53 20q-37 0 -62 -28t-31 -61z" />
    <glyph glyph-name="f" unicode="f" horiz-adv-x="306" 
d="M164 0h-145l79 358h-62l29 125h61l6 30q36 164 178 164q81 0 121 -40l-62 -93q-16 17 -41 17q-40 0 -52 -49l-6 -29h79l-29 -125h-78z" />
    <glyph glyph-name="g" unicode="g" horiz-adv-x="516" 
d="M171 -196q-135 0 -205 74l77 101q19 -25 53.5 -39.5t71.5 -14.5q83 0 108 106l11 47q-50 -69 -122 -69q-67 0 -108 43t-41 129q0 71 23.5 140.5t76 121.5t123.5 52q37 0 72.5 -18.5t51.5 -51.5l13 58h144l-100 -449q-51 -230 -249 -230zM236 137q41 0 73 45l31 138
q-23 47 -74 47q-45 0 -72.5 -50t-27.5 -106q0 -36 18.5 -55t51.5 -19z" />
    <glyph glyph-name="h" unicode="h" horiz-adv-x="518" 
d="M415 0h-144l66 302q4 20 4 24q0 41 -51 41q-39 0 -82 -51l-69 -316h-144l147 667h144l-54 -243q65 71 141 71q57 0 90.5 -29t33.5 -76q0 -14 -4 -34z" />
    <glyph glyph-name="i" unicode="i" horiz-adv-x="241" 
d="M192 529q-33 0 -54.5 21t-21.5 51q0 43 30 69.5t65 26.5q33 0 54.5 -20.5t21.5 -50.5q0 -43 -30 -70t-65 -27zM139 0h-145l107 483h145z" />
    <glyph glyph-name="j" unicode="j" horiz-adv-x="241" 
d="M-50 -196q-77 0 -111 33l54 105q14 -17 41 -17q42 0 57 63l110 495h145l-111 -495q-19 -91 -61.5 -137.5t-123.5 -46.5zM192 529q-33 0 -54.5 21t-21.5 51q0 43 30 69.5t65 26.5q33 0 54.5 -20.5t21.5 -50.5q0 -43 -30 -70t-65 -27z" />
    <glyph glyph-name="k" unicode="k" horiz-adv-x="485" 
d="M434 0h-166l-46 178l-59 -66l-24 -112h-145l147 667h145l-83 -373l158 189h172l-193 -217z" />
    <glyph glyph-name="l" unicode="l" horiz-adv-x="241" 
d="M139 0h-145l147 667h145z" />
    <glyph glyph-name="m" unicode="m" horiz-adv-x="770" 
d="M668 0h-145l67 301q4 20 4 26q0 19 -12.5 29.5t-32.5 10.5q-40 0 -76 -51l-70 -316h-144l66 301q0 2 1.5 7.5t2 10.5t0.5 9q0 39 -45 39q-38 0 -76 -51l-69 -316h-145l107 483h145l-14 -59q58 71 135 71q53 0 85 -28t32 -54q0 -1 -1 -3q66 85 148 85q51 0 85.5 -28
t34.5 -77q0 -6 -4 -34z" />
    <glyph glyph-name="n" unicode="n" 
d="M415 0h-145l67 300q4 24 4 26q0 41 -47 41q-43 0 -86 -51l-69 -316h-145l107 483h145l-14 -59q65 71 141 71q58 0 91 -29t33 -76q0 -18 -4 -34z" />
    <glyph glyph-name="o" unicode="o" horiz-adv-x="505" 
d="M227 -12q-101 0 -155.5 56t-54.5 149q0 115 73 208.5t186 93.5q101 0 155.5 -56t54.5 -149q0 -115 -73 -208.5t-186 -93.5zM234 116q45 0 75 58t30 114q0 79 -70 79q-45 0 -75 -58t-30 -114q0 -79 70 -79z" />
    <glyph glyph-name="p" unicode="p" horiz-adv-x="515" 
d="M275 -12q-89 0 -124 70l-53 -242h-144l147 667h145l-13 -55q53 67 121 67q69 0 107.5 -46.5t38.5 -133.5q0 -52 -14.5 -108t-41.5 -105.5t-71 -81.5t-98 -32zM245 116q46 0 76 57t30 116q0 36 -19 57t-50 21q-41 0 -72 -45l-36 -161q19 -45 71 -45z" />
    <glyph glyph-name="q" unicode="q" horiz-adv-x="515" 
d="M241 495q89 0 123 -70l13 58h144l-148 -667h-144l53 240q-51 -68 -120 -68t-108 46.5t-39 133.5q0 72 24 144.5t77.5 127.5t124.5 55zM271 367q-46 0 -76.5 -57.5t-30.5 -115.5q0 -36 19 -57t50 -21q42 0 73 45l36 161q-22 45 -71 45z" />
    <glyph glyph-name="r" unicode="r" horiz-adv-x="335" 
d="M139 0h-145l107 483h145l-13 -59q55 72 145 72l-32 -142q-16 6 -39 6q-59 0 -100 -52z" />
    <glyph glyph-name="s" unicode="s" horiz-adv-x="424" 
d="M185 -12q-62 0 -118 22.5t-88 58.5l77 93q20 -25 58.5 -45t77.5 -20q23 0 37.5 11.5t14.5 27.5t-20.5 28.5t-49 24t-57.5 27t-49.5 43.5t-20.5 66q0 70 51 120t141 50q53 0 103.5 -19.5t83.5 -54.5l-71 -90q-16 20 -49 37t-67 17q-23 0 -37 -10.5t-14 -25.5
q0 -13 20.5 -24.5t50 -23t59 -27.5t50 -45t20.5 -67q0 -73 -55.5 -123.5t-147.5 -50.5z" />
    <glyph glyph-name="t" unicode="t" horiz-adv-x="315" 
d="M186 -12q-68 0 -105.5 26t-37.5 78q0 19 4 40l50 226h-62l29 125h61l29 132h145l-29 -132h78l-28 -125h-78l-42 -188q-3 -21 -3 -22q0 -32 36 -32q14 0 26 7v-118q-25 -17 -73 -17z" />
    <glyph glyph-name="u" unicode="u" 
d="M101 483h145l-68 -303q-3 -14 -3 -24q0 -40 49 -40q42 0 83 51l70 316h144l-107 -483h-144l13 59q-65 -71 -140 -71q-58 0 -91.5 29t-33.5 76q0 2 4 34z" />
    <glyph glyph-name="v" unicode="v" horiz-adv-x="466" 
d="M256 0h-154l-55 483h149l16 -310l156 310h157z" />
    <glyph glyph-name="w" unicode="w" horiz-adv-x="714" 
d="M534 0h-154l-12 299l-142 -299h-154l-21 483h144v-299l143 299h132l13 -299l133 299h154z" />
    <glyph glyph-name="x" unicode="x" horiz-adv-x="454" 
d="M403 0h-152l-42 145l-107 -145h-160l193 245l-78 238h151l37 -136l97 136h160l-185 -238z" />
    <glyph glyph-name="y" unicode="y" horiz-adv-x="466" 
d="M-49 -183l46 121q12 -6 36 -6q29 0 47 28l21 36l-54 487h149l16 -309l156 309h157l-310 -555q-39 -70 -80 -97t-100 -27q-52 0 -84 13z" />
    <glyph glyph-name="z" unicode="z" horiz-adv-x="417" 
d="M333 0h-357l23 107l218 250h-162l28 126h353l-23 -103l-222 -254h169z" />
    <glyph glyph-name="braceleft" unicode="{" horiz-adv-x="265" 
d="M151 -190h-31q-53 0 -92.5 34t-39.5 85q0 17 3 30l40 180q3 15 3 18q0 21 -11 34.5t-29 13.5l18 78q52 0 66 66l40 180q34 149 182 149h44l-21 -94h-43q-47 0 -59 -55l-46 -206q-17 -73 -65 -90q29 -15 29 -56q0 -18 -4 -34l-40 -180q-2 -12 -2 -18q0 -18 11 -29.5
t28 -11.5h40z" />
    <glyph glyph-name="bar" unicode="|" horiz-adv-x="201" 
d="M167 -20h-94v707h94v-707z" />
    <glyph glyph-name="braceright" unicode="}" horiz-adv-x="265" 
d="M113 678h31q53 0 92.5 -34t39.5 -86q0 -16 -3 -29l-40 -180q-2 -10 -2 -18q0 -21 10.5 -34.5t28.5 -13.5l-18 -78q-50 0 -66 -66l-40 -180q-16 -74 -63 -111.5t-119 -37.5h-44l21 94h43q48 0 60 54l45 207q17 73 65 90q-29 15 -29 56q0 18 4 34l40 180l3 18
q0 18 -11.5 29.5t-28.5 11.5h-40z" />
    <glyph glyph-name="asciitilde" unicode="~" horiz-adv-x="470" 
d="M442 667l94 -10q-51 -248 -182 -248q-38 0 -59 17.5t-26.5 42.5t-7 50.5t-6 43t-16.5 17.5q-45 0 -81 -172l-95 10q50 249 183 249q38 0 59 -18t26.5 -43.5t7 -50.5t6 -43t16.5 -18q21 0 43 47t38 126z" />
    <glyph glyph-name="nbspace" unicode="&#xa0;" horiz-adv-x="207" 
 />
    <glyph glyph-name="exclamdown" unicode="&#xa1;" horiz-adv-x="264" 
d="M71 256h128l-75 -440h-173zM176 495q34 0 57.5 -24t23.5 -58q0 -40 -28.5 -68.5t-68.5 -28.5q-34 0 -58 24t-24 58q0 39 29.5 68t68.5 29z" />
    <glyph glyph-name="cent" unicode="&#xa2;" horiz-adv-x="429" 
d="M121 -100l22 101q-60 21 -93 71t-33 121q0 113 66.5 201t169.5 99l16 72h104l-18 -81q60 -17 94 -63l-89 -94q-24 40 -75 40q-52 0 -86.5 -49.5t-34.5 -112.5q0 -43 25 -66t63 -23q43 0 74 34l51 -105q-52 -51 -132 -56l-20 -89h-104z" />
    <glyph glyph-name="sterling" unicode="&#xa3;" horiz-adv-x="506" 
d="M33 274l20 90h52q-16 50 -16 85q0 97 76 162.5t176 65.5q83 0 141 -38t70 -109l-142 -50q-8 66 -65 66q-34 0 -58 -35t-24 -84q0 -15 12 -63h105l-20 -90h-82q-8 -41 -30.5 -75t-50.5 -50q23 8 39 8q26 0 61.5 -13t56.5 -13q39 0 72 31l23 -129q-42 -45 -116 -45
q-45 0 -108 21t-88 21q-44 0 -98 -37l-26 108q52 26 84 70.5t32 93.5v9h-96z" />
    <glyph glyph-name="currency" unicode="&#xa4;" horiz-adv-x="551" 
d="M272 92q-68 0 -117 27l-89 -73l-74 93l83 68q-16 40 -16 86q0 112 68 191l-54 71l96 77l57 -76q43 17 91 17q66 0 117 -28l89 73l75 -91l-85 -70q17 -42 17 -87q0 -108 -69 -190l54 -68l-95 -77l-58 74q-42 -17 -90 -17zM202 302q0 -37 20 -61t58 -24q45 0 76 42.5
t31 101.5q0 38 -19.5 62.5t-58.5 24.5q-46 0 -76.5 -43t-30.5 -103z" />
    <glyph glyph-name="yen" unicode="&#xa5;" horiz-adv-x="557" 
d="M306 0h-162l24 112h-173l20 87h172l16 72h-172l19 87h127l-92 309h169l55 -248l165 248h184l-229 -309h128l-20 -87h-172l-16 -72h172l-19 -87h-172z" />
    <glyph glyph-name="brokenbar" unicode="&#xa6;" horiz-adv-x="201" 
d="M167 -20h-94v316h94v-316zM167 371h-94v316h94v-316z" />
    <glyph glyph-name="section" unicode="&#xa7;" horiz-adv-x="429" 
d="M425 340q0 -50 -28.5 -90.5t-78.5 -60.5q52 -34 52 -96q0 -74 -56.5 -124t-141.5 -50q-148 0 -215 76l77 89q22 -29 58 -46t75 -17q27 0 44 15t17 36q0 19 -20 33.5t-48.5 26.5t-57 27t-48.5 43t-20 67q0 50 30 87.5t84 55.5q-27 16 -43 43.5t-16 58.5q0 71 54.5 117
t135.5 46q128 0 196 -70l-74 -79q-41 49 -114 49q-28 0 -43 -13.5t-15 -33.5q0 -17 20 -31t49 -26t58 -27.5t49 -42.5t20 -63zM283 305q0 39 -43 59q-66 -12 -66 -67q0 -39 55 -61q54 18 54 69z" />
    <glyph glyph-name="dieresis" unicode="&#xa8;" horiz-adv-x="295" 
d="M402 621q0 -32 -26 -57t-59 -25q-28 0 -47 19t-19 47q0 33 25.5 58t58.5 25q29 0 48 -19t19 -48zM208 621q0 -32 -26 -57t-58 -25q-29 0 -48 19t-19 47q0 33 26 58t59 25q28 0 47 -19.5t19 -47.5z" />
    <glyph glyph-name="copyright" unicode="&#xa9;" horiz-adv-x="778" 
d="M754 334q0 -143 -101.5 -244t-244.5 -101q-142 0 -243 101t-101 244t100.5 244t243.5 101t244.5 -101t101.5 -244zM716 334q0 126 -91 216.5t-217 90.5t-216 -90.5t-90 -216.5t90 -216.5t216 -90.5t217 90.5t91 216.5zM507 214l26 -36q-63 -54 -140 -54
q-86 0 -138.5 51.5t-52.5 131.5q0 100 70 169t163 69q109 0 160 -81l-40 -29q-37 67 -123 67q-69 0 -125 -56t-56 -137q0 -60 39 -101.5t104 -41.5q63 0 113 48z" />
    <glyph glyph-name="ordfeminine" unicode="&#xaa;" horiz-adv-x="369" 
d="M249 567q-31 0 -52.5 -37t-21.5 -79q0 -51 45 -51q24 0 47 28l25 114q-13 25 -43 25zM314 640h103l-69 -314h-104l8 36q-34 -44 -81 -44q-45 0 -73.5 31t-28.5 91q0 80 44 144t108 64q58 0 85 -43z" />
    <glyph glyph-name="guillemotleft" unicode="&#xab;" horiz-adv-x="493" 
d="M231 63h-117l-85 180l165 177h123l-168 -181zM419 63h-118l-85 180l165 177h124l-168 -181z" />
    <glyph glyph-name="logicalnot" unicode="&#xac;" horiz-adv-x="453" 
d="M467 471l-61 -274h-89l40 187h-298l20 87h388z" />
    <glyph glyph-name="uni00AD" unicode="&#xad;" horiz-adv-x="272" 
d="M228 181h-212l27 122h212z" />
    <glyph glyph-name="registered" unicode="&#xae;" horiz-adv-x="494" 
d="M508 465q0 -88 -62.5 -150t-150.5 -62t-149.5 62t-61.5 150t62 150t150 62t150 -61.5t62 -150.5zM475 465q0 75 -52.5 127t-127.5 52q-74 0 -126 -52t-52 -127q0 -74 52 -126.5t126 -52.5t127 52.5t53 126.5zM370 343h-42l-42 96h-42l-21 -96h-36l53 243h94
q32 0 52 -18.5t20 -45.5q0 -35 -25 -58.5t-55 -23.5zM368 519q0 37 -42 37h-56l-20 -86h64q24 0 39 14t15 35z" />
    <glyph glyph-name="macron" unicode="&#xaf;" horiz-adv-x="313" 
d="M382 558h-312l17 81h312z" />
    <glyph glyph-name="degree" unicode="&#xb0;" horiz-adv-x="317" 
d="M363 537q0 -58 -41 -98.5t-99 -40.5t-98.5 40.5t-40.5 98.5t40.5 99t98.5 41t99 -41t41 -99zM287 537q0 26 -19 45t-45 19t-44 -19t-18 -45t17.5 -44.5t43.5 -18.5t45.5 18.5t19.5 44.5z" />
    <glyph glyph-name="plusminus" unicode="&#xb1;" horiz-adv-x="446" 
d="M432 312h-146l-38 -170h-96l37 170h-145l19 87h146l36 162h96l-36 -162h146zM365 9h-388l19 87h388z" />
    <glyph glyph-name="twosuperior" unicode="&#xb2;" horiz-adv-x="355" 
d="M371 421h-297l19 83q144 95 186.5 132t42.5 67q0 18 -14 28.5t-37 10.5q-55 0 -95 -43l-47 71q64 57 149 57q68 0 111 -30.5t43 -83.5q0 -50 -43.5 -94t-149.5 -113h151z" />
    <glyph glyph-name="threesuperior" unicode="&#xb3;" horiz-adv-x="355" 
d="M398 536q0 -48 -42 -85t-111 -37q-56 0 -101 19.5t-66 52.5l72 64q30 -51 89 -51q26 0 39.5 14.5t13.5 33.5q0 35 -63 35q-26 0 -33 -1l19 84q7 -1 50 -1q58 0 58 43q0 17 -17 26t-42 9q-50 0 -86 -35l-44 64q59 56 141 56q72 0 114.5 -27.5t42.5 -76.5
q0 -38 -27.5 -68.5t-76.5 -34.5q33 -9 51.5 -31t18.5 -53z" />
    <glyph glyph-name="acute" unicode="&#xb4;" horiz-adv-x="228" 
d="M329 700l-166 -144h-96l135 144h127z" />
    <glyph glyph-name="mu" unicode="&#xb5;" horiz-adv-x="530" 
d="M139 3l-41 -187h-145l149 667h145l-69 -306q-6 -30 5.5 -46t37.5 -16q46 0 85 51l70 317h145l-73 -332q-8 -35 22 -35q9 0 17 2l-17 -121q-29 -9 -67 -9q-53 0 -78 21t-27 66q-21 -40 -52.5 -63.5t-63.5 -23.5q-28 0 -43 15z" />
    <glyph glyph-name="paragraph" unicode="&#xb6;" horiz-adv-x="449" 
d="M333 -100h-68l156 699h-75l-156 -699h-68l94 423q-57 0 -97 44.5t-40 111.5q0 73 56.5 130.5t137.5 57.5h230z" />
    <glyph glyph-name="periodcentered" unicode="&#xb7;" horiz-adv-x="264" 
d="M124 155q-34 0 -58 24t-24 58q0 40 29 69t69 29q34 0 57.5 -24.5t23.5 -58.5q0 -40 -29 -68.5t-68 -28.5z" />
    <glyph glyph-name="cedilla" unicode="&#xb8;" horiz-adv-x="210" 
d="M22 -197q-72 0 -111 41l37 52q32 -35 74 -35q18 0 29.5 9t11.5 24q0 20 -23 20q-15 0 -25 -13l-44 29l49 81h68l-39 -61q13 10 26 10q25 0 41 -17t16 -45q0 -42 -31.5 -68.5t-78.5 -26.5z" />
    <glyph glyph-name="onesuperior" unicode="&#xb9;" horiz-adv-x="285" 
d="M274 421h-108l57 259l-73 -59l-48 64l168 136h92z" />
    <glyph glyph-name="ordmasculine" unicode="&#xba;" horiz-adv-x="361" 
d="M216 318q-68 0 -107 38t-39 98q0 77 52 135.5t127 58.5q68 0 107 -38t39 -99q0 -77 -51.5 -135t-127.5 -58zM220 400q33 0 51.5 39t18.5 76q0 49 -45 49q-33 0 -51 -39t-18 -75q0 -50 44 -50z" />
    <glyph glyph-name="guillemotright" unicode="&#xbb;" horiz-adv-x="493" 
d="M75 420h117l85 -180l-165 -177h-123l169 182zM262 420h118l85 -180l-165 -177h-124l169 182z" />
    <glyph glyph-name="onequarter" unicode="&#xbc;" horiz-adv-x="775" 
d="M240 267h-108l57 259l-73 -59l-48 64l168 136h92zM723 81h-41l-17 -81h-107l17 81h-174l17 77l194 242h141l-52 -235h41zM594 165l29 129l-104 -129h75zM682 667l-502 -667h-71l501 667h72z" />
    <glyph glyph-name="onehalf" unicode="&#xbd;" horiz-adv-x="809" 
d="M240 267h-108l57 259l-73 -59l-48 64l168 136h92zM732 0h-297l19 83q144 95 186.5 132t42.5 67q0 18 -14 28.5t-37 10.5q-55 0 -95 -43l-47 71q64 57 149 57q68 0 111 -30.5t43 -83.5q0 -50 -43.5 -94t-149.5 -113h151zM682 667l-502 -667h-71l501 667h72z" />
    <glyph glyph-name="threequarters" unicode="&#xbe;" horiz-adv-x="831" 
d="M779 81h-41l-17 -81h-107l17 81h-174l17 77l194 242h141l-52 -235h41zM650 165l29 129l-104 -129h75zM739 667l-502 -667h-71l501 667h72zM364 382q0 -48 -42 -85t-111 -37q-56 0 -101 19.5t-66 52.5l72 64q30 -51 89 -51q26 0 39.5 14.5t13.5 33.5q0 35 -63 35
q-26 0 -33 -1l19 84q7 -1 50 -1q58 0 58 43q0 17 -17 26t-42 9q-50 0 -86 -35l-44 64q59 56 141 56q72 0 114.5 -27.5t42.5 -76.5q0 -38 -27.5 -68.5t-76.5 -34.5q33 -9 51.5 -31t18.5 -53z" />
    <glyph glyph-name="questiondown" unicode="&#xbf;" horiz-adv-x="347" 
d="M129 235l132 36q10 -24 10 -64t-16 -72t-38 -51.5t-44.5 -35.5t-38.5 -32.5t-16 -34.5q0 -37 49 -37q45 0 78 30l56 -108q-75 -61 -172 -61q-77 0 -129 37.5t-52 98.5q0 44 19.5 79t47 57.5t55 41.5t47 41.5t19.5 47.5q0 16 -7 27zM239 494q34 0 57.5 -24t23.5 -58
q0 -40 -29 -68.5t-69 -28.5q-34 0 -57.5 24t-23.5 59q0 39 29 67.5t69 28.5z" />
    <glyph glyph-name="Agrave" unicode="&#xc0;" horiz-adv-x="575" 
d="M528 0h-169l-2 102h-190l-47 -102h-181l344 667h195zM356 243l-6 256l-119 -256h125zM450 723h-94l-102 144h125z" />
    <glyph glyph-name="Aacute" unicode="&#xc1;" horiz-adv-x="575" 
d="M528 0h-169l-2 102h-190l-47 -102h-181l344 667h195zM356 243l-6 256l-119 -256h125zM596 867l-166 -144h-96l135 144h127z" />
    <glyph glyph-name="Acircumflex" unicode="&#xc2;" horiz-adv-x="575" 
d="M534 723h-80l-42 83l-75 -83h-84l107 144h128zM528 0h-169l-2 102h-190l-47 -102h-181l344 667h195zM356 243l-6 256l-119 -256h125z" />
    <glyph glyph-name="Atilde" unicode="&#xc3;" horiz-adv-x="575" 
d="M528 0h-169l-2 102h-190l-47 -102h-181l344 667h195zM356 243l-6 256l-119 -256h125zM456 721q-22 0 -38 9t-23.5 20.5t-18.5 20.5t-23 9q-25 0 -36 -53h-74q27 134 117 134q28 0 45.5 -15t30 -30t28.5 -15q22 0 35 54h74q-29 -134 -117 -134z" />
    <glyph glyph-name="Adieresis" unicode="&#xc4;" horiz-adv-x="575" 
d="M578 788q0 -32 -26 -57t-59 -25q-28 0 -47 19t-19 47q0 33 25.5 58t58.5 25q29 0 48 -19.5t19 -47.5zM384 788q0 -32 -26 -57t-58 -25q-29 0 -48 19t-19 47q0 33 26 58t59 25q28 0 47 -19.5t19 -47.5zM528 0h-169l-2 102h-190l-47 -102h-181l344 667h195zM356 243l-6 256
l-119 -256h125z" />
    <glyph glyph-name="Aring" unicode="&#xc5;" horiz-adv-x="575" 
d="M528 0h-169l-2 102h-190l-47 -102h-181l344 667h195zM356 243l-6 256l-119 -256h125zM398 688q-40 0 -65 25.5t-25 65.5q0 45 33 78t77 33q40 0 65 -25t25 -66q0 -44 -33 -77.5t-77 -33.5zM405 751q17 0 29 12.5t12 29.5q0 15 -9.5 25t-24.5 10q-16 0 -28.5 -12.5
t-12.5 -29.5q0 -16 9 -25.5t25 -9.5z" />
    <glyph glyph-name="AE" unicode="&#xc6;" horiz-adv-x="806" 
d="M721 0h-401l22 102h-160l-65 -102h-179l461 667h469l-31 -141h-239l-26 -117h233l-32 -141h-232l-28 -127h239zM374 243l53 245l-156 -245h103z" />
    <glyph glyph-name="Ccedilla" unicode="&#xc7;" horiz-adv-x="570" 
d="M233 -197q-72 0 -111 41l37 52q32 -35 74 -35q18 0 29.5 9t11.5 24q0 20 -23 20q-15 0 -25 -13l-44 29l40 66q-88 21 -139.5 88t-51.5 167q0 109 40.5 205.5t121 159t183.5 62.5q108 0 167.5 -60t75.5 -147l-153 -40q-8 47 -33.5 75.5t-64.5 28.5q-72 0 -121.5 -88.5
t-49.5 -191.5q0 -57 29 -90.5t78 -33.5q31 0 61.5 21t50.5 57l128 -68q-46 -77 -111 -115t-138 -38h-11l-24 -38q13 10 26 10q25 0 41 -17t16 -45q0 -42 -31.5 -68.5t-78.5 -26.5z" />
    <glyph glyph-name="Egrave" unicode="&#xc8;" horiz-adv-x="491" 
d="M401 0h-402l147 667h402l-32 -141h-239l-25 -117h232l-31 -141h-233l-28 -127h240zM417 723h-94l-102 144h125z" />
    <glyph glyph-name="Eacute" unicode="&#xc9;" horiz-adv-x="491" 
d="M563 867l-166 -144h-96l135 144h127zM401 0h-402l147 667h402l-32 -141h-239l-25 -117h232l-31 -141h-233l-28 -127h240z" />
    <glyph glyph-name="Ecircumflex" unicode="&#xca;" horiz-adv-x="491" 
d="M500 723h-80l-42 83l-75 -83h-84l107 144h128zM401 0h-402l147 667h402l-32 -141h-239l-25 -117h232l-31 -141h-233l-28 -127h240z" />
    <glyph glyph-name="Edieresis" unicode="&#xcb;" horiz-adv-x="491" 
d="M544 788q0 -32 -26 -57t-59 -25q-28 0 -47 19t-19 47q0 33 25.5 58t58.5 25q29 0 48 -19.5t19 -47.5zM350 788q0 -32 -26 -57t-58 -25q-29 0 -48 19t-19 47q0 33 26 58t59 25q28 0 47 -19.5t19 -47.5zM401 0h-402l147 667h402l-32 -141h-239l-25 -117h232l-31 -141h-233
l-28 -127h240z" />
    <glyph glyph-name="Igrave" unicode="&#xcc;" horiz-adv-x="268" 
d="M161 0h-162l147 667h162zM296 723h-94l-102 144h125z" />
    <glyph glyph-name="Iacute" unicode="&#xcd;" horiz-adv-x="268" 
d="M161 0h-162l147 667h162zM442 867l-166 -144h-96l135 144h127z" />
    <glyph glyph-name="Icircumflex" unicode="&#xce;" horiz-adv-x="268" 
d="M380 723h-80l-42 83l-75 -83h-84l107 144h128zM161 0h-162l147 667h162z" />
    <glyph glyph-name="Idieresis" unicode="&#xcf;" horiz-adv-x="268" 
d="M425 788q0 -32 -26 -57t-59 -25q-28 0 -47 19t-19 47q0 33 25.5 58t58.5 25q28 0 47.5 -19.5t19.5 -47.5zM231 788q0 -32 -26 -57t-58 -25q-29 0 -48 19t-19 47q0 33 26 58t59 25q28 0 47 -19.5t19 -47.5zM161 0h-162l147 667h162z" />
    <glyph glyph-name="Eth" unicode="&#xd0;" horiz-adv-x="637" 
d="M257 0h-234l59 269h-66l28 129h67l59 269h229q96 0 168 -70.5t72 -185.5q0 -57 -11.5 -112t-40 -110t-71 -96t-109.5 -67t-150 -26zM344 269h-100l-28 -128h69q87 0 137.5 81.5t50.5 180.5q0 56 -29 89.5t-75 33.5h-68l-28 -128h100z" />
    <glyph glyph-name="Ntilde" unicode="&#xd1;" horiz-adv-x="624" 
d="M481 721q-22 0 -38 9t-23.5 20.5t-18.5 20.5t-23 9q-25 0 -36 -53h-74q27 134 117 134q28 0 45.5 -15t30 -30t28.5 -15q22 0 35 54h74q-29 -134 -117 -134zM516 0h-153l-123 361l-79 -361h-162l147 667h165l115 -344l76 344h161z" />
    <glyph glyph-name="Ograve" unicode="&#xd2;" horiz-adv-x="633" 
d="M479 723h-94l-102 144h125zM295 -12q-120 0 -192 73t-72 190q0 106 39.5 202t120 160.5t185.5 64.5q119 0 191.5 -73.5t72.5 -189.5q0 -106 -39 -202t-120 -160.5t-186 -64.5zM304 131q71 0 120.5 88.5t49.5 190.5q0 56 -29.5 90.5t-78.5 34.5q-71 0 -120 -88.5
t-49 -191.5q0 -56 29 -90t78 -34z" />
    <glyph glyph-name="Oacute" unicode="&#xd3;" horiz-adv-x="633" 
d="M624 867l-166 -144h-96l135 144h127zM295 -12q-120 0 -192 73t-72 190q0 106 39.5 202t120 160.5t185.5 64.5q119 0 191.5 -73.5t72.5 -189.5q0 -106 -39 -202t-120 -160.5t-186 -64.5zM304 131q71 0 120.5 88.5t49.5 190.5q0 56 -29.5 90.5t-78.5 34.5q-71 0 -120 -88.5
t-49 -191.5q0 -56 29 -90t78 -34z" />
    <glyph glyph-name="Ocircumflex" unicode="&#xd4;" horiz-adv-x="633" 
d="M563 723h-80l-42 83l-75 -83h-84l107 144h128zM295 -12q-120 0 -192 73t-72 190q0 106 39.5 202t120 160.5t185.5 64.5q119 0 191.5 -73.5t72.5 -189.5q0 -106 -39 -202t-120 -160.5t-186 -64.5zM304 131q71 0 120.5 88.5t49.5 190.5q0 56 -29.5 90.5t-78.5 34.5
q-71 0 -120 -88.5t-49 -191.5q0 -56 29 -90t78 -34z" />
    <glyph glyph-name="Otilde" unicode="&#xd5;" horiz-adv-x="633" 
d="M295 -12q-120 0 -192 73t-72 190q0 106 39.5 202t120 160.5t185.5 64.5q119 0 191.5 -73.5t72.5 -189.5q0 -106 -39 -202t-120 -160.5t-186 -64.5zM304 131q71 0 120.5 88.5t49.5 190.5q0 56 -29.5 90.5t-78.5 34.5q-71 0 -120 -88.5t-49 -191.5q0 -56 29 -90t78 -34z
M485 721q-22 0 -38 9t-23.5 20.5t-18.5 20.5t-23 9q-25 0 -36 -53h-74q27 134 117 134q28 0 45.5 -15t30 -30t28.5 -15q22 0 35 54h74q-29 -134 -117 -134z" />
    <glyph glyph-name="Odieresis" unicode="&#xd6;" horiz-adv-x="633" 
d="M607 788q0 -32 -26 -57t-59 -25q-28 0 -47 19t-19 47q0 33 25.5 58t58.5 25q28 0 47.5 -19.5t19.5 -47.5zM413 788q0 -32 -26 -57t-58 -25q-29 0 -48 19t-19 47q0 33 26 58t59 25q28 0 47 -19.5t19 -47.5zM295 -12q-120 0 -192 73t-72 190q0 106 39.5 202t120 160.5
t185.5 64.5q119 0 191.5 -73.5t72.5 -189.5q0 -106 -39 -202t-120 -160.5t-186 -64.5zM304 131q71 0 120.5 88.5t49.5 190.5q0 56 -29.5 90.5t-78.5 34.5q-71 0 -120 -88.5t-49 -191.5q0 -56 29 -90t78 -34z" />
    <glyph glyph-name="multiply" unicode="&#xd7;" horiz-adv-x="446" 
d="M324 157l-89 115l-147 -120l-53 67l148 121l-90 114l69 57l88 -115l147 120l54 -67l-146 -121l88 -114z" />
    <glyph glyph-name="Oslash" unicode="&#xd8;" horiz-adv-x="633" 
d="M295 -12q-101 0 -170 53l-36 -41h-103l87 98q-42 65 -42 153q0 106 39.5 202t120 160.5t185.5 64.5q97 0 164 -50l34 39h102l-83 -94q47 -67 47 -158q0 -106 -39 -202t-120 -160.5t-186 -64.5zM304 131q71 0 120.5 88.5t49.5 190.5q0 9 -2 25l-242 -275q27 -29 74 -29z
M197 255v-16l238 271q-28 25 -69 25q-71 0 -120 -88.5t-49 -191.5z" />
    <glyph glyph-name="Ugrave" unicode="&#xd9;" horiz-adv-x="629" 
d="M294 -12q-115 0 -181 57t-66 152q0 13 5 43l94 427h163l-95 -432q-3 -18 -3 -27q0 -34 24 -56.5t65 -22.5q87 0 111 106l95 432h163l-95 -430q-26 -120 -96 -184.5t-184 -64.5zM477 723h-94l-102 144h125z" />
    <glyph glyph-name="Uacute" unicode="&#xda;" horiz-adv-x="629" 
d="M622 867l-166 -144h-96l135 144h127zM294 -12q-115 0 -181 57t-66 152q0 13 5 43l94 427h163l-95 -432q-3 -18 -3 -27q0 -34 24 -56.5t65 -22.5q87 0 111 106l95 432h163l-95 -430q-26 -120 -96 -184.5t-184 -64.5z" />
    <glyph glyph-name="Ucircumflex" unicode="&#xdb;" horiz-adv-x="629" 
d="M560 723h-80l-42 83l-75 -83h-84l107 144h128zM294 -12q-115 0 -181 57t-66 152q0 13 5 43l94 427h163l-95 -432q-3 -18 -3 -27q0 -34 24 -56.5t65 -22.5q87 0 111 106l95 432h163l-95 -430q-26 -120 -96 -184.5t-184 -64.5z" />
    <glyph glyph-name="Udieresis" unicode="&#xdc;" horiz-adv-x="629" 
d="M605 788q0 -32 -26 -57t-59 -25q-28 0 -47 19t-19 47q0 33 25.5 58t58.5 25q28 0 47.5 -19.5t19.5 -47.5zM411 788q0 -32 -26 -57t-58 -25q-29 0 -48 19t-19 47q0 33 26 58t59 25q28 0 47 -19.5t19 -47.5zM294 -12q-115 0 -181 57t-66 152q0 13 5 43l94 427h163l-95 -432
q-3 -18 -3 -27q0 -34 24 -56.5t65 -22.5q87 0 111 106l95 432h163l-95 -430q-26 -120 -96 -184.5t-184 -64.5z" />
    <glyph glyph-name="Yacute" unicode="&#xdd;" horiz-adv-x="557" 
d="M306 0h-162l59 271l-118 396h169l55 -248l165 248h184l-293 -396zM587 867l-166 -144h-96l135 144h127z" />
    <glyph glyph-name="Thorn" unicode="&#xde;" horiz-adv-x="556" 
d="M161 0h-162l147 667h162l-23 -104h96q79 0 130.5 -53t51.5 -131q0 -46 -15.5 -89.5t-46.5 -81t-84.5 -60.5t-123.5 -23h-105zM303 266q41 0 66.5 28t25.5 67q0 29 -16.5 45t-43.5 16h-81l-34 -156h83z" />
    <glyph glyph-name="germandbls" unicode="&#xdf;" horiz-adv-x="607" 
d="M577 162q0 -68 -55.5 -121t-139.5 -53q-125 0 -193 78l73 92q47 -58 113 -58q21 0 36 12t15 29t-26 32t-57 27t-57 40.5t-26 69.5q0 37 14.5 65.5t35.5 45t42 29.5t35.5 27t14.5 31q0 20 -19 33t-48 13q-71 0 -91 -85l-103 -469h-144l103 469q20 92 82.5 150t165.5 58
q84 0 145.5 -42.5t61.5 -107.5q0 -36 -15.5 -64t-37.5 -45t-44 -30t-37.5 -26.5t-15.5 -27.5t27 -28t59 -26t59 -42.5t27 -75.5z" />
    <glyph glyph-name="agrave" unicode="&#xe0;" horiz-adv-x="516" 
d="M241 495q89 0 123 -70l13 58h144l-107 -483h-144l12 56q-51 -68 -120 -68t-108 46.5t-39 133.5q0 72 24 144.5t77.5 127.5t124.5 55zM271 367q-46 0 -76.5 -57.5t-30.5 -115.5q0 -36 19 -57t50 -21q42 0 73 45l36 161q-22 45 -71 45zM380 556h-94l-102 144h125z" />
    <glyph glyph-name="aacute" unicode="&#xe1;" horiz-adv-x="516" 
d="M241 495q89 0 123 -70l13 58h144l-107 -483h-144l12 56q-51 -68 -120 -68t-108 46.5t-39 133.5q0 72 24 144.5t77.5 127.5t124.5 55zM271 367q-46 0 -76.5 -57.5t-30.5 -115.5q0 -36 19 -57t50 -21q42 0 73 45l36 161q-22 45 -71 45zM526 700l-166 -144h-96l135 144h127z
" />
    <glyph glyph-name="acircumflex" unicode="&#xe2;" horiz-adv-x="516" 
d="M241 495q89 0 123 -70l13 58h144l-107 -483h-144l12 56q-51 -68 -120 -68t-108 46.5t-39 133.5q0 72 24 144.5t77.5 127.5t124.5 55zM271 367q-46 0 -76.5 -57.5t-30.5 -115.5q0 -36 19 -57t50 -21q42 0 73 45l36 161q-22 45 -71 45zM463 556h-80l-42 83l-75 -83h-84
l107 144h128z" />
    <glyph glyph-name="atilde" unicode="&#xe3;" horiz-adv-x="516" 
d="M241 495q89 0 123 -70l13 58h144l-107 -483h-144l12 56q-51 -68 -120 -68t-108 46.5t-39 133.5q0 72 24 144.5t77.5 127.5t124.5 55zM271 367q-46 0 -76.5 -57.5t-30.5 -115.5q0 -36 19 -57t50 -21q42 0 73 45l36 161q-22 45 -71 45zM386 554q-28 0 -45.5 15t-30 29.5
t-27.5 14.5q-25 0 -36 -53h-74q27 134 117 134q28 0 45.5 -15t30 -30t28.5 -15q22 0 35 54h74q-29 -134 -117 -134z" />
    <glyph glyph-name="adieresis" unicode="&#xe4;" horiz-adv-x="516" 
d="M241 495q89 0 123 -70l13 58h144l-107 -483h-144l12 56q-51 -68 -120 -68t-108 46.5t-39 133.5q0 72 24 144.5t77.5 127.5t124.5 55zM271 367q-46 0 -76.5 -57.5t-30.5 -115.5q0 -36 19 -57t50 -21q42 0 73 45l36 161q-22 45 -71 45zM508 621q0 -32 -26 -57t-59 -25
q-28 0 -47 19t-19 47q0 33 25.5 58t58.5 25q29 0 48 -19t19 -48zM314 621q0 -32 -26 -57t-58 -25q-29 0 -48 19t-19 47q0 33 26 58t59 25q28 0 47 -19.5t19 -47.5z" />
    <glyph glyph-name="aring" unicode="&#xe5;" horiz-adv-x="516" 
d="M241 495q89 0 123 -70l13 58h144l-107 -483h-144l12 56q-51 -68 -120 -68t-108 46.5t-39 133.5q0 72 24 144.5t77.5 127.5t124.5 55zM271 367q-46 0 -76.5 -57.5t-30.5 -115.5q0 -36 19 -57t50 -21q42 0 73 45l36 161q-22 45 -71 45zM329 522q-40 0 -65 25.5t-25 65.5
q0 45 33 78t77 33q40 0 65 -25t25 -66q0 -44 -33 -77.5t-77 -33.5zM336 585q17 0 29 12.5t12 29.5q0 15 -9.5 25t-24.5 10q-16 0 -28.5 -12.5t-12.5 -29.5q0 -16 9 -25.5t25 -9.5z" />
    <glyph glyph-name="ae" unicode="&#xe6;" horiz-adv-x="787" 
d="M271 367q-46 0 -76.5 -57.5t-30.5 -115.5q0 -36 19 -57t50 -21q42 0 73 45l36 161q-22 45 -71 45zM429 69l-15 -69h-144l12 56q-51 -68 -120 -68t-108 46.5t-39 133.5q0 72 24 144.5t77.5 127.5t124.5 55q89 0 123 -70l13 58h144l-10 -47q51 59 118 59q142 -2 142 -184
q0 -56 -15 -116h-295q-1 -5 -1 -17q0 -25 26.5 -49t75.5 -24q54 0 94 34l45 -100q-63 -51 -136 -51q-103 0 -136 81zM479 292h161q2 7 2 21q0 28 -18 48t-52 20q-36 0 -61 -28t-32 -61z" />
    <glyph glyph-name="ccedilla" unicode="&#xe7;" horiz-adv-x="429" 
d="M175 -197q-72 0 -111 41l37 52q32 -35 74 -35q18 0 29.5 9t11.5 24q0 20 -23 20q-15 0 -25 -13l-44 29l39 66q-69 17 -107.5 68.5t-38.5 128.5q0 120 75 211t188 91q116 0 169 -74l-89 -94q-24 40 -75 40q-52 0 -86.5 -49.5t-34.5 -112.5q0 -43 25 -66t63 -23q43 0 74 34
l51 -105q-59 -57 -149 -57h-2l-24 -38q13 10 26 10q25 0 41 -17t16 -45q0 -42 -31.5 -68.5t-78.5 -26.5z" />
    <glyph glyph-name="egrave" unicode="&#xe8;" horiz-adv-x="484" 
d="M235 -12q-101 0 -159.5 54t-58.5 150q0 73 30.5 141.5t91.5 115t137 46.5q89 0 140 -52t51 -143q0 -50 -15 -105h-295q-2 -10 -2 -17q0 -26 25 -51t74 -25q57 0 97 33l46 -93q-68 -54 -162 -54zM174 292h162q3 9 3 22q0 27 -19 47t-53 20q-37 0 -62 -28t-31 -61zM381 556
h-94l-102 144h125z" />
    <glyph glyph-name="eacute" unicode="&#xe9;" horiz-adv-x="484" 
d="M526 700l-166 -144h-96l135 144h127zM235 -12q-101 0 -159.5 54t-58.5 150q0 73 30.5 141.5t91.5 115t137 46.5q89 0 140 -52t51 -143q0 -50 -15 -105h-295q-2 -10 -2 -17q0 -26 25 -51t74 -25q57 0 97 33l46 -93q-68 -54 -162 -54zM174 292h162q3 9 3 22q0 27 -19 47
t-53 20q-37 0 -62 -28t-31 -61z" />
    <glyph glyph-name="ecircumflex" unicode="&#xea;" horiz-adv-x="484" 
d="M463 556h-80l-42 83l-75 -83h-84l107 144h128zM235 -12q-101 0 -159.5 54t-58.5 150q0 73 30.5 141.5t91.5 115t137 46.5q89 0 140 -52t51 -143q0 -50 -15 -105h-295q-2 -10 -2 -17q0 -26 25 -51t74 -25q57 0 97 33l46 -93q-68 -54 -162 -54zM174 292h162q3 9 3 22
q0 27 -19 47t-53 20q-37 0 -62 -28t-31 -61z" />
    <glyph glyph-name="edieresis" unicode="&#xeb;" horiz-adv-x="484" 
d="M509 621q0 -32 -26 -57t-59 -25q-28 0 -47 19t-19 47q0 33 25.5 58t58.5 25q28 0 47.5 -19t19.5 -48zM315 621q0 -32 -26 -57t-58 -25q-29 0 -48 19t-19 47q0 33 26 58t59 25q28 0 47 -19.5t19 -47.5zM235 -12q-101 0 -159.5 54t-58.5 150q0 73 30.5 141.5t91.5 115
t137 46.5q89 0 140 -52t51 -143q0 -50 -15 -105h-295q-2 -10 -2 -17q0 -26 25 -51t74 -25q57 0 97 33l46 -93q-68 -54 -162 -54zM174 292h162q3 9 3 22q0 27 -19 47t-53 20q-37 0 -62 -28t-31 -61z" />
    <glyph glyph-name="igrave" unicode="&#xec;" horiz-adv-x="241" 
d="M139 0h-145l107 483h145zM247 556h-94l-102 144h125z" />
    <glyph glyph-name="iacute" unicode="&#xed;" horiz-adv-x="241" 
d="M392 700l-166 -144h-96l135 144h127zM139 0h-145l107 483h145z" />
    <glyph glyph-name="icircumflex" unicode="&#xee;" horiz-adv-x="241" 
d="M330 556h-80l-42 83l-75 -83h-84l107 144h128zM139 0h-145l107 483h145z" />
    <glyph glyph-name="idieresis" unicode="&#xef;" horiz-adv-x="241" 
d="M375 621q0 -32 -26 -57t-59 -25q-28 0 -47 19t-19 47q0 33 25.5 58t58.5 25q28 0 47.5 -19t19.5 -48zM181 621q0 -32 -26 -57t-58 -25q-29 0 -48 19t-19 47q0 33 26 58t59 25q28 0 47 -19.5t19 -47.5zM139 0h-145l107 483h145z" />
    <glyph glyph-name="eth" unicode="&#xf0;" horiz-adv-x="505" 
d="M170 482l-15 65l118 35q-20 30 -43 58l119 76q39 -44 71 -91l83 25l15 -65l-64 -19q46 -92 46 -195q0 -69 -16.5 -135.5t-48.5 -122.5t-85.5 -90.5t-119.5 -34.5q-101 0 -158.5 53t-57.5 142q0 104 62.5 187.5t156.5 83.5q99 0 130 -96q-7 73 -55 165zM233 116
q43 0 71.5 44t28.5 95q0 30 -19 51t-56 21q-42 0 -69 -45.5t-27 -93.5q0 -72 71 -72z" />
    <glyph glyph-name="ntilde" unicode="&#xf1;" 
d="M415 0h-145l67 300q4 24 4 26q0 41 -47 41q-43 0 -86 -51l-69 -316h-145l107 483h145l-14 -59q65 71 141 71q58 0 91 -29t33 -76q0 -18 -4 -34zM391 554q-28 0 -45.5 15t-30 29.5t-27.5 14.5q-25 0 -36 -53h-74q27 134 117 134q28 0 45.5 -15t30 -30t28.5 -15q22 0 35 54
h74q-29 -134 -117 -134z" />
    <glyph glyph-name="ograve" unicode="&#xf2;" horiz-adv-x="505" 
d="M227 -12q-101 0 -155.5 56t-54.5 149q0 115 73 208.5t186 93.5q101 0 155.5 -56t54.5 -149q0 -115 -73 -208.5t-186 -93.5zM234 116q45 0 75 58t30 114q0 79 -70 79q-45 0 -75 -58t-30 -114q0 -79 70 -79zM380 556h-94l-102 144h125z" />
    <glyph glyph-name="oacute" unicode="&#xf3;" horiz-adv-x="505" 
d="M524 700l-166 -144h-96l135 144h127zM227 -12q-101 0 -155.5 56t-54.5 149q0 115 73 208.5t186 93.5q101 0 155.5 -56t54.5 -149q0 -115 -73 -208.5t-186 -93.5zM234 116q45 0 75 58t30 114q0 79 -70 79q-45 0 -75 -58t-30 -114q0 -79 70 -79z" />
    <glyph glyph-name="ocircumflex" unicode="&#xf4;" horiz-adv-x="505" 
d="M462 556h-80l-42 83l-75 -83h-84l107 144h128zM227 -12q-101 0 -155.5 56t-54.5 149q0 115 73 208.5t186 93.5q101 0 155.5 -56t54.5 -149q0 -115 -73 -208.5t-186 -93.5zM234 116q45 0 75 58t30 114q0 79 -70 79q-45 0 -75 -58t-30 -114q0 -79 70 -79z" />
    <glyph glyph-name="otilde" unicode="&#xf5;" horiz-adv-x="505" 
d="M227 -12q-101 0 -155.5 56t-54.5 149q0 115 73 208.5t186 93.5q101 0 155.5 -56t54.5 -149q0 -115 -73 -208.5t-186 -93.5zM234 116q45 0 75 58t30 114q0 79 -70 79q-45 0 -75 -58t-30 -114q0 -79 70 -79zM385 554q-28 0 -45.5 15t-30 29.5t-27.5 14.5q-25 0 -36 -53h-74
q27 134 117 134q28 0 45.5 -15t30 -30t28.5 -15q22 0 35 54h74q-29 -134 -117 -134z" />
    <glyph glyph-name="odieresis" unicode="&#xf6;" horiz-adv-x="505" 
d="M507 621q0 -32 -26 -57t-59 -25q-28 0 -47 19t-19 47q0 33 25.5 58t58.5 25q28 0 47.5 -19t19.5 -48zM313 621q0 -32 -26 -57t-58 -25q-29 0 -48 19t-19 47q0 33 26 58t59 25q28 0 47 -19.5t19 -47.5zM227 -12q-101 0 -155.5 56t-54.5 149q0 115 73 208.5t186 93.5
q101 0 155.5 -56t54.5 -149q0 -115 -73 -208.5t-186 -93.5zM234 116q45 0 75 58t30 114q0 79 -70 79q-45 0 -75 -58t-30 -114q0 -79 70 -79z" />
    <glyph glyph-name="divide" unicode="&#xf7;" horiz-adv-x="443" 
d="M424 294h-384l19 87h385zM200 111q-25 0 -42.5 17.5t-17.5 42.5q0 29 21.5 50.5t50.5 21.5q25 0 42.5 -18t17.5 -43q0 -29 -21.5 -50t-50.5 -21zM271 430q-25 0 -42.5 18t-17.5 43q0 29 21.5 50t50.5 21q25 0 42.5 -18t17.5 -43q0 -29 -21.5 -50t-50.5 -21z" />
    <glyph glyph-name="oslash" unicode="&#xf8;" horiz-adv-x="505" 
d="M58 0h-86l74 76q-29 50 -29 117q0 115 73 208.5t186 93.5q85 0 139 -42l29 30h87l-75 -76q30 -49 30 -117q0 -115 -73 -208.5t-186 -93.5q-86 0 -140 42zM234 116q45 0 74.5 57.5t30.5 113.5l-153 -156q18 -15 48 -15zM269 367q-45 0 -75 -57.5t-30 -113.5l152 156
q-18 15 -47 15z" />
    <glyph glyph-name="ugrave" unicode="&#xf9;" 
d="M101 483h145l-68 -303q-3 -14 -3 -24q0 -40 49 -40q42 0 83 51l70 316h144l-107 -483h-144l13 59q-65 -71 -140 -71q-58 0 -91.5 29t-33.5 76q0 2 4 34zM385 556h-94l-102 144h125z" />
    <glyph glyph-name="uacute" unicode="&#xfa;" 
d="M530 700l-166 -144h-96l135 144h127zM101 483h145l-68 -303q-3 -14 -3 -24q0 -40 49 -40q42 0 83 51l70 316h144l-107 -483h-144l13 59q-65 -71 -140 -71q-58 0 -91.5 29t-33.5 76q0 2 4 34z" />
    <glyph glyph-name="ucircumflex" unicode="&#xfb;" 
d="M467 556h-80l-42 83l-75 -83h-84l107 144h128zM101 483h145l-68 -303q-3 -14 -3 -24q0 -40 49 -40q42 0 83 51l70 316h144l-107 -483h-144l13 59q-65 -71 -140 -71q-58 0 -91.5 29t-33.5 76q0 2 4 34z" />
    <glyph glyph-name="udieresis" unicode="&#xfc;" 
d="M513 621q0 -32 -26 -57t-59 -25q-28 0 -47 19t-19 47q0 33 25.5 58t58.5 25q28 0 47.5 -19t19.5 -48zM319 621q0 -32 -26 -57t-58 -25q-29 0 -48 19t-19 47q0 33 26 58t59 25q28 0 47 -19.5t19 -47.5zM101 483h145l-68 -303q-3 -14 -3 -24q0 -40 49 -40q42 0 83 51
l70 316h144l-107 -483h-144l13 59q-65 -71 -140 -71q-58 0 -91.5 29t-33.5 76q0 2 4 34z" />
    <glyph glyph-name="yacute" unicode="&#xfd;" horiz-adv-x="466" 
d="M-49 -183l46 121q12 -6 36 -6q29 0 47 28l21 36l-54 487h149l16 -309l156 309h157l-310 -555q-39 -70 -80 -97t-100 -27q-52 0 -84 13zM500 700l-166 -144h-96l135 144h127z" />
    <glyph glyph-name="thorn" unicode="&#xfe;" horiz-adv-x="515" 
d="M275 -12q-89 0 -124 70l-53 -242h-144l187 851h145l-53 -239q53 67 121 67q69 0 107.5 -46.5t38.5 -133.5q0 -52 -14.5 -108t-41.5 -105.5t-71 -81.5t-98 -32zM245 116q46 0 76 57t30 116q0 36 -19 57t-50 21q-41 0 -72 -45l-36 -161q19 -45 71 -45z" />
    <glyph glyph-name="ydieresis" unicode="&#xff;" horiz-adv-x="466" 
d="M-49 -183l46 121q12 -6 36 -6q29 0 47 28l21 36l-54 487h149l16 -309l156 309h157l-310 -555q-39 -70 -80 -97t-100 -27q-52 0 -84 13zM483 621q0 -32 -26 -57t-59 -25q-28 0 -47 19t-19 47q0 33 25.5 58t58.5 25q28 0 47.5 -19t19.5 -48zM289 621q0 -32 -26 -57t-58 -25
q-29 0 -48 19t-19 47q0 33 26 58t59 25q28 0 47 -19.5t19 -47.5z" />
    <glyph glyph-name="Amacron" unicode="&#x100;" horiz-adv-x="575" 
d="M528 0h-169l-2 102h-190l-47 -102h-181l344 667h195zM356 243l-6 256l-119 -256h125zM551 725h-312l17 81h312z" />
    <glyph glyph-name="amacron" unicode="&#x101;" horiz-adv-x="516" 
d="M241 495q89 0 123 -70l13 58h144l-107 -483h-144l12 56q-51 -68 -120 -68t-108 46.5t-39 133.5q0 72 24 144.5t77.5 127.5t124.5 55zM271 367q-46 0 -76.5 -57.5t-30.5 -115.5q0 -36 19 -57t50 -21q42 0 73 45l36 161q-22 45 -71 45zM480 558h-312l17 81h312z" />
    <glyph glyph-name="Abreve" unicode="&#x102;" horiz-adv-x="575" 
d="M528 0h-169l-2 102h-190l-47 -102h-181l344 667h195zM356 243l-6 256l-119 -256h125zM554 777q-72 -75 -167 -75q-94 0 -135 75l72 51q21 -46 77 -46t97 46z" />
    <glyph glyph-name="abreve" unicode="&#x103;" horiz-adv-x="516" 
d="M241 495q89 0 123 -70l13 58h144l-107 -483h-144l12 56q-51 -68 -120 -68t-108 46.5t-39 133.5q0 72 24 144.5t77.5 127.5t124.5 55zM271 367q-46 0 -76.5 -57.5t-30.5 -115.5q0 -36 19 -57t50 -21q42 0 73 45l36 161q-22 45 -71 45zM484 610q-72 -75 -167 -75
q-94 0 -135 75l72 51q21 -46 77 -46t97 46z" />
    <glyph glyph-name="Aogonek" unicode="&#x104;" horiz-adv-x="575" 
d="M505 -100l47 -38q-36 -48 -87 -48q-39 0 -64 18.5t-25 54.5q0 63 59 113h-76l-2 102h-190l-47 -102h-181l344 667h195l50 -667q-84 -44 -84 -104q0 -24 25 -24q21 0 36 28zM356 243l-6 256l-119 -256h125z" />
    <glyph glyph-name="aogonek" unicode="&#x105;" horiz-adv-x="516" 
d="M391 -100l47 -38q-36 -48 -87 -48q-39 0 -64 18.5t-25 54.5q0 63 59 113h-51l12 56q-51 -68 -120 -68t-108 46.5t-39 133.5q0 72 24 144.5t77.5 127.5t124.5 55q89 0 123 -70l13 58h144l-107 -483q-84 -44 -84 -104q0 -24 25 -24q21 0 36 28zM271 367q-46 0 -76.5 -57.5
t-30.5 -115.5q0 -36 19 -57t50 -21q42 0 73 45l36 161q-22 45 -71 45z" />
    <glyph glyph-name="Cacute" unicode="&#x106;" horiz-adv-x="570" 
d="M627 872l-166 -144h-96l135 144h127zM295 -12q-118 0 -191 71.5t-73 191.5q0 109 40.5 205.5t121 159t183.5 62.5q108 0 167.5 -60t75.5 -147l-153 -40q-8 47 -33.5 75.5t-64.5 28.5q-72 0 -121.5 -88.5t-49.5 -191.5q0 -57 29 -90.5t78 -33.5q31 0 61.5 21t50.5 57
l128 -68q-46 -77 -111 -115t-138 -38z" />
    <glyph glyph-name="cacute" unicode="&#x107;" horiz-adv-x="429" 
d="M531 700l-166 -144h-96l135 144h127zM228 -12q-97 0 -154 55.5t-57 149.5q0 120 75 211t188 91q116 0 169 -74l-89 -94q-24 40 -75 40q-52 0 -86.5 -49.5t-34.5 -112.5q0 -43 25 -66t63 -23q43 0 74 34l51 -105q-59 -57 -149 -57z" />
    <glyph glyph-name="Ccircumflex" unicode="&#x108;" horiz-adv-x="570" 
d="M563 723h-80l-42 83l-75 -83h-84l107 144h128zM295 -12q-118 0 -191 71.5t-73 191.5q0 109 40.5 205.5t121 159t183.5 62.5q108 0 167.5 -60t75.5 -147l-153 -40q-8 47 -33.5 75.5t-64.5 28.5q-72 0 -121.5 -88.5t-49.5 -191.5q0 -57 29 -90.5t78 -33.5q31 0 61.5 21
t50.5 57l128 -68q-46 -77 -111 -115t-138 -38z" />
    <glyph glyph-name="ccircumflex" unicode="&#x109;" horiz-adv-x="429" 
d="M469 556h-80l-42 83l-75 -83h-84l107 144h128zM228 -12q-97 0 -154 55.5t-57 149.5q0 120 75 211t188 91q116 0 169 -74l-89 -94q-24 40 -75 40q-52 0 -86.5 -49.5t-34.5 -112.5q0 -43 25 -66t63 -23q43 0 74 34l51 -105q-59 -57 -149 -57z" />
    <glyph glyph-name="Cdotaccent" unicode="&#x10a;" horiz-adv-x="570" 
d="M295 -12q-118 0 -191 71.5t-73 191.5q0 109 40.5 205.5t121 159t183.5 62.5q108 0 167.5 -60t75.5 -147l-153 -40q-8 47 -33.5 75.5t-64.5 28.5q-72 0 -121.5 -88.5t-49.5 -191.5q0 -57 29 -90.5t78 -33.5q31 0 61.5 21t50.5 57l128 -68q-46 -77 -111 -115t-138 -38z
M512 789q0 -33 -26 -58t-59 -25q-29 0 -47.5 19t-18.5 47q0 33 26 58t59 25q28 0 47 -19t19 -47z" />
    <glyph glyph-name="cdotaccent" unicode="&#x10b;" horiz-adv-x="429" 
d="M228 -12q-97 0 -154 55.5t-57 149.5q0 120 75 211t188 91q116 0 169 -74l-89 -94q-24 40 -75 40q-52 0 -86.5 -49.5t-34.5 -112.5q0 -43 25 -66t63 -23q43 0 74 34l51 -105q-59 -57 -149 -57zM417 622q0 -33 -26 -58t-59 -25q-28 0 -47 18.5t-19 47.5q0 33 26 58t59 25
q28 0 47 -19t19 -47z" />
    <glyph glyph-name="Ccaron" unicode="&#x10c;" horiz-adv-x="570" 
d="M489 723h-128l-46 144h80l42 -84l75 84h84zM295 -12q-118 0 -191 71.5t-73 191.5q0 109 40.5 205.5t121 159t183.5 62.5q108 0 167.5 -60t75.5 -147l-153 -40q-8 47 -33.5 75.5t-64.5 28.5q-72 0 -121.5 -88.5t-49.5 -191.5q0 -57 29 -90.5t78 -33.5q31 0 61.5 21
t50.5 57l128 -68q-46 -77 -111 -115t-138 -38z" />
    <glyph glyph-name="ccaron" unicode="&#x10d;" horiz-adv-x="429" 
d="M394 556h-128l-46 144h80l42 -84l75 84h84zM228 -12q-97 0 -154 55.5t-57 149.5q0 120 75 211t188 91q116 0 169 -74l-89 -94q-24 40 -75 40q-52 0 -86.5 -49.5t-34.5 -112.5q0 -43 25 -66t63 -23q43 0 74 34l51 -105q-59 -57 -149 -57z" />
    <glyph glyph-name="Dcaron" unicode="&#x10e;" horiz-adv-x="613" 
d="M484 723h-128l-46 144h80l42 -84l75 84h84zM233 0h-234l147 667h229q96 0 168 -70.5t72 -185.5q0 -57 -11.5 -112t-40 -110t-71 -96t-109.5 -67t-150 -26zM192 141h69q87 0 137.5 81.5t50.5 180.5q0 56 -29 89.5t-75 33.5h-68z" />
    <glyph glyph-name="dcaron" unicode="&#x10f;" horiz-adv-x="642" 
d="M726 611q0 -47 -35 -94t-88 -73l-39 40q63 28 81 68q-1 -1 -9 -1q-22 0 -37 14.5t-15 40.5q0 30 23.5 52t52.5 22q27 0 46.5 -18.5t19.5 -50.5zM241 495q89 0 123 -70l54 242h144l-148 -667h-144l12 56q-51 -68 -120 -68t-108 46.5t-39 133.5q0 72 24 144.5t77.5 127.5
t124.5 55zM271 367q-46 0 -76.5 -57.5t-30.5 -115.5q0 -36 19 -57t50 -21q42 0 73 45l36 161q-22 45 -71 45z" />
    <glyph glyph-name="Dcroat" unicode="&#x110;" horiz-adv-x="637" 
d="M257 0h-234l59 269h-66l28 129h67l59 269h229q96 0 168 -70.5t72 -185.5q0 -57 -11.5 -112t-40 -110t-71 -96t-109.5 -67t-150 -26zM344 269h-100l-28 -128h69q87 0 137.5 81.5t50.5 180.5q0 56 -29 89.5t-75 33.5h-68l-28 -128h100z" />
    <glyph glyph-name="dcroat" unicode="&#x111;" horiz-adv-x="522" 
d="M241 495q89 0 123 -70l23 102h-128l17 81h129l13 59h144l-13 -59h47l-17 -81h-48l-117 -527h-144l12 56q-51 -68 -120 -68t-108 46.5t-39 133.5q0 72 24 144.5t77.5 127.5t124.5 55zM271 367q-46 0 -76.5 -57.5t-30.5 -115.5q0 -36 19 -57t50 -21q42 0 73 45l36 161
q-22 45 -71 45z" />
    <glyph glyph-name="Emacron" unicode="&#x112;" horiz-adv-x="491" 
d="M401 0h-402l147 667h402l-32 -141h-239l-25 -117h232l-31 -141h-233l-28 -127h240zM516 725h-312l17 81h312z" />
    <glyph glyph-name="emacron" unicode="&#x113;" horiz-adv-x="484" 
d="M235 -12q-101 0 -159.5 54t-58.5 150q0 73 30.5 141.5t91.5 115t137 46.5q89 0 140 -52t51 -143q0 -50 -15 -105h-295q-2 -10 -2 -17q0 -26 25 -51t74 -25q57 0 97 33l46 -93q-68 -54 -162 -54zM174 292h162q3 9 3 22q0 27 -19 47t-53 20q-37 0 -62 -28t-31 -61zM480 558
h-312l17 81h312z" />
    <glyph glyph-name="Ebreve" unicode="&#x114;" horiz-adv-x="491" 
d="M401 0h-402l147 667h402l-32 -141h-239l-25 -117h232l-31 -141h-233l-28 -127h240zM520 777q-72 -75 -167 -75q-94 0 -135 75l72 51q21 -46 77 -46t97 46z" />
    <glyph glyph-name="ebreve" unicode="&#x115;" horiz-adv-x="484" 
d="M235 -12q-101 0 -159.5 54t-58.5 150q0 73 30.5 141.5t91.5 115t137 46.5q89 0 140 -52t51 -143q0 -50 -15 -105h-295q-2 -10 -2 -17q0 -26 25 -51t74 -25q57 0 97 33l46 -93q-68 -54 -162 -54zM174 292h162q3 9 3 22q0 27 -19 47t-53 20q-37 0 -62 -28t-31 -61zM484 610
q-72 -75 -167 -75q-94 0 -135 75l72 51q21 -46 77 -46t97 46z" />
    <glyph glyph-name="Edotaccent" unicode="&#x116;" horiz-adv-x="491" 
d="M401 0h-402l147 667h402l-32 -141h-239l-25 -117h232l-31 -141h-233l-28 -127h240zM449 795q0 -33 -26 -58t-59 -25q-28 0 -47 19t-19 47q0 33 26 58t59 25q28 0 47 -19t19 -47z" />
    <glyph glyph-name="edotaccent" unicode="&#x117;" horiz-adv-x="484" 
d="M235 -12q-101 0 -159.5 54t-58.5 150q0 73 30.5 141.5t91.5 115t137 46.5q89 0 140 -52t51 -143q0 -50 -15 -105h-295q-2 -10 -2 -17q0 -26 25 -51t74 -25q57 0 97 33l46 -93q-68 -54 -162 -54zM174 292h162q3 9 3 22q0 27 -19 47t-53 20q-37 0 -62 -28t-31 -61zM412 622
q0 -33 -26 -58t-59 -25q-29 0 -47.5 18.5t-18.5 47.5q0 33 26 58t59 25q28 0 47 -19t19 -47z" />
    <glyph glyph-name="Eogonek" unicode="&#x118;" horiz-adv-x="491" 
d="M401 0h-1q-84 -44 -84 -104q0 -24 25 -24q21 0 36 28l47 -38q-36 -48 -87 -48q-39 0 -64 18.5t-25 54.5q0 63 59 113h-308l147 667h402l-32 -141h-239l-25 -117h232l-31 -141h-233l-28 -127h240z" />
    <glyph glyph-name="eogonek" unicode="&#x119;" horiz-adv-x="484" 
d="M291 -100l47 -38q-36 -48 -87 -48q-39 0 -64 18.5t-25 54.5q0 56 47 102q-90 8 -141 60.5t-51 142.5q0 73 30.5 141.5t91.5 115t137 46.5q89 0 140 -52t51 -143q0 -50 -15 -105h-295q-2 -10 -2 -17q0 -26 25 -51t74 -25q57 0 97 33l46 -93q-35 -28 -83 -42
q-84 -44 -84 -104q0 -24 25 -24q21 0 36 28zM174 292h162q3 9 3 22q0 27 -19 47t-53 20q-37 0 -62 -28t-31 -61z" />
    <glyph glyph-name="Ecaron" unicode="&#x11a;" horiz-adv-x="491" 
d="M426 723h-128l-46 144h80l42 -84l75 84h84zM401 0h-402l147 667h402l-32 -141h-239l-25 -117h232l-31 -141h-233l-28 -127h240z" />
    <glyph glyph-name="ecaron" unicode="&#x11b;" horiz-adv-x="484" 
d="M389 556h-128l-46 144h80l42 -84l75 84h84zM235 -12q-101 0 -159.5 54t-58.5 150q0 73 30.5 141.5t91.5 115t137 46.5q89 0 140 -52t51 -143q0 -50 -15 -105h-295q-2 -10 -2 -17q0 -26 25 -51t74 -25q57 0 97 33l46 -93q-68 -54 -162 -54zM174 292h162q3 9 3 22
q0 27 -19 47t-53 20q-37 0 -62 -28t-31 -61z" />
    <glyph glyph-name="Gcircumflex" unicode="&#x11c;" horiz-adv-x="598" 
d="M568 723h-80l-42 83l-75 -83h-84l107 144h128zM295 -12q-118 0 -191 71.5t-73 191.5q0 111 40.5 207t122.5 158t190 62q96 0 153 -52.5t73 -129.5l-143 -49q-7 37 -34 62.5t-65 25.5q-70 0 -120.5 -87.5t-50.5 -192.5q0 -57 28 -90.5t79 -33.5q46 0 87 39l15 67h-109
l32 142h261l-60 -268q-89 -123 -235 -123z" />
    <glyph glyph-name="gcircumflex" unicode="&#x11d;" horiz-adv-x="516" 
d="M458 547h-80l-42 83l-75 -83h-84l107 144h128zM171 -196q-135 0 -205 74l77 101q19 -25 53.5 -39.5t71.5 -14.5q83 0 108 106l11 47q-50 -69 -122 -69q-67 0 -108 43t-41 129q0 71 23.5 140.5t76 121.5t123.5 52q37 0 72.5 -18.5t51.5 -51.5l13 58h144l-100 -449
q-51 -230 -249 -230zM236 137q41 0 73 45l31 138q-23 47 -74 47q-45 0 -72.5 -50t-27.5 -106q0 -36 18.5 -55t51.5 -19z" />
    <glyph glyph-name="Gbreve" unicode="&#x11e;" horiz-adv-x="598" 
d="M295 -12q-118 0 -191 71.5t-73 191.5q0 111 40.5 207t122.5 158t190 62q96 0 153 -52.5t73 -129.5l-143 -49q-7 37 -34 62.5t-65 25.5q-70 0 -120.5 -87.5t-50.5 -192.5q0 -57 28 -90.5t79 -33.5q46 0 87 39l15 67h-109l32 142h261l-60 -268q-89 -123 -235 -123zM587 777
q-72 -75 -167 -75q-94 0 -135 75l72 51q21 -46 77 -46t97 46z" />
    <glyph glyph-name="gbreve" unicode="&#x11f;" horiz-adv-x="516" 
d="M171 -196q-135 0 -205 74l77 101q19 -25 53.5 -39.5t71.5 -14.5q83 0 108 106l11 47q-50 -69 -122 -69q-67 0 -108 43t-41 129q0 71 23.5 140.5t76 121.5t123.5 52q37 0 72.5 -18.5t51.5 -51.5l13 58h144l-100 -449q-51 -230 -249 -230zM236 137q41 0 73 45l31 138
q-23 47 -74 47q-45 0 -72.5 -50t-27.5 -106q0 -36 18.5 -55t51.5 -19zM481 610q-72 -75 -167 -75q-94 0 -135 75l72 51q21 -46 77 -46t97 46z" />
    <glyph glyph-name="Gdotaccent" unicode="&#x120;" horiz-adv-x="598" 
d="M295 -12q-118 0 -191 71.5t-73 191.5q0 111 40.5 207t122.5 158t190 62q96 0 153 -52.5t73 -129.5l-143 -49q-7 37 -34 62.5t-65 25.5q-70 0 -120.5 -87.5t-50.5 -192.5q0 -57 28 -90.5t79 -33.5q46 0 87 39l15 67h-109l32 142h261l-60 -268q-89 -123 -235 -123zM516 789
q0 -33 -26 -58t-59 -25q-29 0 -47.5 19t-18.5 47q0 33 26 58t59 25q28 0 47 -19t19 -47z" />
    <glyph glyph-name="gdotaccent" unicode="&#x121;" horiz-adv-x="516" 
d="M171 -196q-135 0 -205 74l77 101q19 -25 53.5 -39.5t71.5 -14.5q83 0 108 106l11 47q-50 -69 -122 -69q-67 0 -108 43t-41 129q0 71 23.5 140.5t76 121.5t123.5 52q37 0 72.5 -18.5t51.5 -51.5l13 58h144l-100 -449q-51 -230 -249 -230zM236 137q41 0 73 45l31 138
q-23 47 -74 47q-45 0 -72.5 -50t-27.5 -106q0 -36 18.5 -55t51.5 -19zM409 622q0 -33 -26 -58t-59 -25q-28 0 -47 18.5t-19 47.5q0 33 26 58t59 25q28 0 47 -19t19 -47z" />
    <glyph glyph-name="Gcommaaccent" unicode="&#x122;" horiz-adv-x="598" 
d="M309 -120q0 -47 -35 -94t-88 -73l-39 40q63 28 81 68q-1 -1 -9 -1q-22 0 -37 14.5t-15 40.5q0 29 23.5 51.5t52.5 22.5q27 0 46.5 -18.5t19.5 -50.5zM295 -12q-118 0 -191 71.5t-73 191.5q0 111 40.5 207t122.5 158t190 62q96 0 153 -52.5t73 -129.5l-143 -49
q-7 37 -34 62.5t-65 25.5q-70 0 -120.5 -87.5t-50.5 -192.5q0 -57 28 -90.5t79 -33.5q46 0 87 39l15 67h-109l32 142h261l-60 -268q-89 -123 -235 -123z" />
    <glyph glyph-name="gcommaaccent" unicode="&#x123;" horiz-adv-x="516" 
d="M261 609q0 47 36 95t89 75l39 -41q-62 -28 -82 -69h9q23 0 38 -14.5t15 -41.5q0 -30 -23.5 -52t-53.5 -22q-28 0 -47.5 18.5t-19.5 51.5zM171 -196q-135 0 -205 74l77 101q19 -25 53.5 -39.5t71.5 -14.5q83 0 108 106l11 47q-50 -69 -122 -69q-67 0 -108 43t-41 129
q0 71 23.5 140.5t76 121.5t123.5 52q37 0 72.5 -18.5t51.5 -51.5l13 58h144l-100 -449q-51 -230 -249 -230zM236 137q41 0 73 45l31 138q-23 47 -74 47q-45 0 -72.5 -50t-27.5 -106q0 -36 18.5 -55t51.5 -19z" />
    <glyph glyph-name="Hcircumflex" unicode="&#x124;" horiz-adv-x="625" 
d="M558 723h-80l-42 83l-75 -83h-84l107 144h128zM517 0h-162l60 272h-194l-60 -272h-162l147 667h162l-56 -253h195l55 253h162z" />
    <glyph glyph-name="hcircumflex" unicode="&#x125;" horiz-adv-x="518" 
d="M506 723h-80l-42 83l-75 -83h-84l107 144h128zM415 0h-144l66 302q4 20 4 24q0 41 -51 41q-39 0 -82 -51l-69 -316h-144l147 667h144l-54 -243q65 71 141 71q57 0 90.5 -29t33.5 -76q0 -14 -4 -34z" />
    <glyph glyph-name="Hbar" unicode="&#x126;" horiz-adv-x="634" 
d="M522 0h-162l60 272h-194l-60 -272h-162l110 501h-52l17 80h53l19 86h162l-19 -86h194l19 86h162l-19 -86h51l-18 -80h-51zM257 414h195l19 87h-195z" />
    <glyph glyph-name="hbar" unicode="&#x127;" horiz-adv-x="522" 
d="M420 0h-144l66 302q4 20 4 24q0 41 -51 41q-39 0 -82 -51l-69 -316h-144l116 526h-46l18 81h46l13 60h144l-14 -60h129l-18 -81h-129l-22 -102q65 71 141 71q57 0 90.5 -29t33.5 -76q0 -14 -4 -34z" />
    <glyph glyph-name="Itilde" unicode="&#x128;" horiz-adv-x="268" 
d="M161 0h-162l147 667h162zM303 721q-22 0 -38 9t-23.5 20.5t-18.5 20.5t-23 9q-25 0 -36 -53h-74q27 134 117 134q28 0 45.5 -15t30 -30t28.5 -15q22 0 35 54h74q-29 -134 -117 -134z" />
    <glyph glyph-name="itilde" unicode="&#x129;" horiz-adv-x="241" 
d="M139 0h-145l107 483h145zM253 554q-28 0 -45.5 15t-30 29.5t-27.5 14.5q-25 0 -36 -53h-74q27 134 117 134q28 0 45.5 -15t30 -30t28.5 -15q22 0 35 54h74q-29 -134 -117 -134z" />
    <glyph glyph-name="Imacron" unicode="&#x12a;" horiz-adv-x="268" 
d="M161 0h-162l147 667h162zM397 725h-312l17 81h312z" />
    <glyph glyph-name="imacron" unicode="&#x12b;" horiz-adv-x="241" 
d="M139 0h-145l107 483h145zM347 558h-312l17 81h312z" />
    <glyph glyph-name="Ibreve" unicode="&#x12c;" horiz-adv-x="268" 
d="M161 0h-162l147 667h162zM399 777q-72 -75 -167 -75q-94 0 -135 75l72 51q21 -46 77 -46t97 46z" />
    <glyph glyph-name="ibreve" unicode="&#x12d;" horiz-adv-x="241" 
d="M139 0h-145l107 483h145zM351 610q-72 -75 -167 -75q-94 0 -135 75l72 51q21 -46 77 -46t97 46z" />
    <glyph glyph-name="Iogonek" unicode="&#x12e;" horiz-adv-x="268" 
d="M138 -100l47 -38q-36 -48 -87 -48q-39 0 -64 18.5t-25 54.5q0 63 59 113h-69l147 667h162l-147 -667q-84 -44 -84 -104q0 -24 25 -24q21 0 36 28z" />
    <glyph glyph-name="iogonek" unicode="&#x12f;" horiz-adv-x="241" 
d="M116 -100l47 -38q-36 -48 -87 -48q-39 0 -64 18.5t-25 54.5q0 63 59 113h-52l107 483h145l-107 -483q-84 -44 -84 -104q0 -24 25 -24q21 0 36 28zM192 529q-33 0 -54.5 21t-21.5 51q0 43 30 69.5t65 26.5q33 0 54.5 -20.5t21.5 -50.5q0 -43 -30 -70t-65 -27z" />
    <glyph glyph-name="Idotaccent" unicode="&#x130;" horiz-adv-x="268" 
d="M161 0h-162l147 667h162zM328 789q0 -33 -26 -58t-59 -25q-29 0 -47.5 19t-18.5 47q0 33 26 58t59 25q28 0 47 -19t19 -47z" />
    <glyph glyph-name="dotlessi" unicode="&#x131;" horiz-adv-x="241" 
d="M139 0h-145l107 483h145z" />
    <glyph glyph-name="IJ" unicode="&#x132;" horiz-adv-x="695" 
d="M161 0h-162l147 667h162zM398 -12q-109 0 -165 55l74 126q28 -38 78 -38q71 0 87 78l102 458h161l-102 -463q-25 -112 -81 -164t-154 -52z" />
    <glyph glyph-name="ij" unicode="&#x133;" horiz-adv-x="482" 
d="M192 529q-33 0 -54.5 21t-21.5 51q0 43 30 69.5t65 26.5q33 0 54.5 -20.5t21.5 -50.5q0 -43 -30 -70t-65 -27zM139 0h-145l107 483h145zM191 -196q-77 0 -111 33l54 105q14 -17 41 -17q42 0 57 63l110 495h145l-111 -495q-19 -91 -61.5 -137.5t-123.5 -46.5zM433 529
q-33 0 -54.5 21t-21.5 51q0 43 30 69.5t65 26.5q33 0 54.5 -20.5t21.5 -50.5q0 -43 -30 -70t-65 -27z" />
    <glyph glyph-name="Jcircumflex" unicode="&#x134;" horiz-adv-x="427" 
d="M539 723h-80l-42 83l-75 -83h-84l107 144h128zM130 -12q-109 0 -165 55l74 126q28 -38 78 -38q71 0 87 78l102 458h161l-102 -463q-25 -112 -81 -164t-154 -52z" />
    <glyph glyph-name="jcircumflex" unicode="&#x135;" horiz-adv-x="241" 
d="M330 556h-80l-42 83l-75 -83h-84l107 144h128zM-50 -196q-77 0 -111 33l54 105q14 -17 41 -17q42 0 57 63l110 495h145l-111 -495q-19 -91 -61.5 -137.5t-123.5 -46.5z" />
    <glyph glyph-name="Kcommaaccent" unicode="&#x136;" horiz-adv-x="575" 
d="M292 -120q0 -47 -35 -94t-88 -73l-39 40q63 28 81 68q-1 -1 -9 -1q-22 0 -37 14.5t-15 40.5q0 29 23.5 51.5t52.5 22.5q27 0 46.5 -18.5t19.5 -50.5zM527 0h-181l-86 248l-61 -74l-38 -174h-162l147 667h162l-58 -265l214 265h197l-278 -312z" />
    <glyph glyph-name="kcommaaccent" unicode="&#x137;" horiz-adv-x="485" 
d="M241 -120q0 -47 -35 -94t-88 -73l-39 40q63 28 81 68q-1 -1 -9 -1q-22 0 -37 14.5t-15 40.5q0 29 23.5 51.5t52.5 22.5q27 0 46.5 -18.5t19.5 -50.5zM434 0h-166l-46 178l-59 -66l-24 -112h-145l147 667h145l-83 -373l158 189h172l-193 -217z" />
    <glyph glyph-name="kgreenlandic" unicode="&#x138;" horiz-adv-x="485" 
d="M434 0h-166l-46 178l-59 -66l-24 -112h-145l107 483h145l-43 -189l158 189h172l-193 -217z" />
    <glyph glyph-name="Lacute" unicode="&#x139;" horiz-adv-x="455" 
d="M549 867l-166 -144h-96l135 144h127zM376 0h-377l147 667h162l-116 -526h215z" />
    <glyph glyph-name="lacute" unicode="&#x13a;" horiz-adv-x="241" 
d="M429 867l-166 -144h-96l135 144h127zM139 0h-145l147 667h145z" />
    <glyph glyph-name="Lcommaaccent" unicode="&#x13b;" horiz-adv-x="455" 
d="M231 -120q0 -47 -35 -94t-88 -73l-39 40q63 28 81 68q-1 -1 -9 -1q-22 0 -37 14.5t-15 40.5q0 29 23.5 51.5t52.5 22.5q27 0 46.5 -18.5t19.5 -50.5zM376 0h-377l147 667h162l-116 -526h215z" />
    <glyph glyph-name="lcommaaccent" unicode="&#x13c;" horiz-adv-x="241" 
d="M108 -120q0 -47 -35 -94t-88 -73l-39 40q63 28 81 68q-1 -1 -9 -1q-22 0 -37 14.5t-15 40.5q0 29 23.5 51.5t52.5 22.5q27 0 46.5 -18.5t19.5 -50.5zM139 0h-145l147 667h145z" />
    <glyph glyph-name="Lcaron" unicode="&#x13d;" horiz-adv-x="455" 
d="M494 612q0 -47 -35 -94t-88 -73l-39 40q63 28 81 68q-1 -1 -9 -1q-22 0 -37 14.5t-15 40.5q0 29 23.5 51.5t52.5 22.5q27 0 46.5 -18.5t19.5 -50.5zM376 0h-377l147 667h162l-116 -526h215z" />
    <glyph glyph-name="lcaron" unicode="&#x13e;" horiz-adv-x="365" 
d="M461 612q0 -47 -35 -94t-88 -73l-39 40q63 28 81 68q-1 -1 -9 -1q-22 0 -37 14.5t-15 40.5q0 29 23.5 51.5t52.5 22.5q27 0 46.5 -18.5t19.5 -50.5zM139 0h-145l147 667h145z" />
    <glyph glyph-name="Ldot" unicode="&#x13f;" horiz-adv-x="516" 
d="M376 0h-377l147 667h162l-116 -526h215zM406 253q-34 0 -58 24t-24 58q0 40 29 69t69 29q34 0 57.5 -24.5t23.5 -58.5q0 -40 -29 -68.5t-68 -28.5z" />
    <glyph glyph-name="ldot" unicode="&#x140;" horiz-adv-x="407" 
d="M139 0h-145l147 667h145zM316 155q-34 0 -58 24t-24 58q0 40 29 69t69 29q34 0 57.5 -24.5t23.5 -58.5q0 -40 -29 -68.5t-68 -28.5z" />
    <glyph glyph-name="Lslash" unicode="&#x141;" horiz-adv-x="466" 
d="M0 191l29 130l58 30l70 316h162l-49 -222l70 36l-29 -131l-70 -36l-38 -173h215l-31 -141h-377l48 221z" />
    <glyph glyph-name="lslash" unicode="&#x142;" horiz-adv-x="285" 
d="M2 206l23 104l67 34l71 323h145l-53 -240l68 35l-24 -104l-67 -34l-71 -324h-145l53 240z" />
    <glyph glyph-name="Nacute" unicode="&#x143;" horiz-adv-x="624" 
d="M621 867l-166 -144h-96l135 144h127zM516 0h-153l-123 361l-79 -361h-162l147 667h165l115 -344l76 344h161z" />
    <glyph glyph-name="nacute" unicode="&#x144;" 
d="M529 700l-166 -144h-96l135 144h127zM415 0h-145l67 300q4 24 4 26q0 41 -47 41q-43 0 -86 -51l-69 -316h-145l107 483h145l-14 -59q65 71 141 71q58 0 91 -29t33 -76q0 -18 -4 -34z" />
    <glyph glyph-name="Ncommaaccent" unicode="&#x145;" horiz-adv-x="624" 
d="M302 -120q0 -47 -35 -94t-88 -73l-39 40q63 28 81 68q-1 -1 -9 -1q-22 0 -37 14.5t-15 40.5q0 29 23.5 51.5t52.5 22.5q27 0 46.5 -18.5t19.5 -50.5zM516 0h-153l-123 361l-79 -361h-162l147 667h165l115 -344l76 344h161z" />
    <glyph glyph-name="ncommaaccent" unicode="&#x146;" 
d="M246 -120q0 -47 -35 -94t-88 -73l-39 40q63 28 81 68q-1 -1 -9 -1q-22 0 -37 14.5t-15 40.5q0 29 23.5 51.5t52.5 22.5q27 0 46.5 -18.5t19.5 -50.5zM415 0h-145l67 300q4 24 4 26q0 41 -47 41q-43 0 -86 -51l-69 -316h-145l107 483h145l-14 -59q65 71 141 71
q58 0 91 -29t33 -76q0 -18 -4 -34z" />
    <glyph glyph-name="Ncaron" unicode="&#x147;" horiz-adv-x="624" 
d="M484 723h-128l-46 144h80l42 -84l75 84h84zM516 0h-153l-123 361l-79 -361h-162l147 667h165l115 -344l76 344h161z" />
    <glyph glyph-name="ncaron" unicode="&#x148;" 
d="M392 556h-128l-46 144h80l42 -84l75 84h84zM415 0h-145l67 300q4 24 4 26q0 41 -47 41q-43 0 -86 -51l-69 -316h-145l107 483h145l-14 -59q65 71 141 71q58 0 91 -29t33 -76q0 -18 -4 -34z" />
    <glyph glyph-name="napostrophe" unicode="&#x149;" 
d="M268 703q0 -47 -35 -94t-88 -73l-39 40q63 28 81 68q-1 -1 -9 -1q-22 0 -37 14.5t-15 40.5q0 30 23.5 52t52.5 22q27 0 46.5 -18.5t19.5 -50.5zM415 0h-145l67 300q4 24 4 26q0 41 -47 41q-43 0 -86 -51l-69 -316h-145l107 483h145l-14 -59q65 71 141 71q58 0 91 -29
t33 -76q0 -18 -4 -34z" />
    <glyph glyph-name="Eng" unicode="&#x14a;" horiz-adv-x="624" 
d="M285 -196q-107 0 -165 55l71 114q29 -36 79 -36q70 0 87 78l-117 346l-79 -361h-162l147 667h165l115 -344l76 344h161l-143 -647q-25 -113 -81.5 -164.5t-153.5 -51.5z" />
    <glyph glyph-name="eng" unicode="&#x14b;" 
d="M493 356l-81 -367q-21 -94 -64.5 -139.5t-121.5 -45.5q-75 0 -111 33l56 112q14 -17 40 -17q43 0 57 57l70 316q0 2 1 6.5t1.5 8t0.5 5.5q0 42 -43 42q-49 0 -90 -51l-69 -316h-145l107 483h145l-14 -60q64 72 141 72q55 0 89.5 -28.5t34.5 -76.5q0 -18 -4 -34z" />
    <glyph glyph-name="Omacron" unicode="&#x14c;" horiz-adv-x="633" 
d="M579 725h-312l17 81h312zM295 -12q-120 0 -192 73t-72 190q0 106 39.5 202t120 160.5t185.5 64.5q119 0 191.5 -73.5t72.5 -189.5q0 -106 -39 -202t-120 -160.5t-186 -64.5zM304 131q71 0 120.5 88.5t49.5 190.5q0 56 -29.5 90.5t-78.5 34.5q-71 0 -120 -88.5t-49 -191.5
q0 -56 29 -90t78 -34z" />
    <glyph glyph-name="omacron" unicode="&#x14d;" horiz-adv-x="505" 
d="M478 558h-312l17 81h312zM227 -12q-101 0 -155.5 56t-54.5 149q0 115 73 208.5t186 93.5q101 0 155.5 -56t54.5 -149q0 -115 -73 -208.5t-186 -93.5zM234 116q45 0 75 58t30 114q0 79 -70 79q-45 0 -75 -58t-30 -114q0 -79 70 -79z" />
    <glyph glyph-name="Obreve" unicode="&#x14e;" horiz-adv-x="633" 
d="M295 -12q-120 0 -192 73t-72 190q0 106 39.5 202t120 160.5t185.5 64.5q119 0 191.5 -73.5t72.5 -189.5q0 -106 -39 -202t-120 -160.5t-186 -64.5zM304 131q71 0 120.5 88.5t49.5 190.5q0 56 -29.5 90.5t-78.5 34.5q-71 0 -120 -88.5t-49 -191.5q0 -56 29 -90t78 -34z
M582 777q-72 -75 -167 -75q-94 0 -135 75l72 51q21 -46 77 -46t97 46z" />
    <glyph glyph-name="obreve" unicode="&#x14f;" horiz-adv-x="505" 
d="M227 -12q-101 0 -155.5 56t-54.5 149q0 115 73 208.5t186 93.5q101 0 155.5 -56t54.5 -149q0 -115 -73 -208.5t-186 -93.5zM234 116q45 0 75 58t30 114q0 79 -70 79q-45 0 -75 -58t-30 -114q0 -79 70 -79zM482 610q-72 -75 -167 -75q-94 0 -135 75l72 51q21 -46 77 -46
t97 46z" />
    <glyph glyph-name="Ohungarumlaut" unicode="&#x150;" horiz-adv-x="633" 
d="M497 867l-131 -144h-80l100 144h111zM640 867l-131 -144h-80l100 144h111zM295 -12q-120 0 -192 73t-72 190q0 106 39.5 202t120 160.5t185.5 64.5q119 0 191.5 -73.5t72.5 -189.5q0 -106 -39 -202t-120 -160.5t-186 -64.5zM304 131q71 0 120.5 88.5t49.5 190.5
q0 56 -29.5 90.5t-78.5 34.5q-71 0 -120 -88.5t-49 -191.5q0 -56 29 -90t78 -34z" />
    <glyph glyph-name="ohungarumlaut" unicode="&#x151;" horiz-adv-x="505" 
d="M398 700l-131 -144h-80l100 144h111zM541 700l-131 -144h-80l100 144h111zM227 -12q-101 0 -155.5 56t-54.5 149q0 115 73 208.5t186 93.5q101 0 155.5 -56t54.5 -149q0 -115 -73 -208.5t-186 -93.5zM234 116q45 0 75 58t30 114q0 79 -70 79q-45 0 -75 -58t-30 -114
q0 -79 70 -79z" />
    <glyph glyph-name="OE" unicode="&#x152;" horiz-adv-x="862" 
d="M778 0h-401l10 52q-54 -64 -145 -64t-151.5 72.5t-60.5 190.5q0 112 41.5 209t119 157t173.5 60q104 0 146 -73l14 63h401l-31 -141h-240l-25 -117h232l-31 -141h-233l-27 -127h239zM423 213l52 231q-10 44 -37 67t-66 23q-77 0 -126.5 -87.5t-49.5 -191.5q0 -56 28 -90
t75 -34q36 0 69 21.5t55 60.5z" />
    <glyph glyph-name="oe" unicode="&#x153;" horiz-adv-x="794" 
d="M764 195h-292q-1 -3 -1 -17q0 -28 24.5 -52t71.5 -24q56 0 96 34l45 -94q-65 -54 -160 -54q-58 0 -99.5 23.5t-60.5 61.5q-38 -41 -75 -63t-88 -22q-98 0 -153 54.5t-55 150.5q0 74 30 142t90.5 114t136.5 46q52 0 93 -23.5t62 -60.5q69 84 161 84q83 0 136 -49.5
t53 -145.5q0 -45 -15 -105zM489 292h159q2 10 2 21q0 28 -17 48t-52 20q-36 0 -61 -28t-31 -61zM335 288q0 37 -18 58t-50 21q-44 0 -73.5 -56t-29.5 -116q0 -79 68 -79q45 0 74 57.5t29 114.5z" />
    <glyph glyph-name="Racute" unicode="&#x154;" horiz-adv-x="573" 
d="M598 867l-166 -144h-96l135 144h127zM489 0h-174l-38 229h-66l-50 -229h-162l147 667h246q82 0 138 -53t56 -134q0 -82 -45 -146.5t-106 -84.5zM243 370h84q40 0 65 27t25 66q0 30 -17 46.5t-43 16.5h-80z" />
    <glyph glyph-name="racute" unicode="&#x155;" horiz-adv-x="335" 
d="M467 700l-166 -144h-96l135 144h127zM139 0h-145l107 483h145l-13 -59q55 72 145 72l-32 -142q-16 6 -39 6q-59 0 -100 -52z" />
    <glyph glyph-name="Rcommaaccent" unicode="&#x156;" horiz-adv-x="573" 
d="M278 -120q0 -47 -35 -94t-88 -73l-39 40q63 28 81 68q-1 -1 -9 -1q-22 0 -37 14.5t-15 40.5q0 29 23.5 51.5t52.5 22.5q27 0 46.5 -18.5t19.5 -50.5zM489 0h-174l-38 229h-66l-50 -229h-162l147 667h246q82 0 138 -53t56 -134q0 -82 -45 -146.5t-106 -84.5zM243 370h84
q40 0 65 27t25 66q0 30 -17 46.5t-43 16.5h-80z" />
    <glyph glyph-name="rcommaaccent" unicode="&#x157;" horiz-adv-x="335" 
d="M181 -120q0 -47 -35 -94t-88 -73l-39 40q63 28 81 68q-1 -1 -9 -1q-22 0 -37 14.5t-15 40.5q0 29 23.5 51.5t52.5 22.5q27 0 46.5 -18.5t19.5 -50.5zM139 0h-145l107 483h145l-13 -59q55 72 145 72l-32 -142q-16 6 -39 6q-59 0 -100 -52z" />
    <glyph glyph-name="Rcaron" unicode="&#x158;" horiz-adv-x="573" 
d="M461 723h-128l-46 144h80l42 -84l75 84h84zM489 0h-174l-38 229h-66l-50 -229h-162l147 667h246q82 0 138 -53t56 -134q0 -82 -45 -146.5t-106 -84.5zM243 370h84q40 0 65 27t25 66q0 30 -17 46.5t-43 16.5h-80z" />
    <glyph glyph-name="rcaron" unicode="&#x159;" horiz-adv-x="335" 
d="M329 556h-128l-46 144h80l42 -84l75 84h84zM139 0h-145l107 483h145l-13 -59q55 72 145 72l-32 -142q-16 6 -39 6q-59 0 -100 -52z" />
    <glyph glyph-name="Sacute" unicode="&#x15a;" horiz-adv-x="511" 
d="M569 867l-166 -144h-96l135 144h127zM237 -12q-81 0 -149.5 28.5t-104.5 75.5l94 117q26 -36 71.5 -58t94.5 -22q33 0 52 18t19 44q0 20 -24.5 38.5t-60 36.5t-71 40.5t-60 59.5t-24.5 84q0 93 69 160.5t179 67.5q64 0 124 -23.5t99 -66.5l-92 -116q-27 31 -66.5 48
t-79.5 17q-28 0 -45 -16t-17 -39q0 -19 24.5 -38t59.5 -37t70.5 -41t60 -60t24.5 -84q0 -99 -68 -166.5t-179 -67.5z" />
    <glyph glyph-name="sacute" unicode="&#x15b;" horiz-adv-x="424" 
d="M488 700l-166 -144h-96l135 144h127zM185 -12q-62 0 -118 22.5t-88 58.5l77 93q20 -25 58.5 -45t77.5 -20q23 0 37.5 11.5t14.5 27.5t-20.5 28.5t-49 24t-57.5 27t-49.5 43.5t-20.5 66q0 70 51 120t141 50q53 0 103.5 -19.5t83.5 -54.5l-71 -90q-16 20 -49 37t-67 17
q-23 0 -37 -10.5t-14 -25.5q0 -13 20.5 -24.5t50 -23t59 -27.5t50 -45t20.5 -67q0 -73 -55.5 -123.5t-147.5 -50.5z" />
    <glyph glyph-name="Scircumflex" unicode="&#x15c;" horiz-adv-x="511" 
d="M507 723h-80l-42 83l-75 -83h-84l107 144h128zM237 -12q-81 0 -149.5 28.5t-104.5 75.5l94 117q26 -36 71.5 -58t94.5 -22q33 0 52 18t19 44q0 20 -24.5 38.5t-60 36.5t-71 40.5t-60 59.5t-24.5 84q0 93 69 160.5t179 67.5q64 0 124 -23.5t99 -66.5l-92 -116
q-27 31 -66.5 48t-79.5 17q-28 0 -45 -16t-17 -39q0 -19 24.5 -38t59.5 -37t70.5 -41t60 -60t24.5 -84q0 -99 -68 -166.5t-179 -67.5z" />
    <glyph glyph-name="scircumflex" unicode="&#x15d;" horiz-adv-x="424" 
d="M426 556h-80l-42 83l-75 -83h-84l107 144h128zM185 -12q-62 0 -118 22.5t-88 58.5l77 93q20 -25 58.5 -45t77.5 -20q23 0 37.5 11.5t14.5 27.5t-20.5 28.5t-49 24t-57.5 27t-49.5 43.5t-20.5 66q0 70 51 120t141 50q53 0 103.5 -19.5t83.5 -54.5l-71 -90q-16 20 -49 37
t-67 17q-23 0 -37 -10.5t-14 -25.5q0 -13 20.5 -24.5t50 -23t59 -27.5t50 -45t20.5 -67q0 -73 -55.5 -123.5t-147.5 -50.5z" />
    <glyph glyph-name="Scedilla" unicode="&#x15e;" horiz-adv-x="511" 
d="M173 -197q-72 0 -111 41l37 52q32 -35 74 -35q18 0 29.5 9t11.5 24q0 20 -23 20q-15 0 -25 -13l-44 29l39 65q-120 22 -178 97l94 117q26 -36 71.5 -58t94.5 -22q33 0 52 18t19 44q0 20 -24.5 38.5t-60 36.5t-71 40.5t-60 59.5t-24.5 84q0 93 69 160.5t179 67.5
q64 0 124 -23.5t99 -66.5l-92 -116q-27 31 -66.5 48t-79.5 17q-28 0 -45 -16t-17 -39q0 -19 24.5 -38t59.5 -37t70.5 -41t60 -60t24.5 -84q0 -99 -68 -166.5t-179 -67.5h-13l-24 -38q13 10 26 10q25 0 41 -17t16 -45q0 -42 -31.5 -68.5t-78.5 -26.5z" />
    <glyph glyph-name="scedilla" unicode="&#x15f;" horiz-adv-x="424" 
d="M130 -197q-72 0 -111 41l37 52q32 -35 74 -35q18 0 29.5 9t11.5 24q0 20 -23 20q-15 0 -25 -13l-44 29l39 65q-92 19 -139 74l77 93q20 -25 58.5 -45t77.5 -20q23 0 37.5 11.5t14.5 27.5t-20.5 28.5t-49 24t-57.5 27t-49.5 43.5t-20.5 66q0 70 51 120t141 50
q53 0 103.5 -19.5t83.5 -54.5l-71 -90q-16 20 -49 37t-67 17q-23 0 -37 -10.5t-14 -25.5q0 -13 20.5 -24.5t50 -23t59 -27.5t50 -45t20.5 -67q0 -73 -55.5 -123.5t-147.5 -50.5h-4l-24 -38q13 10 26 10q25 0 41 -17t16 -45q0 -42 -31.5 -68.5t-78.5 -26.5z" />
    <glyph glyph-name="Scaron" unicode="&#x160;" horiz-adv-x="511" 
d="M432 723h-128l-46 144h80l42 -84l75 84h84zM237 -12q-81 0 -149.5 28.5t-104.5 75.5l94 117q26 -36 71.5 -58t94.5 -22q33 0 52 18t19 44q0 20 -24.5 38.5t-60 36.5t-71 40.5t-60 59.5t-24.5 84q0 93 69 160.5t179 67.5q64 0 124 -23.5t99 -66.5l-92 -116
q-27 31 -66.5 48t-79.5 17q-28 0 -45 -16t-17 -39q0 -19 24.5 -38t59.5 -37t70.5 -41t60 -60t24.5 -84q0 -99 -68 -166.5t-179 -67.5z" />
    <glyph glyph-name="scaron" unicode="&#x161;" horiz-adv-x="424" 
d="M351 556h-128l-46 144h80l42 -84l75 84h84zM185 -12q-62 0 -118 22.5t-88 58.5l77 93q20 -25 58.5 -45t77.5 -20q23 0 37.5 11.5t14.5 27.5t-20.5 28.5t-49 24t-57.5 27t-49.5 43.5t-20.5 66q0 70 51 120t141 50q53 0 103.5 -19.5t83.5 -54.5l-71 -90q-16 20 -49 37
t-67 17q-23 0 -37 -10.5t-14 -25.5q0 -13 20.5 -24.5t50 -23t59 -27.5t50 -45t20.5 -67q0 -73 -55.5 -123.5t-147.5 -50.5z" />
    <glyph glyph-name="Tcommaaccent" unicode="&#x162;" horiz-adv-x="487" 
d="M235 -120q0 -47 -35 -94t-88 -73l-39 40q63 28 81 68q-1 -1 -9 -1q-22 0 -37 14.5t-15 40.5q0 29 23.5 51.5t52.5 22.5q27 0 46.5 -18.5t19.5 -50.5zM271 0h-162l116 526h-143l31 141h447l-31 -141h-143z" />
    <glyph glyph-name="tcommaaccent" unicode="&#x163;" horiz-adv-x="315" 
d="M142 -120q0 -47 -35 -94t-88 -73l-39 40q63 28 81 68q-1 -1 -9 -1q-22 0 -37 14.5t-15 40.5q0 29 23.5 51.5t52.5 22.5q27 0 46.5 -18.5t19.5 -50.5zM186 -12q-68 0 -105.5 26t-37.5 78q0 19 4 40l50 226h-62l29 125h61l29 132h145l-29 -132h78l-28 -125h-78l-42 -188
q-3 -21 -3 -22q0 -32 36 -32q14 0 26 7v-118q-25 -17 -73 -17z" />
    <glyph glyph-name="Tcaron" unicode="&#x164;" horiz-adv-x="487" 
d="M410 723h-128l-46 144h80l42 -84l75 84h84zM271 0h-162l116 526h-143l31 141h447l-31 -141h-143z" />
    <glyph glyph-name="tcaron" unicode="&#x165;" horiz-adv-x="361" 
d="M486 703q0 -47 -35 -94t-88 -73l-39 40q63 28 81 68q-1 -1 -9 -1q-22 0 -37 14.5t-15 40.5q0 30 23.5 52t52.5 22q27 0 46.5 -18.5t19.5 -50.5zM186 -12q-68 0 -105.5 26t-37.5 78q0 19 4 40l50 226h-62l29 125h61l29 132h145l-29 -132h78l-28 -125h-78l-42 -188
q-3 -21 -3 -22q0 -32 36 -32q14 0 26 7v-118q-25 -17 -73 -17z" />
    <glyph glyph-name="Tbar" unicode="&#x166;" horiz-adv-x="487" 
d="M271 0h-162l55 252h-96l18 81h96l43 193h-143l31 141h447l-31 -141h-143l-43 -193h97l-18 -81h-96z" />
    <glyph glyph-name="tbar" unicode="&#x167;" horiz-adv-x="315" 
d="M186 -12q-68 0 -105.5 26t-37.5 78q0 19 4 40l15 71h-61l18 81h61l17 74h-62l29 125h61l29 132h145l-29 -132h78l-28 -125h-78l-17 -74h51l-18 -81h-51l-7 -33q-3 -21 -3 -22q0 -32 36 -32q14 0 26 7v-118q-25 -17 -73 -17z" />
    <glyph glyph-name="Utilde" unicode="&#x168;" horiz-adv-x="629" 
d="M294 -12q-115 0 -181 57t-66 152q0 13 5 43l94 427h163l-95 -432q-3 -18 -3 -27q0 -34 24 -56.5t65 -22.5q87 0 111 106l95 432h163l-95 -430q-26 -120 -96 -184.5t-184 -64.5zM483 721q-22 0 -38 9t-23.5 20.5t-18.5 20.5t-23 9q-25 0 -36 -53h-74q27 134 117 134
q28 0 45.5 -15t30 -30t28.5 -15q22 0 35 54h74q-29 -134 -117 -134z" />
    <glyph glyph-name="utilde" unicode="&#x169;" 
d="M101 483h145l-68 -303q-3 -14 -3 -24q0 -40 49 -40q42 0 83 51l70 316h144l-107 -483h-144l13 59q-65 -71 -140 -71q-58 0 -91.5 29t-33.5 76q0 2 4 34zM390 554q-28 0 -45.5 15t-30 29.5t-27.5 14.5q-25 0 -36 -53h-74q27 134 117 134q28 0 45.5 -15t30 -30t28.5 -15
q22 0 35 54h74q-29 -134 -117 -134z" />
    <glyph glyph-name="Umacron" unicode="&#x16a;" horiz-adv-x="629" 
d="M294 -12q-115 0 -181 57t-66 152q0 13 5 43l94 427h163l-95 -432q-3 -18 -3 -27q0 -34 24 -56.5t65 -22.5q87 0 111 106l95 432h163l-95 -430q-26 -120 -96 -184.5t-184 -64.5zM577 725h-312l17 81h312z" />
    <glyph glyph-name="umacron" unicode="&#x16b;" 
d="M101 483h145l-68 -303q-3 -14 -3 -24q0 -40 49 -40q42 0 83 51l70 316h144l-107 -483h-144l13 59q-65 -71 -140 -71q-58 0 -91.5 29t-33.5 76q0 2 4 34zM484 558h-312l17 81h312z" />
    <glyph glyph-name="Ubreve" unicode="&#x16c;" horiz-adv-x="629" 
d="M294 -12q-115 0 -181 57t-66 152q0 13 5 43l94 427h163l-95 -432q-3 -18 -3 -27q0 -34 24 -56.5t65 -22.5q87 0 111 106l95 432h163l-95 -430q-26 -120 -96 -184.5t-184 -64.5zM580 777q-72 -75 -167 -75q-94 0 -135 75l72 51q21 -46 77 -46t97 46z" />
    <glyph glyph-name="ubreve" unicode="&#x16d;" 
d="M101 483h145l-68 -303q-3 -14 -3 -24q0 -40 49 -40q42 0 83 51l70 316h144l-107 -483h-144l13 59q-65 -71 -140 -71q-58 0 -91.5 29t-33.5 76q0 2 4 34zM487 610q-72 -75 -167 -75q-94 0 -135 75l72 51q21 -46 77 -46t97 46z" />
    <glyph glyph-name="Uring" unicode="&#x16e;" horiz-adv-x="629" 
d="M425 688q-40 0 -65 25.5t-25 65.5q0 45 33 78t77 33q40 0 65 -25t25 -66q0 -44 -33 -77.5t-77 -33.5zM432 751q17 0 29 12.5t12 29.5q0 15 -9.5 25t-24.5 10q-16 0 -28.5 -12.5t-12.5 -29.5q0 -16 9 -25.5t25 -9.5zM294 -12q-115 0 -181 57t-66 152q0 13 5 43l94 427h163
l-95 -432q-3 -18 -3 -27q0 -34 24 -56.5t65 -22.5q87 0 111 106l95 432h163l-95 -430q-26 -120 -96 -184.5t-184 -64.5z" />
    <glyph glyph-name="uring" unicode="&#x16f;" 
d="M333 528q-40 0 -65 25.5t-25 65.5q0 45 33 78t77 33q40 0 65 -25t25 -66q0 -44 -33 -77.5t-77 -33.5zM340 591q17 0 29 12.5t12 29.5q0 15 -9.5 25t-24.5 10q-16 0 -28.5 -12.5t-12.5 -29.5q0 -16 9 -25.5t25 -9.5zM101 483h145l-68 -303q-3 -14 -3 -24q0 -40 49 -40
q42 0 83 51l70 316h144l-107 -483h-144l13 59q-65 -71 -140 -71q-58 0 -91.5 29t-33.5 76q0 2 4 34z" />
    <glyph glyph-name="Uhungarumlaut" unicode="&#x170;" horiz-adv-x="629" 
d="M294 -12q-115 0 -181 57t-66 152q0 13 5 43l94 427h163l-95 -432q-3 -18 -3 -27q0 -34 24 -56.5t65 -22.5q87 0 111 106l95 432h163l-95 -430q-26 -120 -96 -184.5t-184 -64.5zM496 867l-131 -144h-80l100 144h111zM639 867l-131 -144h-80l100 144h111z" />
    <glyph glyph-name="uhungarumlaut" unicode="&#x171;" 
d="M101 483h145l-68 -303q-3 -14 -3 -24q0 -40 49 -40q42 0 83 51l70 316h144l-107 -483h-144l13 59q-65 -71 -140 -71q-58 0 -91.5 29t-33.5 76q0 2 4 34zM404 700l-131 -144h-80l100 144h111zM547 700l-131 -144h-80l100 144h111z" />
    <glyph glyph-name="Uogonek" unicode="&#x172;" horiz-adv-x="629" 
d="M359 -100l47 -38q-36 -48 -87 -48q-39 0 -64 18.5t-25 54.5q0 55 46 102q-107 4 -168 60.5t-61 147.5q0 13 5 43l94 427h163l-95 -432q-3 -18 -3 -27q0 -34 24 -56.5t65 -22.5q87 0 111 106l95 432h163l-95 -430q-42 -194 -192 -237q-84 -44 -84 -104q0 -24 25 -24
q21 0 36 28z" />
    <glyph glyph-name="uogonek" unicode="&#x173;" 
d="M101 483h145l-68 -303q-3 -14 -3 -24q0 -40 49 -40q42 0 83 51l70 316h144l-107 -483q-84 -44 -84 -104q0 -24 25 -24q21 0 36 28l47 -38q-36 -48 -87 -48q-39 0 -64 18.5t-25 54.5q0 63 59 113h-51l13 59q-65 -71 -140 -71q-58 0 -91.5 29t-33.5 76q0 2 4 34z" />
    <glyph glyph-name="Wcircumflex" unicode="&#x174;" horiz-adv-x="793" 
d="M639 723h-80l-42 83l-75 -83h-84l107 144h128zM584 0h-167l14 403l-163 -403h-167l-7 667h170l-20 -425l180 425h124l-7 -425l167 425h177z" />
    <glyph glyph-name="wcircumflex" unicode="&#x175;" horiz-adv-x="714" 
d="M561 556h-80l-42 83l-75 -83h-84l107 144h128zM534 0h-154l-12 299l-142 -299h-154l-21 483h144v-299l143 299h132l13 -299l133 299h154z" />
    <glyph glyph-name="Ycircumflex" unicode="&#x176;" horiz-adv-x="557" 
d="M526 723h-80l-42 83l-75 -83h-84l107 144h128zM306 0h-162l59 271l-118 396h169l55 -248l165 248h184l-293 -396z" />
    <glyph glyph-name="ycircumflex" unicode="&#x177;" horiz-adv-x="466" 
d="M-49 -183l46 121q12 -6 36 -6q29 0 47 28l21 36l-54 487h149l16 -309l156 309h157l-310 -555q-39 -70 -80 -97t-100 -27q-52 0 -84 13zM438 556h-80l-42 83l-75 -83h-84l107 144h128z" />
    <glyph glyph-name="Ydieresis" unicode="&#x178;" horiz-adv-x="557" 
d="M570 788q0 -32 -26 -57t-59 -25q-28 0 -47 19t-19 47q0 33 25.5 58t58.5 25q29 0 48 -19.5t19 -47.5zM376 788q0 -32 -26 -57t-58 -25q-29 0 -48 19t-19 47q0 33 26 58t59 25q28 0 47 -19.5t19 -47.5zM306 0h-162l59 271l-118 396h169l55 -248l165 248h184l-293 -396z
" />
    <glyph glyph-name="Zacute" unicode="&#x179;" horiz-adv-x="495" 
d="M552 867l-166 -144h-96l135 144h127zM408 0h-429l29 132l301 394h-214l31 141h422l-29 -129l-303 -397h223z" />
    <glyph glyph-name="zacute" unicode="&#x17a;" horiz-adv-x="417" 
d="M477 700l-166 -144h-96l135 144h127zM333 0h-357l23 107l218 250h-162l28 126h353l-23 -103l-222 -254h169z" />
    <glyph glyph-name="Zdotaccent" unicode="&#x17b;" horiz-adv-x="495" 
d="M408 0h-429l29 132l301 394h-214l31 141h422l-29 -129l-303 -397h223zM438 789q0 -33 -26 -58t-59 -25q-29 0 -47.5 19t-18.5 47q0 33 26 58t59 25q28 0 47 -19t19 -47z" />
    <glyph glyph-name="zdotaccent" unicode="&#x17c;" horiz-adv-x="417" 
d="M333 0h-357l23 107l218 250h-162l28 126h353l-23 -103l-222 -254h169zM363 622q0 -33 -26 -58t-59 -25q-28 0 -47 18.5t-19 47.5q0 33 26 58t59 25q28 0 47 -19t19 -47z" />
    <glyph glyph-name="Zcaron" unicode="&#x17d;" horiz-adv-x="495" 
d="M416 723h-128l-46 144h80l42 -84l75 84h84zM408 0h-429l29 132l301 394h-214l31 141h422l-29 -129l-303 -397h223z" />
    <glyph glyph-name="zcaron" unicode="&#x17e;" horiz-adv-x="417" 
d="M340 556h-128l-46 144h80l42 -84l75 84h84zM333 0h-357l23 107l218 250h-162l28 126h353l-23 -103l-222 -254h169z" />
    <glyph glyph-name="longs" unicode="&#x17f;" horiz-adv-x="306" 
d="M164 0h-145l79 358h-62l29 125h61l6 30q36 164 178 164q81 0 121 -40l-62 -93q-16 17 -41 17q-40 0 -52 -48z" />
    <glyph glyph-name="florin" unicode="&#x192;" horiz-adv-x="440" 
d="M114 -161h-164l87 395h-44v126h72l36 164q15 71 59.5 112t113.5 41q81 0 127 -38l-50 -120q-15 17 -40 17q-42 0 -53 -52l-28 -124h87v-126h-115z" />
    <glyph glyph-name="Ohorn" unicode="&#x1a0;" horiz-adv-x="633" 
d="M295 -12q-120 0 -192 73t-72 190q0 106 39.5 202t120 160.5t185.5 64.5q140 0 213 -99q40 23 52 51q-1 -1 -7 -1q-20 0 -33 13.5t-13 36.5q0 27 20 46t47 19q24 0 41 -16.5t17 -45.5q0 -40 -28 -80.5t-71 -64.5q26 -55 26 -122q0 -106 -39 -202t-120 -160.5t-186 -64.5z
M304 131q71 0 120.5 88.5t49.5 190.5q0 56 -29.5 90.5t-78.5 34.5q-71 0 -120 -88.5t-49 -191.5q0 -56 29 -90t78 -34z" />
    <glyph glyph-name="ohorn" unicode="&#x1a1;" horiz-adv-x="505" 
d="M550 549q0 -39 -26 -78.5t-68 -63.5q30 -48 30 -117q0 -115 -73 -208.5t-186 -93.5q-101 0 -155.5 56t-54.5 149q0 115 73 208.5t186 93.5q93 0 149 -51q42 25 54 53q-2 -1 -8 -1q-19 0 -32.5 13t-13.5 36q0 26 20.5 45.5t46.5 19.5q24 0 41 -16t17 -45zM234 116
q45 0 75 58t30 114q0 79 -70 79q-45 0 -75 -58t-30 -114q0 -79 70 -79z" />
    <glyph glyph-name="Uhorn" unicode="&#x1af;" horiz-adv-x="629" 
d="M782 742q0 -48 -37 -92.5t-95 -68.5l-76 -344q-26 -120 -96 -184.5t-184 -64.5q-115 0 -181 57t-66 152q0 13 5 43l94 427h163l-95 -432q-3 -18 -3 -27q0 -34 24 -56.5t65 -22.5q87 0 111 106l95 432h163l-6 -26q35 23 48 49q-2 -1 -8 -1q-19 0 -32.5 13t-13.5 37
q0 26 20 45t47 19q24 0 41 -16t17 -45z" />
    <glyph glyph-name="uhorn" unicode="&#x1b0;" 
d="M601 564q0 -39 -25.5 -77t-68.5 -64l-93 -423h-144l13 59q-65 -71 -140 -71q-58 0 -91.5 29t-33.5 76q0 2 4 34l79 356h144l-67 -305q-3 -10 -3 -21q0 -41 50 -41q41 0 81 50l71 317h131q15 13 22 29q-2 -1 -8 -1q-20 0 -33.5 13t-13.5 36q0 27 20.5 46t47.5 19
q24 0 41 -16t17 -45z" />
    <glyph glyph-name="AEacute" unicode="&#x1fc;" horiz-adv-x="806" 
d="M765 867l-166 -144h-96l135 144h127zM721 0h-401l22 102h-160l-65 -102h-179l461 667h469l-31 -141h-239l-26 -117h233l-32 -141h-232l-28 -127h239zM374 243l53 245l-156 -245h103z" />
    <glyph glyph-name="aeacute" unicode="&#x1fd;" horiz-adv-x="787" 
d="M669 700l-166 -144h-96l135 144h127zM271 367q-46 0 -76.5 -57.5t-30.5 -115.5q0 -36 19 -57t50 -21q42 0 73 45l36 161q-22 45 -71 45zM429 69l-15 -69h-144l12 56q-51 -68 -120 -68t-108 46.5t-39 133.5q0 72 24 144.5t77.5 127.5t124.5 55q89 0 123 -70l13 58h144
l-10 -47q51 59 118 59q142 -2 142 -184q0 -56 -15 -116h-295q-1 -5 -1 -17q0 -25 26.5 -49t75.5 -24q54 0 94 34l45 -100q-63 -51 -136 -51q-103 0 -136 81zM479 292h161q2 7 2 21q0 28 -18 48t-52 20q-36 0 -61 -28t-32 -61z" />
    <glyph glyph-name="Oslashacute" unicode="&#x1fe;" horiz-adv-x="633" 
d="M625 867l-166 -144h-96l135 144h127zM295 -12q-101 0 -170 53l-36 -41h-103l87 98q-42 65 -42 153q0 106 39.5 202t120 160.5t185.5 64.5q97 0 164 -50l34 39h102l-83 -94q47 -67 47 -158q0 -106 -39 -202t-120 -160.5t-186 -64.5zM304 131q71 0 120.5 88.5t49.5 190.5
q0 9 -2 25l-242 -275q27 -29 74 -29zM197 255v-16l238 271q-28 25 -69 25q-71 0 -120 -88.5t-49 -191.5z" />
    <glyph glyph-name="oslashacute" unicode="&#x1ff;" horiz-adv-x="505" 
d="M525 700l-166 -144h-96l135 144h127zM58 0h-86l74 76q-29 50 -29 117q0 115 73 208.5t186 93.5q85 0 139 -42l29 30h87l-75 -76q30 -49 30 -117q0 -115 -73 -208.5t-186 -93.5q-86 0 -140 42zM234 116q45 0 74.5 57.5t30.5 113.5l-153 -156q18 -15 48 -15zM269 367
q-45 0 -75 -57.5t-30 -113.5l152 156q-18 15 -47 15z" />
    <glyph glyph-name="Scommaaccent" unicode="&#x218;" horiz-adv-x="511" 
d="M244 -120q0 -47 -35 -94t-88 -73l-39 40q63 28 81 68q-1 -1 -9 -1q-22 0 -37 14.5t-15 40.5q0 29 23.5 51.5t52.5 22.5q27 0 46.5 -18.5t19.5 -50.5zM237 -12q-81 0 -149.5 28.5t-104.5 75.5l94 117q26 -36 71.5 -58t94.5 -22q33 0 52 18t19 44q0 20 -24.5 38.5t-60 36.5
t-71 40.5t-60 59.5t-24.5 84q0 93 69 160.5t179 67.5q64 0 124 -23.5t99 -66.5l-92 -116q-27 31 -66.5 48t-79.5 17q-28 0 -45 -16t-17 -39q0 -19 24.5 -38t59.5 -37t70.5 -41t60 -60t24.5 -84q0 -99 -68 -166.5t-179 -67.5z" />
    <glyph glyph-name="scommaaccent" unicode="&#x219;" horiz-adv-x="424" 
d="M204 -120q0 -47 -35 -94t-88 -73l-39 40q63 28 81 68q-1 -1 -9 -1q-22 0 -37 14.5t-15 40.5q0 29 23.5 51.5t52.5 22.5q27 0 46.5 -18.5t19.5 -50.5zM185 -12q-62 0 -118 22.5t-88 58.5l77 93q20 -25 58.5 -45t77.5 -20q23 0 37.5 11.5t14.5 27.5t-20.5 28.5t-49 24
t-57.5 27t-49.5 43.5t-20.5 66q0 70 51 120t141 50q53 0 103.5 -19.5t83.5 -54.5l-71 -90q-16 20 -49 37t-67 17q-23 0 -37 -10.5t-14 -25.5q0 -13 20.5 -24.5t50 -23t59 -27.5t50 -45t20.5 -67q0 -73 -55.5 -123.5t-147.5 -50.5z" />
    <glyph glyph-name="uni021A" unicode="&#x21a;" horiz-adv-x="487" 
d="M235 -120q0 -47 -35 -94t-88 -73l-39 40q63 28 81 68q-1 -1 -9 -1q-22 0 -37 14.5t-15 40.5q0 29 23.5 51.5t52.5 22.5q27 0 46.5 -18.5t19.5 -50.5zM271 0h-162l116 526h-143l31 141h447l-31 -141h-143z" />
    <glyph glyph-name="uni021B" unicode="&#x21b;" horiz-adv-x="315" 
d="M142 -120q0 -47 -35 -94t-88 -73l-39 40q63 28 81 68q-1 -1 -9 -1q-22 0 -37 14.5t-15 40.5q0 29 23.5 51.5t52.5 22.5q27 0 46.5 -18.5t19.5 -50.5zM186 -12q-68 0 -105.5 26t-37.5 78q0 19 4 40l50 226h-62l29 125h61l29 132h145l-29 -132h78l-28 -125h-78l-42 -188
q-3 -21 -3 -22q0 -32 36 -32q14 0 26 7v-118q-25 -17 -73 -17z" />
    <glyph glyph-name="uni0237" unicode="&#x237;" horiz-adv-x="241" 
d="M-50 -196q-77 0 -111 33l54 105q14 -17 41 -17q42 0 57 63l110 495h145l-111 -495q-19 -91 -61.5 -137.5t-123.5 -46.5z" />
    <glyph glyph-name="hsuperior" unicode="&#x2b0;" horiz-adv-x="369" 
d="M348 326h-103l43 193q2 10 2 16q0 26 -33 26q-26 0 -53 -34l-44 -201h-104l96 434h103l-34 -157q39 45 92 45q41 0 64.5 -19t23.5 -53q0 -10 -3 -25z" />
    <glyph glyph-name="uni02BC" unicode="&#x2bc;" horiz-adv-x="265" 
d="M302 588q0 -60 -44.5 -120.5t-112.5 -92.5l-50 52q79 36 102 84h-11q-29 0 -48.5 18.5t-19.5 52.5q0 38 30 66.5t68 28.5q36 0 61 -23.5t25 -65.5z" />
    <glyph glyph-name="circumflex" unicode="&#x2c6;" horiz-adv-x="281" 
d="M350 556h-80l-42 83l-75 -83h-84l107 144h128z" />
    <glyph glyph-name="caron" unicode="&#x2c7;" horiz-adv-x="281" 
d="M275 556h-128l-46 144h80l42 -84l75 84h84z" />
    <glyph glyph-name="uni02C9" unicode="&#x2c9;" horiz-adv-x="313" 
d="M389 591h-312l17 80h312z" />
    <glyph glyph-name="uni02CB" unicode="&#x2cb;" horiz-adv-x="228" 
d="M297 556h-94l-102 144h125z" />
    <glyph glyph-name="breve" unicode="&#x2d8;" horiz-adv-x="302" 
d="M382 610q-72 -75 -167 -75q-94 0 -135 75l72 51q21 -46 77 -46t97 46z" />
    <glyph glyph-name="dotaccent" unicode="&#x2d9;" horiz-adv-x="194" 
d="M255 622q0 -33 -26 -58t-59 -25q-28 0 -47 18.5t-19 47.5q0 33 26 58t59 25q28 0 47 -19t19 -47z" />
    <glyph glyph-name="ring" unicode="&#x2da;" horiz-adv-x="199" 
d="M174 528q-40 0 -65 25.5t-25 65.5q0 45 33 78t77 33q40 0 65 -25t25 -66q0 -44 -33 -77.5t-77 -33.5zM181 591q17 0 29 12.5t12 29.5q0 15 -9.5 25t-24.5 10q-16 0 -28.5 -12.5t-12.5 -29.5q0 -16 9 -25.5t25 -9.5z" />
    <glyph glyph-name="ogonek" unicode="&#x2db;" horiz-adv-x="183" 
d="M52 -100l47 -38q-36 -48 -87 -48q-39 0 -64 18.5t-25 54.5q0 86 106 145l46 -32q-84 -44 -84 -104q0 -24 25 -24q21 0 36 28z" />
    <glyph glyph-name="tilde" unicode="&#x2dc;" horiz-adv-x="302" 
d="M283 554q-28 0 -45.5 15t-30 29.5t-27.5 14.5q-25 0 -36 -53h-74q27 134 117 134q28 0 45.5 -15t30 -30t28.5 -15q22 0 35 54h74q-29 -134 -117 -134z" />
    <glyph glyph-name="hungarumlaut" unicode="&#x2dd;" horiz-adv-x="320" 
d="M278 700l-131 -144h-80l100 144h111zM421 700l-131 -144h-80l100 144h111z" />
    <glyph glyph-name="hookabovecomb" unicode="&#x309;" horiz-adv-x="183" 
d="M228 723l-45 18q25 49 77 49q29 0 49 -15.5t20 -44.5q0 -32 -25 -63h-58q26 27 27 53q3 24 -19 24q-16 0 -26 -21z" />
    <glyph glyph-name="uni037E" unicode="&#x37e;" horiz-adv-x="264" 
d="M189 78q0 -60 -44.5 -120t-112.5 -92l-50 52q30 13 60.5 36t42.5 48q-3 -1 -12 -1q-29 0 -48.5 19t-19.5 53q0 38 30.5 66t68.5 28q35 0 60 -23.5t25 -65.5zM158 311q-34 0 -57.5 24t-23.5 58q0 40 29 68.5t68 28.5q34 0 58 -24t24 -58q0 -40 -29 -68.5t-69 -28.5z" />
    <glyph glyph-name="tonos" unicode="&#x384;" 
d="M243 549h-61l69 216h115z" />
    <glyph glyph-name="dieresistonos" unicode="&#x385;" 
d="M341 549h-62l70 216h115zM570 621q0 -32 -26 -57t-58 -25q-28 0 -47 18.5t-19 47.5q0 33 25.5 58t58.5 25q28 0 47 -19t19 -48zM267 621q0 -32 -26 -57t-59 -25q-28 0 -47 19t-19 47q0 33 26 58t59 25q28 0 47 -19.5t19 -47.5z" />
    <glyph glyph-name="Alphatonos" unicode="&#x386;" horiz-adv-x="575" 
d="M160 549h-61l69 216h115zM528 0h-169l-2 102h-190l-47 -102h-181l344 667h195zM356 243l-6 256l-119 -256h125z" />
    <glyph glyph-name="Epsilontonos" unicode="&#x388;" horiz-adv-x="546" 
d="M120 549h-61l69 216h115zM456 0h-402l147 667h402l-32 -141h-239l-25 -117h232l-31 -141h-233l-28 -127h240z" />
    <glyph glyph-name="Etatonos" unicode="&#x389;" horiz-adv-x="680" 
d="M120 549h-61l69 216h115zM572 0h-162l60 272h-194l-60 -272h-162l147 667h162l-56 -253h195l55 253h162z" />
    <glyph glyph-name="Iotatonos" unicode="&#x38a;" horiz-adv-x="324" 
d="M120 549h-61l69 216h115zM216 0h-162l147 667h162z" />
    <glyph glyph-name="Omicrontonos" unicode="&#x38c;" horiz-adv-x="647" 
d="M127 549h-61l69 216h115zM310 -12q-120 0 -192 73t-72 190q0 106 39.5 202t120 160.5t185.5 64.5q119 0 191.5 -73.5t72.5 -189.5q0 -106 -39 -202t-120 -160.5t-186 -64.5zM319 131q71 0 120.5 88.5t49.5 190.5q0 56 -29.5 90.5t-78.5 34.5q-71 0 -120 -88.5t-49 -191.5
q0 -56 29 -90t78 -34z" />
    <glyph glyph-name="Upsilontonos" unicode="&#x38e;" horiz-adv-x="660" 
d="M119 549h-61l69 216h115zM409 0h-162l59 271l-118 396h169l55 -248l165 248h184l-293 -396z" />
    <glyph glyph-name="Omegatonos" unicode="&#x38f;" horiz-adv-x="653" 
d="M127 549h-61l69 216h115zM39 141h110q-81 73 -81 189q0 58 22 118.5t61.5 112t103 84.5t138.5 33q119 0 196.5 -62.5t77.5 -177.5q0 -98 -47 -175t-114 -122h87l-31 -141h-236l31 141q60 27 99 113t39 157q0 57 -27 90t-80 33q-48 0 -87.5 -46t-59.5 -108.5t-20 -120.5
q0 -82 54 -118l-31 -141h-236z" />
    <glyph glyph-name="iotadieresistonos" unicode="&#x390;" horiz-adv-x="255" 
d="M211 549h-62l70 216h115zM440 621q0 -32 -26 -57t-58 -25q-28 0 -47 18.5t-19 47.5q0 33 25.5 58t58.5 25q28 0 47 -19t19 -48zM137 621q0 -32 -26 -57t-59 -25q-28 0 -47 19t-19 47q0 33 26 58t59 25q28 0 47 -19.5t19 -47.5zM128 -12q-136 0 -106 137l80 358h145
l-75 -332q-8 -35 23 -35q7 0 17 2l-17 -121q-31 -9 -67 -9z" />
    <glyph glyph-name="Alpha" unicode="&#x391;" horiz-adv-x="575" 
d="M528 0h-169l-2 102h-190l-47 -102h-181l344 667h195zM356 243l-6 256l-119 -256h125z" />
    <glyph glyph-name="Beta" unicode="&#x392;" horiz-adv-x="579" 
d="M323 0h-324l147 667h269q85 0 131.5 -45t46.5 -111t-42.5 -119t-103.5 -60q43 -11 66 -47t23 -81q0 -81 -54 -142.5t-159 -61.5zM251 408h102q33 0 50.5 21.5t17.5 50.5q0 22 -14 35t-39 13h-90zM298 139q34 0 55 22.5t21 55.5q0 24 -14 38t-39 14h-101l-28 -130h106z
" />
    <glyph glyph-name="Gamma" unicode="&#x393;" horiz-adv-x="485" 
d="M161 0h-162l147 667h402l-32 -141h-239z" />
    <glyph glyph-name="uni0394" unicode="&#x394;" horiz-adv-x="575" 
d="M528 0h-589l344 667h195zM359 141l-10 358l-166 -358h176z" />
    <glyph glyph-name="Epsilon" unicode="&#x395;" horiz-adv-x="491" 
d="M401 0h-402l147 667h402l-32 -141h-239l-25 -117h232l-31 -141h-233l-28 -127h240z" />
    <glyph glyph-name="Zeta" unicode="&#x396;" horiz-adv-x="495" 
d="M408 0h-429l29 132l301 394h-214l31 141h422l-29 -129l-303 -397h223z" />
    <glyph glyph-name="Eta" unicode="&#x397;" horiz-adv-x="625" 
d="M517 0h-162l60 272h-194l-60 -272h-162l147 667h162l-56 -253h195l55 253h162z" />
    <glyph glyph-name="Theta" unicode="&#x398;" horiz-adv-x="633" 
d="M412 268h-185l32 141h184zM295 -12q-120 0 -192 73t-72 190q0 106 39.5 202t120 160.5t185.5 64.5q119 0 191.5 -73.5t72.5 -189.5q0 -106 -39 -202t-120 -160.5t-186 -64.5zM304 131q71 0 120.5 88.5t49.5 190.5q0 56 -29.5 90.5t-78.5 34.5q-71 0 -120 -88.5
t-49 -191.5q0 -56 29 -90t78 -34z" />
    <glyph glyph-name="Iota" unicode="&#x399;" horiz-adv-x="268" 
d="M161 0h-162l147 667h162z" />
    <glyph glyph-name="Kappa" unicode="&#x39a;" horiz-adv-x="575" 
d="M527 0h-181l-86 248l-61 -74l-38 -174h-162l147 667h162l-58 -265l214 265h197l-278 -312z" />
    <glyph glyph-name="Lambda" unicode="&#x39b;" horiz-adv-x="575" 
d="M528 0h-169l-9 499l-230 -499h-181l344 667h195z" />
    <glyph glyph-name="Mu" unicode="&#x39c;" horiz-adv-x="761" 
d="M654 0h-161l89 403l-224 -403h-63l-45 403l-89 -403h-162l147 667h210l37 -340l191 340h217z" />
    <glyph glyph-name="Nu" unicode="&#x39d;" horiz-adv-x="624" 
d="M516 0h-153l-123 361l-79 -361h-162l147 667h165l115 -344l76 344h161z" />
    <glyph glyph-name="Xi" unicode="&#x39e;" horiz-adv-x="521" 
d="M547 526h-448l32 141h447zM432 0h-448l32 141h447zM483 268h-434l32 141h433z" />
    <glyph glyph-name="Omicron" unicode="&#x39f;" horiz-adv-x="633" 
d="M295 -12q-120 0 -192 73t-72 190q0 106 39.5 202t120 160.5t185.5 64.5q119 0 191.5 -73.5t72.5 -189.5q0 -106 -39 -202t-120 -160.5t-186 -64.5zM304 131q71 0 120.5 88.5t49.5 190.5q0 56 -29.5 90.5t-78.5 34.5q-71 0 -120 -88.5t-49 -191.5q0 -56 29 -90t78 -34z
" />
    <glyph glyph-name="Pi" unicode="&#x3a0;" horiz-adv-x="625" 
d="M517 0h-162l116 526h-194l-116 -526h-162l147 667h518z" />
    <glyph glyph-name="Rho" unicode="&#x3a1;" horiz-adv-x="556" 
d="M161 0h-162l147 667h255q82 0 133.5 -53t51.5 -132q0 -45 -15 -88t-46 -81t-85 -61t-124 -23h-105zM243 370h84q39 0 65 28t26 67q0 28 -16.5 44.5t-43.5 16.5h-81z" />
    <glyph glyph-name="Sigma" unicode="&#x3a3;" horiz-adv-x="480" 
d="M290 526l109 -190l-193 -195h218l-31 -141h-403l35 161l194 197l-108 184l28 125h401l-32 -141h-218z" />
    <glyph glyph-name="Tau" unicode="&#x3a4;" horiz-adv-x="487" 
d="M271 0h-162l116 526h-143l31 141h447l-31 -141h-143z" />
    <glyph glyph-name="Upsilon" unicode="&#x3a5;" horiz-adv-x="557" 
d="M306 0h-162l59 271l-118 396h169l55 -248l165 248h184l-293 -396z" />
    <glyph glyph-name="Phi" unicode="&#x3a6;" horiz-adv-x="785" 
d="M419 0h-161l16 71q-235 33 -235 235q0 114 97 198t258 96l16 67h161l-17 -72q236 -35 236 -236q0 -114 -97.5 -197.5t-258.5 -95.5zM621 360q0 72 -99 92l-55 -239q77 14 115.5 53t38.5 94zM208 306q0 -73 98 -92l55 238q-77 -14 -115 -53t-38 -93z" />
    <glyph glyph-name="Chi" unicode="&#x3a7;" horiz-adv-x="575" 
d="M528 0h-177l-68 209l-151 -209h-193l273 350l-115 317h177l59 -196l136 196h194l-258 -334z" />
    <glyph glyph-name="Psi" unicode="&#x3a8;" horiz-adv-x="812" 
d="M433 0h-161l30 131q-218 34 -218 204q0 37 9 75l58 257h164l-64 -279q-4 -20 -4 -32q0 -63 87 -83l90 394h161l-90 -394q112 23 133 115l65 279h164l-71 -309q-22 -96 -110.5 -158.5t-214.5 -73.5z" />
    <glyph glyph-name="uni03A9" unicode="&#x3a9;" horiz-adv-x="630" 
d="M15 141h110q-81 73 -81 189q0 58 22 118.5t61.5 112t103 84.5t138.5 33q119 0 196.5 -62.5t77.5 -177.5q0 -98 -47 -175t-114 -122h87l-31 -141h-236l31 141q60 27 99 113t39 157q0 57 -27 90t-80 33q-48 0 -87.5 -46t-59.5 -108.5t-20 -120.5q0 -82 54 -118l-31 -141
h-236z" />
    <glyph glyph-name="Iotadieresis" unicode="&#x3aa;" horiz-adv-x="268" 
d="M161 0h-162l147 667h162zM429 805q0 -32 -26 -57t-59 -25q-28 0 -47 19t-19 47q0 33 25.5 58t58.5 25q28 0 47.5 -19t19.5 -48zM235 805q0 -32 -26 -57t-58 -25q-29 0 -48 19t-19 47q0 33 26 58t59 25q28 0 47 -19.5t19 -47.5z" />
    <glyph glyph-name="Upsilondieresis" unicode="&#x3ab;" horiz-adv-x="557" 
d="M306 0h-162l59 271l-118 396h169l55 -248l165 248h184l-293 -396zM574 805q0 -32 -26 -57t-59 -25q-28 0 -47 19t-19 47q0 33 25.5 58t58.5 25q29 0 48 -19t19 -48zM380 805q0 -32 -26 -57t-58 -25q-29 0 -48 19t-19 47q0 33 26 58t59 25q28 0 47 -19.5t19 -47.5z" />
    <glyph glyph-name="alphatonos" unicode="&#x3ac;" horiz-adv-x="530" 
d="M351 549h-61l69 216h115zM488 118l-17 -121q-31 -9 -68 -9q-102 0 -110 82q-61 -82 -131 -82q-69 0 -108 47.5t-39 132.5q0 72 24 144.5t77.5 127.5t124.5 55q89 0 123 -70l13 58h144l-73 -332q-8 -35 22 -35q8 0 18 2zM233 116q42 0 73 45l36 161q-22 45 -71 45
q-46 0 -76.5 -57.5t-30.5 -115.5q0 -36 19 -57t50 -21z" />
    <glyph glyph-name="epsilontonos" unicode="&#x3ad;" horiz-adv-x="445" 
d="M321 549h-61l69 216h115zM184 -12q-93 0 -141 34t-48 91q0 54 46 91.5t102 43.5q-40 7 -64 33.5t-24 61.5q0 68 64.5 110t165.5 42q123 0 187 -77l-84 -80q-40 44 -106 44q-38 0 -62.5 -13t-24.5 -36q0 -34 62 -34h87l-25 -111h-90q-85 0 -85 -51q0 -36 61 -36
q81 0 146 49l50 -91q-92 -71 -217 -71z" />
    <glyph glyph-name="etatonos" unicode="&#x3ae;" 
d="M353 549h-61l69 216h115zM374 -184h-145l109 489q3 18 3 21q0 41 -51 41q-39 0 -82 -51l-69 -316h-145l107 483h145l-14 -59q65 71 141 71q58 0 91 -29t33 -76q0 -18 -4 -34z" />
    <glyph glyph-name="iotatonos" unicode="&#x3af;" horiz-adv-x="255" 
d="M219 549h-61l69 216h115zM128 -12q-136 0 -106 137l80 358h145l-75 -332q-8 -35 23 -35q7 0 17 2l-17 -121q-31 -9 -67 -9z" />
    <glyph glyph-name="upsilondieresistonos" unicode="&#x3b0;" horiz-adv-x="511" 
d="M349 549h-62l70 216h115zM578 621q0 -32 -26 -57t-58 -25q-28 0 -47 18.5t-19 47.5q0 33 25.5 58t58.5 25q28 0 47 -19t19 -48zM275 621q0 -32 -26 -57t-59 -25q-28 0 -47 19t-19 47q0 33 26 58t59 25q28 0 47 -19.5t19 -47.5zM217 -12q-100 0 -150 57.5t-28 153.5
l63 284h145l-64 -285q-8 -38 4.5 -60t44.5 -22q52 0 87.5 66t35.5 152q0 67 -16 111l145 50q22 -59 22 -144q0 -96 -32.5 -177.5t-99.5 -133.5t-157 -52z" />
    <glyph glyph-name="alpha" unicode="&#x3b1;" horiz-adv-x="530" 
d="M488 118l-17 -121q-31 -9 -68 -9q-102 0 -110 82q-61 -82 -131 -82q-69 0 -108 47.5t-39 132.5q0 72 24 144.5t77.5 127.5t124.5 55q89 0 123 -70l13 58h144l-73 -332q-8 -35 22 -35q8 0 18 2zM233 116q42 0 73 45l36 161q-22 45 -71 45q-46 0 -76.5 -57.5t-30.5 -115.5
q0 -36 19 -57t50 -21z" />
    <glyph glyph-name="beta" unicode="&#x3b2;" horiz-adv-x="516" 
d="M280 -12q-89 0 -129 68l-53 -240h-145l142 636q26 116 100.5 170.5t162.5 54.5t136 -38.5t48 -110.5q0 -63 -43.5 -116t-111.5 -68q96 -31 96 -134q0 -90 -62 -156t-141 -66zM239 451l-65 -291q18 -44 69 -44q42 0 68 30.5t26 69.5q0 57 -59 57h-28l28 128h23q39 0 62 29
t23 68q0 50 -52 50q-32 0 -58 -24.5t-37 -72.5z" />
    <glyph glyph-name="gamma" unicode="&#x3b3;" horiz-adv-x="466" 
d="M210 -184h-145l22 100q35 169 20.5 314.5t-69.5 252.5h159q59 -153 38 -303q36 54 72 140t54 163h144q-26 -116 -97.5 -247.5t-155.5 -228.5z" />
    <glyph glyph-name="delta" unicode="&#x3b4;" horiz-adv-x="505" 
d="M217 -12q-102 0 -153 55.5t-51 141.5q0 147 151 239q-35 35 -35 89q0 69 60.5 117.5t157.5 48.5q108 0 171 -61l-78 -99q-16 19 -45.5 33t-64.5 14q-25 0 -43 -11.5t-18 -27.5q0 -14 22.5 -27.5t54.5 -29.5t63.5 -39t54 -67t22.5 -103q0 -61 -31.5 -123t-95 -106
t-142.5 -44zM345 247q0 39 -20.5 63.5t-58.5 47.5q-46 -26 -74 -68t-28 -90q0 -37 19 -60.5t56 -23.5q44 0 75 42t31 89z" />
    <glyph glyph-name="epsilon" unicode="&#x3b5;" horiz-adv-x="445" 
d="M184 -12q-93 0 -141 34t-48 91q0 54 46 91.5t102 43.5q-40 7 -64 33.5t-24 61.5q0 68 64.5 110t165.5 42q123 0 187 -77l-84 -80q-40 44 -106 44q-38 0 -62.5 -13t-24.5 -36q0 -34 62 -34h87l-25 -111h-90q-85 0 -85 -51q0 -36 61 -36q81 0 146 49l50 -91
q-92 -71 -217 -71z" />
    <glyph glyph-name="zeta" unicode="&#x3b6;" horiz-adv-x="421" 
d="M204 -26q0 14 -20 14q-81 0 -129 46t-48 122q0 100 73.5 201t210.5 184h-190l28 126h357l-23 -103q-122 -75 -211.5 -179.5t-89.5 -193.5q0 -75 84 -75q107 0 107 -80q0 -69 -92 -193h-143q34 35 60 73t26 58z" />
    <glyph glyph-name="eta" unicode="&#x3b7;" 
d="M374 -184h-145l109 489q3 18 3 21q0 41 -51 41q-39 0 -82 -51l-69 -316h-145l107 483h145l-14 -59q65 71 141 71q58 0 91 -29t33 -76q0 -18 -4 -34z" />
    <glyph glyph-name="theta" unicode="&#x3b8;" horiz-adv-x="505" 
d="M227 -12q-90 0 -145 65.5t-55 184.5q0 111 37.5 212t106 165t150.5 64q91 0 145 -65.5t54 -184.5q0 -111 -37 -212t-105.5 -165t-150.5 -64zM235 116q60 0 107 156h-166q-5 -43 -5 -66q0 -90 64 -90zM311 551q-59 0 -106 -153h165q5 40 5 63q0 90 -64 90z" />
    <glyph glyph-name="iota" unicode="&#x3b9;" horiz-adv-x="255" 
d="M128 -12q-136 0 -106 137l80 358h145l-75 -332q-8 -35 23 -35q7 0 17 2l-17 -121q-31 -9 -67 -9z" />
    <glyph glyph-name="kappa" unicode="&#x3ba;" horiz-adv-x="485" 
d="M434 0h-166l-46 178l-59 -66l-24 -112h-145l107 483h145l-43 -189l158 189h172l-193 -217z" />
    <glyph glyph-name="lambda" unicode="&#x3bb;" horiz-adv-x="466" 
d="M134 544l7 127q26 8 65 8q69 -1 105 -27.5t45 -96.5l62 -555h-149l-16 309l-156 -309h-157l275 492l-4 31q-4 28 -46 28q-18 0 -31 -7z" />
    <glyph glyph-name="uni03BC" unicode="&#x3bc;" horiz-adv-x="530" 
d="M139 3l-41 -187h-145l149 667h145l-69 -306q-6 -30 5.5 -46t37.5 -16q46 0 85 51l70 317h145l-73 -332q-8 -35 22 -35q9 0 17 2l-17 -121q-29 -9 -67 -9q-53 0 -78 21t-27 66q-21 -40 -52.5 -63.5t-63.5 -23.5q-28 0 -43 15z" />
    <glyph glyph-name="nu" unicode="&#x3bd;" horiz-adv-x="466" 
d="M246 0h-144l-54 483h153l17 -330q48 67 86 157t57 173h144q-26 -118 -99.5 -252.5t-159.5 -230.5z" />
    <glyph glyph-name="xi" unicode="&#x3be;" horiz-adv-x="421" 
d="M186 -12q-88 0 -136.5 39.5t-48.5 108.5q0 63 39.5 109t105.5 68q-36 7 -56 31.5t-20 62.5t32 76t81 58h-74l29 126h345l-29 -126h-160q-29 -11 -48 -34.5t-19 -50.5q0 -56 74 -56h116l-28 -125h-116q-50 0 -82.5 -25.5t-32.5 -71.5q0 -29 22.5 -45.5t65.5 -16.5
q107 0 107 -80q0 -69 -92 -193h-138q81 98 81 131q0 14 -18 14z" />
    <glyph glyph-name="omicron" unicode="&#x3bf;" horiz-adv-x="505" 
d="M227 -12q-101 0 -155.5 56t-54.5 149q0 115 73 208.5t186 93.5q101 0 155.5 -56t54.5 -149q0 -115 -73 -208.5t-186 -93.5zM234 116q45 0 75 58t30 114q0 79 -70 79q-45 0 -75 -58t-30 -114q0 -79 70 -79z" />
    <glyph glyph-name="pi" unicode="&#x3c0;" horiz-adv-x="565" 
d="M439 0h-145l80 357h-131l-80 -357h-145l80 357h-62l29 126h544l-29 -126h-62z" />
    <glyph glyph-name="rho" unicode="&#x3c1;" horiz-adv-x="515" 
d="M275 -12q-89 0 -123 70l-54 -242h-145l95 426q25 116 94 184.5t170 68.5q89 0 138.5 -52.5t49.5 -142.5q0 -47 -14.5 -99.5t-41 -101t-71.5 -80t-98 -31.5zM245 116q46 0 76 57t30 116q0 36 -16.5 57t-43.5 21q-72 0 -99 -125l-18 -81q20 -45 71 -45z" />
    <glyph glyph-name="sigma1" unicode="&#x3c2;" horiz-adv-x="426" 
d="M191 -12q-68 0 -121 56.5t-53 148.5q0 120 75 211t188 91q116 0 169 -74l-89 -94q-24 40 -75 40q-52 0 -86.5 -49.5t-34.5 -112.5q0 -89 97 -89q46 0 70.5 -21.5t24.5 -60.5q0 -70 -90 -191h-143q31 31 58.5 70.5t27.5 59.5q0 15 -18 15z" />
    <glyph glyph-name="sigma" unicode="&#x3c3;" horiz-adv-x="505" 
d="M473 260q0 -62 -28 -123.5t-86.5 -105t-131.5 -43.5q-101 0 -155.5 56t-54.5 149q0 117 79 203.5t203 86.5h244l-29 -128h-69q28 -35 28 -95zM339 283q0 49 -21 72h-35q-53 0 -86 -50t-33 -110q0 -79 70 -79q45 0 75 57t30 110z" />
    <glyph glyph-name="tau" unicode="&#x3c4;" horiz-adv-x="406" 
d="M217 -12q-142 0 -111 138l51 231h-115l28 126h374l-28 -126h-115l-43 -197q-5 -21 2 -32.5t23 -11.5q22 0 34 10l1 -112q-35 -26 -101 -26z" />
    <glyph glyph-name="upsilon" unicode="&#x3c5;" horiz-adv-x="511" 
d="M217 -12q-100 0 -150 57.5t-28 153.5l63 284h145l-64 -285q-8 -38 4.5 -60t44.5 -22q52 0 87.5 66t35.5 152q0 67 -16 111l145 50q22 -59 22 -144q0 -96 -32.5 -177.5t-99.5 -133.5t-157 -52z" />
    <glyph glyph-name="phi" unicode="&#x3c6;" horiz-adv-x="734" 
d="M719 278q0 -110 -89.5 -193t-245.5 -95l-39 -174h-145l39 178q-222 32 -222 217q0 91 60 164.5t174 119.5l37 -113q-55 -23 -87 -65.5t-32 -91.5q0 -86 99 -104l83 374h72q146 0 221 -57.5t75 -159.5zM467 362l-54 -240q79 14 116.5 54t37.5 88q0 43 -27 68t-73 30z" />
    <glyph glyph-name="chi" unicode="&#x3c7;" horiz-adv-x="454" 
d="M362 -184h-151l-30 200l-120 -200h-160l215 339l-58 328h151l25 -189l110 189h159l-205 -328z" />
    <glyph glyph-name="psi" unicode="&#x3c8;" horiz-adv-x="735" 
d="M345 -184h-145l40 179q-197 31 -197 188q0 34 8 70l51 230h144l-54 -246q-4 -13 -4 -35q0 -62 80 -80l122 545h145l-122 -544q107 23 128 114l55 246h144l-59 -264q-22 -99 -101.5 -159t-195.5 -70z" />
    <glyph glyph-name="omega" unicode="&#x3c9;" horiz-adv-x="770" 
d="M758 314q0 -79 -30 -153t-89 -123.5t-133 -49.5q-64 0 -103 33t-45 93q-68 -126 -180 -126q-75 0 -120 53.5t-45 134.5q0 94 48 180.5t122 138.5l94 -80q-54 -41 -84 -102.5t-30 -120.5q0 -34 13 -55t38 -21q36 0 61 34.5t38 91.5l27 122h144l-27 -122
q-13 -53 -2.5 -89.5t46.5 -36.5q44 0 75 59.5t31 122.5q0 80 -33 120l126 77q58 -60 58 -181z" />
    <glyph glyph-name="iotadieresis" unicode="&#x3ca;" horiz-adv-x="255" 
d="M378 621q0 -32 -26 -57t-59 -25q-28 0 -47 19t-19 47q0 33 25.5 58t58.5 25q29 0 48 -19t19 -48zM184 621q0 -32 -26 -57t-58 -25q-29 0 -48 19t-19 47q0 33 26 58t59 25q28 0 47 -19.5t19 -47.5zM128 -12q-136 0 -106 137l80 358h145l-75 -332q-8 -35 23 -35q7 0 17 2
l-17 -121q-31 -9 -67 -9z" />
    <glyph glyph-name="upsilondieresis" unicode="&#x3cb;" horiz-adv-x="511" 
d="M517 621q0 -32 -26 -57t-59 -25q-28 0 -47 19t-19 47q0 33 25.5 58t58.5 25q28 0 47.5 -19t19.5 -48zM323 621q0 -32 -26 -57t-58 -25q-29 0 -48 19t-19 47q0 33 26 58t59 25q28 0 47 -19.5t19 -47.5zM217 -12q-100 0 -150 57.5t-28 153.5l63 284h145l-64 -285
q-8 -38 4.5 -60t44.5 -22q52 0 87.5 66t35.5 152q0 67 -16 111l145 50q22 -59 22 -144q0 -96 -32.5 -177.5t-99.5 -133.5t-157 -52z" />
    <glyph glyph-name="omicrontonos" unicode="&#x3cc;" horiz-adv-x="505" 
d="M347 549h-61l69 216h115zM227 -12q-101 0 -155.5 56t-54.5 149q0 115 73 208.5t186 93.5q101 0 155.5 -56t54.5 -149q0 -115 -73 -208.5t-186 -93.5zM234 116q45 0 75 58t30 114q0 79 -70 79q-45 0 -75 -58t-30 -114q0 -79 70 -79z" />
    <glyph glyph-name="upsilontonos" unicode="&#x3cd;" horiz-adv-x="511" 
d="M356 549h-61l69 216h115zM217 -12q-100 0 -150 57.5t-28 153.5l63 284h145l-64 -285q-8 -38 4.5 -60t44.5 -22q52 0 87.5 66t35.5 152q0 67 -16 111l145 50q22 -59 22 -144q0 -96 -32.5 -177.5t-99.5 -133.5t-157 -52z" />
    <glyph glyph-name="omegatonos" unicode="&#x3ce;" horiz-adv-x="770" 
d="M480 549h-61l69 216h115zM758 314q0 -79 -30 -153t-89 -123.5t-133 -49.5q-64 0 -103 33t-45 93q-68 -126 -180 -126q-75 0 -120 53.5t-45 134.5q0 94 48 180.5t122 138.5l94 -80q-54 -41 -84 -102.5t-30 -120.5q0 -34 13 -55t38 -21q36 0 61 34.5t38 91.5l27 122h144
l-27 -122q-13 -53 -2.5 -89.5t46.5 -36.5q44 0 75 59.5t31 122.5q0 80 -33 120l126 77q58 -60 58 -181z" />
    <glyph glyph-name="afii10023" unicode="&#x401;" horiz-adv-x="491" 
d="M547 788q0 -32 -26 -57t-59 -25q-28 0 -47 19t-19 47q0 33 25.5 58t58.5 25q28 0 47.5 -19.5t19.5 -47.5zM353 788q0 -32 -26 -57t-58 -25q-29 0 -48 19t-19 47q0 33 26 58t59 25q28 0 47 -19.5t19 -47.5zM401 0h-402l147 667h402l-32 -141h-239l-25 -117h232l-31 -141
h-233l-28 -127h240z" />
    <glyph glyph-name="afii10051" unicode="&#x402;" horiz-adv-x="654" 
d="M343 -12l31 139q68 0 83 72l3 11q8 38 -11.5 59t-61.5 21q-39 0 -80 -12l-60 -278h-162l115 526h-143l31 141h447l-31 -141h-142l-24 -108q57 13 106 13q110 0 154.5 -62t24.5 -158l-3 -12q-22 -102 -98 -156.5t-179 -54.5z" />
    <glyph glyph-name="afii10052" unicode="&#x403;" horiz-adv-x="485" 
d="M569 867l-166 -144h-96l135 144h127zM161 0h-162l147 667h402l-32 -141h-239z" />
    <glyph glyph-name="afii10053" unicode="&#x404;" horiz-adv-x="570" 
d="M295 -12q-118 0 -191 71.5t-73 191.5q0 109 40.5 205.5t121 159t183.5 62.5q106 0 165 -57t77 -137l-152 -46q-8 43 -33.5 70t-64.5 27q-44 0 -80 -34.5t-60 -91.5h227l-32 -141h-226v-13q0 -57 29 -90.5t78 -33.5q31 0 61.5 21t50.5 57l128 -68q-46 -77 -111 -115
t-138 -38z" />
    <glyph glyph-name="afii10054" unicode="&#x405;" horiz-adv-x="511" 
d="M237 -12q-81 0 -149.5 28.5t-104.5 75.5l94 117q26 -36 71.5 -58t94.5 -22q33 0 52 18t19 44q0 20 -24.5 38.5t-60 36.5t-71 40.5t-60 59.5t-24.5 84q0 93 69 160.5t179 67.5q64 0 124 -23.5t99 -66.5l-92 -116q-27 31 -66.5 48t-79.5 17q-28 0 -45 -16t-17 -39
q0 -19 24.5 -38t59.5 -37t70.5 -41t60 -60t24.5 -84q0 -99 -68 -166.5t-179 -67.5z" />
    <glyph glyph-name="afii10055" unicode="&#x406;" horiz-adv-x="268" 
d="M161 0h-162l147 667h162z" />
    <glyph glyph-name="afii10056" unicode="&#x407;" horiz-adv-x="268" 
d="M425 788q0 -32 -26 -57t-59 -25q-28 0 -47 19t-19 47q0 33 25.5 58t58.5 25q28 0 47.5 -19.5t19.5 -47.5zM231 788q0 -32 -26 -57t-58 -25q-29 0 -48 19t-19 47q0 33 26 58t59 25q28 0 47 -19.5t19 -47.5zM161 0h-162l147 667h162z" />
    <glyph glyph-name="afii10057" unicode="&#x408;" horiz-adv-x="427" 
d="M130 -12q-109 0 -165 55l74 126q28 -38 78 -38q71 0 87 78l102 458h161l-102 -463q-25 -112 -81 -164t-154 -52z" />
    <glyph glyph-name="afii10058" unicode="&#x409;" horiz-adv-x="912" 
d="M-38 -12l31 143q41 0 71.5 37t65.5 148l110 351h423l-50 -229h93q82 0 133.5 -52.5t51.5 -131.5q0 -45 -15 -88t-45.5 -81t-84.5 -61.5t-124 -23.5h-267l115 526h-114l-66 -217q-30 -98 -67 -163.5t-80 -99t-85 -46t-96 -12.5zM664 297h-82l-34 -156h82q41 0 67 28.5
t26 67.5q0 28 -16 44t-43 16z" />
    <glyph glyph-name="afii10059" unicode="&#x40a;" horiz-adv-x="912" 
d="M622 0h-269l61 281h-194l-61 -281h-162l146 667h162l-54 -245h194l54 245h162l-53 -245h95q81 0 132 -50.5t51 -127.5q0 -43 -15 -84.5t-45 -78t-83 -59t-121 -22.5zM661 281h-85l-31 -140h86q38 0 63 25t25 60q0 27 -16 41t-42 14z" />
    <glyph glyph-name="afii10060" unicode="&#x40b;" horiz-adv-x="673" 
d="M412 0l42 196q21 94 -67 94q-39 0 -80 -12l-60 -278h-162l115 526h-143l31 141h447l-31 -141h-142l-24 -108q57 13 106 13q110 0 153.5 -65t20.5 -169l-43 -197h-163z" />
    <glyph glyph-name="afii10061" unicode="&#x40c;" horiz-adv-x="575" 
d="M606 867l-166 -144h-96l135 144h127zM527 0h-181l-86 248l-61 -74l-38 -174h-162l147 667h162l-58 -265l214 265h197l-278 -312z" />
    <glyph glyph-name="afii10062" unicode="&#x40e;" horiz-adv-x="557" 
d="M74 -12q-85 0 -128 39l79 129q27 -25 63 -25q26 0 44 14t37 42l13 21l-98 459h173l47 -290l173 290h180l-339 -523q-51 -79 -107 -117.5t-137 -38.5zM541 777q-72 -75 -167 -75q-94 0 -135 75l72 51q21 -46 77 -46t97 46z" />
    <glyph glyph-name="afii10145" unicode="&#x40f;" horiz-adv-x="625" 
d="M149 -126l28 126h-178l146 667h162l-115 -526h194l115 526h162l-146 -667h-178l-28 -126h-162z" />
    <glyph glyph-name="afii10017" unicode="&#x410;" horiz-adv-x="575" 
d="M528 0h-169l-2 102h-190l-47 -102h-181l344 667h195zM356 243l-6 256l-119 -256h125z" />
    <glyph glyph-name="afii10018" unicode="&#x411;" horiz-adv-x="556" 
d="M145 667h444l-31 -141h-282l-20 -94h82q91 0 144 -51.5t53 -130.5q0 -45 -15 -87.5t-45.5 -79.5t-84.5 -60t-124 -23h-267zM311 291h-86l-33 -150h86q40 0 64.5 27t24.5 65q0 27 -15.5 42.5t-40.5 15.5z" />
    <glyph glyph-name="afii10019" unicode="&#x412;" horiz-adv-x="579" 
d="M323 0h-324l147 667h269q85 0 131.5 -45t46.5 -111t-42.5 -119t-103.5 -60q43 -11 66 -47t23 -81q0 -81 -54 -142.5t-159 -61.5zM251 408h102q33 0 50.5 21.5t17.5 50.5q0 22 -14 35t-39 13h-90zM298 139q34 0 55 22.5t21 55.5q0 24 -14 38t-39 14h-101l-28 -130h106z
" />
    <glyph glyph-name="afii10020" unicode="&#x413;" horiz-adv-x="485" 
d="M161 0h-162l147 667h402l-32 -141h-239z" />
    <glyph glyph-name="afii10021" unicode="&#x414;" horiz-adv-x="637" 
d="M-63 -123l55 254q31 6 49 17.5t42 53t48 118.5l109 347h423l-116 -526h54l-59 -264h-162l27 123h-282l-27 -123h-161zM356 526l-62 -200q-37 -121 -105 -185h197l84 385h-114z" />
    <glyph glyph-name="afii10022" unicode="&#x415;" horiz-adv-x="491" 
d="M401 0h-402l147 667h402l-32 -141h-239l-25 -117h232l-31 -141h-233l-28 -127h240z" />
    <glyph glyph-name="afii10024" unicode="&#x416;" horiz-adv-x="833" 
d="M139 0h-198l299 355l-140 312h180l92 -253l56 253h161l-50 -227l182 227h196l-277 -312l144 -355h-183l-82 251l-29 -35l-47 -216h-162l47 216l-8 22z" />
    <glyph glyph-name="afii10025" unicode="&#x417;" horiz-adv-x="544" 
d="M256 -12q-88 0 -164 36.5t-107 100.5l116 91q23 -41 66 -63t87 -22t68.5 24t24.5 53q0 58 -97 58h-103l32 142h113q49 0 77 19t28 50q0 27 -26.5 42t-72.5 15q-77 0 -131 -48l-68 103q90 88 220 88q110 0 177.5 -44t67.5 -122q0 -65 -52 -114t-117 -59q53 -14 82 -50.5
t29 -88.5q0 -90 -73.5 -150.5t-176.5 -60.5z" />
    <glyph glyph-name="afii10026" unicode="&#x418;" horiz-adv-x="624" 
d="M153 0h-154l147 667h162l-76 -344l267 344h164l-147 -667h-162l80 361z" />
    <glyph glyph-name="afii10027" unicode="&#x419;" horiz-adv-x="624" 
d="M153 0h-154l147 667h162l-76 -344l267 344h164l-147 -667h-162l80 361zM577 777q-72 -75 -167 -75q-94 0 -135 75l72 51q21 -46 77 -46t97 46z" />
    <glyph glyph-name="afii10028" unicode="&#x41a;" horiz-adv-x="575" 
d="M527 0h-181l-86 248l-61 -74l-38 -174h-162l147 667h162l-58 -265l214 265h197l-278 -312z" />
    <glyph glyph-name="afii10029" unicode="&#x41b;" horiz-adv-x="625" 
d="M-38 -12l31 143q41 0 71.5 37t65.5 149l110 350h423l-146 -667h-162l115 526h-114l-66 -217q-30 -98 -67 -163.5t-80 -99t-85 -46t-96 -12.5z" />
    <glyph glyph-name="afii10030" unicode="&#x41c;" horiz-adv-x="761" 
d="M654 0h-161l89 403l-224 -403h-63l-45 403l-89 -403h-162l147 667h210l37 -340l191 340h217z" />
    <glyph glyph-name="afii10031" unicode="&#x41d;" horiz-adv-x="625" 
d="M517 0h-162l60 272h-194l-60 -272h-162l147 667h162l-56 -253h195l55 253h162z" />
    <glyph glyph-name="afii10032" unicode="&#x41e;" horiz-adv-x="633" 
d="M295 -12q-120 0 -192 73t-72 190q0 106 39.5 202t120 160.5t185.5 64.5q119 0 191.5 -73.5t72.5 -189.5q0 -106 -39 -202t-120 -160.5t-186 -64.5zM304 131q71 0 120.5 88.5t49.5 190.5q0 56 -29.5 90.5t-78.5 34.5q-71 0 -120 -88.5t-49 -191.5q0 -56 29 -90t78 -34z
" />
    <glyph glyph-name="afii10033" unicode="&#x41f;" horiz-adv-x="625" 
d="M517 0h-162l116 526h-194l-116 -526h-162l147 667h518z" />
    <glyph glyph-name="afii10034" unicode="&#x420;" horiz-adv-x="556" 
d="M161 0h-162l147 667h255q82 0 133.5 -53t51.5 -132q0 -45 -15 -88t-46 -81t-85 -61t-124 -23h-105zM243 370h84q39 0 65 28t26 67q0 28 -16.5 44.5t-43.5 16.5h-81z" />
    <glyph glyph-name="afii10035" unicode="&#x421;" horiz-adv-x="570" 
d="M295 -12q-118 0 -191 71.5t-73 191.5q0 109 40.5 205.5t121 159t183.5 62.5q108 0 167.5 -60t75.5 -147l-153 -40q-8 47 -33.5 75.5t-64.5 28.5q-72 0 -121.5 -88.5t-49.5 -191.5q0 -57 29 -90.5t78 -33.5q31 0 61.5 21t50.5 57l128 -68q-46 -77 -111 -115t-138 -38z" />
    <glyph glyph-name="afii10036" unicode="&#x422;" horiz-adv-x="487" 
d="M271 0h-162l116 526h-143l31 141h447l-31 -141h-143z" />
    <glyph glyph-name="afii10037" unicode="&#x423;" horiz-adv-x="557" 
d="M74 -12q-85 0 -128 39l79 129q27 -25 63 -25q26 0 44 14t37 42l13 21l-98 459h173l47 -290l173 290h180l-339 -523q-51 -79 -107 -117.5t-137 -38.5z" />
    <glyph glyph-name="afii10038" unicode="&#x424;" horiz-adv-x="785" 
d="M419 0h-161l16 71q-235 33 -235 235q0 114 97 198t258 96l16 67h161l-17 -72q236 -35 236 -236q0 -114 -97.5 -197.5t-258.5 -95.5zM621 360q0 72 -99 92l-55 -239q77 14 115.5 53t38.5 94zM208 306q0 -73 98 -92l55 238q-77 -14 -115 -53t-38 -93z" />
    <glyph glyph-name="afii10039" unicode="&#x425;" horiz-adv-x="575" 
d="M528 0h-177l-68 209l-151 -209h-193l273 350l-115 317h177l59 -196l136 196h194l-258 -334z" />
    <glyph glyph-name="afii10040" unicode="&#x426;" horiz-adv-x="637" 
d="M381 -123l27 123h-409l146 667h162l-115 -526h194l115 526h162l-115 -526h53l-59 -264h-161z" />
    <glyph glyph-name="afii10041" unicode="&#x427;" horiz-adv-x="583" 
d="M295 667l-46 -208q-20 -93 68 -93q44 0 79 12l64 289h162l-146 -667h-162l52 238q-57 -13 -106 -13q-110 0 -153.5 64.5t-20.5 169.5l46 208h163z" />
    <glyph glyph-name="afii10042" unicode="&#x428;" horiz-adv-x="876" 
d="M753 667h161l-146 -667h-769l147 667h161l-115 -526h142l115 526h162l-116 -526h142z" />
    <glyph glyph-name="afii10043" unicode="&#x429;" horiz-adv-x="888" 
d="M753 667h161l-115 -526h52l-59 -264h-161l27 123h-659l147 667h161l-115 -526h142l115 526h162l-116 -526h142z" />
    <glyph glyph-name="afii10044" unicode="&#x42a;" horiz-adv-x="665" 
d="M375 0h-266l115 526h-143l31 141h305l-50 -229h92q83 0 134 -52.5t51 -131.5q0 -45 -15 -88t-45.5 -81t-84.5 -61.5t-124 -23.5zM417 297h-82l-34 -156h83q41 0 66.5 28t25.5 68q0 28 -16 44t-43 16z" />
    <glyph glyph-name="afii10045" unicode="&#x42b;" horiz-adv-x="797" 
d="M690 0h-162l147 667h161zM145 667h162l-50 -229h93q82 0 133.5 -52.5t51.5 -131.5q0 -45 -15 -88t-45.5 -81t-84.5 -61.5t-124 -23.5h-267zM308 297h-82l-34 -156h83q40 0 66 28.5t26 67.5q0 28 -16 44t-43 16z" />
    <glyph glyph-name="afii10046" unicode="&#x42c;" horiz-adv-x="556" 
d="M145 667h162l-50 -229h93q82 0 133.5 -52.5t51.5 -131.5q0 -45 -15 -88t-45.5 -81t-84.5 -61.5t-124 -23.5h-267zM308 297h-82l-34 -156h83q40 0 66 28.5t26 67.5q0 28 -16 44t-43 16z" />
    <glyph glyph-name="afii10047" unicode="&#x42d;" horiz-adv-x="570" 
d="M313 678q118 0 191 -71.5t73 -191.5q0 -109 -40.5 -205.5t-121 -159t-183.5 -62.5q-106 0 -165 57t-77 137l152 46q8 -43 33.5 -70t65.5 -27q45 0 82.5 38t60.5 99h-228l31 141h224v2q0 57 -29 90.5t-78 33.5q-31 0 -61.5 -21t-50.5 -57l-127 68q45 77 109.5 115
t138.5 38z" />
    <glyph glyph-name="afii10048" unicode="&#x42e;" horiz-adv-x="907" 
d="M569 -12q-120 0 -192 73t-72 190v21h-84l-60 -272h-162l146 667h163l-56 -253h79q38 116 121 190t198 74q119 0 191.5 -73.5t72.5 -189.5q0 -106 -39 -202t-120 -160.5t-186 -64.5zM578 131q71 0 120.5 88.5t49.5 190.5q0 56 -29.5 90.5t-78.5 34.5q-71 0 -120 -88.5
t-49 -191.5q0 -56 29 -90t78 -34z" />
    <glyph glyph-name="afii10049" unicode="&#x42f;" horiz-adv-x="573" 
d="M167 0h-191l174 265q-31 21 -52.5 59t-21.5 89q0 45 15 88t45.5 81t85 61.5t124.5 23.5h266l-147 -667h-162l51 229h-48zM304 370h81l34 156h-83q-40 0 -66 -28.5t-26 -67.5q0 -28 16.5 -44t43.5 -16z" />
    <glyph glyph-name="afii10065" unicode="&#x430;" horiz-adv-x="516" 
d="M241 495q89 0 123 -70l13 58h144l-107 -483h-144l12 56q-51 -68 -120 -68t-108 46.5t-39 133.5q0 72 24 144.5t77.5 127.5t124.5 55zM271 367q-46 0 -76.5 -57.5t-30.5 -115.5q0 -36 19 -57t50 -21q42 0 73 45l36 161q-22 45 -71 45z" />
    <glyph glyph-name="afii10066" unicode="&#x431;" horiz-adv-x="505" 
d="M234 116q45 0 75 58t30 114q0 79 -70 79q-45 0 -75 -58t-30 -114q0 -79 70 -79zM227 -12q-101 0 -154.5 57.5t-53.5 156.5t48 206q84 182 273 223q63 13 68 36h149q-23 -103 -198 -133q-73 -12 -112 -36.5t-57 -65.5q56 60 137 60q71 0 115 -56t44 -146
q0 -115 -73 -208.5t-186 -93.5z" />
    <glyph glyph-name="afii10067" unicode="&#x432;" horiz-adv-x="519" 
d="M289 0h-295l106 483h259q63 0 99.5 -29.5t37.5 -76.5q0 -47 -30 -84.5t-82 -47.5q69 -23 71 -92q0 -63 -43.5 -108t-122.5 -45zM163 113h103q20 0 32.5 13.5t11.5 31.5q0 31 -35 31h-95zM205 302h96q19 0 30 12t11 28q0 28 -33 28h-90z" />
    <glyph glyph-name="afii10068" unicode="&#x433;" horiz-adv-x="390" 
d="M427 483l-28 -126h-182l-78 -357h-145l106 483h327z" />
    <glyph glyph-name="afii10069" unicode="&#x434;" horiz-adv-x="530" 
d="M-64 -123l51 239q19 4 31 11t29.5 35t33.5 80l78 241h362l-79 -357h49l-55 -249h-144l27 123h-213l-26 -123h-144zM261 357l-38 -123q-22 -68 -66 -108h141l50 231h-87z" />
    <glyph glyph-name="afii10070" unicode="&#x435;" horiz-adv-x="484" 
d="M235 -12q-101 0 -159.5 54t-58.5 150q0 73 30.5 141.5t91.5 115t137 46.5q89 0 140 -52t51 -143q0 -50 -15 -105h-295q-2 -10 -2 -17q0 -26 25 -51t74 -25q57 0 97 33l46 -93q-68 -54 -162 -54zM174 292h162q3 9 3 22q0 27 -19 47t-53 20q-37 0 -62 -28t-31 -61z" />
    <glyph glyph-name="afii10072" unicode="&#x436;" horiz-adv-x="674" 
d="M119 0h-176l211 266l-97 217h161l63 -164l36 164h144l-31 -140l116 140h175l-193 -217l95 -266h-162l-47 181l-26 -28l-33 -153h-144l33 152l-7 17z" />
    <glyph glyph-name="afii10073" unicode="&#x437;" horiz-adv-x="445" 
d="M262 495q92 0 139 -33t47 -90q0 -54 -43 -90.5t-99 -42.5q41 -7 67 -35.5t26 -62.5q0 -67 -65 -110t-163 -43q-61 0 -113 21t-81 56l84 81q42 -45 108 -45q40 0 64 13.5t24 37.5q0 36 -61 36h-91l25 111h87q83 0 83 47q0 36 -60 36q-77 0 -142 -49l-50 91q92 71 214 71z
" />
    <glyph glyph-name="afii10074" unicode="&#x438;" 
d="M133 0h-139l106 483h145l-52 -235l180 235h148l-106 -483h-145l54 248z" />
    <glyph glyph-name="afii10075" unicode="&#x439;" 
d="M133 0h-139l106 483h145l-52 -235l180 235h148l-106 -483h-145l54 248zM488 610q-72 -75 -167 -75q-94 0 -135 75l72 51q21 -46 77 -46t97 46z" />
    <glyph glyph-name="afii10076" unicode="&#x43a;" horiz-adv-x="485" 
d="M434 0h-166l-46 178l-59 -66l-24 -112h-145l107 483h145l-43 -189l158 189h172l-193 -217z" />
    <glyph glyph-name="afii10077" unicode="&#x43b;" 
d="M-40 -12l26 121q26 0 48.5 28t46.5 105l78 241h362l-106 -483h-145l78 357h-87l-41 -131q-40 -129 -100.5 -183.5t-159.5 -54.5z" />
    <glyph glyph-name="afii10078" unicode="&#x43c;" horiz-adv-x="638" 
d="M536 0h-143l58 267l-154 -267h-64l-36 267l-58 -267h-145l106 483h181l33 -244l142 244h186z" />
    <glyph glyph-name="afii10079" unicode="&#x43d;" 
d="M139 0h-145l109 483h144l-37 -168h130l38 168h145l-108 -483h-145l42 189h-131z" />
    <glyph glyph-name="afii10080" unicode="&#x43e;" horiz-adv-x="505" 
d="M227 -12q-101 0 -155.5 56t-54.5 149q0 115 73 208.5t186 93.5q101 0 155.5 -56t54.5 -149q0 -115 -73 -208.5t-186 -93.5zM234 116q45 0 75 58t30 114q0 79 -70 79q-45 0 -75 -58t-30 -114q0 -79 70 -79z" />
    <glyph glyph-name="afii10081" unicode="&#x43f;" 
d="M415 0h-145l80 357h-132l-79 -357h-145l108 483h421z" />
    <glyph glyph-name="afii10082" unicode="&#x440;" horiz-adv-x="515" 
d="M275 -12q-89 0 -124 70l-53 -242h-144l147 667h145l-13 -55q53 67 121 67q69 0 107.5 -46.5t38.5 -133.5q0 -52 -14.5 -108t-41.5 -105.5t-71 -81.5t-98 -32zM245 116q46 0 76 57t30 116q0 36 -19 57t-50 21q-41 0 -72 -45l-36 -161q19 -45 71 -45z" />
    <glyph glyph-name="afii10083" unicode="&#x441;" horiz-adv-x="429" 
d="M228 -12q-97 0 -154 55.5t-57 149.5q0 120 75 211t188 91q116 0 169 -74l-89 -94q-24 40 -75 40q-52 0 -86.5 -49.5t-34.5 -112.5q0 -43 25 -66t63 -23q43 0 74 34l51 -105q-59 -57 -149 -57z" />
    <glyph glyph-name="afii10084" unicode="&#x442;" horiz-adv-x="382" 
d="M210 0h-145l78 357h-104l28 126h353l-28 -126h-104z" />
    <glyph glyph-name="afii10085" unicode="&#x443;" horiz-adv-x="466" 
d="M-49 -183l46 121q12 -6 36 -6q29 0 47 28l21 36l-54 487h149l16 -309l156 309h157l-310 -555q-39 -70 -80 -97t-100 -27q-52 0 -84 13z" />
    <glyph glyph-name="afii10086" unicode="&#x444;" horiz-adv-x="750" 
d="M227 495q36 0 68 -17.5t47 -51.5l53 241h144l-53 -240q49 68 116 68q64 0 98 -49.5t34 -122.5q0 -71 -24 -146.5t-75 -132t-115 -56.5q-36 0 -68 17.5t-47 51.5l-53 -241h-144l52 240q-48 -68 -115 -68q-64 0 -98 49.5t-34 122.5q0 71 24 146.5t75 132t115 56.5zM262 367
q-41 0 -70 -59.5t-29 -119.5q0 -72 53 -72q37 0 67 44l36 161q-14 46 -57 46zM485 116q41 0 70 59.5t29 119.5q0 33 -14 52.5t-40 19.5q-37 0 -66 -44l-36 -161q14 -46 57 -46z" />
    <glyph glyph-name="afii10087" unicode="&#x445;" horiz-adv-x="454" 
d="M403 0h-152l-42 145l-107 -145h-160l193 245l-78 238h151l37 -136l97 136h160l-185 -238z" />
    <glyph glyph-name="afii10088" unicode="&#x446;" horiz-adv-x="530" 
d="M292 -123l27 123h-325l106 483h145l-79 -357h132l78 357h145l-79 -357h49l-55 -249h-144z" />
    <glyph glyph-name="afii10089" unicode="&#x447;" horiz-adv-x="509" 
d="M92 483h145l-34 -152q-14 -61 49 -61q38 0 72 17l44 196h144l-106 -483h-144l37 174q-52 -31 -128 -31q-154 0 -123 138z" />
    <glyph glyph-name="afii10090" unicode="&#x448;" horiz-adv-x="752" 
d="M611 483h144l-106 -483h-655l106 483h145l-79 -357h111l78 357h145l-78 -357h110z" />
    <glyph glyph-name="afii10091" unicode="&#x449;" horiz-adv-x="766" 
d="M611 483h144l-78 -357h49l-55 -249h-145l27 123h-559l106 483h145l-79 -357h111l78 357h145l-78 -357h110z" />
    <glyph glyph-name="afii10092" unicode="&#x44a;" horiz-adv-x="569" 
d="M337 0h-272l78 357h-104l28 126h249l-35 -159h82q77 0 122.5 -38t45.5 -101q0 -73 -52.5 -129t-141.5 -56zM340 209h-85l-20 -94h94q24 0 38 17t14 40q0 37 -41 37z" />
    <glyph glyph-name="afii10093" unicode="&#x44b;" horiz-adv-x="718" 
d="M616 0h-145l106 483h145zM100 483h145l-35 -159h82q77 0 122.5 -38t45.5 -101q0 -73 -52.5 -129t-141.5 -56h-272zM269 209h-84l-21 -94h94q24 0 38.5 17t14.5 40q0 37 -42 37z" />
    <glyph glyph-name="afii10094" unicode="&#x44c;" horiz-adv-x="498" 
d="M100 483h145l-35 -159h82q77 0 122.5 -38t45.5 -101q0 -73 -52.5 -129t-141.5 -56h-272zM269 209h-84l-21 -94h94q24 0 38.5 17t14.5 40q0 37 -42 37z" />
    <glyph glyph-name="afii10095" unicode="&#x44d;" horiz-adv-x="429" 
d="M200 495q97 0 154 -55.5t57 -149.5q0 -120 -75 -211t-188 -91q-116 0 -169 74l83 86q28 -39 78 -39q72 0 108 83h-151l22 102h144q-5 37 -29.5 58t-58.5 21q-45 0 -76 -31l-49 99q62 54 150 54z" />
    <glyph glyph-name="afii10096" unicode="&#x44e;" horiz-adv-x="734" 
d="M457 -12q-100 0 -154.5 54.5t-56.5 145.5h-66l-41 -188h-145l106 483h145l-37 -169h61q30 79 92.5 130t144.5 51q101 0 155.5 -56t54.5 -149q0 -115 -73 -208.5t-186 -93.5zM463 116q46 0 76 58t30 114q0 79 -70 79q-45 0 -75 -58t-30 -114q0 -79 69 -79z" />
    <glyph glyph-name="afii10097" unicode="&#x44f;" horiz-adv-x="514" 
d="M142 0h-164l135 187q-62 35 -62 111q0 73 52.5 129t141.5 56h275l-106 -483h-145l34 159h-60zM243 274h86l20 94h-95q-24 0 -38.5 -17t-14.5 -40q0 -37 42 -37z" />
    <glyph glyph-name="afii10071" unicode="&#x451;" horiz-adv-x="484" 
d="M506 621q0 -32 -26 -57t-59 -25q-28 0 -47 19t-19 47q0 33 25.5 58t58.5 25q29 0 48 -19t19 -48zM312 621q0 -32 -26 -57t-58 -25q-29 0 -48 19t-19 47q0 33 26 58t59 25q28 0 47 -19.5t19 -47.5zM235 -12q-101 0 -159.5 54t-58.5 150q0 73 30.5 141.5t91.5 115t137 46.5
q89 0 140 -52t51 -143q0 -50 -15 -105h-295q-2 -10 -2 -17q0 -26 25 -51t74 -25q57 0 97 33l46 -93q-68 -54 -162 -54zM174 292h162q3 9 3 22q0 27 -19 47t-53 20q-37 0 -62 -28t-31 -61z" />
    <glyph glyph-name="afii10099" unicode="&#x452;" horiz-adv-x="525" 
d="M390 526h-128l-23 -103q27 30 70 51t88 21q67 0 92.5 -35t12.5 -96l-82 -376q-19 -87 -71.5 -135.5t-137.5 -48.5q-58 0 -92 27l57 110q15 -16 40 -16q45 0 59 63l70 319q14 60 -43 60q-47 0 -86 -51l-69 -316h-145l115 526h-44l17 80h45l13 61h145l-14 -61h129z" />
    <glyph glyph-name="afii10100" unicode="&#x453;" horiz-adv-x="390" 
d="M492 700l-166 -144h-96l135 144h127zM427 483l-28 -126h-182l-78 -357h-145l106 483h327z" />
    <glyph glyph-name="afii10101" unicode="&#x454;" horiz-adv-x="429" 
d="M228 -12q-97 0 -154 55.5t-57 149.5q0 120 75 211t188 91q116 0 169 -74l-83 -86q-28 39 -78 39q-71 0 -107 -80h151l-22 -102h-146q4 -38 29 -60t60 -22q45 0 76 31l49 -99q-62 -54 -150 -54z" />
    <glyph glyph-name="afii10102" unicode="&#x455;" horiz-adv-x="424" 
d="M185 -12q-62 0 -118 22.5t-88 58.5l77 93q20 -25 58.5 -45t77.5 -20q23 0 37.5 11.5t14.5 27.5t-20.5 28.5t-49 24t-57.5 27t-49.5 43.5t-20.5 66q0 70 51 120t141 50q53 0 103.5 -19.5t83.5 -54.5l-71 -90q-16 20 -49 37t-67 17q-23 0 -37 -10.5t-14 -25.5
q0 -13 20.5 -24.5t50 -23t59 -27.5t50 -45t20.5 -67q0 -73 -55.5 -123.5t-147.5 -50.5z" />
    <glyph glyph-name="afii10103" unicode="&#x456;" horiz-adv-x="241" 
d="M192 529q-33 0 -54.5 21t-21.5 51q0 43 30 69.5t65 26.5q33 0 54.5 -20.5t21.5 -50.5q0 -43 -30 -70t-65 -27zM139 0h-145l107 483h145z" />
    <glyph glyph-name="afii10104" unicode="&#x457;" horiz-adv-x="241" 
d="M374 621q0 -32 -26 -57t-59 -25q-28 0 -47 19t-19 47q0 33 25.5 58t58.5 25q29 0 48 -19t19 -48zM180 621q0 -32 -26 -57t-58 -25q-29 0 -48 19t-19 47q0 33 26 58t59 25q28 0 47 -19.5t19 -47.5zM139 0h-145l107 483h145z" />
    <glyph glyph-name="afii10105" unicode="&#x458;" horiz-adv-x="241" 
d="M-50 -196q-77 0 -111 33l54 105q14 -17 41 -17q42 0 57 63l110 495h145l-111 -495q-19 -91 -61.5 -137.5t-123.5 -46.5zM192 529q-33 0 -54.5 21t-21.5 51q0 43 30 69.5t65 26.5q33 0 54.5 -20.5t21.5 -50.5q0 -43 -30 -70t-65 -27z" />
    <glyph glyph-name="afii10106" unicode="&#x459;" horiz-adv-x="774" 
d="M-40 -12l26 121q26 0 48.5 28t46.5 105l78 241h362l-36 -160h89q85 0 127 -42.5t34 -109.5q-7 -71 -62 -121t-142 -50h-261l78 357h-87l-41 -131q-40 -129 -100.5 -183.5t-159.5 -54.5zM544 207h-84l-20 -92h88q25 0 41 14t19 35q2 20 -9 31.5t-35 11.5z" />
    <glyph glyph-name="afii10107" unicode="&#x45a;" horiz-adv-x="767" 
d="M139 0h-145l106 483h145l-37 -166h131l37 166h145l-37 -166h90q81 0 123.5 -39.5t37.5 -104.5q-5 -71 -58.5 -122t-140.5 -51h-266l42 191h-131zM547 197h-89l-18 -82h96q22 0 35.5 14t14.5 34q1 16 -9 25t-30 9z" />
    <glyph glyph-name="afii10108" unicode="&#x45b;" horiz-adv-x="525" 
d="M422 0h-144l66 302q4 20 4 24q0 41 -51 41q-39 0 -82 -51l-69 -316h-144l116 526h-46l18 81h46l13 60h144l-14 -60h129l-18 -81h-129l-22 -102q65 71 141 71q57 0 90.5 -29t33.5 -76q0 -14 -4 -34z" />
    <glyph glyph-name="afii10109" unicode="&#x45c;" horiz-adv-x="485" 
d="M524 700l-166 -144h-96l135 144h127zM434 0h-166l-46 178l-59 -66l-24 -112h-145l107 483h145l-43 -189l158 189h172l-193 -217z" />
    <glyph glyph-name="afii10110" unicode="&#x45e;" horiz-adv-x="466" 
d="M-49 -183l46 121q12 -6 36 -6q29 0 47 28l21 36l-54 487h149l16 -309l156 309h157l-310 -555q-39 -70 -80 -97t-100 -27q-52 0 -84 13zM459 610q-72 -75 -167 -75q-94 0 -135 75l72 51q21 -46 77 -46t97 46z" />
    <glyph glyph-name="afii10193" unicode="&#x45f;" 
d="M105 -124l27 124h-138l106 483h145l-79 -357h132l78 357h145l-106 -483h-139l-27 -124h-144z" />
    <glyph glyph-name="afii10050" unicode="&#x490;" horiz-adv-x="485" 
d="M161 0h-162l146 667h240l27 124h162l-58 -265h-240z" />
    <glyph glyph-name="afii10098" unicode="&#x491;" horiz-adv-x="390" 
d="M217 357l-78 -357h-145l106 483h183l27 124h145l-56 -250h-182z" />
    <glyph glyph-name="uni1E02" unicode="&#x1e02;" horiz-adv-x="579" 
d="M323 0h-324l147 667h269q85 0 131.5 -45t46.5 -111t-42.5 -119t-103.5 -60q43 -11 66 -47t23 -81q0 -81 -54 -142.5t-159 -61.5zM251 408h102q33 0 50.5 21.5t17.5 50.5q0 22 -14 35t-39 13h-90zM298 139q34 0 55 22.5t21 55.5q0 24 -14 38t-39 14h-101l-28 -130h106z
M485 789q0 -33 -26 -58t-59 -25q-28 0 -47 19t-19 47q0 33 26 58t59 25q28 0 47 -19t19 -47z" />
    <glyph glyph-name="uni1E03" unicode="&#x1e03;" horiz-adv-x="516" 
d="M275 -12q-89 0 -124 70l-12 -58h-144l146 667h145l-53 -239q53 67 121 67q69 0 107.5 -46.5t38.5 -133.5q0 -52 -14.5 -108t-41.5 -105.5t-71 -81.5t-98 -32zM245 116q46 0 76 57t30 116q0 36 -19 57t-50 21q-41 0 -72 -45l-36 -161q19 -45 71 -45zM460 789
q0 -33 -26 -58t-59 -25q-29 0 -47.5 19t-18.5 47q0 33 26 58t59 25q28 0 47 -19t19 -47z" />
    <glyph glyph-name="uni1E0A" unicode="&#x1e0a;" horiz-adv-x="613" 
d="M233 0h-234l147 667h229q96 0 168 -70.5t72 -185.5q0 -57 -11.5 -112t-40 -110t-71 -96t-109.5 -67t-150 -26zM192 141h69q87 0 137.5 81.5t50.5 180.5q0 56 -29 89.5t-75 33.5h-68zM507 789q0 -33 -26 -58t-59 -25q-28 0 -47 19t-19 47q0 33 26 58t59 25q28 0 47 -19
t19 -47z" />
    <glyph glyph-name="uni1E0B" unicode="&#x1e0b;" horiz-adv-x="516" 
d="M241 495q89 0 123 -70l54 242h144l-148 -667h-144l12 56q-51 -68 -120 -68t-108 46.5t-39 133.5q0 72 24 144.5t77.5 127.5t124.5 55zM271 367q-46 0 -76.5 -57.5t-30.5 -115.5q0 -36 19 -57t50 -21q42 0 73 45l36 161q-22 45 -71 45zM448 789q0 -33 -26 -58t-59 -25
q-29 0 -47.5 19t-18.5 47q0 33 26 58t59 25q28 0 47 -19t19 -47z" />
    <glyph glyph-name="uni1E1E" unicode="&#x1e1e;" horiz-adv-x="485" 
d="M448 789q0 -33 -26 -58t-59 -25q-29 0 -47.5 19t-18.5 47q0 33 26 58t59 25q28 0 47 -19t19 -47zM161 0h-162l147 667h402l-32 -141h-239l-25 -117h232l-31 -141h-233z" />
    <glyph glyph-name="uni1E1F" unicode="&#x1e1f;" horiz-adv-x="306" 
d="M405 789q0 -33 -26 -58t-59 -25q-28 0 -47 19t-19 47q0 33 26 58t59 25q28 0 47 -19t19 -47zM164 0h-145l79 358h-62l29 125h61l6 30q36 164 178 164q81 0 121 -40l-62 -93q-16 17 -41 17q-40 0 -52 -49l-6 -29h79l-29 -125h-78z" />
    <glyph glyph-name="uni1E22" unicode="&#x1e22;" horiz-adv-x="625" 
d="M517 0h-162l60 272h-194l-60 -272h-162l147 667h162l-56 -253h195l55 253h162zM507 789q0 -33 -26 -58t-59 -25q-28 0 -47 19t-19 47q0 33 26 58t59 25q28 0 47 -19t19 -47z" />
    <glyph glyph-name="uni1E23" unicode="&#x1e23;" horiz-adv-x="518" 
d="M415 0h-144l66 302q4 20 4 24q0 41 -51 41q-39 0 -82 -51l-69 -316h-144l147 667h144l-54 -243q65 71 141 71q57 0 90.5 -29t33.5 -76q0 -14 -4 -34zM455 789q0 -33 -26 -58t-59 -25q-28 0 -47 19t-19 47q0 33 26 58t59 25q28 0 47 -19t19 -47z" />
    <glyph glyph-name="uni1E56" unicode="&#x1e56;" horiz-adv-x="556" 
d="M161 0h-162l147 667h255q82 0 133.5 -53t51.5 -132q0 -45 -15 -88t-46 -81t-85 -61t-124 -23h-105zM243 370h84q39 0 65 28t26 67q0 28 -16.5 44.5t-43.5 16.5h-81zM484 789q0 -33 -26 -58t-59 -25q-29 0 -47.5 19t-18.5 47q0 33 26 58t59 25q28 0 47 -19t19 -47z" />
    <glyph glyph-name="uni1E57" unicode="&#x1e57;" horiz-adv-x="515" 
d="M275 -12q-89 0 -124 70l-53 -242h-144l147 667h145l-13 -55q53 67 121 67q69 0 107.5 -46.5t38.5 -133.5q0 -52 -14.5 -108t-41.5 -105.5t-71 -81.5t-98 -32zM245 116q46 0 76 57t30 116q0 36 -19 57t-50 21q-41 0 -72 -45l-36 -161q19 -45 71 -45zM424 622
q0 -33 -26 -58t-59 -25q-29 0 -47.5 18.5t-18.5 47.5q0 33 26 58t59 25q28 0 47 -19t19 -47z" />
    <glyph glyph-name="uni1E60" unicode="&#x1e60;" horiz-adv-x="511" 
d="M237 -12q-81 0 -149.5 28.5t-104.5 75.5l94 117q26 -36 71.5 -58t94.5 -22q33 0 52 18t19 44q0 20 -24.5 38.5t-60 36.5t-71 40.5t-60 59.5t-24.5 84q0 93 69 160.5t179 67.5q64 0 124 -23.5t99 -66.5l-92 -116q-27 31 -66.5 48t-79.5 17q-28 0 -45 -16t-17 -39
q0 -19 24.5 -38t59.5 -37t70.5 -41t60 -60t24.5 -84q0 -99 -68 -166.5t-179 -67.5zM455 789q0 -33 -26 -58t-59 -25q-28 0 -47 19t-19 47q0 33 26 58t59 25q28 0 47 -19t19 -47z" />
    <glyph glyph-name="uni1E61" unicode="&#x1e61;" horiz-adv-x="424" 
d="M185 -12q-62 0 -118 22.5t-88 58.5l77 93q20 -25 58.5 -45t77.5 -20q23 0 37.5 11.5t14.5 27.5t-20.5 28.5t-49 24t-57.5 27t-49.5 43.5t-20.5 66q0 70 51 120t141 50q53 0 103.5 -19.5t83.5 -54.5l-71 -90q-16 20 -49 37t-67 17q-23 0 -37 -10.5t-14 -25.5
q0 -13 20.5 -24.5t50 -23t59 -27.5t50 -45t20.5 -67q0 -73 -55.5 -123.5t-147.5 -50.5zM374 622q0 -33 -26 -58t-59 -25q-29 0 -47.5 18.5t-18.5 47.5q0 33 26 58t59 25q28 0 47 -19t19 -47z" />
    <glyph glyph-name="uni1E6A" unicode="&#x1e6a;" horiz-adv-x="487" 
d="M271 0h-162l116 526h-143l31 141h447l-31 -141h-143zM438 789q0 -33 -26 -58t-59 -25q-29 0 -47.5 19t-18.5 47q0 33 26 58t59 25q28 0 47 -19t19 -47z" />
    <glyph glyph-name="uni1E6B" unicode="&#x1e6b;" horiz-adv-x="315" 
d="M186 -12q-68 0 -105.5 26t-37.5 78q0 19 4 40l50 226h-62l29 125h61l29 132h145l-29 -132h78l-28 -125h-78l-42 -188q-3 -21 -3 -22q0 -32 36 -32q14 0 26 7v-118q-25 -17 -73 -17zM339 789q0 -33 -26 -58t-59 -25q-28 0 -47 19t-19 47q0 33 26 58t59 25q28 0 47 -19
t19 -47z" />
    <glyph glyph-name="Wgrave" unicode="&#x1e80;" horiz-adv-x="793" 
d="M584 0h-167l14 403l-163 -403h-167l-7 667h170l-20 -425l180 425h124l-7 -425l167 425h177zM555 723h-94l-102 144h125z" />
    <glyph glyph-name="wgrave" unicode="&#x1e81;" horiz-adv-x="714" 
d="M534 0h-154l-12 299l-142 -299h-154l-21 483h144v-299l143 299h132l13 -299l133 299h154zM477 556h-94l-102 144h125z" />
    <glyph glyph-name="Wacute" unicode="&#x1e82;" horiz-adv-x="793" 
d="M699 867l-166 -144h-96l135 144h127zM584 0h-167l14 403l-163 -403h-167l-7 667h170l-20 -425l180 425h124l-7 -425l167 425h177z" />
    <glyph glyph-name="wacute" unicode="&#x1e83;" horiz-adv-x="714" 
d="M622 700l-166 -144h-96l135 144h127zM534 0h-154l-12 299l-142 -299h-154l-21 483h144v-299l143 299h132l13 -299l133 299h154z" />
    <glyph glyph-name="Wdieresis" unicode="&#x1e84;" horiz-adv-x="793" 
d="M682 788q0 -32 -26 -57t-59 -25q-28 0 -47 19t-19 47q0 33 25.5 58t58.5 25q29 0 48 -19.5t19 -47.5zM488 788q0 -32 -26 -57t-58 -25q-29 0 -48 19t-19 47q0 33 26 58t59 25q28 0 47 -19.5t19 -47.5zM584 0h-167l14 403l-163 -403h-167l-7 667h170l-20 -425l180 425h124
l-7 -425l167 425h177z" />
    <glyph glyph-name="wdieresis" unicode="&#x1e85;" horiz-adv-x="714" 
d="M605 621q0 -32 -26 -57t-59 -25q-28 0 -47 19t-19 47q0 33 25.5 58t58.5 25q28 0 47.5 -19t19.5 -48zM411 621q0 -32 -26 -57t-58 -25q-29 0 -48 19t-19 47q0 33 26 58t59 25q28 0 47 -19.5t19 -47.5zM534 0h-154l-12 299l-142 -299h-154l-21 483h144v-299l143 299h132
l13 -299l133 299h154z" />
    <glyph glyph-name="uni1EA0" unicode="&#x1ea0;" horiz-adv-x="575" 
d="M528 0h-169l-2 102h-190l-47 -102h-181l344 667h195zM356 243l-6 256l-119 -256h125zM284 -117q0 -33 -26 -58t-59 -25q-29 0 -47.5 19t-18.5 47q0 33 26 58t59 25q28 0 47 -19t19 -47z" />
    <glyph glyph-name="uni1EA1" unicode="&#x1ea1;" horiz-adv-x="516" 
d="M241 495q89 0 123 -70l13 58h144l-107 -483h-144l12 56q-51 -68 -120 -68t-108 46.5t-39 133.5q0 72 24 144.5t77.5 127.5t124.5 55zM271 367q-46 0 -76.5 -57.5t-30.5 -115.5q0 -36 19 -57t50 -21q42 0 73 45l36 161q-22 45 -71 45zM248 -117q0 -33 -26 -58t-59 -25
q-29 0 -47.5 19t-18.5 47q0 33 26 58t59 25q28 0 47 -19t19 -47z" />
    <glyph glyph-name="uni1EA2" unicode="&#x1ea2;" horiz-adv-x="575" 
d="M528 0h-169l-2 102h-190l-47 -102h-181l344 667h195zM356 243l-6 256l-119 -256h125zM375 753l-45 18q24 49 77 49q29 0 49 -15.5t20 -44.5q0 -32 -25 -63h-58q26 27 27 53q3 24 -19 24q-15 0 -26 -21z" />
    <glyph glyph-name="uni1EA3" unicode="&#x1ea3;" horiz-adv-x="516" 
d="M241 495q89 0 123 -70l13 58h144l-107 -483h-144l12 56q-51 -68 -120 -68t-108 46.5t-39 133.5q0 72 24 144.5t77.5 127.5t124.5 55zM271 367q-46 0 -76.5 -57.5t-30.5 -115.5q0 -36 19 -57t50 -21q42 0 73 45l36 161q-22 45 -71 45zM304 583l-45 18q25 49 77 49
q29 0 49 -15.5t20 -44.5q0 -32 -25 -63h-58q26 27 27 53q3 24 -19 24q-16 0 -26 -21z" />
    <glyph glyph-name="uni1EA4" unicode="&#x1ea4;" horiz-adv-x="575" 
d="M520 682h-80l-42 62l-75 -62h-84l107 108h128zM528 0h-169l-2 102h-190l-47 -102h-181l344 667h195zM356 243l-6 256l-119 -256h125zM765 843l-166 -108h-96l135 108h127z" />
    <glyph glyph-name="uni1EA5" unicode="&#x1ea5;" horiz-adv-x="516" 
d="M241 495q89 0 123 -70l13 58h144l-107 -483h-144l12 56q-51 -68 -120 -68t-108 46.5t-39 133.5q0 72 24 144.5t77.5 127.5t124.5 55zM271 367q-46 0 -76.5 -57.5t-30.5 -115.5q0 -36 19 -57t50 -21q42 0 73 45l36 161q-22 45 -71 45zM463 556h-80l-42 83l-75 -83h-84
l107 144h128zM708 770l-166 -144h-96l135 144h127z" />
    <glyph glyph-name="uni1EA6" unicode="&#x1ea6;" horiz-adv-x="575" 
d="M520 682h-80l-42 62l-75 -62h-84l107 108h128zM528 0h-169l-2 102h-190l-47 -102h-181l344 667h195zM356 243l-6 256l-119 -256h125zM284 735h-94l-102 108h125z" />
    <glyph glyph-name="uni1EA7" unicode="&#x1ea7;" horiz-adv-x="516" 
d="M241 495q89 0 123 -70l13 58h144l-107 -483h-144l12 56q-51 -68 -120 -68t-108 46.5t-39 133.5q0 72 24 144.5t77.5 127.5t124.5 55zM271 367q-46 0 -76.5 -57.5t-30.5 -115.5q0 -36 19 -57t50 -21q42 0 73 45l36 161q-22 45 -71 45zM463 556h-80l-42 83l-75 -83h-84
l107 144h128zM228 626h-94l-102 144h125z" />
    <glyph glyph-name="uni1EA8" unicode="&#x1ea8;" horiz-adv-x="575" 
d="M520 682h-80l-42 62l-75 -62h-84l107 108h128zM528 0h-169l-2 102h-190l-47 -102h-181l344 667h195zM356 243l-6 256l-119 -256h125zM490 798l-45 14q25 36 77 36q29 0 49 -11.5t20 -33.5q0 -24 -25 -47h-58q26 21 27 40q2 8 -3.5 13t-15.5 5q-16 0 -26 -16z" />
    <glyph glyph-name="uni1EA9" unicode="&#x1ea9;" horiz-adv-x="516" 
d="M241 495q89 0 123 -70l13 58h144l-107 -483h-144l12 56q-51 -68 -120 -68t-108 46.5t-39 133.5q0 72 24 144.5t77.5 127.5t124.5 55zM271 367q-46 0 -76.5 -57.5t-30.5 -115.5q0 -36 19 -57t50 -21q42 0 73 45l36 161q-22 45 -71 45zM463 556h-80l-42 83l-75 -83h-84
l107 144h128zM426 723l-45 18q25 49 77 49q29 0 49 -15.5t20 -44.5q0 -32 -25 -63h-58q26 27 27 53q3 24 -19 24q-16 0 -26 -21z" />
    <glyph glyph-name="uni1EAA" unicode="&#x1eaa;" horiz-adv-x="575" 
d="M517 679h-80l-42 41l-75 -41h-84l107 72h128zM528 0h-169l-2 102h-190l-47 -102h-181l344 667h195zM356 243l-6 256l-119 -256h125zM460 758q-36 0 -61.5 14.5t-41.5 14.5q-24 0 -36 -26h-74q27 67 117 67q36 0 62 -15t42 -15q22 0 35 27h74q-29 -67 -117 -67z" />
    <glyph glyph-name="uni1EAB" unicode="&#x1eab;" horiz-adv-x="516" 
d="M241 495q89 0 123 -70l13 58h144l-107 -483h-144l12 56q-51 -68 -120 -68t-108 46.5t-39 133.5q0 72 24 144.5t77.5 127.5t124.5 55zM271 367q-46 0 -76.5 -57.5t-30.5 -115.5q0 -36 19 -57t50 -21q42 0 73 45l36 161q-22 45 -71 45zM456 523h-80l-42 83l-75 -83h-84
l107 144h128zM415 682q-28 0 -45.5 15t-30 29.5t-27.5 14.5q-25 0 -36 -53h-74q27 134 117 134q28 0 45.5 -15t30 -30t28.5 -15q22 0 35 54h74q-29 -134 -117 -134z" />
    <glyph glyph-name="uni1EAC" unicode="&#x1eac;" horiz-adv-x="575" 
d="M528 0h-169l-2 102h-190l-47 -102h-181l344 667h195zM356 243l-6 256l-119 -256h125zM534 723h-80l-42 83l-75 -83h-84l107 144h128zM282 -117q0 -33 -26 -58t-59 -25q-29 0 -47.5 19t-18.5 47q0 33 26 58t59 25q28 0 47 -19t19 -47z" />
    <glyph glyph-name="uni1EAD" unicode="&#x1ead;" horiz-adv-x="516" 
d="M241 495q89 0 123 -70l13 58h144l-107 -483h-144l12 56q-51 -68 -120 -68t-108 46.5t-39 133.5q0 72 24 144.5t77.5 127.5t124.5 55zM271 367q-46 0 -76.5 -57.5t-30.5 -115.5q0 -36 19 -57t50 -21q42 0 73 45l36 161q-22 45 -71 45zM463 556h-80l-42 83l-75 -83h-84
l107 144h128zM248 -117q0 -33 -26 -58t-59 -25q-29 0 -47.5 19t-18.5 47q0 33 26 58t59 25q28 0 47 -19t19 -47z" />
    <glyph glyph-name="uni1EAE" unicode="&#x1eae;" horiz-adv-x="575" 
d="M528 0h-169l-2 102h-190l-47 -102h-181l344 667h195zM356 243l-6 256l-119 -256h125zM592 830l-166 -80h-96l135 80h127zM542 724q-72 -46 -167 -46q-94 0 -135 46l72 32q21 -29 77 -29q55 0 97 29z" />
    <glyph glyph-name="uni1EAF" unicode="&#x1eaf;" horiz-adv-x="516" 
d="M241 495q89 0 123 -70l13 58h144l-107 -483h-144l12 56q-51 -68 -120 -68t-108 46.5t-39 133.5q0 72 24 144.5t77.5 127.5t124.5 55zM271 367q-46 0 -76.5 -57.5t-30.5 -115.5q0 -36 19 -57t50 -21q42 0 73 45l36 161q-22 45 -71 45zM536 782l-166 -144h-96l135 144h127z
M479 588q-72 -75 -167 -75q-94 0 -135 75l72 51q21 -46 77 -46t97 46z" />
    <glyph glyph-name="uni1EB0" unicode="&#x1eb0;" horiz-adv-x="575" 
d="M528 0h-169l-2 102h-190l-47 -102h-181l344 667h195zM356 243l-6 256l-119 -256h125zM465 751h-94l-102 80h125zM546 724q-72 -46 -167 -46q-94 0 -135 46l72 32q21 -29 77 -29q55 0 97 29z" />
    <glyph glyph-name="uni1EB1" unicode="&#x1eb1;" horiz-adv-x="516" 
d="M241 495q89 0 123 -70l13 58h144l-107 -483h-144l12 56q-51 -68 -120 -68t-108 46.5t-39 133.5q0 72 24 144.5t77.5 127.5t124.5 55zM271 367q-46 0 -76.5 -57.5t-30.5 -115.5q0 -36 19 -57t50 -21q42 0 73 45l36 161q-22 45 -71 45zM401 640h-94l-102 144h125zM479 589
q-72 -75 -167 -75q-94 0 -135 75l72 51q21 -46 77 -46t97 46z" />
    <glyph glyph-name="uni1EB2" unicode="&#x1eb2;" horiz-adv-x="575" 
d="M528 0h-169l-2 102h-190l-47 -102h-181l344 667h195zM356 243l-6 256l-119 -256h125zM383 781l-45 10q25 28 77 28q29 0 49 -9t20 -25q0 -18 -25 -35h-58q26 16 27 30q2 5 -3.5 9t-15.5 4q-15 0 -26 -12zM546 724q-72 -46 -167 -46q-94 0 -135 46l72 32q21 -29 77 -29
q55 0 97 29z" />
    <glyph glyph-name="uni1EB3" unicode="&#x1eb3;" horiz-adv-x="516" 
d="M241 495q89 0 123 -70l13 58h144l-107 -483h-144l12 56q-51 -68 -120 -68t-108 46.5t-39 133.5q0 72 24 144.5t77.5 127.5t124.5 55zM271 367q-46 0 -76.5 -57.5t-30.5 -115.5q0 -36 19 -57t50 -21q42 0 73 45l36 161q-22 45 -71 45zM324 702l-45 18q25 49 77 49
q29 0 49 -15.5t20 -44.5q0 -32 -25 -63h-58q26 27 27 53q3 24 -19 24q-16 0 -26 -21zM479 589q-72 -75 -167 -75q-94 0 -135 75l72 51q21 -46 77 -46t97 46z" />
    <glyph glyph-name="uni1EB4" unicode="&#x1eb4;" horiz-adv-x="575" 
d="M528 0h-169l-2 102h-190l-47 -102h-181l344 667h195zM356 243l-6 256l-119 -256h125zM544 720q-72 -41 -167 -41q-94 0 -135 41l72 28q22 -25 77 -25q56 0 97 25zM459 759q-36 0 -61.5 14.5t-41.5 14.5q-24 0 -36 -26h-74q27 67 117 67q36 0 62 -15t42 -15q22 0 35 27h74
q-29 -67 -117 -67z" />
    <glyph glyph-name="uni1EB5" unicode="&#x1eb5;" horiz-adv-x="516" 
d="M241 495q89 0 123 -70l13 58h144l-107 -483h-144l12 56q-51 -68 -120 -68t-108 46.5t-39 133.5q0 72 24 144.5t77.5 127.5t124.5 55zM271 367q-46 0 -76.5 -57.5t-30.5 -115.5q0 -36 19 -57t50 -21q42 0 73 45l36 161q-22 45 -71 45zM479 589q-72 -75 -167 -75
q-94 0 -135 75l72 51q21 -46 77 -46t97 46zM409 659q-22 0 -38 9t-23.5 20.5t-18.5 20.5t-23 9q-25 0 -36 -53h-74q27 134 117 134q28 0 45.5 -15t30 -30t28.5 -15q22 0 35 54h74q-29 -134 -117 -134z" />
    <glyph glyph-name="uni1EB6" unicode="&#x1eb6;" horiz-adv-x="575" 
d="M528 0h-169l-2 102h-190l-47 -102h-181l344 667h195zM356 243l-6 256l-119 -256h125zM284 -117q0 -33 -26 -58t-59 -25q-29 0 -47.5 19t-18.5 47q0 33 26 58t59 25q28 0 47 -19t19 -47zM553 777q-72 -75 -167 -75q-94 0 -135 75l72 51q21 -46 77 -46t97 46z" />
    <glyph glyph-name="uni1EB7" unicode="&#x1eb7;" horiz-adv-x="516" 
d="M241 495q89 0 123 -70l13 58h144l-107 -483h-144l12 56q-51 -68 -120 -68t-108 46.5t-39 133.5q0 72 24 144.5t77.5 127.5t124.5 55zM271 367q-46 0 -76.5 -57.5t-30.5 -115.5q0 -36 19 -57t50 -21q42 0 73 45l36 161q-22 45 -71 45zM247 -117q0 -33 -26 -58t-59 -25
q-28 0 -47 19t-19 47q0 33 26 58t59 25q28 0 47 -19t19 -47zM483 610q-72 -75 -167 -75q-94 0 -135 75l72 51q21 -46 77 -46t97 46z" />
    <glyph glyph-name="uni1EB8" unicode="&#x1eb8;" horiz-adv-x="491" 
d="M401 0h-402l147 667h402l-32 -141h-239l-25 -117h232l-31 -141h-233l-28 -127h240zM247 -117q0 -33 -26 -58t-59 -25q-28 0 -47 19t-19 47q0 33 26 58t59 25q28 0 47 -19t19 -47z" />
    <glyph glyph-name="uni1EB9" unicode="&#x1eb9;" horiz-adv-x="484" 
d="M235 -12q-101 0 -159.5 54t-58.5 150q0 73 30.5 141.5t91.5 115t137 46.5q89 0 140 -52t51 -143q0 -50 -15 -105h-295q-2 -10 -2 -17q0 -26 25 -51t74 -25q57 0 97 33l46 -93q-68 -54 -162 -54zM174 292h162q3 9 3 22q0 27 -19 47t-53 20q-37 0 -62 -28t-31 -61z
M248 -117q0 -33 -26 -58t-59 -25q-29 0 -47.5 19t-18.5 47q0 33 26 58t59 25q28 0 47 -19t19 -47z" />
    <glyph glyph-name="uni1EBA" unicode="&#x1eba;" horiz-adv-x="491" 
d="M401 0h-402l147 667h402l-32 -141h-239l-25 -117h232l-31 -141h-233l-28 -127h240zM340 753l-45 18q25 49 77 49q29 0 49 -15.5t20 -44.5q0 -32 -25 -63h-58q26 27 27 53q3 24 -19 24q-16 0 -26 -21z" />
    <glyph glyph-name="uni1EBB" unicode="&#x1ebb;" horiz-adv-x="484" 
d="M235 -12q-101 0 -159.5 54t-58.5 150q0 73 30.5 141.5t91.5 115t137 46.5q89 0 140 -52t51 -143q0 -50 -15 -105h-295q-2 -10 -2 -17q0 -26 25 -51t74 -25q57 0 97 33l46 -93q-68 -54 -162 -54zM174 292h162q3 9 3 22q0 27 -19 47t-53 20q-37 0 -62 -28t-31 -61zM303 583
l-45 18q24 49 77 49q29 0 49 -15.5t20 -44.5q0 -32 -25 -63h-58q26 27 27 53q3 24 -19 24q-15 0 -26 -21z" />
    <glyph glyph-name="uni1EBC" unicode="&#x1ebc;" horiz-adv-x="491" 
d="M401 0h-402l147 667h402l-32 -141h-239l-25 -117h232l-31 -141h-233l-28 -127h240zM423 721q-22 0 -38 9t-23.5 20.5t-18.5 20.5t-23 9q-25 0 -36 -53h-74q27 134 117 134q28 0 45.5 -15t30 -30t28.5 -15q22 0 35 54h74q-29 -134 -117 -134z" />
    <glyph glyph-name="uni1EBD" unicode="&#x1ebd;" horiz-adv-x="484" 
d="M235 -12q-101 0 -159.5 54t-58.5 150q0 73 30.5 141.5t91.5 115t137 46.5q89 0 140 -52t51 -143q0 -50 -15 -105h-295q-2 -10 -2 -17q0 -26 25 -51t74 -25q57 0 97 33l46 -93q-68 -54 -162 -54zM174 292h162q3 9 3 22q0 27 -19 47t-53 20q-37 0 -62 -28t-31 -61zM387 554
q-28 0 -45.5 15t-30 29.5t-27.5 14.5q-25 0 -36 -53h-74q27 134 117 134q28 0 45.5 -15t30 -30t28.5 -15q22 0 35 54h74q-29 -134 -117 -134z" />
    <glyph glyph-name="uni1EBE" unicode="&#x1ebe;" horiz-adv-x="491" 
d="M486 682h-80l-42 62l-75 -62h-84l107 108h128zM732 843l-166 -108h-96l135 108h127zM401 0h-402l147 667h402l-32 -141h-239l-25 -117h232l-31 -141h-233l-28 -127h240z" />
    <glyph glyph-name="uni1EBF" unicode="&#x1ebf;" horiz-adv-x="484" 
d="M463 556h-80l-42 83l-75 -83h-84l107 144h128zM707 770l-166 -144h-96l135 144h127zM235 -12q-101 0 -159.5 54t-58.5 150q0 73 30.5 141.5t91.5 115t137 46.5q89 0 140 -52t51 -143q0 -50 -15 -105h-295q-2 -10 -2 -17q0 -26 25 -51t74 -25q57 0 97 33l46 -93
q-68 -54 -162 -54zM174 292h162q3 9 3 22q0 27 -19 47t-53 20q-37 0 -62 -28t-31 -61z" />
    <glyph glyph-name="uni1EC0" unicode="&#x1ec0;" horiz-adv-x="491" 
d="M487 682h-80l-42 62l-75 -62h-84l107 108h128zM401 0h-402l147 667h402l-32 -141h-239l-25 -117h232l-31 -141h-233l-28 -127h240zM250 735h-94l-102 108h125z" />
    <glyph glyph-name="uni1EC1" unicode="&#x1ec1;" horiz-adv-x="484" 
d="M464 556h-80l-42 83l-75 -83h-84l107 144h128zM235 -12q-101 0 -159.5 54t-58.5 150q0 73 30.5 141.5t91.5 115t137 46.5q89 0 140 -52t51 -143q0 -50 -15 -105h-295q-2 -10 -2 -17q0 -26 25 -51t74 -25q57 0 97 33l46 -93q-68 -54 -162 -54zM174 292h162q3 9 3 22
q0 27 -19 47t-53 20q-37 0 -62 -28t-31 -61zM229 626h-94l-102 144h125z" />
    <glyph glyph-name="uni1EC2" unicode="&#x1ec2;" horiz-adv-x="491" 
d="M486 682h-80l-42 62l-75 -62h-84l107 108h128zM401 0h-402l147 667h402l-32 -141h-239l-25 -117h232l-31 -141h-233l-28 -127h240zM456 798l-45 14q25 36 77 36q29 0 49 -11.5t20 -33.5q0 -24 -25 -47h-58q26 21 27 40q2 8 -3.5 13t-15.5 5q-16 0 -26 -16z" />
    <glyph glyph-name="uni1EC3" unicode="&#x1ec3;" horiz-adv-x="484" 
d="M464 556h-80l-42 83l-75 -83h-84l107 144h128zM235 -12q-101 0 -159.5 54t-58.5 150q0 73 30.5 141.5t91.5 115t137 46.5q89 0 140 -52t51 -143q0 -50 -15 -105h-295q-2 -10 -2 -17q0 -26 25 -51t74 -25q57 0 97 33l46 -93q-68 -54 -162 -54zM174 292h162q3 9 3 22
q0 27 -19 47t-53 20q-37 0 -62 -28t-31 -61zM427 723l-45 18q24 49 77 49q29 0 49 -15.5t20 -44.5q0 -32 -25 -63h-58q26 27 27 53q3 24 -19 24q-15 0 -26 -21z" />
    <glyph glyph-name="uni1EC4" unicode="&#x1ec4;" horiz-adv-x="491" 
d="M483 678h-80l-42 41l-75 -41h-84l107 72h128zM401 0h-402l147 667h402l-32 -141h-239l-25 -117h232l-31 -141h-233l-28 -127h240zM424 757q-36 0 -61.5 14.5t-41.5 14.5q-24 0 -36 -26h-74q27 67 117 67q36 0 62 -15t42 -15q22 0 35 27h74q-29 -67 -117 -67z" />
    <glyph glyph-name="uni1EC5" unicode="&#x1ec5;" horiz-adv-x="484" 
d="M457 523h-80l-42 83l-75 -83h-84l107 144h128zM235 -12q-101 0 -159.5 54t-58.5 150q0 73 30.5 141.5t91.5 115t137 46.5q89 0 140 -52t51 -143q0 -50 -15 -105h-295q-2 -10 -2 -17q0 -26 25 -51t74 -25q57 0 97 33l46 -93q-68 -54 -162 -54zM174 292h162q3 9 3 22
q0 27 -19 47t-53 20q-37 0 -62 -28t-31 -61zM415 682q-28 0 -45.5 15t-30 29.5t-27.5 14.5q-25 0 -36 -53h-74q27 134 117 134q28 0 45.5 -15t30 -30t28.5 -15q22 0 35 54h74q-29 -134 -117 -134z" />
    <glyph glyph-name="uni1EC6" unicode="&#x1ec6;" horiz-adv-x="491" 
d="M500 723h-80l-42 83l-75 -83h-84l107 144h128zM401 0h-402l147 667h402l-32 -141h-239l-25 -117h232l-31 -141h-233l-28 -127h240zM249 -117q0 -33 -26 -58t-59 -25q-28 0 -47 19t-19 47q0 33 26 58t59 25q28 0 47 -19t19 -47z" />
    <glyph glyph-name="uni1EC7" unicode="&#x1ec7;" horiz-adv-x="484" 
d="M464 556h-80l-42 83l-75 -83h-84l107 144h128zM235 -12q-101 0 -159.5 54t-58.5 150q0 73 30.5 141.5t91.5 115t137 46.5q89 0 140 -52t51 -143q0 -50 -15 -105h-295q-2 -10 -2 -17q0 -26 25 -51t74 -25q57 0 97 33l46 -93q-68 -54 -162 -54zM174 292h162q3 9 3 22
q0 27 -19 47t-53 20q-37 0 -62 -28t-31 -61zM248 -117q0 -33 -26 -58t-59 -25q-29 0 -47.5 19t-18.5 47q0 33 26 58t59 25q28 0 47 -19t19 -47z" />
    <glyph glyph-name="uni1EC8" unicode="&#x1ec8;" horiz-adv-x="268" 
d="M161 0h-162l147 667h162zM220 753l-45 18q25 49 77 49q29 0 49 -15.5t20 -44.5q0 -32 -25 -63h-58q26 27 27 53q3 24 -19 24q-16 0 -26 -21z" />
    <glyph glyph-name="uni1EC9" unicode="&#x1ec9;" horiz-adv-x="241" 
d="M139 0h-145l107 483h145zM169 583l-45 18q24 49 77 49q29 0 49 -15.5t20 -44.5q0 -32 -25 -63h-58q26 27 27 53q3 24 -19 24q-15 0 -26 -21z" />
    <glyph glyph-name="uni1ECA" unicode="&#x1eca;" horiz-adv-x="268" 
d="M161 0h-162l147 667h162zM127 -117q0 -33 -26 -58t-59 -25q-28 0 -47 19t-19 47q0 33 26 58t59 25q28 0 47 -19t19 -47z" />
    <glyph glyph-name="uni1ECB" unicode="&#x1ecb;" horiz-adv-x="241" 
d="M192 529q-33 0 -54.5 21t-21.5 51q0 43 30 69.5t65 26.5q33 0 54.5 -20.5t21.5 -50.5q0 -43 -30 -70t-65 -27zM139 0h-145l107 483h145zM115 -117q0 -33 -26 -58t-59 -25q-28 0 -47 19t-19 47q0 33 26 58t59 25q28 0 47 -19t19 -47z" />
    <glyph glyph-name="uni1ECC" unicode="&#x1ecc;" horiz-adv-x="633" 
d="M295 -12q-120 0 -192 73t-72 190q0 106 39.5 202t120 160.5t185.5 64.5q119 0 191.5 -73.5t72.5 -189.5q0 -106 -39 -202t-120 -160.5t-186 -64.5zM304 131q71 0 120.5 88.5t49.5 190.5q0 56 -29.5 90.5t-78.5 34.5q-71 0 -120 -88.5t-49 -191.5q0 -56 29 -90t78 -34z
M309 -117q0 -33 -26 -58t-59 -25q-28 0 -47 19t-19 47q0 33 26 58t59 25q28 0 47 -19t19 -47z" />
    <glyph glyph-name="uni1ECD" unicode="&#x1ecd;" horiz-adv-x="505" 
d="M227 -12q-101 0 -155.5 56t-54.5 149q0 115 73 208.5t186 93.5q101 0 155.5 -56t54.5 -149q0 -115 -73 -208.5t-186 -93.5zM234 116q45 0 75 58t30 114q0 79 -70 79q-45 0 -75 -58t-30 -114q0 -79 70 -79zM246 -117q0 -33 -26 -58t-59 -25q-29 0 -47.5 19t-18.5 47
q0 33 26 58t59 25q28 0 47 -19t19 -47z" />
    <glyph glyph-name="uni1ECE" unicode="&#x1ece;" horiz-adv-x="633" 
d="M295 -12q-120 0 -192 73t-72 190q0 106 39.5 202t120 160.5t185.5 64.5q119 0 191.5 -73.5t72.5 -189.5q0 -106 -39 -202t-120 -160.5t-186 -64.5zM304 131q71 0 120.5 88.5t49.5 190.5q0 56 -29.5 90.5t-78.5 34.5q-71 0 -120 -88.5t-49 -191.5q0 -56 29 -90t78 -34z
M403 753l-45 18q24 49 77 49q29 0 49 -15.5t20 -44.5q0 -32 -25 -63h-58q26 27 27 53q3 24 -19 24q-15 0 -26 -21z" />
    <glyph glyph-name="uni1ECF" unicode="&#x1ecf;" horiz-adv-x="505" 
d="M227 -12q-101 0 -155.5 56t-54.5 149q0 115 73 208.5t186 93.5q101 0 155.5 -56t54.5 -149q0 -115 -73 -208.5t-186 -93.5zM234 116q45 0 75 58t30 114q0 79 -70 79q-45 0 -75 -58t-30 -114q0 -79 70 -79zM302 583l-45 18q25 49 77 49q29 0 49 -15.5t20 -44.5
q0 -32 -25 -63h-58q26 27 27 53q3 24 -19 24q-16 0 -26 -21z" />
    <glyph glyph-name="uni1ED0" unicode="&#x1ed0;" horiz-adv-x="633" 
d="M548 682h-80l-42 62l-75 -62h-84l107 108h128zM793 843l-166 -108h-96l135 108h127zM295 -12q-120 0 -192 73t-72 190q0 106 39.5 202t120 160.5t185.5 64.5q119 0 191.5 -73.5t72.5 -189.5q0 -106 -39 -202t-120 -160.5t-186 -64.5zM304 131q71 0 120.5 88.5t49.5 190.5
q0 56 -29.5 90.5t-78.5 34.5q-71 0 -120 -88.5t-49 -191.5q0 -56 29 -90t78 -34z" />
    <glyph glyph-name="uni1ED1" unicode="&#x1ed1;" horiz-adv-x="505" 
d="M462 556h-80l-42 83l-75 -83h-84l107 144h128zM706 770l-166 -144h-96l135 144h127zM227 -12q-101 0 -155.5 56t-54.5 149q0 115 73 208.5t186 93.5q101 0 155.5 -56t54.5 -149q0 -115 -73 -208.5t-186 -93.5zM234 116q45 0 75 58t30 114q0 79 -70 79q-45 0 -75 -58
t-30 -114q0 -79 70 -79z" />
    <glyph glyph-name="uni1ED2" unicode="&#x1ed2;" horiz-adv-x="633" 
d="M548 682h-80l-42 62l-75 -62h-84l107 108h128zM295 -12q-120 0 -192 73t-72 190q0 106 39.5 202t120 160.5t185.5 64.5q119 0 191.5 -73.5t72.5 -189.5q0 -106 -39 -202t-120 -160.5t-186 -64.5zM304 131q71 0 120.5 88.5t49.5 190.5q0 56 -29.5 90.5t-78.5 34.5
q-71 0 -120 -88.5t-49 -191.5q0 -56 29 -90t78 -34zM312 735h-94l-102 108h125z" />
    <glyph glyph-name="uni1ED3" unicode="&#x1ed3;" horiz-adv-x="505" 
d="M462 556h-80l-42 83l-75 -83h-84l107 144h128zM227 -12q-101 0 -155.5 56t-54.5 149q0 115 73 208.5t186 93.5q101 0 155.5 -56t54.5 -149q0 -115 -73 -208.5t-186 -93.5zM234 116q45 0 75 58t30 114q0 79 -70 79q-45 0 -75 -58t-30 -114q0 -79 70 -79zM227 626h-94
l-102 144h125z" />
    <glyph glyph-name="uni1ED4" unicode="&#x1ed4;" horiz-adv-x="633" 
d="M548 682h-80l-42 62l-75 -62h-84l107 108h128zM295 -12q-120 0 -192 73t-72 190q0 106 39.5 202t120 160.5t185.5 64.5q119 0 191.5 -73.5t72.5 -189.5q0 -106 -39 -202t-120 -160.5t-186 -64.5zM304 131q71 0 120.5 88.5t49.5 190.5q0 56 -29.5 90.5t-78.5 34.5
q-71 0 -120 -88.5t-49 -191.5q0 -56 29 -90t78 -34zM518 798l-45 14q25 36 77 36q29 0 49 -11.5t20 -33.5q0 -24 -25 -47h-58q26 21 27 40q2 8 -3.5 13t-15.5 5q-16 0 -26 -16z" />
    <glyph glyph-name="uni1ED5" unicode="&#x1ed5;" horiz-adv-x="505" 
d="M462 556h-80l-42 83l-75 -83h-84l107 144h128zM227 -12q-101 0 -155.5 56t-54.5 149q0 115 73 208.5t186 93.5q101 0 155.5 -56t54.5 -149q0 -115 -73 -208.5t-186 -93.5zM234 116q45 0 75 58t30 114q0 79 -70 79q-45 0 -75 -58t-30 -114q0 -79 70 -79zM425 723l-45 18
q24 49 77 49q29 0 49 -15.5t20 -44.5q0 -32 -25 -63h-58q26 27 27 53q3 24 -19 24q-15 0 -26 -21z" />
    <glyph glyph-name="uni1ED6" unicode="&#x1ed6;" horiz-adv-x="633" 
d="M542 678h-80l-42 41l-75 -41h-84l107 72h128zM295 -12q-120 0 -192 73t-72 190q0 106 39.5 202t120 160.5t185.5 64.5q119 0 191.5 -73.5t72.5 -189.5q0 -106 -39 -202t-120 -160.5t-186 -64.5zM304 131q71 0 120.5 88.5t49.5 190.5q0 56 -29.5 90.5t-78.5 34.5
q-71 0 -120 -88.5t-49 -191.5q0 -56 29 -90t78 -34zM484 757q-36 0 -61.5 14.5t-41.5 14.5q-24 0 -36 -26h-74q27 67 117 67q36 0 62 -15t42 -15q22 0 35 27h74q-29 -67 -117 -67z" />
    <glyph glyph-name="uni1ED7" unicode="&#x1ed7;" horiz-adv-x="505" 
d="M455 523h-80l-42 83l-75 -83h-84l107 144h128zM227 -12q-101 0 -155.5 56t-54.5 149q0 115 73 208.5t186 93.5q101 0 155.5 -56t54.5 -149q0 -115 -73 -208.5t-186 -93.5zM234 116q45 0 75 58t30 114q0 79 -70 79q-45 0 -75 -58t-30 -114q0 -79 70 -79zM413 682
q-28 0 -45.5 15t-30 29.5t-27.5 14.5q-25 0 -36 -53h-74q27 134 117 134q28 0 45.5 -15t30 -30t28.5 -15q22 0 35 54h74q-29 -134 -117 -134z" />
    <glyph glyph-name="uni1ED8" unicode="&#x1ed8;" horiz-adv-x="633" 
d="M562 723h-80l-42 83l-75 -83h-84l107 144h128zM295 -12q-120 0 -192 73t-72 190q0 106 39.5 202t120 160.5t185.5 64.5q119 0 191.5 -73.5t72.5 -189.5q0 -106 -39 -202t-120 -160.5t-186 -64.5zM304 131q71 0 120.5 88.5t49.5 190.5q0 56 -29.5 90.5t-78.5 34.5
q-71 0 -120 -88.5t-49 -191.5q0 -56 29 -90t78 -34zM310 -117q0 -33 -26 -58t-59 -25q-29 0 -47.5 19t-18.5 47q0 33 26 58t59 25q28 0 47 -19t19 -47z" />
    <glyph glyph-name="uni1ED9" unicode="&#x1ed9;" horiz-adv-x="505" 
d="M462 556h-80l-42 83l-75 -83h-84l107 144h128zM227 -12q-101 0 -155.5 56t-54.5 149q0 115 73 208.5t186 93.5q101 0 155.5 -56t54.5 -149q0 -115 -73 -208.5t-186 -93.5zM234 116q45 0 75 58t30 114q0 79 -70 79q-45 0 -75 -58t-30 -114q0 -79 70 -79zM246 -117
q0 -33 -26 -58t-59 -25q-29 0 -47.5 19t-18.5 47q0 33 26 58t59 25q28 0 47 -19t19 -47z" />
    <glyph glyph-name="uni1EDA" unicode="&#x1eda;" horiz-adv-x="633" 
d="M624 867l-166 -144h-96l135 144h127zM295 -12q-120 0 -192 73t-72 190q0 106 39.5 202t120 160.5t185.5 64.5q140 0 213 -99q40 23 52 51q-1 -1 -7 -1q-20 0 -33 13.5t-13 36.5q0 27 20 46t47 19q24 0 41 -16.5t17 -45.5q0 -40 -28 -80.5t-71 -64.5q26 -55 26 -122
q0 -106 -39 -202t-120 -160.5t-186 -64.5zM304 131q71 0 120.5 88.5t49.5 190.5q0 56 -29.5 90.5t-78.5 34.5q-71 0 -120 -88.5t-49 -191.5q0 -56 29 -90t78 -34z" />
    <glyph glyph-name="uni1EDB" unicode="&#x1edb;" horiz-adv-x="505" 
d="M524 700l-166 -144h-96l135 144h127zM550 549q0 -39 -26 -78.5t-68 -63.5q30 -48 30 -117q0 -115 -73 -208.5t-186 -93.5q-101 0 -155.5 56t-54.5 149q0 115 73 208.5t186 93.5q93 0 149 -51q42 25 54 53q-2 -1 -8 -1q-19 0 -32.5 13t-13.5 36q0 26 20.5 45.5t46.5 19.5
q24 0 41 -16t17 -45zM234 116q45 0 75 58t30 114q0 79 -70 79q-45 0 -75 -58t-30 -114q0 -79 70 -79z" />
    <glyph glyph-name="uni1EDC" unicode="&#x1edc;" horiz-adv-x="633" 
d="M295 -12q-120 0 -192 73t-72 190q0 106 39.5 202t120 160.5t185.5 64.5q140 0 213 -99q40 23 52 51q-1 -1 -7 -1q-20 0 -33 13.5t-13 36.5q0 27 20 46t47 19q24 0 41 -16.5t17 -45.5q0 -40 -28 -80.5t-71 -64.5q26 -55 26 -122q0 -106 -39 -202t-120 -160.5t-186 -64.5z
M304 131q71 0 120.5 88.5t49.5 190.5q0 56 -29.5 90.5t-78.5 34.5q-71 0 -120 -88.5t-49 -191.5q0 -56 29 -90t78 -34zM479 723h-94l-102 144h125z" />
    <glyph glyph-name="uni1EDD" unicode="&#x1edd;" horiz-adv-x="505" 
d="M550 549q0 -39 -26 -78.5t-68 -63.5q30 -48 30 -117q0 -115 -73 -208.5t-186 -93.5q-101 0 -155.5 56t-54.5 149q0 115 73 208.5t186 93.5q93 0 149 -51q42 25 54 53q-2 -1 -8 -1q-19 0 -32.5 13t-13.5 36q0 26 20.5 45.5t46.5 19.5q24 0 41 -16t17 -45zM234 116
q45 0 75 58t30 114q0 79 -70 79q-45 0 -75 -58t-30 -114q0 -79 70 -79zM380 556h-94l-102 144h125z" />
    <glyph glyph-name="uni1EDE" unicode="&#x1ede;" horiz-adv-x="633" 
d="M295 -12q-120 0 -192 73t-72 190q0 106 39.5 202t120 160.5t185.5 64.5q140 0 213 -99q40 23 52 51q-1 -1 -7 -1q-20 0 -33 13.5t-13 36.5q0 27 20 46t47 19q24 0 41 -16.5t17 -45.5q0 -40 -28 -80.5t-71 -64.5q26 -55 26 -122q0 -106 -39 -202t-120 -160.5t-186 -64.5z
M304 131q71 0 120.5 88.5t49.5 190.5q0 56 -29.5 90.5t-78.5 34.5q-71 0 -120 -88.5t-49 -191.5q0 -56 29 -90t78 -34zM403 753l-45 18q24 49 77 49q29 0 49 -15.5t20 -44.5q0 -32 -25 -63h-58q26 27 27 53q3 24 -19 24q-15 0 -26 -21z" />
    <glyph glyph-name="uni1EDF" unicode="&#x1edf;" horiz-adv-x="505" 
d="M550 549q0 -39 -26 -78.5t-68 -63.5q30 -48 30 -117q0 -115 -73 -208.5t-186 -93.5q-101 0 -155.5 56t-54.5 149q0 115 73 208.5t186 93.5q93 0 149 -51q42 25 54 53q-2 -1 -8 -1q-19 0 -32.5 13t-13.5 36q0 26 20.5 45.5t46.5 19.5q24 0 41 -16t17 -45zM234 116
q45 0 75 58t30 114q0 79 -70 79q-45 0 -75 -58t-30 -114q0 -79 70 -79zM301 583l-45 18q24 49 77 49q29 0 49 -15.5t20 -44.5q0 -32 -25 -63h-58q26 27 27 53q3 24 -19 24q-15 0 -26 -21z" />
    <glyph glyph-name="uni1EE0" unicode="&#x1ee0;" horiz-adv-x="633" 
d="M295 -12q-120 0 -192 73t-72 190q0 106 39.5 202t120 160.5t185.5 64.5q140 0 213 -99q40 23 52 51q-1 -1 -7 -1q-20 0 -33 13.5t-13 36.5q0 27 20 46t47 19q24 0 41 -16.5t17 -45.5q0 -40 -28 -80.5t-71 -64.5q26 -55 26 -122q0 -106 -39 -202t-120 -160.5t-186 -64.5z
M304 131q71 0 120.5 88.5t49.5 190.5q0 56 -29.5 90.5t-78.5 34.5q-71 0 -120 -88.5t-49 -191.5q0 -56 29 -90t78 -34zM486 721q-22 0 -38 9t-23.5 20.5t-18.5 20.5t-23 9q-25 0 -36 -53h-74q27 134 117 134q28 0 45.5 -15t30 -30t28.5 -15q22 0 35 54h74
q-29 -134 -117 -134z" />
    <glyph glyph-name="uni1EE1" unicode="&#x1ee1;" horiz-adv-x="505" 
d="M550 549q0 -39 -26 -78.5t-68 -63.5q30 -48 30 -117q0 -115 -73 -208.5t-186 -93.5q-101 0 -155.5 56t-54.5 149q0 115 73 208.5t186 93.5q93 0 149 -51q42 25 54 53q-2 -1 -8 -1q-19 0 -32.5 13t-13.5 36q0 26 20.5 45.5t46.5 19.5q24 0 41 -16t17 -45zM234 116
q45 0 75 58t30 114q0 79 -70 79q-45 0 -75 -58t-30 -114q0 -79 70 -79zM347 554q-28 0 -45.5 15t-30 29.5t-27.5 14.5q-25 0 -36 -53h-74q27 134 117 134q28 0 45.5 -15t30 -30t28.5 -15q22 0 35 54h74q-29 -134 -117 -134z" />
    <glyph glyph-name="uni1EE2" unicode="&#x1ee2;" horiz-adv-x="633" 
d="M295 -12q-120 0 -192 73t-72 190q0 106 39.5 202t120 160.5t185.5 64.5q140 0 213 -99q40 23 52 51q-1 -1 -7 -1q-20 0 -33 13.5t-13 36.5q0 27 20 46t47 19q24 0 41 -16.5t17 -45.5q0 -40 -28 -80.5t-71 -64.5q26 -55 26 -122q0 -106 -39 -202t-120 -160.5t-186 -64.5z
M304 131q71 0 120.5 88.5t49.5 190.5q0 56 -29.5 90.5t-78.5 34.5q-71 0 -120 -88.5t-49 -191.5q0 -56 29 -90t78 -34zM309 -117q0 -33 -26 -58t-59 -25q-28 0 -47 19t-19 47q0 33 26 58t59 25q28 0 47 -19t19 -47z" />
    <glyph glyph-name="uni1EE3" unicode="&#x1ee3;" horiz-adv-x="505" 
d="M550 549q0 -39 -26 -78.5t-68 -63.5q30 -48 30 -117q0 -115 -73 -208.5t-186 -93.5q-101 0 -155.5 56t-54.5 149q0 115 73 208.5t186 93.5q93 0 149 -51q42 25 54 53q-2 -1 -8 -1q-19 0 -32.5 13t-13.5 36q0 26 20.5 45.5t46.5 19.5q24 0 41 -16t17 -45zM234 116
q45 0 75 58t30 114q0 79 -70 79q-45 0 -75 -58t-30 -114q0 -79 70 -79zM246 -117q0 -33 -26 -58t-59 -25q-29 0 -47.5 19t-18.5 47q0 33 26 58t59 25q28 0 47 -19t19 -47z" />
    <glyph glyph-name="uni1EE4" unicode="&#x1ee4;" horiz-adv-x="629" 
d="M294 -12q-115 0 -181 57t-66 152q0 13 5 43l94 427h163l-95 -432q-3 -18 -3 -27q0 -34 24 -56.5t65 -22.5q87 0 111 106l95 432h163l-95 -430q-26 -120 -96 -184.5t-184 -64.5zM307 -117q0 -33 -26 -58t-59 -25q-28 0 -47 19t-19 47q0 33 26 58t59 25q28 0 47 -19t19 -47
z" />
    <glyph glyph-name="uni1EE5" unicode="&#x1ee5;" 
d="M101 483h145l-68 -303q-3 -14 -3 -24q0 -40 49 -40q42 0 83 51l70 316h144l-107 -483h-144l13 59q-65 -71 -140 -71q-58 0 -91.5 29t-33.5 76q0 2 4 34zM251 -117q0 -33 -26 -58t-59 -25q-28 0 -47 19t-19 47q0 33 26 58t59 25q28 0 47 -19t19 -47z" />
    <glyph glyph-name="uni1EE6" unicode="&#x1ee6;" horiz-adv-x="629" 
d="M294 -12q-115 0 -181 57t-66 152q0 13 5 43l94 427h163l-95 -432q-3 -18 -3 -27q0 -34 24 -56.5t65 -22.5q87 0 111 106l95 432h163l-95 -430q-26 -120 -96 -184.5t-184 -64.5zM400 753l-45 18q25 49 77 49q29 0 49 -15.5t20 -44.5q0 -32 -25 -63h-58q26 27 27 53
q3 24 -19 24q-16 0 -26 -21z" />
    <glyph glyph-name="uni1EE7" unicode="&#x1ee7;" 
d="M101 483h145l-68 -303q-3 -14 -3 -24q0 -40 49 -40q42 0 83 51l70 316h144l-107 -483h-144l13 59q-65 -71 -140 -71q-58 0 -91.5 29t-33.5 76q0 2 4 34zM307 583l-45 18q24 49 77 49q29 0 49 -15.5t20 -44.5q0 -32 -25 -63h-58q26 27 27 53q3 24 -19 24q-15 0 -26 -21z
" />
    <glyph glyph-name="uni1EE8" unicode="&#x1ee8;" horiz-adv-x="629" 
d="M622 867l-166 -144h-96l135 144h127zM782 742q0 -48 -37 -92.5t-95 -68.5l-76 -344q-26 -120 -96 -184.5t-184 -64.5q-115 0 -181 57t-66 152q0 13 5 43l94 427h163l-95 -432q-3 -18 -3 -27q0 -34 24 -56.5t65 -22.5q87 0 111 106l95 432h163l-6 -26q35 23 48 49
q-2 -1 -8 -1q-19 0 -32.5 13t-13.5 37q0 26 20 45t47 19q24 0 41 -16t17 -45z" />
    <glyph glyph-name="uni1EE9" unicode="&#x1ee9;" 
d="M530 700l-166 -144h-96l135 144h127zM601 564q0 -39 -25.5 -77t-68.5 -64l-93 -423h-144l13 59q-65 -71 -140 -71q-58 0 -91.5 29t-33.5 76q0 2 4 34l79 356h144l-67 -305q-3 -10 -3 -21q0 -41 50 -41q41 0 81 50l71 317h131q15 13 22 29q-2 -1 -8 -1q-20 0 -33.5 13
t-13.5 36q0 27 20.5 46t47.5 19q24 0 41 -16t17 -45z" />
    <glyph glyph-name="uni1EEA" unicode="&#x1eea;" horiz-adv-x="629" 
d="M477 723h-94l-102 144h125zM782 742q0 -48 -37 -92.5t-95 -68.5l-76 -344q-26 -120 -96 -184.5t-184 -64.5q-115 0 -181 57t-66 152q0 13 5 43l94 427h163l-95 -432q-3 -18 -3 -27q0 -34 24 -56.5t65 -22.5q87 0 111 106l95 432h163l-6 -26q35 23 48 49q-2 -1 -8 -1
q-19 0 -32.5 13t-13.5 37q0 26 20 45t47 19q24 0 41 -16t17 -45z" />
    <glyph glyph-name="uni1EEB" unicode="&#x1eeb;" 
d="M385 556h-94l-102 144h125zM601 564q0 -39 -25.5 -77t-68.5 -64l-93 -423h-144l13 59q-65 -71 -140 -71q-58 0 -91.5 29t-33.5 76q0 2 4 34l79 356h144l-67 -305q-3 -10 -3 -21q0 -41 50 -41q41 0 81 50l71 317h131q15 13 22 29q-2 -1 -8 -1q-20 0 -33.5 13t-13.5 36
q0 27 20.5 46t47.5 19q24 0 41 -16t17 -45z" />
    <glyph glyph-name="uni1EEC" unicode="&#x1eec;" horiz-adv-x="629" 
d="M400 753l-45 18q25 49 77 49q29 0 49 -15.5t20 -44.5q0 -32 -25 -63h-58q26 27 27 53q3 24 -19 24q-16 0 -26 -21zM782 742q0 -48 -37 -92.5t-95 -68.5l-76 -344q-26 -120 -96 -184.5t-184 -64.5q-115 0 -181 57t-66 152q0 13 5 43l94 427h163l-95 -432q-3 -18 -3 -27
q0 -34 24 -56.5t65 -22.5q87 0 111 106l95 432h163l-6 -26q35 23 48 49q-2 -1 -8 -1q-19 0 -32.5 13t-13.5 37q0 26 20 45t47 19q24 0 41 -16t17 -45z" />
    <glyph glyph-name="uni1EED" unicode="&#x1eed;" 
d="M307 583l-45 18q24 49 77 49q29 0 49 -15.5t20 -44.5q0 -32 -25 -63h-58q26 27 27 53q3 24 -19 24q-15 0 -26 -21zM601 564q0 -39 -25.5 -77t-68.5 -64l-93 -423h-144l13 59q-65 -71 -140 -71q-58 0 -91.5 29t-33.5 76q0 2 4 34l79 356h144l-67 -305q-3 -10 -3 -21
q0 -41 50 -41q41 0 81 50l71 317h131q15 13 22 29q-2 -1 -8 -1q-20 0 -33.5 13t-13.5 36q0 27 20.5 46t47.5 19q24 0 41 -16t17 -45z" />
    <glyph glyph-name="uni1EEE" unicode="&#x1eee;" horiz-adv-x="629" 
d="M782 742q0 -48 -37 -92.5t-95 -68.5l-76 -344q-26 -120 -96 -184.5t-184 -64.5q-115 0 -181 57t-66 152q0 13 5 43l94 427h163l-95 -432q-3 -18 -3 -27q0 -34 24 -56.5t65 -22.5q87 0 111 106l95 432h163l-6 -26q35 23 48 49q-2 -1 -8 -1q-19 0 -32.5 13t-13.5 37
q0 26 20 45t47 19q24 0 41 -16t17 -45zM483 721q-22 0 -38 9t-23.5 20.5t-18.5 20.5t-23 9q-25 0 -36 -53h-74q27 134 117 134q28 0 45.5 -15t30 -30t28.5 -15q22 0 35 54h74q-29 -134 -117 -134z" />
    <glyph glyph-name="uni1EEF" unicode="&#x1eef;" 
d="M601 564q0 -39 -25.5 -77t-68.5 -64l-93 -423h-144l13 59q-65 -71 -140 -71q-58 0 -91.5 29t-33.5 76q0 2 4 34l79 356h144l-67 -305q-3 -10 -3 -21q0 -41 50 -41q41 0 81 50l71 317h131q15 13 22 29q-2 -1 -8 -1q-20 0 -33.5 13t-13.5 36q0 27 20.5 46t47.5 19
q24 0 41 -16t17 -45zM374 554q-28 0 -45.5 15t-30 29.5t-27.5 14.5q-25 0 -36 -53h-74q27 134 117 134q28 0 45.5 -15t30 -30t28.5 -15q22 0 35 54h74q-29 -134 -117 -134z" />
    <glyph glyph-name="uni1EF0" unicode="&#x1ef0;" horiz-adv-x="629" 
d="M307 -117q0 -33 -26 -58t-59 -25q-28 0 -47 19t-19 47q0 33 26 58t59 25q28 0 47 -19t19 -47zM782 742q0 -48 -37 -92.5t-95 -68.5l-76 -344q-26 -120 -96 -184.5t-184 -64.5q-115 0 -181 57t-66 152q0 13 5 43l94 427h163l-95 -432q-3 -18 -3 -27q0 -34 24 -56.5
t65 -22.5q87 0 111 106l95 432h163l-6 -26q35 23 48 49q-2 -1 -8 -1q-19 0 -32.5 13t-13.5 37q0 26 20 45t47 19q24 0 41 -16t17 -45z" />
    <glyph glyph-name="uni1EF1" unicode="&#x1ef1;" 
d="M251 -117q0 -33 -26 -58t-59 -25q-28 0 -47 19t-19 47q0 33 26 58t59 25q28 0 47 -19t19 -47zM601 564q0 -39 -25.5 -77t-68.5 -64l-93 -423h-144l13 59q-65 -71 -140 -71q-58 0 -91.5 29t-33.5 76q0 2 4 34l79 356h144l-67 -305q-3 -10 -3 -21q0 -41 50 -41q41 0 81 50
l71 317h131q15 13 22 29q-2 -1 -8 -1q-20 0 -33.5 13t-13.5 36q0 27 20.5 46t47.5 19q24 0 41 -16t17 -45z" />
    <glyph glyph-name="Ygrave" unicode="&#x1ef2;" horiz-adv-x="557" 
d="M306 0h-162l59 271l-118 396h169l55 -248l165 248h184l-293 -396zM442 723h-94l-102 144h125z" />
    <glyph glyph-name="ygrave" unicode="&#x1ef3;" horiz-adv-x="466" 
d="M-49 -183l46 121q12 -6 36 -6q29 0 47 28l21 36l-54 487h149l16 -309l156 309h157l-310 -555q-39 -70 -80 -97t-100 -27q-52 0 -84 13zM356 556h-94l-102 144h125z" />
    <glyph glyph-name="thinspace" unicode="&#x2009;" horiz-adv-x="41" 
 />
    <glyph glyph-name="endash" unicode="&#x2013;" horiz-adv-x="527" 
d="M482 181h-466l27 122h466z" />
    <glyph glyph-name="emdash" unicode="&#x2014;" horiz-adv-x="737" 
d="M692 181h-676l27 122h676z" />
    <glyph glyph-name="afii00208" unicode="&#x2015;" horiz-adv-x="527" 
d="M482 181h-466l27 122h466z" />
    <glyph glyph-name="quoteleft" unicode="&#x2018;" horiz-adv-x="265" 
d="M86 465q0 60 44.5 120.5t112.5 92.5l50 -52q-79 -36 -102 -84h11q29 0 48.5 -18.5t19.5 -52.5q0 -38 -30 -66.5t-68 -28.5q-35 0 -60.5 24t-25.5 65z" />
    <glyph glyph-name="quoteright" unicode="&#x2019;" horiz-adv-x="265" 
d="M302 588q0 -60 -44.5 -120.5t-112.5 -92.5l-50 52q79 36 102 84h-11q-29 0 -48.5 18.5t-19.5 52.5q0 38 30 66.5t68 28.5q36 0 61 -23.5t25 -65.5z" />
    <glyph glyph-name="quotesinglbase" unicode="&#x201a;" horiz-adv-x="265" 
d="M189 78q0 -60 -44.5 -120t-112.5 -92l-50 52q30 13 60.5 36t42.5 48q-3 -1 -12 -1q-29 0 -48.5 19t-19.5 53q0 38 30.5 66t68.5 28q35 0 60 -23.5t25 -65.5z" />
    <glyph glyph-name="quotereversed" unicode="&#x201b;" horiz-adv-x="265" 
d="M109 534q0 67 36 105t79 38q36 0 58.5 -23t22.5 -56q0 -39 -26.5 -63t-65.5 -24q-21 0 -31 6q3 -58 60 -110l-61 -36q-72 75 -72 163z" />
    <glyph glyph-name="quotedblleft" unicode="&#x201c;" horiz-adv-x="483" 
d="M304 465q0 60 44.5 120.5t112.5 92.5l50 -52q-79 -36 -102 -84h11q29 0 48.5 -18.5t19.5 -52.5q0 -38 -30 -66.5t-68 -28.5q-36 0 -61 23.5t-25 65.5zM87 465q0 60 44.5 120.5t112.5 92.5l50 -52q-78 -35 -103 -84h12q29 0 48.5 -18.5t19.5 -52.5q0 -38 -30.5 -66.5
t-68.5 -28.5q-35 0 -60 24t-25 65z" />
    <glyph glyph-name="quotedblright" unicode="&#x201d;" horiz-adv-x="483" 
d="M302 588q0 -60 -44.5 -120.5t-112.5 -92.5l-50 52q79 36 102 84h-11q-29 0 -48.5 18.5t-19.5 52.5q0 38 30 66.5t68 28.5q36 0 61 -23.5t25 -65.5zM519 588q0 -60 -44.5 -120.5t-112.5 -92.5l-50 52q79 36 103 84h-12q-29 0 -48.5 18.5t-19.5 52.5q0 38 30 66.5t68 28.5
q36 0 61 -23.5t25 -65.5z" />
    <glyph glyph-name="quotedblbase" unicode="&#x201e;" horiz-adv-x="482" 
d="M189 78q0 -60 -44.5 -120t-112.5 -92l-50 52q30 13 60.5 36t42.5 48q-3 -1 -12 -1q-29 0 -48.5 19t-19.5 53q0 38 30.5 66t68.5 28q35 0 60 -23.5t25 -65.5zM406 78q0 -60 -44.5 -120t-112.5 -92l-50 52q30 13 60 36t43 48q-2 -1 -12 -1q-29 0 -48.5 19t-19.5 53
q0 38 30.5 66t68.5 28q35 0 60 -23.5t25 -65.5z" />
    <glyph glyph-name="dagger" unicode="&#x2020;" horiz-adv-x="282" 
d="M323 519l-88 4l-39 -196h-75l48 196l-90 -4l15 68l89 -3l16 93h75l-25 -93l89 3z" />
    <glyph glyph-name="daggerdbl" unicode="&#x2021;" horiz-adv-x="282" 
d="M338 587l-15 -68l-88 4l-42 -188l90 4l-15 -68l-88 3l-17 -94h-75l25 94l-89 -3l15 68l88 -4l41 188l-89 -4l15 68l88 -3l17 93h75l-25 -93z" />
    <glyph glyph-name="bullet" unicode="&#x2022;" horiz-adv-x="358" 
d="M302 254q0 -54 -40.5 -93.5t-95.5 -39.5q-47 0 -78.5 31.5t-31.5 78.5q0 54 40.5 93.5t95.5 39.5q47 0 78.5 -31.5t31.5 -78.5z" />
    <glyph glyph-name="ellipsis" unicode="&#x2026;" horiz-adv-x="792" 
d="M87 -12q-34 0 -57.5 24t-23.5 58q0 40 29 68.5t68 28.5q34 0 58 -24t24 -58q0 -39 -29.5 -68t-68.5 -29zM351 -12q-34 0 -57.5 24t-23.5 58q0 40 29 68.5t68 28.5q34 0 58 -24t24 -58q0 -40 -29 -68.5t-69 -28.5zM615 -12q-34 0 -57.5 24t-23.5 58q0 40 29 68.5t69 28.5
q34 0 57.5 -24t23.5 -58q0 -40 -29 -68.5t-69 -28.5z" />
    <glyph glyph-name="perthousand" unicode="&#x2030;" horiz-adv-x="1010" 
d="M147 0h-71l501 667h71zM474 -12q-62 0 -102 37t-40 96q0 85 51.5 142.5t121.5 57.5q62 0 102 -37t40 -96q0 -85 -51.5 -142.5t-121.5 -57.5zM478 75q28 0 50 30.5t22 73.5q0 26 -13.5 40.5t-36.5 14.5q-28 0 -49.5 -30t-21.5 -74q0 -25 13 -40t36 -15zM216 343
q-61 0 -101 37.5t-40 96.5q0 85 51.5 142.5t121.5 57.5q61 0 101.5 -37t40.5 -96q0 -86 -51.5 -143.5t-122.5 -57.5zM222 431q27 0 49 30t22 74q0 26 -13.5 40.5t-36.5 14.5q-28 0 -49.5 -30.5t-21.5 -73.5q0 -26 13.5 -40.5t36.5 -14.5zM801 -12q-62 0 -102 37t-40 96
q0 85 51.5 142.5t121.5 57.5q62 0 102 -37t40 -96q0 -85 -51.5 -142.5t-121.5 -57.5zM806 75q28 0 49.5 30.5t21.5 73.5q0 26 -13 40.5t-36 14.5q-28 0 -50 -30t-22 -74q0 -26 13.5 -40.5t36.5 -14.5z" />
    <glyph glyph-name="guilsinglleft" unicode="&#x2039;" horiz-adv-x="305" 
d="M231 63h-117l-85 180l165 177h123l-168 -181z" />
    <glyph glyph-name="guilsinglright" unicode="&#x203a;" horiz-adv-x="305" 
d="M75 420h117l85 -180l-165 -177h-123l169 182z" />
    <glyph glyph-name="uni203E" unicode="&#x203e;" horiz-adv-x="313" 
d="M382 558h-312l17 81h312z" />
    <glyph glyph-name="fraction" unicode="&#x2044;" horiz-adv-x="156" 
d="M384 667l-502 -667h-71l501 667h72z" />
    <glyph glyph-name="zerosuperior" unicode="&#x2070;" horiz-adv-x="355" 
d="M419 675q0 -39 -11.5 -82t-33.5 -84t-61 -68t-88 -27q-66 0 -104 40.5t-38 111.5q0 39 11.5 82t33.5 84t61 68t88 27q66 0 104 -40.5t38 -111.5zM313 686q0 56 -41 56q-36 0 -59.5 -66.5t-23.5 -120.5q0 -56 41 -56q36 0 59.5 66.5t23.5 120.5z" />
    <glyph glyph-name="foursuperior" unicode="&#x2074;" horiz-adv-x="355" 
d="M387 502h-41l-17 -81h-107l17 81h-174l17 77l194 242h141l-52 -235h41zM258 586l29 129l-104 -129h75z" />
    <glyph glyph-name="fivesuperior" unicode="&#x2075;" horiz-adv-x="355" 
d="M395 578q0 -69 -46 -116.5t-123 -47.5q-107 0 -160 68l71 61q32 -44 86 -44q29 0 45.5 19t16.5 44q0 42 -50 42q-39 0 -64 -30l-71 23l50 224h276l-19 -85h-169l-17 -82q29 28 69 28q45 0 75 -28t30 -76z" />
    <glyph glyph-name="sixsuperior" unicode="&#x2076;" horiz-adv-x="355" 
d="M399 577q0 -67 -45 -115t-118 -48q-71 0 -111.5 39t-40.5 109q0 103 60.5 184t152.5 81q80 0 128 -47l-63 -69q-24 31 -68 31q-38 0 -63 -30t-31 -66v-4l-1 -2q37 49 90 49q46 0 78 -29.5t32 -82.5zM289 563q0 21 -14 32t-36 11q-27 0 -49 -29q-3 -13 -3 -27
q0 -22 12.5 -36.5t34.5 -14.5q23 0 39 20.5t16 43.5z" />
    <glyph glyph-name="sevensuperior" unicode="&#x2077;" horiz-adv-x="329" 
d="M413 747l-199 -326h-112l198 315h-184l19 85h294z" />
    <glyph glyph-name="eightsuperior" unicode="&#x2078;" horiz-adv-x="355" 
d="M390 530q0 -51 -40 -83.5t-114 -32.5t-121 26.5t-47 79.5q0 41 31 74t77 41q-58 24 -58 80q0 53 44 82.5t105 29.5q63 0 111.5 -26t48.5 -77q0 -39 -26.5 -68.5t-73.5 -37.5q26 -10 44.5 -34.5t18.5 -53.5zM317 710q0 17 -13.5 26t-34.5 9q-20 0 -34 -13t-14 -32
q0 -16 13.5 -27t25.5 -14q57 12 57 51zM285 542q0 18 -13.5 30.5t-27.5 16.5q-26 -2 -46 -17.5t-20 -38.5q0 -17 14.5 -27.5t37.5 -10.5q24 0 39.5 13.5t15.5 33.5z" />
    <glyph glyph-name="ninesuperior" unicode="&#x2079;" horiz-adv-x="355" 
d="M105 665q0 67 45 115t118 48q71 0 111.5 -39t40.5 -109q0 -103 -60.5 -184t-152.5 -81q-80 0 -128 47l63 69q24 -31 67 -31q38 0 63.5 30t31.5 66v4l1 2q-37 -49 -90 -49q-46 0 -78 29.5t-32 82.5zM215 679q0 -21 14 -32t36 -11q25 0 49 29q3 13 3 27q0 22 -13 36.5
t-35 14.5q-23 0 -38.5 -20.5t-15.5 -43.5z" />
    <glyph glyph-name="parenleftsuperior" unicode="&#x207d;" horiz-adv-x="191" 
d="M208 382l-68 -26q-44 73 -44 180q0 97 44 188.5t117 161.5l56 -25q-59 -81 -91 -177t-32 -187q0 -67 18 -115z" />
    <glyph glyph-name="parenrightsuperior" unicode="&#x207e;" horiz-adv-x="192" 
d="M150 861l67 25q44 -73 44 -180q0 -96 -44 -188t-117 -162l-56 26q59 81 91 176.5t32 186.5q0 69 -17 116z" />
    <glyph glyph-name="nsuperior" unicode="&#x207f;" horiz-adv-x="371" 
d="M348 326h-103l43 193q2 10 2 16q0 26 -33 26q-26 0 -53 -34l-44 -201h-104l69 314h104l-8 -37q39 45 92 45q41 0 64.5 -19t23.5 -53q0 -10 -3 -25z" />
    <glyph glyph-name="zeroinferior" unicode="&#x2080;" horiz-adv-x="355" 
d="M303 108q0 -39 -11.5 -82t-33.5 -84t-61 -68t-88 -27q-66 0 -104 40.5t-38 111.5q0 39 11.5 82t33.5 84t61 68t88 27q66 0 104 -40.5t38 -111.5zM197 119q0 56 -41 56q-36 0 -59.5 -66.5t-23.5 -120.5q0 -56 41 -56q36 0 59.5 66.5t23.5 120.5z" />
    <glyph glyph-name="oneinferior" unicode="&#x2081;" horiz-adv-x="285" 
d="M149 -146h-108l57 259l-73 -59l-48 64l168 136h92z" />
    <glyph glyph-name="twoinferior" unicode="&#x2082;" horiz-adv-x="355" 
d="M246 -146h-297l19 83q144 95 186.5 132t42.5 67q0 18 -14 28.5t-37 10.5q-55 0 -95 -43l-47 71q64 57 149 57q68 0 111 -30.5t43 -83.5q0 -50 -43.5 -94t-149.5 -113h151z" />
    <glyph glyph-name="threeinferior" unicode="&#x2083;" horiz-adv-x="355" 
d="M273 -31q0 -48 -42 -85t-111 -37q-56 0 -101 19.5t-66 52.5l72 64q30 -51 89 -51q26 0 39.5 14.5t13.5 33.5q0 35 -63 35q-26 0 -33 -1l19 84q7 -1 50 -1q58 0 58 43q0 17 -17 26t-42 9q-50 0 -86 -35l-44 64q59 56 141 56q72 0 114.5 -27.5t42.5 -76.5
q0 -38 -27.5 -68.5t-76.5 -34.5q33 -9 51.5 -31t18.5 -53z" />
    <glyph glyph-name="fourinferior" unicode="&#x2084;" horiz-adv-x="355" 
d="M271 -65h-41l-17 -81h-107l17 81h-174l17 77l194 242h141l-52 -235h41zM142 19l29 129l-104 -129h75z" />
    <glyph glyph-name="fiveinferior" unicode="&#x2085;" horiz-adv-x="355" 
d="M279 11q0 -69 -46 -116.5t-123 -47.5q-107 0 -160 68l71 61q32 -44 86 -44q29 0 45.5 19t16.5 44q0 42 -50 42q-39 0 -64 -30l-71 23l50 224h276l-19 -85h-169l-17 -82q29 28 69 28q45 0 75 -28t30 -76z" />
    <glyph glyph-name="sixinferior" unicode="&#x2086;" horiz-adv-x="355" 
d="M283 10q0 -67 -45 -115t-118 -48q-71 0 -111.5 39t-40.5 109q0 103 60.5 184t152.5 81q80 0 128 -47l-63 -69q-24 31 -68 31q-38 0 -63 -30t-31 -66v-4l-1 -2q37 49 90 49q46 0 78 -29.5t32 -82.5zM173 -4q0 21 -14 32t-36 11q-27 0 -49 -29q-3 -13 -3 -27
q0 -22 12.5 -36.5t34.5 -14.5q23 0 39 20.5t16 43.5z" />
    <glyph glyph-name="seveninferior" unicode="&#x2087;" horiz-adv-x="329" 
d="M297 180l-199 -326h-112l198 315h-184l19 85h294z" />
    <glyph glyph-name="eightinferior" unicode="&#x2088;" horiz-adv-x="355" 
d="M274 -37q0 -51 -40 -83.5t-114 -32.5t-121 26.5t-47 79.5q0 41 31 74t77 41q-58 24 -58 80q0 53 44 82.5t105 29.5q63 0 111.5 -26t48.5 -77q0 -39 -26.5 -68.5t-73.5 -37.5q26 -10 44.5 -34.5t18.5 -53.5zM201 143q0 17 -13.5 26t-34.5 9q-20 0 -34 -13t-14 -32
q0 -16 13.5 -27t25.5 -14q57 12 57 51zM169 -25q0 18 -13.5 30.5t-27.5 16.5q-26 -2 -46 -17.5t-20 -38.5q0 -17 14.5 -27.5t37.5 -10.5q24 0 39.5 13.5t15.5 33.5z" />
    <glyph glyph-name="nineinferior" unicode="&#x2089;" horiz-adv-x="355" 
d="M-11 98q0 67 45 115t118 48q71 0 111.5 -39t40.5 -109q0 -103 -60.5 -184t-152.5 -81q-80 0 -128 47l63 69q24 -31 67 -31q38 0 63.5 30t31.5 66v4l1 2q-37 -49 -90 -49q-46 0 -78 29.5t-32 82.5zM99 112q0 -21 14 -32t36 -11q25 0 49 29q3 13 3 27q0 22 -13 36.5
t-35 14.5q-23 0 -38.5 -20.5t-15.5 -43.5z" />
    <glyph glyph-name="parenleftinferior" unicode="&#x208d;" horiz-adv-x="191" 
d="M83 -185l-68 -26q-44 73 -44 180q0 97 44 188.5t117 161.5l56 -25q-59 -81 -91 -177t-32 -187q0 -67 18 -115z" />
    <glyph glyph-name="parenrightinferior" unicode="&#x208e;" horiz-adv-x="192" 
d="M25 294l67 25q44 -73 44 -180q0 -96 -44 -188t-117 -162l-56 26q59 81 91 176.5t32 186.5q0 69 -17 116z" />
    <glyph glyph-name="colonmonetary" unicode="&#x20a1;" horiz-adv-x="571" 
d="M299 -12q-5 0 -14.5 0.5t-13.5 0.5l-43 -89h-82l51 104q-23 9 -37 17l-59 -121h-81l81 166q-66 71 -66 185q0 109 40.5 205.5t121 159t183.5 62.5q13 0 20 -1l44 91h82l-52 -106q23 -9 36 -17l61 123h81l-85 -173q42 -51 56 -124l-153 -40q-8 47 -33.5 75.5t-64.5 28.5
q-72 0 -121.5 -88.5t-49.5 -191.5q0 -57 29 -90.5t78 -33.5q31 0 61.5 21t50.5 57l128 -68q-46 -77 -111 -115t-138 -38z" />
    <glyph glyph-name="frenchfranc" unicode="&#x20a3;" horiz-adv-x="494" 
d="M171 0h-162l22 100h-53l18 80h52l108 487h402l-32 -141h-239l-25 -117h232l-31 -141h-233l-20 -88h104l-18 -80h-103z" />
    <glyph glyph-name="lira" unicode="&#x20a4;" horiz-adv-x="506" 
d="M47 335l16 71h30q-4 17 -4 43q0 97 76 162.5t176 65.5q83 0 141 -38t70 -109l-142 -50q-8 66 -65 66q-34 0 -58 -35t-24 -84q0 -15 1 -21h125l-15 -71h-92q1 -6 1 -19q0 -10 -2 -28h82l-16 -71h-89q-26 -48 -61 -68q23 8 39 8q26 0 61.5 -13t56.5 -13q39 0 72 31l23 -129
q-42 -45 -116 -45q-45 0 -108 21t-88 21q-44 0 -98 -37l-26 108q81 41 108 116h-100l16 71h90q-2 18 -12 47h-68z" />
    <glyph glyph-name="uni20A6" unicode="&#x20a6;" horiz-adv-x="643" 
d="M526 0h-153l-78 227h-75l-49 -227h-162l50 227h-53l18 81h53l12 56h-52l18 81h52l49 222h165l74 -222h68l49 222h161l-49 -222h51l-18 -81h-51l-12 -56h50l-18 -81h-50zM250 361l-12 -53h30zM422 364l14 -41l9 41h-23z" />
    <glyph glyph-name="peseta" unicode="&#x20a7;" horiz-adv-x="604" 
d="M171 0h-162l87 394h-53l18 81h53l42 192h242q88 0 140 -53t54 -139h55l-17 -81h-48q-21 -85 -88.5 -138t-173.5 -53h-104zM330 344q52 0 80 50h-152l-11 -50h83zM287 526l-11 -51h146q-13 51 -58 51h-77z" />
    <glyph glyph-name="rupee" unicode="&#x20a8;" horiz-adv-x="957" 
d="M718 -12q-62 0 -118 22.5t-88 58.5l77 93q20 -25 58.5 -45t77.5 -20q23 0 37.5 11.5t14.5 27.5t-20.5 28.5t-49.5 24t-57.5 27t-49 43.5t-20.5 66q0 70 51 120t141 50q53 0 103.5 -19.5t83.5 -54.5l-71 -90q-16 20 -49 37t-67 17q-23 0 -37 -10.5t-14 -25.5t31.5 -30.5
t68.5 -29t68.5 -47t31.5 -80.5q0 -73 -55.5 -123.5t-147.5 -50.5zM489 0h-174l-38 229h-66l-50 -229h-162l147 667h246q82 0 138 -53t56 -134q0 -82 -45 -146.5t-106 -84.5zM243 370h84q40 0 65 27t25 66q0 30 -17 46.5t-43 16.5h-80z" />
    <glyph glyph-name="uni20A9" unicode="&#x20a9;" horiz-adv-x="811" 
d="M593 0h-167l8 227h-65l-92 -227h-167l-2 227h-95l18 81h76l-1 56h-62l17 81h44l-2 222h170l-11 -222h77l94 222h124l-4 -222h77l87 222h177l-100 -222h41l-18 -81h-60l-25 -56h73l-18 -81h-92zM551 308h25l22 56h-46zM256 308h25l23 56h-46zM424 364l-23 -56h36l2 56h-15
z" />
    <glyph glyph-name="afii57636" unicode="&#x20aa;" horiz-adv-x="724" 
d="M450 0h-288l84 379h121l-59 -266h141q43 0 64 21.5t32 71.5l76 344h122l-81 -359q-21 -96 -71 -143.5t-141 -47.5zM115 550h219q87 0 143.5 -37t56.5 -117q0 -30 -7 -63l-36 -163h-122l38 169q5 18 5 31q0 67 -82 67h-118l-97 -437h-121z" />
    <glyph glyph-name="dong" unicode="&#x20ab;" horiz-adv-x="524" 
d="M332 -180h-312l17 81h312zM241 495q89 0 123 -70l23 102h-128l17 81h129l13 59h144l-13 -59h47l-17 -81h-48l-117 -527h-144l12 56q-51 -68 -120 -68t-108 46.5t-39 133.5q0 72 24 144.5t77.5 127.5t124.5 55zM271 367q-46 0 -76.5 -57.5t-30.5 -115.5q0 -36 19 -57
t50 -21q42 0 73 45l36 161q-22 45 -71 45z" />
    <glyph glyph-name="Euro" unicode="&#x20ac;" horiz-adv-x="591" 
d="M319 -12q-110 0 -181.5 63t-81.5 170h-46l19 87h29q4 36 8 52h-26l20 88h33q42 103 121.5 166.5t185.5 63.5q108 0 167.5 -60t75.5 -147l-153 -40q-8 47 -33.5 75.5t-64.5 28.5q-70 0 -121 -87h156l-20 -88h-172q-7 -31 -11 -52h172l-20 -87h-152q8 -42 35 -66t69 -24
q31 0 61.5 21t50.5 57l128 -68q-46 -77 -111 -115t-138 -38z" />
    <glyph glyph-name="afii61289" unicode="&#x2113;" horiz-adv-x="505" 
d="M247 483l-26 -122l111 73q28 18 42.5 29t26.5 27.5t12 33.5q0 22 -17.5 36t-46.5 14q-81 0 -102 -91zM388 350l-199 -132l-14 -63q-2 -12 -2 -19q0 -13 10 -21.5t26 -8.5q15 0 26 9l2 -109q-22 -18 -75 -18q-66 0 -103.5 26t-37.5 76q0 22 5 42l79 359q42 186 256 186
q84 0 138 -38t54 -99q0 -28 -14 -54.5t-43.5 -53t-50 -42t-57.5 -40.5z" />
    <glyph glyph-name="afii61352" unicode="&#x2116;" horiz-adv-x="985" 
d="M841 350q-68 0 -107 38t-39 98q0 77 52 135.5t127 58.5q68 0 107 -38t39 -99q0 -77 -51.5 -135t-127.5 -58zM845 432q33 0 51.5 39t18.5 76q0 49 -45 49q-33 0 -51 -39t-18 -75q0 -50 44 -50zM516 0h-153l-123 361l-79 -361h-162l147 667h165l115 -344l76 344h161z" />
    <glyph glyph-name="published" unicode="&#x2117;" horiz-adv-x="778" 
d="M754 334q0 -142 -101.5 -243.5t-244.5 -101.5q-142 0 -243 101t-101 244t101 244t243 101q143 0 244.5 -101.5t101.5 -243.5zM716 334q0 126 -91 216.5t-217 90.5t-215.5 -90.5t-89.5 -216.5t89.5 -216.5t215.5 -90.5t217 90.5t91 216.5zM597 428q0 -57 -43 -94.5
t-106 -37.5h-120l-36 -165h-48l89 405h139q51 0 88 -29t37 -79zM546 425q0 30 -21.5 48.5t-58.5 18.5h-94l-34 -152h118q39 0 64.5 25t25.5 60z" />
    <glyph glyph-name="servicemark" unicode="&#x2120;" horiz-adv-x="425" 
d="M433 447h-28l40 182l-105 -182h-8l-25 182l-40 -182h-28l48 220h42l20 -158l88 158h44zM214 512q0 -30 -21.5 -51t-54.5 -21q-51 0 -73 32l20 21q18 -26 53 -26q18 0 31 12t13 28q0 17 -20.5 31t-41 29t-20.5 37q0 29 20.5 49t52.5 20q46 0 65 -26l-20 -21q-15 22 -47 22
q-17 0 -28 -10.5t-11 -26.5q0 -12 13 -23.5t28 -19.5t28 -22.5t13 -33.5z" />
    <glyph glyph-name="trademark" unicode="&#x2122;" horiz-adv-x="414" 
d="M424 447h-28l40 182l-105 -182h-8l-25 182l-40 -182h-28l48 220h43l20 -158l88 158h43zM237 641h-52l-43 -194h-28l43 194h-52l5 26h132z" />
    <glyph glyph-name="Omega" unicode="&#x2126;" horiz-adv-x="630" 
d="M15 141h110q-81 73 -81 189q0 58 22 118.5t61.5 112t103 84.5t138.5 33q119 0 196.5 -62.5t77.5 -177.5q0 -98 -47 -175t-114 -122h87l-31 -141h-236l31 141q60 27 99 113t39 157q0 57 -27 90t-80 33q-48 0 -87.5 -46t-59.5 -108.5t-20 -120.5q0 -82 54 -118l-31 -141
h-236z" />
    <glyph glyph-name="estimated" unicode="&#x212e;" horiz-adv-x="842" 
d="M829 324h-632q-4 0 -4 -5v-190q0 -15 9 -23q98 -103 240 -103q151 0 250 115h57q-54 -63 -135 -99.5t-174 -36.5q-161 0 -275.5 103t-114.5 248t114.5 248t275.5 103t275.5 -103t114.5 -248zM687 349v191q0 14 -10 24q-97 99 -236 99t-238 -102q-10 -10 -10 -24v-188
q0 -6 5 -6h485q4 0 4 6z" />
    <glyph glyph-name="onethird" unicode="&#x2153;" horiz-adv-x="809" 
d="M240 267h-108l57 259l-73 -59l-48 64l168 136h92zM682 667l-502 -667h-71l501 667h72zM759 115q0 -48 -42 -85t-111 -37q-56 0 -101 19.5t-66 52.5l72 64q30 -51 89 -51q26 0 39.5 14.5t13.5 33.5q0 35 -63 35q-26 0 -33 -1l19 84q7 -1 50 -1q58 0 58 43q0 17 -17 26
t-42 9q-50 0 -86 -35l-44 64q59 56 141 56q72 0 114.5 -27.5t42.5 -76.5q0 -38 -27.5 -68.5t-76.5 -34.5q33 -9 51.5 -31t18.5 -53z" />
    <glyph glyph-name="twothirds" unicode="&#x2154;" horiz-adv-x="865" 
d="M337 267h-297l19 83q144 95 186.5 132t42.5 67q0 18 -14 28.5t-37 10.5q-55 0 -95 -43l-47 71q64 57 149 57q68 0 111 -30.5t43 -83.5q0 -50 -43.5 -94t-149.5 -113h151zM739 667l-502 -667h-71l501 667h72zM816 115q0 -48 -42 -85t-111 -37q-56 0 -101 19.5t-66 52.5
l72 64q30 -51 89 -51q26 0 39.5 14.5t13.5 33.5q0 35 -63 35q-26 0 -33 -1l19 84q7 -1 50 -1q58 0 58 43q0 17 -17 26t-42 9q-50 0 -86 -35l-44 64q59 56 141 56q72 0 114.5 -27.5t42.5 -76.5q0 -38 -27.5 -68.5t-76.5 -34.5q33 -9 51.5 -31t18.5 -53z" />
    <glyph glyph-name="oneeighth" unicode="&#x215b;" horiz-adv-x="809" 
d="M240 267h-108l57 259l-73 -59l-48 64l168 136h92zM760 109q0 -51 -40 -83.5t-114 -32.5t-121 26.5t-47 79.5q0 41 31 74t77 41q-58 24 -58 80q0 53 44 82.5t105 29.5q63 0 111.5 -26t48.5 -77q0 -39 -26.5 -68.5t-73.5 -37.5q26 -10 44.5 -34.5t18.5 -53.5zM687 289
q0 17 -13.5 26t-34.5 9q-20 0 -34 -13t-14 -32q0 -16 13.5 -27t25.5 -14q57 12 57 51zM655 121q0 18 -13.5 30.5t-27.5 16.5q-26 -2 -46 -17.5t-20 -38.5q0 -17 14.5 -27.5t37.5 -10.5q24 0 39.5 13.5t15.5 33.5zM682 667l-502 -667h-71l501 667h72z" />
    <glyph glyph-name="threeeighths" unicode="&#x215c;" horiz-adv-x="865" 
d="M817 109q0 -51 -40 -83.5t-114 -32.5t-121 26.5t-47 79.5q0 41 31 74t77 41q-58 24 -58 80q0 53 44 82.5t105 29.5q63 0 111.5 -26t48.5 -77q0 -39 -26.5 -68.5t-73.5 -37.5q26 -10 44.5 -34.5t18.5 -53.5zM744 289q0 17 -13.5 26t-34.5 9q-20 0 -34 -13t-14 -32
q0 -16 13.5 -27t25.5 -14q57 12 57 51zM712 121q0 18 -13.5 30.5t-27.5 16.5q-26 -2 -46 -17.5t-20 -38.5q0 -17 14.5 -27.5t37.5 -10.5q24 0 39.5 13.5t15.5 33.5zM739 667l-502 -667h-71l501 667h72zM364 382q0 -48 -42 -85t-111 -37q-56 0 -101 19.5t-66 52.5l72 64
q30 -51 89 -51q26 0 39.5 14.5t13.5 33.5q0 35 -63 35q-26 0 -33 -1l19 84q7 -1 50 -1q58 0 58 43q0 17 -17 26t-42 9q-50 0 -86 -35l-44 64q59 56 141 56q72 0 114.5 -27.5t42.5 -76.5q0 -38 -27.5 -68.5t-76.5 -34.5q33 -9 51.5 -31t18.5 -53z" />
    <glyph glyph-name="fiveeighths" unicode="&#x215d;" horiz-adv-x="858" 
d="M809 109q0 -51 -40 -83.5t-114 -32.5t-121 26.5t-47 79.5q0 41 31 74t77 41q-58 24 -58 80q0 53 44 82.5t105 29.5q63 0 111.5 -26t48.5 -77q0 -39 -26.5 -68.5t-73.5 -37.5q26 -10 44.5 -34.5t18.5 -53.5zM736 289q0 17 -13.5 26t-34.5 9q-20 0 -34 -13t-14 -32
q0 -16 13.5 -27t25.5 -14q57 12 57 51zM704 121q0 18 -13.5 30.5t-27.5 16.5q-26 -2 -46 -17.5t-20 -38.5q0 -17 14.5 -27.5t37.5 -10.5q24 0 39.5 13.5t15.5 33.5zM370 424q0 -69 -46 -116.5t-123 -47.5q-107 0 -160 68l71 61q32 -44 86 -44q29 0 45.5 19t16.5 44
q0 42 -50 42q-38 0 -64 -30l-71 23l50 224h276l-19 -85h-169l-17 -82q29 28 69 28q45 0 75 -28t30 -76zM731 667l-502 -667h-71l501 667h72z" />
    <glyph glyph-name="seveneighths" unicode="&#x215e;" horiz-adv-x="796" 
d="M747 109q0 -51 -40 -83.5t-114 -32.5t-121 26.5t-47 79.5q0 41 31 74t77 41q-58 24 -58 80q0 53 44 82.5t105 29.5q63 0 111.5 -26t48.5 -77q0 -39 -26.5 -68.5t-73.5 -37.5q26 -10 44.5 -34.5t18.5 -53.5zM674 289q0 17 -13.5 26t-34.5 9q-20 0 -34 -13t-14 -32
q0 -16 13.5 -27t25.5 -14q57 12 57 51zM642 121q0 18 -13.5 30.5t-27.5 16.5q-26 -2 -46 -17.5t-20 -38.5q0 -17 14.5 -27.5t37.5 -10.5q24 0 39.5 13.5t15.5 33.5zM388 593l-199 -326h-112l198 315h-184l19 85h294zM669 667l-502 -667h-71l501 667h72z" />
    <glyph glyph-name="arrowleft" unicode="&#x2190;" horiz-adv-x="582" 
d="M558 211h-269l12 -130l-281 205l281 204l-12 -129h269v-150z" />
    <glyph glyph-name="arrowup" unicode="&#x2191;" horiz-adv-x="582" 
d="M236 17v269l-130 -12l205 281l204 -281l-129 12v-269h-150z" />
    <glyph glyph-name="arrowright" unicode="&#x2192;" horiz-adv-x="582" 
d="M604 286l-281 -205l12 130h-268v150h268l-12 129z" />
    <glyph glyph-name="arrowdown" unicode="&#x2193;" horiz-adv-x="582" 
d="M386 555v-269l130 12l-205 -281l-204 281l129 -12v269h150z" />
    <glyph glyph-name="partialdiff" unicode="&#x2202;" horiz-adv-x="505" 
d="M230 -12q-102 0 -160 53t-58 142q0 104 63.5 187.5t157.5 83.5q99 0 130 -96q-6 65 -45 145.5t-88 136.5l119 76q80 -88 115.5 -170.5t35.5 -174.5q0 -69 -16.5 -135.5t-48.5 -122.5t-85.5 -90.5t-119.5 -34.5zM233 116q43 0 71.5 44t28.5 95q0 30 -19 51t-56 21
q-42 0 -69 -45.5t-27 -93.5q0 -72 71 -72z" />
    <glyph glyph-name="Delta" unicode="&#x2206;" horiz-adv-x="575" 
d="M528 0h-589l344 667h195zM359 141l-10 358l-166 -358h176z" />
    <glyph glyph-name="product" unicode="&#x220f;" horiz-adv-x="694" 
d="M525 -90h-161l135 616h-180l-136 -616h-161l135 616h-75l31 141h655l-32 -141h-75z" />
    <glyph glyph-name="summation" unicode="&#x2211;" horiz-adv-x="486" 
d="M282 526l98 -235l-203 -240h232l-31 -141h-416l31 144l204 243l-98 229l31 141h415l-31 -141h-232z" />
    <glyph glyph-name="minus" unicode="&#x2212;" horiz-adv-x="446" 
d="M428 294h-388l19 87h388z" />
    <glyph glyph-name="uni2215" unicode="&#x2215;" horiz-adv-x="156" 
d="M384 667l-502 -667h-71l501 667h72z" />
    <glyph glyph-name="uni2219" unicode="&#x2219;" horiz-adv-x="264" 
d="M124 155q-34 0 -58 24t-24 58q0 40 29 69t69 29q34 0 57.5 -24.5t23.5 -58.5q0 -40 -29 -68.5t-68 -28.5z" />
    <glyph glyph-name="radical" unicode="&#x221a;" horiz-adv-x="563" 
d="M287 0h-93l-20 292l-107 -28l-2 85l196 49l11 -255l264 524h100z" />
    </font>
</defs>
</svg>
