<?xml version="1.0" standalone="no"?>
<!DOCTYPE svg PUBLIC "-//W3C//DTD SVG 1.1//EN" "http://www.w3.org/Graphics/SVG/1.1/DTD/svg11.dtd" >
<svg xmlns="http://www.w3.org/2000/svg" xmlns:xlink="http://www.w3.org/1999/xlink" version="1.1">
<metadata>
Created by FontForge 20170731 at Tue Nov 30 17:34:20 2010
 By ,,,
Copyright (c) Mark Simonson, 2005. All rights reserved.
</metadata>
<defs>
<font id="ProximaNovaCond-Light" horiz-adv-x="469" >
  <font-face 
    font-family="Proxima Nova Cn Lt"
    font-weight="300"
    font-stretch="normal"
    units-per-em="1000"
    panose-1="2 0 5 6 3 0 0 2 0 4"
    ascent="790"
    descent="-210"
    x-height="483"
    cap-height="667"
    bbox="-136 -264 915 890"
    underline-thickness="20"
    underline-position="-173"
    unicode-range="U+000D-FB04"
  />
<missing-glyph horiz-adv-x="501" 
d="M426 -90h-351v842h351v-842zM394 -60v782h-288v-782h288z" />
    <glyph glyph-name="f_f_j" unicode="ffj" horiz-adv-x="670" 
d="M376 0h-51v438h-64v45h64v69q0 58 29.5 91.5t78.5 33.5q33 0 54 -14l-16 -40q-13 10 -32 10q-63 0 -63 -81v-69h83v-45h-83v-438zM574 559q-16 0 -27.5 11.5t-11.5 27.5t11.5 27.5t27.5 11.5t27.5 -11.5t11.5 -27.5t-11.5 -27.5t-27.5 -11.5zM493 -196q-48 0 -78 36
l25 36q21 -28 50 -28q59 0 59 79v556h50v-556q0 -123 -106 -123zM137 0h-51v438h-64v45h64v69q0 58 29.5 91.5t81.5 33.5q46 0 77 -30l-23 -38q-21 24 -49 24q-65 0 -65 -81v-69h83v-45h-83v-438z" />
    <glyph glyph-name="f_j" unicode="fj" horiz-adv-x="431" 
d="M137 0h-51v438h-64v45h64v69q0 58 29.5 91.5t78.5 33.5q33 0 54 -14l-16 -40q-13 10 -32 10q-63 0 -63 -81v-69h83v-45h-83v-438zM335 559q-16 0 -27.5 11.5t-11.5 27.5t11.5 27.5t27.5 11.5t27.5 -11.5t11.5 -27.5t-11.5 -27.5t-27.5 -11.5zM254 -196q-48 0 -78 36
l25 36q21 -28 50 -28q59 0 59 79v556h50v-556q0 -123 -106 -123z" />
    <glyph glyph-name="f_f" unicode="ff" horiz-adv-x="478" 
d="M137 0h-51v438h-64v45h64v69q0 58 29.5 91.5t81.5 33.5q46 0 77 -30l-23 -38q-21 24 -49 24q-65 0 -65 -81v-69h83v-45h-83v-438zM376 0h-51v438h-64v45h64v69q0 58 29.5 91.5t81.5 33.5q46 0 77 -30l-23 -38q-21 24 -49 24q-65 0 -65 -81v-69h83v-45h-83v-438z" />
    <glyph glyph-name="fi" unicode="fi" horiz-adv-x="431" 
d="M137 0h-51v438h-64v45h64v69q0 58 29.5 91.5t78.5 33.5q33 0 54 -14l-16 -40q-13 10 -32 10q-63 0 -63 -81v-69h83v-45h-83v-438zM335 559q-16 0 -27.5 11.5t-11.5 27.5t11.5 27.5t27.5 11.5t27.5 -11.5t11.5 -27.5t-11.5 -27.5t-27.5 -11.5zM360 0h-50v483h50v-483z" />
    <glyph glyph-name="fl" unicode="fl" horiz-adv-x="431" 
d="M137 0h-51v438h-64v45h64v69q0 58 29.5 91.5t78.5 33.5q33 0 54 -14l-16 -40q-13 10 -32 10q-63 0 -63 -81v-69h83v-45h-83v-438zM360 0h-50v667h50v-667z" />
    <glyph glyph-name="f_f_i" unicode="ffi" horiz-adv-x="670" 
d="M376 0h-51v438h-64v45h64v69q0 58 29.5 91.5t78.5 33.5q33 0 54 -14l-16 -40q-13 10 -32 10q-63 0 -63 -81v-69h83v-45h-83v-438zM574 559q-16 0 -27.5 11.5t-11.5 27.5t11.5 27.5t27.5 11.5t27.5 -11.5t11.5 -27.5t-11.5 -27.5t-27.5 -11.5zM599 0h-50v483h50v-483z
M137 0h-51v438h-64v45h64v69q0 58 29.5 91.5t81.5 33.5q46 0 77 -30l-23 -38q-21 24 -49 24q-65 0 -65 -81v-69h83v-45h-83v-438z" />
    <glyph glyph-name="f_f_l" unicode="ffl" horiz-adv-x="670" 
d="M376 0h-51v438h-64v45h64v69q0 58 29.5 91.5t78.5 33.5q33 0 54 -14l-16 -40q-13 10 -32 10q-63 0 -63 -81v-69h83v-45h-83v-438zM599 0h-50v667h50v-667zM137 0h-51v438h-64v45h64v69q0 58 29.5 91.5t81.5 33.5q46 0 77 -30l-23 -38q-21 24 -49 24q-65 0 -65 -81v-69h83
v-45h-83v-438z" />
    <glyph glyph-name="f_b" unicode="fb" horiz-adv-x="708" 
d="M137 0h-51v438h-64v45h64v69q0 58 29.5 91.5t78.5 33.5q33 0 54 -14l-16 -40q-13 10 -32 10q-63 0 -63 -81v-69h83v-45h-83v-438zM360 122q16 -37 49.5 -63t70.5 -26q62 0 94 58.5t32 149.5t-32 150t-94 59q-37 0 -70.5 -27t-49.5 -64v-237zM360 0h-50v667h50v-258
q22 41 56.5 63.5t72.5 22.5q80 0 125.5 -70t45.5 -184q0 -115 -45.5 -184t-125.5 -69q-38 0 -72.5 23t-56.5 61v-72z" />
    <glyph glyph-name="f_h" unicode="fh" horiz-adv-x="689" 
d="M137 0h-51v438h-64v45h64v69q0 58 29.5 91.5t78.5 33.5q33 0 54 -14l-16 -40q-13 10 -32 10q-63 0 -63 -81v-69h83v-45h-83v-438zM618 0h-50v356q0 94 -84 94q-36 0 -70.5 -25t-53.5 -60v-365h-50v667h50v-255q23 35 61.5 59t78.5 24q60 0 89 -31t29 -98v-366z" />
    <glyph glyph-name="f_k" unicode="fk" horiz-adv-x="663" 
d="M137 0h-51v438h-64v45h64v69q0 58 29.5 91.5t78.5 33.5q33 0 54 -14l-16 -40q-13 10 -32 10q-63 0 -63 -81v-69h83v-45h-83v-438zM643 0h-61l-146 230l-76 -94v-136h-50v667h50v-465l224 281h61l-175 -218z" />
    <glyph glyph-name=".notdef" horiz-adv-x="501" 
d="M426 -90h-351v842h351v-842zM394 -60v782h-288v-782h288z" />
    <glyph glyph-name=".null" horiz-adv-x="0" 
 />
    <glyph glyph-name=".null" horiz-adv-x="0" 
 />
    <glyph glyph-name="nonmarkingreturn" horiz-adv-x="333" 
 />
    <glyph glyph-name="CR" unicode="&#xd;" horiz-adv-x="0" 
 />
    <glyph glyph-name="space" unicode=" " horiz-adv-x="218" 
 />
    <glyph glyph-name="exclam" unicode="!" horiz-adv-x="218" 
d="M129 173h-40l-13 494h66zM109 -9q-18 0 -30.5 12.5t-12.5 30.5q0 17 12.5 29.5t30.5 12.5t30.5 -12.5t12.5 -29.5q0 -18 -12.5 -30.5t-30.5 -12.5z" />
    <glyph glyph-name="quotedbl" unicode="&#x22;" horiz-adv-x="315" 
d="M108 429h-29q-21 200 -21 213q0 14 10.5 24.5t24.5 10.5q15 0 25 -10.5t10 -24.5zM236 429h-29q-20 200 -20 213q0 14 10 24.5t25 10.5q14 0 24.5 -10.5t10.5 -24.5z" />
    <glyph glyph-name="numbersign" unicode="#" horiz-adv-x="494" 
d="M246 0h-46l54 186h-96l-53 -186h-46l53 186h-91l10 40h93l60 214h-93l10 40h95l52 187h46l-52 -187h95l52 187h46l-53 -187h91l-9 -40h-93l-61 -214h95l-11 -40h-96zM264 226l61 214h-95l-61 -214h95z" />
    <glyph glyph-name="dollar" unicode="$" horiz-adv-x="454" 
d="M213 -100v88q-111 4 -177 83l34 43q53 -71 143 -75v284q-31 15 -47.5 24.5t-41 27.5t-37 35t-22.5 43.5t-10 57.5q0 69 44.5 114t113.5 52v91h45v-91q87 -7 143 -68l-31 -42q-45 51 -112 59v-259q36 -19 58 -33.5t48 -38.5t38.5 -56t12.5 -73q0 -67 -40 -116.5
t-117 -59.5v-90h-45zM358 163q0 48 -26 79t-74 57v-257q49 9 74.5 42.5t25.5 78.5zM112 513q0 -42 26 -69t75 -54v235q-45 -6 -73 -36t-28 -76z" />
    <glyph glyph-name="percent" unicode="%" horiz-adv-x="641" 
d="M170 350q-61 0 -99 46t-38 116q0 71 38 118t99 47t99 -47t38 -118q0 -70 -38 -116t-99 -46zM168 0h-40l348 667h42zM471 -12q-60 0 -98 46.5t-38 116.5q0 71 38 117.5t98 46.5q61 0 99 -46.5t38 -117.5t-38 -117t-99 -46zM170 387q42 0 67 36t25 89q0 54 -25 90.5
t-67 36.5q-41 0 -66.5 -36.5t-25.5 -90.5q0 -52 25.5 -88.5t66.5 -36.5zM471 26q42 0 67.5 36t25.5 89q0 54 -25.5 90t-67.5 36q-41 0 -66.5 -36t-25.5 -90q0 -52 25.5 -88.5t66.5 -36.5z" />
    <glyph glyph-name="ampersand" unicode="&#x26;" horiz-adv-x="509" 
d="M486 0h-68q-48 59 -61 76q-66 -88 -156 -88q-69 0 -114 47t-45 129q0 70 31.5 116.5t87.5 88.5q-45 90 -45 151q0 70 35.5 113.5t91.5 43.5q50 0 81.5 -34t31.5 -91q0 -28 -9 -53.5t-18 -41.5t-32.5 -37.5t-34 -30t-40.5 -30.5q30 -54 65 -103q34 -52 66 -95
q32 66 56 158l46 -19q-33 -114 -70 -180zM206 33q65 0 120 81q-58 76 -77 107q-39 58 -67 107q-85 -71 -85 -162q0 -63 31.5 -98t77.5 -35zM169 520q0 -48 33 -121q51 37 78 70.5t27 81.5q0 40 -18 61.5t-46 21.5q-34 0 -54 -30t-20 -84z" />
    <glyph glyph-name="quotesingle" unicode="'" horiz-adv-x="187" 
d="M108 429h-29q-21 200 -21 213q0 14 10.5 24.5t24.5 10.5q15 0 25 -10.5t10 -24.5z" />
    <glyph glyph-name="parenleft" unicode="(" horiz-adv-x="208" 
d="M190 -180l-32 -19q-112 204 -112 442t112 442l32 -18q-43 -108 -65 -205t-22 -219t22 -219t65 -204z" />
    <glyph glyph-name="parenright" unicode=")" horiz-adv-x="208" 
d="M49 -199l-32 19q44 105 65.5 202.5t21.5 220.5q0 122 -21.5 220t-65.5 204l32 18q112 -204 112 -442t-112 -442z" />
    <glyph glyph-name="asterisk" unicode="*" horiz-adv-x="315" 
d="M176 400h-37l6 117l-99 -64l-18 32l104 53l-104 53l18 33l99 -64l-6 117h37l-6 -117l99 64l18 -33l-104 -53l104 -53l-18 -32l-99 64z" />
    <glyph glyph-name="plus" unicode="+" horiz-adv-x="436" 
d="M407 317h-167v-188h-44v188h-167v40h167v182h44v-182h167v-40z" />
    <glyph glyph-name="comma" unicode="," horiz-adv-x="218" 
d="M157 13q0 -40 -20 -77t-51 -58l-29 24q24 16 40.5 42.5t18.5 49.5h-4q-4 -1 -6 -1q-18 0 -29 11.5t-11 29.5q0 17 12 29.5t30 12.5q20 0 34.5 -17t14.5 -46z" />
    <glyph glyph-name="hyphen" unicode="-" horiz-adv-x="266" 
d="M236 219h-206v46h206v-46z" />
    <glyph glyph-name="period" unicode="." horiz-adv-x="218" 
d="M109 -9q-17 0 -30 12.5t-13 30.5q0 17 13 29.5t30 12.5q18 0 30.5 -12.5t12.5 -29.5q0 -18 -12.5 -30.5t-30.5 -12.5z" />
    <glyph glyph-name="slash" unicode="/" horiz-adv-x="235" 
d="M43 -20h-43l192 707h43z" />
    <glyph glyph-name="zero" unicode="0" horiz-adv-x="502" 
d="M251 -12q-54 0 -94.5 31.5t-62 84t-31.5 109.5t-10 120t10 120.5t31.5 109.5t62 83t94.5 31t94 -31t62 -83t32 -109.5t10 -120.5t-10 -120t-31.5 -109.5t-62 -84t-94.5 -31.5zM251 39q40 0 69 26.5t43.5 72t20.5 93t6 102.5t-6 102.5t-20.5 93t-43.5 71.5t-69 26t-69 -26
t-43.5 -71t-21 -93t-6.5 -103t6 -102.5t20.5 -93t43.5 -72t70 -26.5z" />
    <glyph glyph-name="one" unicode="1" horiz-adv-x="288" 
d="M212 0h-55v592l-104 -113l-35 36l144 152h50v-667z" />
    <glyph glyph-name="two" unicode="2" horiz-adv-x="476" 
d="M409 0h-353v46q24 30 64 79t57.5 70.5t46.5 58.5t40.5 54t30 44.5t25.5 43t16 36t11.5 37.5t2.5 35q0 57 -34 89.5t-82 32.5q-94 0 -140 -87l-41 32q63 106 181 106q72 0 122.5 -46.5t50.5 -126.5q0 -52 -32 -116.5t-65 -109.5t-135 -174q-27 -35 -42 -54h276v-50z" />
    <glyph glyph-name="three" unicode="3" horiz-adv-x="456" 
d="M217 -12q-63 0 -111 31.5t-74 80.5l41 31q50 -92 143 -92q63 0 96.5 38t33.5 105q0 72 -39 104t-98 32q-40 0 -49 -1v53q10 -1 49 -1q55 0 91.5 32.5t36.5 93.5q0 64 -33.5 97.5t-88.5 33.5q-79 0 -135 -84l-39 31q28 48 74 76t103 28q77 0 126.5 -45.5t49.5 -130.5
q0 -60 -34.5 -102t-81.5 -54q47 -8 85.5 -53t38.5 -113q0 -85 -48 -138t-137 -53z" />
    <glyph glyph-name="four" unicode="4" horiz-adv-x="439" 
d="M340 0h-56v183h-260v51l244 433h72v-434h75v-50h-75v-183zM284 233v369l-207 -369h207z" />
    <glyph glyph-name="five" unicode="5" horiz-adv-x="476" 
d="M242 -12q-68 0 -111 28.5t-73 82.5l41 32q48 -92 142 -92q56 0 91.5 47.5t35.5 114.5q0 79 -33.5 121.5t-89.5 42.5q-72 0 -125 -65l-43 18v349h314v-50h-259v-261q46 59 124 59q74 0 121.5 -56t47.5 -157q0 -92 -52 -153t-131 -61z" />
    <glyph glyph-name="six" unicode="6" horiz-adv-x="478" 
d="M249 -12q-54 0 -94 28.5t-61 79t-31 109.5t-10 128q0 68 11 126.5t34 109t65 79.5t98 29q98 0 149 -88l-35 -37q-41 74 -114 74q-41 0 -72 -26.5t-47.5 -71t-24 -94t-7.5 -103.5v-23q20 41 60 72.5t90 31.5q75 0 122.5 -54.5t47.5 -156.5q0 -87 -48 -150t-133 -63z
M247 39q62 0 93.5 48t31.5 112q0 84 -33.5 123.5t-89.5 39.5q-43 0 -79 -33t-58 -82q2 -35 9 -67.5t21.5 -66t41.5 -54t63 -20.5z" />
    <glyph glyph-name="seven" unicode="7" horiz-adv-x="403" 
d="M160 0h-60l213 617h-285v50h347v-38z" />
    <glyph glyph-name="eight" unicode="8" horiz-adv-x="470" 
d="M235 -12q-83 0 -133.5 47.5t-50.5 126.5q0 63 40.5 112t94.5 70q-51 19 -88.5 62t-37.5 103q0 80 51 124t124 44t124.5 -44t51.5 -124q0 -60 -37.5 -103t-88.5 -62q54 -21 94 -70t40 -112q0 -79 -50.5 -126.5t-133.5 -47.5zM235 367q13 3 30.5 11.5t38.5 24t35.5 42.5
t14.5 59q0 56 -33 89t-86 33t-85.5 -33t-32.5 -89q0 -32 14.5 -59t35.5 -42.5t38 -24t30 -11.5zM235 39q54 0 90.5 34.5t36.5 93.5q0 35 -15.5 65t-37.5 48t-42 28.5t-32 12.5q-34 -5 -80.5 -47.5t-46.5 -107.5q0 -59 36.5 -93t90.5 -34z" />
    <glyph glyph-name="nine" unicode="9" horiz-adv-x="478" 
d="M217 -11q-99 0 -149 88l35 37q41 -74 114 -74q42 0 72.5 26.5t47 71t24 93.5t7.5 103q0 15 -1 25q-19 -41 -59.5 -73t-89.5 -32q-75 0 -122.5 55t-47.5 157q0 86 47.5 149t132.5 63q55 0 94.5 -28.5t61 -79t31.5 -109t10 -128.5q0 -67 -11 -126t-34 -109.5t-65 -79.5
t-98 -29zM228 304q44 0 80 33t57 82q-2 35 -9 67.5t-21 66t-41.5 54t-63.5 20.5q-61 0 -93 -48t-32 -112q0 -84 33.5 -123.5t89.5 -39.5z" />
    <glyph glyph-name="colon" unicode=":" horiz-adv-x="218" 
d="M109 404q-17 0 -30 13t-13 30t13 30t30 13q18 0 30.5 -13t12.5 -30t-12.5 -30t-30.5 -13zM109 -9q-17 0 -30 12.5t-13 30.5q0 17 13 29.5t30 12.5q18 0 30.5 -12.5t12.5 -29.5q0 -18 -12.5 -30.5t-30.5 -12.5z" />
    <glyph glyph-name="semicolon" unicode=";" horiz-adv-x="218" 
d="M109 404q-17 0 -30 13t-13 30t13 30t30 13q18 0 30.5 -13t12.5 -30t-12.5 -30t-30.5 -13zM157 14q0 -40 -20 -77t-51 -58l-29 24q24 16 40.5 42.5t18.5 49.5l-4 -1h-6q-18 0 -29 11.5t-11 29.5q0 17 12 29.5t30 12.5q20 0 34.5 -17t14.5 -46z" />
    <glyph glyph-name="less" unicode="&#x3c;" horiz-adv-x="436" 
d="M407 127l-378 190v36l378 190v-49l-326 -160l326 -159v-48z" />
    <glyph glyph-name="equal" unicode="=" horiz-adv-x="436" 
d="M407 412h-378v40h378v-40zM407 216h-378v40h378v-40z" />
    <glyph glyph-name="greater" unicode="&#x3e;" horiz-adv-x="436" 
d="M407 317l-378 -190v48l326 159l-326 160v49l378 -190v-36z" />
    <glyph glyph-name="question" unicode="?" horiz-adv-x="386" 
d="M178 176q-35 35 -35 80q0 35 16 64.5t38.5 50.5l45 42t38.5 49t16 62q0 42 -29.5 72.5t-79.5 30.5q-75 0 -124 -62l-31 37q59 76 160 76q72 0 116.5 -43t44.5 -105q0 -40 -16.5 -73.5t-40 -56.5t-47 -44t-40 -47t-16.5 -55q0 -32 25 -54zM190 -9q-17 0 -30 12.5t-13 30.5
q0 17 13 29.5t30 12.5q18 0 30.5 -12.5t12.5 -29.5q0 -18 -12.5 -30.5t-30.5 -12.5z" />
    <glyph glyph-name="at" unicode="@" horiz-adv-x="684" 
d="M306 -70q-119 0 -195 84t-76 216q0 162 108.5 285.5t250.5 123.5q114 0 184 -79t70 -205q0 -118 -46 -194t-105 -76q-35 0 -56.5 22.5t-22.5 55.5v6q-57 -84 -135 -84q-54 0 -87.5 36t-33.5 105q0 105 62.5 189.5t146.5 84.5q37 0 63.5 -22.5t37.5 -56.5l12 61h48
l-60 -285q-3 -15 -3 -21q0 -51 40 -51q20 0 43.5 22t43.5 77.5t20 130.5q0 115 -62 183.5t-162 68.5q-129 0 -226.5 -115.5t-97.5 -260.5q0 -120 68 -195t174 -75q84 0 159 57l17 -25q-85 -63 -180 -63zM294 125q70 0 133 94l35 160q-8 32 -30 56t-56 24q-69 0 -116.5 -73.5
t-47.5 -156.5q0 -48 21 -76t61 -28z" />
    <glyph glyph-name="A" unicode="A" horiz-adv-x="492" 
d="M480 0h-60l-48 165h-251l-48 -165h-61l201 667h66zM359 215l-113 387l-113 -387h226z" />
    <glyph glyph-name="B" unicode="B" horiz-adv-x="498" 
d="M277 0h-202v667h197q75 0 118 -45.5t43 -124.5q0 -61 -28 -100.5t-72 -52.5q47 -7 79 -56t32 -108q0 -84 -43.5 -132t-123.5 -48zM265 367q55 0 82 34.5t27 89.5q0 56 -27 91t-82 35h-134v-250h134zM269 50q57 0 86.5 35.5t29.5 98.5q0 56 -29.5 94.5t-86.5 38.5h-138
v-267h138z" />
    <glyph glyph-name="C" unicode="C" horiz-adv-x="523" 
d="M302 -12q-113 0 -181 97t-68 248q0 152 68 248.5t181 96.5q116 0 184 -117l-47 -24q-49 90 -137 90q-86 0 -138.5 -82.5t-52.5 -211.5q0 -128 52.5 -211t138.5 -83q90 0 138 100l48 -24q-67 -127 -186 -127z" />
    <glyph glyph-name="D" unicode="D" horiz-adv-x="549" 
d="M237 0h-162v667h162q122 0 190.5 -94t68.5 -240q0 -147 -68.5 -240t-190.5 -93zM237 50q97 0 148.5 79t51.5 204t-51.5 204.5t-148.5 79.5h-106v-567h106z" />
    <glyph glyph-name="E" unicode="E" horiz-adv-x="452" 
d="M401 0h-326v667h326v-50h-270v-250h263v-50h-263v-267h270v-50z" />
    <glyph glyph-name="F" unicode="F" horiz-adv-x="441" 
d="M131 0h-56v667h326v-50h-270v-250h263v-50h-263v-317z" />
    <glyph glyph-name="G" unicode="G" horiz-adv-x="552" 
d="M302 -13q-112 0 -180.5 96t-68.5 250q0 155 68.5 250t180.5 95q118 0 188 -115l-45 -24q-51 88 -143 88q-86 0 -138.5 -82t-52.5 -212q0 -129 52.5 -212t138.5 -83t136 64v178h-174v51h228v-250q-72 -94 -190 -94z" />
    <glyph glyph-name="H" unicode="H" horiz-adv-x="559" 
d="M484 0h-55v318h-298v-318h-56v667h56v-299h298v299h55v-667z" />
    <glyph glyph-name="I" unicode="I" horiz-adv-x="206" 
d="M131 0h-56v667h56v-667z" />
    <glyph glyph-name="J" unicode="J" horiz-adv-x="390" 
d="M148 -12q-86 0 -138 66l31 42q42 -57 104 -57q54 0 84 32.5t30 91.5v504h56v-505q0 -86 -46 -130t-121 -44z" />
    <glyph glyph-name="K" unicode="K" horiz-adv-x="490" 
d="M471 0h-68l-213 309l-59 -84v-225h-56v667h56v-364l253 364h67l-227 -318z" />
    <glyph glyph-name="L" unicode="L" horiz-adv-x="412" 
d="M380 0h-305v667h56v-617h249v-50z" />
    <glyph glyph-name="M" unicode="M" horiz-adv-x="661" 
d="M586 0h-55v571l-189 -571h-23l-188 571v-571h-56v667h81l175 -526l175 526h80v-667z" />
    <glyph glyph-name="N" unicode="N" horiz-adv-x="557" 
d="M482 0h-54l-297 546v-546h-56v667h56l295 -538v538h56v-667z" />
    <glyph glyph-name="O" unicode="O" horiz-adv-x="590" 
d="M295 -12q-114 0 -178 98t-64 247t64 247t178 98q113 0 177.5 -98t64.5 -247t-64.5 -247t-177.5 -98zM295 39q86 0 134.5 83.5t48.5 210.5q0 128 -48.5 211t-134.5 83t-135 -83t-49 -211q0 -127 49 -210.5t135 -83.5z" />
    <glyph glyph-name="P" unicode="P" horiz-adv-x="468" 
d="M131 0h-56v667h184q83 0 129 -56t46 -139q0 -82 -46 -138t-129 -56h-128v-278zM255 328q56 0 88 40t32 104q0 65 -32 105t-88 40h-124v-289h124z" />
    <glyph glyph-name="Q" unicode="Q" horiz-adv-x="590" 
d="M295 -12q-114 0 -178 98t-64 247t64 247t178 98q113 0 177.5 -98t64.5 -247q0 -177 -86 -274l42 -63l-41 -27l-38 56q-51 -37 -119 -37zM295 39q51 0 90 31l-85 129l42 27l77 -118q59 84 59 225q0 128 -48.5 211t-134.5 83t-135 -83t-49 -211q0 -127 49 -210.5t135 -83.5
z" />
    <glyph glyph-name="R" unicode="R" horiz-adv-x="491" 
d="M441 0h-64l-140 278h-106v-278h-56v667h185q77 0 125.5 -52t48.5 -142q0 -85 -40.5 -133t-99.5 -55zM255 328q56 0 88.5 40t32.5 104q0 65 -32.5 105t-88.5 40h-124v-289h124z" />
    <glyph glyph-name="S" unicode="S" horiz-adv-x="459" 
d="M222 -12q-117 0 -187 83l34 43q25 -33 65.5 -54t87.5 -21q66 0 100.5 36t34.5 88q0 42 -22.5 74t-56 50t-73 39t-73 41.5t-56 57.5t-22.5 86q0 74 51.5 120.5t127.5 46.5q104 0 167 -69l-31 -42q-51 60 -137 60q-51 0 -86 -31.5t-35 -82.5q0 -36 22.5 -64.5t56 -45.5
t73 -38.5t73 -44t56 -62.5t22.5 -92q0 -75 -49 -126.5t-143 -51.5z" />
    <glyph glyph-name="T" unicode="T" horiz-adv-x="435" 
d="M245 0h-56v617h-162v50h381v-50h-163v-617z" />
    <glyph glyph-name="U" unicode="U" horiz-adv-x="551" 
d="M276 -12q-96 0 -148.5 57t-52.5 165v457h56v-458q0 -84 37.5 -127.5t107.5 -43.5q69 0 106.5 43.5t37.5 127.5v458h56v-457q0 -107 -52 -164.5t-148 -57.5z" />
    <glyph glyph-name="V" unicode="V" horiz-adv-x="492" 
d="M279 0h-66l-201 667h61l173 -598l174 598h60z" />
    <glyph glyph-name="W" unicode="W" horiz-adv-x="693" 
d="M526 0h-61l-119 562l-118 -562h-61l-147 667h60l119 -578l122 578h51l122 -578l119 578h60z" />
    <glyph glyph-name="X" unicode="X" horiz-adv-x="491" 
d="M479 0h-65l-168 293l-168 -293h-66l201 340l-190 327h67l156 -278l156 278h66l-189 -326z" />
    <glyph glyph-name="Y" unicode="Y" horiz-adv-x="483" 
d="M269 0h-55v286l-206 381h64l169 -325l171 325h63l-206 -381v-286z" />
    <glyph glyph-name="Z" unicode="Z" horiz-adv-x="453" 
d="M410 0h-368v49l296 568h-296v50h361v-48l-297 -569h304v-50z" />
    <glyph glyph-name="bracketleft" unicode="[" horiz-adv-x="200" 
d="M183 -190h-147v868h147v-42h-104v-784h104v-42z" />
    <glyph glyph-name="backslash" unicode="\" horiz-adv-x="235" 
d="M193 -20l-192 707h43l192 -707h-43z" />
    <glyph glyph-name="bracketright" unicode="]" horiz-adv-x="200" 
d="M164 -190h-147v42h104v784h-104v42h147v-868z" />
    <glyph glyph-name="asciicircum" unicode="^" horiz-adv-x="377" 
d="M358 333h-45l-124 291l-124 -291h-46l150 334h40z" />
    <glyph glyph-name="underscore" unicode="_" horiz-adv-x="422" 
d="M425 -82h-428v42h428v-42z" />
    <glyph glyph-name="grave" unicode="`" horiz-adv-x="174" 
d="M174 556h-39l-135 144h58z" />
    <glyph glyph-name="a" unicode="a" horiz-adv-x="440" 
d="M369 0h-51v54q-46 -66 -127 -66q-61 0 -103 44.5t-42 116.5q0 73 42 116.5t103 43.5q81 0 127 -64v94q0 54 -26.5 83t-75.5 29q-69 0 -123 -62l-26 36q64 70 154 70q71 0 109.5 -38t38.5 -114v-343zM205 27q76 0 113 68v106q-36 68 -113 68q-49 0 -77.5 -35t-28.5 -86
t28.5 -86t77.5 -35z" />
    <glyph glyph-name="b" unicode="b" 
d="M121 122q16 -37 49.5 -63t70.5 -26q62 0 94 58.5t32 149.5t-32 150t-94 59q-37 0 -70.5 -27t-49.5 -64v-237zM121 0h-50v667h50v-258q22 41 56.5 63.5t72.5 22.5q80 0 125.5 -70t45.5 -184q0 -115 -45.5 -184t-125.5 -69q-38 0 -72.5 23t-56.5 61v-72z" />
    <glyph glyph-name="c" unicode="c" horiz-adv-x="400" 
d="M239 -12q-88 0 -139.5 72.5t-51.5 181.5t51.5 181t139.5 72q79 0 131 -64l-30 -34q-39 53 -98 53q-67 0 -103.5 -59.5t-36.5 -148.5t36.5 -149t103.5 -60q59 0 98 53l30 -34q-50 -64 -131 -64z" />
    <glyph glyph-name="d" unicode="d" 
d="M398 0h-50v72q-22 -38 -56.5 -61t-72.5 -23q-80 0 -125.5 69t-45.5 184q0 114 45.5 184t125.5 70q38 0 72.5 -22.5t56.5 -63.5v258h50v-667zM228 33q37 0 70.5 26t49.5 63v238q-16 36 -49.5 63t-70.5 27q-62 0 -94 -59t-32 -150t32 -149.5t94 -58.5z" />
    <glyph glyph-name="e" unicode="e" horiz-adv-x="463" 
d="M247 -12q-92 0 -145.5 71t-53.5 183q0 108 51 180.5t136 72.5q89 0 136 -72t47 -182v-16h-316q2 -85 41.5 -139.5t106.5 -54.5q71 0 119 65l31 -29q-61 -79 -153 -79zM367 265q-1 73 -34 130t-99 57q-44 0 -75 -31t-44 -71.5t-14 -84.5h266z" />
    <glyph glyph-name="f" unicode="f" horiz-adv-x="239" 
d="M137 0h-51v438h-64v45h64v69q0 58 29.5 91.5t81.5 33.5q46 0 77 -30l-23 -38q-21 24 -49 24q-65 0 -65 -81v-69h83v-45h-83v-438z" />
    <glyph glyph-name="g" unicode="g" 
d="M222 -196q-96 0 -155 60l27 41q48 -57 126 -57q57 0 92 34.5t35 104.5v89q-21 -38 -55.5 -62t-72.5 -24q-80 0 -125.5 69t-45.5 183q0 113 45.5 183t125.5 70q38 0 72.5 -22.5t55.5 -63.5v74h51v-494q0 -96 -48 -140.5t-128 -44.5zM228 35q37 0 70.5 27t48.5 63v235
q-15 36 -48.5 63t-70.5 27q-62 0 -94 -58.5t-32 -149.5q0 -90 32 -148.5t94 -58.5z" />
    <glyph glyph-name="h" unicode="h" horiz-adv-x="450" 
d="M379 0h-50v356q0 94 -84 94q-36 0 -70.5 -25t-53.5 -60v-365h-50v667h50v-255q23 35 61.5 59t78.5 24q60 0 89 -31t29 -98v-366z" />
    <glyph glyph-name="i" unicode="i" horiz-adv-x="192" 
d="M96 559q-16 0 -27.5 11.5t-11.5 27.5t11.5 27.5t27.5 11.5t27.5 -11.5t11.5 -27.5t-11.5 -27.5t-27.5 -11.5zM121 0h-50v483h50v-483z" />
    <glyph glyph-name="j" unicode="j" horiz-adv-x="192" 
d="M96 559q-16 0 -27.5 11.5t-11.5 27.5t11.5 27.5t27.5 11.5t27.5 -11.5t11.5 -27.5t-11.5 -27.5t-27.5 -11.5zM15 -196q-48 0 -78 36l25 36q21 -28 50 -28q59 0 59 79v556h50v-556q0 -123 -106 -123z" />
    <glyph glyph-name="k" unicode="k" horiz-adv-x="424" 
d="M404 0h-61l-146 230l-76 -94v-136h-50v667h50v-465l224 281h61l-175 -218z" />
    <glyph glyph-name="l" unicode="l" horiz-adv-x="192" 
d="M121 0h-50v667h50v-667z" />
    <glyph glyph-name="m" unicode="m" horiz-adv-x="669" 
d="M599 0h-51v360q0 90 -73 90q-33 0 -65.5 -25t-49.5 -60v-365h-51v360q0 90 -73 90q-33 0 -64.5 -25t-50.5 -60v-365h-50v483h50v-71q18 31 54.5 57t76.5 26q45 0 72.5 -24t32.5 -63q19 36 56 61.5t78 25.5q108 0 108 -125v-370z" />
    <glyph glyph-name="n" unicode="n" horiz-adv-x="450" 
d="M379 0h-51v355q0 95 -83 95q-36 0 -70.5 -25t-53.5 -60v-365h-50v483h50v-71q23 35 61.5 59t78.5 24q118 0 118 -130v-365z" />
    <glyph glyph-name="o" unicode="o" 
d="M234 -12q-88 0 -137 73t-49 181t49 180.5t137 72.5q89 0 138 -72t49 -181t-49 -181.5t-138 -72.5zM234 33q65 0 99 61t34 148q0 86 -34 147t-99 61q-64 0 -98 -61t-34 -147t34 -147.5t98 -61.5z" />
    <glyph glyph-name="p" unicode="p" horiz-adv-x="467" 
d="M250 -12q-38 0 -72.5 22.5t-56.5 63.5v-258h-50v667h50v-72q22 38 56.5 61t72.5 23q80 0 125.5 -69t45.5 -184q0 -114 -45.5 -184t-125.5 -70zM241 33q62 0 94 59t32 150t-32 149.5t-94 58.5q-37 0 -70.5 -26t-49.5 -63v-238q16 -36 49.5 -63t70.5 -27z" />
    <glyph glyph-name="q" unicode="q" horiz-adv-x="467" 
d="M226 33q37 0 70.5 27t49.5 63v238q-16 37 -49.5 63t-70.5 26q-62 0 -94 -58.5t-32 -149.5t32 -150t94 -59zM217 -12q-80 0 -125.5 70t-45.5 184q0 115 45.5 184t125.5 69q38 0 73 -23.5t56 -60.5v72h51v-667h-51v258q-46 -86 -129 -86z" />
    <glyph glyph-name="r" unicode="r" horiz-adv-x="278" 
d="M121 0h-50v483h50v-82q56 92 139 92v-55q-7 1 -22 1q-34 0 -67.5 -26t-49.5 -61v-352z" />
    <glyph glyph-name="s" unicode="s" horiz-adv-x="377" 
d="M185 -12q-97 0 -153 68l29 36q47 -61 123 -61q46 0 74 24.5t28 64.5q0 35 -25 58.5t-60 38.5t-70.5 31.5t-60.5 47.5t-25 76q0 53 39.5 88t104.5 35q86 0 138 -62l-27 -35q-39 54 -111 54q-43 0 -69 -22.5t-26 -56.5q0 -32 25 -54t60 -36.5t70.5 -31.5t60.5 -50t25 -80
q0 -59 -41 -96t-109 -37z" />
    <glyph glyph-name="t" unicode="t" horiz-adv-x="249" 
d="M167 -12q-84 0 -84 101v349h-66v45h66v132h50v-132h83v-45h-83v-343q0 -62 42 -62q27 0 44 22l20 -37q-28 -30 -72 -30z" />
    <glyph glyph-name="u" unicode="u" horiz-adv-x="450" 
d="M379 0h-51v69q-24 -35 -61 -58t-78 -23q-60 0 -89 31t-29 98v366h50v-356q0 -94 83 -94q37 0 71.5 24t52.5 59v367h51v-483z" />
    <glyph glyph-name="v" unicode="v" horiz-adv-x="392" 
d="M224 0h-57l-157 483h56l130 -423l130 423h56z" />
    <glyph glyph-name="w" unicode="w" horiz-adv-x="616" 
d="M469 0h-50l-111 414l-111 -414h-50l-130 483h54l103 -411l109 411h49l110 -411l103 411h54z" />
    <glyph glyph-name="x" unicode="x" horiz-adv-x="393" 
d="M376 0h-58l-122 208l-122 -208h-57l149 246l-141 237h58l113 -198l114 198h58l-141 -237z" />
    <glyph glyph-name="y" unicode="y" horiz-adv-x="392" 
d="M40 -189l9 46q14 -8 32 -8q21 0 34.5 12t24.5 42l29 87l-159 493h56l130 -421l130 421h56l-195 -593q-29 -86 -104 -86q-25 0 -43 7z" />
    <glyph glyph-name="z" unicode="z" horiz-adv-x="379" 
d="M332 0h-285v42l220 396h-220v45h281v-41l-221 -397h225v-45z" />
    <glyph glyph-name="braceleft" unicode="{" horiz-adv-x="222" 
d="M205 -190h-47q-40 0 -70 31t-30 80v233q0 30 -13.5 50.5t-38.5 20.5v39q25 0 38.5 20t13.5 50v233q0 49 30 80t70 31h47v-42h-47q-24 0 -40.5 -19.5t-16.5 -49.5v-235q0 -69 -45 -88q45 -19 45 -88v-235q0 -30 16.5 -49.5t40.5 -19.5h47v-42z" />
    <glyph glyph-name="bar" unicode="|" horiz-adv-x="192" 
d="M117 -20h-42v707h42v-707z" />
    <glyph glyph-name="braceright" unicode="}" horiz-adv-x="222" 
d="M17 -190v42h46q24 0 40.5 19.5t16.5 49.5v235q0 69 45 88q-45 19 -45 88v235q0 30 -16.5 49.5t-40.5 19.5h-46v42h46q40 0 70 -31t30 -80v-233q0 -30 13.5 -50t38.5 -20v-39q-25 0 -38.5 -20.5t-13.5 -50.5v-233q0 -49 -30 -80t-70 -31h-46z" />
    <glyph glyph-name="asciitilde" unicode="~" horiz-adv-x="442" 
d="M373 667l42 -4q-4 -48 -10.5 -84t-19 -73t-35 -57t-54.5 -20q-30 0 -50 20t-29.5 49t-17.5 58t-20.5 49t-32.5 20q-33 0 -49.5 -47.5t-26.5 -150.5l-42 6q4 48 10 83.5t19 72t35.5 56.5t53.5 20q37 0 59.5 -31t30 -67.5t22 -67.5t38.5 -31q34 0 50.5 47.5t26.5 151.5z
" />
    <glyph glyph-name="nbspace" unicode="&#xa0;" horiz-adv-x="218" 
 />
    <glyph glyph-name="exclamdown" unicode="&#xa1;" horiz-adv-x="218" 
d="M76 -184l13 494h40l13 -494h-66zM66 449q0 18 13 30.5t30 12.5q18 0 30.5 -12.5t12.5 -30.5q0 -17 -12.5 -29.5t-30.5 -12.5q-17 0 -30 12.5t-13 29.5z" />
    <glyph glyph-name="cent" unicode="&#xa2;" horiz-adv-x="400" 
d="M213 -100v90q-77 11 -121 81t-44 171q0 100 44 170t121 81v72h43v-71q66 -5 114 -63l-30 -34q-36 47 -84 52v-416q50 6 84 53l30 -34q-45 -58 -114 -63v-89h-43zM102 242q0 -78 28.5 -135.5t82.5 -70.5v410q-54 -13 -82.5 -69.5t-28.5 -134.5z" />
    <glyph glyph-name="sterling" unicode="&#xa3;" horiz-adv-x="433" 
d="M24 268v41h100q-3 4 -14 19.5t-15 22t-13.5 21t-13 25t-9 26t-7.5 31.5t-2 34q0 77 50.5 133t128.5 56q55 0 96.5 -28.5t60.5 -78.5l-44 -25q-13 36 -41.5 60t-68.5 24q-51 0 -87 -38.5t-36 -103.5q0 -30 8.5 -58t17.5 -43t26.5 -40.5t24.5 -36.5h114v-41h-95
q9 -24 9 -55q0 -87 -75 -146q23 10 46 10q29 0 67 -19.5t60 -19.5q26 0 49 12t33 27l26 -45q-40 -45 -111 -45q-40 0 -77.5 22t-66.5 22q-39 0 -97 -38l-23 45q56 29 86.5 73.5t30.5 93.5q0 30 -14 63h-124z" />
    <glyph glyph-name="currency" unicode="&#xa4;" horiz-adv-x="478" 
d="M239 97q-71 0 -120 47l-73 -73l-33 32l78 77q-38 64 -38 153q0 90 39 153l-79 79l33 33l75 -76q46 46 118 46q70 0 118 -46l75 76l33 -34l-79 -78q40 -63 40 -153q0 -89 -40 -154l79 -78l-33 -33l-75 75q-48 -46 -118 -46zM239 146q65 0 99.5 55t34.5 132t-34.5 131.5
t-99.5 54.5t-99.5 -55t-34.5 -131q0 -77 34.5 -132t99.5 -55z" />
    <glyph glyph-name="yen" unicode="&#xa5;" horiz-adv-x="483" 
d="M269 0h-55v126h-193v40h193v120h-193v40h171l-184 341h64l169 -325l171 325h63l-185 -341h171v-40h-192v-120h192v-40h-192v-126z" />
    <glyph glyph-name="brokenbar" unicode="&#xa6;" horiz-adv-x="192" 
d="M117 -20h-42v316h42v-316zM117 371h-42v316h42v-316z" />
    <glyph glyph-name="section" unicode="&#xa7;" horiz-adv-x="377" 
d="M335 302q0 -85 -84 -120q84 -50 84 -130q0 -59 -41.5 -96t-108.5 -37q-92 0 -153 69l29 34q49 -62 122 -62q45 0 74 25.5t29 65.5q0 35 -25 59.5t-60 39.5t-70.5 31.5t-60.5 47.5t-25 76q0 43 28.5 75t75.5 42q-54 28 -79 59t-25 75q0 52 39.5 86.5t101.5 34.5
q89 0 141 -62l-28 -32q-43 54 -111 54q-41 0 -67.5 -23t-26.5 -59q0 -33 25 -55.5t60 -37t70.5 -31.5t60.5 -49.5t25 -79.5zM286 297q0 29 -16 52t-33 33t-43 21q-101 -23 -101 -95q0 -37 28 -59t90 -49q75 34 75 97z" />
    <glyph glyph-name="dieresis" unicode="&#xa8;" horiz-adv-x="260" 
d="M250 601q0 -15 -10.5 -26t-25.5 -11t-26 11t-11 26t11 25.5t26 10.5t25.5 -10.5t10.5 -25.5zM82 601q0 -15 -10.5 -26t-25.5 -11t-25.5 11t-10.5 26t10.5 25.5t25.5 10.5t25.5 -10.5t10.5 -25.5z" />
    <glyph glyph-name="copyright" unicode="&#xa9;" horiz-adv-x="778" 
d="M734 334q0 -143 -101 -244t-244 -101t-244 101.5t-101 243.5q0 143 101 244t244 101t244 -101t101 -244zM706 334q0 130 -93 223.5t-224 93.5t-224 -93.5t-93 -223.5t93 -223.5t224 -93.5t224 93.5t93 223.5zM513 208l22 -22q-57 -66 -144 -66t-148 62.5t-61 152.5
q0 92 60.5 153t148.5 61q89 0 144 -65l-22 -22q-19 26 -52.5 41.5t-69.5 15.5q-72 0 -124 -51.5t-52 -132.5q0 -79 52.5 -132t123.5 -53q36 0 69 16t53 42z" />
    <glyph glyph-name="ordfeminine" unicode="&#xaa;" horiz-adv-x="323" 
d="M266 326h-41v35q-33 -43 -89 -43q-42 0 -70 28.5t-28 76.5q0 47 28 75t70 28q56 0 89 -42v60q0 34 -19.5 51.5t-50.5 17.5q-49 0 -83 -43l-21 30q46 48 109 48q106 0 106 -109v-213zM149 348q51 0 76 42v65q-25 42 -76 42q-31 0 -50 -21t-19 -53q0 -33 18.5 -54t50.5 -21
z" />
    <glyph glyph-name="guillemotleft" unicode="&#xab;" horiz-adv-x="350" 
d="M320 63h-51l-125 180l125 177h51l-125 -177zM206 63h-51l-125 180l125 177h51l-125 -177z" />
    <glyph glyph-name="logicalnot" unicode="&#xac;" horiz-adv-x="437" 
d="M407 452v-236h-42v196h-336v40h378z" />
    <glyph glyph-name="uni00AD" unicode="&#xad;" horiz-adv-x="266" 
d="M236 219h-206v46h206v-46z" />
    <glyph glyph-name="registered" unicode="&#xae;" horiz-adv-x="494" 
d="M459 465q0 -88 -62 -150t-150 -62t-150 62t-62 150t62 150t150 62q89 0 150.5 -61.5t61.5 -150.5zM432 465q0 77 -54 131t-131 54t-131 -54t-54 -131q0 -76 54.5 -130.5t130.5 -54.5t130.5 54.5t54.5 130.5zM344 343h-38l-63 96h-46v-96h-30v243h99q32 0 53.5 -20.5
t21.5 -53.5q0 -35 -22.5 -53.5t-39.5 -18.5zM310 512q0 19 -13.5 32.5t-30.5 13.5h-69v-90h69q16 0 30 13t14 31z" />
    <glyph glyph-name="macron" unicode="&#xaf;" horiz-adv-x="304" 
d="M304 577h-304v37h304v-37z" />
    <glyph glyph-name="degree" unicode="&#xb0;" horiz-adv-x="281" 
d="M256 561q0 -48 -34 -81.5t-82 -33.5t-81.5 33.5t-33.5 81.5t33.5 82t81.5 34t82 -34t34 -82zM218 561q0 31 -23 54.5t-55 23.5q-31 0 -54 -23t-23 -55t22.5 -54.5t54.5 -22.5t55 22.5t23 54.5z" />
    <glyph glyph-name="plusminus" unicode="&#xb1;" horiz-adv-x="436" 
d="M407 320h-167v-188h-44v188h-167v40h167v182h44v-182h167v-40zM407 26h-378v40h378v-40z" />
    <glyph glyph-name="twosuperior" unicode="&#xb2;" horiz-adv-x="318" 
d="M280 421h-238v34q127 133 156 172q36 51 36 91q0 34 -21.5 53t-52.5 19q-61 0 -91 -52l-28 26q41 63 120 63q49 0 83 -28.5t34 -79.5q0 -34 -22 -73.5t-49.5 -71.5t-92.5 -102q-9 -9 -13 -14h179v-37z" />
    <glyph glyph-name="threesuperior" unicode="&#xb3;" horiz-adv-x="318" 
d="M281 529q0 -52 -32.5 -83.5t-90.5 -31.5q-43 0 -75 18.5t-49 47.5l29 26q33 -55 93 -55q39 0 60 21t21 59q0 41 -24.5 59.5t-62.5 18.5q-26 0 -32 -1v38q6 -1 31 -1q37 0 60 18t23 54q0 35 -21.5 54t-55.5 19q-54 0 -88 -50l-28 25q42 62 119 62q52 0 84.5 -27.5
t32.5 -78.5q0 -37 -22.5 -61.5t-52.5 -31.5q30 -4 55.5 -31t25.5 -68z" />
    <glyph glyph-name="acute" unicode="&#xb4;" horiz-adv-x="174" 
d="M174 700l-135 -144h-39l116 144h58z" />
    <glyph glyph-name="mu" unicode="&#xb5;" horiz-adv-x="461" 
d="M121 28v-212h-50v667h50v-356q0 -95 86 -95q36 0 69.5 24.5t51.5 59.5v367h51v-390q0 -60 41 -60q7 0 17 2l4 -44q-11 -3 -28 -3q-75 0 -83 84q-22 -37 -55.5 -60.5t-70.5 -23.5q-59 0 -83 40z" />
    <glyph glyph-name="paragraph" unicode="&#xb6;" horiz-adv-x="449" 
d="M367 -100h-37v730h-94v-730h-37v423q-71 0 -121.5 50.5t-50.5 121.5t50.5 121.5t121.5 50.5h168v-767z" />
    <glyph glyph-name="periodcentered" unicode="&#xb7;" horiz-adv-x="218" 
d="M152 245q0 -18 -12.5 -30.5t-30.5 -12.5t-30.5 12.5t-12.5 30.5q0 17 12.5 29.5t30.5 12.5t30.5 -12.5t12.5 -29.5z" />
    <glyph glyph-name="cedilla" unicode="&#xb8;" horiz-adv-x="178" 
d="M85 -189q-51 0 -85 29l16 32q31 -28 69 -28q23 0 40 12.5t17 32.5q0 38 -36 38q-21 0 -35 -16l-27 16l31 84h37l-26 -68q14 11 33 11q25 0 42 -18t17 -47q0 -34 -26.5 -56t-66.5 -22z" />
    <glyph glyph-name="onesuperior" unicode="&#xb9;" horiz-adv-x="208" 
d="M150 421h-44v342l-63 -67l-26 28l94 97h39v-400z" />
    <glyph glyph-name="ordmasculine" unicode="&#xba;" horiz-adv-x="343" 
d="M171 318q-61 0 -96.5 47.5t-35.5 117.5t35.5 117.5t96.5 47.5q62 0 97 -47t35 -118q0 -70 -35 -117.5t-97 -47.5zM171 354q43 0 66 37t23 92t-23 91.5t-66 36.5t-65.5 -36.5t-22.5 -91.5t22.5 -92t65.5 -37z" />
    <glyph glyph-name="guillemotright" unicode="&#xbb;" horiz-adv-x="350" 
d="M206 243l-125 -180h-51l125 180l-125 177h51zM320 243l-125 -180h-51l125 180l-125 177h51z" />
    <glyph glyph-name="onequarter" unicode="&#xbc;" horiz-adv-x="644" 
d="M150 267h-44v342l-63 -67l-26 28l94 97h39v-400zM614 107h-48v-107h-43v107h-167v36l153 257h57v-256h48v-37zM523 144v210l-126 -210h126zM496 667l-349 -667h-41l349 667h41z" />
    <glyph glyph-name="onehalf" unicode="&#xbd;" horiz-adv-x="678" 
d="M150 267h-44v342l-63 -67l-26 28l94 97h39v-400zM640 0h-238v34q127 133 156 172q36 50 36 91q0 34 -21.5 53t-52.5 19q-61 0 -91 -52l-28 26q41 63 120 63q49 0 83 -28.5t34 -79.5q0 -34 -22 -73.5t-49.5 -71.5t-92.5 -102q-9 -9 -13 -14h179v-37zM496 667l-349 -667
h-41l349 667h41z" />
    <glyph glyph-name="threequarters" unicode="&#xbe;" horiz-adv-x="720" 
d="M691 107h-48v-107h-43v107h-167v36l153 257h57v-256h48v-37zM600 144v210l-126 -210h126zM572 667l-349 -667h-41l349 667h41zM281 375q0 -52 -32.5 -83.5t-90.5 -31.5q-43 0 -75 18.5t-49 47.5l29 26q33 -55 93 -55q39 0 60 21t21 59q0 41 -24.5 59.5t-62.5 18.5
q-26 0 -32 -1v38q6 -1 31 -1q37 0 60 18t23 54q0 35 -21.5 54t-55.5 19q-54 0 -88 -50l-28 25q42 62 119 62q52 0 84.5 -27.5t32.5 -78.5q0 -37 -22.5 -61.5t-52.5 -31.5q30 -4 55.5 -31t25.5 -68z" />
    <glyph glyph-name="questiondown" unicode="&#xbf;" horiz-adv-x="328" 
d="M208 304q35 -35 35 -80q0 -35 -16 -64.5t-38.5 -50.5l-45 -42t-38.5 -49t-16 -62q0 -42 29.5 -72.5t79.5 -30.5q75 0 124 62l31 -37q-59 -75 -160 -75q-72 0 -116.5 42.5t-44.5 104.5q0 40 16.5 73.5t40 56.5t47 44.5t40 47t16.5 54.5q0 32 -25 54zM196 492
q17 0 30 -12.5t13 -30.5q0 -17 -13 -29.5t-30 -12.5q-18 0 -30.5 12.5t-12.5 29.5q0 18 12.5 30.5t30.5 12.5z" />
    <glyph glyph-name="Agrave" unicode="&#xc0;" horiz-adv-x="492" 
d="M480 0h-60l-48 165h-251l-48 -165h-61l201 667h66zM359 215l-113 387l-113 -387h226zM290 723h-39l-135 144h58z" />
    <glyph glyph-name="Aacute" unicode="&#xc1;" horiz-adv-x="492" 
d="M480 0h-60l-48 165h-251l-48 -165h-61l201 667h66zM359 215l-113 387l-113 -387h226zM377 867l-135 -144h-39l116 144h58z" />
    <glyph glyph-name="Acircumflex" unicode="&#xc2;" horiz-adv-x="492" 
d="M357 723h-36l-75 112l-72 -112h-36l82 144h52zM480 0h-60l-48 165h-251l-48 -165h-61l201 667h66zM359 215l-113 387l-113 -387h226z" />
    <glyph glyph-name="Atilde" unicode="&#xc3;" horiz-adv-x="492" 
d="M480 0h-60l-48 165h-251l-48 -165h-61l201 667h66zM359 215l-113 387l-113 -387h226zM297 721q-22 0 -37.5 16t-22.5 35.5t-18 35.5t-25 16q-44 0 -44 -97h-33q0 59 20.5 96.5t59.5 37.5q22 0 37.5 -16t22.5 -35.5t18 -35.5t25 -16q44 0 44 97h33q0 -59 -20.5 -96.5
t-59.5 -37.5z" />
    <glyph glyph-name="Adieresis" unicode="&#xc4;" horiz-adv-x="492" 
d="M367 768q0 -15 -10.5 -26t-25.5 -11t-26 11t-11 26t11 25.5t26 10.5t25.5 -10.5t10.5 -25.5zM199 768q0 -15 -10.5 -26t-25.5 -11t-25.5 11t-10.5 26t10.5 25.5t25.5 10.5t25.5 -10.5t10.5 -25.5zM480 0h-60l-48 165h-251l-48 -165h-61l201 667h66zM359 215l-113 387
l-113 -387h226z" />
    <glyph glyph-name="Aring" unicode="&#xc5;" horiz-adv-x="492" 
d="M480 0h-60l-48 165h-251l-48 -165h-61l201 667h66zM359 215l-113 387l-113 -387h226zM247 692q-36 0 -62 25.5t-26 62.5q0 36 26 62t62 26t61.5 -26t25.5 -62q0 -37 -25 -62.5t-62 -25.5zM247 722q24 0 40.5 17t16.5 41q0 23 -16.5 40t-40.5 17q-23 0 -40 -17t-17 -40
q0 -24 17 -41t40 -17z" />
    <glyph glyph-name="AE" unicode="&#xc6;" horiz-adv-x="735" 
d="M681 0h-325v165h-203l-77 -165h-60l317 667h348v-50h-270v-250h263v-50h-263v-267h270v-50zM356 215v387l-182 -387h182z" />
    <glyph glyph-name="Ccedilla" unicode="&#xc7;" horiz-adv-x="523" 
d="M296 -185q-51 0 -85 29l16 32q31 -28 69 -28q23 0 40 12.5t17 32.5q0 38 -36 38q-21 0 -35 -16l-27 16l21 59q-102 11 -162.5 106t-60.5 237q0 152 68 248.5t181 96.5q116 0 184 -117l-47 -24q-49 90 -137 90q-86 0 -138.5 -82.5t-52.5 -211.5q0 -128 52.5 -211
t138.5 -83q90 0 138 100l48 -24q-65 -121 -175 -126l-16 -42q14 11 33 11q25 0 42 -18t17 -47q0 -34 -26.5 -56t-66.5 -22z" />
    <glyph glyph-name="Egrave" unicode="&#xc8;" horiz-adv-x="452" 
d="M401 0h-326v667h326v-50h-270v-250h263v-50h-263v-267h270v-50zM282 723h-39l-135 144h58z" />
    <glyph glyph-name="Eacute" unicode="&#xc9;" horiz-adv-x="452" 
d="M368 867l-135 -144h-39l116 144h58zM401 0h-326v667h326v-50h-270v-250h263v-50h-263v-267h270v-50z" />
    <glyph glyph-name="Ecircumflex" unicode="&#xca;" horiz-adv-x="452" 
d="M349 723h-36l-75 112l-72 -112h-36l82 144h52zM401 0h-326v667h326v-50h-270v-250h263v-50h-263v-267h270v-50z" />
    <glyph glyph-name="Edieresis" unicode="&#xcb;" horiz-adv-x="452" 
d="M358 768q0 -15 -10.5 -26t-25.5 -11t-26 11t-11 26t11 25.5t26 10.5t25.5 -10.5t10.5 -25.5zM190 768q0 -15 -10.5 -26t-25.5 -11t-25.5 11t-10.5 26t10.5 25.5t25.5 10.5t25.5 -10.5t10.5 -25.5zM401 0h-326v667h326v-50h-270v-250h263v-50h-263v-267h270v-50z" />
    <glyph glyph-name="Igrave" unicode="&#xcc;" horiz-adv-x="206" 
d="M131 0h-56v667h56v-667zM147 723h-39l-135 144h58z" />
    <glyph glyph-name="Iacute" unicode="&#xcd;" horiz-adv-x="206" 
d="M131 0h-56v667h56v-667zM234 867l-135 -144h-39l116 144h58z" />
    <glyph glyph-name="Icircumflex" unicode="&#xce;" horiz-adv-x="206" 
d="M214 723h-36l-75 112l-72 -112h-36l82 144h52zM131 0h-56v667h56v-667z" />
    <glyph glyph-name="Idieresis" unicode="&#xcf;" horiz-adv-x="206" 
d="M224 768q0 -15 -10.5 -26t-25.5 -11t-26 11t-11 26t11 25.5t26 10.5t25.5 -10.5t10.5 -25.5zM56 768q0 -15 -10.5 -26t-25.5 -11t-25.5 11t-10.5 26t10.5 25.5t25.5 10.5t25.5 -10.5t10.5 -25.5zM131 0h-56v667h56v-667z" />
    <glyph glyph-name="Eth" unicode="&#xd0;" horiz-adv-x="573" 
d="M261 0h-162v309h-82v44h82v314h162q122 0 190.5 -94t68.5 -240q0 -147 -68.5 -240t-190.5 -93zM261 50q97 0 148.5 79t51.5 204t-51.5 204.5t-148.5 79.5h-106v-264h131v-44h-131v-259h106z" />
    <glyph glyph-name="Ntilde" unicode="&#xd1;" horiz-adv-x="557" 
d="M326 721q-22 0 -37.5 16t-22.5 35.5t-18 35.5t-25 16q-44 0 -44 -97h-33q0 59 20.5 96.5t59.5 37.5q22 0 37.5 -16t22.5 -35.5t18 -35.5t25 -16q44 0 44 97h33q0 -59 -20.5 -96.5t-59.5 -37.5zM482 0h-54l-297 546v-546h-56v667h56l295 -538v538h56v-667z" />
    <glyph glyph-name="Ograve" unicode="&#xd2;" horiz-adv-x="590" 
d="M338 723h-39l-135 144h58zM295 -12q-114 0 -178 98t-64 247t64 247t178 98q113 0 177.5 -98t64.5 -247t-64.5 -247t-177.5 -98zM295 39q86 0 134.5 83.5t48.5 210.5q0 128 -48.5 211t-134.5 83t-135 -83t-49 -211q0 -127 49 -210.5t135 -83.5z" />
    <glyph glyph-name="Oacute" unicode="&#xd3;" horiz-adv-x="590" 
d="M425 867l-135 -144h-39l116 144h58zM295 -12q-114 0 -178 98t-64 247t64 247t178 98q113 0 177.5 -98t64.5 -247t-64.5 -247t-177.5 -98zM295 39q86 0 134.5 83.5t48.5 210.5q0 128 -48.5 211t-134.5 83t-135 -83t-49 -211q0 -127 49 -210.5t135 -83.5z" />
    <glyph glyph-name="Ocircumflex" unicode="&#xd4;" horiz-adv-x="590" 
d="M406 723h-36l-75 112l-72 -112h-36l82 144h52zM295 -12q-114 0 -178 98t-64 247t64 247t178 98q113 0 177.5 -98t64.5 -247t-64.5 -247t-177.5 -98zM295 39q86 0 134.5 83.5t48.5 210.5q0 128 -48.5 211t-134.5 83t-135 -83t-49 -211q0 -127 49 -210.5t135 -83.5z" />
    <glyph glyph-name="Otilde" unicode="&#xd5;" horiz-adv-x="590" 
d="M295 -12q-114 0 -178 98t-64 247t64 247t178 98q113 0 177.5 -98t64.5 -247t-64.5 -247t-177.5 -98zM295 39q86 0 134.5 83.5t48.5 210.5q0 128 -48.5 211t-134.5 83t-135 -83t-49 -211q0 -127 49 -210.5t135 -83.5zM345 721q-22 0 -37.5 16t-22.5 35.5t-18 35.5t-25 16
q-44 0 -44 -97h-33q0 59 20.5 96.5t59.5 37.5q22 0 37.5 -16t22.5 -35.5t18 -35.5t25 -16q44 0 44 97h33q0 -59 -20.5 -96.5t-59.5 -37.5z" />
    <glyph glyph-name="Odieresis" unicode="&#xd6;" horiz-adv-x="590" 
d="M414 768q0 -15 -10.5 -26t-25.5 -11t-26 11t-11 26t11 25.5t26 10.5t25.5 -10.5t10.5 -25.5zM246 768q0 -15 -10.5 -26t-25.5 -11t-25.5 11t-10.5 26t10.5 25.5t25.5 10.5t25.5 -10.5t10.5 -25.5zM295 -12q-114 0 -178 98t-64 247t64 247t178 98q113 0 177.5 -98
t64.5 -247t-64.5 -247t-177.5 -98zM295 39q86 0 134.5 83.5t48.5 210.5q0 128 -48.5 211t-134.5 83t-135 -83t-49 -211q0 -127 49 -210.5t135 -83.5z" />
    <glyph glyph-name="multiply" unicode="&#xd7;" horiz-adv-x="436" 
d="M349 175l-131 131l-130 -131l-29 28l131 131l-131 131l29 28l130 -131l131 131l29 -28l-131 -131l131 -131z" />
    <glyph glyph-name="Oslash" unicode="&#xd8;" horiz-adv-x="590" 
d="M295 -12q-77 0 -131 45l-17 -33h-47l33 65q-80 95 -80 268q0 149 64 247t178 98q71 0 129 -45l17 34h47l-33 -64q82 -97 82 -270q0 -149 -64.5 -247t-177.5 -98zM295 39q86 0 134.5 83.5t48.5 210.5q0 132 -51 215l-238 -464q43 -45 106 -45zM111 333q0 -131 50 -213
l237 464q-43 43 -103 43q-86 0 -135 -83t-49 -211z" />
    <glyph glyph-name="Ugrave" unicode="&#xd9;" horiz-adv-x="551" 
d="M276 -12q-96 0 -148.5 57t-52.5 165v457h56v-458q0 -84 37.5 -127.5t107.5 -43.5q69 0 106.5 43.5t37.5 127.5v458h56v-457q0 -107 -52 -164.5t-148 -57.5zM319 723h-39l-135 144h58z" />
    <glyph glyph-name="Uacute" unicode="&#xda;" horiz-adv-x="551" 
d="M406 867l-135 -144h-39l116 144h58zM276 -12q-96 0 -148.5 57t-52.5 165v457h56v-458q0 -84 37.5 -127.5t107.5 -43.5q69 0 106.5 43.5t37.5 127.5v458h56v-457q0 -107 -52 -164.5t-148 -57.5z" />
    <glyph glyph-name="Ucircumflex" unicode="&#xdb;" horiz-adv-x="551" 
d="M387 723h-36l-75 112l-72 -112h-36l82 144h52zM276 -12q-96 0 -148.5 57t-52.5 165v457h56v-458q0 -84 37.5 -127.5t107.5 -43.5q69 0 106.5 43.5t37.5 127.5v458h56v-457q0 -107 -52 -164.5t-148 -57.5z" />
    <glyph glyph-name="Udieresis" unicode="&#xdc;" horiz-adv-x="551" 
d="M396 768q0 -15 -10.5 -26t-25.5 -11t-26 11t-11 26t11 25.5t26 10.5t25.5 -10.5t10.5 -25.5zM228 768q0 -15 -10.5 -26t-25.5 -11t-25.5 11t-10.5 26t10.5 25.5t25.5 10.5t25.5 -10.5t10.5 -25.5zM276 -12q-96 0 -148.5 57t-52.5 165v457h56v-458q0 -84 37.5 -127.5
t107.5 -43.5q69 0 106.5 43.5t37.5 127.5v458h56v-457q0 -107 -52 -164.5t-148 -57.5z" />
    <glyph glyph-name="Yacute" unicode="&#xdd;" horiz-adv-x="483" 
d="M269 0h-55v286l-206 381h64l169 -325l171 325h63l-206 -381v-286zM372 867l-135 -144h-39l116 144h58z" />
    <glyph glyph-name="Thorn" unicode="&#xde;" horiz-adv-x="468" 
d="M131 0h-56v667h56v-124h128q83 0 129 -56.5t46 -139.5t-46 -138t-129 -55h-128v-154zM255 204q56 0 88 39.5t32 103.5t-32 104.5t-88 40.5h-124v-288h124z" />
    <glyph glyph-name="germandbls" unicode="&#xdf;" horiz-adv-x="501" 
d="M482 121q0 -56 -40 -94.5t-109 -38.5q-52 0 -85.5 17.5t-63.5 51.5l28 37q46 -63 119 -63q45 0 72.5 25.5t27.5 63.5q0 35 -24 58.5t-58.5 38.5t-69.5 31t-59 46.5t-24 74.5q0 33 20 60.5t44 42.5t44 37.5t20 47.5q0 32 -28 53.5t-66 21.5q-45 0 -74 -29.5t-29 -82.5
v-520h-51v520q0 68 42.5 112.5t111.5 44.5q61 0 103 -33t42 -84q0 -29 -13.5 -51.5t-32.5 -37.5t-37.5 -29t-32 -32t-13.5 -40q0 -32 24.5 -53.5t59 -36t69 -31t59 -49t24.5 -79.5z" />
    <glyph glyph-name="agrave" unicode="&#xe0;" horiz-adv-x="440" 
d="M369 0h-51v54q-46 -66 -127 -66q-61 0 -103 44.5t-42 116.5q0 73 42 116.5t103 43.5q81 0 127 -64v94q0 54 -26.5 83t-75.5 29q-69 0 -123 -62l-26 36q64 70 154 70q71 0 109.5 -38t38.5 -114v-343zM205 27q76 0 113 68v106q-36 68 -113 68q-49 0 -77.5 -35t-28.5 -86
t28.5 -86t77.5 -35zM265 556h-39l-135 144h58z" />
    <glyph glyph-name="aacute" unicode="&#xe1;" horiz-adv-x="440" 
d="M369 0h-51v54q-46 -66 -127 -66q-61 0 -103 44.5t-42 116.5q0 73 42 116.5t103 43.5q81 0 127 -64v94q0 54 -26.5 83t-75.5 29q-69 0 -123 -62l-26 36q64 70 154 70q71 0 109.5 -38t38.5 -114v-343zM205 27q76 0 113 68v106q-36 68 -113 68q-49 0 -77.5 -35t-28.5 -86
t28.5 -86t77.5 -35zM351 700l-135 -144h-39l116 144h58z" />
    <glyph glyph-name="acircumflex" unicode="&#xe2;" horiz-adv-x="440" 
d="M369 0h-51v54q-46 -66 -127 -66q-61 0 -103 44.5t-42 116.5q0 73 42 116.5t103 43.5q81 0 127 -64v94q0 54 -26.5 83t-75.5 29q-69 0 -123 -62l-26 36q64 70 154 70q71 0 109.5 -38t38.5 -114v-343zM205 27q76 0 113 68v106q-36 68 -113 68q-49 0 -77.5 -35t-28.5 -86
t28.5 -86t77.5 -35zM333 556h-36l-75 112l-72 -112h-36l82 144h52z" />
    <glyph glyph-name="atilde" unicode="&#xe3;" horiz-adv-x="440" 
d="M369 0h-51v54q-46 -66 -127 -66q-61 0 -103 44.5t-42 116.5q0 73 42 116.5t103 43.5q81 0 127 -64v94q0 54 -26.5 83t-75.5 29q-69 0 -123 -62l-26 36q64 70 154 70q71 0 109.5 -38t38.5 -114v-343zM205 27q76 0 113 68v106q-36 68 -113 68q-49 0 -77.5 -35t-28.5 -86
t28.5 -86t77.5 -35zM272 554q-22 0 -37.5 16t-22.5 35.5t-18 35.5t-25 16q-44 0 -44 -97h-33q0 59 20.5 96.5t59.5 37.5q22 0 37.5 -16t22.5 -35.5t18 -35.5t25 -16q44 0 44 97h33q0 -59 -20.5 -96.5t-59.5 -37.5z" />
    <glyph glyph-name="adieresis" unicode="&#xe4;" horiz-adv-x="440" 
d="M369 0h-51v54q-46 -66 -127 -66q-61 0 -103 44.5t-42 116.5q0 73 42 116.5t103 43.5q81 0 127 -64v94q0 54 -26.5 83t-75.5 29q-69 0 -123 -62l-26 36q64 70 154 70q71 0 109.5 -38t38.5 -114v-343zM205 27q76 0 113 68v106q-36 68 -113 68q-49 0 -77.5 -35t-28.5 -86
t28.5 -86t77.5 -35zM341 601q0 -15 -10.5 -26t-25.5 -11t-26 11t-11 26t11 25.5t26 10.5t25.5 -10.5t10.5 -25.5zM173 601q0 -15 -10.5 -26t-25.5 -11t-25.5 11t-10.5 26t10.5 25.5t25.5 10.5t25.5 -10.5t10.5 -25.5z" />
    <glyph glyph-name="aring" unicode="&#xe5;" horiz-adv-x="440" 
d="M369 0h-51v54q-46 -66 -127 -66q-61 0 -103 44.5t-42 116.5q0 73 42 116.5t103 43.5q81 0 127 -64v94q0 54 -26.5 83t-75.5 29q-69 0 -123 -62l-26 36q64 70 154 70q71 0 109.5 -38t38.5 -114v-343zM205 27q76 0 113 68v106q-36 68 -113 68q-49 0 -77.5 -35t-28.5 -86
t28.5 -86t77.5 -35zM221 549q-36 0 -62 25.5t-26 62.5q0 36 26 62t62 26t61.5 -26t25.5 -62q0 -37 -25 -62.5t-62 -25.5zM221 579q24 0 40.5 17t16.5 41q0 23 -16.5 40t-40.5 17q-23 0 -40 -17t-17 -40q0 -24 17 -41t40 -17z" />
    <glyph glyph-name="ae" unicode="&#xe6;" horiz-adv-x="730" 
d="M685 225h-301q2 -86 39 -139.5t101 -53.5q67 0 112 65l31 -30q-60 -79 -146 -79q-111 0 -159 114q-19 -52 -59.5 -83t-96.5 -31q-71 0 -115.5 43.5t-44.5 116.5t43 117t109 44q87 0 136 -63v93q0 54 -28.5 83t-81.5 29q-75 0 -131 -62l-26 36q64 70 162 70q54 0 92 -26
t47 -78q19 46 55 75t86 29q86 0 131 -72t45 -182v-16zM384 265h250q-1 46 -12 86t-40.5 70.5t-72.5 30.5q-60 0 -91.5 -58t-33.5 -129zM334 180v20q-40 69 -122 69q-51 0 -82 -32.5t-31 -86.5t31 -86.5t82 -32.5q55 0 88.5 42t33.5 107z" />
    <glyph glyph-name="ccedilla" unicode="&#xe7;" horiz-adv-x="400" 
d="M238 -187q-51 0 -85 29l16 32q31 -28 69 -28q23 0 40 12.5t17 32.5q0 38 -36 38q-21 0 -35 -16l-27 16l22 60q-80 8 -125.5 79t-45.5 174q0 109 51.5 181t139.5 72q79 0 131 -64l-30 -34q-39 53 -98 53q-67 0 -103.5 -59.5t-36.5 -148.5t36.5 -149t103.5 -60q59 0 98 53
l30 -34q-44 -58 -115 -63l-16 -44q14 11 33 11q25 0 42 -18t17 -47q0 -34 -26.5 -56t-66.5 -22z" />
    <glyph glyph-name="egrave" unicode="&#xe8;" horiz-adv-x="463" 
d="M247 -12q-92 0 -145.5 71t-53.5 183q0 108 51 180.5t136 72.5q89 0 136 -72t47 -182v-16h-316q2 -85 41.5 -139.5t106.5 -54.5q71 0 119 65l31 -29q-61 -79 -153 -79zM367 265q-1 73 -34 130t-99 57q-44 0 -75 -31t-44 -71.5t-14 -84.5h266zM278 556h-39l-135 144h58z
" />
    <glyph glyph-name="eacute" unicode="&#xe9;" horiz-adv-x="463" 
d="M365 700l-135 -144h-39l116 144h58zM247 -12q-92 0 -145.5 71t-53.5 183q0 108 51 180.5t136 72.5q89 0 136 -72t47 -182v-16h-316q2 -85 41.5 -139.5t106.5 -54.5q71 0 119 65l31 -29q-61 -79 -153 -79zM367 265q-1 73 -34 130t-99 57q-44 0 -75 -31t-44 -71.5
t-14 -84.5h266z" />
    <glyph glyph-name="ecircumflex" unicode="&#xea;" horiz-adv-x="463" 
d="M346 556h-36l-75 112l-72 -112h-36l82 144h52zM247 -12q-92 0 -145.5 71t-53.5 183q0 108 51 180.5t136 72.5q89 0 136 -72t47 -182v-16h-316q2 -85 41.5 -139.5t106.5 -54.5q71 0 119 65l31 -29q-61 -79 -153 -79zM367 265q-1 73 -34 130t-99 57q-44 0 -75 -31
t-44 -71.5t-14 -84.5h266z" />
    <glyph glyph-name="edieresis" unicode="&#xeb;" horiz-adv-x="463" 
d="M355 601q0 -15 -10.5 -26t-25.5 -11t-26 11t-11 26t11 25.5t26 10.5t25.5 -10.5t10.5 -25.5zM187 601q0 -15 -10.5 -26t-25.5 -11t-25.5 11t-10.5 26t10.5 25.5t25.5 10.5t25.5 -10.5t10.5 -25.5zM247 -12q-92 0 -145.5 71t-53.5 183q0 108 51 180.5t136 72.5
q89 0 136 -72t47 -182v-16h-316q2 -85 41.5 -139.5t106.5 -54.5q71 0 119 65l31 -29q-61 -79 -153 -79zM367 265q-1 73 -34 130t-99 57q-44 0 -75 -31t-44 -71.5t-14 -84.5h266z" />
    <glyph glyph-name="igrave" unicode="&#xec;" horiz-adv-x="192" 
d="M121 0h-50v483h50v-483zM140 556h-39l-135 144h58z" />
    <glyph glyph-name="iacute" unicode="&#xed;" horiz-adv-x="192" 
d="M226 700l-135 -144h-39l116 144h58zM121 0h-50v483h50v-483z" />
    <glyph glyph-name="icircumflex" unicode="&#xee;" horiz-adv-x="192" 
d="M206 556h-36l-75 112l-72 -112h-36l82 144h52zM121 0h-50v483h50v-483z" />
    <glyph glyph-name="idieresis" unicode="&#xef;" horiz-adv-x="192" 
d="M216 601q0 -15 -10.5 -26t-25.5 -11t-26 11t-11 26t11 25.5t26 10.5t25.5 -10.5t10.5 -25.5zM48 601q0 -15 -10.5 -26t-25.5 -11t-25.5 11t-10.5 26t10.5 25.5t25.5 10.5t25.5 -10.5t10.5 -25.5zM121 0h-50v483h50v-483z" />
    <glyph glyph-name="eth" unicode="&#xf0;" 
d="M120 515l-14 32l113 50q-30 31 -61 58l37 34q36 -35 69 -72l93 42l14 -32l-84 -37q134 -168 134 -343q0 -113 -49 -186t-138 -73q-87 0 -136.5 72t-49.5 178q0 107 47.5 178.5t130.5 71.5q74 0 118 -73q-37 80 -101 155zM234 33q65 0 99 60t34 145t-34 144.5t-99 59.5
q-64 0 -98 -60t-34 -144q0 -85 34 -145t98 -60z" />
    <glyph glyph-name="ntilde" unicode="&#xf1;" horiz-adv-x="450" 
d="M379 0h-51v355q0 95 -83 95q-36 0 -70.5 -25t-53.5 -60v-365h-50v483h50v-71q23 35 61.5 59t78.5 24q118 0 118 -130v-365zM276 554q-22 0 -37.5 16t-22.5 35.5t-18 35.5t-25 16q-44 0 -44 -97h-33q0 59 20.5 96.5t59.5 37.5q22 0 37.5 -16t22.5 -35.5t18 -35.5t25 -16
q44 0 44 97h33q0 -59 -20.5 -96.5t-59.5 -37.5z" />
    <glyph glyph-name="ograve" unicode="&#xf2;" 
d="M234 -12q-88 0 -137 73t-49 181t49 180.5t137 72.5q89 0 138 -72t49 -181t-49 -181.5t-138 -72.5zM234 33q65 0 99 61t34 148q0 86 -34 147t-99 61q-64 0 -98 -61t-34 -147t34 -147.5t98 -61.5zM279 556h-39l-135 144h58z" />
    <glyph glyph-name="oacute" unicode="&#xf3;" 
d="M365 700l-135 -144h-39l116 144h58zM234 -12q-88 0 -137 73t-49 181t49 180.5t137 72.5q89 0 138 -72t49 -181t-49 -181.5t-138 -72.5zM234 33q65 0 99 61t34 148q0 86 -34 147t-99 61q-64 0 -98 -61t-34 -147t34 -147.5t98 -61.5z" />
    <glyph glyph-name="ocircumflex" unicode="&#xf4;" 
d="M345 556h-36l-75 112l-72 -112h-36l82 144h52zM234 -12q-88 0 -137 73t-49 181t49 180.5t137 72.5q89 0 138 -72t49 -181t-49 -181.5t-138 -72.5zM234 33q65 0 99 61t34 148q0 86 -34 147t-99 61q-64 0 -98 -61t-34 -147t34 -147.5t98 -61.5z" />
    <glyph glyph-name="otilde" unicode="&#xf5;" 
d="M234 -12q-88 0 -137 73t-49 181t49 180.5t137 72.5q89 0 138 -72t49 -181t-49 -181.5t-138 -72.5zM234 33q65 0 99 61t34 148q0 86 -34 147t-99 61q-64 0 -98 -61t-34 -147t34 -147.5t98 -61.5zM285 554q-22 0 -37.5 16t-22.5 35.5t-18 35.5t-25 16q-44 0 -44 -97h-33
q0 59 20.5 96.5t59.5 37.5q22 0 37.5 -16t22.5 -35.5t18 -35.5t25 -16q44 0 44 97h33q0 -59 -20.5 -96.5t-59.5 -37.5z" />
    <glyph glyph-name="odieresis" unicode="&#xf6;" 
d="M355 601q0 -15 -10.5 -26t-25.5 -11t-26 11t-11 26t11 25.5t26 10.5t25.5 -10.5t10.5 -25.5zM187 601q0 -15 -10.5 -26t-25.5 -11t-25.5 11t-10.5 26t10.5 25.5t25.5 10.5t25.5 -10.5t10.5 -25.5zM234 -12q-88 0 -137 73t-49 181t49 180.5t137 72.5q89 0 138 -72t49 -181
t-49 -181.5t-138 -72.5zM234 33q65 0 99 61t34 148q0 86 -34 147t-99 61q-64 0 -98 -61t-34 -147t34 -147.5t98 -61.5z" />
    <glyph glyph-name="divide" unicode="&#xf7;" horiz-adv-x="443" 
d="M261 504q0 -16 -11.5 -28t-27.5 -12t-27.5 12t-11.5 28t11.5 27t27.5 11t27.5 -11t11.5 -27zM414 317h-385v40h385v-40zM261 165q0 -16 -11.5 -27t-27.5 -11t-27.5 11t-11.5 27t11.5 28t27.5 12t27.5 -11.5t11.5 -28.5z" />
    <glyph glyph-name="oslash" unicode="&#xf8;" 
d="M103 0h-40l36 58q-51 70 -51 184q0 108 49 180.5t137 72.5q65 0 109 -41l18 29h41l-34 -55q53 -71 53 -186q0 -109 -49 -181.5t-138 -72.5q-66 0 -112 43zM234 33q65 0 99 61t34 148q0 81 -29 138l-189 -305q34 -42 85 -42zM102 242q0 -81 27 -135l188 304q-34 39 -83 39
q-64 0 -98 -61t-34 -147z" />
    <glyph glyph-name="ugrave" unicode="&#xf9;" horiz-adv-x="450" 
d="M379 0h-51v69q-24 -35 -61 -58t-78 -23q-60 0 -89 31t-29 98v366h50v-356q0 -94 83 -94q37 0 71.5 24t52.5 59v367h51v-483zM269 556h-39l-135 144h58z" />
    <glyph glyph-name="uacute" unicode="&#xfa;" horiz-adv-x="450" 
d="M355 700l-135 -144h-39l116 144h58zM379 0h-51v69q-24 -35 -61 -58t-78 -23q-60 0 -89 31t-29 98v366h50v-356q0 -94 83 -94q37 0 71.5 24t52.5 59v367h51v-483z" />
    <glyph glyph-name="ucircumflex" unicode="&#xfb;" horiz-adv-x="450" 
d="M335 556h-36l-75 112l-72 -112h-36l82 144h52zM379 0h-51v69q-24 -35 -61 -58t-78 -23q-60 0 -89 31t-29 98v366h50v-356q0 -94 83 -94q37 0 71.5 24t52.5 59v367h51v-483z" />
    <glyph glyph-name="udieresis" unicode="&#xfc;" horiz-adv-x="450" 
d="M347 601q0 -15 -10.5 -26t-25.5 -11t-26 11t-11 26t11 25.5t26 10.5t25.5 -10.5t10.5 -25.5zM179 601q0 -15 -10.5 -26t-25.5 -11t-25.5 11t-10.5 26t10.5 25.5t25.5 10.5t25.5 -10.5t10.5 -25.5zM379 0h-51v69q-24 -35 -61 -58t-78 -23q-60 0 -89 31t-29 98v366h50v-356
q0 -94 83 -94q37 0 71.5 24t52.5 59v367h51v-483z" />
    <glyph glyph-name="yacute" unicode="&#xfd;" horiz-adv-x="392" 
d="M40 -189l9 46q14 -8 32 -8q21 0 34.5 12t24.5 42l29 87l-159 493h56l130 -421l130 421h56l-195 -593q-29 -86 -104 -86q-25 0 -43 7zM326 700l-135 -144h-39l116 144h58z" />
    <glyph glyph-name="thorn" unicode="&#xfe;" horiz-adv-x="467" 
d="M250 -12q-84 0 -129 84v-256h-50v851h50v-254q46 82 129 82q80 0 125.5 -69t45.5 -184q0 -114 -45.5 -184t-125.5 -70zM241 33q62 0 94 59t32 150t-32 149.5t-94 58.5q-37 0 -70.5 -26t-49.5 -63v-238q16 -36 49.5 -63t70.5 -27z" />
    <glyph glyph-name="ydieresis" unicode="&#xff;" horiz-adv-x="392" 
d="M40 -189l9 46q14 -8 32 -8q21 0 34.5 12t24.5 42l29 87l-159 493h56l130 -421l130 421h56l-195 -593q-29 -86 -104 -86q-25 0 -43 7zM316 601q0 -15 -10.5 -26t-25.5 -11t-26 11t-11 26t11 25.5t26 10.5t25.5 -10.5t10.5 -25.5zM148 601q0 -15 -10.5 -26t-25.5 -11
t-25.5 11t-10.5 26t10.5 25.5t25.5 10.5t25.5 -10.5t10.5 -25.5z" />
    <glyph glyph-name="Amacron" unicode="&#x100;" horiz-adv-x="492" 
d="M480 0h-60l-48 165h-251l-48 -165h-61l201 667h66zM359 215l-113 387l-113 -387h226zM398 744h-304v37h304v-37z" />
    <glyph glyph-name="amacron" unicode="&#x101;" horiz-adv-x="440" 
d="M369 0h-51v54q-46 -66 -127 -66q-61 0 -103 44.5t-42 116.5q0 73 42 116.5t103 43.5q81 0 127 -64v94q0 54 -26.5 83t-75.5 29q-69 0 -123 -62l-26 36q64 70 154 70q71 0 109.5 -38t38.5 -114v-343zM205 27q76 0 113 68v106q-36 68 -113 68q-49 0 -77.5 -35t-28.5 -86
t28.5 -86t77.5 -35zM372 577h-304v37h304v-37z" />
    <glyph glyph-name="Abreve" unicode="&#x102;" horiz-adv-x="492" 
d="M480 0h-60l-48 165h-251l-48 -165h-61l201 667h66zM359 215l-113 387l-113 -387h226zM393 789q-56 -74 -146 -74q-91 0 -147 74l29 24q43 -61 118 -61q74 0 117 61z" />
    <glyph glyph-name="abreve" unicode="&#x103;" horiz-adv-x="440" 
d="M369 0h-51v54q-46 -66 -127 -66q-61 0 -103 44.5t-42 116.5q0 73 42 116.5t103 43.5q81 0 127 -64v94q0 54 -26.5 83t-75.5 29q-69 0 -123 -62l-26 36q64 70 154 70q71 0 109.5 -38t38.5 -114v-343zM205 27q76 0 113 68v106q-36 68 -113 68q-49 0 -77.5 -35t-28.5 -86
t28.5 -86t77.5 -35zM366 622q-56 -74 -146 -74q-91 0 -147 74l29 24q43 -61 118 -61q74 0 117 61z" />
    <glyph glyph-name="Aogonek" unicode="&#x104;" horiz-adv-x="492" 
d="M491 -114l30 -15q-20 -57 -76 -57q-33 0 -54 20t-21 59q0 60 55 107h-5l-48 165h-251l-48 -165h-61l201 667h66l201 -667q-74 -43 -74 -106q0 -47 40 -47q33 0 45 39zM359 215l-113 387l-113 -387h226z" />
    <glyph glyph-name="aogonek" unicode="&#x105;" horiz-adv-x="440" 
d="M380 -114l30 -15q-20 -57 -76 -57q-33 0 -54 20t-21 59q0 63 59 110v51q-46 -66 -127 -66q-61 0 -103 44.5t-42 116.5q0 73 42 116.5t103 43.5q81 0 127 -64v94q0 54 -26.5 83t-75.5 29q-69 0 -123 -62l-26 36q64 70 154 70q71 0 109.5 -38t38.5 -114v-343
q-74 -43 -74 -106q0 -47 40 -47q33 0 45 39zM205 27q76 0 113 68v106q-36 68 -113 68q-49 0 -77.5 -35t-28.5 -86t28.5 -86t77.5 -35z" />
    <glyph glyph-name="Cacute" unicode="&#x106;" horiz-adv-x="523" 
d="M432 867l-135 -144h-39l116 144h58zM302 -12q-113 0 -181 97t-68 248q0 152 68 248.5t181 96.5q116 0 184 -117l-47 -24q-49 90 -137 90q-86 0 -138.5 -82.5t-52.5 -211.5q0 -128 52.5 -211t138.5 -83q90 0 138 100l48 -24q-67 -127 -186 -127z" />
    <glyph glyph-name="cacute" unicode="&#x107;" horiz-adv-x="400" 
d="M369 700l-135 -144h-39l116 144h58zM239 -12q-88 0 -139.5 72.5t-51.5 181.5t51.5 181t139.5 72q79 0 131 -64l-30 -34q-39 53 -98 53q-67 0 -103.5 -59.5t-36.5 -148.5t36.5 -149t103.5 -60q59 0 98 53l30 -34q-50 -64 -131 -64z" />
    <glyph glyph-name="Ccircumflex" unicode="&#x108;" horiz-adv-x="523" 
d="M412 723h-36l-75 112l-72 -112h-36l82 144h52zM302 -12q-113 0 -181 97t-68 248q0 152 68 248.5t181 96.5q116 0 184 -117l-47 -24q-49 90 -137 90q-86 0 -138.5 -82.5t-52.5 -211.5q0 -128 52.5 -211t138.5 -83q90 0 138 100l48 -24q-67 -127 -186 -127z" />
    <glyph glyph-name="ccircumflex" unicode="&#x109;" horiz-adv-x="400" 
d="M349 556h-36l-75 112l-72 -112h-36l82 144h52zM239 -12q-88 0 -139.5 72.5t-51.5 181.5t51.5 181t139.5 72q79 0 131 -64l-30 -34q-39 53 -98 53q-67 0 -103.5 -59.5t-36.5 -148.5t36.5 -149t103.5 -60q59 0 98 53l30 -34q-50 -64 -131 -64z" />
    <glyph glyph-name="Cdotaccent" unicode="&#x10a;" horiz-adv-x="523" 
d="M302 -12q-113 0 -181 97t-68 248q0 152 68 248.5t181 96.5q116 0 184 -117l-47 -24q-49 90 -137 90q-86 0 -138.5 -82.5t-52.5 -211.5q0 -128 52.5 -211t138.5 -83q90 0 138 100l48 -24q-67 -127 -186 -127zM302 728q-14 0 -25.5 11t-11.5 26t11.5 26.5t25.5 11.5
q16 0 27 -11t11 -27q0 -15 -11 -26t-27 -11z" />
    <glyph glyph-name="cdotaccent" unicode="&#x10b;" horiz-adv-x="400" 
d="M239 -12q-88 0 -139.5 72.5t-51.5 181.5t51.5 181t139.5 72q79 0 131 -64l-30 -34q-39 53 -98 53q-67 0 -103.5 -59.5t-36.5 -148.5t36.5 -149t103.5 -60q59 0 98 53l30 -34q-50 -64 -131 -64zM240 561q-14 0 -25.5 11t-11.5 26q0 16 11.5 27t25.5 11q16 0 27 -11t11 -27
q0 -15 -11 -26t-27 -11z" />
    <glyph glyph-name="Ccaron" unicode="&#x10c;" horiz-adv-x="523" 
d="M330 723h-52l-85 144h36l75 -112l72 112h36zM302 -12q-113 0 -181 97t-68 248q0 152 68 248.5t181 96.5q116 0 184 -117l-47 -24q-49 90 -137 90q-86 0 -138.5 -82.5t-52.5 -211.5q0 -128 52.5 -211t138.5 -83q90 0 138 100l48 -24q-67 -127 -186 -127z" />
    <glyph glyph-name="ccaron" unicode="&#x10d;" horiz-adv-x="400" 
d="M267 556h-52l-85 144h36l75 -112l72 112h36zM239 -12q-88 0 -139.5 72.5t-51.5 181.5t51.5 181t139.5 72q79 0 131 -64l-30 -34q-39 53 -98 53q-67 0 -103.5 -59.5t-36.5 -148.5t36.5 -149t103.5 -60q59 0 98 53l30 -34q-50 -64 -131 -64z" />
    <glyph glyph-name="Dcaron" unicode="&#x10e;" horiz-adv-x="549" 
d="M300 723h-52l-85 144h36l75 -112l72 112h36zM237 0h-162v667h162q122 0 190.5 -94t68.5 -240q0 -147 -68.5 -240t-190.5 -93zM237 50q97 0 148.5 79t51.5 204t-51.5 204.5t-148.5 79.5h-106v-567h106z" />
    <glyph glyph-name="dcaron" unicode="&#x10f;" horiz-adv-x="531" 
d="M534 621q0 -38 -19 -72.5t-47 -54.5l-27 21q23 16 38.5 41.5t16.5 47.5q-6 -1 -9 -1q-16 0 -26 11t-10 27t11 27.5t27 11.5q19 0 32 -16t13 -43zM398 0h-50v72q-22 -38 -56.5 -61t-72.5 -23q-80 0 -125.5 69t-45.5 184q0 114 45.5 184t125.5 70q38 0 72.5 -22.5
t56.5 -63.5v258h50v-667zM228 33q37 0 70.5 26t49.5 63v238q-16 36 -49.5 63t-70.5 27q-62 0 -94 -59t-32 -150t32 -149.5t94 -58.5z" />
    <glyph glyph-name="Dcroat" unicode="&#x110;" horiz-adv-x="573" 
d="M261 0h-162v309h-82v44h82v314h162q122 0 190.5 -94t68.5 -240q0 -147 -68.5 -240t-190.5 -93zM261 50q97 0 148.5 79t51.5 204t-51.5 204.5t-148.5 79.5h-106v-264h131v-44h-131v-259h106z" />
    <glyph glyph-name="dcroat" unicode="&#x111;" horiz-adv-x="471" 
d="M398 0h-50v72q-22 -38 -56.5 -61t-72.5 -23q-80 0 -125.5 69t-45.5 184q0 114 45.5 184t125.5 70q38 0 72.5 -22.5t56.5 -63.5v129h-141v37h141v92h50v-92h65v-37h-65v-538zM228 33q37 0 70.5 26t49.5 63v238q-16 36 -49.5 63t-70.5 27q-62 0 -94 -59t-32 -150t32 -149.5
t94 -58.5z" />
    <glyph glyph-name="Emacron" unicode="&#x112;" horiz-adv-x="452" 
d="M401 0h-326v667h326v-50h-270v-250h263v-50h-263v-267h270v-50zM390 744h-304v37h304v-37z" />
    <glyph glyph-name="emacron" unicode="&#x113;" horiz-adv-x="463" 
d="M247 -12q-92 0 -145.5 71t-53.5 183q0 108 51 180.5t136 72.5q89 0 136 -72t47 -182v-16h-316q2 -85 41.5 -139.5t106.5 -54.5q71 0 119 65l31 -29q-61 -79 -153 -79zM367 265q-1 73 -34 130t-99 57q-44 0 -75 -31t-44 -71.5t-14 -84.5h266zM386 577h-304v37h304v-37z
" />
    <glyph glyph-name="Ebreve" unicode="&#x114;" horiz-adv-x="452" 
d="M401 0h-326v667h326v-50h-270v-250h263v-50h-263v-267h270v-50zM386 789q-56 -74 -146 -74q-91 0 -147 74l29 24q43 -61 118 -61q74 0 117 61z" />
    <glyph glyph-name="ebreve" unicode="&#x115;" horiz-adv-x="463" 
d="M247 -12q-92 0 -145.5 71t-53.5 183q0 108 51 180.5t136 72.5q89 0 136 -72t47 -182v-16h-316q2 -85 41.5 -139.5t106.5 -54.5q71 0 119 65l31 -29q-61 -79 -153 -79zM367 265q-1 73 -34 130t-99 57q-44 0 -75 -31t-44 -71.5t-14 -84.5h266zM383 622q-56 -74 -146 -74
q-91 0 -147 74l29 24q43 -61 118 -61q74 0 117 61z" />
    <glyph glyph-name="Edotaccent" unicode="&#x116;" horiz-adv-x="452" 
d="M401 0h-326v667h326v-50h-270v-250h263v-50h-263v-267h270v-50zM244 728q-14 0 -25.5 11t-11.5 26t11.5 26.5t25.5 11.5q16 0 27 -11t11 -27q0 -15 -11 -26t-27 -11z" />
    <glyph glyph-name="edotaccent" unicode="&#x117;" horiz-adv-x="463" 
d="M247 -12q-92 0 -145.5 71t-53.5 183q0 108 51 180.5t136 72.5q89 0 136 -72t47 -182v-16h-316q2 -85 41.5 -139.5t106.5 -54.5q71 0 119 65l31 -29q-61 -79 -153 -79zM367 265q-1 73 -34 130t-99 57q-44 0 -75 -31t-44 -71.5t-14 -84.5h266zM235 561q-14 0 -25.5 11
t-11.5 26q0 16 11 27t26 11q16 0 27 -11t11 -27q0 -15 -11 -26t-27 -11z" />
    <glyph glyph-name="Eogonek" unicode="&#x118;" horiz-adv-x="452" 
d="M401 0q-74 -43 -74 -106q0 -47 40 -47q33 0 45 39l30 -15q-20 -57 -76 -57q-33 0 -54 20t-21 59q0 60 55 107h-271v667h326v-50h-270v-250h263v-50h-263v-267h270v-50z" />
    <glyph glyph-name="eogonek" unicode="&#x119;" horiz-adv-x="463" 
d="M325 -114l30 -15q-20 -57 -76 -57q-33 0 -54 20t-21 59q0 51 42 95q-92 1 -145 71.5t-53 182.5q0 108 51 180.5t136 72.5q89 0 136 -72t47 -182v-16h-316q2 -85 41.5 -139.5t106.5 -54.5q71 0 119 65l31 -29q-38 -48 -86 -67q-74 -43 -74 -106q0 -47 40 -47q33 0 45 39z
M367 265q-1 73 -34 130t-99 57q-44 0 -75 -31t-44 -71.5t-14 -84.5h266z" />
    <glyph glyph-name="Ecaron" unicode="&#x11a;" horiz-adv-x="452" 
d="M265 723h-52l-85 144h36l75 -112l72 112h36zM401 0h-326v667h326v-50h-270v-250h263v-50h-263v-267h270v-50z" />
    <glyph glyph-name="ecaron" unicode="&#x11b;" horiz-adv-x="463" 
d="M263 556h-52l-85 144h36l75 -112l72 112h36zM247 -12q-92 0 -145.5 71t-53.5 183q0 108 51 180.5t136 72.5q89 0 136 -72t47 -182v-16h-316q2 -85 41.5 -139.5t106.5 -54.5q71 0 119 65l31 -29q-61 -79 -153 -79zM367 265q-1 73 -34 130t-99 57q-44 0 -75 -31t-44 -71.5
t-14 -84.5h266z" />
    <glyph glyph-name="Gcircumflex" unicode="&#x11c;" horiz-adv-x="552" 
d="M414 723h-36l-75 112l-72 -112h-36l82 144h52zM302 -13q-112 0 -180.5 96t-68.5 250q0 155 68.5 250t180.5 95q118 0 188 -115l-45 -24q-51 88 -143 88q-86 0 -138.5 -82t-52.5 -212q0 -129 52.5 -212t138.5 -83t136 64v178h-174v51h228v-250q-72 -94 -190 -94z" />
    <glyph glyph-name="gcircumflex" unicode="&#x11d;" 
d="M345 556h-36l-75 112l-72 -112h-36l82 144h52zM222 -196q-96 0 -155 60l27 41q48 -57 126 -57q57 0 92 34.5t35 104.5v89q-21 -38 -55.5 -62t-72.5 -24q-80 0 -125.5 69t-45.5 183q0 113 45.5 183t125.5 70q38 0 72.5 -22.5t55.5 -63.5v74h51v-494q0 -96 -48 -140.5
t-128 -44.5zM228 35q37 0 70.5 27t48.5 63v235q-15 36 -48.5 63t-70.5 27q-62 0 -94 -58.5t-32 -149.5q0 -90 32 -148.5t94 -58.5z" />
    <glyph glyph-name="Gbreve" unicode="&#x11e;" horiz-adv-x="552" 
d="M302 -13q-112 0 -180.5 96t-68.5 250q0 155 68.5 250t180.5 95q118 0 188 -115l-45 -24q-51 88 -143 88q-86 0 -138.5 -82t-52.5 -212q0 -129 52.5 -212t138.5 -83t136 64v178h-174v51h228v-250q-72 -94 -190 -94zM451 789q-56 -74 -146 -74q-91 0 -147 74l29 24
q43 -61 118 -61q74 0 117 61z" />
    <glyph glyph-name="gbreve" unicode="&#x11f;" 
d="M222 -196q-96 0 -155 60l27 41q48 -57 126 -57q57 0 92 34.5t35 104.5v89q-21 -38 -55.5 -62t-72.5 -24q-80 0 -125.5 69t-45.5 183q0 113 45.5 183t125.5 70q38 0 72.5 -22.5t55.5 -63.5v74h51v-494q0 -96 -48 -140.5t-128 -44.5zM228 35q37 0 70.5 27t48.5 63v235
q-15 36 -48.5 63t-70.5 27q-62 0 -94 -58.5t-32 -149.5q0 -90 32 -148.5t94 -58.5zM381 622q-56 -74 -146 -74q-91 0 -147 74l29 24q43 -61 118 -61q74 0 117 61z" />
    <glyph glyph-name="Gdotaccent" unicode="&#x120;" horiz-adv-x="552" 
d="M302 -13q-112 0 -180.5 96t-68.5 250q0 155 68.5 250t180.5 95q118 0 188 -115l-45 -24q-51 88 -143 88q-86 0 -138.5 -82t-52.5 -212q0 -129 52.5 -212t138.5 -83t136 64v178h-174v51h228v-250q-72 -94 -190 -94zM303 728q-14 0 -25.5 11t-11.5 26t11 26.5t26 11.5
q16 0 27 -11t11 -27q0 -15 -11 -26t-27 -11z" />
    <glyph glyph-name="gdotaccent" unicode="&#x121;" 
d="M222 -196q-96 0 -155 60l27 41q48 -57 126 -57q57 0 92 34.5t35 104.5v89q-21 -38 -55.5 -62t-72.5 -24q-80 0 -125.5 69t-45.5 183q0 113 45.5 183t125.5 70q38 0 72.5 -22.5t55.5 -63.5v74h51v-494q0 -96 -48 -140.5t-128 -44.5zM228 35q37 0 70.5 27t48.5 63v235
q-15 36 -48.5 63t-70.5 27q-62 0 -94 -58.5t-32 -149.5q0 -90 32 -148.5t94 -58.5zM232 561q-14 0 -25.5 11t-11.5 26q0 16 11.5 27t25.5 11q16 0 27 -11t11 -27q0 -15 -11 -26t-27 -11z" />
    <glyph glyph-name="Gcommaaccent" unicode="&#x122;" horiz-adv-x="552" 
d="M347 -137q0 -38 -19 -72.5t-47 -54.5l-27 21q23 16 38.5 41.5t16.5 47.5q-6 -1 -9 -1q-16 0 -26 11t-10 27t11 27.5t27 11.5q19 0 32 -16t13 -43zM302 -13q-112 0 -180.5 96t-68.5 250q0 155 68.5 250t180.5 95q118 0 188 -115l-45 -24q-51 88 -143 88q-86 0 -138.5 -82
t-52.5 -212q0 -129 52.5 -212t138.5 -83t136 64v178h-174v51h228v-250q-72 -94 -190 -94z" />
    <glyph glyph-name="gcommaaccent" unicode="&#x123;" 
d="M189 610q0 42 19 79.5t45 55.5l28 -22q-23 -17 -38.5 -42t-16.5 -47q2 1 5 1q14 0 26 -11.5t12 -26.5q0 -16 -11.5 -27.5t-27.5 -11.5q-17 0 -29 14t-12 38zM222 -196q-96 0 -155 60l27 41q48 -57 126 -57q57 0 92 34.5t35 104.5v89q-21 -38 -55.5 -62t-72.5 -24
q-80 0 -125.5 69t-45.5 183q0 113 45.5 183t125.5 70q38 0 72.5 -22.5t55.5 -63.5v74h51v-494q0 -96 -48 -140.5t-128 -44.5zM228 35q37 0 70.5 27t48.5 63v235q-15 36 -48.5 63t-70.5 27q-62 0 -94 -58.5t-32 -149.5q0 -90 32 -148.5t94 -58.5z" />
    <glyph glyph-name="Hcircumflex" unicode="&#x124;" horiz-adv-x="559" 
d="M388 723h-36l-75 112l-72 -112h-36l82 144h52zM484 0h-55v318h-298v-318h-56v667h56v-299h298v299h55v-667z" />
    <glyph glyph-name="hcircumflex" unicode="&#x125;" horiz-adv-x="450" 
d="M336 723h-36l-75 112l-72 -112h-36l82 144h52zM379 0h-50v356q0 94 -84 94q-36 0 -70.5 -25t-53.5 -60v-365h-50v667h50v-255q23 35 61.5 59t78.5 24q60 0 89 -31t29 -98v-366z" />
    <glyph glyph-name="Hbar" unicode="&#x126;" horiz-adv-x="593" 
d="M501 0h-55v318h-298v-318h-56v500h-75v37h75v130h56v-130h298v130h55v-130h67v-37h-67v-500zM148 368h298v132h-298v-132z" />
    <glyph glyph-name="hbar" unicode="&#x127;" horiz-adv-x="458" 
d="M273 538h-144v-126q23 35 61.5 59t78.5 24q60 0 89 -31t29 -98v-366h-50v356q0 94 -84 94q-36 0 -70.5 -25t-53.5 -60v-365h-50v538h-62v37h62v92h50v-92h144v-37z" />
    <glyph glyph-name="Itilde" unicode="&#x128;" horiz-adv-x="206" 
d="M131 0h-56v667h56v-667zM153 721q-22 0 -37.5 16t-22.5 35.5t-18 35.5t-25 16q-44 0 -44 -97h-33q0 59 20.5 96.5t59.5 37.5q22 0 37.5 -16t22.5 -35.5t18 -35.5t25 -16q44 0 44 97h33q0 -59 -20.5 -96.5t-59.5 -37.5z" />
    <glyph glyph-name="itilde" unicode="&#x129;" horiz-adv-x="192" 
d="M121 0h-50v483h50v-483zM146 554q-22 0 -37.5 16t-22.5 35.5t-18 35.5t-25 16q-44 0 -44 -97h-33q0 59 20.5 96.5t59.5 37.5q22 0 37.5 -16t22.5 -35.5t18 -35.5t25 -16q44 0 44 97h33q0 -59 -20.5 -96.5t-59.5 -37.5z" />
    <glyph glyph-name="Imacron" unicode="&#x12a;" horiz-adv-x="206" 
d="M131 0h-56v667h56v-667zM255 744h-304v37h304v-37z" />
    <glyph glyph-name="imacron" unicode="&#x12b;" horiz-adv-x="192" 
d="M121 0h-50v483h50v-483zM248 577h-304v37h304v-37z" />
    <glyph glyph-name="Ibreve" unicode="&#x12c;" horiz-adv-x="206" 
d="M131 0h-56v667h56v-667zM250 789q-56 -74 -146 -74q-91 0 -147 74l29 24q43 -61 118 -61q74 0 117 61z" />
    <glyph glyph-name="ibreve" unicode="&#x12d;" horiz-adv-x="192" 
d="M121 0h-50v483h50v-483zM243 622q-56 -74 -146 -74q-91 0 -147 74l29 24q43 -61 118 -61q74 0 117 61z" />
    <glyph glyph-name="Iogonek" unicode="&#x12e;" horiz-adv-x="206" 
d="M142 -114l30 -15q-20 -57 -76 -57q-33 0 -54 20t-21 59q0 60 55 107h-1v667h56v-667q-74 -43 -74 -106q0 -47 40 -47q33 0 45 39z" />
    <glyph glyph-name="iogonek" unicode="&#x12f;" horiz-adv-x="192" 
d="M132 -114l30 -15q-20 -57 -76 -57q-33 0 -54 20t-21 59q0 63 60 111v479h50v-483q-74 -43 -74 -106q0 -47 40 -47q33 0 45 39zM96 559q-16 0 -27.5 11.5t-11.5 27.5t11.5 27.5t27.5 11.5t27.5 -11.5t11.5 -27.5t-11.5 -27.5t-27.5 -11.5z" />
    <glyph glyph-name="Idotaccent" unicode="&#x130;" horiz-adv-x="206" 
d="M131 0h-56v667h56v-667zM103 728q-14 0 -25.5 11t-11.5 26t11 26.5t26 11.5q16 0 27 -11t11 -27q0 -15 -11 -26t-27 -11z" />
    <glyph glyph-name="dotlessi" unicode="&#x131;" horiz-adv-x="192" 
d="M121 0h-50v483h50v-483z" />
    <glyph glyph-name="IJ" unicode="&#x132;" horiz-adv-x="596" 
d="M131 0h-56v667h56v-667zM354 -12q-86 0 -138 66l31 42q42 -57 104 -57q54 0 84 32.5t30 91.5v504h56v-505q0 -86 -46 -130t-121 -44z" />
    <glyph glyph-name="ij" unicode="&#x133;" horiz-adv-x="384" 
d="M96 559q-16 0 -27.5 11.5t-11.5 27.5t11.5 27.5t27.5 11.5t27.5 -11.5t11.5 -27.5t-11.5 -27.5t-27.5 -11.5zM121 0h-50v483h50v-483zM288 559q-16 0 -27.5 11.5t-11.5 27.5t11.5 27.5t27.5 11.5t27.5 -11.5t11.5 -27.5t-11.5 -27.5t-27.5 -11.5zM207 -196q-48 0 -78 36
l25 36q21 -28 50 -28q59 0 59 79v556h50v-556q0 -123 -106 -123z" />
    <glyph glyph-name="Jcircumflex" unicode="&#x134;" horiz-adv-x="390" 
d="M396 723h-36l-75 112l-72 -112h-36l82 144h52zM148 -12q-86 0 -138 66l31 42q42 -57 104 -57q54 0 84 32.5t30 91.5v504h56v-505q0 -86 -46 -130t-121 -44z" />
    <glyph glyph-name="jcircumflex" unicode="&#x135;" horiz-adv-x="192" 
d="M207 556h-36l-75 112l-72 -112h-36l82 144h52zM15 -196q-48 0 -78 36l25 36q21 -28 50 -28q59 0 59 79v556h50v-556q0 -123 -106 -123z" />
    <glyph glyph-name="Kcommaaccent" unicode="&#x136;" horiz-adv-x="492" 
d="M296 -137q0 -38 -19 -72.5t-47 -54.5l-27 21q23 16 38.5 41.5t16.5 47.5q-6 -1 -9 -1q-16 0 -26 11t-10 27t11 27.5t27 11.5q19 0 32 -16t13 -43zM471 0h-68l-213 309l-59 -84v-225h-56v667h56v-364l253 364h67l-227 -318z" />
    <glyph glyph-name="kcommaaccent" unicode="&#x137;" horiz-adv-x="424" 
d="M262 -137q0 -38 -19 -72.5t-47 -54.5l-27 21q23 16 38.5 41.5t16.5 47.5q-6 -1 -9 -1q-16 0 -26 11t-10 27t11 27.5t27 11.5q19 0 32 -16t13 -43zM404 0h-61l-146 230l-76 -94v-136h-50v667h50v-465l224 281h61l-175 -218z" />
    <glyph glyph-name="kgreenlandic" unicode="&#x138;" horiz-adv-x="424" 
d="M404 0h-61l-146 230l-76 -94v-136h-50v483h50v-281l224 281h61l-175 -218z" />
    <glyph glyph-name="Lacute" unicode="&#x139;" horiz-adv-x="412" 
d="M358 867l-135 -144h-39l116 144h58zM380 0h-305v667h56v-617h249v-50z" />
    <glyph glyph-name="lacute" unicode="&#x13a;" horiz-adv-x="192" 
d="M226 867l-135 -144h-39l116 144h58zM121 0h-50v667h50v-667z" />
    <glyph glyph-name="Lcommaaccent" unicode="&#x13b;" horiz-adv-x="412" 
d="M269 -137q0 -38 -19 -72.5t-47 -54.5l-27 21q23 16 38.5 41.5t16.5 47.5q-6 -1 -9 -1q-16 0 -26 11t-10 27t11 27.5t27 11.5q19 0 32 -16t13 -43zM380 0h-305v667h56v-617h249v-50z" />
    <glyph glyph-name="lcommaaccent" unicode="&#x13c;" horiz-adv-x="192" 
d="M146 -137q0 -38 -19 -72.5t-47 -54.5l-27 21q23 16 38.5 41.5t16.5 47.5q-6 -1 -9 -1q-16 0 -26 11t-10 27t11 27.5t27 11.5q19 0 32 -16t13 -43zM121 0h-50v667h50v-667z" />
    <glyph glyph-name="Lcaron" unicode="&#x13d;" horiz-adv-x="412" 
d="M294 620q0 -38 -19 -72.5t-47 -54.5l-27 21q23 16 38.5 41.5t16.5 47.5q-6 -1 -9 -1q-16 0 -26 11t-10 27t11 27.5t27 11.5q19 0 32 -16t13 -43zM380 0h-305v667h56v-617h249v-50z" />
    <glyph glyph-name="lcaron" unicode="&#x13e;" horiz-adv-x="251" 
d="M272 620q0 -38 -19 -72.5t-47 -54.5l-27 21q23 16 38.5 41.5t16.5 47.5q-6 -1 -9 -1q-16 0 -26 11t-10 27t11 27.5t27 11.5q19 0 32 -16t13 -43zM121 0h-50v667h50v-667z" />
    <glyph glyph-name="Ldot" unicode="&#x13f;" horiz-adv-x="419" 
d="M380 0h-305v667h56v-617h249v-50zM352 342q0 -18 -12.5 -30.5t-30.5 -12.5t-30.5 12.5t-12.5 30.5q0 17 12.5 29.5t30.5 12.5t30.5 -12.5t12.5 -29.5z" />
    <glyph glyph-name="ldot" unicode="&#x140;" horiz-adv-x="266" 
d="M121 0h-50v667h50v-667zM272 245q0 -18 -12.5 -30.5t-30.5 -12.5t-30.5 12.5t-12.5 30.5q0 17 12.5 29.5t30.5 12.5t30.5 -12.5t12.5 -29.5z" />
    <glyph glyph-name="Lslash" unicode="&#x141;" horiz-adv-x="430" 
d="M17 247v51l76 44v325h56v-293l83 49v-52l-83 -48v-273h249v-50h-305v291z" />
    <glyph glyph-name="lslash" unicode="&#x142;" horiz-adv-x="246" 
d="M17 256v45l81 46v320h50v-292l80 46v-45l-80 -46v-330h-50v302z" />
    <glyph glyph-name="Nacute" unicode="&#x143;" horiz-adv-x="557" 
d="M416 867l-135 -144h-39l116 144h58zM482 0h-54l-297 546v-546h-56v667h56l295 -538v538h56v-667z" />
    <glyph glyph-name="nacute" unicode="&#x144;" horiz-adv-x="450" 
d="M355 700l-135 -144h-39l116 144h58zM379 0h-51v355q0 95 -83 95q-36 0 -70.5 -25t-53.5 -60v-365h-50v483h50v-71q23 35 61.5 59t78.5 24q118 0 118 -130v-365z" />
    <glyph glyph-name="Ncommaaccent" unicode="&#x145;" horiz-adv-x="557" 
d="M328 -137q0 -38 -19 -72.5t-47 -54.5l-27 21q23 16 38.5 41.5t16.5 47.5q-6 -1 -9 -1q-16 0 -26 11t-10 27t11 27.5t27 11.5q19 0 32 -16t13 -43zM482 0h-54l-297 546v-546h-56v667h56l295 -538v538h56v-667z" />
    <glyph glyph-name="ncommaaccent" unicode="&#x146;" horiz-adv-x="450" 
d="M274 -137q0 -38 -19 -72.5t-47 -54.5l-27 21q23 16 38.5 41.5t16.5 47.5q-6 -1 -9 -1q-16 0 -26 11t-10 27t11 27.5t27 11.5q19 0 32 -16t13 -43zM379 0h-51v355q0 95 -83 95q-36 0 -70.5 -25t-53.5 -60v-365h-50v483h50v-71q23 35 61.5 59t78.5 24q118 0 118 -130v-365z
" />
    <glyph glyph-name="Ncaron" unicode="&#x147;" horiz-adv-x="557" 
d="M306 723h-52l-85 144h36l75 -112l72 112h36zM482 0h-54l-297 546v-546h-56v667h56l295 -538v538h56v-667z" />
    <glyph glyph-name="ncaron" unicode="&#x148;" horiz-adv-x="450" 
d="M252 556h-52l-85 144h36l75 -112l72 112h36zM379 0h-51v355q0 95 -83 95q-36 0 -70.5 -25t-53.5 -60v-365h-50v483h50v-71q23 35 61.5 59t78.5 24q118 0 118 -130v-365z" />
    <glyph glyph-name="napostrophe" unicode="&#x149;" horiz-adv-x="450" 
d="M144 675q0 -38 -19 -72.5t-47 -54.5l-27 21q23 16 38.5 41.5t16.5 47.5q-6 -1 -9 -1q-16 0 -26 11t-10 27t11 27.5t27 11.5q19 0 32 -16t13 -43zM379 0h-51v355q0 95 -83 95q-36 0 -70.5 -25t-53.5 -60v-365h-50v483h50v-71q23 35 61.5 59t78.5 24q118 0 118 -130v-365z
" />
    <glyph glyph-name="Eng" unicode="&#x14a;" horiz-adv-x="557" 
d="M315 -196q-85 0 -138 66l31 42q43 -58 104 -58q54 0 84 32t30 92v25l-295 549v-552h-56v667h56l295 -544v544h56v-690q0 -86 -46 -129.5t-121 -43.5z" />
    <glyph glyph-name="eng" unicode="&#x14b;" horiz-adv-x="450" 
d="M379 365v-438q0 -123 -106 -123q-47 0 -78 36l25 37q21 -28 50 -28q58 0 58 78v428q0 95 -83 95q-36 0 -70.5 -25t-53.5 -60v-365h-50v483h50v-71q23 35 61.5 59t78.5 24q118 0 118 -130z" />
    <glyph glyph-name="Omacron" unicode="&#x14c;" horiz-adv-x="590" 
d="M447 744h-304v37h304v-37zM295 -12q-114 0 -178 98t-64 247t64 247t178 98q113 0 177.5 -98t64.5 -247t-64.5 -247t-177.5 -98zM295 39q86 0 134.5 83.5t48.5 210.5q0 128 -48.5 211t-134.5 83t-135 -83t-49 -211q0 -127 49 -210.5t135 -83.5z" />
    <glyph glyph-name="omacron" unicode="&#x14d;" 
d="M387 577h-304v37h304v-37zM234 -12q-88 0 -137 73t-49 181t49 180.5t137 72.5q89 0 138 -72t49 -181t-49 -181.5t-138 -72.5zM234 33q65 0 99 61t34 148q0 86 -34 147t-99 61q-64 0 -98 -61t-34 -147t34 -147.5t98 -61.5z" />
    <glyph glyph-name="Obreve" unicode="&#x14e;" horiz-adv-x="590" 
d="M295 -12q-114 0 -178 98t-64 247t64 247t178 98q113 0 177.5 -98t64.5 -247t-64.5 -247t-177.5 -98zM295 39q86 0 134.5 83.5t48.5 210.5q0 128 -48.5 211t-134.5 83t-135 -83t-49 -211q0 -127 49 -210.5t135 -83.5zM441 789q-56 -74 -146 -74q-91 0 -147 74l29 24
q43 -61 118 -61q74 0 117 61z" />
    <glyph glyph-name="obreve" unicode="&#x14f;" 
d="M234 -12q-88 0 -137 73t-49 181t49 180.5t137 72.5q89 0 138 -72t49 -181t-49 -181.5t-138 -72.5zM234 33q65 0 99 61t34 148q0 86 -34 147t-99 61q-64 0 -98 -61t-34 -147t34 -147.5t98 -61.5zM382 622q-56 -74 -146 -74q-91 0 -147 74l29 24q43 -61 118 -61
q74 0 117 61z" />
    <glyph glyph-name="Ohungarumlaut" unicode="&#x150;" horiz-adv-x="590" 
d="M332 867l-96 -144h-33l77 144h52zM457 867l-96 -144h-33l77 144h52zM295 -12q-114 0 -178 98t-64 247t64 247t178 98q113 0 177.5 -98t64.5 -247t-64.5 -247t-177.5 -98zM295 39q86 0 134.5 83.5t48.5 210.5q0 128 -48.5 211t-134.5 83t-135 -83t-49 -211
q0 -127 49 -210.5t135 -83.5z" />
    <glyph glyph-name="ohungarumlaut" unicode="&#x151;" 
d="M272 700l-96 -144h-33l77 144h52zM397 700l-96 -144h-33l77 144h52zM234 -12q-88 0 -137 73t-49 181t49 180.5t137 72.5q89 0 138 -72t49 -181t-49 -181.5t-138 -72.5zM234 33q65 0 99 61t34 148q0 86 -34 147t-99 61q-64 0 -98 -61t-34 -147t34 -147.5t98 -61.5z" />
    <glyph glyph-name="OE" unicode="&#x152;" horiz-adv-x="846" 
d="M792 0h-326v106q-28 -60 -75.5 -89t-100.5 -29q-112 0 -174.5 97.5t-62.5 247.5t62.5 247t174.5 97q53 0 101 -28.5t75 -87.5v106h326v-50h-270v-250h263v-50h-263v-267h270v-50zM466 197v273q-22 76 -66.5 116t-104.5 40q-87 0 -135.5 -82.5t-48.5 -210.5t48.5 -211
t135.5 -83q60 0 104.5 41t66.5 117z" />
    <glyph glyph-name="oe" unicode="&#x153;" horiz-adv-x="782" 
d="M737 225h-316q2 -85 41.5 -139.5t106.5 -54.5q71 0 119 65l31 -29q-61 -79 -153 -79q-128 0 -171 135q-18 -57 -57 -96t-104 -39q-88 0 -137 73t-49 181t49 180.5t137 72.5q65 0 104.5 -38.5t55.5 -94.5q17 56 57.5 94.5t102.5 38.5q89 0 136 -72t47 -182v-16zM421 265
h265q-1 73 -34 130t-99 57q-44 0 -75 -31t-43.5 -71.5t-13.5 -84.5zM367 242q0 87 -34 147.5t-99 60.5q-64 0 -98 -61t-34 -147q0 -87 34 -148.5t98 -61.5q65 0 99 61.5t34 148.5z" />
    <glyph glyph-name="Racute" unicode="&#x154;" horiz-adv-x="491" 
d="M382 867l-135 -144h-39l116 144h58zM441 0h-64l-140 278h-106v-278h-56v667h185q77 0 125.5 -52t48.5 -142q0 -85 -40.5 -133t-99.5 -55zM255 328q56 0 88.5 40t32.5 104q0 65 -32.5 105t-88.5 40h-124v-289h124z" />
    <glyph glyph-name="racute" unicode="&#x155;" horiz-adv-x="278" 
d="M295 700l-135 -144h-39l116 144h58zM121 0h-50v483h50v-82q56 92 139 92v-55q-7 1 -22 1q-34 0 -67.5 -26t-49.5 -61v-352z" />
    <glyph glyph-name="Rcommaaccent" unicode="&#x156;" horiz-adv-x="491" 
d="M294 -137q0 -38 -19 -72.5t-47 -54.5l-27 21q23 16 38.5 41.5t16.5 47.5q-6 -1 -9 -1q-16 0 -26 11t-10 27t11 27.5t27 11.5q19 0 32 -16t13 -43zM441 0h-64l-140 278h-106v-278h-56v667h185q77 0 125.5 -52t48.5 -142q0 -85 -40.5 -133t-99.5 -55zM255 328q56 0 88.5 40
t32.5 104q0 65 -32.5 105t-88.5 40h-124v-289h124z" />
    <glyph glyph-name="rcommaaccent" unicode="&#x157;" horiz-adv-x="278" 
d="M189 -137q0 -38 -19 -72.5t-47 -54.5l-27 21q23 16 38.5 41.5t16.5 47.5q-6 -1 -9 -1q-16 0 -26 11t-10 27t11 27.5t27 11.5q19 0 32 -16t13 -43zM121 0h-50v483h50v-82q56 92 139 92v-55q-7 1 -22 1q-34 0 -67.5 -26t-49.5 -61v-352z" />
    <glyph glyph-name="Rcaron" unicode="&#x158;" horiz-adv-x="491" 
d="M272 723h-52l-85 144h36l75 -112l72 112h36zM441 0h-64l-140 278h-106v-278h-56v667h185q77 0 125.5 -52t48.5 -142q0 -85 -40.5 -133t-99.5 -55zM255 328q56 0 88.5 40t32.5 104q0 65 -32.5 105t-88.5 40h-124v-289h124z" />
    <glyph glyph-name="rcaron" unicode="&#x159;" horiz-adv-x="278" 
d="M190 556h-52l-85 144h36l75 -112l72 112h36zM121 0h-50v483h50v-82q56 92 139 92v-55q-7 1 -22 1q-34 0 -67.5 -26t-49.5 -61v-352z" />
    <glyph glyph-name="Sacute" unicode="&#x15a;" horiz-adv-x="459" 
d="M362 867l-135 -144h-39l116 144h58zM222 -12q-117 0 -187 83l34 43q25 -33 65.5 -54t87.5 -21q66 0 100.5 36t34.5 88q0 42 -22.5 74t-56 50t-73 39t-73 41.5t-56 57.5t-22.5 86q0 74 51.5 120.5t127.5 46.5q104 0 167 -69l-31 -42q-51 60 -137 60q-51 0 -86 -31.5
t-35 -82.5q0 -36 22.5 -64.5t56 -45.5t73 -38.5t73 -44t56 -62.5t22.5 -92q0 -75 -49 -126.5t-143 -51.5z" />
    <glyph glyph-name="sacute" unicode="&#x15b;" horiz-adv-x="377" 
d="M317 700l-135 -144h-39l116 144h58zM185 -12q-97 0 -153 68l29 36q47 -61 123 -61q46 0 74 24.5t28 64.5q0 35 -25 58.5t-60 38.5t-70.5 31.5t-60.5 47.5t-25 76q0 53 39.5 88t104.5 35q86 0 138 -62l-27 -35q-39 54 -111 54q-43 0 -69 -22.5t-26 -56.5q0 -32 25 -54
t60 -36.5t70.5 -31.5t60.5 -50t25 -80q0 -59 -41 -96t-109 -37z" />
    <glyph glyph-name="Scircumflex" unicode="&#x15c;" horiz-adv-x="459" 
d="M341 723h-36l-75 112l-72 -112h-36l82 144h52zM222 -12q-117 0 -187 83l34 43q25 -33 65.5 -54t87.5 -21q66 0 100.5 36t34.5 88q0 42 -22.5 74t-56 50t-73 39t-73 41.5t-56 57.5t-22.5 86q0 74 51.5 120.5t127.5 46.5q104 0 167 -69l-31 -42q-51 60 -137 60
q-51 0 -86 -31.5t-35 -82.5q0 -36 22.5 -64.5t56 -45.5t73 -38.5t73 -44t56 -62.5t22.5 -92q0 -75 -49 -126.5t-143 -51.5z" />
    <glyph glyph-name="scircumflex" unicode="&#x15d;" horiz-adv-x="377" 
d="M298 556h-36l-75 112l-72 -112h-36l82 144h52zM185 -12q-97 0 -153 68l29 36q47 -61 123 -61q46 0 74 24.5t28 64.5q0 35 -25 58.5t-60 38.5t-70.5 31.5t-60.5 47.5t-25 76q0 53 39.5 88t104.5 35q86 0 138 -62l-27 -35q-39 54 -111 54q-43 0 -69 -22.5t-26 -56.5
q0 -32 25 -54t60 -36.5t70.5 -31.5t60.5 -50t25 -80q0 -59 -41 -96t-109 -37z" />
    <glyph glyph-name="Scedilla" unicode="&#x15e;" horiz-adv-x="459" 
d="M217 -189q-51 0 -85 29l16 32q31 -28 69 -28q23 0 40 12.5t17 32.5q0 38 -36 38q-21 0 -35 -16l-27 16l23 62q-102 9 -164 82l34 43q25 -33 65.5 -54t87.5 -21q66 0 100.5 36t34.5 88q0 42 -22.5 74t-56 50t-73 39t-73 41.5t-56 57.5t-22.5 86q0 74 51.5 120.5
t127.5 46.5q104 0 167 -69l-31 -42q-51 60 -137 60q-51 0 -86 -31.5t-35 -82.5q0 -36 22.5 -64.5t56 -45.5t73 -38.5t73 -44t56 -62.5t22.5 -92q0 -72 -45.5 -123t-133.5 -55l-17 -45q14 11 33 11q25 0 42 -18t17 -47q0 -34 -26.5 -56t-66.5 -22z" />
    <glyph glyph-name="scedilla" unicode="&#x15f;" horiz-adv-x="377" 
d="M180 -189q-51 0 -85 29l16 32q31 -28 69 -28q23 0 40 12.5t17 32.5q0 38 -36 38q-21 0 -35 -16l-27 16l23 62q-82 8 -130 67l29 36q47 -61 123 -61q46 0 74 24.5t28 64.5q0 35 -25 58.5t-60 38.5t-70.5 31.5t-60.5 47.5t-25 76q0 53 39.5 88t104.5 35q86 0 138 -62
l-27 -35q-39 54 -111 54q-43 0 -69 -22.5t-26 -56.5q0 -32 25 -54t60 -36.5t70.5 -31.5t60.5 -50t25 -80q0 -55 -37.5 -91.5t-99.5 -40.5l-17 -46q14 11 33 11q25 0 42 -18t17 -47q0 -34 -26.5 -56t-66.5 -22z" />
    <glyph glyph-name="Scaron" unicode="&#x160;" horiz-adv-x="459" 
d="M259 723h-52l-85 144h36l75 -112l72 112h36zM222 -12q-117 0 -187 83l34 43q25 -33 65.5 -54t87.5 -21q66 0 100.5 36t34.5 88q0 42 -22.5 74t-56 50t-73 39t-73 41.5t-56 57.5t-22.5 86q0 74 51.5 120.5t127.5 46.5q104 0 167 -69l-31 -42q-51 60 -137 60
q-51 0 -86 -31.5t-35 -82.5q0 -36 22.5 -64.5t56 -45.5t73 -38.5t73 -44t56 -62.5t22.5 -92q0 -75 -49 -126.5t-143 -51.5z" />
    <glyph glyph-name="scaron" unicode="&#x161;" horiz-adv-x="377" 
d="M216 556h-52l-85 144h36l75 -112l72 112h36zM185 -12q-97 0 -153 68l29 36q47 -61 123 -61q46 0 74 24.5t28 64.5q0 35 -25 58.5t-60 38.5t-70.5 31.5t-60.5 47.5t-25 76q0 53 39.5 88t104.5 35q86 0 138 -62l-27 -35q-39 54 -111 54q-43 0 -69 -22.5t-26 -56.5
q0 -32 25 -54t60 -36.5t70.5 -31.5t60.5 -50t25 -80q0 -59 -41 -96t-109 -37z" />
    <glyph glyph-name="Tcommaaccent" unicode="&#x162;" horiz-adv-x="435" 
d="M267 -137q0 -38 -19 -72.5t-47 -54.5l-27 21q23 16 38.5 41.5t16.5 47.5q-6 -1 -9 -1q-16 0 -26 11t-10 27t11 27.5t27 11.5q19 0 32 -16t13 -43zM245 0h-56v617h-162v50h381v-50h-163v-617z" />
    <glyph glyph-name="tcommaaccent" unicode="&#x163;" horiz-adv-x="249" 
d="M174 -137q0 -38 -19 -72.5t-47 -54.5l-27 21q23 16 38.5 41.5t16.5 47.5q-6 -1 -9 -1q-16 0 -26 11t-10 27t11 27.5t27 11.5q19 0 32 -16t13 -43zM167 -12q-84 0 -84 101v349h-66v45h66v132h50v-132h83v-45h-83v-343q0 -62 42 -62q27 0 44 22l20 -37q-28 -30 -72 -30z
" />
    <glyph glyph-name="Tcaron" unicode="&#x164;" horiz-adv-x="435" 
d="M245 723h-52l-85 144h36l75 -112l72 112h36zM245 0h-56v617h-162v50h381v-50h-163v-617z" />
    <glyph glyph-name="tcaron" unicode="&#x165;" horiz-adv-x="254" 
d="M278 675q0 -38 -19 -72.5t-47 -54.5l-27 21q23 16 38.5 41.5t16.5 47.5q-6 -1 -9 -1q-16 0 -26 11t-10 27t11 27.5t27 11.5q19 0 32 -16t13 -43zM167 -12q-84 0 -84 101v349h-66v45h66v132h50v-132h83v-45h-83v-343q0 -62 42 -62q27 0 44 22l20 -37q-28 -30 -72 -30z" />
    <glyph glyph-name="Tbar" unicode="&#x166;" horiz-adv-x="435" 
d="M245 0h-56v309h-118v37h118v271h-162v50h381v-50h-163v-271h112v-37h-112v-309z" />
    <glyph glyph-name="tbar" unicode="&#x167;" horiz-adv-x="249" 
d="M167 -12q-84 0 -84 101v146h-66v37h66v166h-66v45h66v132h50v-132h83v-45h-83v-166h53v-37h-53v-140q0 -62 42 -62q27 0 44 22l20 -37q-28 -30 -72 -30z" />
    <glyph glyph-name="Utilde" unicode="&#x168;" horiz-adv-x="551" 
d="M276 -12q-96 0 -148.5 57t-52.5 165v457h56v-458q0 -84 37.5 -127.5t107.5 -43.5q69 0 106.5 43.5t37.5 127.5v458h56v-457q0 -107 -52 -164.5t-148 -57.5zM327 721q-22 0 -37.5 16t-22.5 35.5t-18 35.5t-25 16q-44 0 -44 -97h-33q0 59 20.5 96.5t59.5 37.5
q22 0 37.5 -16t22.5 -35.5t18 -35.5t25 -16q44 0 44 97h33q0 -59 -20.5 -96.5t-59.5 -37.5z" />
    <glyph glyph-name="utilde" unicode="&#x169;" horiz-adv-x="450" 
d="M379 0h-51v69q-24 -35 -61 -58t-78 -23q-60 0 -89 31t-29 98v366h50v-356q0 -94 83 -94q37 0 71.5 24t52.5 59v367h51v-483zM274 554q-22 0 -37.5 16t-22.5 35.5t-18 35.5t-25 16q-44 0 -44 -97h-33q0 59 20.5 96.5t59.5 37.5q22 0 37.5 -16t22.5 -35.5t18 -35.5t25 -16
q44 0 44 97h33q0 -59 -20.5 -96.5t-59.5 -37.5z" />
    <glyph glyph-name="Umacron" unicode="&#x16a;" horiz-adv-x="551" 
d="M276 -12q-96 0 -148.5 57t-52.5 165v457h56v-458q0 -84 37.5 -127.5t107.5 -43.5q69 0 106.5 43.5t37.5 127.5v458h56v-457q0 -107 -52 -164.5t-148 -57.5zM428 744h-304v37h304v-37z" />
    <glyph glyph-name="umacron" unicode="&#x16b;" horiz-adv-x="450" 
d="M379 0h-51v69q-24 -35 -61 -58t-78 -23q-60 0 -89 31t-29 98v366h50v-356q0 -94 83 -94q37 0 71.5 24t52.5 59v367h51v-483zM377 577h-304v37h304v-37z" />
    <glyph glyph-name="Ubreve" unicode="&#x16c;" horiz-adv-x="551" 
d="M276 -12q-96 0 -148.5 57t-52.5 165v457h56v-458q0 -84 37.5 -127.5t107.5 -43.5q69 0 106.5 43.5t37.5 127.5v458h56v-457q0 -107 -52 -164.5t-148 -57.5zM424 789q-56 -74 -146 -74q-91 0 -147 74l29 24q43 -61 118 -61q74 0 117 61z" />
    <glyph glyph-name="ubreve" unicode="&#x16d;" horiz-adv-x="450" 
d="M379 0h-51v69q-24 -35 -61 -58t-78 -23q-60 0 -89 31t-29 98v366h50v-356q0 -94 83 -94q37 0 71.5 24t52.5 59v367h51v-483zM372 622q-56 -74 -146 -74q-91 0 -147 74l29 24q43 -61 118 -61q74 0 117 61z" />
    <glyph glyph-name="Uring" unicode="&#x16e;" horiz-adv-x="551" 
d="M276 714q-36 0 -62 25.5t-26 62.5q0 36 26 62t62 26t61.5 -26t25.5 -62q0 -37 -25 -62.5t-62 -25.5zM276 744q24 0 40.5 17t16.5 41q0 23 -16.5 40t-40.5 17q-23 0 -40 -17t-17 -40q0 -24 17 -41t40 -17zM276 -12q-96 0 -148.5 57t-52.5 165v457h56v-458
q0 -84 37.5 -127.5t107.5 -43.5q69 0 106.5 43.5t37.5 127.5v458h56v-457q0 -107 -52 -164.5t-148 -57.5z" />
    <glyph glyph-name="uring" unicode="&#x16f;" horiz-adv-x="450" 
d="M225 549q-36 0 -62 25.5t-26 62.5q0 36 26 62t62 26t61.5 -26t25.5 -62q0 -37 -25 -62.5t-62 -25.5zM225 579q24 0 40.5 17t16.5 41q0 23 -16.5 40t-40.5 17q-23 0 -40 -17t-17 -40q0 -24 17 -41t40 -17zM379 0h-51v69q-24 -35 -61 -58t-78 -23q-60 0 -89 31t-29 98v366
h50v-356q0 -94 83 -94q37 0 71.5 24t52.5 59v367h51v-483z" />
    <glyph glyph-name="Uhungarumlaut" unicode="&#x170;" horiz-adv-x="551" 
d="M276 -12q-96 0 -148.5 57t-52.5 165v457h56v-458q0 -84 37.5 -127.5t107.5 -43.5q69 0 106.5 43.5t37.5 127.5v458h56v-457q0 -107 -52 -164.5t-148 -57.5zM313 867l-96 -144h-33l77 144h52zM438 867l-96 -144h-33l77 144h52z" />
    <glyph glyph-name="uhungarumlaut" unicode="&#x171;" horiz-adv-x="450" 
d="M379 0h-51v69q-24 -35 -61 -58t-78 -23q-60 0 -89 31t-29 98v366h50v-356q0 -94 83 -94q37 0 71.5 24t52.5 59v367h51v-483zM262 700l-96 -144h-33l77 144h52zM387 700l-96 -144h-33l77 144h52z" />
    <glyph glyph-name="Uogonek" unicode="&#x172;" horiz-adv-x="551" 
d="M276 -12q-96 0 -148.5 57t-52.5 165v457h56v-458q0 -84 37.5 -127.5t107.5 -43.5q69 0 106.5 43.5t37.5 127.5v458h56v-457q0 -170 -123 -210q-73 -42 -73 -106q0 -47 40 -47q33 0 45 39l30 -15q-20 -57 -76 -57q-33 0 -54 20t-21 59q0 51 42 95h-10z" />
    <glyph glyph-name="uogonek" unicode="&#x173;" horiz-adv-x="450" 
d="M379 0q-74 -43 -74 -106q0 -47 40 -47q33 0 45 39l30 -15q-20 -57 -76 -57q-33 0 -54 20t-21 59q0 63 59 110v66q-24 -35 -61 -58t-78 -23q-60 0 -89 31t-29 98v366h50v-356q0 -94 83 -94q37 0 71.5 24t52.5 59v367h51v-483z" />
    <glyph glyph-name="Wcircumflex" unicode="&#x174;" horiz-adv-x="693" 
d="M457 723h-36l-75 112l-72 -112h-36l82 144h52zM526 0h-61l-119 562l-118 -562h-61l-147 667h60l119 -578l122 578h51l122 -578l119 578h60z" />
    <glyph glyph-name="wcircumflex" unicode="&#x175;" horiz-adv-x="616" 
d="M418 556h-36l-75 112l-72 -112h-36l82 144h52zM469 0h-50l-111 414l-111 -414h-50l-130 483h54l103 -411l109 411h49l110 -411l103 411h54z" />
    <glyph glyph-name="Ycircumflex" unicode="&#x176;" horiz-adv-x="483" 
d="M352 723h-36l-75 112l-72 -112h-36l82 144h52zM269 0h-55v286l-206 381h64l169 -325l171 325h63l-206 -381v-286z" />
    <glyph glyph-name="ycircumflex" unicode="&#x177;" horiz-adv-x="392" 
d="M40 -189l9 46q14 -8 32 -8q21 0 34.5 12t24.5 42l29 87l-159 493h56l130 -421l130 421h56l-195 -593q-29 -86 -104 -86q-25 0 -43 7zM306 556h-36l-75 112l-72 -112h-36l82 144h52z" />
    <glyph glyph-name="Ydieresis" unicode="&#x178;" horiz-adv-x="483" 
d="M365 768q0 -15 -10.5 -26t-25.5 -11t-26 11t-11 26t11 25.5t26 10.5t25.5 -10.5t10.5 -25.5zM197 768q0 -15 -10.5 -26t-25.5 -11t-25.5 11t-10.5 26t10.5 25.5t25.5 10.5t25.5 -10.5t10.5 -25.5zM269 0h-55v286l-206 381h64l169 -325l171 325h63l-206 -381v-286z" />
    <glyph glyph-name="Zacute" unicode="&#x179;" horiz-adv-x="453" 
d="M357 867l-135 -144h-39l116 144h58zM410 0h-368v49l296 568h-296v50h361v-48l-297 -569h304v-50z" />
    <glyph glyph-name="zacute" unicode="&#x17a;" horiz-adv-x="379" 
d="M319 700l-135 -144h-39l116 144h58zM332 0h-285v42l220 396h-220v45h281v-41l-221 -397h225v-45z" />
    <glyph glyph-name="Zdotaccent" unicode="&#x17b;" horiz-adv-x="453" 
d="M410 0h-368v49l296 568h-296v50h361v-48l-297 -569h304v-50zM225 728q-14 0 -25.5 11t-11.5 26t11 26.5t26 11.5q16 0 27 -11t11 -27q0 -15 -11 -26t-27 -11z" />
    <glyph glyph-name="zdotaccent" unicode="&#x17c;" horiz-adv-x="379" 
d="M332 0h-285v42l220 396h-220v45h281v-41l-221 -397h225v-45zM188 561q-14 0 -25.5 11t-11.5 26q0 16 11.5 27t25.5 11q16 0 27 -11t11 -27q0 -15 -11 -26t-27 -11z" />
    <glyph glyph-name="Zcaron" unicode="&#x17d;" horiz-adv-x="453" 
d="M254 723h-52l-85 144h36l75 -112l72 112h36zM410 0h-368v49l296 568h-296v50h361v-48l-297 -569h304v-50z" />
    <glyph glyph-name="zcaron" unicode="&#x17e;" horiz-adv-x="379" 
d="M213 556h-52l-85 144h36l75 -112l72 112h36zM332 0h-285v42l220 396h-220v45h281v-41l-221 -397h225v-45z" />
    <glyph glyph-name="longs" unicode="&#x17f;" horiz-adv-x="239" 
d="M137 0h-51v438h-64v45h64v69q0 58 29.5 91.5t81.5 33.5q46 0 77 -30l-23 -39q-21 24 -49 24q-65 0 -65 -80v-552z" />
    <glyph glyph-name="florin" unicode="&#x192;" horiz-adv-x="386" 
d="M85 -161h-56l93 422h-61v47h72l55 247q12 55 49.5 88.5t87.5 33.5q46 0 72 -29l-29 -40q-15 19 -41 19q-32 0 -54.5 -21.5t-30.5 -58.5l-52 -239h122v-47h-133z" />
    <glyph glyph-name="Ohorn" unicode="&#x1a0;" horiz-adv-x="590" 
d="M295 -12q-114 0 -178 98t-64 247t64 247t178 98q117 0 184 -109q40 37 42 79q-6 -1 -9 -1q-16 0 -25.5 10.5t-9.5 26.5q0 15 10.5 26t26.5 11q18 0 31 -15.5t13 -41.5q0 -36 -18 -69.5t-45 -54.5q42 -89 42 -207q0 -149 -64.5 -247t-177.5 -98zM295 39q86 0 134.5 83.5
t48.5 210.5q0 128 -48.5 211t-134.5 83t-135 -83t-49 -211q0 -127 49 -210.5t135 -83.5z" />
    <glyph glyph-name="ohorn" unicode="&#x1a1;" 
d="M433 530q0 -68 -55 -118q43 -69 43 -170q0 -109 -49 -181.5t-138 -72.5q-88 0 -137 73t-49 181t49 180.5t137 72.5q75 0 125 -56q36 36 38 75q-6 -1 -9 -1q-16 0 -25.5 10.5t-9.5 26.5q0 15 10.5 26t26.5 11q18 0 30.5 -15.5t12.5 -41.5zM234 33q65 0 99 61t34 148
q0 86 -34 147t-99 61q-64 0 -98 -61t-34 -147t34 -147.5t98 -61.5z" />
    <glyph glyph-name="Uhorn" unicode="&#x1af;" horiz-adv-x="551" 
d="M581 729q0 -45 -28 -85t-77 -63v-371q0 -107 -52 -164.5t-148 -57.5t-148.5 57t-52.5 165v457h56v-458q0 -84 37.5 -127.5t107.5 -43.5q69 0 106.5 43.5t37.5 127.5v458h56v-51q28 16 47.5 44t21.5 54h-4q-4 -1 -5 -1q-16 0 -26 10.5t-10 26.5q0 15 10.5 26t26.5 11
q19 0 31.5 -15.5t12.5 -42.5z" />
    <glyph glyph-name="uhorn" unicode="&#x1b0;" horiz-adv-x="450" 
d="M379 0h-51v69q-24 -35 -61 -58t-78 -23q-60 0 -89 31t-29 98v366h50v-356q0 -94 83 -94q37 0 71.5 24t52.5 59v367h51v-52q50 37 52 86q-6 -1 -9 -1q-15 0 -25 10.5t-10 26.5q0 15 10.5 26t26.5 11q19 0 31.5 -15.5t12.5 -42.5q0 -40 -24 -77.5t-65 -62.5v-392z" />
    <glyph glyph-name="AEacute" unicode="&#x1fc;" horiz-adv-x="735" 
d="M514 867l-135 -144h-39l116 144h58zM681 0h-325v165h-203l-77 -165h-60l317 667h348v-50h-270v-250h263v-50h-263v-267h270v-50zM356 215v387l-182 -387h182z" />
    <glyph glyph-name="aeacute" unicode="&#x1fd;" horiz-adv-x="730" 
d="M475 700l-135 -144h-39l116 144h58zM685 225h-301q2 -86 39 -139.5t101 -53.5q67 0 112 65l31 -30q-60 -79 -146 -79q-111 0 -159 114q-19 -52 -59.5 -83t-96.5 -31q-71 0 -115.5 43.5t-44.5 116.5t43 117t109 44q87 0 136 -63v93q0 54 -28.5 83t-81.5 29q-75 0 -131 -62
l-26 36q64 70 162 70q54 0 92 -26t47 -78q19 46 55 75t86 29q86 0 131 -72t45 -182v-16zM384 265h250q-1 46 -12 86t-40.5 70.5t-72.5 30.5q-60 0 -91.5 -58t-33.5 -129zM334 180v20q-40 69 -122 69q-51 0 -82 -32.5t-31 -86.5t31 -86.5t82 -32.5q55 0 88.5 42t33.5 107z
" />
    <glyph glyph-name="Oslashacute" unicode="&#x1fe;" horiz-adv-x="590" 
d="M425 867l-135 -144h-39l116 144h58zM295 -12q-77 0 -131 45l-17 -33h-47l33 65q-80 95 -80 268q0 149 64 247t178 98q71 0 129 -45l17 34h47l-33 -64q82 -97 82 -270q0 -149 -64.5 -247t-177.5 -98zM295 39q86 0 134.5 83.5t48.5 210.5q0 132 -51 215l-238 -464
q43 -45 106 -45zM111 333q0 -131 50 -213l237 464q-43 43 -103 43q-86 0 -135 -83t-49 -211z" />
    <glyph glyph-name="oslashacute" unicode="&#x1ff;" 
d="M365 700l-135 -144h-39l116 144h58zM103 0h-40l36 58q-51 70 -51 184q0 108 49 180.5t137 72.5q65 0 109 -41l18 29h41l-34 -55q53 -71 53 -186q0 -109 -49 -181.5t-138 -72.5q-66 0 -112 43zM234 33q65 0 99 61t34 148q0 81 -29 138l-189 -305q34 -42 85 -42zM102 242
q0 -81 27 -135l188 304q-34 39 -83 39q-64 0 -98 -61t-34 -147z" />
    <glyph glyph-name="Scommaaccent" unicode="&#x218;" horiz-adv-x="459" 
d="M273 -137q0 -38 -19 -72.5t-47 -54.5l-27 21q23 16 38.5 41.5t16.5 47.5q-6 -1 -9 -1q-16 0 -26 11t-10 27t11 27.5t27 11.5q19 0 32 -16t13 -43zM222 -12q-117 0 -187 83l34 43q25 -33 65.5 -54t87.5 -21q66 0 100.5 36t34.5 88q0 42 -22.5 74t-56 50t-73 39t-73 41.5
t-56 57.5t-22.5 86q0 74 51.5 120.5t127.5 46.5q104 0 167 -69l-31 -42q-51 60 -137 60q-51 0 -86 -31.5t-35 -82.5q0 -36 22.5 -64.5t56 -45.5t73 -38.5t73 -44t56 -62.5t22.5 -92q0 -75 -49 -126.5t-143 -51.5z" />
    <glyph glyph-name="scommaaccent" unicode="&#x219;" horiz-adv-x="377" 
d="M238 -137q0 -38 -19 -72.5t-47 -54.5l-27 21q23 16 38.5 41.5t16.5 47.5q-6 -1 -9 -1q-16 0 -26 11t-10 27t11 27.5t27 11.5q19 0 32 -16t13 -43zM185 -12q-97 0 -153 68l29 36q47 -61 123 -61q46 0 74 24.5t28 64.5q0 35 -25 58.5t-60 38.5t-70.5 31.5t-60.5 47.5
t-25 76q0 53 39.5 88t104.5 35q86 0 138 -62l-27 -35q-39 54 -111 54q-43 0 -69 -22.5t-26 -56.5q0 -32 25 -54t60 -36.5t70.5 -31.5t60.5 -50t25 -80q0 -59 -41 -96t-109 -37z" />
    <glyph glyph-name="uni021A" unicode="&#x21a;" horiz-adv-x="435" 
d="M267 -137q0 -38 -19 -72.5t-47 -54.5l-27 21q23 16 38.5 41.5t16.5 47.5q-6 -1 -9 -1q-16 0 -26 11t-10 27t11 27.5t27 11.5q19 0 32 -16t13 -43zM245 0h-56v617h-162v50h381v-50h-163v-617z" />
    <glyph glyph-name="uni021B" unicode="&#x21b;" horiz-adv-x="249" 
d="M174 -137q0 -38 -19 -72.5t-47 -54.5l-27 21q23 16 38.5 41.5t16.5 47.5q-6 -1 -9 -1q-16 0 -26 11t-10 27t11 27.5t27 11.5q19 0 32 -16t13 -43zM167 -12q-84 0 -84 101v349h-66v45h66v132h50v-132h83v-45h-83v-343q0 -62 42 -62q27 0 44 22l20 -37q-28 -30 -72 -30z
" />
    <glyph glyph-name="uni0237" unicode="&#x237;" horiz-adv-x="192" 
d="M15 -196q-48 0 -78 36l25 36q21 -28 50 -28q59 0 59 79v556h50v-556q0 -123 -106 -123z" />
    <glyph glyph-name="hsuperior" unicode="&#x2b0;" horiz-adv-x="335" 
d="M278 326h-42v224q0 63 -56 63q-24 0 -46.5 -15.5t-35.5 -37.5v-234h-41v434h41v-166q15 22 41.5 38t54.5 16q84 0 84 -90v-232z" />
    <glyph glyph-name="uni02BC" unicode="&#x2bc;" horiz-adv-x="218" 
d="M157 613q0 -40 -20 -76.5t-51 -57.5l-29 23q24 17 41 43.5t18 49.5l-4 -1q-4 -1 -6 -1q-18 0 -29 12t-11 30q0 17 12 29.5t30 12.5q20 0 34.5 -17t14.5 -47z" />
    <glyph glyph-name="circumflex" unicode="&#x2c6;" horiz-adv-x="219" 
d="M219 556h-36l-75 112l-72 -112h-36l82 144h52z" />
    <glyph glyph-name="caron" unicode="&#x2c7;" horiz-adv-x="219" 
d="M137 556h-52l-85 144h36l75 -112l72 112h36z" />
    <glyph glyph-name="uni02C9" unicode="&#x2c9;" horiz-adv-x="304" 
d="M304 591h-304v37h304v-37z" />
    <glyph glyph-name="uni02CB" unicode="&#x2cb;" horiz-adv-x="174" 
d="M174 556h-39l-135 144h58z" />
    <glyph glyph-name="breve" unicode="&#x2d8;" horiz-adv-x="293" 
d="M293 622q-56 -74 -146 -74q-91 0 -147 74l29 24q43 -61 118 -61q74 0 117 61z" />
    <glyph glyph-name="dotaccent" unicode="&#x2d9;" horiz-adv-x="83" 
d="M41 561q-14 0 -25.5 11t-11.5 26q0 16 11 27t26 11q16 0 27 -11t11 -27q0 -15 -11 -26t-27 -11z" />
    <glyph glyph-name="ring" unicode="&#x2da;" horiz-adv-x="175" 
d="M88 549q-36 0 -62 25.5t-26 62.5q0 36 26 62t62 26t61.5 -26t25.5 -62q0 -37 -25 -62.5t-62 -25.5zM88 579q24 0 40.5 17t16.5 41q0 23 -16.5 40t-40.5 17q-23 0 -40 -17t-17 -40q0 -24 17 -41t40 -17z" />
    <glyph glyph-name="ogonek" unicode="&#x2db;" horiz-adv-x="151" 
d="M121 -114l30 -15q-20 -57 -76 -57q-33 0 -54 20t-21 59q0 75 82 127l28 -20q-74 -43 -74 -106q0 -47 40 -47q33 0 45 39z" />
    <glyph glyph-name="tilde" unicode="&#x2dc;" horiz-adv-x="260" 
d="M180 554q-22 0 -37.5 16t-22.5 35.5t-18 35.5t-25 16q-44 0 -44 -97h-33q0 59 20.5 96.5t59.5 37.5q22 0 37.5 -16t22.5 -35.5t18 -35.5t25 -16q44 0 44 97h33q0 -59 -20.5 -96.5t-59.5 -37.5z" />
    <glyph glyph-name="hungarumlaut" unicode="&#x2dd;" horiz-adv-x="254" 
d="M129 700l-96 -144h-33l77 144h52zM254 700l-96 -144h-33l77 144h52z" />
    <glyph glyph-name="hookabovecomb" unicode="&#x309;" horiz-adv-x="151" 
d="M41 734l-27 7q15 49 62 49q27 0 43.5 -16t16.5 -48q0 -31 -21 -59h-31q24 28 24 59q0 38 -32 38q-27 0 -35 -30z" />
    <glyph glyph-name="uni037E" unicode="&#x37e;" horiz-adv-x="218" 
d="M109 404q-17 0 -30 13t-13 30t13 30t30 13q18 0 30.5 -13t12.5 -30t-12.5 -30t-30.5 -13zM157 14q0 -40 -20 -77t-51 -58l-29 24q24 16 40.5 42.5t18.5 49.5l-4 -1h-6q-18 0 -29 11.5t-11 29.5q0 17 12 29.5t30 12.5q20 0 34.5 -17t14.5 -46z" />
    <glyph glyph-name="tonos" unicode="&#x384;" horiz-adv-x="187" 
d="M127 570h-29l17 195h64z" />
    <glyph glyph-name="dieresistonos" unicode="&#x385;" horiz-adv-x="450" 
d="M230 570h-29l18 195h63zM379 601q0 -15 -11 -26t-26 -11t-25.5 11t-10.5 26t10.5 25.5t25.5 10.5t26 -10.5t11 -25.5zM144 601q0 -15 -10.5 -26t-25.5 -11t-26 11t-11 26t11 25.5t26 10.5t25.5 -10.5t10.5 -25.5z" />
    <glyph glyph-name="Alphatonos" unicode="&#x386;" horiz-adv-x="492" 
d="M129 570h-29l17 195h64zM480 0h-60l-48 165h-251l-48 -165h-61l201 667h66zM359 215l-113 387l-113 -387h226z" />
    <glyph glyph-name="Epsilontonos" unicode="&#x388;" horiz-adv-x="462" 
d="M20 570h-29l17 195h64zM411 0h-326v667h326v-50h-270v-250h263v-50h-263v-267h270v-50z" />
    <glyph glyph-name="Etatonos" unicode="&#x389;" horiz-adv-x="570" 
d="M20 570h-29l17 195h64zM494 0h-55v318h-298v-318h-56v667h56v-299h298v299h55v-667z" />
    <glyph glyph-name="Iotatonos" unicode="&#x38a;" horiz-adv-x="216" 
d="M20 570h-29l17 195h64zM141 0h-56v667h56v-667z" />
    <glyph glyph-name="Omicrontonos" unicode="&#x38c;" horiz-adv-x="592" 
d="M52 570h-29l17 195h64zM298 -12q-114 0 -178 98t-64 247t64 247t178 98q113 0 177.5 -98t64.5 -247t-64.5 -247t-177.5 -98zM298 39q86 0 134.5 83.5t48.5 210.5q0 128 -48.5 211t-134.5 83t-135 -83t-49 -211q0 -127 49 -210.5t135 -83.5z" />
    <glyph glyph-name="Upsilontonos" unicode="&#x38e;" horiz-adv-x="532" 
d="M15 570h-29l17 195h64zM318 0h-55v286l-206 381h64l169 -325l171 325h63l-206 -381v-286z" />
    <glyph glyph-name="Omegatonos" unicode="&#x38f;" horiz-adv-x="585" 
d="M52 570h-29l17 195h64zM66 50h107q-121 91 -121 290q0 152 65 245t177 93q113 0 177.5 -92.5t64.5 -245.5q0 -201 -120 -290h107v-50h-172v50q51 21 89 93t38 190q0 134 -48.5 213.5t-135.5 79.5q-86 0 -134.5 -79.5t-48.5 -213.5q0 -117 38.5 -189.5t88.5 -93.5v-50
h-172v50z" />
    <glyph glyph-name="iotadieresistonos" unicode="&#x390;" horiz-adv-x="203" 
d="M107 570h-29l18 195h63zM256 601q0 -15 -11 -26t-26 -11t-25.5 11t-10.5 26t10.5 25.5t25.5 10.5t26 -10.5t11 -25.5zM21 601q0 -15 -10.5 -26t-25.5 -11t-26 11t-11 26t11 25.5t26 10.5t25.5 -10.5t10.5 -25.5zM155 -12q-84 0 -84 101v394h50v-390q0 -60 41 -60
q7 0 17 2l4 -44q-11 -3 -28 -3z" />
    <glyph glyph-name="Alpha" unicode="&#x391;" horiz-adv-x="492" 
d="M480 0h-60l-48 165h-251l-48 -165h-61l201 667h66zM359 215l-113 387l-113 -387h226z" />
    <glyph glyph-name="Beta" unicode="&#x392;" horiz-adv-x="498" 
d="M277 0h-202v667h197q75 0 118 -45.5t43 -124.5q0 -61 -28 -100.5t-72 -52.5q47 -7 79 -56t32 -108q0 -84 -43.5 -132t-123.5 -48zM265 367q55 0 82 34.5t27 89.5q0 56 -27 91t-82 35h-134v-250h134zM269 50q57 0 86.5 35.5t29.5 98.5q0 56 -29.5 94.5t-86.5 38.5h-138
v-267h138z" />
    <glyph glyph-name="Gamma" unicode="&#x393;" horiz-adv-x="441" 
d="M131 0h-56v667h326v-50h-270v-617z" />
    <glyph glyph-name="uni0394" unicode="&#x394;" horiz-adv-x="510" 
d="M498 0h-486l210 667h66zM424 50l-169 552l-169 -552h338z" />
    <glyph glyph-name="Epsilon" unicode="&#x395;" horiz-adv-x="452" 
d="M401 0h-326v667h326v-50h-270v-250h263v-50h-263v-267h270v-50z" />
    <glyph glyph-name="Zeta" unicode="&#x396;" horiz-adv-x="453" 
d="M410 0h-368v49l296 568h-296v50h361v-48l-297 -569h304v-50z" />
    <glyph glyph-name="Eta" unicode="&#x397;" horiz-adv-x="559" 
d="M484 0h-55v318h-298v-318h-56v667h56v-299h298v299h55v-667z" />
    <glyph glyph-name="Theta" unicode="&#x398;" horiz-adv-x="590" 
d="M433 317h-276v50h276v-50zM295 -12q-114 0 -178 98t-64 247t64 247t178 98q113 0 177.5 -98t64.5 -247t-64.5 -247t-177.5 -98zM295 39q86 0 134.5 83.5t48.5 210.5q0 128 -48.5 211t-134.5 83t-135 -83t-49 -211q0 -127 49 -210.5t135 -83.5z" />
    <glyph glyph-name="Iota" unicode="&#x399;" horiz-adv-x="206" 
d="M131 0h-56v667h56v-667z" />
    <glyph glyph-name="Kappa" unicode="&#x39a;" horiz-adv-x="490" 
d="M471 0h-68l-213 309l-59 -84v-225h-56v667h56v-364l253 364h67l-227 -318z" />
    <glyph glyph-name="Lambda" unicode="&#x39b;" horiz-adv-x="492" 
d="M480 0h-60l-174 602l-173 -602h-61l201 667h66z" />
    <glyph glyph-name="Mu" unicode="&#x39c;" horiz-adv-x="661" 
d="M586 0h-55v571l-189 -571h-23l-188 571v-571h-56v667h81l175 -526l175 526h80v-667z" />
    <glyph glyph-name="Nu" unicode="&#x39d;" horiz-adv-x="557" 
d="M482 0h-54l-297 546v-546h-56v667h56l295 -538v538h56v-667z" />
    <glyph glyph-name="Xi" unicode="&#x39e;" horiz-adv-x="486" 
d="M434 617h-382v50h382v-50zM433 0h-381v50h381v-50zM427 317h-368v50h368v-50z" />
    <glyph glyph-name="Omicron" unicode="&#x39f;" horiz-adv-x="590" 
d="M295 -12q-114 0 -178 98t-64 247t64 247t178 98q113 0 177.5 -98t64.5 -247t-64.5 -247t-177.5 -98zM295 39q86 0 134.5 83.5t48.5 210.5q0 128 -48.5 211t-134.5 83t-135 -83t-49 -211q0 -127 49 -210.5t135 -83.5z" />
    <glyph glyph-name="Pi" unicode="&#x3a0;" horiz-adv-x="559" 
d="M484 0h-55v617h-298v-617h-56v667h409v-667z" />
    <glyph glyph-name="Rho" unicode="&#x3a1;" horiz-adv-x="468" 
d="M131 0h-56v667h184q83 0 129 -56t46 -139q0 -82 -46 -138t-129 -56h-128v-278zM255 328q56 0 88 40t32 104q0 65 -32 105t-88 40h-124v-289h124z" />
    <glyph glyph-name="Sigma" unicode="&#x3a3;" horiz-adv-x="441" 
d="M115 617l179 -273l-181 -294h281v-50h-342v51l179 293l-179 273v50h342v-50h-279z" />
    <glyph glyph-name="Tau" unicode="&#x3a4;" horiz-adv-x="435" 
d="M245 0h-56v617h-162v50h381v-50h-163v-617z" />
    <glyph glyph-name="Upsilon" unicode="&#x3a5;" horiz-adv-x="483" 
d="M269 0h-55v286l-206 381h64l169 -325l171 325h63l-206 -381v-286z" />
    <glyph glyph-name="Phi" unicode="&#x3a6;" horiz-adv-x="670" 
d="M363 0h-56v65q-123 8 -188.5 82.5t-65.5 185.5q0 110 65.5 184.5t188.5 83.5v66h56v-66q122 -9 188 -83.5t66 -184.5t-66 -185t-188 -83v-65zM111 333q0 -89 50.5 -149t145.5 -68v434q-95 -8 -145.5 -67.5t-50.5 -149.5zM558 333q0 89 -50.5 148.5t-144.5 68.5v-434
q94 8 144.5 68t50.5 149z" />
    <glyph glyph-name="Chi" unicode="&#x3a7;" horiz-adv-x="491" 
d="M479 0h-65l-168 293l-168 -293h-66l201 340l-190 327h67l156 -278l156 278h66l-189 -326z" />
    <glyph glyph-name="Psi" unicode="&#x3a8;" horiz-adv-x="661" 
d="M358 0h-55v125q-110 7 -169 68.5t-59 171.5v302h56v-301q0 -178 172 -191v492h55v-492q83 7 127 55t44 136v301h56v-302q0 -110 -59 -171.5t-168 -68.5v-125z" />
    <glyph glyph-name="uni03A9" unicode="&#x3a9;" horiz-adv-x="581" 
d="M62 50h107q-121 91 -121 290q0 152 65 245t177 93q113 0 177.5 -92.5t64.5 -245.5q0 -201 -120 -290h107v-50h-172v50q51 21 89 93t38 190q0 134 -48.5 213.5t-135.5 79.5q-86 0 -134.5 -79.5t-48.5 -213.5q0 -117 38.5 -189.5t88.5 -93.5v-50h-172v50z" />
    <glyph glyph-name="Iotadieresis" unicode="&#x3aa;" horiz-adv-x="206" 
d="M131 0h-56v667h56v-667zM223 785q0 -15 -10.5 -26t-25.5 -11t-26 11t-11 26t11 25.5t26 10.5t25.5 -10.5t10.5 -25.5zM55 785q0 -15 -10.5 -26t-25.5 -11t-25.5 11t-10.5 26t10.5 25.5t25.5 10.5t25.5 -10.5t10.5 -25.5z" />
    <glyph glyph-name="Upsilondieresis" unicode="&#x3ab;" horiz-adv-x="483" 
d="M269 0h-55v286l-206 381h64l169 -325l171 325h63l-206 -381v-286zM361 785q0 -15 -10.5 -26t-25.5 -11t-26 11t-11 26t11 25.5t26 10.5t25.5 -10.5t10.5 -25.5zM193 785q0 -15 -10.5 -26t-25.5 -11t-25.5 11t-10.5 26t10.5 25.5t25.5 10.5t25.5 -10.5t10.5 -25.5z" />
    <glyph glyph-name="alphatonos" unicode="&#x3ac;" horiz-adv-x="480" 
d="M247 570h-29l17 195h64zM456 35l4 -44q-10 -3 -28 -3q-77 0 -83 86q-20 -38 -55.5 -62t-74.5 -24q-80 0 -125.5 69t-45.5 184q0 114 45.5 184t125.5 70q38 0 72.5 -22.5t55.5 -63.5v74h51v-390q0 -60 41 -60q7 0 17 2zM228 33q37 0 70.5 26t49.5 63v237
q-16 37 -49.5 63.5t-70.5 26.5q-62 0 -94 -58.5t-32 -149.5t32 -149.5t94 -58.5z" />
    <glyph glyph-name="epsilontonos" unicode="&#x3ad;" horiz-adv-x="429" 
d="M222 570h-29l17 195h64zM225 -12q-83 0 -130 39.5t-47 100.5q0 50 35.5 81t80.5 37q-43 8 -76 41.5t-33 78.5q0 59 50.5 94t128.5 35q102 0 159 -78l-32 -29q-45 64 -128 64q-54 0 -89.5 -24.5t-35.5 -65.5q0 -45 35 -70t89 -25h89v-43h-90q-130 0 -130 -93
q0 -45 34.5 -72.5t90.5 -27.5q92 0 143 67l31 -30q-62 -80 -175 -80z" />
    <glyph glyph-name="etatonos" unicode="&#x3ae;" horiz-adv-x="450" 
d="M232 570h-29l17 195h64zM379 -184h-51v539q0 95 -83 95q-36 0 -70.5 -25t-53.5 -60v-365h-50v483h50v-71q23 35 61.5 59t78.5 24q118 0 118 -130v-549z" />
    <glyph glyph-name="iotatonos" unicode="&#x3af;" horiz-adv-x="203" 
d="M110 570h-29l17 195h64zM155 -12q-84 0 -84 101v394h50v-390q0 -60 41 -60q7 0 17 2l4 -44q-11 -3 -28 -3z" />
    <glyph glyph-name="upsilondieresistonos" unicode="&#x3b0;" horiz-adv-x="459" 
d="M234 570h-29l18 195h63zM383 601q0 -15 -11 -26t-26 -11t-25.5 11t-10.5 26t10.5 25.5t25.5 10.5t26 -10.5t11 -25.5zM148 601q0 -15 -10.5 -26t-25.5 -11t-26 11t-11 26t11 25.5t26 10.5t25.5 -10.5t10.5 -25.5zM225 -12q-78 0 -116 51t-38 140v304h50v-303
q0 -147 104 -147q65 0 98.5 61.5t33.5 151.5q0 129 -67 226l45 23q77 -112 77 -249q0 -111 -49 -184.5t-138 -73.5z" />
    <glyph glyph-name="alpha" unicode="&#x3b1;" horiz-adv-x="480" 
d="M456 35l4 -44q-10 -3 -28 -3q-77 0 -83 86q-20 -38 -55.5 -62t-74.5 -24q-80 0 -125.5 69t-45.5 184q0 114 45.5 184t125.5 70q38 0 72.5 -22.5t55.5 -63.5v74h51v-390q0 -60 41 -60q7 0 17 2zM228 33q37 0 70.5 26t49.5 63v237q-16 37 -49.5 63.5t-70.5 26.5
q-62 0 -94 -58.5t-32 -149.5t32 -149.5t94 -58.5z" />
    <glyph glyph-name="beta" unicode="&#x3b2;" 
d="M121 459v-337q17 -37 51 -63t73 -26q58 0 90 40.5t32 102.5q0 72 -37.5 108.5t-94.5 36.5h-26v45h25q53 0 86.5 34t33.5 98q0 63 -30 98t-77 35q-55 0 -90.5 -41.5t-35.5 -130.5zM121 72v-256h-50v643q0 112 50.5 165t126.5 53q71 0 115.5 -45.5t44.5 -130.5
q0 -61 -32 -102.5t-78 -53.5q46 -8 84.5 -54.5t38.5 -119.5q0 -82 -46 -132.5t-120 -50.5q-42 0 -77 23t-57 61z" />
    <glyph glyph-name="gamma" unicode="&#x3b3;" horiz-adv-x="392" 
d="M221 -184h-51v153q0 146 -46.5 281t-123.5 233h60q59 -83 100 -192t48 -216q47 82 76 193t29 215h51q0 -117 -38.5 -244t-104.5 -235v-188z" />
    <glyph glyph-name="delta" unicode="&#x3b4;" 
d="M236 -12q-88 0 -138 64.5t-50 153.5q0 157 131 230q-41 22 -63.5 49.5t-22.5 70.5q0 53 39.5 88t104.5 35q86 0 138 -62l-27 -35q-39 54 -111 54q-43 0 -69 -22.5t-26 -56.5q0 -25 15.5 -44t40 -33t54 -28.5t59.5 -34.5t54.5 -46t40 -68.5t15.5 -96.5q0 -90 -49 -154
t-136 -64zM372 206q0 45 -11.5 79t-34.5 57.5t-43.5 37t-53.5 30.5q-127 -55 -127 -204q0 -67 34.5 -120t98.5 -53q65 0 101 53t36 120z" />
    <glyph glyph-name="epsilon" unicode="&#x3b5;" horiz-adv-x="429" 
d="M225 -12q-83 0 -130 39.5t-47 100.5q0 50 35.5 81t80.5 37q-43 8 -76 41.5t-33 78.5q0 59 50.5 94t128.5 35q102 0 159 -78l-32 -29q-45 64 -128 64q-54 0 -89.5 -24.5t-35.5 -65.5q0 -45 35 -70t89 -25h89v-43h-90q-130 0 -130 -93q0 -45 34.5 -72.5t90.5 -27.5
q92 0 143 67l31 -30q-62 -80 -175 -80z" />
    <glyph glyph-name="zeta" unicode="&#x3b6;" horiz-adv-x="398" 
d="M308 -50q0 21 -11.5 29.5t-39.5 8.5q-95 0 -152 59.5t-57 148.5q0 237 251 426h-239v45h298v-41q-256 -203 -256 -426q0 -70 43 -118.5t118 -48.5q50 0 73.5 -18t23.5 -58q0 -45 -41 -114h-55q44 67 44 107z" />
    <glyph glyph-name="eta" unicode="&#x3b7;" horiz-adv-x="450" 
d="M379 -184h-51v539q0 95 -83 95q-36 0 -70.5 -25t-53.5 -60v-365h-50v483h50v-71q23 35 61.5 59t78.5 24q118 0 118 -130v-549z" />
    <glyph glyph-name="theta" unicode="&#x3b8;" 
d="M234 -12q-95 0 -140.5 93.5t-45.5 252.5t45.5 252t140.5 93q96 0 141.5 -92.5t45.5 -252.5t-45.5 -253t-141.5 -93zM234 33q128 0 133 280h-265q3 -280 132 -280zM234 634q-127 0 -132 -276h265q-5 276 -133 276z" />
    <glyph glyph-name="iota" unicode="&#x3b9;" horiz-adv-x="203" 
d="M155 -12q-84 0 -84 101v394h50v-390q0 -60 41 -60q7 0 17 2l4 -44q-11 -3 -28 -3z" />
    <glyph glyph-name="kappa" unicode="&#x3ba;" horiz-adv-x="424" 
d="M404 0h-61l-146 230l-76 -94v-136h-50v483h50v-281l224 281h61l-175 -218z" />
    <glyph glyph-name="lambda" unicode="&#x3bb;" horiz-adv-x="392" 
d="M49 626l-9 46q18 7 43 7q75 0 104 -86l195 -593h-56l-130 421l-130 -421h-56l159 493l-29 86q-11 31 -24.5 43t-34.5 12q-18 0 -32 -8z" />
    <glyph glyph-name="uni03BC" unicode="&#x3bc;" horiz-adv-x="461" 
d="M121 28v-212h-50v667h50v-356q0 -95 86 -95q36 0 69.5 24.5t51.5 59.5v367h51v-390q0 -60 41 -60q7 0 17 2l4 -44q-11 -3 -28 -3q-75 0 -83 84q-22 -37 -55.5 -60.5t-70.5 -23.5q-59 0 -83 40z" />
    <glyph glyph-name="nu" unicode="&#x3bd;" horiz-adv-x="392" 
d="M219 0h-52l-157 483h56l132 -428q54 95 84.5 208.5t30.5 219.5h51q0 -118 -39 -246.5t-106 -236.5z" />
    <glyph glyph-name="xi" unicode="&#x3be;" horiz-adv-x="398" 
d="M257 -12q-99 0 -154 52.5t-55 134.5q0 67 36.5 111t81.5 54q-45 11 -77.5 49.5t-32.5 93.5q0 43 25.5 80.5t65.5 58.5h-86v45h287v-45h-146q-41 -16 -66.5 -52.5t-25.5 -77.5q0 -60 36.5 -93t91.5 -33h103v-44h-103q-60 0 -98 -35.5t-38 -106.5q0 -61 41.5 -104
t119.5 -43q50 0 73.5 -18t23.5 -58q0 -45 -41 -114h-55q44 67 44 107q0 21 -11.5 29.5t-39.5 8.5z" />
    <glyph glyph-name="omicron" unicode="&#x3bf;" 
d="M234 -12q-88 0 -137 73t-49 181t49 180.5t137 72.5q89 0 138 -72t49 -181t-49 -181.5t-138 -72.5zM234 33q65 0 99 61t34 148q0 86 -34 147t-99 61q-64 0 -98 -61t-34 -147t34 -147.5t98 -61.5z" />
    <glyph glyph-name="pi" unicode="&#x3c0;" horiz-adv-x="474" 
d="M392 0h-51v438h-208v-438h-50v438h-66v45h440v-45h-65v-438z" />
    <glyph glyph-name="rho" unicode="&#x3c1;" horiz-adv-x="467" 
d="M250 -12q-38 0 -72.5 22.5t-56.5 63.5v-258h-50v426q0 108 45.5 180.5t128.5 72.5t129.5 -71.5t46.5 -181.5q0 -114 -45.5 -184t-125.5 -70zM241 33q62 0 94 59t32 150q0 88 -31 148t-92 60q-60 0 -91.5 -61t-31.5 -147v-119q16 -36 49.5 -63t70.5 -27z" />
    <glyph glyph-name="sigma1" unicode="&#x3c2;" horiz-adv-x="388" 
d="M254 -12q-95 0 -150.5 70t-55.5 184q0 109 51.5 181t139.5 72q79 0 131 -64l-30 -34q-39 53 -98 53q-67 0 -103.5 -59.5t-36.5 -148.5q0 -94 41.5 -151.5t115.5 -57.5q52 0 75 -18t23 -58q0 -46 -40 -114h-51q44 70 44 107q0 21 -13.5 29.5t-42.5 8.5z" />
    <glyph glyph-name="sigma" unicode="&#x3c3;" 
d="M419 229q0 -101 -48.5 -171t-136.5 -70q-87 0 -136.5 72.5t-49.5 181.5q0 102 52 171.5t150 69.5h198v-45h-109q80 -82 80 -209zM367 233q0 144 -88 205h-29q-74 0 -111 -58t-37 -138q0 -86 34 -147.5t98 -61.5q65 0 99 60t34 140z" />
    <glyph glyph-name="tau" unicode="&#x3c4;" horiz-adv-x="358" 
d="M238 -12q-85 0 -85 101v349h-131v45h314v-45h-132v-343q0 -62 41 -62q27 0 44 22l21 -37q-28 -30 -72 -30z" />
    <glyph glyph-name="upsilon" unicode="&#x3c5;" horiz-adv-x="459" 
d="M225 -12q-78 0 -116 51t-38 140v304h50v-303q0 -147 104 -147q65 0 98.5 61.5t33.5 151.5q0 129 -67 226l45 23q77 -112 77 -249q0 -111 -49 -184.5t-138 -73.5z" />
    <glyph glyph-name="phi" unicode="&#x3c6;" horiz-adv-x="610" 
d="M562 242q0 -106 -58 -176t-174 -77v-173h-51v173q-116 8 -173.5 78.5t-57.5 180.5q0 172 149 247l23 -40q-118 -61 -118 -207q0 -88 42 -147t135 -67v461h26q129 0 193 -71t64 -182zM508 242q0 85 -43.5 143t-134.5 64v-415q93 8 135.5 66t42.5 142z" />
    <glyph glyph-name="chi" unicode="&#x3c7;" horiz-adv-x="393" 
d="M376 -184h-55l-125 290l-125 -290h-54l149 340l-141 327h55l116 -276l117 276h55l-141 -327z" />
    <glyph glyph-name="psi" unicode="&#x3c8;" horiz-adv-x="610" 
d="M330 -184h-51v173q-208 13 -208 225v269h50v-269q0 -169 158 -180v633h51v-633q158 11 158 180v269h51v-269q0 -213 -209 -225v-173z" />
    <glyph glyph-name="omega" unicode="&#x3c9;" horiz-adv-x="669" 
d="M621 242q0 -109 -40 -181.5t-112 -72.5q-53 0 -87 37t-47 95q-13 -57 -47 -94.5t-87 -37.5q-73 0 -113 72.5t-40 181.5q0 80 26.5 150.5t76.5 102.5l34 -34q-83 -59 -83 -219q0 -55 10.5 -101t34.5 -77t58 -31q52 0 78 61t26 148v124h51v-124q0 -87 26 -148t78 -61
q34 0 58 31t34.5 77t10.5 101q0 160 -83 219l34 34q50 -32 76.5 -102.5t26.5 -150.5z" />
    <glyph glyph-name="iotadieresis" unicode="&#x3ca;" horiz-adv-x="203" 
d="M222 601q0 -15 -10.5 -26t-25.5 -11t-26 11t-11 26t11 25.5t26 10.5t25.5 -10.5t10.5 -25.5zM54 601q0 -15 -10.5 -26t-25.5 -11t-25.5 11t-10.5 26t10.5 25.5t25.5 10.5t25.5 -10.5t10.5 -25.5zM155 -12q-84 0 -84 101v394h50v-390q0 -60 41 -60q7 0 17 2l4 -44
q-11 -3 -28 -3z" />
    <glyph glyph-name="upsilondieresis" unicode="&#x3cb;" horiz-adv-x="459" 
d="M349 601q0 -15 -10.5 -26t-25.5 -11t-26 11t-11 26t11 25.5t26 10.5t25.5 -10.5t10.5 -25.5zM181 601q0 -15 -10.5 -26t-25.5 -11t-25.5 11t-10.5 26t10.5 25.5t25.5 10.5t25.5 -10.5t10.5 -25.5zM225 -12q-78 0 -116 51t-38 140v304h50v-303q0 -147 104 -147
q65 0 98.5 61.5t33.5 151.5q0 129 -67 226l45 23q77 -112 77 -249q0 -111 -49 -184.5t-138 -73.5z" />
    <glyph glyph-name="omicrontonos" unicode="&#x3cc;" 
d="M242 570h-29l17 195h64zM234 -12q-88 0 -137 73t-49 181t49 180.5t137 72.5q89 0 138 -72t49 -181t-49 -181.5t-138 -72.5zM234 33q65 0 99 61t34 148q0 86 -34 147t-99 61q-64 0 -98 -61t-34 -147t34 -147.5t98 -61.5z" />
    <glyph glyph-name="upsilontonos" unicode="&#x3cd;" horiz-adv-x="459" 
d="M238 570h-29l17 195h64zM225 -12q-78 0 -116 51t-38 140v304h50v-303q0 -147 104 -147q65 0 98.5 61.5t33.5 151.5q0 129 -67 226l45 23q77 -112 77 -249q0 -111 -49 -184.5t-138 -73.5z" />
    <glyph glyph-name="omegatonos" unicode="&#x3ce;" horiz-adv-x="669" 
d="M342 570h-29l17 195h64zM621 242q0 -109 -40 -181.5t-112 -72.5q-53 0 -87 37t-47 95q-13 -57 -47 -94.5t-87 -37.5q-73 0 -113 72.5t-40 181.5q0 80 26.5 150.5t76.5 102.5l34 -34q-83 -59 -83 -219q0 -55 10.5 -101t34.5 -77t58 -31q52 0 78 61t26 148v124h51v-124
q0 -87 26 -148t78 -61q34 0 58 31t34.5 77t10.5 101q0 160 -83 219l34 34q50 -32 76.5 -102.5t26.5 -150.5z" />
    <glyph glyph-name="afii10023" unicode="&#x401;" horiz-adv-x="452" 
d="M358 768q0 -15 -10.5 -26t-25.5 -11t-26 11t-11 26t11 25.5t26 10.5t25.5 -10.5t10.5 -25.5zM190 768q0 -15 -10.5 -26t-25.5 -11t-25.5 11t-10.5 26t10.5 25.5t25.5 10.5t25.5 -10.5t10.5 -25.5zM401 0h-326v667h326v-50h-270v-250h263v-50h-263v-267h270v-50z" />
    <glyph glyph-name="afii10051" unicode="&#x402;" horiz-adv-x="610" 
d="M379 -12v51q116 0 116 145v42q0 76 -35.5 118t-102.5 42q-59 0 -112 -15v-371h-56v617h-162v50h381v-50h-163v-196q60 15 116 15q93 0 141.5 -58t48.5 -152v-42q0 -100 -47.5 -148t-124.5 -48z" />
    <glyph glyph-name="afii10052" unicode="&#x403;" horiz-adv-x="441" 
d="M366 867l-135 -144h-39l116 144h58zM131 0h-56v667h326v-50h-270v-617z" />
    <glyph glyph-name="afii10053" unicode="&#x404;" horiz-adv-x="523" 
d="M302 -12q-113 0 -181 97t-68 248q0 152 68 248.5t181 96.5q116 0 184 -117l-47 -24q-49 90 -137 90q-80 0 -131.5 -72t-58.5 -188h280v-50h-281q3 -122 55 -200t136 -78q90 0 138 100l48 -24q-67 -127 -186 -127z" />
    <glyph glyph-name="afii10054" unicode="&#x405;" horiz-adv-x="459" 
d="M222 -12q-117 0 -187 83l34 43q25 -33 65.5 -54t87.5 -21q66 0 100.5 36t34.5 88q0 42 -22.5 74t-56 50t-73 39t-73 41.5t-56 57.5t-22.5 86q0 74 51.5 120.5t127.5 46.5q104 0 167 -69l-31 -42q-51 60 -137 60q-51 0 -86 -31.5t-35 -82.5q0 -36 22.5 -64.5t56 -45.5
t73 -38.5t73 -44t56 -62.5t22.5 -92q0 -75 -49 -126.5t-143 -51.5z" />
    <glyph glyph-name="afii10055" unicode="&#x406;" horiz-adv-x="206" 
d="M131 0h-56v667h56v-667z" />
    <glyph glyph-name="afii10056" unicode="&#x407;" horiz-adv-x="206" 
d="M131 0h-56v667h56v-667zM223 768q0 -15 -10.5 -26t-25.5 -11t-26 11t-11 26t11 25.5t26 10.5t25.5 -10.5t10.5 -25.5zM55 768q0 -15 -10.5 -26t-25.5 -11t-25.5 11t-10.5 26t10.5 25.5t25.5 10.5t25.5 -10.5t10.5 -25.5z" />
    <glyph glyph-name="afii10057" unicode="&#x408;" horiz-adv-x="390" 
d="M148 -12q-86 0 -138 66l31 42q42 -57 104 -57q54 0 84 32.5t30 91.5v504h56v-505q0 -86 -46 -130t-121 -44z" />
    <glyph glyph-name="afii10058" unicode="&#x409;" horiz-adv-x="821" 
d="M26 -12v51q38 0 61 19.5t42 82t31 178.5l32 348h292v-278h129q83 0 128.5 -55.5t45.5 -138.5t-45.5 -139t-128.5 -56h-184v617h-186l-29 -303q-10 -104 -26.5 -171t-42 -100t-52.5 -44t-67 -11zM608 339h-124v-289h124q57 0 89 40t32 105q0 64 -32 104t-89 40z" />
    <glyph glyph-name="afii10059" unicode="&#x40a;" horiz-adv-x="821" 
d="M75 0v667h56v-299h298v299h55v-299h134q81 0 125 -52.5t44 -131.5t-44 -131.5t-125 -52.5h-189v318h-298v-318h-56zM484 50h130q54 0 84.5 37t30.5 97t-30.5 97t-84.5 37h-130v-268z" />
    <glyph glyph-name="afii10060" unicode="&#x40b;" horiz-adv-x="614" 
d="M494 0v230q0 73 -35 114.5t-102 41.5q-59 0 -112 -15v-371h-56v617h-162v50h381v-50h-163v-196q60 15 116 15q93 0 140.5 -57t47.5 -150v-229h-55z" />
    <glyph glyph-name="afii10061" unicode="&#x40c;" horiz-adv-x="490" 
d="M377 867l-135 -144h-39l116 144h58zM471 0h-68l-213 309l-59 -84v-225h-56v667h56v-364l253 364h67l-227 -318z" />
    <glyph glyph-name="afii10062" unicode="&#x40e;" horiz-adv-x="483" 
d="M106 -12q-62 0 -98 39l24 45q30 -33 71 -33q30 0 47 16t37 59l24 62l-203 491h61l172 -423l173 423h61l-237 -574q-24 -54 -54 -79.5t-78 -25.5zM388 789q-56 -74 -146 -74q-91 0 -147 74l29 24q43 -61 118 -61q74 0 117 61z" />
    <glyph glyph-name="afii10145" unicode="&#x40f;" horiz-adv-x="559" 
d="M75 0v667h56v-617h298v617h55v-667h-176v-128h-56v128h-177z" />
    <glyph glyph-name="afii10017" unicode="&#x410;" horiz-adv-x="492" 
d="M480 0h-60l-48 165h-251l-48 -165h-61l201 667h66zM359 215l-113 387l-113 -387h226z" />
    <glyph glyph-name="afii10018" unicode="&#x411;" horiz-adv-x="468" 
d="M75 667h324v-50h-268v-228h128q83 0 129 -56t46 -138q0 -83 -46 -139t-129 -56h-184v667zM255 339h-124v-289h124q56 0 88 40t32 105q0 64 -32 104t-88 40z" />
    <glyph glyph-name="afii10019" unicode="&#x412;" horiz-adv-x="498" 
d="M277 0h-202v667h197q75 0 118 -45.5t43 -124.5q0 -61 -28 -100.5t-72 -52.5q47 -7 79 -56t32 -108q0 -84 -43.5 -132t-123.5 -48zM265 367q55 0 82 34.5t27 89.5q0 56 -27 91t-82 35h-134v-250h134zM269 50q57 0 86.5 35.5t29.5 98.5q0 56 -29.5 94.5t-86.5 38.5h-138
v-267h138z" />
    <glyph glyph-name="afii10020" unicode="&#x413;" horiz-adv-x="441" 
d="M131 0h-56v667h326v-50h-270v-617z" />
    <glyph glyph-name="afii10021" unicode="&#x414;" horiz-adv-x="578" 
d="M26 -123v169q29 2 47 11.5t36 37.5t30 83.5t21 143.5l32 345h292v-617h61v-173h-55v123h-408v-123h-56zM215 317q-21 -211 -89 -267h303v567h-186z" />
    <glyph glyph-name="afii10022" unicode="&#x415;" horiz-adv-x="452" 
d="M401 0h-326v667h326v-50h-270v-250h263v-50h-263v-267h270v-50z" />
    <glyph glyph-name="afii10024" unicode="&#x416;" horiz-adv-x="716" 
d="M84 0h-68l247 349l-227 318h67l227 -330v330h56v-330l227 330h68l-228 -318l248 -349h-68l-213 309l-34 -51v-258h-56v259l-33 50z" />
    <glyph glyph-name="afii10025" unicode="&#x417;" horiz-adv-x="471" 
d="M225 -12q-65 0 -115.5 31.5t-77.5 80.5l41 31q53 -92 151 -92q66 0 100.5 38t34.5 105q0 71 -39 103.5t-99 32.5h-106v51h105q57 0 93.5 32t36.5 94q0 64 -35 97.5t-92 33.5q-83 0 -141 -84l-39 31q28 48 76.5 76t106.5 28q79 0 130.5 -45.5t51.5 -130.5
q0 -60 -34.5 -102t-83.5 -54q49 -8 88 -53t39 -113q0 -85 -50.5 -138t-141.5 -53z" />
    <glyph glyph-name="afii10026" unicode="&#x418;" horiz-adv-x="557" 
d="M129 0h-54v667h56v-542l295 542h56v-667h-55v550z" />
    <glyph glyph-name="afii10027" unicode="&#x419;" horiz-adv-x="557" 
d="M129 0h-54v667h56v-542l295 542h56v-667h-55v550zM425 789q-56 -74 -146 -74q-91 0 -147 74l29 24q43 -61 118 -61q74 0 117 61z" />
    <glyph glyph-name="afii10028" unicode="&#x41a;" horiz-adv-x="490" 
d="M471 0h-68l-213 309l-59 -84v-225h-56v667h56v-364l253 364h67l-227 -318z" />
    <glyph glyph-name="afii10029" unicode="&#x41b;" horiz-adv-x="559" 
d="M26 -12v51q38 0 61 19.5t42 82t31 178.5l32 348h292v-667h-55v617h-186l-29 -303q-10 -104 -26.5 -171t-42 -100t-52.5 -44t-67 -11z" />
    <glyph glyph-name="afii10030" unicode="&#x41c;" horiz-adv-x="661" 
d="M586 0h-55v571l-189 -571h-23l-188 571v-571h-56v667h81l175 -526l175 526h80v-667z" />
    <glyph glyph-name="afii10031" unicode="&#x41d;" horiz-adv-x="559" 
d="M484 0h-55v318h-298v-318h-56v667h56v-299h298v299h55v-667z" />
    <glyph glyph-name="afii10032" unicode="&#x41e;" horiz-adv-x="590" 
d="M295 -12q-114 0 -178 98t-64 247t64 247t178 98q113 0 177.5 -98t64.5 -247t-64.5 -247t-177.5 -98zM295 39q86 0 134.5 83.5t48.5 210.5q0 128 -48.5 211t-134.5 83t-135 -83t-49 -211q0 -127 49 -210.5t135 -83.5z" />
    <glyph glyph-name="afii10033" unicode="&#x41f;" horiz-adv-x="559" 
d="M484 0h-55v617h-298v-617h-56v667h409v-667z" />
    <glyph glyph-name="afii10034" unicode="&#x420;" horiz-adv-x="468" 
d="M131 0h-56v667h184q83 0 129 -56t46 -139q0 -82 -46 -138t-129 -56h-128v-278zM255 328q56 0 88 40t32 104q0 65 -32 105t-88 40h-124v-289h124z" />
    <glyph glyph-name="afii10035" unicode="&#x421;" horiz-adv-x="523" 
d="M302 -12q-113 0 -181 97t-68 248q0 152 68 248.5t181 96.5q116 0 184 -117l-47 -24q-49 90 -137 90q-86 0 -138.5 -82.5t-52.5 -211.5q0 -128 52.5 -211t138.5 -83q90 0 138 100l48 -24q-67 -127 -186 -127z" />
    <glyph glyph-name="afii10036" unicode="&#x422;" horiz-adv-x="435" 
d="M245 0h-56v617h-162v50h381v-50h-163v-617z" />
    <glyph glyph-name="afii10037" unicode="&#x423;" horiz-adv-x="483" 
d="M106 -12q-62 0 -98 39l24 45q30 -33 71 -33q30 0 47 16t37 59l24 62l-203 491h61l172 -423l173 423h61l-237 -574q-24 -54 -54 -79.5t-78 -25.5z" />
    <glyph glyph-name="afii10038" unicode="&#x424;" horiz-adv-x="670" 
d="M363 0h-56v65q-123 8 -188.5 82.5t-65.5 185.5q0 110 65.5 184.5t188.5 83.5v66h56v-66q122 -9 188 -83.5t66 -184.5t-66 -185t-188 -83v-65zM111 333q0 -89 50.5 -149t145.5 -68v434q-95 -8 -145.5 -67.5t-50.5 -149.5zM558 333q0 89 -50.5 148.5t-144.5 68.5v-434
q94 8 144.5 68t50.5 149z" />
    <glyph glyph-name="afii10039" unicode="&#x425;" horiz-adv-x="491" 
d="M479 0h-65l-168 293l-168 -293h-66l201 340l-190 327h67l156 -278l156 278h66l-189 -326z" />
    <glyph glyph-name="afii10040" unicode="&#x426;" horiz-adv-x="578" 
d="M490 -123v123h-415v667h56v-617h298v617h55v-617h61v-173h-55z" />
    <glyph glyph-name="afii10041" unicode="&#x427;" horiz-adv-x="492" 
d="M112 667v-183q0 -73 35 -114.5t102 -41.5q59 0 112 15v324h56v-667h-56v293q-62 -15 -116 -15q-93 0 -140.5 57t-47.5 150v182h55z" />
    <glyph glyph-name="afii10042" unicode="&#x428;" horiz-adv-x="785" 
d="M654 667h55v-667h-633v667h56v-617h233v617h56v-617h233v617z" />
    <glyph glyph-name="afii10043" unicode="&#x429;" horiz-adv-x="807" 
d="M658 667h56v-617h61v-173h-56v123h-638v667h55v-617h234v617h55v-617h233v617z" />
    <glyph glyph-name="afii10044" unicode="&#x42a;" horiz-adv-x="581" 
d="M373 0h-184v617h-162v50h218v-278h128q83 0 129 -56t46 -138q0 -83 -46 -139t-129 -56zM369 339h-124v-289h124q56 0 88 40t32 105q0 64 -32 104t-88 40z" />
    <glyph glyph-name="afii10045" unicode="&#x42b;" horiz-adv-x="641" 
d="M75 667h56v-278h128q83 0 129 -56t46 -138q0 -83 -46 -139t-129 -56h-184v667zM255 339h-124v-289h124q56 0 88 40t32 105q0 64 -32 104t-88 40zM566 0h-56v667h56v-667z" />
    <glyph glyph-name="afii10046" unicode="&#x42c;" horiz-adv-x="468" 
d="M75 667h56v-278h128q83 0 129 -56t46 -138q0 -83 -46 -139t-129 -56h-184v667zM255 339h-124v-289h124q56 0 88 40t32 105q0 64 -32 104t-88 40z" />
    <glyph glyph-name="afii10047" unicode="&#x42d;" horiz-adv-x="523" 
d="M221 -12q-119 0 -186 127l47 24q48 -100 139 -100q82 0 134 78t56 200h-280v50h279q-8 116 -59 188t-130 72q-89 0 -138 -90l-46 24q67 117 184 117q113 0 181 -97t68 -248t-68.5 -248t-180.5 -97z" />
    <glyph glyph-name="afii10048" unicode="&#x42e;" horiz-adv-x="776" 
d="M481 -12q-112 0 -175.5 93t-66.5 237h-108v-318h-56v667h56v-299h109q7 136 70 223t171 87q113 0 177.5 -98t64.5 -247t-64.5 -247t-177.5 -98zM481 39q86 0 134.5 83.5t48.5 210.5q0 128 -48.5 211t-134.5 83q-87 0 -135.5 -83t-48.5 -211q0 -127 48.5 -210.5
t135.5 -83.5z" />
    <glyph glyph-name="afii10049" unicode="&#x42f;" horiz-adv-x="491" 
d="M114 0h-64l147 285q-59 7 -99.5 55t-40.5 133q0 90 48.5 142t125.5 52h184v-667h-55v278h-107zM236 328h124v289h-124q-56 0 -88.5 -40t-32.5 -105q0 -64 32.5 -104t88.5 -40z" />
    <glyph glyph-name="afii10065" unicode="&#x430;" horiz-adv-x="440" 
d="M369 0h-51v54q-46 -66 -127 -66q-61 0 -103 44.5t-42 116.5q0 73 42 116.5t103 43.5q81 0 127 -64v94q0 54 -26.5 83t-75.5 29q-69 0 -123 -62l-26 36q64 70 154 70q71 0 109.5 -38t38.5 -114v-343zM205 27q76 0 113 68v106q-36 68 -113 68q-49 0 -77.5 -35t-28.5 -86
t28.5 -86t77.5 -35z" />
    <glyph glyph-name="afii10066" unicode="&#x431;" horiz-adv-x="472" 
d="M234 33q65 0 99 60.5t34 149.5q0 87 -34 147t-99 60q-64 0 -98 -60.5t-34 -146.5q0 -88 34 -149t98 -61zM234 -12q-89 0 -137.5 76t-48.5 200q0 178 44.5 254.5t160.5 97.5q105 19 105 51h49q0 -41 -37 -61.5t-105 -34.5q-89 -17 -124 -58t-47 -122q50 104 147 104
q84 0 132 -72.5t48 -179.5q0 -108 -49.5 -181.5t-137.5 -73.5z" />
    <glyph glyph-name="afii10067" unicode="&#x432;" horiz-adv-x="446" 
d="M257 0h-186v483h183q59 0 92.5 -33t33.5 -91q0 -84 -72 -109q35 -10 57.5 -44t22.5 -75q0 -62 -33.5 -96.5t-97.5 -34.5zM249 43q43 0 64.5 24t21.5 67q0 39 -22 66t-64 27h-128v-184h128zM246 270q41 0 60.5 23.5t19.5 61.5t-19.5 61.5t-60.5 23.5h-125v-170h125z" />
    <glyph glyph-name="afii10068" unicode="&#x433;" horiz-adv-x="354" 
d="M328 483v-45h-207v-438h-50v483h257z" />
    <glyph glyph-name="afii10069" unicode="&#x434;" horiz-adv-x="468" 
d="M19 -123v164q36 5 56.5 44t32.5 150l25 248h246v-438h58v-168h-51v123h-316v-123h-51zM180 438l-22 -209q-15 -145 -62 -184h233v393h-149z" />
    <glyph glyph-name="afii10070" unicode="&#x435;" horiz-adv-x="463" 
d="M247 -12q-92 0 -145.5 71t-53.5 183q0 108 51 180.5t136 72.5q89 0 136 -72t47 -182v-16h-316q2 -85 41.5 -139.5t106.5 -54.5q71 0 119 65l31 -29q-61 -79 -153 -79zM367 265q-1 73 -34 130t-99 57q-44 0 -75 -31t-44 -71.5t-14 -84.5h266z" />
    <glyph glyph-name="afii10072" unicode="&#x436;" horiz-adv-x="571" 
d="M81 0h-61l173 265l-175 218h61l181 -228v228h51v-228l181 228h61l-175 -218l173 -265h-61l-146 230l-33 -41v-189h-51v189l-33 41z" />
    <glyph glyph-name="afii10073" unicode="&#x437;" horiz-adv-x="429" 
d="M203 -12q-114 0 -174 80l31 30q51 -67 143 -67q56 0 90.5 27.5t34.5 72.5q0 93 -131 93h-90v43h90q54 0 88.5 25t34.5 70q0 41 -35 65.5t-90 24.5q-83 0 -127 -64l-32 29q55 78 159 78q77 0 127.5 -35t50.5 -94q0 -45 -32.5 -78.5t-76.5 -41.5q46 -6 81.5 -37t35.5 -81
q0 -61 -47 -100.5t-131 -39.5z" />
    <glyph glyph-name="afii10074" unicode="&#x438;" horiz-adv-x="450" 
d="M122 0h-51v483h50v-387l205 387h53v-483h-50v393z" />
    <glyph glyph-name="afii10075" unicode="&#x439;" horiz-adv-x="450" 
d="M122 0h-51v483h50v-387l205 387h53v-483h-50v393zM371 622q-56 -74 -146 -74q-91 0 -147 74l29 24q43 -61 118 -61q74 0 117 61z" />
    <glyph glyph-name="afii10076" unicode="&#x43a;" horiz-adv-x="424" 
d="M404 0h-61l-146 230l-76 -94v-136h-50v483h50v-281l224 281h61l-175 -218z" />
    <glyph glyph-name="afii10077" unicode="&#x43b;" horiz-adv-x="450" 
d="M19 -12v44q34 0 55.5 44.5t33.5 158.5l25 248h246v-483h-50v438h-149l-22 -209q-14 -135 -47 -188t-92 -53z" />
    <glyph glyph-name="afii10078" unicode="&#x43c;" horiz-adv-x="537" 
d="M467 0h-51v401l-136 -401h-22l-137 401v-401h-50v483h69l129 -377l129 377h69v-483z" />
    <glyph glyph-name="afii10079" unicode="&#x43d;" horiz-adv-x="450" 
d="M121 0h-50v483h50v-210h208v210h50v-483h-50v228h-208v-228z" />
    <glyph glyph-name="afii10080" unicode="&#x43e;" 
d="M234 -12q-88 0 -137 73t-49 181t49 180.5t137 72.5q89 0 138 -72t49 -181t-49 -181.5t-138 -72.5zM234 33q65 0 99 61t34 148q0 86 -34 147t-99 61q-64 0 -98 -61t-34 -147t34 -147.5t98 -61.5z" />
    <glyph glyph-name="afii10081" unicode="&#x43f;" horiz-adv-x="450" 
d="M379 0h-50v438h-208v-438h-50v483h308v-483z" />
    <glyph glyph-name="afii10082" unicode="&#x440;" horiz-adv-x="467" 
d="M250 -12q-38 0 -72.5 22.5t-56.5 63.5v-258h-50v667h50v-72q22 38 56.5 61t72.5 23q80 0 125.5 -69t45.5 -184q0 -114 -45.5 -184t-125.5 -70zM241 33q62 0 94 59t32 150t-32 149.5t-94 58.5q-37 0 -70.5 -26t-49.5 -63v-238q16 -36 49.5 -63t70.5 -27z" />
    <glyph glyph-name="afii10083" unicode="&#x441;" horiz-adv-x="400" 
d="M239 -12q-88 0 -139.5 72.5t-51.5 181.5t51.5 181t139.5 72q79 0 131 -64l-30 -34q-39 53 -98 53q-67 0 -103.5 -59.5t-36.5 -148.5t36.5 -149t103.5 -60q59 0 98 53l30 -34q-50 -64 -131 -64z" />
    <glyph glyph-name="afii10084" unicode="&#x442;" horiz-adv-x="329" 
d="M190 0h-51v438h-113v45h277v-45h-113v-438z" />
    <glyph glyph-name="afii10085" unicode="&#x443;" horiz-adv-x="392" 
d="M40 -189l9 46q14 -8 32 -8q21 0 34.5 12t24.5 42l29 87l-159 493h56l130 -421l130 421h56l-195 -593q-29 -86 -104 -86q-25 0 -43 7z" />
    <glyph glyph-name="afii10086" unicode="&#x444;" horiz-adv-x="647" 
d="M192 495q69 0 106 -84v256h51v-254q17 37 45.5 59.5t60.5 22.5q66 0 103 -69t37 -184q0 -114 -37 -184t-103 -70q-69 0 -106 84v-256h-51v254q-17 -38 -45.5 -60t-60.5 -22q-66 0 -103 69.5t-37 183.5t37 184t103 70zM203 450q-49 0 -74 -59t-25 -150q0 -90 25 -149
t74 -59q30 0 56 26t39 63v238q-13 37 -39.5 63.5t-55.5 26.5zM444 33q49 0 74 59t25 150t-25 149.5t-74 58.5q-30 0 -56 -26t-39 -63v-238q13 -37 39.5 -63.5t55.5 -26.5z" />
    <glyph glyph-name="afii10087" unicode="&#x445;" horiz-adv-x="393" 
d="M376 0h-58l-122 208l-122 -208h-57l149 246l-141 237h58l113 -198l114 198h58l-141 -237z" />
    <glyph glyph-name="afii10088" unicode="&#x446;" horiz-adv-x="468" 
d="M386 -123v123h-315v483h50v-438h208v438h50v-438h58v-168h-51z" />
    <glyph glyph-name="afii10089" unicode="&#x447;" horiz-adv-x="442" 
d="M63 483h51v-162q0 -54 23 -76t72 -22q65 0 112 31v229h51v-483h-51v213q-53 -35 -123 -35q-71 0 -103 31.5t-32 101.5v172z" />
    <glyph glyph-name="afii10090" unicode="&#x448;" horiz-adv-x="649" 
d="M528 483h50v-483h-507v483h50v-438h178v438h51v-438h178v438z" />
    <glyph glyph-name="afii10091" unicode="&#x449;" horiz-adv-x="668" 
d="M528 483h50v-438h59v-168h-50v123h-516v483h50v-438h178v438h51v-438h178v438z" />
    <glyph glyph-name="afii10092" unicode="&#x44a;" horiz-adv-x="495" 
d="M316 0h-177v438h-113v45h164v-197h126q67 0 102.5 -41t35.5 -102t-36 -102t-102 -41zM312 242h-122v-198h122q43 0 66 27.5t23 71.5q0 45 -23 72t-66 27z" />
    <glyph glyph-name="afii10093" unicode="&#x44b;" horiz-adv-x="585" 
d="M71 483h50v-197h127q66 0 102 -41t36 -102t-36 -102t-102 -41h-177v483zM244 242h-123v-198h123q43 0 65.5 27t22.5 72t-22.5 72t-65.5 27zM514 0h-51v483h51v-483z" />
    <glyph glyph-name="afii10094" unicode="&#x44c;" horiz-adv-x="427" 
d="M71 483h50v-197h127q66 0 102 -41t36 -102t-36 -102t-102 -41h-177v483zM244 242h-123v-198h123q43 0 65.5 27t22.5 72t-22.5 72t-65.5 27z" />
    <glyph glyph-name="afii10095" unicode="&#x44d;" horiz-adv-x="400" 
d="M161 -12q-81 0 -131 64l30 33q40 -54 98 -54q63 0 99 54.5t40 137.5h-205v45h205q-6 80 -41.5 132t-97.5 52q-58 0 -98 -53l-30 32q52 64 131 64q88 0 139.5 -72t51.5 -181t-51.5 -181.5t-139.5 -72.5z" />
    <glyph glyph-name="afii10096" unicode="&#x44e;" horiz-adv-x="630" 
d="M395 -12q-85 0 -134.5 68.5t-52.5 171.5h-87v-228h-50v483h50v-210h88q7 97 56 159.5t130 62.5q89 0 138 -72t49 -181t-49 -181.5t-138 -72.5zM395 33q65 0 99 61t34 148q0 86 -34 147t-99 61t-98.5 -61t-33.5 -147q0 -87 33.5 -148t98.5 -61z" />
    <glyph glyph-name="afii10097" unicode="&#x44f;" horiz-adv-x="449" 
d="M116 0h-60l111 203q-47 6 -76.5 42.5t-29.5 94.5q0 63 37 103t101 40h179v-483h-51v197h-108zM203 241h124v198h-124q-42 0 -65.5 -27t-23.5 -72t22.5 -72t66.5 -27z" />
    <glyph glyph-name="afii10071" unicode="&#x451;" horiz-adv-x="463" 
d="M355 601q0 -15 -10.5 -26t-25.5 -11t-26 11t-11 26t11 25.5t26 10.5t25.5 -10.5t10.5 -25.5zM187 601q0 -15 -10.5 -26t-25.5 -11t-25.5 11t-10.5 26t10.5 25.5t25.5 10.5t25.5 -10.5t10.5 -25.5zM247 -12q-92 0 -145.5 71t-53.5 183q0 108 51 180.5t136 72.5
q89 0 136 -72t47 -182v-16h-316q2 -85 41.5 -139.5t106.5 -54.5q71 0 119 65l31 -29q-61 -79 -153 -79zM367 265q-1 73 -34 130t-99 57q-44 0 -75 -31t-44 -71.5t-14 -84.5h266z" />
    <glyph glyph-name="afii10099" unicode="&#x452;" horiz-adv-x="458" 
d="M269 538h-140v-126q23 35 61.5 59t78.5 24q60 0 89 -31t29 -98v-439q0 -123 -106 -123q-47 0 -78 36l25 36q21 -28 50 -28q59 0 59 79v429q0 94 -84 94q-36 0 -70.5 -25t-53.5 -60v-365h-50v538h-62v37h62v92h50v-92h140v-37z" />
    <glyph glyph-name="afii10100" unicode="&#x453;" horiz-adv-x="354" 
d="M330 700l-135 -144h-39l116 144h58zM328 483v-45h-207v-438h-50v483h257z" />
    <glyph glyph-name="afii10101" unicode="&#x454;" horiz-adv-x="400" 
d="M239 -12q-88 0 -139.5 72.5t-51.5 181.5t51.5 181t139.5 72q79 0 131 -64l-30 -32q-40 53 -98 53q-62 0 -98 -52t-41 -132h205v-45h-206q4 -83 40 -137.5t100 -54.5q58 0 98 54l30 -33q-50 -64 -131 -64z" />
    <glyph glyph-name="afii10102" unicode="&#x455;" horiz-adv-x="377" 
d="M185 -12q-97 0 -153 68l29 36q47 -61 123 -61q46 0 74 24.5t28 64.5q0 35 -25 58.5t-60 38.5t-70.5 31.5t-60.5 47.5t-25 76q0 53 39.5 88t104.5 35q86 0 138 -62l-27 -35q-39 54 -111 54q-43 0 -69 -22.5t-26 -56.5q0 -32 25 -54t60 -36.5t70.5 -31.5t60.5 -50t25 -80
q0 -59 -41 -96t-109 -37z" />
    <glyph glyph-name="afii10103" unicode="&#x456;" horiz-adv-x="192" 
d="M96 559q-16 0 -27.5 11.5t-11.5 27.5t11.5 27.5t27.5 11.5t27.5 -11.5t11.5 -27.5t-11.5 -27.5t-27.5 -11.5zM121 0h-50v483h50v-483z" />
    <glyph glyph-name="afii10104" unicode="&#x457;" horiz-adv-x="192" 
d="M216 601q0 -15 -10.5 -26t-25.5 -11t-26 11t-11 26t11 25.5t26 10.5t25.5 -10.5t10.5 -25.5zM48 601q0 -15 -10.5 -26t-25.5 -11t-25.5 11t-10.5 26t10.5 25.5t25.5 10.5t25.5 -10.5t10.5 -25.5zM121 0h-50v483h50v-483z" />
    <glyph glyph-name="afii10105" unicode="&#x458;" horiz-adv-x="192" 
d="M96 559q-16 0 -27.5 11.5t-11.5 27.5t11.5 27.5t27.5 11.5t27.5 -11.5t11.5 -27.5t-11.5 -27.5t-27.5 -11.5zM15 -196q-48 0 -78 36l25 36q21 -28 50 -28q59 0 59 79v556h50v-556q0 -123 -106 -123z" />
    <glyph glyph-name="afii10106" unicode="&#x459;" horiz-adv-x="685" 
d="M19 -12v44q34 0 55.5 44.5t33.5 158.5l25 248h246v-197h127q66 0 102 -41t36 -102t-36 -102t-102 -41h-177v438h-149l-22 -209q-14 -135 -47 -188t-92 -53zM502 242h-123v-198h123q43 0 65.5 27t22.5 72t-22.5 72t-65.5 27z" />
    <glyph glyph-name="afii10107" unicode="&#x45a;" horiz-adv-x="685" 
d="M121 0h-50v483h50v-210h208v210h50v-210h130q65 0 100 -38.5t35 -98.5q0 -58 -35 -97t-100 -39h-180v228h-208v-228zM505 229h-126v-185h126q41 0 63 25.5t22 67.5t-21.5 67t-63.5 25z" />
    <glyph glyph-name="afii10108" unicode="&#x45b;" horiz-adv-x="458" 
d="M273 538h-144v-126q23 35 61.5 59t78.5 24q60 0 89 -31t29 -98v-366h-50v356q0 94 -84 94q-36 0 -70.5 -25t-53.5 -60v-365h-50v538h-62v37h62v92h50v-92h144v-37z" />
    <glyph glyph-name="afii10109" unicode="&#x45c;" horiz-adv-x="424" 
d="M343 700l-135 -144h-39l116 144h58zM404 0h-61l-146 230l-76 -94v-136h-50v483h50v-281l224 281h61l-175 -218z" />
    <glyph glyph-name="afii10110" unicode="&#x45e;" horiz-adv-x="392" 
d="M40 -189l9 46q14 -8 32 -8q21 0 34.5 12t24.5 42l29 87l-159 493h56l130 -421l130 421h56l-195 -593q-29 -86 -104 -86q-25 0 -43 7zM342 622q-56 -74 -146 -74q-91 0 -147 74l29 24q43 -61 118 -61q74 0 117 61z" />
    <glyph glyph-name="afii10193" unicode="&#x45f;" horiz-adv-x="450" 
d="M200 -124v124h-129v483h50v-438h208v438h50v-483h-128v-124h-51z" />
    <glyph glyph-name="afii10050" unicode="&#x490;" horiz-adv-x="441" 
d="M131 617v-617h-56v667h270v124h56v-174h-270z" />
    <glyph glyph-name="afii10098" unicode="&#x491;" horiz-adv-x="354" 
d="M121 438v-438h-50v483h206v124h51v-169h-207z" />
    <glyph glyph-name="uni1E02" unicode="&#x1e02;" horiz-adv-x="498" 
d="M277 0h-202v667h197q75 0 118 -45.5t43 -124.5q0 -61 -28 -100.5t-72 -52.5q47 -7 79 -56t32 -108q0 -84 -43.5 -132t-123.5 -48zM265 367q55 0 82 34.5t27 89.5q0 56 -27 91t-82 35h-134v-250h134zM269 50q57 0 86.5 35.5t29.5 98.5q0 56 -29.5 94.5t-86.5 38.5h-138
v-267h138zM248 728q-14 0 -25.5 11t-11.5 26t11.5 26.5t25.5 11.5q16 0 27 -11t11 -27q0 -15 -11 -26t-27 -11z" />
    <glyph glyph-name="uni1E03" unicode="&#x1e03;" 
d="M121 122q16 -37 49.5 -63t70.5 -26q62 0 94 58.5t32 149.5t-32 150t-94 59q-37 0 -70.5 -27t-49.5 -64v-237zM121 0h-50v667h50v-258q22 41 56.5 63.5t72.5 22.5q80 0 125.5 -70t45.5 -184q0 -115 -45.5 -184t-125.5 -69q-38 0 -72.5 23t-56.5 61v-72zM242 728
q-14 0 -25.5 11t-11.5 26t11.5 26.5t25.5 11.5q16 0 27 -11t11 -27q0 -15 -11 -26t-27 -11z" />
    <glyph glyph-name="uni1E0A" unicode="&#x1e0a;" horiz-adv-x="549" 
d="M237 0h-162v667h162q122 0 190.5 -94t68.5 -240q0 -147 -68.5 -240t-190.5 -93zM237 50q97 0 148.5 79t51.5 204t-51.5 204.5t-148.5 79.5h-106v-567h106zM274 728q-14 0 -25.5 11t-11.5 26t11.5 26.5t25.5 11.5q16 0 27 -11t11 -27q0 -15 -11 -26t-27 -11z" />
    <glyph glyph-name="uni1E0B" unicode="&#x1e0b;" 
d="M398 0h-50v72q-22 -38 -56.5 -61t-72.5 -23q-80 0 -125.5 69t-45.5 184q0 114 45.5 184t125.5 70q38 0 72.5 -22.5t56.5 -63.5v258h50v-667zM228 33q37 0 70.5 26t49.5 63v238q-16 36 -49.5 63t-70.5 27q-62 0 -94 -59t-32 -150t32 -149.5t94 -58.5zM227 728
q-14 0 -25.5 11t-11.5 26t11 26.5t26 11.5q16 0 27 -11t11 -27q0 -15 -11 -26t-27 -11z" />
    <glyph glyph-name="uni1E1E" unicode="&#x1e1e;" horiz-adv-x="441" 
d="M240 728q-14 0 -25.5 11t-11.5 26t11.5 26.5t25.5 11.5q16 0 27 -11t11 -27q0 -15 -11 -26t-27 -11zM131 0h-56v667h326v-50h-270v-250h263v-50h-263v-317z" />
    <glyph glyph-name="uni1E1F" unicode="&#x1e1f;" horiz-adv-x="239" 
d="M196 728q-14 0 -25.5 11t-11.5 26t11.5 26.5t25.5 11.5q16 0 27 -11t11 -27q0 -15 -11 -26t-27 -11zM137 0h-51v438h-64v45h64v69q0 58 29.5 91.5t81.5 33.5q46 0 77 -30l-23 -38q-21 24 -49 24q-65 0 -65 -81v-69h83v-45h-83v-438z" />
    <glyph glyph-name="uni1E22" unicode="&#x1e22;" horiz-adv-x="559" 
d="M484 0h-55v318h-298v-318h-56v667h56v-299h298v299h55v-667zM279 728q-14 0 -25.5 11t-11.5 26t11 26.5t26 11.5q16 0 27 -11t11 -27q0 -15 -11 -26t-27 -11z" />
    <glyph glyph-name="uni1E23" unicode="&#x1e23;" horiz-adv-x="450" 
d="M379 0h-50v356q0 94 -84 94q-36 0 -70.5 -25t-53.5 -60v-365h-50v667h50v-255q23 35 61.5 59t78.5 24q60 0 89 -31t29 -98v-366zM225 728q-14 0 -25.5 11t-11.5 26t11 26.5t26 11.5q16 0 27 -11t11 -27q0 -15 -11 -26t-27 -11z" />
    <glyph glyph-name="uni1E56" unicode="&#x1e56;" horiz-adv-x="468" 
d="M131 0h-56v667h184q83 0 129 -56t46 -139q0 -82 -46 -138t-129 -56h-128v-278zM255 328q56 0 88 40t32 104q0 65 -32 105t-88 40h-124v-289h124zM233 728q-14 0 -25.5 11t-11.5 26t11 26.5t26 11.5q16 0 27 -11t11 -27q0 -15 -11 -26t-27 -11z" />
    <glyph glyph-name="uni1E57" unicode="&#x1e57;" horiz-adv-x="467" 
d="M250 -12q-38 0 -72.5 22.5t-56.5 63.5v-258h-50v667h50v-72q22 38 56.5 61t72.5 23q80 0 125.5 -69t45.5 -184q0 -114 -45.5 -184t-125.5 -70zM241 33q62 0 94 59t32 150t-32 149.5t-94 58.5q-37 0 -70.5 -26t-49.5 -63v-238q16 -36 49.5 -63t70.5 -27zM241 561
q-14 0 -25.5 11t-11.5 26q0 16 11 27t26 11q16 0 27 -11t11 -27q0 -15 -11 -26t-27 -11z" />
    <glyph glyph-name="uni1E60" unicode="&#x1e60;" horiz-adv-x="459" 
d="M222 -12q-117 0 -187 83l34 43q25 -33 65.5 -54t87.5 -21q66 0 100.5 36t34.5 88q0 42 -22.5 74t-56 50t-73 39t-73 41.5t-56 57.5t-22.5 86q0 74 51.5 120.5t127.5 46.5q104 0 167 -69l-31 -42q-51 60 -137 60q-51 0 -86 -31.5t-35 -82.5q0 -36 22.5 -64.5t56 -45.5
t73 -38.5t73 -44t56 -62.5t22.5 -92q0 -75 -49 -126.5t-143 -51.5zM228 728q-14 0 -25.5 11t-11.5 26t11.5 26.5t25.5 11.5q16 0 27 -11t11 -27q0 -15 -11 -26t-27 -11z" />
    <glyph glyph-name="uni1E61" unicode="&#x1e61;" horiz-adv-x="377" 
d="M185 -12q-97 0 -153 68l29 36q47 -61 123 -61q46 0 74 24.5t28 64.5q0 35 -25 58.5t-60 38.5t-70.5 31.5t-60.5 47.5t-25 76q0 53 39.5 88t104.5 35q86 0 138 -62l-27 -35q-39 54 -111 54q-43 0 -69 -22.5t-26 -56.5q0 -32 25 -54t60 -36.5t70.5 -31.5t60.5 -50t25 -80
q0 -59 -41 -96t-109 -37zM188 561q-14 0 -25.5 11t-11.5 26q0 16 11.5 27t25.5 11q16 0 27 -11t11 -27q0 -15 -11 -26t-27 -11z" />
    <glyph glyph-name="uni1E6A" unicode="&#x1e6a;" horiz-adv-x="435" 
d="M245 0h-56v617h-162v50h381v-50h-163v-617zM216 728q-14 0 -25.5 11t-11.5 26t11.5 26.5t25.5 11.5q16 0 27 -11t11 -27q0 -15 -11 -26t-27 -11z" />
    <glyph glyph-name="uni1E6B" unicode="&#x1e6b;" horiz-adv-x="249" 
d="M167 -12q-84 0 -84 101v349h-66v45h66v132h50v-132h83v-45h-83v-343q0 -62 42 -62q27 0 44 22l20 -37q-28 -30 -72 -30zM112 728q-14 0 -25.5 11t-11.5 26t11.5 26.5t25.5 11.5q16 0 27 -11t11 -27q0 -15 -11 -26t-27 -11z" />
    <glyph glyph-name="Wgrave" unicode="&#x1e80;" horiz-adv-x="693" 
d="M526 0h-61l-119 562l-118 -562h-61l-147 667h60l119 -578l122 578h51l122 -578l119 578h60zM390 723h-39l-135 144h58z" />
    <glyph glyph-name="wgrave" unicode="&#x1e81;" horiz-adv-x="616" 
d="M469 0h-50l-111 414l-111 -414h-50l-130 483h54l103 -411l109 411h49l110 -411l103 411h54zM352 556h-39l-135 144h58z" />
    <glyph glyph-name="Wacute" unicode="&#x1e82;" horiz-adv-x="693" 
d="M481 867l-135 -144h-39l116 144h58zM526 0h-61l-119 562l-118 -562h-61l-147 667h60l119 -578l122 578h51l122 -578l119 578h60z" />
    <glyph glyph-name="wacute" unicode="&#x1e83;" horiz-adv-x="616" 
d="M438 700l-135 -144h-39l116 144h58zM469 0h-50l-111 414l-111 -414h-50l-130 483h54l103 -411l109 411h49l110 -411l103 411h54z" />
    <glyph glyph-name="Wdieresis" unicode="&#x1e84;" horiz-adv-x="693" 
d="M467 768q0 -15 -10.5 -26t-25.5 -11t-26 11t-11 26t11 25.5t26 10.5t25.5 -10.5t10.5 -25.5zM299 768q0 -15 -10.5 -26t-25.5 -11t-25.5 11t-10.5 26t10.5 25.5t25.5 10.5t25.5 -10.5t10.5 -25.5zM526 0h-61l-119 562l-118 -562h-61l-147 667h60l119 -578l122 578h51
l122 -578l119 578h60z" />
    <glyph glyph-name="wdieresis" unicode="&#x1e85;" horiz-adv-x="616" 
d="M428 601q0 -15 -10.5 -26t-25.5 -11t-26 11t-11 26t11 25.5t26 10.5t25.5 -10.5t10.5 -25.5zM260 601q0 -15 -10.5 -26t-25.5 -11t-25.5 11t-10.5 26t10.5 25.5t25.5 10.5t25.5 -10.5t10.5 -25.5zM469 0h-50l-111 414l-111 -414h-50l-130 483h54l103 -411l109 411h49
l110 -411l103 411h54z" />
    <glyph glyph-name="uni1EA0" unicode="&#x1ea0;" horiz-adv-x="492" 
d="M480 0h-60l-48 165h-251l-48 -165h-61l201 667h66zM359 215l-113 387l-113 -387h226zM246 -178q-14 0 -25.5 11t-11.5 26t11.5 26.5t25.5 11.5q16 0 27 -11t11 -27q0 -15 -11 -26t-27 -11z" />
    <glyph glyph-name="uni1EA1" unicode="&#x1ea1;" horiz-adv-x="440" 
d="M369 0h-51v54q-46 -66 -127 -66q-61 0 -103 44.5t-42 116.5q0 73 42 116.5t103 43.5q81 0 127 -64v94q0 54 -26.5 83t-75.5 29q-69 0 -123 -62l-26 36q64 70 154 70q71 0 109.5 -38t38.5 -114v-343zM205 27q76 0 113 68v106q-36 68 -113 68q-49 0 -77.5 -35t-28.5 -86
t28.5 -86t77.5 -35zM220 -178q-14 0 -25.5 11t-11.5 26t11.5 26.5t25.5 11.5q16 0 27 -11t11 -27q0 -15 -11 -26t-27 -11z" />
    <glyph glyph-name="uni1EA2" unicode="&#x1ea2;" horiz-adv-x="492" 
d="M480 0h-60l-48 165h-251l-48 -165h-61l201 667h66zM359 215l-113 387l-113 -387h226zM212 764l-27 7q15 49 62 49q27 0 43.5 -16t16.5 -48q0 -30 -21 -59h-31q24 28 24 59q0 38 -32 38q-27 0 -35 -30z" />
    <glyph glyph-name="uni1EA3" unicode="&#x1ea3;" horiz-adv-x="440" 
d="M369 0h-51v54q-46 -66 -127 -66q-61 0 -103 44.5t-42 116.5q0 73 42 116.5t103 43.5q81 0 127 -64v94q0 54 -26.5 83t-75.5 29q-69 0 -123 -62l-26 36q64 70 154 70q71 0 109.5 -38t38.5 -114v-343zM205 27q76 0 113 68v106q-36 68 -113 68q-49 0 -77.5 -35t-28.5 -86
t28.5 -86t77.5 -35zM185 594l-27 7q15 49 62 49q27 0 43.5 -16t16.5 -48q0 -30 -21 -59h-31q24 28 24 59q0 38 -32 38q-27 0 -35 -30z" />
    <glyph glyph-name="uni1EA4" unicode="&#x1ea4;" horiz-adv-x="492" 
d="M357 682h-36l-75 84l-72 -84h-36l82 108h52zM480 0h-60l-48 165h-251l-48 -165h-61l201 667h66zM359 215l-113 387l-113 -387h226zM503 844l-135 -108h-39l116 108h58z" />
    <glyph glyph-name="uni1EA5" unicode="&#x1ea5;" horiz-adv-x="440" 
d="M369 0h-51v54q-46 -66 -127 -66q-61 0 -103 44.5t-42 116.5q0 73 42 116.5t103 43.5q81 0 127 -64v94q0 54 -26.5 83t-75.5 29q-69 0 -123 -62l-26 36q64 70 154 70q71 0 109.5 -38t38.5 -114v-343zM205 27q76 0 113 68v106q-36 68 -113 68q-49 0 -77.5 -35t-28.5 -86
t28.5 -86t77.5 -35zM333 556h-36l-75 112l-72 -112h-36l82 144h52zM474 771l-135 -144h-39l116 144h58z" />
    <glyph glyph-name="uni1EA6" unicode="&#x1ea6;" horiz-adv-x="492" 
d="M357 682h-36l-75 84l-72 -84h-36l82 108h52zM480 0h-60l-48 165h-251l-48 -165h-61l201 667h66zM359 215l-113 387l-113 -387h226zM164 736h-39l-135 108h58z" />
    <glyph glyph-name="uni1EA7" unicode="&#x1ea7;" horiz-adv-x="440" 
d="M369 0h-51v54q-46 -66 -127 -66q-61 0 -103 44.5t-42 116.5q0 73 42 116.5t103 43.5q81 0 127 -64v94q0 54 -26.5 83t-75.5 29q-69 0 -123 -62l-26 36q64 70 154 70q71 0 109.5 -38t38.5 -114v-343zM205 27q76 0 113 68v106q-36 68 -113 68q-49 0 -77.5 -35t-28.5 -86
t28.5 -86t77.5 -35zM333 556h-36l-75 112l-72 -112h-36l82 144h52zM143 627h-39l-135 144h58z" />
    <glyph glyph-name="uni1EA8" unicode="&#x1ea8;" horiz-adv-x="492" 
d="M357 682h-36l-75 84l-72 -84h-36l82 108h52zM480 0h-60l-48 165h-251l-48 -165h-61l201 667h66zM359 215l-113 387l-113 -387h226zM323 793l-27 6q15 36 62 36q60 0 60 -48q0 -23 -21 -44h-31q24 21 24 44q0 29 -32 29q-27 0 -35 -23z" />
    <glyph glyph-name="uni1EA9" unicode="&#x1ea9;" horiz-adv-x="440" 
d="M369 0h-51v54q-46 -66 -127 -66q-61 0 -103 44.5t-42 116.5q0 73 42 116.5t103 43.5q81 0 127 -64v94q0 54 -26.5 83t-75.5 29q-69 0 -123 -62l-26 36q64 70 154 70q71 0 109.5 -38t38.5 -114v-343zM205 27q76 0 113 68v106q-36 68 -113 68q-49 0 -77.5 -35t-28.5 -86
t28.5 -86t77.5 -35zM333 556h-36l-75 112l-72 -112h-36l82 144h52zM261 734l-27 7q15 49 62 49q27 0 43.5 -16t16.5 -48q0 -31 -21 -59h-31q24 28 24 59q0 38 -32 38q-27 0 -35 -30z" />
    <glyph glyph-name="uni1EAA" unicode="&#x1eaa;" horiz-adv-x="492" 
d="M357 678h-36l-75 56l-72 -56h-36l82 72h52zM480 0h-60l-48 165h-251l-48 -165h-61l201 667h66zM359 215l-113 387l-113 -387h226zM296 757q-35 0 -59.5 25.5t-43.5 25.5q-44 0 -44 -48h-33q0 29 20.5 48t59.5 19q28 0 44.5 -13t29 -26t29.5 -13q44 0 44 49h33
q0 -29 -20.5 -48t-59.5 -19z" />
    <glyph glyph-name="uni1EAB" unicode="&#x1eab;" horiz-adv-x="440" 
d="M369 0h-51v54q-46 -66 -127 -66q-61 0 -103 44.5t-42 116.5q0 73 42 116.5t103 43.5q81 0 127 -64v94q0 54 -26.5 83t-75.5 29q-69 0 -123 -62l-26 36q64 70 154 70q71 0 109.5 -38t38.5 -114v-343zM205 27q76 0 113 68v106q-36 68 -113 68q-49 0 -77.5 -35t-28.5 -86
t28.5 -86t77.5 -35zM333 523h-36l-75 112l-72 -112h-36l82 144h52zM269 682q-22 0 -37.5 16t-22.5 35.5t-18 35.5t-25 16q-44 0 -44 -97h-33q0 59 20.5 96.5t59.5 37.5q22 0 37.5 -16t22.5 -35.5t18 -35.5t25 -16q44 0 44 97h33q0 -59 -20.5 -96.5t-59.5 -37.5z" />
    <glyph glyph-name="uni1EAC" unicode="&#x1eac;" horiz-adv-x="492" 
d="M480 0h-60l-48 165h-251l-48 -165h-61l201 667h66zM359 215l-113 387l-113 -387h226zM356 723h-36l-75 112l-72 -112h-36l82 144h52zM246 -178q-14 0 -25.5 11t-11.5 26t11.5 26.5t25.5 11.5q16 0 27 -11t11 -27q0 -15 -11 -26t-27 -11z" />
    <glyph glyph-name="uni1EAD" unicode="&#x1ead;" horiz-adv-x="440" 
d="M369 0h-51v54q-46 -66 -127 -66q-61 0 -103 44.5t-42 116.5q0 73 42 116.5t103 43.5q81 0 127 -64v94q0 54 -26.5 83t-75.5 29q-69 0 -123 -62l-26 36q64 70 154 70q71 0 109.5 -38t38.5 -114v-343zM205 27q76 0 113 68v106q-36 68 -113 68q-49 0 -77.5 -35t-28.5 -86
t28.5 -86t77.5 -35zM329 556h-36l-75 112l-72 -112h-36l82 144h52zM220 -178q-14 0 -25.5 11t-11.5 26t11.5 26.5t25.5 11.5q16 0 27 -11t11 -27q0 -15 -11 -26t-27 -11z" />
    <glyph glyph-name="uni1EAE" unicode="&#x1eae;" horiz-adv-x="492" 
d="M480 0h-60l-48 165h-251l-48 -165h-61l201 667h66zM359 215l-113 387l-113 -387h226zM375 841l-135 -103h-39l116 103h58zM393 756q-56 -69 -146 -69q-91 0 -147 69l29 22q44 -57 118 -57q73 0 117 57z" />
    <glyph glyph-name="uni1EAF" unicode="&#x1eaf;" horiz-adv-x="440" 
d="M369 0h-51v54q-46 -66 -127 -66q-61 0 -103 44.5t-42 116.5q0 73 42 116.5t103 43.5q81 0 127 -64v94q0 54 -26.5 83t-75.5 29q-69 0 -123 -62l-26 36q64 70 154 70q71 0 109.5 -38t38.5 -114v-343zM205 27q76 0 113 68v106q-36 68 -113 68q-49 0 -77.5 -35t-28.5 -86
t28.5 -86t77.5 -35zM351 761l-135 -144h-39l116 144h58zM368 600q-56 -74 -146 -74q-91 0 -147 74l29 24q43 -61 118 -61q74 0 117 61z" />
    <glyph glyph-name="uni1EB0" unicode="&#x1eb0;" horiz-adv-x="492" 
d="M480 0h-60l-48 165h-251l-48 -165h-61l201 667h66zM359 215l-113 387l-113 -387h226zM293 738h-39l-135 103h58zM393 754q-56 -69 -146 -69q-91 0 -147 69l29 22q44 -57 118 -57q73 0 117 57z" />
    <glyph glyph-name="uni1EB1" unicode="&#x1eb1;" horiz-adv-x="440" 
d="M369 0h-51v54q-46 -66 -127 -66q-61 0 -103 44.5t-42 116.5q0 73 42 116.5t103 43.5q81 0 127 -64v94q0 54 -26.5 83t-75.5 29q-69 0 -123 -62l-26 36q64 70 154 70q71 0 109.5 -38t38.5 -114v-343zM205 27q76 0 113 68v106q-36 68 -113 68q-49 0 -77.5 -35t-28.5 -86
t28.5 -86t77.5 -35zM263 617h-39l-135 144h58zM368 602q-56 -74 -146 -74q-91 0 -147 74l29 24q43 -61 118 -61q74 0 117 61z" />
    <glyph glyph-name="uni1EB2" unicode="&#x1eb2;" horiz-adv-x="492" 
d="M480 0h-60l-48 165h-251l-48 -165h-61l201 667h66zM359 215l-113 387l-113 -387h226zM212 790l-27 5q15 35 62 35q60 0 60 -46q0 -21 -21 -42h-31q24 20 24 42q0 27 -32 27q-28 0 -35 -21zM393 755q-56 -69 -146 -69q-91 0 -147 69l29 22q44 -57 118 -57q73 0 117 57z
" />
    <glyph glyph-name="uni1EB3" unicode="&#x1eb3;" horiz-adv-x="440" 
d="M369 0h-51v54q-46 -66 -127 -66q-61 0 -103 44.5t-42 116.5q0 73 42 116.5t103 43.5q81 0 127 -64v94q0 54 -26.5 83t-75.5 29q-69 0 -123 -62l-26 36q64 70 154 70q71 0 109.5 -38t38.5 -114v-343zM205 27q76 0 113 68v106q-36 68 -113 68q-49 0 -77.5 -35t-28.5 -86
t28.5 -86t77.5 -35zM187 680l-27 7q15 49 62 49q27 0 43.5 -16t16.5 -48q0 -30 -21 -59h-31q24 28 24 59q0 38 -32 38q-27 0 -35 -30zM368 602q-56 -74 -146 -74q-91 0 -147 74l29 24q43 -61 118 -61q74 0 117 61z" />
    <glyph glyph-name="uni1EB4" unicode="&#x1eb4;" horiz-adv-x="492" 
d="M480 0h-60l-48 165h-251l-48 -165h-61l201 667h66zM359 215l-113 387l-113 -387h226zM393 733q-57 -50 -146 -50q-90 0 -147 50l29 16q43 -41 118 -41q74 0 117 41zM296 757q-35 0 -59.5 25.5t-43.5 25.5q-44 0 -44 -48h-33q0 29 20.5 48t59.5 19q28 0 44.5 -13t29 -26
t29.5 -13q44 0 44 49h33q0 -29 -20.5 -48t-59.5 -19z" />
    <glyph glyph-name="uni1EB5" unicode="&#x1eb5;" horiz-adv-x="440" 
d="M369 0h-51v54q-46 -66 -127 -66q-61 0 -103 44.5t-42 116.5q0 73 42 116.5t103 43.5q81 0 127 -64v94q0 54 -26.5 83t-75.5 29q-69 0 -123 -62l-26 36q64 70 154 70q71 0 109.5 -38t38.5 -114v-343zM205 27q76 0 113 68v106q-36 68 -113 68q-49 0 -77.5 -35t-28.5 -86
t28.5 -86t77.5 -35zM368 602q-56 -74 -146 -74q-91 0 -147 74l29 24q43 -61 118 -61q74 0 117 61zM268 648q-22 0 -37.5 16t-22.5 35.5t-18 35.5t-25 16q-44 0 -44 -97h-33q0 59 20.5 96.5t59.5 37.5q22 0 37.5 -16t22.5 -35.5t18 -35.5t25 -16q44 0 44 97h33
q0 -59 -20.5 -96.5t-59.5 -37.5z" />
    <glyph glyph-name="uni1EB6" unicode="&#x1eb6;" horiz-adv-x="492" 
d="M480 0h-60l-48 165h-251l-48 -165h-61l201 667h66zM359 215l-113 387l-113 -387h226zM246 -178q-14 0 -25.5 11t-11.5 26t11.5 26.5t25.5 11.5q16 0 27 -11t11 -27q0 -15 -11 -26t-27 -11zM393 789q-56 -74 -146 -74q-91 0 -147 74l29 24q43 -61 118 -61q74 0 117 61z
" />
    <glyph glyph-name="uni1EB7" unicode="&#x1eb7;" horiz-adv-x="440" 
d="M369 0h-51v54q-46 -66 -127 -66q-61 0 -103 44.5t-42 116.5q0 73 42 116.5t103 43.5q81 0 127 -64v94q0 54 -26.5 83t-75.5 29q-69 0 -123 -62l-26 36q64 70 154 70q71 0 109.5 -38t38.5 -114v-343zM205 27q76 0 113 68v106q-36 68 -113 68q-49 0 -77.5 -35t-28.5 -86
t28.5 -86t77.5 -35zM220 -178q-14 0 -25.5 11t-11.5 26t11.5 26.5t25.5 11.5q16 0 27 -11t11 -27q0 -15 -11 -26t-27 -11zM366 622q-56 -74 -146 -74q-91 0 -147 74l29 24q43 -61 118 -61q74 0 117 61z" />
    <glyph glyph-name="uni1EB8" unicode="&#x1eb8;" horiz-adv-x="452" 
d="M401 0h-326v667h326v-50h-270v-250h263v-50h-263v-267h270v-50zM244 -178q-14 0 -25.5 11t-11.5 26t11.5 26.5t25.5 11.5q16 0 27 -11t11 -27q0 -15 -11 -26t-27 -11z" />
    <glyph glyph-name="uni1EB9" unicode="&#x1eb9;" horiz-adv-x="463" 
d="M247 -12q-92 0 -145.5 71t-53.5 183q0 108 51 180.5t136 72.5q89 0 136 -72t47 -182v-16h-316q2 -85 41.5 -139.5t106.5 -54.5q71 0 119 65l31 -29q-61 -79 -153 -79zM367 265q-1 73 -34 130t-99 57q-44 0 -75 -31t-44 -71.5t-14 -84.5h266zM235 -178q-14 0 -25.5 11
t-11.5 26t11 26.5t26 11.5q16 0 27 -11t11 -27q0 -15 -11 -26t-27 -11z" />
    <glyph glyph-name="uni1EBA" unicode="&#x1eba;" horiz-adv-x="452" 
d="M401 0h-326v667h326v-50h-270v-250h263v-50h-263v-267h270v-50zM193 764l-27 7q15 49 62 49q27 0 43.5 -16t16.5 -48q0 -30 -21 -59h-31q24 28 24 59q0 38 -32 38q-27 0 -35 -30z" />
    <glyph glyph-name="uni1EBB" unicode="&#x1ebb;" horiz-adv-x="463" 
d="M247 -12q-92 0 -145.5 71t-53.5 183q0 108 51 180.5t136 72.5q89 0 136 -72t47 -182v-16h-316q2 -85 41.5 -139.5t106.5 -54.5q71 0 119 65l31 -29q-61 -79 -153 -79zM367 265q-1 73 -34 130t-99 57q-44 0 -75 -31t-44 -71.5t-14 -84.5h266zM199 594l-27 7q15 49 62 49
q27 0 43.5 -16t16.5 -48q0 -30 -21 -59h-31q24 28 24 59q0 38 -32 38q-27 0 -35 -30z" />
    <glyph glyph-name="uni1EBC" unicode="&#x1ebc;" horiz-adv-x="452" 
d="M401 0h-326v667h326v-50h-270v-250h263v-50h-263v-267h270v-50zM287 721q-22 0 -37.5 16t-22.5 35.5t-18 35.5t-25 16q-44 0 -44 -97h-33q0 59 20.5 96.5t59.5 37.5q22 0 37.5 -16t22.5 -35.5t18 -35.5t25 -16q44 0 44 97h33q0 -59 -20.5 -96.5t-59.5 -37.5z" />
    <glyph glyph-name="uni1EBD" unicode="&#x1ebd;" horiz-adv-x="463" 
d="M247 -12q-92 0 -145.5 71t-53.5 183q0 108 51 180.5t136 72.5q89 0 136 -72t47 -182v-16h-316q2 -85 41.5 -139.5t106.5 -54.5q71 0 119 65l31 -29q-61 -79 -153 -79zM367 265q-1 73 -34 130t-99 57q-44 0 -75 -31t-44 -71.5t-14 -84.5h266zM285 554q-22 0 -37.5 16
t-22.5 35.5t-18 35.5t-25 16q-44 0 -44 -97h-33q0 59 20.5 96.5t59.5 37.5q22 0 37.5 -16t22.5 -35.5t18 -35.5t25 -16q44 0 44 97h33q0 -59 -20.5 -96.5t-59.5 -37.5z" />
    <glyph glyph-name="uni1EBE" unicode="&#x1ebe;" horiz-adv-x="452" 
d="M351 682h-36l-75 84l-72 -84h-36l82 108h52zM497 844l-135 -108h-39l116 108h58zM401 0h-326v667h326v-50h-270v-250h263v-50h-263v-267h270v-50z" />
    <glyph glyph-name="uni1EBF" unicode="&#x1ebf;" horiz-adv-x="463" 
d="M344 556h-36l-75 112l-72 -112h-36l82 144h52zM485 771l-135 -144h-39l116 144h58zM247 -12q-92 0 -145.5 71t-53.5 183q0 108 51 180.5t136 72.5q89 0 136 -72t47 -182v-16h-316q2 -85 41.5 -139.5t106.5 -54.5q71 0 119 65l31 -29q-61 -79 -153 -79zM367 265
q-1 73 -34 130t-99 57q-44 0 -75 -31t-44 -71.5t-14 -84.5h266z" />
    <glyph glyph-name="uni1EC0" unicode="&#x1ec0;" horiz-adv-x="452" 
d="M349 682h-36l-75 84l-72 -84h-36l82 108h52zM401 0h-326v667h326v-50h-270v-250h263v-50h-263v-267h270v-50zM156 736h-39l-135 108h58z" />
    <glyph glyph-name="uni1EC1" unicode="&#x1ec1;" horiz-adv-x="463" 
d="M343 556h-36l-75 112l-72 -112h-36l82 144h52zM247 -12q-92 0 -145.5 71t-53.5 183q0 108 51 180.5t136 72.5q89 0 136 -72t47 -182v-16h-316q2 -85 41.5 -139.5t106.5 -54.5q71 0 119 65l31 -29q-61 -79 -153 -79zM367 265q-1 73 -34 130t-99 57q-44 0 -75 -31
t-44 -71.5t-14 -84.5h266zM153 627h-39l-135 144h58z" />
    <glyph glyph-name="uni1EC2" unicode="&#x1ec2;" horiz-adv-x="452" 
d="M350 682h-36l-75 84l-72 -84h-36l82 108h52zM401 0h-326v667h326v-50h-270v-250h263v-50h-263v-267h270v-50zM316 793l-27 6q15 36 62 36q60 0 60 -48q0 -23 -21 -44h-31q24 21 24 44q0 29 -32 29q-27 0 -35 -23z" />
    <glyph glyph-name="uni1EC3" unicode="&#x1ec3;" horiz-adv-x="463" 
d="M342 556h-36l-75 112l-72 -112h-36l82 144h52zM247 -12q-92 0 -145.5 71t-53.5 183q0 108 51 180.5t136 72.5q89 0 136 -72t47 -182v-16h-316q2 -85 41.5 -139.5t106.5 -54.5q71 0 119 65l31 -29q-61 -79 -153 -79zM367 265q-1 73 -34 130t-99 57q-44 0 -75 -31
t-44 -71.5t-14 -84.5h266zM270 734l-27 7q15 49 62 49q27 0 43.5 -16t16.5 -48q0 -31 -21 -59h-31q24 28 24 59q0 38 -32 38q-27 0 -35 -30z" />
    <glyph glyph-name="uni1EC4" unicode="&#x1ec4;" horiz-adv-x="452" 
d="M349 678h-36l-75 56l-72 -56h-36l82 72h52zM401 0h-326v667h326v-50h-270v-250h263v-50h-263v-267h270v-50zM288 757q-35 0 -59.5 25.5t-43.5 25.5q-44 0 -44 -48h-33q0 29 20.5 48t59.5 19q28 0 44.5 -13t29 -26t29.5 -13q44 0 44 49h33q0 -29 -20.5 -48t-59.5 -19z" />
    <glyph glyph-name="uni1EC5" unicode="&#x1ec5;" horiz-adv-x="463" 
d="M342 523h-36l-75 112l-72 -112h-36l82 144h52zM247 -12q-92 0 -145.5 71t-53.5 183q0 108 51 180.5t136 72.5q89 0 136 -72t47 -182v-16h-316q2 -85 41.5 -139.5t106.5 -54.5q71 0 119 65l31 -29q-61 -79 -153 -79zM367 265q-1 73 -34 130t-99 57q-44 0 -75 -31
t-44 -71.5t-14 -84.5h266zM279 682q-22 0 -37.5 16t-22.5 35.5t-18 35.5t-25 16q-44 0 -44 -97h-33q0 59 20.5 96.5t59.5 37.5q22 0 37.5 -16t22.5 -35.5t18 -35.5t25 -16q44 0 44 97h33q0 -59 -20.5 -96.5t-59.5 -37.5z" />
    <glyph glyph-name="uni1EC6" unicode="&#x1ec6;" horiz-adv-x="452" 
d="M349 723h-36l-75 112l-72 -112h-36l82 144h52zM401 0h-326v667h326v-50h-270v-250h263v-50h-263v-267h270v-50zM244 -178q-14 0 -25.5 11t-11.5 26t11.5 26.5t25.5 11.5q16 0 27 -11t11 -27q0 -15 -11 -26t-27 -11z" />
    <glyph glyph-name="uni1EC7" unicode="&#x1ec7;" horiz-adv-x="463" 
d="M345 556h-36l-75 112l-72 -112h-36l82 144h52zM247 -12q-92 0 -145.5 71t-53.5 183q0 108 51 180.5t136 72.5q89 0 136 -72t47 -182v-16h-316q2 -85 41.5 -139.5t106.5 -54.5q71 0 119 65l31 -29q-61 -79 -153 -79zM367 265q-1 73 -34 130t-99 57q-44 0 -75 -31
t-44 -71.5t-14 -84.5h266zM235 -178q-14 0 -25.5 11t-11.5 26t11 26.5t26 11.5q16 0 27 -11t11 -27q0 -15 -11 -26t-27 -11z" />
    <glyph glyph-name="uni1EC8" unicode="&#x1ec8;" horiz-adv-x="206" 
d="M131 0h-56v667h56v-667zM69 764l-27 7q15 49 62 49q27 0 43.5 -16t16.5 -48q0 -30 -21 -59h-31q24 28 24 59q0 38 -32 38q-27 0 -35 -30z" />
    <glyph glyph-name="uni1EC9" unicode="&#x1ec9;" horiz-adv-x="192" 
d="M121 0h-50v483h50v-483zM61 594l-27 7q15 49 62 49q27 0 43.5 -16t16.5 -48q0 -30 -21 -59h-31q24 28 24 59q0 38 -32 38q-27 0 -35 -30z" />
    <glyph glyph-name="uni1ECA" unicode="&#x1eca;" horiz-adv-x="206" 
d="M131 0h-56v667h56v-667zM102 -178q-14 0 -25.5 11t-11.5 26t11.5 26.5t25.5 11.5q16 0 27 -11t11 -27q0 -15 -11 -26t-27 -11z" />
    <glyph glyph-name="uni1ECB" unicode="&#x1ecb;" horiz-adv-x="192" 
d="M96 559q-16 0 -27.5 11.5t-11.5 27.5t11.5 27.5t27.5 11.5t27.5 -11.5t11.5 -27.5t-11.5 -27.5t-27.5 -11.5zM121 0h-50v483h50v-483zM96 -178q-14 0 -25.5 11t-11.5 26t11.5 26.5t25.5 11.5q16 0 27 -11t11 -27q0 -15 -11 -26t-27 -11z" />
    <glyph glyph-name="uni1ECC" unicode="&#x1ecc;" horiz-adv-x="590" 
d="M295 -12q-114 0 -178 98t-64 247t64 247t178 98q113 0 177.5 -98t64.5 -247t-64.5 -247t-177.5 -98zM295 39q86 0 134.5 83.5t48.5 210.5q0 128 -48.5 211t-134.5 83t-135 -83t-49 -211q0 -127 49 -210.5t135 -83.5zM296 -178q-14 0 -25.5 11t-11.5 26t11.5 26.5
t25.5 11.5q16 0 27 -11t11 -27q0 -15 -11 -26t-27 -11z" />
    <glyph glyph-name="uni1ECD" unicode="&#x1ecd;" 
d="M234 -12q-88 0 -137 73t-49 181t49 180.5t137 72.5q89 0 138 -72t49 -181t-49 -181.5t-138 -72.5zM234 33q65 0 99 61t34 148q0 86 -34 147t-99 61q-64 0 -98 -61t-34 -147t34 -147.5t98 -61.5zM235 -178q-14 0 -25.5 11t-11.5 26t11 26.5t26 11.5q16 0 27 -11t11 -27
q0 -15 -11 -26t-27 -11z" />
    <glyph glyph-name="uni1ECE" unicode="&#x1ece;" horiz-adv-x="590" 
d="M295 -12q-114 0 -178 98t-64 247t64 247t178 98q113 0 177.5 -98t64.5 -247t-64.5 -247t-177.5 -98zM295 39q86 0 134.5 83.5t48.5 210.5q0 128 -48.5 211t-134.5 83t-135 -83t-49 -211q0 -127 49 -210.5t135 -83.5zM261 764l-27 7q15 49 62 49q27 0 43.5 -16t16.5 -48
q0 -30 -21 -59h-31q24 28 24 59q0 38 -32 38q-27 0 -35 -30z" />
    <glyph glyph-name="uni1ECF" unicode="&#x1ecf;" 
d="M234 -12q-88 0 -137 73t-49 181t49 180.5t137 72.5q89 0 138 -72t49 -181t-49 -181.5t-138 -72.5zM234 33q65 0 99 61t34 148q0 86 -34 147t-99 61q-64 0 -98 -61t-34 -147t34 -147.5t98 -61.5zM200 594l-27 7q15 49 62 49q27 0 43.5 -16t16.5 -48q0 -30 -21 -59h-31
q24 28 24 59q0 38 -32 38q-27 0 -35 -30z" />
    <glyph glyph-name="uni1ED0" unicode="&#x1ed0;" horiz-adv-x="590" 
d="M403 682h-36l-75 84l-72 -84h-36l82 108h52zM549 844l-135 -108h-39l116 108h58zM295 -12q-114 0 -178 98t-64 247t64 247t178 98q113 0 177.5 -98t64.5 -247t-64.5 -247t-177.5 -98zM295 39q86 0 134.5 83.5t48.5 210.5q0 128 -48.5 211t-134.5 83t-135 -83t-49 -211
q0 -127 49 -210.5t135 -83.5z" />
    <glyph glyph-name="uni1ED1" unicode="&#x1ed1;" 
d="M344 556h-36l-75 112l-72 -112h-36l82 144h52zM485 771l-135 -144h-39l116 144h58zM234 -12q-88 0 -137 73t-49 181t49 180.5t137 72.5q89 0 138 -72t49 -181t-49 -181.5t-138 -72.5zM234 33q65 0 99 61t34 148q0 86 -34 147t-99 61q-64 0 -98 -61t-34 -147t34 -147.5
t98 -61.5z" />
    <glyph glyph-name="uni1ED2" unicode="&#x1ed2;" horiz-adv-x="590" 
d="M402 682h-36l-75 84l-72 -84h-36l82 108h52zM295 -12q-114 0 -178 98t-64 247t64 247t178 98q113 0 177.5 -98t64.5 -247t-64.5 -247t-177.5 -98zM295 39q86 0 134.5 83.5t48.5 210.5q0 128 -48.5 211t-134.5 83t-135 -83t-49 -211q0 -127 49 -210.5t135 -83.5zM209 736
h-39l-135 108h58z" />
    <glyph glyph-name="uni1ED3" unicode="&#x1ed3;" 
d="M343 556h-36l-75 112l-72 -112h-36l82 144h52zM234 -12q-88 0 -137 73t-49 181t49 180.5t137 72.5q89 0 138 -72t49 -181t-49 -181.5t-138 -72.5zM234 33q65 0 99 61t34 148q0 86 -34 147t-99 61q-64 0 -98 -61t-34 -147t34 -147.5t98 -61.5zM154 627h-39l-135 144h58z
" />
    <glyph glyph-name="uni1ED4" unicode="&#x1ed4;" horiz-adv-x="590" 
d="M402 682h-36l-75 84l-72 -84h-36l82 108h52zM295 -12q-114 0 -178 98t-64 247t64 247t178 98q113 0 177.5 -98t64.5 -247t-64.5 -247t-177.5 -98zM295 39q86 0 134.5 83.5t48.5 210.5q0 128 -48.5 211t-134.5 83t-135 -83t-49 -211q0 -127 49 -210.5t135 -83.5zM369 793
l-27 6q15 36 62 36q60 0 60 -48q0 -23 -21 -44h-31q24 21 24 44q0 29 -32 29q-27 0 -35 -23z" />
    <glyph glyph-name="uni1ED5" unicode="&#x1ed5;" 
d="M343 556h-36l-75 112l-72 -112h-36l82 144h52zM234 -12q-88 0 -137 73t-49 181t49 180.5t137 72.5q89 0 138 -72t49 -181t-49 -181.5t-138 -72.5zM234 33q65 0 99 61t34 148q0 86 -34 147t-99 61q-64 0 -98 -61t-34 -147t34 -147.5t98 -61.5zM271 734l-27 7q15 49 62 49
q27 0 43.5 -16t16.5 -48q0 -31 -21 -59h-31q24 28 24 59q0 38 -32 38q-27 0 -35 -30z" />
    <glyph glyph-name="uni1ED6" unicode="&#x1ed6;" horiz-adv-x="590" 
d="M405 678h-36l-75 56l-72 -56h-36l82 72h52zM295 -12q-114 0 -178 98t-64 247t64 247t178 98q113 0 177.5 -98t64.5 -247t-64.5 -247t-177.5 -98zM295 39q86 0 134.5 83.5t48.5 210.5q0 128 -48.5 211t-134.5 83t-135 -83t-49 -211q0 -127 49 -210.5t135 -83.5zM344 757
q-35 0 -59.5 25.5t-43.5 25.5q-44 0 -44 -48h-33q0 29 20.5 48t59.5 19q28 0 44.5 -13t29 -26t29.5 -13q44 0 44 49h33q0 -29 -20.5 -48t-59.5 -19z" />
    <glyph glyph-name="uni1ED7" unicode="&#x1ed7;" 
d="M344 523h-36l-75 112l-72 -112h-36l82 144h52zM234 -12q-88 0 -137 73t-49 181t49 180.5t137 72.5q89 0 138 -72t49 -181t-49 -181.5t-138 -72.5zM234 33q65 0 99 61t34 148q0 86 -34 147t-99 61q-64 0 -98 -61t-34 -147t34 -147.5t98 -61.5zM281 682q-22 0 -37.5 16
t-22.5 35.5t-18 35.5t-25 16q-44 0 -44 -97h-33q0 59 20.5 96.5t59.5 37.5q22 0 37.5 -16t22.5 -35.5t18 -35.5t25 -16q44 0 44 97h33q0 -59 -20.5 -96.5t-59.5 -37.5z" />
    <glyph glyph-name="uni1ED8" unicode="&#x1ed8;" horiz-adv-x="590" 
d="M406 723h-36l-75 112l-72 -112h-36l82 144h52zM295 -12q-114 0 -178 98t-64 247t64 247t178 98q113 0 177.5 -98t64.5 -247t-64.5 -247t-177.5 -98zM295 39q86 0 134.5 83.5t48.5 210.5q0 128 -48.5 211t-134.5 83t-135 -83t-49 -211q0 -127 49 -210.5t135 -83.5z
M297 -178q-14 0 -25.5 11t-11.5 26t11 26.5t26 11.5q16 0 27 -11t11 -27q0 -15 -11 -26t-27 -11z" />
    <glyph glyph-name="uni1ED9" unicode="&#x1ed9;" 
d="M344 556h-36l-75 112l-72 -112h-36l82 144h52zM234 -12q-88 0 -137 73t-49 181t49 180.5t137 72.5q89 0 138 -72t49 -181t-49 -181.5t-138 -72.5zM234 33q65 0 99 61t34 148q0 86 -34 147t-99 61q-64 0 -98 -61t-34 -147t34 -147.5t98 -61.5zM235 -178q-14 0 -25.5 11
t-11.5 26t11 26.5t26 11.5q16 0 27 -11t11 -27q0 -15 -11 -26t-27 -11z" />
    <glyph glyph-name="uni1EDA" unicode="&#x1eda;" horiz-adv-x="590" 
d="M425 867l-135 -144h-39l116 144h58zM295 -12q-114 0 -178 98t-64 247t64 247t178 98q117 0 184 -109q40 37 42 79q-6 -1 -9 -1q-16 0 -25.5 10.5t-9.5 26.5q0 15 10.5 26t26.5 11q18 0 31 -15.5t13 -41.5q0 -36 -18 -69.5t-45 -54.5q42 -89 42 -207q0 -149 -64.5 -247
t-177.5 -98zM295 39q86 0 134.5 83.5t48.5 210.5q0 128 -48.5 211t-134.5 83t-135 -83t-49 -211q0 -127 49 -210.5t135 -83.5z" />
    <glyph glyph-name="uni1EDB" unicode="&#x1edb;" 
d="M365 700l-135 -144h-39l116 144h58zM433 530q0 -68 -55 -118q43 -69 43 -170q0 -109 -49 -181.5t-138 -72.5q-88 0 -137 73t-49 181t49 180.5t137 72.5q75 0 125 -56q36 36 38 75q-6 -1 -9 -1q-16 0 -25.5 10.5t-9.5 26.5q0 15 10.5 26t26.5 11q18 0 30.5 -15.5
t12.5 -41.5zM234 33q65 0 99 61t34 148q0 86 -34 147t-99 61q-64 0 -98 -61t-34 -147t34 -147.5t98 -61.5z" />
    <glyph glyph-name="uni1EDC" unicode="&#x1edc;" horiz-adv-x="590" 
d="M295 -12q-114 0 -178 98t-64 247t64 247t178 98q117 0 184 -109q40 37 42 79q-6 -1 -9 -1q-16 0 -25.5 10.5t-9.5 26.5q0 15 10.5 26t26.5 11q18 0 31 -15.5t13 -41.5q0 -36 -18 -69.5t-45 -54.5q42 -89 42 -207q0 -149 -64.5 -247t-177.5 -98zM295 39q86 0 134.5 83.5
t48.5 210.5q0 128 -48.5 211t-134.5 83t-135 -83t-49 -211q0 -127 49 -210.5t135 -83.5zM338 723h-39l-135 144h58z" />
    <glyph glyph-name="uni1EDD" unicode="&#x1edd;" 
d="M433 530q0 -68 -55 -118q43 -69 43 -170q0 -109 -49 -181.5t-138 -72.5q-88 0 -137 73t-49 181t49 180.5t137 72.5q75 0 125 -56q36 36 38 75q-6 -1 -9 -1q-16 0 -25.5 10.5t-9.5 26.5q0 15 10.5 26t26.5 11q18 0 30.5 -15.5t12.5 -41.5zM234 33q65 0 99 61t34 148
q0 86 -34 147t-99 61q-64 0 -98 -61t-34 -147t34 -147.5t98 -61.5zM279 556h-39l-135 144h58z" />
    <glyph glyph-name="uni1EDE" unicode="&#x1ede;" horiz-adv-x="590" 
d="M295 -12q-114 0 -178 98t-64 247t64 247t178 98q117 0 184 -109q40 37 42 79q-6 -1 -9 -1q-16 0 -25.5 10.5t-9.5 26.5q0 15 10.5 26t26.5 11q18 0 31 -15.5t13 -41.5q0 -36 -18 -69.5t-45 -54.5q42 -89 42 -207q0 -149 -64.5 -247t-177.5 -98zM295 39q86 0 134.5 83.5
t48.5 210.5q0 128 -48.5 211t-134.5 83t-135 -83t-49 -211q0 -127 49 -210.5t135 -83.5zM260 764l-27 7q15 49 62 49q27 0 43.5 -16t16.5 -48q0 -30 -21 -59h-31q24 28 24 59q0 38 -32 38q-27 0 -35 -30z" />
    <glyph glyph-name="uni1EDF" unicode="&#x1edf;" 
d="M433 530q0 -68 -55 -118q43 -69 43 -170q0 -109 -49 -181.5t-138 -72.5q-88 0 -137 73t-49 181t49 180.5t137 72.5q75 0 125 -56q36 36 38 75q-6 -1 -9 -1q-16 0 -25.5 10.5t-9.5 26.5q0 15 10.5 26t26.5 11q18 0 30.5 -15.5t12.5 -41.5zM234 33q65 0 99 61t34 148
q0 86 -34 147t-99 61q-64 0 -98 -61t-34 -147t34 -147.5t98 -61.5zM200 594l-27 7q15 49 62 49q27 0 43.5 -16t16.5 -48q0 -30 -21 -59h-31q24 28 24 59q0 38 -32 38q-27 0 -35 -30z" />
    <glyph glyph-name="uni1EE0" unicode="&#x1ee0;" horiz-adv-x="590" 
d="M295 -12q-114 0 -178 98t-64 247t64 247t178 98q117 0 184 -109q40 37 42 79q-6 -1 -9 -1q-16 0 -25.5 10.5t-9.5 26.5q0 15 10.5 26t26.5 11q18 0 31 -15.5t13 -41.5q0 -36 -18 -69.5t-45 -54.5q42 -89 42 -207q0 -149 -64.5 -247t-177.5 -98zM295 39q86 0 134.5 83.5
t48.5 210.5q0 128 -48.5 211t-134.5 83t-135 -83t-49 -211q0 -127 49 -210.5t135 -83.5zM345 721q-22 0 -37.5 16t-22.5 35.5t-18 35.5t-25 16q-44 0 -44 -97h-33q0 59 20.5 96.5t59.5 37.5q22 0 37.5 -16t22.5 -35.5t18 -35.5t25 -16q44 0 44 97h33q0 -59 -20.5 -96.5
t-59.5 -37.5z" />
    <glyph glyph-name="uni1EE1" unicode="&#x1ee1;" 
d="M433 530q0 -68 -55 -118q43 -69 43 -170q0 -109 -49 -181.5t-138 -72.5q-88 0 -137 73t-49 181t49 180.5t137 72.5q75 0 125 -56q36 36 38 75q-6 -1 -9 -1q-16 0 -25.5 10.5t-9.5 26.5q0 15 10.5 26t26.5 11q18 0 30.5 -15.5t12.5 -41.5zM234 33q65 0 99 61t34 148
q0 86 -34 147t-99 61q-64 0 -98 -61t-34 -147t34 -147.5t98 -61.5zM282 554q-22 0 -37.5 16t-22.5 35.5t-18 35.5t-25 16q-44 0 -44 -97h-33q0 59 20.5 96.5t59.5 37.5q22 0 37.5 -16t22.5 -35.5t18 -35.5t25 -16q44 0 44 97h33q0 -59 -20.5 -96.5t-59.5 -37.5z" />
    <glyph glyph-name="uni1EE2" unicode="&#x1ee2;" horiz-adv-x="590" 
d="M295 -12q-114 0 -178 98t-64 247t64 247t178 98q117 0 184 -109q40 37 42 79q-6 -1 -9 -1q-16 0 -25.5 10.5t-9.5 26.5q0 15 10.5 26t26.5 11q18 0 31 -15.5t13 -41.5q0 -36 -18 -69.5t-45 -54.5q42 -89 42 -207q0 -149 -64.5 -247t-177.5 -98zM295 39q86 0 134.5 83.5
t48.5 210.5q0 128 -48.5 211t-134.5 83t-135 -83t-49 -211q0 -127 49 -210.5t135 -83.5zM296 -178q-14 0 -25.5 11t-11.5 26t11.5 26.5t25.5 11.5q16 0 27 -11t11 -27q0 -15 -11 -26t-27 -11z" />
    <glyph glyph-name="uni1EE3" unicode="&#x1ee3;" 
d="M433 530q0 -68 -55 -118q43 -69 43 -170q0 -109 -49 -181.5t-138 -72.5q-88 0 -137 73t-49 181t49 180.5t137 72.5q75 0 125 -56q36 36 38 75q-6 -1 -9 -1q-16 0 -25.5 10.5t-9.5 26.5q0 15 10.5 26t26.5 11q18 0 30.5 -15.5t12.5 -41.5zM234 33q65 0 99 61t34 148
q0 86 -34 147t-99 61q-64 0 -98 -61t-34 -147t34 -147.5t98 -61.5zM235 -178q-14 0 -25.5 11t-11.5 26t11 26.5t26 11.5q16 0 27 -11t11 -27q0 -15 -11 -26t-27 -11z" />
    <glyph glyph-name="uni1EE4" unicode="&#x1ee4;" horiz-adv-x="551" 
d="M276 -12q-96 0 -148.5 57t-52.5 165v457h56v-458q0 -84 37.5 -127.5t107.5 -43.5q69 0 106.5 43.5t37.5 127.5v458h56v-457q0 -107 -52 -164.5t-148 -57.5zM278 -178q-14 0 -25.5 11t-11.5 26t11.5 26.5t25.5 11.5q16 0 27 -11t11 -27q0 -15 -11 -26t-27 -11z" />
    <glyph glyph-name="uni1EE5" unicode="&#x1ee5;" horiz-adv-x="450" 
d="M379 0h-51v69q-24 -35 -61 -58t-78 -23q-60 0 -89 31t-29 98v366h50v-356q0 -94 83 -94q37 0 71.5 24t52.5 59v367h51v-483zM226 -178q-14 0 -25.5 11t-11.5 26t11.5 26.5t25.5 11.5q16 0 27 -11t11 -27q0 -15 -11 -26t-27 -11z" />
    <glyph glyph-name="uni1EE6" unicode="&#x1ee6;" horiz-adv-x="551" 
d="M276 -12q-96 0 -148.5 57t-52.5 165v457h56v-458q0 -84 37.5 -127.5t107.5 -43.5q69 0 106.5 43.5t37.5 127.5v458h56v-457q0 -107 -52 -164.5t-148 -57.5zM241 764l-27 7q15 49 62 49q27 0 43.5 -16t16.5 -48q0 -30 -21 -59h-31q24 28 24 59q0 38 -32 38q-27 0 -35 -30z
" />
    <glyph glyph-name="uni1EE7" unicode="&#x1ee7;" horiz-adv-x="450" 
d="M379 0h-51v69q-24 -35 -61 -58t-78 -23q-60 0 -89 31t-29 98v366h50v-356q0 -94 83 -94q37 0 71.5 24t52.5 59v367h51v-483zM191 594l-27 7q15 49 62 49q27 0 43.5 -16t16.5 -48q0 -30 -21 -59h-31q24 28 24 59q0 38 -32 38q-27 0 -35 -30z" />
    <glyph glyph-name="uni1EE8" unicode="&#x1ee8;" horiz-adv-x="551" 
d="M406 867l-135 -144h-39l116 144h58zM581 729q0 -45 -28 -85t-77 -63v-371q0 -107 -52 -164.5t-148 -57.5t-148.5 57t-52.5 165v457h56v-458q0 -84 37.5 -127.5t107.5 -43.5q69 0 106.5 43.5t37.5 127.5v458h56v-51q28 16 47.5 44t21.5 54h-4q-4 -1 -5 -1q-16 0 -26 10.5
t-10 26.5q0 15 10.5 26t26.5 11q19 0 31.5 -15.5t12.5 -42.5z" />
    <glyph glyph-name="uni1EE9" unicode="&#x1ee9;" horiz-adv-x="450" 
d="M355 700l-135 -144h-39l116 144h58zM379 0h-51v69q-24 -35 -61 -58t-78 -23q-60 0 -89 31t-29 98v366h50v-356q0 -94 83 -94q37 0 71.5 24t52.5 59v367h51v-52q50 37 52 86q-6 -1 -9 -1q-15 0 -25 10.5t-10 26.5q0 15 10.5 26t26.5 11q19 0 31.5 -15.5t12.5 -42.5
q0 -40 -24 -77.5t-65 -62.5v-392z" />
    <glyph glyph-name="uni1EEA" unicode="&#x1eea;" horiz-adv-x="551" 
d="M319 723h-39l-135 144h58zM581 729q0 -45 -28 -85t-77 -63v-371q0 -107 -52 -164.5t-148 -57.5t-148.5 57t-52.5 165v457h56v-458q0 -84 37.5 -127.5t107.5 -43.5q69 0 106.5 43.5t37.5 127.5v458h56v-51q28 16 47.5 44t21.5 54h-4q-4 -1 -5 -1q-16 0 -26 10.5t-10 26.5
q0 15 10.5 26t26.5 11q19 0 31.5 -15.5t12.5 -42.5z" />
    <glyph glyph-name="uni1EEB" unicode="&#x1eeb;" horiz-adv-x="450" 
d="M269 556h-39l-135 144h58zM379 0h-51v69q-24 -35 -61 -58t-78 -23q-60 0 -89 31t-29 98v366h50v-356q0 -94 83 -94q37 0 71.5 24t52.5 59v367h51v-52q50 37 52 86q-6 -1 -9 -1q-15 0 -25 10.5t-10 26.5q0 15 10.5 26t26.5 11q19 0 31.5 -15.5t12.5 -42.5q0 -40 -24 -77.5
t-65 -62.5v-392z" />
    <glyph glyph-name="uni1EEC" unicode="&#x1eec;" horiz-adv-x="551" 
d="M241 764l-27 7q15 49 62 49q27 0 43.5 -16t16.5 -48q0 -30 -21 -59h-31q24 28 24 59q0 38 -32 38q-27 0 -35 -30zM581 729q0 -45 -28 -85t-77 -63v-371q0 -107 -52 -164.5t-148 -57.5t-148.5 57t-52.5 165v457h56v-458q0 -84 37.5 -127.5t107.5 -43.5q69 0 106.5 43.5
t37.5 127.5v458h56v-51q28 16 47.5 44t21.5 54h-4q-4 -1 -5 -1q-16 0 -26 10.5t-10 26.5q0 15 10.5 26t26.5 11q19 0 31.5 -15.5t12.5 -42.5z" />
    <glyph glyph-name="uni1EED" unicode="&#x1eed;" horiz-adv-x="450" 
d="M191 594l-27 7q15 49 62 49q27 0 43.5 -16t16.5 -48q0 -30 -21 -59h-31q24 28 24 59q0 38 -32 38q-27 0 -35 -30zM379 0h-51v69q-24 -35 -61 -58t-78 -23q-60 0 -89 31t-29 98v366h50v-356q0 -94 83 -94q37 0 71.5 24t52.5 59v367h51v-52q50 37 52 86q-6 -1 -9 -1
q-15 0 -25 10.5t-10 26.5q0 15 10.5 26t26.5 11q19 0 31.5 -15.5t12.5 -42.5q0 -40 -24 -77.5t-65 -62.5v-392z" />
    <glyph glyph-name="uni1EEE" unicode="&#x1eee;" horiz-adv-x="551" 
d="M581 729q0 -45 -28 -85t-77 -63v-371q0 -107 -52 -164.5t-148 -57.5t-148.5 57t-52.5 165v457h56v-458q0 -84 37.5 -127.5t107.5 -43.5q69 0 106.5 43.5t37.5 127.5v458h56v-51q28 16 47.5 44t21.5 54h-4q-4 -1 -5 -1q-16 0 -26 10.5t-10 26.5q0 15 10.5 26t26.5 11
q19 0 31.5 -15.5t12.5 -42.5zM325 721q-22 0 -37.5 16t-22.5 35.5t-18 35.5t-25 16q-44 0 -44 -97h-33q0 59 20.5 96.5t59.5 37.5q22 0 37.5 -16t22.5 -35.5t18 -35.5t25 -16q44 0 44 97h33q0 -59 -20.5 -96.5t-59.5 -37.5z" />
    <glyph glyph-name="uni1EEF" unicode="&#x1eef;" horiz-adv-x="450" 
d="M379 0h-51v69q-24 -35 -61 -58t-78 -23q-60 0 -89 31t-29 98v366h50v-356q0 -94 83 -94q37 0 71.5 24t52.5 59v367h51v-52q50 37 52 86q-6 -1 -9 -1q-15 0 -25 10.5t-10 26.5q0 15 10.5 26t26.5 11q19 0 31.5 -15.5t12.5 -42.5q0 -40 -24 -77.5t-65 -62.5v-392zM275 554
q-22 0 -37.5 16t-22.5 35.5t-18 35.5t-25 16q-44 0 -44 -97h-33q0 59 20.5 96.5t59.5 37.5q22 0 37.5 -16t22.5 -35.5t18 -35.5t25 -16q44 0 44 97h33q0 -59 -20.5 -96.5t-59.5 -37.5z" />
    <glyph glyph-name="uni1EF0" unicode="&#x1ef0;" horiz-adv-x="551" 
d="M278 -178q-14 0 -25.5 11t-11.5 26t11.5 26.5t25.5 11.5q16 0 27 -11t11 -27q0 -15 -11 -26t-27 -11zM581 729q0 -45 -28 -85t-77 -63v-371q0 -107 -52 -164.5t-148 -57.5t-148.5 57t-52.5 165v457h56v-458q0 -84 37.5 -127.5t107.5 -43.5q69 0 106.5 43.5t37.5 127.5
v458h56v-51q28 16 47.5 44t21.5 54h-4q-4 -1 -5 -1q-16 0 -26 10.5t-10 26.5q0 15 10.5 26t26.5 11q19 0 31.5 -15.5t12.5 -42.5z" />
    <glyph glyph-name="uni1EF1" unicode="&#x1ef1;" horiz-adv-x="450" 
d="M226 -178q-14 0 -25.5 11t-11.5 26t11.5 26.5t25.5 11.5q16 0 27 -11t11 -27q0 -15 -11 -26t-27 -11zM379 0h-51v69q-24 -35 -61 -58t-78 -23q-60 0 -89 31t-29 98v366h50v-356q0 -94 83 -94q37 0 71.5 24t52.5 59v367h51v-52q50 37 52 86q-6 -1 -9 -1q-15 0 -25 10.5
t-10 26.5q0 15 10.5 26t26.5 11q19 0 31.5 -15.5t12.5 -42.5q0 -40 -24 -77.5t-65 -62.5v-392z" />
    <glyph glyph-name="Ygrave" unicode="&#x1ef2;" horiz-adv-x="483" 
d="M269 0h-55v286l-206 381h64l169 -325l171 325h63l-206 -381v-286zM285 723h-39l-135 144h58z" />
    <glyph glyph-name="ygrave" unicode="&#x1ef3;" horiz-adv-x="392" 
d="M40 -189l9 46q14 -8 32 -8q21 0 34.5 12t24.5 42l29 87l-159 493h56l130 -421l130 421h56l-195 -593q-29 -86 -104 -86q-25 0 -43 7zM239 556h-39l-135 144h58z" />
    <glyph glyph-name="thinspace" unicode="&#x2009;" horiz-adv-x="43" 
 />
    <glyph glyph-name="endash" unicode="&#x2013;" horiz-adv-x="527" 
d="M497 219h-467v46h467v-46z" />
    <glyph glyph-name="emdash" unicode="&#x2014;" horiz-adv-x="737" 
d="M707 219h-677v46h677v-46z" />
    <glyph glyph-name="afii00208" unicode="&#x2015;" horiz-adv-x="527" 
d="M497 219h-467v46h467v-46z" />
    <glyph glyph-name="quoteleft" unicode="&#x2018;" horiz-adv-x="218" 
d="M57 543q0 39 20.5 76t50.5 58l29 -24q-24 -16 -40 -42.5t-18 -49.5l4 1h6q17 0 28.5 -12t11.5 -29t-12 -29.5t-30 -12.5q-21 0 -35.5 17t-14.5 47z" />
    <glyph glyph-name="quoteright" unicode="&#x2019;" horiz-adv-x="218" 
d="M157 613q0 -40 -20 -76.5t-51 -57.5l-29 23q24 17 41 43.5t18 49.5l-4 -1q-4 -1 -6 -1q-18 0 -29 12t-11 30q0 17 12 29.5t30 12.5q20 0 34.5 -17t14.5 -47z" />
    <glyph glyph-name="quotesinglbase" unicode="&#x201a;" horiz-adv-x="218" 
d="M157 13q0 -40 -20 -77t-51 -58l-29 24q24 16 40.5 42.5t18.5 49.5h-4q-4 -1 -6 -1q-18 0 -29 11.5t-11 29.5q0 17 12 29.5t30 12.5q20 0 34.5 -17t14.5 -46z" />
    <glyph glyph-name="quotereversed" unicode="&#x201b;" horiz-adv-x="218" 
d="M61 613q0 30 14.5 47t35.5 17q18 0 29.5 -12t11.5 -30t-11 -30t-28 -12q-2 0 -6 1l-4 1q2 -23 18 -49.5t40 -43.5l-29 -23q-30 21 -50.5 58t-20.5 76z" />
    <glyph glyph-name="quotedblleft" unicode="&#x201c;" horiz-adv-x="358" 
d="M61 543q0 39 20.5 76t50.5 58l29 -24q-24 -16 -40 -42.5t-18 -49.5q6 1 10 1q17 0 28 -12t11 -29q0 -18 -12 -30t-30 -12q-20 0 -34.5 17t-14.5 47zM201 543q0 39 20.5 76t50.5 58l29 -24q-24 -16 -40 -42.5t-18 -49.5l4 1h6q17 0 28.5 -12t11.5 -29t-12 -29.5t-30 -12.5
q-21 0 -35.5 17t-14.5 47z" />
    <glyph glyph-name="quotedblright" unicode="&#x201d;" horiz-adv-x="358" 
d="M297 613q0 -40 -20 -76.5t-50 -57.5l-30 23q24 17 41 43.5t18 49.5l-4 -1q-4 -1 -6 -1q-17 0 -28.5 12.5t-11.5 29.5t12 29.5t30 12.5q21 0 35 -17t14 -47zM157 613q0 -40 -20 -76.5t-51 -57.5l-29 23q24 17 41 43.5t18 49.5l-4 -1q-4 -1 -6 -1q-18 0 -29 12t-11 30
q0 17 12 29.5t30 12.5q20 0 34.5 -17t14.5 -47z" />
    <glyph glyph-name="quotedblbase" unicode="&#x201e;" horiz-adv-x="358" 
d="M157 13q0 -40 -20 -77t-51 -58l-29 24q24 16 40.5 42.5t18.5 49.5h-4q-4 -1 -6 -1q-18 0 -29 11.5t-11 29.5q0 17 12 29.5t30 12.5q20 0 34.5 -17t14.5 -46zM297 13q0 -40 -20 -77t-50 -58l-30 24q24 16 40.5 42.5t18.5 49.5h-4q-4 -1 -6 -1q-17 0 -28.5 12t-11.5 29
t12 29.5t30 12.5q21 0 35 -17t14 -46z" />
    <glyph glyph-name="dagger" unicode="&#x2020;" horiz-adv-x="257" 
d="M233 535l-89 4l4 -212h-39l4 212l-89 -4v35l89 -3l-4 110h39l-4 -110l89 3v-35z" />
    <glyph glyph-name="daggerdbl" unicode="&#x2021;" horiz-adv-x="257" 
d="M233 570v-35l-89 4v-221l89 4v-35l-89 3l4 -110h-39l4 110l-89 -3v35l89 -4v221l-89 -4v35l89 -3l-4 110h39l-4 -110z" />
    <glyph glyph-name="bullet" unicode="&#x2022;" horiz-adv-x="358" 
d="M283 242q0 -42 -30 -71.5t-73 -29.5t-72.5 29.5t-29.5 71.5q0 43 29.5 73t72.5 30t73 -30t30 -73z" />
    <glyph glyph-name="ellipsis" unicode="&#x2026;" horiz-adv-x="654" 
d="M152 34q0 -18 -12.5 -30.5t-30.5 -12.5t-30.5 12.5t-12.5 30.5q0 17 12.5 29.5t30.5 12.5t30.5 -12.5t12.5 -29.5zM370 34q0 -18 -12.5 -30.5t-30.5 -12.5t-30.5 12.5t-12.5 30.5q0 17 12.5 29.5t30.5 12.5t30.5 -12.5t12.5 -29.5zM589 34q0 -18 -13 -30.5t-31 -12.5
q-17 0 -30 12.5t-13 30.5q0 17 13 29.5t30 12.5q18 0 31 -12.5t13 -29.5z" />
    <glyph glyph-name="perthousand" unicode="&#x2030;" horiz-adv-x="948" 
d="M307 512q0 -70 -38 -116t-99 -46t-99 46t-38 116q0 71 38 118t99 47t99 -47t38 -118zM518 667l-350 -667h-40l348 667h42zM608 151q0 -71 -38 -117t-99 -46q-60 0 -98 46.5t-38 116.5q0 71 38 117.5t98 46.5q61 0 99 -46.5t38 -117.5zM262 512q0 55 -25 91.5t-67 36.5
q-41 0 -66.5 -37t-25.5 -91q0 -52 25.5 -88.5t66.5 -36.5q42 0 67 36t25 89zM564 151q0 54 -25.5 90.5t-67.5 36.5q-41 0 -66.5 -36.5t-25.5 -90.5q0 -53 25.5 -89.5t66.5 -36.5q42 0 67.5 36.5t25.5 89.5zM915 151q0 -71 -38 -117t-99 -46t-99 46t-38 117t38 117.5t99 46.5
t99 -46.5t38 -117.5zM870 151q0 54 -25 90.5t-67 36.5t-67 -36.5t-25 -90.5q0 -53 25 -89.5t67 -36.5t67 36.5t25 89.5z" />
    <glyph glyph-name="guilsinglleft" unicode="&#x2039;" horiz-adv-x="236" 
d="M206 63h-51l-125 180l125 177h51l-125 -177z" />
    <glyph glyph-name="guilsinglright" unicode="&#x203a;" horiz-adv-x="236" 
d="M206 243l-125 -180h-51l125 180l-125 177h51z" />
    <glyph glyph-name="uni203E" unicode="&#x203e;" horiz-adv-x="304" 
d="M304 577h-304v37h304v-37z" />
    <glyph glyph-name="fraction" unicode="&#x2044;" horiz-adv-x="119" 
d="M254 667l-349 -667h-41l349 667h41z" />
    <glyph glyph-name="zerosuperior" unicode="&#x2070;" horiz-adv-x="318" 
d="M291 621q0 -52 -12 -96.5t-42.5 -77.5t-76.5 -33q-68 0 -100.5 62t-32.5 145t32.5 144.5t100.5 61.5q46 0 76.5 -32.5t42.5 -77t12 -96.5zM245 621q0 45 -7 80.5t-26.5 62t-51.5 26.5q-47 0 -67.5 -49t-20.5 -120t20.5 -120.5t67.5 -49.5q24 0 41.5 15t26.5 40.5t13 53.5
t4 61z" />
    <glyph glyph-name="foursuperior" unicode="&#x2074;" horiz-adv-x="318" 
d="M289 528h-48v-107h-43v107h-167v36l153 257h57v-256h48v-37zM198 565v210l-126 -210h126z" />
    <glyph glyph-name="fivesuperior" unicode="&#x2075;" horiz-adv-x="318" 
d="M281 544q0 -57 -35 -93.5t-88 -36.5q-82 0 -122 66l29 26q33 -55 92 -55q35 0 57.5 27t22.5 65q0 44 -21.5 69t-56.5 25q-45 0 -79 -41l-33 14v211h212v-37h-168v-149q29 36 80 36q47 0 78.5 -33.5t31.5 -93.5z" />
    <glyph glyph-name="sixsuperior" unicode="&#x2076;" horiz-adv-x="318" 
d="M285 543q0 -53 -32.5 -91t-87.5 -38q-70 0 -101.5 58.5t-31.5 148.5q0 88 35 147t106 59q62 0 97 -50l-24 -29q-27 42 -73 42q-34 0 -56.5 -26t-31 -61t-8.5 -77v-17q13 25 39 44t58 19q49 0 80 -33.5t31 -95.5zM241 542q0 48 -21.5 70.5t-56.5 22.5q-26 0 -49 -18
t-36 -46q3 -47 23 -83.5t62 -36.5q38 0 58 27.5t20 63.5z" />
    <glyph glyph-name="sevensuperior" unicode="&#x2077;" horiz-adv-x="292" 
d="M261 791l-140 -370h-46l140 363h-188v37h234v-30z" />
    <glyph glyph-name="eightsuperior" unicode="&#x2078;" horiz-adv-x="318" 
d="M282 520q0 -49 -34.5 -77.5t-88.5 -28.5q-55 0 -89.5 28.5t-34.5 77.5q0 37 26 66.5t61 40.5q-34 11 -57.5 36.5t-23.5 61.5q0 49 35 75.5t83 26.5t83 -26.5t35 -75.5q0 -36 -23.5 -61.5t-57.5 -36.5q35 -11 60.5 -40t25.5 -67zM233 720q0 33 -20.5 52t-53.5 19
t-53.5 -19t-20.5 -52q0 -24 16.5 -42.5t30.5 -25t27 -9.5q13 3 27 9.5t30.5 25t16.5 42.5zM239 523q0 38 -29.5 61t-50.5 26q-22 -2 -51 -25.5t-29 -61.5q0 -34 23 -54t57 -20q33 0 56.5 20t23.5 54z" />
    <glyph glyph-name="ninesuperior" unicode="&#x2079;" horiz-adv-x="318" 
d="M34 698q0 53 32.5 91t87.5 38q70 0 101.5 -58.5t31.5 -148.5q0 -88 -35 -147t-106 -59q-62 0 -97 50l24 29q27 -42 73 -42q49 0 72.5 48.5t23.5 116.5v16q-13 -25 -39.5 -44t-57.5 -19q-48 0 -79.5 33.5t-31.5 95.5zM78 699q0 -48 21 -71t56 -23q27 0 49.5 18.5
t36.5 47.5q-3 46 -23 82.5t-62 36.5q-38 0 -58 -27.5t-20 -63.5z" />
    <glyph glyph-name="parenleftsuperior" unicode="&#x207d;" horiz-adv-x="135" 
d="M124 366l-23 -10q-74 119 -74 265q0 145 74 265l23 -10q-56 -126 -56 -255q0 -130 56 -255z" />
    <glyph glyph-name="parenrightsuperior" unicode="&#x207e;" horiz-adv-x="135" 
d="M114 621q0 -144 -73 -265l-23 10q56 125 56 255q0 129 -56 255l23 10q73 -121 73 -265z" />
    <glyph glyph-name="nsuperior" unicode="&#x207f;" horiz-adv-x="335" 
d="M278 326h-41v223q0 64 -57 64q-24 0 -46.5 -15.5t-35.5 -37.5v-234h-41v314h41v-46q15 22 41.5 38t54.5 16q48 0 66 -23.5t18 -68.5v-230z" />
    <glyph glyph-name="zeroinferior" unicode="&#x2080;" horiz-adv-x="318" 
d="M291 54q0 -52 -12 -96.5t-42.5 -77.5t-76.5 -33q-68 0 -100.5 62t-32.5 145t32.5 144.5t100.5 61.5q46 0 76.5 -32.5t42.5 -77t12 -96.5zM245 54q0 45 -7 80.5t-26.5 62t-51.5 26.5q-47 0 -67.5 -49t-20.5 -120t20.5 -120.5t67.5 -49.5q24 0 41.5 15t26.5 40.5t13 53.5
t4 61z" />
    <glyph glyph-name="oneinferior" unicode="&#x2081;" horiz-adv-x="208" 
d="M150 -146h-44v342l-63 -67l-26 28l94 97h39v-400z" />
    <glyph glyph-name="twoinferior" unicode="&#x2082;" horiz-adv-x="318" 
d="M280 -146h-238v34q127 133 156 172q36 51 36 91q0 34 -21.5 53t-52.5 19q-61 0 -91 -52l-28 26q41 63 120 63q49 0 83 -28.5t34 -79.5q0 -34 -22 -73.5t-49.5 -71.5t-92.5 -102q-9 -9 -13 -14h179v-37z" />
    <glyph glyph-name="threeinferior" unicode="&#x2083;" horiz-adv-x="318" 
d="M281 -38q0 -52 -32.5 -83.5t-90.5 -31.5q-43 0 -75 18.5t-49 47.5l29 26q33 -55 93 -55q39 0 60 21t21 59q0 41 -24.5 59.5t-62.5 18.5q-26 0 -32 -1v38q6 -1 31 -1q37 0 60 18t23 54q0 35 -21.5 54t-55.5 19q-54 0 -88 -50l-28 25q42 62 119 62q52 0 84.5 -27.5
t32.5 -78.5q0 -37 -22.5 -61.5t-52.5 -31.5q30 -4 55.5 -31t25.5 -68z" />
    <glyph glyph-name="fourinferior" unicode="&#x2084;" horiz-adv-x="318" 
d="M289 -39h-48v-107h-43v107h-167v36l153 257h57v-256h48v-37zM198 -2v210l-126 -210h126z" />
    <glyph glyph-name="fiveinferior" unicode="&#x2085;" horiz-adv-x="318" 
d="M281 -23q0 -57 -35 -93.5t-88 -36.5q-82 0 -122 66l29 26q33 -55 92 -55q35 0 57.5 27t22.5 65q0 44 -21.5 69t-56.5 25q-45 0 -79 -41l-33 14v211h212v-37h-168v-149q29 36 80 36q47 0 78.5 -33.5t31.5 -93.5z" />
    <glyph glyph-name="sixinferior" unicode="&#x2086;" horiz-adv-x="318" 
d="M285 -24q0 -53 -32.5 -91t-87.5 -38q-70 0 -101.5 58.5t-31.5 148.5q0 88 35 147t106 59q62 0 97 -50l-24 -29q-27 42 -73 42q-34 0 -56.5 -26t-31 -61t-8.5 -77v-17q13 25 39 44t58 19q49 0 80 -33.5t31 -95.5zM241 -25q0 48 -21.5 70.5t-56.5 22.5q-26 0 -49 -18
t-36 -46q3 -47 23 -83.5t62 -36.5q38 0 58 27.5t20 63.5z" />
    <glyph glyph-name="seveninferior" unicode="&#x2087;" horiz-adv-x="292" 
d="M261 224l-140 -370h-46l140 363h-188v37h234v-30z" />
    <glyph glyph-name="eightinferior" unicode="&#x2088;" horiz-adv-x="318" 
d="M282 -47q0 -49 -34.5 -77.5t-88.5 -28.5q-55 0 -89.5 28.5t-34.5 77.5q0 37 26 66.5t61 40.5q-34 11 -57.5 36.5t-23.5 61.5q0 49 35 75.5t83 26.5t83 -26.5t35 -75.5q0 -36 -23.5 -61.5t-57.5 -36.5q35 -11 60.5 -40.5t25.5 -66.5zM233 153q0 33 -20.5 52t-53.5 19
t-53.5 -19t-20.5 -52q0 -24 16.5 -42.5t30.5 -25t27 -9.5q13 3 27 9.5t30.5 25t16.5 42.5zM239 -44q0 38 -29.5 61t-50.5 26q-22 -2 -51 -25.5t-29 -61.5q0 -34 23 -54t57 -20q33 0 56.5 20t23.5 54z" />
    <glyph glyph-name="nineinferior" unicode="&#x2089;" horiz-adv-x="318" 
d="M34 131q0 53 32.5 91t87.5 38q70 0 101.5 -58.5t31.5 -148.5q0 -88 -35 -147t-106 -59q-62 0 -97 50l24 29q27 -42 73 -42q49 0 72.5 48.5t23.5 116.5v16q-13 -25 -39.5 -44t-57.5 -19q-48 0 -79.5 33.5t-31.5 95.5zM78 132q0 -48 21 -71t56 -23q27 0 49.5 18.5
t36.5 47.5q-3 46 -23 82.5t-62 36.5q-38 0 -58 -27.5t-20 -63.5z" />
    <glyph glyph-name="parenleftinferior" unicode="&#x208d;" horiz-adv-x="135" 
d="M124 -201l-23 -10q-74 119 -74 265q0 145 74 265l23 -10q-56 -126 -56 -255q0 -130 56 -255z" />
    <glyph glyph-name="parenrightinferior" unicode="&#x208e;" horiz-adv-x="135" 
d="M114 54q0 -144 -73 -265l-23 10q56 125 56 255q0 129 -56 255l23 10q73 -121 73 -265z" />
    <glyph glyph-name="colonmonetary" unicode="&#x20a1;" horiz-adv-x="508" 
d="M94 -100l43 160q-88 97 -88 273q0 152 68 248.5t181 96.5h7l25 90h39l-26 -95q34 -7 62 -26l33 121h39l-40 -147q25 -27 45 -60l-47 -24l-15 23l-140 -520q6 -1 18 -1q90 0 138 100l48 -24q-67 -127 -186 -127q-12 0 -32 2l-24 -90h-40l27 99q-31 10 -60 31l-35 -130h-40
zM107 333q0 -126 49 -206l135 500q-83 -4 -133.5 -86t-50.5 -208zM185 89q25 -26 57 -40l148 544q-25 22 -60 30z" />
    <glyph glyph-name="frenchfranc" unicode="&#x20a3;" horiz-adv-x="456" 
d="M146 0h-56v150h-73v37h73v480h326v-50h-270v-250h263v-50h-263v-130h164v-37h-164v-150z" />
    <glyph glyph-name="lira" unicode="&#x20a4;" horiz-adv-x="433" 
d="M24 325v38h63q-37 56 -37 125q0 77 50.5 133t128.5 56q55 0 96.5 -28.5t60.5 -78.5l-44 -25q-13 36 -41.5 60t-68.5 24q-51 0 -87 -38.5t-36 -103.5q0 -66 40 -124h151v-38h-124q28 -43 35 -78h89v-37h-86q-1 -43 -22 -80.5t-53 -62.5q23 10 46 10q29 0 67 -19.5
t60 -19.5q26 0 49 12t33 27l26 -45q-40 -45 -111 -45q-40 0 -77.5 22t-66.5 22q-39 0 -97 -38l-23 45q56 29 86.5 73.5t30.5 93.5v5h-138v37h131q-8 30 -43 78h-88z" />
    <glyph glyph-name="uni20A6" unicode="&#x20a6;" horiz-adv-x="587" 
d="M497 0h-54l-135 247h-162v-247h-56v247h-73v36h73v108h-73v37h73v239h56l131 -239h164v239h56v-239h72v-37h-72v-108h72v-36h-72v-247zM297 391l59 -108h85v108h-144zM146 391v-108h143l-59 108h-84zM376 247l65 -118v118h-65zM146 546v-118h64z" />
    <glyph glyph-name="peseta" unicode="&#x20a7;" horiz-adv-x="523" 
d="M512 451h-64q-6 -75 -51.5 -124t-122.5 -49h-128v-278h-56v451h-73v41h73v175h184q78 0 123 -49.5t51 -125.5h64v-41zM146 617v-125h243q-5 57 -36.5 91t-83.5 34h-123zM269 328q51 0 83 33.5t37 89.5h-243v-123h123z" />
    <glyph glyph-name="rupee" unicode="&#x20a8;" horiz-adv-x="819" 
d="M628 -12q-97 0 -153 68l29 36q47 -61 123 -61q46 0 74 24.5t28 64.5q0 35 -25 58.5t-60.5 38.5t-70.5 31.5t-60 47.5t-25 76q0 53 39.5 88t104.5 35q86 0 138 -62l-27 -35q-39 54 -111 54q-43 0 -69 -22.5t-26 -56.5q0 -32 25 -54t60.5 -36.5t70.5 -31.5t60 -50t25 -80
q0 -59 -41 -96t-109 -37zM441 0h-64l-140 278h-106v-278h-56v667h185q77 0 125.5 -52t48.5 -142q0 -85 -40.5 -133t-99.5 -55zM255 328q56 0 88.5 40t32.5 104q0 65 -32.5 105t-88.5 40h-124v-289h124z" />
    <glyph glyph-name="uni20A9" unicode="&#x20a9;" horiz-adv-x="707" 
d="M533 0h-61l-52 247h-133l-52 -247h-61l-55 247h-93v36h85l-24 108h-61v37h53l-52 239h60l49 -239h142l50 239h51l50 -239h141l50 239h60l-53 -239h53v-37h-61l-24 -108h85v-36h-93zM143 391l23 -108h81l23 108h-127zM437 391l23 -108h81l22 108h-126zM317 391l-23 -108
h118l-23 108h-72zM467 247l34 -158l32 158h-66zM173 247l33 -158l33 158h-66zM353 562l-28 -134h56z" />
    <glyph glyph-name="afii57636" unicode="&#x20aa;" horiz-adv-x="640" 
d="M398 0h-178v395h48v-351h130q124 0 124 137v369h48v-341q0 -110 -40 -159.5t-132 -49.5zM249 550q92 0 132 -49.5t40 -159.5v-187h-48v215q0 137 -124 137h-130v-506h-48v550h178z" />
    <glyph glyph-name="dong" unicode="&#x20ab;" horiz-adv-x="478" 
d="M398 0h-50v72q-22 -38 -56.5 -61t-72.5 -23q-80 0 -125.5 69t-45.5 184q0 114 45.5 184t125.5 70q38 0 72.5 -22.5t56.5 -63.5v129h-141v37h141v92h50v-92h65v-37h-65v-538zM228 33q37 0 70.5 26t49.5 63v238q-16 36 -49.5 63t-70.5 27q-62 0 -94 -59t-32 -150t32 -149.5
t94 -58.5zM393 -130h-304v37h304v-37z" />
    <glyph glyph-name="Euro" unicode="&#x20ac;" horiz-adv-x="537" 
d="M318 -12q-95 0 -159 69t-83 185h-50v41h45q-2 34 -2 50q0 18 2 52h-45v41h50q20 115 84 183.5t158 68.5q116 0 184 -117l-47 -24q-49 90 -137 90q-69 0 -117.5 -54.5t-65.5 -146.5h227v-41h-233q-2 -34 -2 -52q0 -34 2 -50h233v-41h-228q17 -92 66 -147.5t118 -55.5
q90 0 138 100l48 -24q-67 -127 -186 -127z" />
    <glyph glyph-name="afii61289" unicode="&#x2113;" horiz-adv-x="403" 
d="M127 293v-201q0 -62 41 -62q27 0 44 22l21 -34q-27 -30 -72 -30q-85 0 -85 101v435q0 66 43 109.5t111 43.5q60 0 102 -32t42 -85q0 -38 -23 -71t-72 -74zM127 351l124 98q41 35 58 59t17 52q0 33 -28.5 54.5t-67.5 21.5q-45 0 -74 -30.5t-29 -82.5v-172z" />
    <glyph glyph-name="afii61352" unicode="&#x2116;" horiz-adv-x="900" 
d="M728 350q-61 0 -96.5 47.5t-35.5 117.5t35.5 117.5t96.5 47.5q62 0 97 -47t35 -118q0 -70 -35 -117.5t-97 -47.5zM728 386q43 0 66 37t23 92t-23 91.5t-66 36.5t-65.5 -36.5t-22.5 -91.5t22.5 -92t65.5 -37zM482 0h-54l-297 546v-546h-56v667h56l295 -538v538h56v-667z
" />
    <glyph glyph-name="published" unicode="&#x2117;" horiz-adv-x="778" 
d="M734 334q0 -142 -101 -243.5t-244 -101.5t-244 101.5t-101 243.5t101 243.5t244 101.5t244 -101.5t101 -243.5zM706 334q0 130 -93 223.5t-224 93.5t-224 -93.5t-93 -223.5t93 -223.5t224 -93.5t224 93.5t93 223.5zM547 421q0 -52 -36 -83t-89 -31h-112v-176h-33v405h145
q53 0 89 -31t36 -84zM514 421q0 38 -25.5 60.5t-66.5 22.5h-112v-165h112q41 0 66.5 22t25.5 60z" />
    <glyph glyph-name="servicemark" unicode="&#x2120;" horiz-adv-x="425" 
d="M388 447h-28v182l-65 -182h-8l-65 182v-182h-28v220h43l54 -158l54 158h43v-220zM155 504q0 -29 -19 -46.5t-52 -17.5q-43 0 -69 29l16 23q22 -26 50 -26q20 0 31.5 10t11.5 26q0 18 -16 30.5t-36 18.5t-36 22t-16 40q0 26 19 43t48 17q41 0 63 -24l-15 -21
q-18 20 -46 20q-16 0 -26.5 -9t-10.5 -24q0 -16 16 -27t35.5 -18t35.5 -23.5t16 -42.5z" />
    <glyph glyph-name="trademark" unicode="&#x2122;" horiz-adv-x="414" 
d="M379 447h-28v182l-65 -182h-8l-65 182v-182h-28v220h43l54 -158l54 158h43v-220zM149 641h-52v-194h-28v194h-52v26h132v-26z" />
    <glyph glyph-name="Omega" unicode="&#x2126;" horiz-adv-x="581" 
d="M62 50h107q-121 91 -121 290q0 152 65 245t177 93q113 0 177.5 -92.5t64.5 -245.5q0 -201 -120 -290h107v-50h-172v50q51 21 89 93t38 190q0 134 -48.5 213.5t-135.5 79.5q-86 0 -134.5 -79.5t-48.5 -213.5q0 -117 38.5 -189.5t88.5 -93.5v-50h-172v50z" />
    <glyph glyph-name="estimated" unicode="&#x212e;" horiz-adv-x="842" 
d="M811 324h-632q-5 0 -5 -5v-190q0 -14 9 -23q98 -103 240 -103q151 0 250 115h57q-54 -63 -135 -99.5t-174 -36.5q-161 0 -275.5 103t-114.5 248t114.5 248t275.5 103t275.5 -103t114.5 -248v-9zM668 349v191q0 14 -10 24q-97 99 -235 99q-140 0 -239 -102
q-10 -10 -10 -24v-188q0 -6 5 -6h485q4 0 4 6z" />
    <glyph glyph-name="onethird" unicode="&#x2153;" horiz-adv-x="678" 
d="M150 267h-44v342l-63 -67l-26 28l94 97h39v-400zM496 667l-349 -667h-41l349 667h41zM641 108q0 -52 -32.5 -83.5t-90.5 -31.5q-85 0 -124 66l29 26q33 -55 93 -55q39 0 60 21t21 59q0 41 -24.5 59.5t-62.5 18.5q-26 0 -32 -1v38q6 -1 31 -1q37 0 60 18t23 54
q0 35 -21.5 54t-55.5 19q-54 0 -88 -50l-28 25q42 62 119 62q52 0 84.5 -27.5t32.5 -78.5q0 -37 -22.5 -61.5t-52.5 -31.5q30 -4 55.5 -31t25.5 -68z" />
    <glyph glyph-name="twothirds" unicode="&#x2154;" horiz-adv-x="755" 
d="M280 267h-238v34q127 133 156 172q36 51 36 91q0 34 -21.5 53t-52.5 19q-61 0 -91 -52l-28 26q41 63 120 63q49 0 83 -28.5t34 -79.5q0 -34 -22 -73.5t-49.5 -71.5t-92.5 -102q-9 -9 -13 -14h179v-37zM572 667l-349 -667h-41l349 667h41zM718 108q0 -52 -32.5 -83.5
t-90.5 -31.5q-43 0 -75 18.5t-49 47.5l29 26q33 -55 93 -55q39 0 60 21t21 59q0 41 -24.5 59.5t-62.5 18.5q-26 0 -32 -1v38q6 -1 31 -1q37 0 60 18t23 54q0 35 -21.5 54t-55.5 19q-54 0 -88 -50l-28 25q42 62 119 62q52 0 84.5 -27.5t32.5 -78.5q0 -37 -22.5 -61.5
t-52.5 -31.5q30 -4 55.5 -31t25.5 -68z" />
    <glyph glyph-name="oneeighth" unicode="&#x215b;" horiz-adv-x="678" 
d="M150 267h-44v342l-63 -67l-26 28l94 97h39v-400zM642 99q0 -49 -34.5 -77.5t-88.5 -28.5q-55 0 -89.5 28.5t-34.5 77.5q0 37 26 66.5t61 40.5q-34 11 -57.5 36.5t-23.5 61.5q0 49 35 75.5t83 26.5t83 -26.5t35 -75.5q0 -36 -23.5 -61.5t-57.5 -36.5q35 -11 60.5 -40.5
t25.5 -66.5zM593 299q0 33 -20.5 52t-53.5 19t-53.5 -19t-20.5 -52q0 -24 16.5 -42.5t30.5 -25t27 -9.5q13 3 27 9.5t30.5 25t16.5 42.5zM599 102q0 38 -29.5 61t-50.5 26q-22 -2 -51 -25.5t-29 -61.5q0 -34 23 -54t57 -20q33 0 56.5 20t23.5 54zM496 667l-349 -667h-41
l349 667h41z" />
    <glyph glyph-name="threeeighths" unicode="&#x215c;" horiz-adv-x="755" 
d="M719 99q0 -49 -34.5 -77.5t-88.5 -28.5q-55 0 -89.5 28.5t-34.5 77.5q0 37 26 66.5t61 40.5q-34 11 -57.5 36.5t-23.5 61.5q0 49 35 75.5t83 26.5t83 -26.5t35 -75.5q0 -36 -23.5 -61.5t-57.5 -36.5q35 -11 60.5 -40.5t25.5 -66.5zM670 299q0 33 -20.5 52t-53.5 19
t-53.5 -19t-20.5 -52q0 -24 16.5 -42.5t30.5 -25t27 -9.5q13 3 27 9.5t30.5 25t16.5 42.5zM676 102q0 38 -29.5 61t-50.5 26q-22 -2 -51 -25.5t-29 -61.5q0 -34 23 -54t57 -20q33 0 56.5 20t23.5 54zM572 667l-349 -667h-41l349 667h41zM281 375q0 -52 -32.5 -83.5
t-90.5 -31.5q-43 0 -75 18.5t-49 47.5l29 26q33 -55 93 -55q39 0 60 21t21 59q0 41 -24.5 59.5t-62.5 18.5q-26 0 -32 -1v38q6 -1 31 -1q37 0 60 18t23 54q0 35 -21.5 54t-55.5 19q-54 0 -88 -50l-28 25q42 62 119 62q52 0 84.5 -27.5t32.5 -78.5q0 -37 -22.5 -61.5
t-52.5 -31.5q30 -4 55.5 -31t25.5 -68z" />
    <glyph glyph-name="fiveeighths" unicode="&#x215d;" horiz-adv-x="754" 
d="M718 99q0 -49 -34.5 -77.5t-88.5 -28.5q-55 0 -89.5 28.5t-34.5 77.5q0 37 26 66.5t61 40.5q-34 11 -57.5 36.5t-23.5 61.5q0 49 35 75.5t83 26.5t83 -26.5t35 -75.5q0 -36 -23.5 -61.5t-57.5 -36.5q35 -11 60.5 -40.5t25.5 -66.5zM669 299q0 33 -20.5 52t-53.5 19
t-53.5 -19t-20.5 -52q0 -24 16.5 -42.5t30.5 -25t27 -9.5q13 3 27 9.5t30.5 25t16.5 42.5zM675 102q0 38 -29.5 61t-50.5 26q-22 -2 -51 -25.5t-29 -61.5q0 -34 23 -54t57 -20q33 0 56.5 20t23.5 54zM281 390q0 -57 -35 -93.5t-88 -36.5q-82 0 -122 66l29 26q33 -55 92 -55
q35 0 57.5 27t22.5 65q0 44 -21.5 69t-56.5 25q-45 0 -79 -41l-33 14v211h212v-37h-168v-149q29 36 80 36q47 0 78.5 -33.5t31.5 -93.5zM571 667l-349 -667h-41l349 667h41z" />
    <glyph glyph-name="seveneighths" unicode="&#x215e;" horiz-adv-x="685" 
d="M649 99q0 -49 -34.5 -77.5t-88.5 -28.5q-55 0 -89.5 28.5t-34.5 77.5q0 37 26 66.5t61 40.5q-34 11 -57.5 36.5t-23.5 61.5q0 49 35 75.5t83 26.5t83 -26.5t35 -75.5q0 -36 -23.5 -61.5t-57.5 -36.5q35 -11 60.5 -40.5t25.5 -66.5zM600 299q0 33 -20.5 52t-53.5 19
t-53.5 -19t-20.5 -52q0 -24 16.5 -42.5t30.5 -25t27 -9.5q13 3 27 9.5t30.5 25t16.5 42.5zM606 102q0 38 -29.5 61t-50.5 26q-22 -2 -51 -25.5t-29 -61.5q0 -34 23 -54t57 -20q33 0 56.5 20t23.5 54zM261 637l-140 -370h-46l140 363h-188v37h234v-30zM502 667l-349 -667h-41
l349 667h41z" />
    <glyph glyph-name="arrowleft" unicode="&#x2190;" horiz-adv-x="582" 
d="M538 211h-269l12 -130l-281 205l281 204l-12 -129h269v-150z" />
    <glyph glyph-name="arrowup" unicode="&#x2191;" horiz-adv-x="582" 
d="M216 17v269l-130 -12l205 281l204 -281l-129 12v-269h-150z" />
    <glyph glyph-name="arrowright" unicode="&#x2192;" horiz-adv-x="582" 
d="M584 286l-281 -205l12 130h-268v150h268l-12 129z" />
    <glyph glyph-name="arrowdown" unicode="&#x2193;" horiz-adv-x="582" 
d="M366 555v-269l130 12l-205 -281l-204 281l129 -12v269h150z" />
    <glyph glyph-name="partialdiff" unicode="&#x2202;" 
d="M234 -12q-88 0 -137 72t-49 178t47.5 178t130.5 72q74 0 117 -71q-22 61 -70 125t-108 107l40 30q95 -84 155.5 -196t60.5 -239q0 -111 -49 -183.5t-138 -72.5zM234 33q65 0 99 60t34 145t-34 144.5t-99 59.5q-64 0 -98 -60t-34 -144q0 -85 34 -145t98 -60z" />
    <glyph glyph-name="Delta" unicode="&#x2206;" horiz-adv-x="510" 
d="M498 0h-486l210 667h66zM424 50l-169 552l-169 -552h338z" />
    <glyph glyph-name="product" unicode="&#x220f;" horiz-adv-x="530" 
d="M420 -90h-55v707h-200v-707h-56v707h-82v50h476v-50h-83v-707z" />
    <glyph glyph-name="summation" unicode="&#x2211;" horiz-adv-x="441" 
d="M115 617l179 -318l-181 -339h281v-50h-342v51l179 338l-179 318v50h342v-50h-279z" />
    <glyph glyph-name="minus" unicode="&#x2212;" horiz-adv-x="436" 
d="M407 317h-378v40h378v-40z" />
    <glyph glyph-name="uni2215" unicode="&#x2215;" horiz-adv-x="119" 
d="M254 667l-349 -667h-41l349 667h41z" />
    <glyph glyph-name="uni2219" unicode="&#x2219;" horiz-adv-x="218" 
d="M152 245q0 -18 -12.5 -30.5t-30.5 -12.5t-30.5 12.5t-12.5 30.5q0 17 12.5 29.5t30.5 12.5t30.5 -12.5t12.5 -29.5z" />
    <glyph glyph-name="radical" unicode="&#x221a;" horiz-adv-x="604" 
d="M363 0h-46l-106 331l-142 -46l-12 39l180 57l104 -326l195 612h41z" />
    <glyph glyph-name="infinity" unicode="&#x221e;" horiz-adv-x="557" 
d="M156 175q-62 0 -94.5 48t-32.5 112q0 65 32.5 112.5t94.5 47.5q79 0 122 -113q19 49 50.5 81t72.5 32q62 0 94.5 -47.5t32.5 -112.5t-32.5 -112.5t-94.5 -47.5q-41 0 -72.5 32t-50.5 81q-43 -113 -122 -113zM397 217q42 0 65.5 33t23.5 85q0 53 -23.5 86t-65.5 33
q-61 0 -99 -119q38 -118 99 -118zM161 216q59 0 99 119q-40 119 -99 119q-42 0 -66 -33t-24 -86q0 -52 24 -85.5t66 -33.5z" />
    <glyph glyph-name="integral" unicode="&#x222b;" horiz-adv-x="284" 
d="M63 -100h-46v42h46q24 0 40.5 19.5t16.5 49.5v646q0 49 30 80t70 31h47v-42h-47q-24 0 -40.5 -19.5t-16.5 -49.5v-646q0 -49 -30 -80t-70 -31z" />
    <glyph glyph-name="approxequal" unicode="&#x2248;" horiz-adv-x="436" 
d="M29 216v45q42 -27 95 -27q40 0 90 23.5t98 23.5q55 0 95 -22v-45q-40 27 -95 27q-40 0 -90 -23.5t-98 -23.5q-53 0 -95 22zM29 408v45q40 -26 95 -26q40 0 90 23.5t98 23.5q53 0 95 -22v-45q-40 26 -95 26q-40 0 -90 -23t-98 -23q-51 0 -95 21z" />
    <glyph glyph-name="notequal" unicode="&#x2260;" horiz-adv-x="436" 
d="M113 93h-41l64 123h-107v40h128l81 156h-209v40h231l63 122h42l-64 -122h106v-40h-127l-82 -156h209v-40h-230z" />
    <glyph glyph-name="lessequal" unicode="&#x2264;" horiz-adv-x="436" 
d="M407 129l-378 190v36l378 190v-48l-326 -161l326 -159v-48zM407 26h-378v40h378v-40z" />
    <glyph glyph-name="greaterequal" unicode="&#x2265;" horiz-adv-x="436" 
d="M407 319l-378 -190v48l326 159l-326 161v48l378 -190v-36zM407 26h-378v40h378v-40z" />
    <glyph glyph-name="triangleright" unicode="&#x22b2;" horiz-adv-x="587" 
d="M589 286l-535 -309v618z" />
    <glyph glyph-name="triangleleft" unicode="&#x22b3;" horiz-adv-x="587" 
d="M535 595v-618l-535 309z" />
    <glyph glyph-name="dotmath" unicode="&#x22c5;" horiz-adv-x="218" 
d="M152 245q0 -18 -12.5 -30.5t-30.5 -12.5t-30.5 12.5t-12.5 30.5q0 17 12.5 29.5t30.5 12.5t30.5 -12.5t12.5 -29.5z" />
    <glyph glyph-name="uni2318" unicode="&#x2318;" horiz-adv-x="667" 
d="M230 154v78h-77q-33 0 -54.5 -22.5t-21.5 -55.5t22 -56t54 -23t54.5 23.5t22.5 55.5zM230 435v79q0 32 -22 55t-54 23t-54.5 -23t-22.5 -55t22.5 -55.5t54.5 -23.5h76zM265 265h137v137h-137v-137zM590 154q0 33 -21.5 55.5t-54.5 22.5h-77v-78q0 -32 22.5 -55.5
t54.5 -23.5t54 23t22 56zM590 514q0 32 -22 55t-54 23t-54.5 -23t-22.5 -55v-79h77q32 0 54 23t22 56zM625 154q0 -46 -32.5 -79t-78.5 -33t-79 33t-33 79v78h-137v-78q0 -46 -33 -79t-79 -33t-78.5 33t-32.5 79t32.5 78.5t78.5 32.5h77v137h-76q-46 0 -79 33t-33 79
t33 78.5t79 32.5t78.5 -32.5t32.5 -78.5v-79h137v79q0 46 33 78.5t79 32.5t78.5 -32.5t32.5 -78.5t-32.5 -79t-78.5 -33h-77v-137h77q46 0 78.5 -32.5t32.5 -78.5z" />
    <glyph glyph-name="blacksquare" unicode="&#x25a0;" horiz-adv-x="661" 
d="M618 0h-571v572h571v-572z" />
    <glyph glyph-name="triagup" unicode="&#x25b2;" horiz-adv-x="616" 
d="M617 29l-619 1l309 535z" />
    <glyph glyph-name="triagdn" unicode="&#x25bc;" horiz-adv-x="616" 
d="M617 510l-310 -535l-309 535h619z" />
    <glyph glyph-name="lozenge" unicode="&#x25ca;" horiz-adv-x="375" 
d="M198 0h-21l-158 334l158 333h21l158 -333zM188 41l132 293l-133 292l-132 -292z" />
    <glyph glyph-name="circlesolid" unicode="&#x25cf;" horiz-adv-x="695" 
d="M644 285q0 -123 -87 -210t-210 -87t-210 87t-87 210t87 210t210 87t210 -87t87 -210z" />
    <glyph glyph-name="blackstar" unicode="&#x2605;" horiz-adv-x="759" 
d="M759 421l-235 -171l90 -275l-235 170l-234 -170l89 275l-234 171h290l89 276l90 -276h290z" />
    <glyph glyph-name="ballotbox" unicode="&#x2610;" horiz-adv-x="661" 
d="M616 0h-571v572h571v-572zM572 40v492h-484v-492h484z" />
    <glyph glyph-name="boxchecked" unicode="&#x2611;" horiz-adv-x="661" 
d="M671 698l-69 -126h14v-572h-571v572h509l81 150zM572 40v475l-230 -424l-202 246l33 30l163 -202l197 367h-445v-492h484z" />
    <glyph glyph-name="diamond" unicode="&#x2666;" horiz-adv-x="501" 
d="M501 285l-251 -250l-250 250l250 251z" />
    <glyph glyph-name="checkmark" unicode="&#x2713;" horiz-adv-x="531" 
d="M531 698l-329 -607l-202 246l33 30l163 -202l299 557z" />
    <glyph glyph-name="perthousand.onum" unicode="&#xf628;" horiz-adv-x="773" 
d="M254 425q0 -58 -32 -96.5t-83 -38.5q-50 0 -82 38.5t-32 96.5q0 59 32 98t82 39q51 0 83 -39t32 -98zM494 124q0 -58 -32 -97t-82 -39t-81.5 39t-31.5 97q0 59 31.5 98t81.5 39t82 -39t32 -98zM437 550l-313 -550h-40l312 550h41zM212 425q0 44 -19.5 73.5t-53.5 29.5
q-33 0 -53 -29.5t-20 -73.5q0 -43 20 -72t53 -29q34 0 53.5 29t19.5 72zM454 124q0 44 -20.5 73.5t-53.5 29.5t-53.5 -29.5t-20.5 -73.5q0 -43 20.5 -72.5t53.5 -29.5t53.5 29.5t20.5 72.5zM748 124q0 -58 -32 -97t-82 -39t-82 39.5t-32 96.5q0 59 32 98t82 39t82 -39
t32 -98zM708 124q0 44 -20.5 73.5t-53.5 29.5t-53.5 -29.5t-20.5 -73.5q0 -43 20.5 -72.5t53.5 -29.5t53.5 29.5t20.5 72.5z" />
    <glyph glyph-name="uniF637" unicode="&#xf637;" horiz-adv-x="335" 
d="M278 326h-42v224q0 63 -56 63q-24 0 -46.5 -15.5t-35.5 -37.5v-234h-41v434h41v-166q15 22 41.5 38t54.5 16q84 0 84 -90v-232z" />
    </font>
</defs>
</svg>
