<?xml version="1.0" standalone="no"?>
<!DOCTYPE svg PUBLIC "-//W3C//DTD SVG 1.1//EN" "http://www.w3.org/Graphics/SVG/1.1/DTD/svg11.dtd" >
<svg xmlns="http://www.w3.org/2000/svg" xmlns:xlink="http://www.w3.org/1999/xlink" version="1.1">
<metadata>
Created by FontForge 20170731 at Tue Nov 30 17:34:42 2010
 By ,,,
Copyright (c) Mark Simonson, 2005. All rights reserved.
</metadata>
<defs>
<font id="ProximaNovaCond-Regular" horiz-adv-x="465" >
  <font-face 
    font-family="Proxima Nova Cn Rg"
    font-weight="400"
    font-stretch="normal"
    units-per-em="1000"
    panose-1="2 0 5 6 3 0 0 2 0 4"
    ascent="790"
    descent="-210"
    x-height="483"
    cap-height="667"
    bbox="-136 -271 932 889"
    underline-thickness="20"
    underline-position="-173"
    unicode-range="U+000D-FB04"
  />
<missing-glyph horiz-adv-x="492" 
d="M421 -90h-351v842h351v-842zM389 -60v782h-288v-782h288z" />
    <glyph glyph-name="f_f_j" unicode="ffj" horiz-adv-x="710" 
d="M409 0h-72v420h-64v63h64v59q0 63 32.5 99t85.5 36q37 0 62 -15l-18 -56q-13 10 -32 10q-28 0 -43 -19.5t-15 -54.5v-59h82v-63h-82v-420zM608 553q-20 0 -34.5 14.5t-14.5 34.5t14.5 34.5t34.5 14.5t34.5 -14.5t14.5 -34.5t-14.5 -34.5t-34.5 -14.5zM524 -196
q-51 0 -82 34l26 53q21 -26 49 -26q56 0 56 76v542h71v-542q0 -137 -120 -137zM155 0h-72v420h-64v63h64v59q0 63 32.5 99t88.5 36q53 0 86 -32l-28 -51q-20 22 -47 22q-60 0 -60 -74v-59h82v-63h-82v-420z" />
    <glyph glyph-name="f_j" unicode="fj" horiz-adv-x="457" 
d="M155 0h-72v420h-64v63h64v59q0 63 32.5 99t85.5 36q37 0 62 -15l-18 -56q-13 10 -32 10q-28 0 -43 -19.5t-15 -54.5v-59h82v-63h-82v-420zM355 553q-20 0 -34.5 14.5t-14.5 34.5t14.5 34.5t34.5 14.5t34.5 -14.5t14.5 -34.5t-14.5 -34.5t-34.5 -14.5zM271 -196
q-51 0 -82 34l26 53q21 -26 49 -26q56 0 56 76v542h71v-542q0 -137 -120 -137z" />
    <glyph glyph-name="f_f" unicode="ff" horiz-adv-x="507" 
d="M155 0h-72v420h-64v63h64v59q0 63 32.5 99t88.5 36q53 0 86 -32l-28 -51q-20 22 -47 22q-60 0 -60 -74v-59h82v-63h-82v-420zM409 0h-72v420h-64v63h64v59q0 63 32.5 99t88.5 36q53 0 86 -32l-28 -51q-20 22 -47 22q-60 0 -60 -74v-59h82v-63h-82v-420z" />
    <glyph glyph-name="fi" unicode="fi" horiz-adv-x="457" 
d="M155 0h-72v420h-64v63h64v59q0 63 32.5 99t85.5 36q37 0 62 -15l-18 -56q-13 10 -32 10q-28 0 -43 -19.5t-15 -54.5v-59h82v-63h-82v-420zM355 553q-20 0 -34.5 14.5t-14.5 34.5t14.5 34.5t34.5 14.5t34.5 -14.5t14.5 -34.5t-14.5 -34.5t-34.5 -14.5zM391 0h-71v483h71
v-483z" />
    <glyph glyph-name="fl" unicode="fl" horiz-adv-x="457" 
d="M155 0h-72v420h-64v63h64v59q0 63 32.5 99t85.5 36q37 0 62 -15l-18 -56q-13 10 -32 10q-28 0 -43 -19.5t-15 -54.5v-59h82v-63h-82v-420zM391 0h-71v667h71v-667z" />
    <glyph glyph-name="f_f_i" unicode="ffi" horiz-adv-x="710" 
d="M409 0h-72v420h-64v63h64v59q0 63 32.5 99t85.5 36q37 0 62 -15l-18 -56q-13 10 -32 10q-28 0 -43 -19.5t-15 -54.5v-59h82v-63h-82v-420zM608 553q-20 0 -34.5 14.5t-14.5 34.5t14.5 34.5t34.5 14.5t34.5 -14.5t14.5 -34.5t-14.5 -34.5t-34.5 -14.5zM644 0h-71v483h71
v-483zM155 0h-72v420h-64v63h64v59q0 63 32.5 99t88.5 36q53 0 86 -32l-28 -51q-20 22 -47 22q-60 0 -60 -74v-59h82v-63h-82v-420z" />
    <glyph glyph-name="f_f_l" unicode="ffl" horiz-adv-x="710" 
d="M409 0h-72v420h-64v63h64v59q0 63 32.5 99t85.5 36q37 0 62 -15l-18 -56q-13 10 -32 10q-28 0 -43 -19.5t-15 -54.5v-59h82v-63h-82v-420zM644 0h-71v667h71v-667zM155 0h-72v420h-64v63h64v59q0 63 32.5 99t88.5 36q53 0 86 -32l-28 -51q-20 22 -47 22q-60 0 -60 -74
v-59h82v-63h-82v-420z" />
    <glyph glyph-name="f_b" unicode="fb" horiz-adv-x="733" 
d="M155 0h-72v420h-64v63h64v59q0 63 32.5 99t85.5 36q37 0 62 -15l-18 -56q-13 10 -32 10q-28 0 -43 -19.5t-15 -54.5v-59h82v-63h-82v-420zM391 130q15 -33 45.5 -55.5t63.5 -22.5q57 0 86.5 53t29.5 136t-29.5 136.5t-86.5 53.5q-33 0 -63.5 -23.5t-45.5 -56.5v-221z
M391 0h-71v667h71v-254q46 82 127 82t127 -70t46 -184q0 -115 -46 -184t-127 -69q-38 0 -72 22t-55 59v-69z" />
    <glyph glyph-name="f_h" unicode="fh" horiz-adv-x="718" 
d="M155 0h-72v420h-64v63h64v59q0 63 32.5 99t85.5 36q37 0 62 -15l-18 -56q-13 10 -32 10q-28 0 -43 -19.5t-15 -54.5v-59h82v-63h-82v-420zM653 0h-71v345q0 86 -78 86q-34 0 -64.5 -22.5t-48.5 -54.5v-354h-71v667h71v-253q23 34 61.5 57.5t79.5 23.5q121 0 121 -129
v-366z" />
    <glyph glyph-name="f_k" unicode="fk" horiz-adv-x="691" 
d="M155 0h-72v420h-64v63h64v59q0 63 32.5 99t85.5 36q37 0 62 -15l-18 -56q-13 10 -32 10q-28 0 -43 -19.5t-15 -54.5v-59h82v-63h-82v-420zM677 0h-85l-133 218l-68 -87v-131h-71v667h71v-446l201 262h85l-169 -217z" />
    <glyph glyph-name=".notdef" horiz-adv-x="492" 
d="M421 -90h-351v842h351v-842zM389 -60v782h-288v-782h288z" />
    <glyph glyph-name=".null" horiz-adv-x="0" 
 />
    <glyph glyph-name=".null" horiz-adv-x="0" 
 />
    <glyph glyph-name="nonmarkingreturn" horiz-adv-x="333" 
 />
    <glyph glyph-name="CR" unicode="&#xd;" horiz-adv-x="0" 
 />
    <glyph glyph-name="space" unicode=" " horiz-adv-x="215" 
 />
    <glyph glyph-name="exclam" unicode="!" horiz-adv-x="228" 
d="M144 185h-59l-16 482h90zM114 -10q-22 0 -37.5 16t-15.5 38q0 21 15.5 37t37.5 16t38 -16t16 -37q0 -22 -16 -38t-38 -16z" />
    <glyph glyph-name="quotedbl" unicode="&#x22;" horiz-adv-x="340" 
d="M117 414h-37q-26 204 -26 219q0 18 13 31t32 13q18 0 31 -13t13 -31zM259 414h-36q-26 204 -26 219q0 18 12.5 31t31.5 13t31.5 -13t12.5 -31z" />
    <glyph glyph-name="numbersign" unicode="#" horiz-adv-x="507" 
d="M263 0h-59l52 182h-91l-51 -182h-59l51 182h-87l14 51h89l56 201h-89l13 50h91l51 183h59l-51 -183h90l51 183h59l-52 -183h87l-12 -50h-90l-56 -201h90l-13 -51h-92zM269 233l58 201h-90l-57 -201h89z" />
    <glyph glyph-name="dollar" unicode="$" horiz-adv-x="468" 
d="M213 -100v89q-114 6 -182 83l44 61q54 -66 138 -73v250q-31 15 -48 24.5t-42 27.5t-38.5 35.5t-23.5 45t-10 60.5q0 69 45 117t117 56v92h59v-92q91 -9 148 -68l-42 -60q-42 46 -106 56v-228q37 -18 59.5 -32.5t49 -38.5t39.5 -57t13 -75q0 -70 -41.5 -120t-119.5 -62
v-91h-59zM352 168q0 66 -80 112v-216q40 10 60 38.5t20 65.5zM132 507q0 -33 21 -56.5t60 -44.5v198q-37 -8 -59 -33.5t-22 -63.5z" />
    <glyph glyph-name="percent" unicode="%" horiz-adv-x="651" 
d="M171 348q-63 0 -102 46.5t-39 117.5t39 118t102 47t102 -47t39 -118t-39 -117.5t-102 -46.5zM175 0h-47l350 667h48zM480 -12q-63 0 -102 46t-39 117q0 72 39 119t102 47q62 0 101.5 -47.5t39.5 -118.5q0 -70 -39.5 -116.5t-101.5 -46.5zM171 397q38 0 61 33t23 82
q0 50 -23 83t-61 33t-61.5 -33t-23.5 -83q0 -49 23.5 -82t61.5 -33zM480 37q38 0 61.5 32.5t23.5 81.5q0 51 -23.5 84t-61.5 33t-61.5 -33t-23.5 -84q0 -49 23.5 -81.5t61.5 -32.5z" />
    <glyph glyph-name="ampersand" unicode="&#x26;" horiz-adv-x="520" 
d="M503 0h-90q-13 15 -53 66q-68 -78 -156 -78q-73 0 -120 48t-47 132q0 69 32 115t88 86q-44 90 -44 149q0 70 39 114.5t99 44.5q54 0 89.5 -35.5t35.5 -94.5q0 -35 -10 -63t-34.5 -53t-40.5 -37.5t-51 -37.5q27 -47 60 -93q27 -42 59 -85q31 63 53 147l61 -26
q-33 -107 -73 -175q6 -8 103 -124zM213 48q57 0 109 67q-49 63 -74 102q-41 61 -62 98q-73 -61 -73 -143q0 -58 29 -91t71 -33zM184 518q0 -47 30 -110q48 32 72.5 62.5t24.5 74.5q0 37 -17 56.5t-42 19.5q-31 0 -49.5 -27t-18.5 -76z" />
    <glyph glyph-name="quotesingle" unicode="'" horiz-adv-x="197" 
d="M117 414h-37q-26 204 -26 219q0 18 13 31t32 13q18 0 31 -13t13 -31z" />
    <glyph glyph-name="parenleft" unicode="(" horiz-adv-x="229" 
d="M210 -171l-46 -28q-118 202 -118 442t118 442l46 -27q-43 -104 -64 -200t-21 -215q0 -208 85 -414z" />
    <glyph glyph-name="parenright" unicode=")" horiz-adv-x="229" 
d="M64 -199l-46 28q86 204 86 414q0 119 -21.5 215.5t-64.5 199.5l46 27q119 -201 119 -442t-119 -442z" />
    <glyph glyph-name="asterisk" unicode="*" horiz-adv-x="321" 
d="M183 391h-44l5 115l-97 -63l-22 39l103 52l-103 52l22 38l97 -62l-5 115h44l-6 -115l97 62l22 -38l-102 -52l102 -52l-22 -39l-97 63z" />
    <glyph glyph-name="plus" unicode="+" horiz-adv-x="439" 
d="M410 312h-163v-184h-55v184h-163v51h163v177h55v-177h163v-51z" />
    <glyph glyph-name="comma" unicode="," horiz-adv-x="228" 
d="M173 22q0 -43 -22.5 -83t-57.5 -65l-36 29q24 17 42.5 43t21.5 50q-1 0 -6 -0.5t-7 -0.5q-20 0 -33.5 14t-13.5 35q0 22 15 37.5t37 15.5q25 0 42.5 -20t17.5 -55z" />
    <glyph glyph-name="hyphen" unicode="-" horiz-adv-x="267" 
d="M237 210h-207v64h207v-64z" />
    <glyph glyph-name="period" unicode="." horiz-adv-x="228" 
d="M114 -10q-22 0 -37.5 16t-15.5 38q0 21 15.5 37t37.5 16t38 -16t16 -37q0 -22 -16 -38t-38 -16z" />
    <glyph glyph-name="slash" unicode="/" horiz-adv-x="248" 
d="M56 -20h-56l192 707h56z" />
    <glyph glyph-name="zero" unicode="0" horiz-adv-x="512" 
d="M256 -12q-56 0 -98 31t-65.5 82.5t-34.5 109.5t-11 122t11 122.5t34.5 109.5t65.5 81.5t98 30.5t98 -30.5t65.5 -81.5t34.5 -109.5t11 -122.5t-11 -122t-34.5 -109.5t-65.5 -82.5t-98 -31zM256 59q37 0 63 23.5t39.5 65t19.5 86.5t6 99q0 273 -128 273q-127 0 -127 -273
q0 -274 127 -274z" />
    <glyph glyph-name="one" unicode="1" horiz-adv-x="315" 
d="M245 0h-79v562l-103 -110l-48 50l160 165h70v-667z" />
    <glyph glyph-name="two" unicode="2" horiz-adv-x="489" 
d="M430 0h-377v65q185 213 225 268q66 96 68 162q0 51 -31 81t-76 30q-90 0 -141 -84l-52 48q69 107 194 107q80 0 133.5 -49t53.5 -133q0 -33 -12 -69t-27 -65.5t-55.5 -83t-69.5 -89.5t-97 -117h264v-71z" />
    <glyph glyph-name="three" unicode="3" horiz-adv-x="473" 
d="M227 -12q-68 0 -119.5 31t-78.5 80l52 47q54 -87 143 -87q59 0 90 34t31 93q0 64 -35 92.5t-92 28.5q-44 0 -53 -1v72q9 -1 51 -1q53 0 87 28.5t34 83.5q0 57 -31.5 87t-83.5 30q-79 0 -135 -79l-50 45q66 105 190 105q84 0 136.5 -45.5t52.5 -131.5q0 -59 -35 -101.5
t-84 -53.5q49 -7 88.5 -52.5t39.5 -112.5q0 -85 -52.5 -138.5t-145.5 -53.5z" />
    <glyph glyph-name="four" unicode="4" horiz-adv-x="462" 
d="M366 0h-79v171h-264v69l241 427h102v-426h73v-70h-73v-171zM287 241v340l-191 -340h191z" />
    <glyph glyph-name="five" unicode="5" horiz-adv-x="491" 
d="M248 -12q-129 0 -196 109l53 48q50 -86 141 -86q53 0 86 42.5t33 102.5q0 70 -30.5 108.5t-83.5 38.5q-70 0 -121 -62l-59 20v358h340v-70h-261v-234q47 58 123 58q75 0 124 -57t49 -158q0 -95 -55.5 -156.5t-142.5 -61.5z" />
    <glyph glyph-name="six" unicode="6" horiz-adv-x="492" 
d="M258 -12q-57 0 -99.5 28.5t-66 78t-34.5 109t-11 129.5t13 130t39 109t70.5 77t102.5 28q101 0 156 -83l-44 -56q-40 68 -111 68q-50 0 -84.5 -41.5t-48 -99t-13.5 -125.5q0 -12 1 -20q19 39 59 68.5t88 29.5q76 0 125.5 -55.5t49.5 -157.5q0 -90 -52 -153.5t-140 -63.5z
M254 59q56 0 85.5 43t29.5 101q0 75 -31.5 110.5t-82.5 35.5q-40 0 -73 -29t-53 -73q2 -32 8.5 -61.5t20 -60t38.5 -48.5t58 -18z" />
    <glyph glyph-name="seven" unicode="7" horiz-adv-x="422" 
d="M184 0h-85l209 597h-282v70h371v-55z" />
    <glyph glyph-name="eight" unicode="8" horiz-adv-x="486" 
d="M243 -12q-89 0 -143.5 47.5t-54.5 128.5q0 63 39.5 111t93.5 69q-51 18 -87 61t-36 102q0 82 55 126t133 44t133.5 -44t55.5 -126q0 -59 -36 -101.5t-87 -61.5q54 -21 93 -69t39 -110q0 -81 -55 -129t-143 -48zM243 374q13 4 28.5 11.5t35 21.5t32.5 37.5t13 52.5
q0 50 -30 79.5t-79 29.5t-79 -29.5t-30 -79.5q0 -29 13 -52.5t32.5 -37.5t35 -21.5t28.5 -11.5zM243 59q50 0 84 31t34 84q0 40 -24.5 73t-50 47t-43.5 17q-32 -5 -74.5 -42.5t-42.5 -95.5q0 -53 33.5 -83.5t83.5 -30.5z" />
    <glyph glyph-name="nine" unicode="9" horiz-adv-x="492" 
d="M219 -11q-100 0 -155 83l44 56q40 -68 111 -68q74 0 109.5 79t35.5 187v21q-19 -40 -59 -69.5t-88 -29.5q-76 0 -125.5 55.5t-49.5 157.5q0 90 52 153.5t140 63.5q57 0 99.5 -28.5t66 -78t34.5 -109t11 -129.5q0 -94 -22 -169t-74.5 -125t-129.5 -50zM237 317
q40 0 72.5 29t52.5 73q-2 32 -8.5 61.5t-19.5 60t-38 48.5t-58 18q-56 0 -85.5 -43t-29.5 -101q0 -75 31.5 -110.5t82.5 -35.5z" />
    <glyph glyph-name="colon" unicode=":" horiz-adv-x="228" 
d="M114 384q-22 0 -37.5 15.5t-15.5 37.5t15.5 37.5t37.5 15.5t38 -15.5t16 -37.5t-16 -37.5t-38 -15.5zM114 -10q-22 0 -37.5 16t-15.5 38q0 21 15.5 37t37.5 16t38 -16t16 -37q0 -22 -16 -38t-38 -16z" />
    <glyph glyph-name="semicolon" unicode=";" horiz-adv-x="228" 
d="M114 384q-22 0 -37.5 16t-15.5 37q0 22 15.5 37.5t37.5 15.5t38 -15.5t16 -37.5q0 -21 -16 -37t-38 -16zM173 24q0 -44 -22.5 -84t-57.5 -65l-36 30q24 16 42.5 42.5t21.5 50.5q-4 -2 -13 -2q-20 0 -33.5 14t-13.5 36q0 21 15 36.5t37 15.5q25 0 42.5 -20t17.5 -54z" />
    <glyph glyph-name="less" unicode="&#x3c;" horiz-adv-x="439" 
d="M410 126l-381 183v51l381 184v-61l-319 -149l319 -148v-60z" />
    <glyph glyph-name="equal" unicode="=" horiz-adv-x="439" 
d="M410 405h-381v51h381v-51zM410 212h-381v50h381v-50z" />
    <glyph glyph-name="greater" unicode="&#x3e;" horiz-adv-x="439" 
d="M410 309l-381 -183v60l318 148l-318 149v61l381 -184v-51z" />
    <glyph glyph-name="question" unicode="?" horiz-adv-x="387" 
d="M169 184q-33 33 -33 82q0 34 14.5 62.5t35.5 48.5t42.5 39.5t36 45t14.5 55.5q0 37 -25.5 63.5t-70.5 26.5q-67 0 -113 -57l-42 51q63 77 166 77q74 0 120 -42.5t46 -106.5q0 -39 -16 -72t-38.5 -55.5t-45 -43t-38.5 -45t-16 -51.5q0 -31 22 -51zM192 -10q-22 0 -38 16
t-16 38q0 21 16 37t38 16t37.5 -16t15.5 -37q0 -22 -15.5 -38t-37.5 -16z" />
    <glyph glyph-name="at" unicode="@" horiz-adv-x="691" 
d="M307 -70q-120 0 -196 83.5t-76 216.5q0 162 109.5 285.5t253.5 123.5q115 0 186.5 -78.5t71.5 -202.5q0 -120 -49 -196.5t-112 -76.5q-36 0 -58.5 21.5t-24.5 54.5v6q-56 -82 -133 -82q-54 0 -88 37t-34 106q0 105 62 188t147 83q37 0 63 -21t37 -54l12 59h65l-58 -274
q-2 -12 -2 -23q0 -49 38 -49q19 0 41 22t40.5 75t18.5 123q0 113 -62 180.5t-163 67.5q-130 0 -228 -114.5t-98 -259.5q0 -118 67 -193t175 -75q84 0 161 56l17 -26q-87 -63 -183 -63zM301 139q66 0 121 85l32 150q-8 29 -27.5 50t-50.5 21q-64 0 -107.5 -67.5t-43.5 -143.5
q0 -44 19.5 -69.5t56.5 -25.5z" />
    <glyph glyph-name="A" unicode="A" horiz-adv-x="511" 
d="M503 0h-86l-43 151h-237l-43 -151h-86l200 667h95zM357 221l-102 358l-101 -358h203z" />
    <glyph glyph-name="B" unicode="B" horiz-adv-x="516" 
d="M297 0h-227v667h221q78 0 121.5 -46.5t43.5 -123.5q0 -61 -28 -100.5t-74 -52.5q48 -7 80.5 -55t32.5 -109q0 -83 -44 -131.5t-126 -48.5zM276 376q49 0 73.5 30.5t24.5 79.5t-24.5 80t-73.5 31h-126v-221h126zM281 71q51 0 77.5 30.5t26.5 86.5q0 51 -26.5 84.5
t-77.5 33.5h-131v-235h131z" />
    <glyph glyph-name="C" unicode="C" horiz-adv-x="533" 
d="M306 -12q-118 0 -188.5 96.5t-70.5 248.5t70.5 248.5t188.5 96.5q127 0 195 -130l-66 -31q-45 90 -129 90q-80 0 -128.5 -77t-48.5 -197t48.5 -197t128.5 -77q87 0 130 99l67 -31q-69 -139 -197 -139z" />
    <glyph glyph-name="D" unicode="D" horiz-adv-x="564" 
d="M248 0h-178v667h178q126 0 197 -93t71 -241t-70.5 -240.5t-197.5 -92.5zM248 71q89 0 137.5 72.5t48.5 189.5q0 118 -48 191t-138 73h-98v-526h98z" />
    <glyph glyph-name="E" unicode="E" horiz-adv-x="461" 
d="M413 0h-343v667h343v-70h-263v-221h256v-70h-256v-235h263v-71z" />
    <glyph glyph-name="F" unicode="F" horiz-adv-x="451" 
d="M150 0h-80v667h343v-70h-263v-221h256v-70h-256v-306z" />
    <glyph glyph-name="G" unicode="G" horiz-adv-x="562" 
d="M306 -13q-117 0 -188 95.5t-71 250.5t71 250t188 95q129 0 198 -126l-64 -33q-47 88 -134 88q-80 0 -128.5 -75.5t-48.5 -198.5q0 -122 48.5 -198t128.5 -76q79 0 125 56v156h-159v70h235v-256q-79 -98 -201 -98z" />
    <glyph glyph-name="H" unicode="H" horiz-adv-x="574" 
d="M504 0h-80v308h-274v-308h-80v667h80v-289h274v289h80v-667z" />
    <glyph glyph-name="I" unicode="I" horiz-adv-x="220" 
d="M150 0h-80v667h80v-667z" />
    <glyph glyph-name="J" unicode="J" horiz-adv-x="398" 
d="M149 -12q-86 0 -140 61l36 62q42 -52 98 -52q50 0 78 30t28 84v494h79v-496q0 -91 -49 -137t-130 -46z" />
    <glyph glyph-name="K" unicode="K" horiz-adv-x="509" 
d="M496 0h-96l-195 294l-55 -80v-214h-80v667h80v-346l233 346h94l-223 -317z" />
    <glyph glyph-name="L" unicode="L" horiz-adv-x="421" 
d="M391 0h-321v667h80v-596h241v-71z" />
    <glyph glyph-name="M" unicode="M" horiz-adv-x="683" 
d="M613 0h-78v524l-178 -524h-31l-176 524v-524h-80v667h111l161 -474l162 474h109v-667z" />
    <glyph glyph-name="N" unicode="N" horiz-adv-x="572" 
d="M502 0h-77l-275 497v-497h-80v667h80l272 -487v487h80v-667z" />
    <glyph glyph-name="O" unicode="O" horiz-adv-x="599" 
d="M299 -12q-118 0 -185 97.5t-67 247.5t67 247.5t185 97.5t185.5 -97.5t67.5 -247.5t-67.5 -247.5t-185.5 -97.5zM299 59q80 0 125.5 77.5t45.5 196.5q0 120 -45 197t-126 77q-80 0 -125 -77t-45 -197q0 -119 45 -196.5t125 -77.5z" />
    <glyph glyph-name="P" unicode="P" horiz-adv-x="487" 
d="M150 0h-80v667h203q88 0 136 -57t48 -143q0 -85 -48.5 -142.5t-135.5 -57.5h-123v-267zM265 337q51 0 80.5 36t29.5 94t-29.5 94t-80.5 36h-115v-260h115z" />
    <glyph glyph-name="Q" unicode="Q" horiz-adv-x="599" 
d="M299 -12q-118 0 -185 97.5t-67 247.5t67 247.5t185 97.5t185.5 -97.5t67.5 -247.5q0 -174 -86 -271l38 -59l-56 -36l-34 52q-51 -31 -115 -31zM299 59q40 0 75 22l-79 123l57 36l69 -109q49 77 49 202q0 120 -45 197t-126 77q-80 0 -125 -77t-45 -197q0 -119 45 -196.5
t125 -77.5z" />
    <glyph glyph-name="R" unicode="R" horiz-adv-x="509" 
d="M464 0h-90l-128 267h-96v-267h-80v667h204q81 0 132 -54t51 -145q0 -83 -39 -131t-94 -58zM265 337q51 0 80.5 36t29.5 94t-29.5 94t-80.5 36h-115v-260h115z" />
    <glyph glyph-name="S" unicode="S" horiz-adv-x="470" 
d="M228 -12q-125 0 -199 84l44 61q61 -74 155 -74q60 0 91 31.5t31 77.5q0 44 -31 75.5t-75 51.5t-88.5 43t-75.5 64.5t-31 100.5q0 76 54 125.5t137 49.5q110 0 178 -70l-42 -60q-53 59 -138 59q-46 0 -77 -28t-31 -72q0 -33 22.5 -58.5t55.5 -41t72.5 -36.5t72.5 -43
t55.5 -62.5t22.5 -92.5q0 -79 -52.5 -132t-150.5 -53z" />
    <glyph glyph-name="T" unicode="T" horiz-adv-x="446" 
d="M262 0h-79v597h-158v70h396v-70h-159v-597z" />
    <glyph glyph-name="U" unicode="U" horiz-adv-x="569" 
d="M284 -12q-101 0 -157.5 59.5t-56.5 168.5v451h80v-452q0 -77 35 -116.5t99 -39.5q65 0 100 39.5t35 116.5v452h79v-451q0 -110 -56 -169t-158 -59z" />
    <glyph glyph-name="V" unicode="V" horiz-adv-x="511" 
d="M303 0h-95l-200 667h86l161 -572l162 572h86z" />
    <glyph glyph-name="W" unicode="W" horiz-adv-x="715" 
d="M551 0h-85l-109 526l-108 -526h-85l-148 667h85l109 -544l114 544h67l114 -544l109 544h85z" />
    <glyph glyph-name="X" unicode="X" horiz-adv-x="510" 
d="M502 0h-92l-155 276l-155 -276h-92l199 341l-188 326h93l143 -262l143 262h93l-188 -326z" />
    <glyph glyph-name="Y" unicode="Y" horiz-adv-x="499" 
d="M289 0h-79v282l-206 385h89l157 -308l157 308h88l-206 -385v-282z" />
    <glyph glyph-name="Z" unicode="Z" horiz-adv-x="462" 
d="M422 0h-382v67l280 530h-280v70h375v-66l-281 -530h288v-71z" />
    <glyph glyph-name="bracketleft" unicode="[" horiz-adv-x="213" 
d="M195 -190h-158v868h158v-53h-102v-762h102v-53z" />
    <glyph glyph-name="backslash" unicode="\" horiz-adv-x="248" 
d="M193 -20l-192 707h56l192 -707h-56z" />
    <glyph glyph-name="bracketright" unicode="]" horiz-adv-x="213" 
d="M175 -190h-158v53h102v762h-102v53h158v-868z" />
    <glyph glyph-name="asciicircum" unicode="^" horiz-adv-x="381" 
d="M362 333h-58l-114 277l-113 -277h-58l144 334h55z" />
    <glyph glyph-name="underscore" unicode="_" horiz-adv-x="422" 
d="M425 -93h-428v53h428v-53z" />
    <glyph glyph-name="grave" unicode="`" horiz-adv-x="186" 
d="M186 556h-52l-134 144h73z" />
    <glyph glyph-name="a" unicode="a" horiz-adv-x="451" 
d="M386 0h-72v52q-45 -64 -127 -64q-61 0 -103.5 44t-42.5 117t42 116t104 43q84 0 127 -62v84q0 49 -26 76t-73 27q-69 0 -121 -59l-32 51q67 70 164 70q75 0 117.5 -38.5t42.5 -118.5v-338zM210 40q70 0 104 61v92q-33 62 -104 62q-44 0 -70 -30.5t-26 -76.5t26 -77
t70 -31z" />
    <glyph glyph-name="b" unicode="b" horiz-adv-x="480" 
d="M137 130q15 -33 45.5 -55.5t63.5 -22.5q57 0 86.5 53t29.5 136t-29.5 136.5t-86.5 53.5q-33 0 -63.5 -23.5t-45.5 -56.5v-221zM137 0h-71v667h71v-254q46 82 127 82t127 -70t46 -184q0 -115 -46 -184t-127 -69q-38 0 -72 22t-55 59v-69z" />
    <glyph glyph-name="c" unicode="c" horiz-adv-x="406" 
d="M242 -12q-91 0 -145.5 72t-54.5 182t54.5 181.5t145.5 71.5q86 0 138 -64l-39 -49q-36 49 -93 49q-62 0 -96.5 -54t-34.5 -135t34.5 -135.5t96.5 -54.5q56 0 93 49l39 -49q-51 -64 -138 -64z" />
    <glyph glyph-name="d" unicode="d" horiz-adv-x="480" 
d="M414 0h-72v69q-21 -37 -55 -59t-72 -22q-80 0 -126.5 69t-46.5 184q0 114 46 184t127 70q38 0 72 -21t55 -61v254h72v-667zM233 52q34 0 64.5 23t44.5 55v222q-14 33 -45 56t-64 23q-57 0 -86.5 -53.5t-29.5 -136.5t29.5 -136t86.5 -53z" />
    <glyph glyph-name="e" unicode="e" horiz-adv-x="468" 
d="M249 -12q-95 0 -151 70.5t-56 183.5q0 108 53.5 180.5t142.5 72.5q92 0 141.5 -72t49.5 -183v-22h-313q2 -75 39 -122.5t100 -47.5q68 0 115 59l38 -42q-63 -77 -159 -77zM358 271q-1 65 -31 114.5t-90 49.5q-58 0 -88.5 -50.5t-32.5 -113.5h242z" />
    <glyph glyph-name="f" unicode="f" horiz-adv-x="254" 
d="M155 0h-72v420h-64v63h64v59q0 63 32.5 99t88.5 36q53 0 86 -32l-28 -51q-20 22 -47 22q-60 0 -60 -74v-59h82v-63h-82v-420z" />
    <glyph glyph-name="g" unicode="g" horiz-adv-x="479" 
d="M223 -196q-100 0 -161 61l33 56q48 -56 126 -56q53 0 87 32.5t34 98.5v81q-21 -38 -55 -60.5t-72 -22.5q-80 0 -126.5 67.5t-46.5 182.5q0 114 46 182.5t127 68.5t127 -82v70h72v-482q0 -104 -53.5 -150.5t-137.5 -46.5zM233 58q33 0 64 23.5t45 56.5v214q-14 33 -45 56
t-64 23q-57 0 -86.5 -52.5t-29.5 -134.5t29.5 -134t86.5 -52z" />
    <glyph glyph-name="h" unicode="h" 
d="M399 0h-71v345q0 86 -78 86q-34 0 -64.5 -22.5t-48.5 -54.5v-354h-71v667h71v-253q22 34 61 57.5t80 23.5q121 0 121 -129v-366z" />
    <glyph glyph-name="i" unicode="i" horiz-adv-x="203" 
d="M101 553q-20 0 -34.5 14.5t-14.5 34.5t14.5 34.5t34.5 14.5t34.5 -14.5t14.5 -34.5t-14.5 -34.5t-34.5 -14.5zM137 0h-71v483h71v-483z" />
    <glyph glyph-name="j" unicode="j" horiz-adv-x="203" 
d="M101 553q-20 0 -34.5 14.5t-14.5 34.5t14.5 34.5t34.5 14.5t34.5 -14.5t14.5 -34.5t-14.5 -34.5t-34.5 -14.5zM17 -196q-51 0 -82 34l26 53q21 -26 49 -26q56 0 56 76v542h71v-542q0 -137 -120 -137z" />
    <glyph glyph-name="k" unicode="k" horiz-adv-x="438" 
d="M423 0h-85l-133 218l-68 -87v-131h-71v667h71v-446l201 262h85l-169 -217z" />
    <glyph glyph-name="l" unicode="l" horiz-adv-x="203" 
d="M137 0h-71v667h71v-667z" />
    <glyph glyph-name="m" unicode="m" horiz-adv-x="692" 
d="M626 0h-72v350q0 81 -67 81q-31 0 -60.5 -23t-44.5 -54v-354h-72v350q0 81 -68 81q-30 0 -59 -22.5t-46 -54.5v-354h-71v483h71v-69q17 30 54.5 55.5t77.5 25.5q45 0 73.5 -23.5t35.5 -62.5q19 35 57 60.5t79 25.5q112 0 112 -126v-369z" />
    <glyph glyph-name="n" unicode="n" 
d="M399 0h-72v344q0 87 -77 87q-34 0 -64.5 -22.5t-48.5 -54.5v-354h-71v483h71v-69q23 34 61 57.5t79 23.5q122 0 122 -131v-364z" />
    <glyph glyph-name="o" unicode="o" horiz-adv-x="477" 
d="M238 -12q-92 0 -144 73t-52 181q0 107 52 180t144 73q93 0 145 -72.5t52 -180.5t-52 -181t-145 -73zM238 52q60 0 91 55t31 135q0 79 -31 134t-91 55q-59 0 -90 -55t-31 -134q0 -80 31 -135t90 -55z" />
    <glyph glyph-name="p" unicode="p" horiz-adv-x="478" 
d="M264 -12q-81 0 -127 82v-254h-71v667h71v-69q21 37 55 59t72 22q81 0 127 -69t46 -184t-46 -184.5t-127 -69.5zM246 52q57 0 86.5 53.5t29.5 136.5t-29.5 136t-86.5 53q-33 0 -63.5 -22.5t-45.5 -55.5v-221q15 -33 45.5 -56.5t63.5 -23.5z" />
    <glyph glyph-name="q" unicode="q" horiz-adv-x="478" 
d="M232 52q33 0 63.5 23.5t45.5 56.5v221q-15 33 -45.5 55.5t-63.5 22.5q-57 0 -86.5 -53t-29.5 -136t29.5 -136.5t86.5 -53.5zM214 -12q-81 0 -127 69.5t-46 184.5t46 184t127 69q37 0 71.5 -22t55.5 -59v69h71v-667h-71v254q-46 -82 -127 -82z" />
    <glyph glyph-name="r" unicode="r" horiz-adv-x="291" 
d="M137 0h-71v483h71v-77q53 87 137 87v-74q-12 3 -24 3q-32 0 -64.5 -24t-48.5 -55v-343z" />
    <glyph glyph-name="s" unicode="s" horiz-adv-x="387" 
d="M190 -12q-104 0 -163 68l36 51q50 -61 126 -61q42 0 67.5 21.5t25.5 56.5q0 31 -25 52t-60 34.5t-70.5 29.5t-60.5 47.5t-25 77.5q0 56 42 93t112 37q90 0 147 -62l-34 -49q-40 53 -112 53q-39 0 -62.5 -20t-23.5 -50q0 -28 25 -47t60 -32.5t70.5 -30.5t60.5 -50t25 -81
q0 -61 -44 -99.5t-117 -38.5z" />
    <glyph glyph-name="t" unicode="t" horiz-adv-x="263" 
d="M177 -12q-97 0 -97 109v323h-64v63h64v132h72v-132h82v-63h-82v-310q0 -58 39 -58q26 0 42 19l22 -54q-29 -29 -78 -29z" />
    <glyph glyph-name="u" unicode="u" 
d="M399 0h-72v67q-24 -34 -60.5 -56.5t-79.5 -22.5q-121 0 -121 129v366h71v-345q0 -86 77 -86q35 0 65.5 21.5t47.5 53.5v356h72v-483z" />
    <glyph glyph-name="v" unicode="v" horiz-adv-x="408" 
d="M243 0h-79l-158 483h78l120 -398l121 398h77z" />
    <glyph glyph-name="w" unicode="w" horiz-adv-x="638" 
d="M496 0h-74l-103 388l-104 -388h-73l-129 483h75l94 -386l102 386h68l103 -386l95 386h75z" />
    <glyph glyph-name="x" unicode="x" horiz-adv-x="406" 
d="M394 0h-80l-111 194l-111 -194h-80l147 246l-139 237h80l103 -184l103 184h80l-139 -237z" />
    <glyph glyph-name="y" unicode="y" horiz-adv-x="408" 
d="M41 -189l11 64q13 -7 32 -7q22 0 34.5 10.5t22.5 37.5l26 74l-161 493h78l120 -396l121 396h77l-193 -585q-17 -51 -46.5 -72.5t-73.5 -21.5q-29 0 -48 7z" />
    <glyph glyph-name="z" unicode="z" horiz-adv-x="387" 
d="M344 0h-301v56l209 364h-209v63h297v-55l-209 -365h213v-63z" />
    <glyph glyph-name="braceleft" unicode="{" horiz-adv-x="231" 
d="M214 -190h-46q-44 0 -77 33t-33 86v221q0 30 -13.5 50t-38.5 20v48q25 0 38.5 20t13.5 50v220q0 53 33 86.5t77 33.5h46v-53h-46q-22 0 -38 -19t-16 -48v-226q0 -69 -45 -88q45 -19 45 -88v-227q0 -28 16 -47t38 -19h46v-53z" />
    <glyph glyph-name="bar" unicode="|" horiz-adv-x="194" 
d="M124 -20h-54v707h54v-707z" />
    <glyph glyph-name="braceright" unicode="}" horiz-adv-x="231" 
d="M17 -190v53h46q22 0 38 19t16 47v227q0 68 46 88q-46 20 -46 88v226q0 29 -16 48t-38 19h-46v53h46q44 0 77.5 -33.5t33.5 -86.5v-220q0 -30 13.5 -50t38.5 -20v-48q-25 0 -38.5 -20t-13.5 -50v-221q0 -53 -33.5 -86t-77.5 -33h-46z" />
    <glyph glyph-name="asciitilde" unicode="~" horiz-adv-x="449" 
d="M367 667l54 -6q-4 -48 -10 -84t-18.5 -74t-36.5 -58.5t-58 -20.5q-38 0 -61 30t-30 65.5t-20.5 65.5t-35.5 30q-31 0 -46 -46.5t-24 -145.5l-54 6q4 49 10.5 85t19.5 73.5t36.5 58t57.5 20.5q31 0 51.5 -20t30 -48t17 -56t19 -48t29.5 -20q31 0 46 46.5t23 146.5z" />
    <glyph glyph-name="nbspace" unicode="&#xa0;" horiz-adv-x="215" 
 />
    <glyph glyph-name="exclamdown" unicode="&#xa1;" horiz-adv-x="228" 
d="M70 -184l15 482h59l16 -482h-90zM61 440q0 21 15.5 37t37.5 16t38 -16t16 -37q0 -22 -16 -37.5t-38 -15.5t-37.5 15.5t-15.5 37.5z" />
    <glyph glyph-name="cent" unicode="&#xa2;" horiz-adv-x="406" 
d="M212 -100v91q-78 12 -124 81.5t-46 169.5t46 169t124 81v73h56v-72q68 -8 112 -62l-39 -49q-31 41 -73 47v-376q43 8 73 48l39 -49q-43 -55 -112 -63v-89h-56zM117 242q0 -69 24.5 -119.5t70.5 -65.5v368q-46 -15 -70.5 -65t-24.5 -118z" />
    <glyph glyph-name="sterling" unicode="&#xa3;" horiz-adv-x="449" 
d="M25 269v52h86q-21 31 -31 46.5t-21 48.5t-11 68q0 79 55.5 136t135.5 57q60 0 105 -29.5t64 -83.5l-63 -34q-12 35 -38 57.5t-63 22.5q-46 0 -78.5 -35t-32.5 -93q0 -27 7.5 -52t14 -38t23 -38t21.5 -33h113v-52h-91q6 -21 6 -46q0 -41 -20 -78t-51 -60q22 9 46 9
q28 0 64.5 -18t58.5 -18q25 0 47.5 11.5t32.5 26.5l32 -63q-39 -46 -117 -46q-41 0 -81 22t-67 22q-40 0 -98 -38l-29 59q52 28 81 69.5t29 86.5q0 30 -13 61h-117z" />
    <glyph glyph-name="currency" unicode="&#xa4;" horiz-adv-x="494" 
d="M247 95q-70 0 -119 41l-70 -71l-45 44l75 74q-37 62 -37 150t38 150l-76 76l44 45l73 -74q50 40 117 40t117 -40l73 74l44 -45l-76 -76q38 -62 38 -150t-39 -151l77 -75l-44 -44l-73 72q-50 -40 -117 -40zM247 162q61 0 92.5 49.5t31.5 121.5q0 71 -31.5 120.5
t-92.5 49.5q-60 0 -92 -49.5t-32 -120.5t32 -121t92 -50z" />
    <glyph glyph-name="yen" unicode="&#xa5;" horiz-adv-x="499" 
d="M289 0h-79v123h-188v51h188v108h-188v51h160l-178 334h89l157 -308l157 308h88l-179 -334h161v-51h-188v-108h188v-51h-188v-123z" />
    <glyph glyph-name="brokenbar" unicode="&#xa6;" horiz-adv-x="194" 
d="M124 -20h-54v316h54v-316zM124 371h-54v316h54v-316z" />
    <glyph glyph-name="section" unicode="&#xa7;" horiz-adv-x="389" 
d="M351 307q0 -84 -82 -121q82 -48 82 -129q0 -61 -45 -99.5t-116 -38.5q-100 0 -162 69l35 48q52 -63 125 -63q41 0 67.5 23t26.5 58q0 32 -25 54.5t-60 36.5t-70.5 30t-60.5 47.5t-25 77.5q0 43 28 75t72 43q-100 50 -100 133q0 54 42 90t108 36q96 0 150 -63l-33 -44
q-45 53 -113 53q-38 0 -61.5 -20t-23.5 -52q0 -30 25 -50.5t60 -34t70.5 -30t60.5 -49t25 -80.5zM283 297q0 64 -84 97q-91 -20 -91 -86q0 -34 26 -55t81 -45q68 32 68 89z" />
    <glyph glyph-name="dieresis" unicode="&#xa8;" horiz-adv-x="268" 
d="M266 603q0 -18 -13.5 -31t-31.5 -13q-19 0 -32 13t-13 31q0 19 13 32t32 13q18 0 31.5 -13t13.5 -32zM92 603q0 -18 -13 -31t-32 -13q-18 0 -31.5 13t-13.5 31q0 19 13.5 32t31.5 13q19 0 32 -13t13 -32z" />
    <glyph glyph-name="copyright" unicode="&#xa9;" horiz-adv-x="778" 
d="M734 334q0 -143 -101 -244t-244 -101t-244 101.5t-101 243.5q0 143 101 244t244 101t244 -101t101 -244zM704 334q0 130 -92.5 222.5t-222.5 92.5t-222 -92.5t-92 -222.5t92 -222t222 -92t222.5 92t92.5 222zM512 211l26 -24q-57 -66 -146 -66q-87 0 -148 62t-61 152
q0 91 60.5 152t148.5 61q90 0 145 -65l-25 -25q-20 26 -52.5 42t-67.5 16q-71 0 -122 -51t-51 -130q0 -77 51.5 -129.5t121.5 -52.5q36 0 68 16t52 42z" />
    <glyph glyph-name="ordfeminine" unicode="&#xaa;" horiz-adv-x="329" 
d="M276 326h-55v34q-32 -42 -88 -42q-41 0 -70 28.5t-29 75.5q0 48 28.5 75.5t70.5 27.5q56 0 88 -40v53q0 32 -18.5 48.5t-48.5 16.5q-48 0 -82 -41l-24 38q47 48 115 48q113 0 113 -112v-210zM152 356q47 0 69 38v57q-21 38 -69 38q-28 0 -45.5 -19t-17.5 -47
q0 -30 17.5 -48.5t45.5 -18.5z" />
    <glyph glyph-name="guillemotleft" unicode="&#xab;" horiz-adv-x="382" 
d="M352 63h-67l-125 180l125 177h67l-125 -177zM222 63h-67l-125 180l125 177h67l-125 -177z" />
    <glyph glyph-name="logicalnot" unicode="&#xac;" horiz-adv-x="441" 
d="M410 456v-244h-54v193h-327v51h381z" />
    <glyph glyph-name="uni00AD" unicode="&#xad;" horiz-adv-x="267" 
d="M237 210h-207v64h207v-64z" />
    <glyph glyph-name="registered" unicode="&#xae;" horiz-adv-x="494" 
d="M459 465q0 -88 -62 -150t-150 -62t-150 62t-62 150t62 150t150 62q89 0 150.5 -61.5t61.5 -150.5zM430 465q0 77 -53 130t-130 53t-130.5 -53t-53.5 -130q0 -76 54 -130t130 -54t129.5 54t53.5 130zM345 343h-40l-63 96h-44v-96h-32v243h99q32 0 54.5 -20.5t22.5 -53.5
q0 -35 -22.5 -53.5t-39.5 -18.5zM309 512q0 19 -13.5 32.5t-30.5 13.5h-67v-90h67q16 0 30 13t14 31z" />
    <glyph glyph-name="macron" unicode="&#xaf;" horiz-adv-x="306" 
d="M306 573h-306v46h306v-46z" />
    <glyph glyph-name="degree" unicode="&#xb0;" horiz-adv-x="289" 
d="M265 556q0 -50 -35.5 -85.5t-85.5 -35.5t-85.5 35.5t-35.5 85.5t35.5 85.5t85.5 35.5t85.5 -35.5t35.5 -85.5zM219 556q0 30 -22 52t-53 22t-52.5 -22t-21.5 -52q0 -31 21.5 -52.5t52.5 -21.5t53 21.5t22 52.5z" />
    <glyph glyph-name="plusminus" unicode="&#xb1;" horiz-adv-x="439" 
d="M410 318h-163v-184h-55v184h-163v51h163v177h55v-177h163v-51zM410 22h-381v51h381v-51z" />
    <glyph glyph-name="twosuperior" unicode="&#xb2;" horiz-adv-x="326" 
d="M291 421h-250v44q116 114 153 160.5t37 87.5q0 32 -20 49t-49 17q-59 0 -91 -51l-35 35q46 64 128 64q54 0 89.5 -29t35.5 -82q0 -48 -36.5 -98t-133.5 -149h172v-48z" />
    <glyph glyph-name="threesuperior" unicode="&#xb3;" horiz-adv-x="326" 
d="M293 530q0 -52 -35 -84t-96 -32q-90 0 -131 66l35 34q35 -52 94 -52q36 0 55.5 19t19.5 52q0 70 -83 70q-27 0 -33 -1v48q6 -1 32 -1q78 0 78 65q0 32 -19.5 48.5t-51.5 16.5q-54 0 -88 -48l-35 33q45 63 127 63q56 0 90.5 -28t34.5 -79q0 -36 -23 -61t-54 -31
q31 -4 57 -31t26 -67z" />
    <glyph glyph-name="acute" unicode="&#xb4;" horiz-adv-x="186" 
d="M186 700l-134 -144h-52l113 144h73z" />
    <glyph glyph-name="mu" unicode="&#xb5;" horiz-adv-x="476" 
d="M137 22v-206h-71v667h71v-345q0 -88 79 -88q34 0 64 22.5t47 54.5v356h72v-377q0 -54 39 -54q11 0 16 1l6 -61q-18 -4 -36 -4q-82 0 -94 85q-20 -38 -52 -61.5t-68 -23.5q-52 0 -73 34z" />
    <glyph glyph-name="paragraph" unicode="&#xb6;" horiz-adv-x="449" 
d="M377 -100h-45v723h-89v-723h-44v423q-71 0 -121.5 50.5t-50.5 121.5t50.5 121.5t121.5 50.5h178v-767z" />
    <glyph glyph-name="periodcentered" unicode="&#xb7;" horiz-adv-x="228" 
d="M168 245q0 -22 -16 -38t-38 -16t-37.5 16t-15.5 38q0 21 15.5 37t37.5 16t38 -16t16 -37z" />
    <glyph glyph-name="cedilla" unicode="&#xb8;" horiz-adv-x="185" 
d="M89 -191q-51 0 -89 30l18 37q31 -28 70 -28q22 0 38 11.5t16 30.5q0 34 -33 34q-20 0 -33 -15l-32 18l31 84h43l-26 -67q12 11 33 11q26 0 43 -18t17 -48q0 -35 -27.5 -57.5t-68.5 -22.5z" />
    <glyph glyph-name="onesuperior" unicode="&#xb9;" horiz-adv-x="225" 
d="M169 421h-58v325l-63 -66l-34 35l104 106h51v-400z" />
    <glyph glyph-name="ordmasculine" unicode="&#xba;" horiz-adv-x="347" 
d="M173 318q-64 0 -100.5 47.5t-36.5 117.5t36.5 117.5t100.5 47.5q65 0 101.5 -47.5t36.5 -117.5t-36.5 -117.5t-101.5 -47.5zM173 364q40 0 60.5 34t20.5 85t-20.5 84t-60.5 33q-39 0 -59.5 -33t-20.5 -84t20.5 -85t59.5 -34z" />
    <glyph glyph-name="guillemotright" unicode="&#xbb;" horiz-adv-x="382" 
d="M222 243l-125 -180h-67l125 180l-125 177h67zM352 243l-125 -180h-67l125 180l-125 177h67z" />
    <glyph glyph-name="onequarter" unicode="&#xbc;" horiz-adv-x="673" 
d="M169 267h-58v325l-63 -66l-34 35l104 106h51v-400zM647 101h-47v-101h-58v101h-168v45l150 254h76v-252h47v-47zM542 148v193l-114 -193h114zM516 667l-350 -667h-48l350 667h48z" />
    <glyph glyph-name="onehalf" unicode="&#xbd;" horiz-adv-x="707" 
d="M169 267h-58v325l-63 -66l-34 35l104 106h51v-400zM672 0h-250v44q116 114 153 160.5t37 87.5q0 32 -20 49t-49 17q-59 0 -91 -51l-35 35q46 64 128 64q54 0 89.5 -29t35.5 -82q0 -48 -36.5 -98t-133.5 -149h172v-48zM516 667l-350 -667h-48l350 667h48z" />
    <glyph glyph-name="threequarters" unicode="&#xbe;" horiz-adv-x="745" 
d="M720 101h-47v-101h-58v101h-168v45l150 254h76v-252h47v-47zM615 148v193l-114 -193h114zM588 667l-350 -667h-48l350 667h48zM293 376q0 -52 -35 -84t-96 -32q-90 0 -131 66l35 34q35 -52 94 -52q36 0 55.5 19t19.5 52q0 70 -83 70q-27 0 -33 -1v48q6 -1 32 -1
q78 0 78 65q0 32 -19.5 48.5t-51.5 16.5q-54 0 -88 -48l-35 33q45 63 127 63q56 0 90.5 -28t34.5 -79q0 -36 -23 -61t-54 -31q31 -4 57 -31t26 -67z" />
    <glyph glyph-name="questiondown" unicode="&#xbf;" horiz-adv-x="332" 
d="M218 297q33 -34 33 -83q0 -41 -22.5 -75.5t-49 -55t-49 -52t-22.5 -68.5q0 -36 26 -62.5t70 -26.5q68 0 114 57l41 -52q-63 -76 -165 -76q-75 0 -120.5 42.5t-45.5 105.5q0 39 16 72t38.5 55.5t45 43t38.5 45.5t16 52q0 30 -23 51zM195 493q22 0 38 -16t16 -38
q0 -21 -16 -36.5t-38 -15.5t-37.5 15.5t-15.5 36.5q0 22 15.5 38t37.5 16z" />
    <glyph glyph-name="Agrave" unicode="&#xc0;" horiz-adv-x="511" 
d="M503 0h-86l-43 151h-237l-43 -151h-86l200 667h95zM357 221l-102 358l-101 -358h203zM302 723h-52l-134 144h73z" />
    <glyph glyph-name="Aacute" unicode="&#xc1;" horiz-adv-x="511" 
d="M503 0h-86l-43 151h-237l-43 -151h-86l200 667h95zM357 221l-102 358l-101 -358h203zM395 867l-134 -144h-52l113 144h73z" />
    <glyph glyph-name="Acircumflex" unicode="&#xc2;" horiz-adv-x="511" 
d="M373 723h-47l-71 105l-69 -105h-46l80 144h70zM503 0h-86l-43 151h-237l-43 -151h-86l200 667h95zM357 221l-102 358l-101 -358h203z" />
    <glyph glyph-name="Atilde" unicode="&#xc3;" horiz-adv-x="511" 
d="M503 0h-86l-43 151h-237l-43 -151h-86l200 667h95zM357 221l-102 358l-101 -358h203zM306 721q-22 0 -37.5 14.5t-23 32.5t-18.5 32.5t-24 14.5q-18 0 -29 -22t-11 -66h-42q0 60 22 97t63 37q22 0 37.5 -14.5t23 -32t18.5 -32t24 -14.5q40 0 40 87h42q0 -60 -22 -97
t-63 -37z" />
    <glyph glyph-name="Adieresis" unicode="&#xc4;" horiz-adv-x="511" 
d="M388 770q0 -18 -13.5 -31t-31.5 -13q-19 0 -32 13t-13 31q0 19 13 32t32 13q18 0 31.5 -13t13.5 -32zM214 770q0 -18 -13 -31t-32 -13q-18 0 -31.5 13t-13.5 31q0 19 13.5 32t31.5 13q19 0 32 -13t13 -32zM503 0h-86l-43 151h-237l-43 -151h-86l200 667h95zM357 221
l-102 358l-101 -358h203z" />
    <glyph glyph-name="Aring" unicode="&#xc5;" horiz-adv-x="511" 
d="M503 0h-86l-43 151h-237l-43 -151h-86l200 667h95zM357 221l-102 358l-101 -358h203zM256 691q-38 0 -64.5 26.5t-26.5 64.5t26.5 64.5t64.5 26.5q37 0 63.5 -26.5t26.5 -64.5t-26.5 -64.5t-63.5 -26.5zM256 729q22 0 37 15.5t15 37.5t-15 37.5t-37 15.5t-37.5 -15.5
t-15.5 -37.5t15.5 -37.5t37.5 -15.5z" />
    <glyph glyph-name="AE" unicode="&#xc6;" horiz-adv-x="751" 
d="M702 0h-342v151h-195l-69 -151h-85l316 667h375v-70h-263v-221h256v-70h-256v-235h263v-71zM360 221v358l-165 -358h165z" />
    <glyph glyph-name="Ccedilla" unicode="&#xc7;" horiz-adv-x="533" 
d="M300 -187q-52 0 -89 30l18 37q31 -28 70 -28q22 0 38 11.5t16 30.5q0 34 -33 34q-20 0 -33 -15l-32 18l21 59q-105 13 -167 107t-62 236q0 152 70.5 248.5t188.5 96.5q127 0 195 -130l-66 -31q-45 90 -129 90q-80 0 -128.5 -77t-48.5 -197t48.5 -197t128.5 -77
q87 0 130 99l67 -31q-67 -132 -185 -138l-15 -41q12 11 33 11q26 0 43 -18t17 -48q0 -35 -27.5 -57.5t-68.5 -22.5z" />
    <glyph glyph-name="Egrave" unicode="&#xc8;" horiz-adv-x="461" 
d="M413 0h-343v667h343v-70h-263v-221h256v-70h-256v-235h263v-71zM288 723h-52l-134 144h73z" />
    <glyph glyph-name="Eacute" unicode="&#xc9;" horiz-adv-x="461" 
d="M381 867l-134 -144h-52l113 144h73zM413 0h-343v667h343v-70h-263v-221h256v-70h-256v-235h263v-71z" />
    <glyph glyph-name="Ecircumflex" unicode="&#xca;" horiz-adv-x="461" 
d="M359 723h-47l-71 105l-69 -105h-46l80 144h70zM413 0h-343v667h343v-70h-263v-221h256v-70h-256v-235h263v-71z" />
    <glyph glyph-name="Edieresis" unicode="&#xcb;" horiz-adv-x="461" 
d="M374 770q0 -18 -13.5 -31t-31.5 -13q-19 0 -32 13t-13 31q0 19 13 32t32 13q18 0 31.5 -13t13.5 -32zM200 770q0 -18 -13 -31t-32 -13q-18 0 -31.5 13t-13.5 31q0 19 13.5 32t31.5 13q19 0 32 -13t13 -32zM413 0h-343v667h343v-70h-263v-221h256v-70h-256v-235h263v-71z
" />
    <glyph glyph-name="Igrave" unicode="&#xcc;" horiz-adv-x="220" 
d="M150 0h-80v667h80v-667zM157 723h-52l-134 144h73z" />
    <glyph glyph-name="Iacute" unicode="&#xcd;" horiz-adv-x="220" 
d="M150 0h-80v667h80v-667zM250 867l-134 -144h-52l113 144h73z" />
    <glyph glyph-name="Icircumflex" unicode="&#xce;" horiz-adv-x="220" 
d="M228 723h-47l-71 105l-69 -105h-46l80 144h70zM150 0h-80v667h80v-667z" />
    <glyph glyph-name="Idieresis" unicode="&#xcf;" horiz-adv-x="220" 
d="M243 770q0 -18 -13.5 -31t-31.5 -13q-19 0 -32 13t-13 31q0 19 13 32t32 13q18 0 31.5 -13t13.5 -32zM69 770q0 -18 -13 -31t-32 -13q-18 0 -31.5 13t-13.5 31q0 19 13.5 32t31.5 13q19 0 32 -13t13 -32zM150 0h-80v667h80v-667z" />
    <glyph glyph-name="Eth" unicode="&#xd0;" horiz-adv-x="587" 
d="M272 0h-178v301h-78v57h78v309h178q126 0 197 -93t71 -241t-70.5 -240.5t-197.5 -92.5zM272 71q89 0 137.5 72.5t48.5 189.5q0 118 -48 191t-138 73h-98v-239h124v-57h-124v-230h98z" />
    <glyph glyph-name="Ntilde" unicode="&#xd1;" horiz-adv-x="572" 
d="M334 721q-22 0 -37.5 14.5t-23 32.5t-18.5 32.5t-24 14.5q-18 0 -29 -22t-11 -66h-42q0 60 22 97t63 37q22 0 37.5 -14.5t23 -32t18.5 -32t24 -14.5q40 0 40 87h42q0 -60 -22 -97t-63 -37zM502 0h-77l-275 497v-497h-80v667h80l272 -487v487h80v-667z" />
    <glyph glyph-name="Ograve" unicode="&#xd2;" horiz-adv-x="599" 
d="M346 723h-52l-134 144h73zM299 -12q-118 0 -185 97.5t-67 247.5t67 247.5t185 97.5t185.5 -97.5t67.5 -247.5t-67.5 -247.5t-185.5 -97.5zM299 59q80 0 125.5 77.5t45.5 196.5q0 120 -45 197t-126 77q-80 0 -125 -77t-45 -197q0 -119 45 -196.5t125 -77.5z" />
    <glyph glyph-name="Oacute" unicode="&#xd3;" horiz-adv-x="599" 
d="M439 867l-134 -144h-52l113 144h73zM299 -12q-118 0 -185 97.5t-67 247.5t67 247.5t185 97.5t185.5 -97.5t67.5 -247.5t-67.5 -247.5t-185.5 -97.5zM299 59q80 0 125.5 77.5t45.5 196.5q0 120 -45 197t-126 77q-80 0 -125 -77t-45 -197q0 -119 45 -196.5t125 -77.5z" />
    <glyph glyph-name="Ocircumflex" unicode="&#xd4;" horiz-adv-x="599" 
d="M418 723h-47l-71 105l-69 -105h-46l80 144h70zM299 -12q-118 0 -185 97.5t-67 247.5t67 247.5t185 97.5t185.5 -97.5t67.5 -247.5t-67.5 -247.5t-185.5 -97.5zM299 59q80 0 125.5 77.5t45.5 196.5q0 120 -45 197t-126 77q-80 0 -125 -77t-45 -197q0 -119 45 -196.5
t125 -77.5z" />
    <glyph glyph-name="Otilde" unicode="&#xd5;" horiz-adv-x="599" 
d="M299 -12q-118 0 -185 97.5t-67 247.5t67 247.5t185 97.5t185.5 -97.5t67.5 -247.5t-67.5 -247.5t-185.5 -97.5zM299 59q80 0 125.5 77.5t45.5 196.5q0 120 -45 197t-126 77q-80 0 -125 -77t-45 -197q0 -119 45 -196.5t125 -77.5zM350 721q-22 0 -37.5 14.5t-23 32.5
t-18.5 32.5t-24 14.5q-18 0 -29 -22t-11 -66h-42q0 60 22 97t63 37q22 0 37.5 -14.5t23 -32t18.5 -32t24 -14.5q40 0 40 87h42q0 -60 -22 -97t-63 -37z" />
    <glyph glyph-name="Odieresis" unicode="&#xd6;" horiz-adv-x="599" 
d="M431 770q0 -18 -13.5 -31t-31.5 -13q-19 0 -32 13t-13 31q0 19 13 32t32 13q18 0 31.5 -13t13.5 -32zM257 770q0 -18 -13 -31t-32 -13q-18 0 -31.5 13t-13.5 31q0 19 13.5 32t31.5 13q19 0 32 -13t13 -32zM299 -12q-118 0 -185 97.5t-67 247.5t67 247.5t185 97.5
t185.5 -97.5t67.5 -247.5t-67.5 -247.5t-185.5 -97.5zM299 59q80 0 125.5 77.5t45.5 196.5q0 120 -45 197t-126 77q-80 0 -125 -77t-45 -197q0 -119 45 -196.5t125 -77.5z" />
    <glyph glyph-name="multiply" unicode="&#xd7;" horiz-adv-x="439" 
d="M347 170l-128 128l-127 -128l-37 36l128 128l-128 128l37 36l127 -128l128 128l36 -36l-128 -128l128 -128z" />
    <glyph glyph-name="Oslash" unicode="&#xd8;" horiz-adv-x="599" 
d="M299 -12q-78 0 -135 45l-18 -33h-59l38 70q-78 96 -78 263q0 150 67 247.5t185 97.5q76 0 133 -44l18 33h59l-38 -70q81 -98 81 -264q0 -150 -67.5 -247.5t-185.5 -97.5zM299 59q80 0 125.5 77.5t45.5 196.5q0 115 -41 188l-228 -420q40 -42 98 -42zM129 333
q0 -112 38 -185l228 419q-42 40 -96 40q-80 0 -125 -77t-45 -197z" />
    <glyph glyph-name="Ugrave" unicode="&#xd9;" horiz-adv-x="569" 
d="M284 -12q-101 0 -157.5 59.5t-56.5 168.5v451h80v-452q0 -77 35 -116.5t99 -39.5q65 0 100 39.5t35 116.5v452h79v-451q0 -110 -56 -169t-158 -59zM331 723h-52l-134 144h73z" />
    <glyph glyph-name="Uacute" unicode="&#xda;" horiz-adv-x="569" 
d="M424 867l-134 -144h-52l113 144h73zM284 -12q-101 0 -157.5 59.5t-56.5 168.5v451h80v-452q0 -77 35 -116.5t99 -39.5q65 0 100 39.5t35 116.5v452h79v-451q0 -110 -56 -169t-158 -59z" />
    <glyph glyph-name="Ucircumflex" unicode="&#xdb;" horiz-adv-x="569" 
d="M402 723h-47l-71 105l-69 -105h-46l80 144h70zM284 -12q-101 0 -157.5 59.5t-56.5 168.5v451h80v-452q0 -77 35 -116.5t99 -39.5q65 0 100 39.5t35 116.5v452h79v-451q0 -110 -56 -169t-158 -59z" />
    <glyph glyph-name="Udieresis" unicode="&#xdc;" horiz-adv-x="569" 
d="M417 770q0 -18 -13.5 -31t-31.5 -13q-19 0 -32 13t-13 31q0 19 13 32t32 13q18 0 31.5 -13t13.5 -32zM243 770q0 -18 -13 -31t-32 -13q-18 0 -31.5 13t-13.5 31q0 19 13.5 32t31.5 13q19 0 32 -13t13 -32zM284 -12q-101 0 -157.5 59.5t-56.5 168.5v451h80v-452
q0 -77 35 -116.5t99 -39.5q65 0 100 39.5t35 116.5v452h79v-451q0 -110 -56 -169t-158 -59z" />
    <glyph glyph-name="Yacute" unicode="&#xdd;" horiz-adv-x="499" 
d="M289 0h-79v282l-206 385h89l157 -308l157 308h88l-206 -385v-282zM389 867l-134 -144h-52l113 144h73z" />
    <glyph glyph-name="Thorn" unicode="&#xde;" horiz-adv-x="487" 
d="M150 0h-80v667h80v-120h123q88 0 136 -57.5t48 -143.5q0 -85 -48.5 -142t-135.5 -57h-123v-147zM265 218q51 0 80.5 35t29.5 93t-29.5 94.5t-80.5 36.5h-115v-259h115z" />
    <glyph glyph-name="germandbls" unicode="&#xdf;" horiz-adv-x="524" 
d="M507 126q0 -58 -42.5 -98t-114.5 -40q-54 0 -89.5 17.5t-66.5 51.5l34 51q46 -61 117 -61q41 0 65.5 22t24.5 56q0 31 -23.5 51.5t-57.5 34.5t-67.5 29.5t-57 46t-23.5 75.5q0 27 12.5 50t30.5 38t36 29t30.5 30.5t12.5 35.5q0 30 -26 49t-62 19q-43 0 -70.5 -27
t-27.5 -77v-509h-71v509q0 73 46.5 120.5t123.5 47.5q67 0 113 -35t46 -90q0 -36 -19.5 -63.5t-42.5 -42.5t-42.5 -36t-19.5 -45q0 -28 24 -47t58 -32t67.5 -29.5t57.5 -49.5t24 -81z" />
    <glyph glyph-name="agrave" unicode="&#xe0;" horiz-adv-x="451" 
d="M386 0h-72v52q-45 -64 -127 -64q-61 0 -103.5 44t-42.5 117t42 116t104 43q84 0 127 -62v84q0 49 -26 76t-73 27q-69 0 -121 -59l-32 51q67 70 164 70q75 0 117.5 -38.5t42.5 -118.5v-338zM210 40q70 0 104 61v92q-33 62 -104 62q-44 0 -70 -30.5t-26 -76.5t26 -77
t70 -31zM273 556h-52l-134 144h73z" />
    <glyph glyph-name="aacute" unicode="&#xe1;" horiz-adv-x="451" 
d="M386 0h-72v52q-45 -64 -127 -64q-61 0 -103.5 44t-42.5 117t42 116t104 43q84 0 127 -62v84q0 49 -26 76t-73 27q-69 0 -121 -59l-32 51q67 70 164 70q75 0 117.5 -38.5t42.5 -118.5v-338zM210 40q70 0 104 61v92q-33 62 -104 62q-44 0 -70 -30.5t-26 -76.5t26 -77
t70 -31zM365 700l-134 -144h-52l113 144h73z" />
    <glyph glyph-name="acircumflex" unicode="&#xe2;" horiz-adv-x="451" 
d="M386 0h-72v52q-45 -64 -127 -64q-61 0 -103.5 44t-42.5 117t42 116t104 43q84 0 127 -62v84q0 49 -26 76t-73 27q-69 0 -121 -59l-32 51q67 70 164 70q75 0 117.5 -38.5t42.5 -118.5v-338zM210 40q70 0 104 61v92q-33 62 -104 62q-44 0 -70 -30.5t-26 -76.5t26 -77
t70 -31zM345 556h-47l-71 105l-69 -105h-46l80 144h70z" />
    <glyph glyph-name="atilde" unicode="&#xe3;" horiz-adv-x="451" 
d="M386 0h-72v52q-45 -64 -127 -64q-61 0 -103.5 44t-42.5 117t42 116t104 43q84 0 127 -62v84q0 49 -26 76t-73 27q-69 0 -121 -59l-32 51q67 70 164 70q75 0 117.5 -38.5t42.5 -118.5v-338zM210 40q70 0 104 61v92q-33 62 -104 62q-44 0 -70 -30.5t-26 -76.5t26 -77
t70 -31zM277 554q-22 0 -37.5 14.5t-23 32.5t-18.5 32.5t-24 14.5q-18 0 -29 -22t-11 -66h-42q0 60 22 97t63 37q22 0 37.5 -14.5t23 -32t18.5 -32t24 -14.5q40 0 40 87h42q0 -60 -22 -97t-63 -37z" />
    <glyph glyph-name="adieresis" unicode="&#xe4;" horiz-adv-x="451" 
d="M386 0h-72v52q-45 -64 -127 -64q-61 0 -103.5 44t-42.5 117t42 116t104 43q84 0 127 -62v84q0 49 -26 76t-73 27q-69 0 -121 -59l-32 51q67 70 164 70q75 0 117.5 -38.5t42.5 -118.5v-338zM210 40q70 0 104 61v92q-33 62 -104 62q-44 0 -70 -30.5t-26 -76.5t26 -77
t70 -31zM358 603q0 -18 -13.5 -31t-31.5 -13q-19 0 -32 13t-13 31q0 19 13 32t32 13q18 0 31.5 -13t13.5 -32zM184 603q0 -18 -13 -31t-32 -13q-18 0 -31.5 13t-13.5 31q0 19 13.5 32t31.5 13q19 0 32 -13t13 -32z" />
    <glyph glyph-name="aring" unicode="&#xe5;" horiz-adv-x="451" 
d="M386 0h-72v52q-45 -64 -127 -64q-61 0 -103.5 44t-42.5 117t42 116t104 43q84 0 127 -62v84q0 49 -26 76t-73 27q-69 0 -121 -59l-32 51q67 70 164 70q75 0 117.5 -38.5t42.5 -118.5v-338zM210 40q70 0 104 61v92q-33 62 -104 62q-44 0 -70 -30.5t-26 -76.5t26 -77
t70 -31zM227 544q-37 0 -64 27t-27 64t27 64t64 27t63.5 -26.5t26.5 -64.5t-26.5 -64.5t-63.5 -26.5zM227 582q22 0 37 15.5t15 37.5t-15 37.5t-37 15.5t-37.5 -15.5t-15.5 -37.5t15.5 -37.5t37.5 -15.5z" />
    <glyph glyph-name="ae" unicode="&#xe6;" horiz-adv-x="736" 
d="M697 218h-297q2 -75 36.5 -122.5t93.5 -47.5q65 0 109 60l38 -43q-63 -77 -152 -77q-108 0 -159 103q-21 -46 -63 -74.5t-98 -28.5q-73 0 -118.5 43t-45.5 117q0 73 43 116.5t109 43.5q88 0 136 -61v83q0 49 -27.5 76t-77.5 27q-74 0 -130 -59l-32 51q69 70 168 70
q55 0 93 -25t48 -71q47 96 144 96q88 0 135 -72t47 -184v-21zM399 271h227q0 65 -27.5 114.5t-85.5 49.5q-55 0 -83.5 -50.5t-30.5 -113.5zM329 174v19q-38 62 -112 62q-47 0 -75 -28t-28 -76t28 -76t75 -28q49 0 80.5 37t31.5 90z" />
    <glyph glyph-name="ccedilla" unicode="&#xe7;" horiz-adv-x="406" 
d="M242 -189q-52 0 -89 30l18 37q31 -28 70 -28q22 0 38 11.5t16 30.5q0 34 -33 34q-20 0 -33 -15l-32 18l22 61q-81 9 -129 79.5t-48 172.5q0 110 54.5 181.5t145.5 71.5q86 0 138 -64l-39 -49q-36 49 -93 49q-62 0 -96.5 -54t-34.5 -135t34.5 -135.5t96.5 -54.5
q56 0 93 49l39 -49q-46 -58 -119 -63l-16 -43q12 11 33 11q26 0 43 -18t17 -48q0 -35 -27.5 -57.5t-68.5 -22.5z" />
    <glyph glyph-name="egrave" unicode="&#xe8;" horiz-adv-x="468" 
d="M249 -12q-95 0 -151 70.5t-56 183.5q0 108 53.5 180.5t142.5 72.5q92 0 141.5 -72t49.5 -183v-22h-313q2 -75 39 -122.5t100 -47.5q68 0 115 59l38 -42q-63 -77 -159 -77zM358 271q-1 65 -31 114.5t-90 49.5q-58 0 -88.5 -50.5t-32.5 -113.5h242zM285 556h-52l-134 144
h73z" />
    <glyph glyph-name="eacute" unicode="&#xe9;" horiz-adv-x="468" 
d="M377 700l-134 -144h-52l113 144h73zM249 -12q-95 0 -151 70.5t-56 183.5q0 108 53.5 180.5t142.5 72.5q92 0 141.5 -72t49.5 -183v-22h-313q2 -75 39 -122.5t100 -47.5q68 0 115 59l38 -42q-63 -77 -159 -77zM358 271q-1 65 -31 114.5t-90 49.5q-58 0 -88.5 -50.5
t-32.5 -113.5h242z" />
    <glyph glyph-name="ecircumflex" unicode="&#xea;" horiz-adv-x="468" 
d="M356 556h-47l-71 105l-69 -105h-46l80 144h70zM249 -12q-95 0 -151 70.5t-56 183.5q0 108 53.5 180.5t142.5 72.5q92 0 141.5 -72t49.5 -183v-22h-313q2 -75 39 -122.5t100 -47.5q68 0 115 59l38 -42q-63 -77 -159 -77zM358 271q-1 65 -31 114.5t-90 49.5
q-58 0 -88.5 -50.5t-32.5 -113.5h242z" />
    <glyph glyph-name="edieresis" unicode="&#xeb;" horiz-adv-x="468" 
d="M370 603q0 -18 -13.5 -31t-31.5 -13q-19 0 -32 13t-13 31q0 19 13 32t32 13q18 0 31.5 -13t13.5 -32zM196 603q0 -18 -13 -31t-32 -13q-18 0 -31.5 13t-13.5 31q0 19 13.5 32t31.5 13q19 0 32 -13t13 -32zM249 -12q-95 0 -151 70.5t-56 183.5q0 108 53.5 180.5
t142.5 72.5q92 0 141.5 -72t49.5 -183v-22h-313q2 -75 39 -122.5t100 -47.5q68 0 115 59l38 -42q-63 -77 -159 -77zM358 271q-1 65 -31 114.5t-90 49.5q-58 0 -88.5 -50.5t-32.5 -113.5h242z" />
    <glyph glyph-name="igrave" unicode="&#xec;" horiz-adv-x="203" 
d="M137 0h-71v483h71v-483zM148 556h-52l-134 144h73z" />
    <glyph glyph-name="iacute" unicode="&#xed;" horiz-adv-x="203" 
d="M241 700l-134 -144h-52l113 144h73zM137 0h-71v483h71v-483z" />
    <glyph glyph-name="icircumflex" unicode="&#xee;" horiz-adv-x="203" 
d="M218 556h-47l-71 105l-69 -105h-46l80 144h70zM137 0h-71v483h71v-483z" />
    <glyph glyph-name="idieresis" unicode="&#xef;" horiz-adv-x="203" 
d="M233 603q0 -18 -13.5 -31t-31.5 -13q-19 0 -32 13t-13 31q0 19 13 32t32 13q18 0 31.5 -13t13.5 -32zM59 603q0 -18 -13 -31t-32 -13q-18 0 -31.5 13t-13.5 31q0 19 13.5 32t31.5 13q19 0 32 -13t13 -32zM137 0h-71v483h71v-483z" />
    <glyph glyph-name="eth" unicode="&#xf0;" horiz-adv-x="477" 
d="M120 505l-18 40l111 49q-38 38 -58 55l51 46q42 -38 71 -73l92 41l17 -39l-80 -36q129 -163 129 -337q0 -116 -51.5 -189.5t-145.5 -73.5q-92 0 -144 70.5t-52 176.5q0 104 48.5 174.5t131.5 70.5q75 0 120 -75q-36 83 -99 155zM238 52q60 0 91 53t31 130q0 76 -31 128.5
t-91 52.5q-59 0 -90 -53t-31 -128q0 -76 31 -129.5t90 -53.5z" />
    <glyph glyph-name="ntilde" unicode="&#xf1;" 
d="M399 0h-72v344q0 87 -77 87q-34 0 -64.5 -22.5t-48.5 -54.5v-354h-71v483h71v-69q23 34 61 57.5t79 23.5q122 0 122 -131v-364zM284 554q-22 0 -37.5 14.5t-23 32.5t-18.5 32.5t-24 14.5q-18 0 -29 -22t-11 -66h-42q0 60 22 97t63 37q22 0 37.5 -14.5t23 -32t18.5 -32
t24 -14.5q40 0 40 87h42q0 -60 -22 -97t-63 -37z" />
    <glyph glyph-name="ograve" unicode="&#xf2;" horiz-adv-x="477" 
d="M238 -12q-92 0 -144 73t-52 181q0 107 52 180t144 73q93 0 145 -72.5t52 -180.5t-52 -181t-145 -73zM238 52q60 0 91 55t31 135q0 79 -31 134t-91 55q-59 0 -90 -55t-31 -134q0 -80 31 -135t90 -55zM286 556h-52l-134 144h73z" />
    <glyph glyph-name="oacute" unicode="&#xf3;" horiz-adv-x="477" 
d="M378 700l-134 -144h-52l113 144h73zM238 -12q-92 0 -144 73t-52 181q0 107 52 180t144 73q93 0 145 -72.5t52 -180.5t-52 -181t-145 -73zM238 52q60 0 91 55t31 135q0 79 -31 134t-91 55q-59 0 -90 -55t-31 -134q0 -80 31 -135t90 -55z" />
    <glyph glyph-name="ocircumflex" unicode="&#xf4;" horiz-adv-x="477" 
d="M356 556h-47l-71 105l-69 -105h-46l80 144h70zM238 -12q-92 0 -144 73t-52 181q0 107 52 180t144 73q93 0 145 -72.5t52 -180.5t-52 -181t-145 -73zM238 52q60 0 91 55t31 135q0 79 -31 134t-91 55q-59 0 -90 -55t-31 -134q0 -80 31 -135t90 -55z" />
    <glyph glyph-name="otilde" unicode="&#xf5;" horiz-adv-x="477" 
d="M238 -12q-92 0 -144 73t-52 181q0 107 52 180t144 73q93 0 145 -72.5t52 -180.5t-52 -181t-145 -73zM238 52q60 0 91 55t31 135q0 79 -31 134t-91 55q-59 0 -90 -55t-31 -134q0 -80 31 -135t90 -55zM289 554q-22 0 -37.5 14.5t-23 32.5t-18.5 32.5t-24 14.5
q-18 0 -29 -22t-11 -66h-42q0 60 22 97t63 37q22 0 37.5 -14.5t23 -32t18.5 -32t24 -14.5q40 0 40 87h42q0 -60 -22 -97t-63 -37z" />
    <glyph glyph-name="odieresis" unicode="&#xf6;" horiz-adv-x="477" 
d="M371 603q0 -18 -13.5 -31t-31.5 -13q-19 0 -32 13t-13 31q0 19 13 32t32 13q18 0 31.5 -13t13.5 -32zM197 603q0 -18 -13 -31t-32 -13q-18 0 -31.5 13t-13.5 31q0 19 13.5 32t31.5 13q19 0 32 -13t13 -32zM238 -12q-92 0 -144 73t-52 181q0 107 52 180t144 73
q93 0 145 -72.5t52 -180.5t-52 -181t-145 -73zM238 52q60 0 91 55t31 135q0 79 -31 134t-91 55q-59 0 -90 -55t-31 -134q0 -80 31 -135t90 -55z" />
    <glyph glyph-name="divide" unicode="&#xf7;" horiz-adv-x="443" 
d="M267 502q0 -18 -13 -31.5t-32 -13.5t-32 13.5t-13 31.5q0 19 13 32t32 13t32 -13t13 -32zM414 312h-385v51h385v-51zM267 168q0 -19 -13 -32t-32 -13t-32 13t-13 32q0 18 13 31.5t32 13.5t32 -13.5t13 -31.5z" />
    <glyph glyph-name="oslash" unicode="&#xf8;" horiz-adv-x="477" 
d="M104 0h-49l39 60q-52 72 -52 182q0 107 52 180t144 73q66 0 113 -39l17 27h50l-38 -58q55 -70 55 -183q0 -108 -52 -181t-145 -73q-68 0 -115 41zM238 52q60 0 91 55t31 135q0 66 -23 117l-176 -271q31 -36 77 -36zM117 242q0 -66 21 -115l175 271q-31 33 -75 33
q-59 0 -90 -55t-31 -134z" />
    <glyph glyph-name="ugrave" unicode="&#xf9;" 
d="M399 0h-72v67q-24 -34 -60.5 -56.5t-79.5 -22.5q-121 0 -121 129v366h71v-345q0 -86 77 -86q35 0 65.5 21.5t47.5 53.5v356h72v-483zM279 556h-52l-134 144h73z" />
    <glyph glyph-name="uacute" unicode="&#xfa;" 
d="M371 700l-134 -144h-52l113 144h73zM399 0h-72v67q-24 -34 -60.5 -56.5t-79.5 -22.5q-121 0 -121 129v366h71v-345q0 -86 77 -86q35 0 65.5 21.5t47.5 53.5v356h72v-483z" />
    <glyph glyph-name="ucircumflex" unicode="&#xfb;" 
d="M349 556h-47l-71 105l-69 -105h-46l80 144h70zM399 0h-72v67q-24 -34 -60.5 -56.5t-79.5 -22.5q-121 0 -121 129v366h71v-345q0 -86 77 -86q35 0 65.5 21.5t47.5 53.5v356h72v-483z" />
    <glyph glyph-name="udieresis" unicode="&#xfc;" 
d="M366 603q0 -18 -13.5 -31t-31.5 -13q-19 0 -32 13t-13 31q0 19 13 32t32 13q18 0 31.5 -13t13.5 -32zM192 603q0 -18 -13 -31t-32 -13q-18 0 -31.5 13t-13.5 31q0 19 13.5 32t31.5 13q19 0 32 -13t13 -32zM399 0h-72v67q-24 -34 -60.5 -56.5t-79.5 -22.5q-121 0 -121 129
v366h71v-345q0 -86 77 -86q35 0 65.5 21.5t47.5 53.5v356h72v-483z" />
    <glyph glyph-name="yacute" unicode="&#xfd;" horiz-adv-x="408" 
d="M41 -189l11 64q13 -7 32 -7q22 0 34.5 10.5t22.5 37.5l26 74l-161 493h78l120 -396l121 396h77l-193 -585q-17 -51 -46.5 -72.5t-73.5 -21.5q-29 0 -48 7zM343 700l-134 -144h-52l113 144h73z" />
    <glyph glyph-name="thorn" unicode="&#xfe;" horiz-adv-x="478" 
d="M264 -12q-83 0 -127 80v-252h-71v851h71v-251q21 37 54.5 58t72.5 21q81 0 127 -69t46 -184t-46 -184.5t-127 -69.5zM246 52q57 0 86.5 53.5t29.5 136.5t-29.5 136t-86.5 53q-33 0 -63.5 -22.5t-45.5 -55.5v-221q15 -33 45.5 -56.5t63.5 -23.5z" />
    <glyph glyph-name="ydieresis" unicode="&#xff;" horiz-adv-x="408" 
d="M41 -189l11 64q13 -7 32 -7q22 0 34.5 10.5t22.5 37.5l26 74l-161 493h78l120 -396l121 396h77l-193 -585q-17 -51 -46.5 -72.5t-73.5 -21.5q-29 0 -48 7zM337 603q0 -18 -13.5 -31t-31.5 -13q-19 0 -32 13t-13 31q0 19 13 32t32 13q18 0 31.5 -13t13.5 -32zM163 603
q0 -18 -13 -31t-32 -13q-18 0 -31.5 13t-13.5 31q0 19 13.5 32t31.5 13q19 0 32 -13t13 -32z" />
    <glyph glyph-name="Amacron" unicode="&#x100;" horiz-adv-x="511" 
d="M503 0h-86l-43 151h-237l-43 -151h-86l200 667h95zM357 221l-102 358l-101 -358h203zM408 740h-306v46h306v-46z" />
    <glyph glyph-name="amacron" unicode="&#x101;" horiz-adv-x="451" 
d="M386 0h-72v52q-45 -64 -127 -64q-61 0 -103.5 44t-42.5 117t42 116t104 43q84 0 127 -62v84q0 49 -26 76t-73 27q-69 0 -121 -59l-32 51q67 70 164 70q75 0 117.5 -38.5t42.5 -118.5v-338zM210 40q70 0 104 61v92q-33 62 -104 62q-44 0 -70 -30.5t-26 -76.5t26 -77
t70 -31zM379 573h-306v46h306v-46z" />
    <glyph glyph-name="Abreve" unicode="&#x102;" horiz-adv-x="511" 
d="M503 0h-86l-43 151h-237l-43 -151h-86l200 667h95zM357 221l-102 358l-101 -358h203zM403 786q-56 -74 -147 -74q-92 0 -148 74l37 30q39 -57 111 -57q71 0 110 57z" />
    <glyph glyph-name="abreve" unicode="&#x103;" horiz-adv-x="451" 
d="M386 0h-72v52q-45 -64 -127 -64q-61 0 -103.5 44t-42.5 117t42 116t104 43q84 0 127 -62v84q0 49 -26 76t-73 27q-69 0 -121 -59l-32 51q67 70 164 70q75 0 117.5 -38.5t42.5 -118.5v-338zM210 40q70 0 104 61v92q-33 62 -104 62q-44 0 -70 -30.5t-26 -76.5t26 -77
t70 -31zM373 619q-56 -74 -147 -74q-92 0 -148 74l37 30q39 -57 111 -57q71 0 110 57z" />
    <glyph glyph-name="Aogonek" unicode="&#x104;" horiz-adv-x="511" 
d="M511 -110l36 -20q-22 -56 -78 -56q-36 0 -58 20.5t-22 60.5q0 59 52 105h-24l-43 151h-237l-43 -151h-86l200 667h95l200 -667q-71 -41 -71 -103q0 -45 37 -45q31 0 42 38zM357 221l-102 358l-101 -358h203z" />
    <glyph glyph-name="aogonek" unicode="&#x105;" horiz-adv-x="451" 
d="M394 -110l36 -20q-22 -56 -78 -56q-36 0 -58 20.5t-22 60.5q0 59 52 105h-10v52q-45 -64 -127 -64q-61 0 -103.5 44t-42.5 117t42 116t104 43q84 0 127 -62v84q0 49 -26 76t-73 27q-69 0 -121 -59l-32 51q67 70 164 70q75 0 117.5 -38.5t42.5 -118.5v-338
q-71 -41 -71 -103q0 -45 37 -45q31 0 42 38zM210 40q70 0 104 61v92q-33 62 -104 62q-44 0 -70 -30.5t-26 -76.5t26 -77t70 -31z" />
    <glyph glyph-name="Cacute" unicode="&#x106;" horiz-adv-x="533" 
d="M445 867l-134 -144h-52l113 144h73zM306 -12q-118 0 -188.5 96.5t-70.5 248.5t70.5 248.5t188.5 96.5q127 0 195 -130l-66 -31q-45 90 -129 90q-80 0 -128.5 -77t-48.5 -197t48.5 -197t128.5 -77q87 0 130 99l67 -31q-69 -139 -197 -139z" />
    <glyph glyph-name="cacute" unicode="&#x107;" horiz-adv-x="406" 
d="M381 700l-134 -144h-52l113 144h73zM242 -12q-91 0 -145.5 72t-54.5 182t54.5 181.5t145.5 71.5q86 0 138 -64l-39 -49q-36 49 -93 49q-62 0 -96.5 -54t-34.5 -135t34.5 -135.5t96.5 -54.5q56 0 93 49l39 -49q-51 -64 -138 -64z" />
    <glyph glyph-name="Ccircumflex" unicode="&#x108;" horiz-adv-x="533" 
d="M423 723h-47l-71 105l-69 -105h-46l80 144h70zM306 -12q-118 0 -188.5 96.5t-70.5 248.5t70.5 248.5t188.5 96.5q127 0 195 -130l-66 -31q-45 90 -129 90q-80 0 -128.5 -77t-48.5 -197t48.5 -197t128.5 -77q87 0 130 99l67 -31q-69 -139 -197 -139z" />
    <glyph glyph-name="ccircumflex" unicode="&#x109;" horiz-adv-x="406" 
d="M360 556h-47l-71 105l-69 -105h-46l80 144h70zM242 -12q-91 0 -145.5 72t-54.5 182t54.5 181.5t145.5 71.5q86 0 138 -64l-39 -49q-36 49 -93 49q-62 0 -96.5 -54t-34.5 -135t34.5 -135.5t96.5 -54.5q56 0 93 49l39 -49q-51 -64 -138 -64z" />
    <glyph glyph-name="Cdotaccent" unicode="&#x10a;" horiz-adv-x="533" 
d="M306 -12q-118 0 -188.5 96.5t-70.5 248.5t70.5 248.5t188.5 96.5q127 0 195 -130l-66 -31q-45 90 -129 90q-80 0 -128.5 -77t-48.5 -197t48.5 -197t128.5 -77q87 0 130 99l67 -31q-69 -139 -197 -139zM306 723q-18 0 -32 13.5t-14 32.5q0 18 14 31.5t32 13.5q19 0 32 -13
t13 -32t-13 -32.5t-32 -13.5z" />
    <glyph glyph-name="cdotaccent" unicode="&#x10b;" horiz-adv-x="406" 
d="M242 -12q-91 0 -145.5 72t-54.5 182t54.5 181.5t145.5 71.5q86 0 138 -64l-39 -49q-36 49 -93 49q-62 0 -96.5 -54t-34.5 -135t34.5 -135.5t96.5 -54.5q56 0 93 49l39 -49q-51 -64 -138 -64zM244 556q-18 0 -32 13.5t-14 32.5q0 18 14 31.5t32 13.5q19 0 32 -13t13 -32
t-13 -32.5t-32 -13.5z" />
    <glyph glyph-name="Ccaron" unicode="&#x10c;" horiz-adv-x="533" 
d="M343 723h-70l-83 144h46l72 -106l68 106h47zM306 -12q-118 0 -188.5 96.5t-70.5 248.5t70.5 248.5t188.5 96.5q127 0 195 -130l-66 -31q-45 90 -129 90q-80 0 -128.5 -77t-48.5 -197t48.5 -197t128.5 -77q87 0 130 99l67 -31q-69 -139 -197 -139z" />
    <glyph glyph-name="ccaron" unicode="&#x10d;" horiz-adv-x="406" 
d="M280 556h-70l-83 144h46l72 -106l68 106h47zM242 -12q-91 0 -145.5 72t-54.5 182t54.5 181.5t145.5 71.5q86 0 138 -64l-39 -49q-36 49 -93 49q-62 0 -96.5 -54t-34.5 -135t34.5 -135.5t96.5 -54.5q56 0 93 49l39 -49q-51 -64 -138 -64z" />
    <glyph glyph-name="Dcaron" unicode="&#x10e;" horiz-adv-x="564" 
d="M317 723h-70l-83 144h46l72 -106l68 106h47zM248 0h-178v667h178q126 0 197 -93t71 -241t-70.5 -240.5t-197.5 -92.5zM248 71q89 0 137.5 72.5t48.5 189.5q0 118 -48 191t-138 73h-98v-526h98z" />
    <glyph glyph-name="dcaron" unicode="&#x10f;" horiz-adv-x="555" 
d="M560 614q0 -39 -20 -75t-51 -58l-31 25q23 16 39 40.5t18 46.5l-5 -1h-6q-17 0 -29 12t-12 30q0 19 13 32.5t32 13.5q22 0 37 -18t15 -48zM414 0h-72v69q-21 -37 -55 -59t-72 -22q-80 0 -126.5 69t-46.5 184q0 114 46 184t127 70q38 0 72 -21t55 -61v254h72v-667zM233 52
q34 0 64.5 23t44.5 55v222q-14 33 -45 56t-64 23q-57 0 -86.5 -53.5t-29.5 -136.5t29.5 -136t86.5 -53z" />
    <glyph glyph-name="Dcroat" unicode="&#x110;" horiz-adv-x="587" 
d="M272 0h-178v301h-78v57h78v309h178q126 0 197 -93t71 -241t-70.5 -240.5t-197.5 -92.5zM272 71q89 0 137.5 72.5t48.5 189.5q0 118 -48 191t-138 73h-98v-239h124v-57h-124v-230h98z" />
    <glyph glyph-name="dcroat" unicode="&#x111;" horiz-adv-x="484" 
d="M414 0h-72v69q-21 -37 -55 -59t-72 -22q-80 0 -126.5 69t-46.5 184q0 114 46 184t127 70q38 0 72 -21t55 -61v123h-138v46h138v85h72v-85h60v-46h-60v-536zM233 52q34 0 64.5 23t44.5 55v222q-14 33 -45 56t-64 23q-57 0 -86.5 -53.5t-29.5 -136.5t29.5 -136t86.5 -53z
" />
    <glyph glyph-name="Emacron" unicode="&#x112;" horiz-adv-x="461" 
d="M413 0h-343v667h343v-70h-263v-221h256v-70h-256v-235h263v-71zM395 740h-306v46h306v-46z" />
    <glyph glyph-name="emacron" unicode="&#x113;" horiz-adv-x="468" 
d="M249 -12q-95 0 -151 70.5t-56 183.5q0 108 53.5 180.5t142.5 72.5q92 0 141.5 -72t49.5 -183v-22h-313q2 -75 39 -122.5t100 -47.5q68 0 115 59l38 -42q-63 -77 -159 -77zM358 271q-1 65 -31 114.5t-90 49.5q-58 0 -88.5 -50.5t-32.5 -113.5h242zM391 573h-306v46h306
v-46z" />
    <glyph glyph-name="Ebreve" unicode="&#x114;" horiz-adv-x="461" 
d="M413 0h-343v667h343v-70h-263v-221h256v-70h-256v-235h263v-71zM391 786q-56 -74 -147 -74q-92 0 -148 74l37 30q39 -57 111 -57q71 0 110 57z" />
    <glyph glyph-name="ebreve" unicode="&#x115;" horiz-adv-x="468" 
d="M249 -12q-95 0 -151 70.5t-56 183.5q0 108 53.5 180.5t142.5 72.5q92 0 141.5 -72t49.5 -183v-22h-313q2 -75 39 -122.5t100 -47.5q68 0 115 59l38 -42q-63 -77 -159 -77zM358 271q-1 65 -31 114.5t-90 49.5q-58 0 -88.5 -50.5t-32.5 -113.5h242zM387 619
q-56 -74 -147 -74q-92 0 -148 74l37 30q39 -57 111 -57q71 0 110 57z" />
    <glyph glyph-name="Edotaccent" unicode="&#x116;" horiz-adv-x="461" 
d="M413 0h-343v667h343v-70h-263v-221h256v-70h-256v-235h263v-71zM247 723q-18 0 -32 13.5t-14 32.5q0 18 14 31.5t32 13.5q19 0 32 -13t13 -32t-13 -32.5t-32 -13.5z" />
    <glyph glyph-name="edotaccent" unicode="&#x117;" horiz-adv-x="468" 
d="M249 -12q-95 0 -151 70.5t-56 183.5q0 108 53.5 180.5t142.5 72.5q92 0 141.5 -72t49.5 -183v-22h-313q2 -75 39 -122.5t100 -47.5q68 0 115 59l38 -42q-63 -77 -159 -77zM358 271q-1 65 -31 114.5t-90 49.5q-58 0 -88.5 -50.5t-32.5 -113.5h242zM239 556q-18 0 -32 13.5
t-14 32.5q0 18 14 31.5t32 13.5q19 0 32 -13t13 -32t-13 -32.5t-32 -13.5z" />
    <glyph glyph-name="Eogonek" unicode="&#x118;" horiz-adv-x="461" 
d="M413 0q-71 -41 -71 -103q0 -45 37 -45q31 0 42 38l36 -20q-22 -56 -78 -56q-36 0 -58 20.5t-22 60.5q0 59 52 105h-281v667h343v-70h-263v-221h256v-70h-256v-235h263v-71z" />
    <glyph glyph-name="eogonek" unicode="&#x119;" horiz-adv-x="468" 
d="M327 -110l36 -20q-22 -56 -78 -56q-36 0 -58 20.5t-22 60.5q0 51 40 93q-94 1 -148.5 71.5t-54.5 182.5q0 108 53.5 180.5t142.5 72.5q92 0 141.5 -72t49.5 -183v-22h-313q2 -75 39 -122.5t100 -47.5q68 0 115 59l38 -42q-36 -45 -89 -65q-71 -41 -71 -103q0 -45 37 -45
q31 0 42 38zM358 271q-1 65 -31 114.5t-90 49.5q-58 0 -88.5 -50.5t-32.5 -113.5h242z" />
    <glyph glyph-name="Ecaron" unicode="&#x11a;" horiz-adv-x="461" 
d="M278 723h-70l-83 144h46l72 -106l68 106h47zM413 0h-343v667h343v-70h-263v-221h256v-70h-256v-235h263v-71z" />
    <glyph glyph-name="ecaron" unicode="&#x11b;" horiz-adv-x="468" 
d="M275 556h-70l-83 144h46l72 -106l68 106h47zM249 -12q-95 0 -151 70.5t-56 183.5q0 108 53.5 180.5t142.5 72.5q92 0 141.5 -72t49.5 -183v-22h-313q2 -75 39 -122.5t100 -47.5q68 0 115 59l38 -42q-63 -77 -159 -77zM358 271q-1 65 -31 114.5t-90 49.5
q-58 0 -88.5 -50.5t-32.5 -113.5h242z" />
    <glyph glyph-name="Gcircumflex" unicode="&#x11c;" horiz-adv-x="562" 
d="M425 723h-47l-71 105l-69 -105h-46l80 144h70zM306 -13q-117 0 -188 95.5t-71 250.5t71 250t188 95q129 0 198 -126l-64 -33q-47 88 -134 88q-80 0 -128.5 -75.5t-48.5 -198.5q0 -122 48.5 -198t128.5 -76q79 0 125 56v156h-159v70h235v-256q-79 -98 -201 -98z" />
    <glyph glyph-name="gcircumflex" unicode="&#x11d;" horiz-adv-x="479" 
d="M358 556h-47l-71 105l-69 -105h-46l80 144h70zM223 -196q-100 0 -161 61l33 56q48 -56 126 -56q53 0 87 32.5t34 98.5v81q-21 -38 -55 -60.5t-72 -22.5q-80 0 -126.5 67.5t-46.5 182.5q0 114 46 182.5t127 68.5t127 -82v70h72v-482q0 -104 -53.5 -150.5t-137.5 -46.5z
M233 58q33 0 64 23.5t45 56.5v214q-14 33 -45 56t-64 23q-57 0 -86.5 -52.5t-29.5 -134.5t29.5 -134t86.5 -52z" />
    <glyph glyph-name="Gbreve" unicode="&#x11e;" horiz-adv-x="562" 
d="M306 -13q-117 0 -188 95.5t-71 250.5t71 250t188 95q129 0 198 -126l-64 -33q-47 88 -134 88q-80 0 -128.5 -75.5t-48.5 -198.5q0 -122 48.5 -198t128.5 -76q79 0 125 56v156h-159v70h235v-256q-79 -98 -201 -98zM455 786q-56 -74 -147 -74q-92 0 -148 74l37 30
q39 -57 111 -57q71 0 110 57z" />
    <glyph glyph-name="gbreve" unicode="&#x11f;" horiz-adv-x="479" 
d="M223 -196q-100 0 -161 61l33 56q48 -56 126 -56q53 0 87 32.5t34 98.5v81q-21 -38 -55 -60.5t-72 -22.5q-80 0 -126.5 67.5t-46.5 182.5q0 114 46 182.5t127 68.5t127 -82v70h72v-482q0 -104 -53.5 -150.5t-137.5 -46.5zM233 58q33 0 64 23.5t45 56.5v214q-14 33 -45 56
t-64 23q-57 0 -86.5 -52.5t-29.5 -134.5t29.5 -134t86.5 -52zM388 619q-56 -74 -147 -74q-92 0 -148 74l37 30q39 -57 111 -57q71 0 110 57z" />
    <glyph glyph-name="Gdotaccent" unicode="&#x120;" horiz-adv-x="562" 
d="M306 -13q-117 0 -188 95.5t-71 250.5t71 250t188 95q129 0 198 -126l-64 -33q-47 88 -134 88q-80 0 -128.5 -75.5t-48.5 -198.5q0 -122 48.5 -198t128.5 -76q79 0 125 56v156h-159v70h235v-256q-79 -98 -201 -98zM307 723q-18 0 -32 13.5t-14 32.5q0 18 14 31.5t32 13.5
q19 0 32 -13t13 -32t-13 -32.5t-32 -13.5z" />
    <glyph glyph-name="gdotaccent" unicode="&#x121;" horiz-adv-x="479" 
d="M223 -196q-100 0 -161 61l33 56q48 -56 126 -56q53 0 87 32.5t34 98.5v81q-21 -38 -55 -60.5t-72 -22.5q-80 0 -126.5 67.5t-46.5 182.5q0 114 46 182.5t127 68.5t127 -82v70h72v-482q0 -104 -53.5 -150.5t-137.5 -46.5zM233 58q33 0 64 23.5t45 56.5v214q-14 33 -45 56
t-64 23q-57 0 -86.5 -52.5t-29.5 -134.5t29.5 -134t86.5 -52zM240 556q-18 0 -32 13.5t-14 32.5q0 18 14 31.5t32 13.5q19 0 32 -13t13 -32t-13 -32.5t-32 -13.5z" />
    <glyph glyph-name="Gcommaaccent" unicode="&#x122;" horiz-adv-x="562" 
d="M356 -138q0 -39 -20 -75t-51 -58l-31 25q23 16 39 40.5t18 46.5l-5 -1h-6q-17 0 -29 12t-12 30q0 19 13 32.5t32 13.5q22 0 37 -18t15 -48zM306 -13q-117 0 -188 95.5t-71 250.5t71 250t188 95q129 0 198 -126l-64 -33q-47 88 -134 88q-80 0 -128.5 -75.5t-48.5 -198.5
q0 -122 48.5 -198t128.5 -76q79 0 125 56v156h-159v70h235v-256q-79 -98 -201 -98z" />
    <glyph glyph-name="gcommaaccent" unicode="&#x123;" horiz-adv-x="479" 
d="M190 611q0 43 20 81.5t49 58.5l32 -26q-22 -15 -39 -39t-18 -46h2q2 1 3 1q17 0 31 -13t14 -31t-13.5 -31.5t-32.5 -13.5t-33.5 15t-14.5 44zM223 -196q-100 0 -161 61l33 56q48 -56 126 -56q53 0 87 32.5t34 98.5v81q-21 -38 -55 -60.5t-72 -22.5q-80 0 -126.5 67.5
t-46.5 182.5q0 114 46 182.5t127 68.5t127 -82v70h72v-482q0 -104 -53.5 -150.5t-137.5 -46.5zM233 58q33 0 64 23.5t45 56.5v214q-14 33 -45 56t-64 23q-57 0 -86.5 -52.5t-29.5 -134.5t29.5 -134t86.5 -52z" />
    <glyph glyph-name="Hcircumflex" unicode="&#x124;" horiz-adv-x="574" 
d="M402 723h-47l-71 105l-69 -105h-46l80 144h70zM504 0h-80v308h-274v-308h-80v667h80v-289h274v289h80v-667z" />
    <glyph glyph-name="hcircumflex" unicode="&#x125;" 
d="M350 723h-47l-71 105l-69 -105h-46l80 144h70zM399 0h-71v345q0 86 -78 86q-34 0 -64.5 -22.5t-48.5 -54.5v-354h-71v667h71v-253q22 34 61 57.5t80 23.5q121 0 121 -129v-366z" />
    <glyph glyph-name="Hbar" unicode="&#x126;" horiz-adv-x="605" 
d="M520 0h-80v308h-274v-308h-80v500h-70v46h70v121h80v-121h274v121h80v-121h62v-46h-62v-500zM166 378h274v122h-274v-122z" />
    <glyph glyph-name="hbar" unicode="&#x127;" horiz-adv-x="473" 
d="M285 536h-140v-122q23 34 61.5 57.5t79.5 23.5q121 0 121 -129v-366h-71v345q0 86 -78 86q-34 0 -64.5 -22.5t-48.5 -54.5v-354h-71v536h-59v46h59v85h71v-85h140v-46z" />
    <glyph glyph-name="Itilde" unicode="&#x128;" horiz-adv-x="220" 
d="M150 0h-80v667h80v-667zM161 721q-22 0 -37.5 14.5t-23 32.5t-18.5 32.5t-24 14.5q-18 0 -29 -22t-11 -66h-42q0 60 22 97t63 37q22 0 37.5 -14.5t23 -32t18.5 -32t24 -14.5q40 0 40 87h42q0 -60 -22 -97t-63 -37z" />
    <glyph glyph-name="itilde" unicode="&#x129;" horiz-adv-x="203" 
d="M137 0h-71v483h71v-483zM152 554q-22 0 -37.5 14.5t-23 32.5t-18.5 32.5t-24 14.5q-18 0 -29 -22t-11 -66h-42q0 60 22 97t63 37q22 0 37.5 -14.5t23 -32t18.5 -32t24 -14.5q40 0 40 87h42q0 -60 -22 -97t-63 -37z" />
    <glyph glyph-name="Imacron" unicode="&#x12a;" horiz-adv-x="220" 
d="M150 0h-80v667h80v-667zM263 740h-306v46h306v-46z" />
    <glyph glyph-name="imacron" unicode="&#x12b;" horiz-adv-x="203" 
d="M137 0h-71v483h71v-483zM255 573h-306v46h306v-46z" />
    <glyph glyph-name="Ibreve" unicode="&#x12c;" horiz-adv-x="220" 
d="M150 0h-80v667h80v-667zM258 786q-56 -74 -147 -74q-92 0 -148 74l37 30q39 -57 111 -57q71 0 110 57z" />
    <glyph glyph-name="ibreve" unicode="&#x12d;" horiz-adv-x="203" 
d="M137 0h-71v483h71v-483zM249 619q-56 -74 -147 -74q-92 0 -148 74l37 30q39 -57 111 -57q71 0 110 57z" />
    <glyph glyph-name="Iogonek" unicode="&#x12e;" horiz-adv-x="220" 
d="M157 -110l36 -20q-22 -56 -78 -56q-36 0 -58 20.5t-22 60.5q0 59 52 105h-17v667h80v-667h-1q-71 -41 -71 -103q0 -45 37 -45q31 0 42 38z" />
    <glyph glyph-name="iogonek" unicode="&#x12f;" horiz-adv-x="203" 
d="M145 -110l36 -20q-22 -56 -78 -56q-36 0 -58 20.5t-22 60.5q0 59 52 105h-9v483h71v-483q-71 -41 -71 -103q0 -45 37 -45q31 0 42 38zM101 553q-20 0 -34.5 14.5t-14.5 34.5t14.5 34.5t34.5 14.5t34.5 -14.5t14.5 -34.5t-14.5 -34.5t-34.5 -14.5z" />
    <glyph glyph-name="Idotaccent" unicode="&#x130;" horiz-adv-x="220" 
d="M150 0h-80v667h80v-667zM111 723q-18 0 -32 13.5t-14 32.5q0 18 14 31.5t32 13.5q19 0 32 -13t13 -32t-13 -32.5t-32 -13.5z" />
    <glyph glyph-name="dotlessi" unicode="&#x131;" horiz-adv-x="203" 
d="M137 0h-71v483h71v-483z" />
    <glyph glyph-name="IJ" unicode="&#x132;" horiz-adv-x="618" 
d="M150 0h-80v667h80v-667zM369 -12q-86 0 -140 61l36 62q42 -52 98 -52q50 0 78 30t28 84v494h79v-496q0 -91 -49 -137t-130 -46z" />
    <glyph glyph-name="ij" unicode="&#x133;" horiz-adv-x="406" 
d="M101 553q-20 0 -34.5 14.5t-14.5 34.5t14.5 34.5t34.5 14.5t34.5 -14.5t14.5 -34.5t-14.5 -34.5t-34.5 -14.5zM137 0h-71v483h71v-483zM304 553q-20 0 -34.5 14.5t-14.5 34.5t14.5 34.5t34.5 14.5t34.5 -14.5t14.5 -34.5t-14.5 -34.5t-34.5 -14.5zM220 -196q-51 0 -82 34
l26 53q21 -26 49 -26q56 0 56 76v542h71v-542q0 -137 -120 -137z" />
    <glyph glyph-name="Jcircumflex" unicode="&#x134;" horiz-adv-x="398" 
d="M405 723h-47l-71 105l-69 -105h-46l80 144h70zM149 -12q-86 0 -140 61l36 62q42 -52 98 -52q50 0 78 30t28 84v494h79v-496q0 -91 -49 -137t-130 -46z" />
    <glyph glyph-name="jcircumflex" unicode="&#x135;" horiz-adv-x="203" 
d="M220 556h-47l-71 105l-69 -105h-46l80 144h70zM17 -196q-51 0 -82 34l26 53q21 -26 49 -26q56 0 56 76v542h71v-542q0 -137 -120 -137z" />
    <glyph glyph-name="Kcommaaccent" unicode="&#x136;" horiz-adv-x="512" 
d="M312 -138q0 -39 -20 -75t-51 -58l-31 25q23 16 39 40.5t18 46.5l-5 -1h-6q-17 0 -29 12t-12 30q0 19 13 32.5t32 13.5q22 0 37 -18t15 -48zM496 0h-96l-195 294l-55 -80v-214h-80v667h80v-346l233 346h94l-223 -317z" />
    <glyph glyph-name="kcommaaccent" unicode="&#x137;" horiz-adv-x="438" 
d="M275 -138q0 -39 -20 -75t-51 -58l-31 25q23 16 39 40.5t18 46.5l-4 -1h-7q-17 0 -29 12t-12 30q0 19 13 32.5t32 13.5q22 0 37 -18t15 -48zM423 0h-85l-133 218l-68 -87v-131h-71v667h71v-446l201 262h85l-169 -217z" />
    <glyph glyph-name="kgreenlandic" unicode="&#x138;" horiz-adv-x="438" 
d="M423 0h-85l-133 218l-68 -87v-131h-71v483h71v-262l201 262h85l-169 -217z" />
    <glyph glyph-name="Lacute" unicode="&#x139;" horiz-adv-x="421" 
d="M370 867l-134 -144h-52l113 144h73zM391 0h-321v667h80v-596h241v-71z" />
    <glyph glyph-name="lacute" unicode="&#x13a;" horiz-adv-x="203" 
d="M241 867l-134 -144h-52l113 144h73zM137 0h-71v667h71v-667z" />
    <glyph glyph-name="Lcommaaccent" unicode="&#x13b;" horiz-adv-x="421" 
d="M274 -138q0 -39 -20 -75t-51 -58l-31 25q23 16 39 40.5t18 46.5l-5 -1h-6q-17 0 -29 12t-12 30q0 19 13 32.5t32 13.5q22 0 37 -18t15 -48zM391 0h-321v667h80v-596h241v-71z" />
    <glyph glyph-name="lcommaaccent" unicode="&#x13c;" horiz-adv-x="203" 
d="M158 -138q0 -39 -20 -75t-51 -58l-31 25q23 16 39 40.5t18 46.5l-5 -1h-6q-17 0 -29 12t-12 30q0 19 13 32.5t32 13.5q22 0 37 -18t15 -48zM137 0h-71v667h71v-667z" />
    <glyph glyph-name="Lcaron" unicode="&#x13d;" horiz-adv-x="421" 
d="M321 614q0 -39 -20 -75t-51 -58l-31 25q23 16 39 40.5t18 46.5l-4 -1h-7q-17 0 -29 12t-12 30q0 19 13 32.5t32 13.5q22 0 37 -18t15 -48zM391 0h-321v667h80v-596h241v-71z" />
    <glyph glyph-name="lcaron" unicode="&#x13e;" horiz-adv-x="276" 
d="M297 614q0 -39 -20 -75t-51 -58l-31 25q23 16 39 40.5t18 46.5l-4 -1h-7q-17 0 -29 12t-12 30q0 19 13 32.5t32 13.5q22 0 37 -18t15 -48zM137 0h-71v667h71v-667z" />
    <glyph glyph-name="Ldot" unicode="&#x13f;" horiz-adv-x="436" 
d="M391 0h-321v667h80v-596h241v-71zM379 342q0 -22 -16 -38t-38 -16t-37.5 16t-15.5 38q0 21 15.5 37t37.5 16t38 -16t16 -37z" />
    <glyph glyph-name="ldot" unicode="&#x140;" horiz-adv-x="297" 
d="M137 0h-71v667h71v-667zM304 245q0 -22 -16 -38t-38 -16t-37.5 16t-15.5 38q0 21 15.5 37t37.5 16t38 -16t16 -37z" />
    <glyph glyph-name="Lslash" unicode="&#x141;" horiz-adv-x="438" 
d="M16 234v69l70 41v323h80v-277l78 46v-70l-78 -45v-250h241v-71h-321v274z" />
    <glyph glyph-name="lslash" unicode="&#x142;" horiz-adv-x="254" 
d="M16 245v58l76 43v321h71v-280l75 43v-58l-75 -43v-329h-71v288z" />
    <glyph glyph-name="Nacute" unicode="&#x143;" horiz-adv-x="572" 
d="M429 867l-134 -144h-52l113 144h73zM502 0h-77l-275 497v-497h-80v667h80l272 -487v487h80v-667z" />
    <glyph glyph-name="nacute" unicode="&#x144;" 
d="M371 700l-134 -144h-52l113 144h73zM399 0h-72v344q0 87 -77 87q-34 0 -64.5 -22.5t-48.5 -54.5v-354h-71v483h71v-69q23 34 61 57.5t79 23.5q122 0 122 -131v-364z" />
    <glyph glyph-name="Ncommaaccent" unicode="&#x145;" horiz-adv-x="572" 
d="M342 -138q0 -39 -20 -75t-51 -58l-31 25q23 16 39 40.5t18 46.5l-5 -1h-6q-17 0 -29 12t-12 30q0 19 13 32.5t32 13.5q22 0 37 -18t15 -48zM502 0h-77l-275 497v-497h-80v667h80l272 -487v487h80v-667z" />
    <glyph glyph-name="ncommaaccent" unicode="&#x146;" 
d="M287 -138q0 -39 -20 -75t-51 -58l-31 25q23 16 39 40.5t18 46.5l-4 -1h-7q-17 0 -29 12t-12 30q0 19 13 32.5t32 13.5q22 0 37 -18t15 -48zM399 0h-72v344q0 87 -77 87q-34 0 -64.5 -22.5t-48.5 -54.5v-354h-71v483h71v-69q23 34 61 57.5t79 23.5q122 0 122 -131v-364z
" />
    <glyph glyph-name="Ncaron" unicode="&#x147;" horiz-adv-x="572" 
d="M322 723h-70l-83 144h46l72 -106l68 106h47zM502 0h-77l-275 497v-497h-80v667h80l272 -487v487h80v-667z" />
    <glyph glyph-name="ncaron" unicode="&#x148;" 
d="M269 556h-70l-83 144h46l72 -106l68 106h47zM399 0h-72v344q0 87 -77 87q-34 0 -64.5 -22.5t-48.5 -54.5v-354h-71v483h71v-69q23 34 61 57.5t79 23.5q122 0 122 -131v-364z" />
    <glyph glyph-name="napostrophe" unicode="&#x149;" 
d="M151 676q0 -39 -20 -75t-51 -58l-31 25q23 16 39 40.5t18 46.5l-4 -1h-7q-17 0 -29 12t-12 30q0 19 13 32.5t32 13.5q22 0 37 -18t15 -48zM399 0h-72v344q0 87 -77 87q-34 0 -64.5 -22.5t-48.5 -54.5v-354h-71v483h71v-69q23 34 61 57.5t79 23.5q122 0 122 -131v-364z
" />
    <glyph glyph-name="Eng" unicode="&#x14a;" horiz-adv-x="572" 
d="M323 -196q-86 0 -140 61l36 61q40 -52 98 -52q49 0 77 30t28 84v17l-272 504v-509h-80v667h80l272 -499v499h80v-681q0 -91 -49 -136.5t-130 -45.5z" />
    <glyph glyph-name="eng" unicode="&#x14b;" 
d="M399 364v-423q0 -137 -120 -137q-49 0 -82 34l26 55q20 -25 49 -25q55 0 55 73v403q0 87 -77 87q-34 0 -64.5 -22.5t-48.5 -54.5v-354h-71v483h71v-69q23 34 61 57.5t79 23.5q122 0 122 -131z" />
    <glyph glyph-name="Omacron" unicode="&#x14c;" horiz-adv-x="599" 
d="M452 740h-306v46h306v-46zM299 -12q-118 0 -185 97.5t-67 247.5t67 247.5t185 97.5t185.5 -97.5t67.5 -247.5t-67.5 -247.5t-185.5 -97.5zM299 59q80 0 125.5 77.5t45.5 196.5q0 120 -45 197t-126 77q-80 0 -125 -77t-45 -197q0 -119 45 -196.5t125 -77.5z" />
    <glyph glyph-name="omacron" unicode="&#x14d;" horiz-adv-x="477" 
d="M392 573h-306v46h306v-46zM238 -12q-92 0 -144 73t-52 181q0 107 52 180t144 73q93 0 145 -72.5t52 -180.5t-52 -181t-145 -73zM238 52q60 0 91 55t31 135q0 79 -31 134t-91 55q-59 0 -90 -55t-31 -134q0 -80 31 -135t90 -55z" />
    <glyph glyph-name="Obreve" unicode="&#x14e;" horiz-adv-x="599" 
d="M299 -12q-118 0 -185 97.5t-67 247.5t67 247.5t185 97.5t185.5 -97.5t67.5 -247.5t-67.5 -247.5t-185.5 -97.5zM299 59q80 0 125.5 77.5t45.5 196.5q0 120 -45 197t-126 77q-80 0 -125 -77t-45 -197q0 -119 45 -196.5t125 -77.5zM447 786q-56 -74 -147 -74q-92 0 -148 74
l37 30q39 -57 111 -57q71 0 110 57z" />
    <glyph glyph-name="obreve" unicode="&#x14f;" horiz-adv-x="477" 
d="M238 -12q-92 0 -144 73t-52 181q0 107 52 180t144 73q93 0 145 -72.5t52 -180.5t-52 -181t-145 -73zM238 52q60 0 91 55t31 135q0 79 -31 134t-91 55q-59 0 -90 -55t-31 -134q0 -80 31 -135t90 -55zM386 619q-56 -74 -147 -74q-92 0 -148 74l37 30q39 -57 111 -57
q71 0 110 57z" />
    <glyph glyph-name="Ohungarumlaut" unicode="&#x150;" horiz-adv-x="599" 
d="M340 867l-96 -144h-43l75 144h64zM469 867l-96 -144h-43l75 144h64zM299 -12q-118 0 -185 97.5t-67 247.5t67 247.5t185 97.5t185.5 -97.5t67.5 -247.5t-67.5 -247.5t-185.5 -97.5zM299 59q80 0 125.5 77.5t45.5 196.5q0 120 -45 197t-126 77q-80 0 -125 -77t-45 -197
q0 -119 45 -196.5t125 -77.5z" />
    <glyph glyph-name="ohungarumlaut" unicode="&#x151;" horiz-adv-x="477" 
d="M279 700l-96 -144h-43l75 144h64zM408 700l-96 -144h-43l75 144h64zM238 -12q-92 0 -144 73t-52 181q0 107 52 180t144 73q93 0 145 -72.5t52 -180.5t-52 -181t-145 -73zM238 52q60 0 91 55t31 135q0 79 -31 134t-91 55q-59 0 -90 -55t-31 -134q0 -80 31 -135t90 -55z
" />
    <glyph glyph-name="OE" unicode="&#x152;" horiz-adv-x="850" 
d="M801 0h-343v93q-26 -53 -71.5 -79t-96.5 -26q-114 0 -178.5 97.5t-64.5 247.5q0 151 64.5 247.5t178.5 96.5q51 0 96.5 -25.5t71.5 -78.5v94h343v-70h-263v-221h256v-70h-256v-235h263v-71zM458 201v265q-20 68 -61 104t-96 36q-82 0 -127 -76.5t-45 -196.5t45 -197
t127 -77q54 0 95.5 37t61.5 105z" />
    <glyph glyph-name="oe" unicode="&#x153;" horiz-adv-x="785" 
d="M746 218h-312q2 -75 38.5 -122.5t99.5 -47.5q68 0 115 59l38 -42q-63 -77 -158 -77q-122 0 -170 124q-45 -124 -159 -124q-92 0 -144 73t-52 181q0 107 52 180t144 73q62 0 101 -35t58 -87q19 52 58.5 87t99.5 35q92 0 141.5 -72.5t49.5 -183.5v-21zM433 271h242
q-1 65 -31 114.5t-90 49.5q-58 0 -88.5 -50.5t-32.5 -113.5zM360 242q0 80 -31 134.5t-91 54.5q-58 0 -89.5 -55t-31.5 -134q0 -80 31.5 -135.5t89.5 -55.5q59 0 90.5 55.5t31.5 135.5z" />
    <glyph glyph-name="Racute" unicode="&#x154;" horiz-adv-x="509" 
d="M400 867l-134 -144h-52l113 144h73zM464 0h-90l-128 267h-96v-267h-80v667h204q81 0 132 -54t51 -145q0 -83 -39 -131t-94 -58zM265 337q51 0 80.5 36t29.5 94t-29.5 94t-80.5 36h-115v-260h115z" />
    <glyph glyph-name="racute" unicode="&#x155;" horiz-adv-x="291" 
d="M309 700l-134 -144h-52l113 144h73zM137 0h-71v483h71v-77q53 87 137 87v-74q-12 3 -24 3q-32 0 -64.5 -24t-48.5 -55v-343z" />
    <glyph glyph-name="Rcommaaccent" unicode="&#x156;" horiz-adv-x="509" 
d="M310 -138q0 -39 -20 -75t-51 -58l-31 25q23 16 39 40.5t18 46.5l-5 -1h-6q-17 0 -29 12t-12 30q0 19 13 32.5t32 13.5q22 0 37 -18t15 -48zM464 0h-90l-128 267h-96v-267h-80v667h204q81 0 132 -54t51 -145q0 -83 -39 -131t-94 -58zM265 337q51 0 80.5 36t29.5 94
t-29.5 94t-80.5 36h-115v-260h115z" />
    <glyph glyph-name="rcommaaccent" unicode="&#x157;" horiz-adv-x="291" 
d="M201 -138q0 -39 -20 -75t-51 -58l-31 25q23 16 39 40.5t18 46.5l-4 -1h-7q-17 0 -29 12t-12 30q0 19 13 32.5t32 13.5q22 0 37 -18t15 -48zM137 0h-71v483h71v-77q53 87 137 87v-74q-12 3 -24 3q-32 0 -64.5 -24t-48.5 -55v-343z" />
    <glyph glyph-name="Rcaron" unicode="&#x158;" horiz-adv-x="509" 
d="M291 723h-70l-83 144h46l72 -106l68 106h47zM464 0h-90l-128 267h-96v-267h-80v667h204q81 0 132 -54t51 -145q0 -83 -39 -131t-94 -58zM265 337q51 0 80.5 36t29.5 94t-29.5 94t-80.5 36h-115v-260h115z" />
    <glyph glyph-name="rcaron" unicode="&#x159;" horiz-adv-x="291" 
d="M204 556h-70l-83 144h46l72 -106l68 106h47zM137 0h-71v483h71v-77q53 87 137 87v-74q-12 3 -24 3q-32 0 -64.5 -24t-48.5 -55v-343z" />
    <glyph glyph-name="Sacute" unicode="&#x15a;" horiz-adv-x="470" 
d="M376 867l-134 -144h-52l113 144h73zM228 -12q-125 0 -199 84l44 61q61 -74 155 -74q60 0 91 31.5t31 77.5q0 44 -31 75.5t-75 51.5t-88.5 43t-75.5 64.5t-31 100.5q0 76 54 125.5t137 49.5q110 0 178 -70l-42 -60q-53 59 -138 59q-46 0 -77 -28t-31 -72q0 -33 22.5 -58.5
t55.5 -41t72.5 -36.5t72.5 -43t55.5 -62.5t22.5 -92.5q0 -79 -52.5 -132t-150.5 -53z" />
    <glyph glyph-name="sacute" unicode="&#x15b;" horiz-adv-x="387" 
d="M332 700l-134 -144h-52l113 144h73zM190 -12q-104 0 -163 68l36 51q50 -61 126 -61q42 0 67.5 21.5t25.5 56.5q0 31 -25 52t-60 34.5t-70.5 29.5t-60.5 47.5t-25 77.5q0 56 42 93t112 37q90 0 147 -62l-34 -49q-40 53 -112 53q-39 0 -62.5 -20t-23.5 -50q0 -28 25 -47
t60 -32.5t70.5 -30.5t60.5 -50t25 -81q0 -61 -44 -99.5t-117 -38.5z" />
    <glyph glyph-name="Scircumflex" unicode="&#x15c;" horiz-adv-x="470" 
d="M355 723h-47l-71 105l-69 -105h-46l80 144h70zM228 -12q-125 0 -199 84l44 61q61 -74 155 -74q60 0 91 31.5t31 77.5q0 44 -31 75.5t-75 51.5t-88.5 43t-75.5 64.5t-31 100.5q0 76 54 125.5t137 49.5q110 0 178 -70l-42 -60q-53 59 -138 59q-46 0 -77 -28t-31 -72
q0 -33 22.5 -58.5t55.5 -41t72.5 -36.5t72.5 -43t55.5 -62.5t22.5 -92.5q0 -79 -52.5 -132t-150.5 -53z" />
    <glyph glyph-name="scircumflex" unicode="&#x15d;" horiz-adv-x="387" 
d="M311 556h-47l-71 105l-69 -105h-46l80 144h70zM190 -12q-104 0 -163 68l36 51q50 -61 126 -61q42 0 67.5 21.5t25.5 56.5q0 31 -25 52t-60 34.5t-70.5 29.5t-60.5 47.5t-25 77.5q0 56 42 93t112 37q90 0 147 -62l-34 -49q-40 53 -112 53q-39 0 -62.5 -20t-23.5 -50
q0 -28 25 -47t60 -32.5t70.5 -30.5t60.5 -50t25 -81q0 -61 -44 -99.5t-117 -38.5z" />
    <glyph glyph-name="Scedilla" unicode="&#x15e;" horiz-adv-x="470" 
d="M223 -191q-52 0 -89 30l18 37q31 -28 70 -28q22 0 38 11.5t16 30.5q0 34 -33 34q-20 0 -33 -15l-32 18l23 62q-107 9 -172 83l44 61q61 -74 155 -74q60 0 91 31.5t31 77.5q0 44 -31 75.5t-75 51.5t-88.5 43t-75.5 64.5t-31 100.5q0 76 54 125.5t137 49.5q110 0 178 -70
l-42 -60q-53 59 -138 59q-46 0 -77 -28t-31 -72q0 -33 22.5 -58.5t55.5 -41t72.5 -36.5t72.5 -43t55.5 -62.5t22.5 -92.5q0 -76 -48.5 -128t-139.5 -56l-17 -45q12 11 33 11q26 0 43 -18t17 -48q0 -35 -27.5 -57.5t-68.5 -22.5z" />
    <glyph glyph-name="scedilla" unicode="&#x15f;" horiz-adv-x="387" 
d="M186 -191q-52 0 -89 30l18 37q31 -28 70 -28q22 0 38 11.5t16 30.5q0 34 -33 34q-20 0 -33 -15l-32 18l23 62q-85 8 -137 67l36 51q50 -61 126 -61q42 0 67.5 21.5t25.5 56.5q0 31 -25 52t-60 34.5t-70.5 29.5t-60.5 47.5t-25 77.5q0 56 42 93t112 37q90 0 147 -62
l-34 -49q-40 53 -112 53q-39 0 -62.5 -20t-23.5 -50q0 -28 25 -47t60 -32.5t70.5 -30.5t60.5 -50t25 -81q0 -58 -39 -95.5t-106 -41.5l-17 -45q12 11 33 11q26 0 43 -18t17 -48q0 -35 -27.5 -57.5t-68.5 -22.5z" />
    <glyph glyph-name="Scaron" unicode="&#x160;" horiz-adv-x="470" 
d="M275 723h-70l-83 144h46l72 -106l68 106h47zM228 -12q-125 0 -199 84l44 61q61 -74 155 -74q60 0 91 31.5t31 77.5q0 44 -31 75.5t-75 51.5t-88.5 43t-75.5 64.5t-31 100.5q0 76 54 125.5t137 49.5q110 0 178 -70l-42 -60q-53 59 -138 59q-46 0 -77 -28t-31 -72
q0 -33 22.5 -58.5t55.5 -41t72.5 -36.5t72.5 -43t55.5 -62.5t22.5 -92.5q0 -79 -52.5 -132t-150.5 -53z" />
    <glyph glyph-name="scaron" unicode="&#x161;" horiz-adv-x="387" 
d="M231 556h-70l-83 144h46l72 -106l68 106h47zM190 -12q-104 0 -163 68l36 51q50 -61 126 -61q42 0 67.5 21.5t25.5 56.5q0 31 -25 52t-60 34.5t-70.5 29.5t-60.5 47.5t-25 77.5q0 56 42 93t112 37q90 0 147 -62l-34 -49q-40 53 -112 53q-39 0 -62.5 -20t-23.5 -50
q0 -28 25 -47t60 -32.5t70.5 -30.5t60.5 -50t25 -81q0 -61 -44 -99.5t-117 -38.5z" />
    <glyph glyph-name="Tcommaaccent" unicode="&#x162;" horiz-adv-x="446" 
d="M278 -138q0 -39 -20 -75t-51 -58l-31 25q23 16 39 40.5t18 46.5l-5 -1h-6q-17 0 -29 12t-12 30q0 19 13 32.5t32 13.5q22 0 37 -18t15 -48zM262 0h-79v597h-158v70h396v-70h-159v-597z" />
    <glyph glyph-name="tcommaaccent" unicode="&#x163;" horiz-adv-x="263" 
d="M187 -138q0 -39 -20 -75t-51 -58l-31 25q23 16 39 40.5t18 46.5l-4 -1h-7q-17 0 -29 12t-12 30q0 19 13 32.5t32 13.5q22 0 37 -18t15 -48zM177 -12q-97 0 -97 109v323h-64v63h64v132h72v-132h82v-63h-82v-310q0 -58 39 -58q26 0 42 19l22 -54q-29 -29 -78 -29z" />
    <glyph glyph-name="Tcaron" unicode="&#x164;" horiz-adv-x="446" 
d="M260 723h-70l-83 144h46l72 -106l68 106h47zM262 0h-79v597h-158v70h396v-70h-159v-597z" />
    <glyph glyph-name="tcaron" unicode="&#x165;" horiz-adv-x="273" 
d="M305 676q0 -39 -20 -75t-51 -58l-31 25q23 16 39 40.5t18 46.5l-4 -1h-7q-17 0 -29 12t-12 30q0 19 13 32.5t32 13.5q22 0 37 -18t15 -48zM177 -12q-97 0 -97 109v323h-64v63h64v132h72v-132h82v-63h-82v-310q0 -58 39 -58q26 0 42 19l22 -54q-29 -29 -78 -29z" />
    <glyph glyph-name="Tbar" unicode="&#x166;" horiz-adv-x="446" 
d="M262 0h-79v296h-113v46h113v255h-158v70h396v-70h-159v-255h108v-46h-108v-296z" />
    <glyph glyph-name="tbar" unicode="&#x167;" horiz-adv-x="263" 
d="M177 -12q-97 0 -97 109v131h-64v46h64v146h-64v63h64v132h72v-132h82v-63h-82v-146h52v-46h-52v-118q0 -58 39 -58q26 0 42 19l22 -54q-29 -29 -78 -29z" />
    <glyph glyph-name="Utilde" unicode="&#x168;" horiz-adv-x="569" 
d="M284 -12q-101 0 -157.5 59.5t-56.5 168.5v451h80v-452q0 -77 35 -116.5t99 -39.5q65 0 100 39.5t35 116.5v452h79v-451q0 -110 -56 -169t-158 -59zM336 721q-22 0 -37.5 14.5t-23 32.5t-18.5 32.5t-24 14.5q-18 0 -29 -22t-11 -66h-42q0 60 22 97t63 37q22 0 37.5 -14.5
t23 -32t18.5 -32t24 -14.5q40 0 40 87h42q0 -60 -22 -97t-63 -37z" />
    <glyph glyph-name="utilde" unicode="&#x169;" 
d="M399 0h-72v67q-24 -34 -60.5 -56.5t-79.5 -22.5q-121 0 -121 129v366h71v-345q0 -86 77 -86q35 0 65.5 21.5t47.5 53.5v356h72v-483zM282 554q-22 0 -37.5 14.5t-23 32.5t-18.5 32.5t-24 14.5q-18 0 -29 -22t-11 -66h-42q0 60 22 97t63 37q22 0 37.5 -14.5t23 -32
t18.5 -32t24 -14.5q40 0 40 87h42q0 -60 -22 -97t-63 -37z" />
    <glyph glyph-name="Umacron" unicode="&#x16a;" horiz-adv-x="569" 
d="M284 -12q-101 0 -157.5 59.5t-56.5 168.5v451h80v-452q0 -77 35 -116.5t99 -39.5q65 0 100 39.5t35 116.5v452h79v-451q0 -110 -56 -169t-158 -59zM438 740h-306v46h306v-46z" />
    <glyph glyph-name="umacron" unicode="&#x16b;" 
d="M399 0h-72v67q-24 -34 -60.5 -56.5t-79.5 -22.5q-121 0 -121 129v366h71v-345q0 -86 77 -86q35 0 65.5 21.5t47.5 53.5v356h72v-483zM385 573h-306v46h306v-46z" />
    <glyph glyph-name="Ubreve" unicode="&#x16c;" horiz-adv-x="569" 
d="M284 -12q-101 0 -157.5 59.5t-56.5 168.5v451h80v-452q0 -77 35 -116.5t99 -39.5q65 0 100 39.5t35 116.5v452h79v-451q0 -110 -56 -169t-158 -59zM434 786q-56 -74 -147 -74q-92 0 -148 74l37 30q39 -57 111 -57q71 0 110 57z" />
    <glyph glyph-name="ubreve" unicode="&#x16d;" 
d="M399 0h-72v67q-24 -34 -60.5 -56.5t-79.5 -22.5q-121 0 -121 129v366h71v-345q0 -86 77 -86q35 0 65.5 21.5t47.5 53.5v356h72v-483zM380 619q-56 -74 -147 -74q-92 0 -148 74l37 30q39 -57 111 -57q71 0 110 57z" />
    <glyph glyph-name="Uring" unicode="&#x16e;" horiz-adv-x="569" 
d="M285 707q-37 0 -64 26.5t-27 64.5t27 64.5t64 26.5t63.5 -26.5t26.5 -64.5t-26.5 -64.5t-63.5 -26.5zM285 745q22 0 37 15.5t15 37.5t-15 37.5t-37 15.5t-37.5 -15.5t-15.5 -37.5t15.5 -37.5t37.5 -15.5zM284 -12q-101 0 -157.5 59.5t-56.5 168.5v451h80v-452
q0 -77 35 -116.5t99 -39.5q65 0 100 39.5t35 116.5v452h79v-451q0 -110 -56 -169t-158 -59z" />
    <glyph glyph-name="uring" unicode="&#x16f;" 
d="M233 544q-37 0 -64 27t-27 64t27 64t64 27t63.5 -26.5t26.5 -64.5t-26.5 -64.5t-63.5 -26.5zM233 582q22 0 37 15.5t15 37.5t-15 37.5t-37 15.5t-37.5 -15.5t-15.5 -37.5t15.5 -37.5t37.5 -15.5zM399 0h-72v67q-24 -34 -60.5 -56.5t-79.5 -22.5q-121 0 -121 129v366h71
v-345q0 -86 77 -86q35 0 65.5 21.5t47.5 53.5v356h72v-483z" />
    <glyph glyph-name="Uhungarumlaut" unicode="&#x170;" horiz-adv-x="569" 
d="M284 -12q-101 0 -157.5 59.5t-56.5 168.5v451h80v-452q0 -77 35 -116.5t99 -39.5q65 0 100 39.5t35 116.5v452h79v-451q0 -110 -56 -169t-158 -59zM326 867l-96 -144h-43l75 144h64zM455 867l-96 -144h-43l75 144h64z" />
    <glyph glyph-name="uhungarumlaut" unicode="&#x171;" 
d="M399 0h-72v67q-24 -34 -60.5 -56.5t-79.5 -22.5q-121 0 -121 129v366h71v-345q0 -86 77 -86q35 0 65.5 21.5t47.5 53.5v356h72v-483zM273 700l-96 -144h-43l75 144h64zM402 700l-96 -144h-43l75 144h64z" />
    <glyph glyph-name="Uogonek" unicode="&#x172;" horiz-adv-x="569" 
d="M284 -12q-101 0 -157.5 59.5t-56.5 168.5v451h80v-452q0 -77 35 -116.5t99 -39.5q65 0 100 39.5t35 116.5v452h79v-451q0 -85 -34 -140.5t-98 -75.5q-71 -41 -71 -103q0 -45 37 -45q31 0 42 38l36 -20q-22 -56 -78 -56q-36 0 -58 20.5t-22 60.5q0 51 40 93h-8z" />
    <glyph glyph-name="uogonek" unicode="&#x173;" 
d="M399 0q-71 -41 -71 -103q0 -45 37 -45q31 0 42 38l36 -20q-22 -56 -78 -56q-36 0 -58 20.5t-22 60.5q0 59 52 105h-10v67q-24 -34 -60.5 -56.5t-79.5 -22.5q-121 0 -121 129v366h71v-345q0 -86 77 -86q35 0 65.5 21.5t47.5 53.5v356h72v-483z" />
    <glyph glyph-name="Wcircumflex" unicode="&#x174;" horiz-adv-x="715" 
d="M475 723h-47l-71 105l-69 -105h-46l80 144h70zM551 0h-85l-109 526l-108 -526h-85l-148 667h85l109 -544l114 544h67l114 -544l109 544h85z" />
    <glyph glyph-name="wcircumflex" unicode="&#x175;" horiz-adv-x="638" 
d="M436 556h-47l-71 105l-69 -105h-46l80 144h70zM496 0h-74l-103 388l-104 -388h-73l-129 483h75l94 -386l102 386h68l103 -386l95 386h75z" />
    <glyph glyph-name="Ycircumflex" unicode="&#x176;" horiz-adv-x="499" 
d="M367 723h-47l-71 105l-69 -105h-46l80 144h70zM289 0h-79v282l-206 385h89l157 -308l157 308h88l-206 -385v-282z" />
    <glyph glyph-name="ycircumflex" unicode="&#x177;" horiz-adv-x="408" 
d="M41 -189l11 64q13 -7 32 -7q22 0 34.5 10.5t22.5 37.5l26 74l-161 493h78l120 -396l121 396h77l-193 -585q-17 -51 -46.5 -72.5t-73.5 -21.5q-29 0 -48 7zM322 556h-47l-71 105l-69 -105h-46l80 144h70z" />
    <glyph glyph-name="Ydieresis" unicode="&#x178;" horiz-adv-x="499" 
d="M384 770q0 -18 -13.5 -31t-31.5 -13q-19 0 -32 13t-13 31q0 19 13 32t32 13q18 0 31.5 -13t13.5 -32zM210 770q0 -18 -13 -31t-32 -13q-18 0 -31.5 13t-13.5 31q0 19 13.5 32t31.5 13q19 0 32 -13t13 -32zM289 0h-79v282l-206 385h89l157 -308l157 308h88l-206 -385v-282
z" />
    <glyph glyph-name="Zacute" unicode="&#x179;" horiz-adv-x="462" 
d="M370 867l-134 -144h-52l113 144h73zM422 0h-382v67l280 530h-280v70h375v-66l-281 -530h288v-71z" />
    <glyph glyph-name="zacute" unicode="&#x17a;" horiz-adv-x="387" 
d="M332 700l-134 -144h-52l113 144h73zM344 0h-301v56l209 364h-209v63h297v-55l-209 -365h213v-63z" />
    <glyph glyph-name="Zdotaccent" unicode="&#x17b;" horiz-adv-x="462" 
d="M422 0h-382v67l280 530h-280v70h375v-66l-281 -530h288v-71zM229 723q-18 0 -32 13.5t-14 32.5q0 18 14 31.5t32 13.5q19 0 32 -13t13 -32t-13 -32.5t-32 -13.5z" />
    <glyph glyph-name="zdotaccent" unicode="&#x17c;" horiz-adv-x="387" 
d="M344 0h-301v56l209 364h-209v63h297v-55l-209 -365h213v-63zM193 556q-18 0 -32 13.5t-14 32.5q0 18 14 31.5t32 13.5q19 0 32 -13t13 -32t-13 -32.5t-32 -13.5z" />
    <glyph glyph-name="Zcaron" unicode="&#x17d;" horiz-adv-x="462" 
d="M267 723h-70l-83 144h46l72 -106l68 106h47zM422 0h-382v67l280 530h-280v70h375v-66l-281 -530h288v-71z" />
    <glyph glyph-name="zcaron" unicode="&#x17e;" horiz-adv-x="387" 
d="M227 556h-70l-83 144h46l72 -106l68 106h47zM344 0h-301v56l209 364h-209v63h297v-55l-209 -365h213v-63z" />
    <glyph glyph-name="longs" unicode="&#x17f;" horiz-adv-x="254" 
d="M155 0h-72v420h-64v63h64v59q0 63 32.5 99t88.5 36q53 0 86 -32l-28 -53q-19 21 -47 21q-60 0 -60 -71v-542z" />
    <glyph glyph-name="florin" unicode="&#x192;" horiz-adv-x="398" 
d="M104 -161h-80l91 416h-57v65h72l50 228q13 58 54 93.5t96 35.5q51 0 80 -30l-34 -59q-13 19 -40 19q-29 0 -49.5 -20t-28.5 -54l-47 -213h114v-65h-129z" />
    <glyph glyph-name="Ohorn" unicode="&#x1a0;" horiz-adv-x="599" 
d="M299 -12q-118 0 -185 97.5t-67 247.5t67 247.5t185 97.5q121 0 191 -107q39 34 42 74q-2 -2 -10 -2q-17 0 -28 12t-11 29t12 29.5t30 12.5q21 0 35 -16.5t14 -45.5q0 -37 -18.5 -70.5t-46.5 -54.5q43 -88 43 -206q0 -150 -67.5 -247.5t-185.5 -97.5zM299 59
q80 0 125.5 77.5t45.5 196.5q0 120 -45 197t-126 77q-80 0 -125 -77t-45 -197q0 -119 45 -196.5t125 -77.5z" />
    <glyph glyph-name="ohorn" unicode="&#x1a1;" horiz-adv-x="477" 
d="M447 530q0 -69 -57 -119q45 -67 45 -169q0 -108 -52 -181t-145 -73q-92 0 -144 73t-52 181q0 107 52 180t144 73q77 0 129 -55q34 32 39 71q-2 -2 -11 -2q-16 0 -27 12t-11 29t12 29.5t30 12.5q20 0 34 -16.5t14 -45.5zM238 52q60 0 91 55t31 135q0 79 -31 134t-91 55
q-59 0 -90 -55t-31 -134q0 -80 31 -135t90 -55z" />
    <glyph glyph-name="Uhorn" unicode="&#x1af;" horiz-adv-x="569" 
d="M602 729q0 -45 -27.5 -85.5t-76.5 -64.5v-363q0 -110 -56 -169t-158 -59q-101 0 -157.5 59.5t-56.5 168.5v451h80v-452q0 -77 35 -116.5t99 -39.5q65 0 100 39.5t35 116.5v452h79v-48q25 15 43 41t20 49q-1 0 -5 -0.5t-6 -0.5q-16 0 -27 11.5t-11 28.5q0 18 11.5 30
t29.5 12q21 0 35 -16.5t14 -44.5z" />
    <glyph glyph-name="uhorn" unicode="&#x1b0;" 
d="M399 0h-72v67q-24 -34 -60.5 -56.5t-79.5 -22.5q-121 0 -121 129v366h71v-345q0 -86 77 -86q35 0 65.5 21.5t47.5 53.5v356h72v-41q39 36 42 74q-7 -1 -10 -1q-17 0 -28 11.5t-11 28.5q0 18 12 30.5t30 12.5q21 0 35 -17t14 -45q0 -86 -84 -139v-397z" />
    <glyph glyph-name="AEacute" unicode="&#x1fc;" horiz-adv-x="751" 
d="M539 867l-134 -144h-52l113 144h73zM702 0h-342v151h-195l-69 -151h-85l316 667h375v-70h-263v-221h256v-70h-256v-235h263v-71zM360 221v358l-165 -358h165z" />
    <glyph glyph-name="aeacute" unicode="&#x1fd;" horiz-adv-x="736" 
d="M490 700l-134 -144h-52l113 144h73zM697 218h-297q2 -75 36.5 -122.5t93.5 -47.5q65 0 109 60l38 -43q-63 -77 -152 -77q-108 0 -159 103q-21 -46 -63 -74.5t-98 -28.5q-73 0 -118.5 43t-45.5 117q0 73 43 116.5t109 43.5q88 0 136 -61v83q0 49 -27.5 76t-77.5 27
q-74 0 -130 -59l-32 51q69 70 168 70q55 0 93 -25t48 -71q47 96 144 96q88 0 135 -72t47 -184v-21zM399 271h227q0 65 -27.5 114.5t-85.5 49.5q-55 0 -83.5 -50.5t-30.5 -113.5zM329 174v19q-38 62 -112 62q-47 0 -75 -28t-28 -76t28 -76t75 -28q49 0 80.5 37t31.5 90z" />
    <glyph glyph-name="Oslashacute" unicode="&#x1fe;" horiz-adv-x="599" 
d="M439 867l-134 -144h-52l113 144h73zM299 -12q-78 0 -135 45l-18 -33h-59l38 70q-78 96 -78 263q0 150 67 247.5t185 97.5q76 0 133 -44l18 33h59l-38 -70q81 -98 81 -264q0 -150 -67.5 -247.5t-185.5 -97.5zM299 59q80 0 125.5 77.5t45.5 196.5q0 115 -41 188l-228 -420
q40 -42 98 -42zM129 333q0 -112 38 -185l228 419q-42 40 -96 40q-80 0 -125 -77t-45 -197z" />
    <glyph glyph-name="oslashacute" unicode="&#x1ff;" horiz-adv-x="477" 
d="M378 700l-134 -144h-52l113 144h73zM104 0h-49l39 60q-52 72 -52 182q0 107 52 180t144 73q66 0 113 -39l17 27h50l-38 -58q55 -70 55 -183q0 -108 -52 -181t-145 -73q-68 0 -115 41zM238 52q60 0 91 55t31 135q0 66 -23 117l-176 -271q31 -36 77 -36zM117 242
q0 -66 21 -115l175 271q-31 33 -75 33q-59 0 -90 -55t-31 -134z" />
    <glyph glyph-name="Scommaaccent" unicode="&#x218;" horiz-adv-x="470" 
d="M285 -138q0 -39 -20 -75t-51 -58l-31 25q23 16 39 40.5t18 46.5l-4 -1h-7q-17 0 -29 12t-12 30q0 19 13 32.5t32 13.5q22 0 37 -18t15 -48zM228 -12q-125 0 -199 84l44 61q61 -74 155 -74q60 0 91 31.5t31 77.5q0 44 -31 75.5t-75 51.5t-88.5 43t-75.5 64.5t-31 100.5
q0 76 54 125.5t137 49.5q110 0 178 -70l-42 -60q-53 59 -138 59q-46 0 -77 -28t-31 -72q0 -33 22.5 -58.5t55.5 -41t72.5 -36.5t72.5 -43t55.5 -62.5t22.5 -92.5q0 -79 -52.5 -132t-150.5 -53z" />
    <glyph glyph-name="scommaaccent" unicode="&#x219;" horiz-adv-x="387" 
d="M250 -138q0 -39 -20 -75t-51 -58l-31 25q23 16 39 40.5t18 46.5l-5 -1h-6q-17 0 -29 12t-12 30q0 19 13 32.5t32 13.5q22 0 37 -18t15 -48zM190 -12q-104 0 -163 68l36 51q50 -61 126 -61q42 0 67.5 21.5t25.5 56.5q0 31 -25 52t-60 34.5t-70.5 29.5t-60.5 47.5t-25 77.5
q0 56 42 93t112 37q90 0 147 -62l-34 -49q-40 53 -112 53q-39 0 -62.5 -20t-23.5 -50q0 -28 25 -47t60 -32.5t70.5 -30.5t60.5 -50t25 -81q0 -61 -44 -99.5t-117 -38.5z" />
    <glyph glyph-name="uni021A" unicode="&#x21a;" horiz-adv-x="446" 
d="M278 -138q0 -39 -20 -75t-51 -58l-31 25q23 16 39 40.5t18 46.5l-5 -1h-6q-17 0 -29 12t-12 30q0 19 13 32.5t32 13.5q22 0 37 -18t15 -48zM262 0h-79v597h-158v70h396v-70h-159v-597z" />
    <glyph glyph-name="uni021B" unicode="&#x21b;" horiz-adv-x="263" 
d="M187 -138q0 -39 -20 -75t-51 -58l-31 25q23 16 39 40.5t18 46.5l-4 -1h-7q-17 0 -29 12t-12 30q0 19 13 32.5t32 13.5q22 0 37 -18t15 -48zM177 -12q-97 0 -97 109v323h-64v63h64v132h72v-132h82v-63h-82v-310q0 -58 39 -58q26 0 42 19l22 -54q-29 -29 -78 -29z" />
    <glyph glyph-name="uni0237" unicode="&#x237;" horiz-adv-x="203" 
d="M17 -196q-51 0 -82 34l26 53q21 -26 49 -26q56 0 56 76v542h71v-542q0 -137 -120 -137z" />
    <glyph glyph-name="hsuperior" unicode="&#x2b0;" horiz-adv-x="342" 
d="M290 326h-56v218q0 57 -52 57q-22 0 -42 -14t-32 -33v-228h-55v434h55v-164q15 21 41.5 36.5t54.5 15.5q86 0 86 -90v-232z" />
    <glyph glyph-name="uni02BC" unicode="&#x2bc;" horiz-adv-x="229" 
d="M173 603q0 -44 -22.5 -84t-57.5 -65l-36 30q24 16 42.5 42.5t21.5 50.5q-4 -2 -13 -2q-20 0 -33.5 14t-13.5 36q0 21 15 36.5t37 15.5q25 0 42.5 -20t17.5 -54z" />
    <glyph glyph-name="circumflex" unicode="&#x2c6;" horiz-adv-x="233" 
d="M233 556h-47l-71 105l-69 -105h-46l80 144h70z" />
    <glyph glyph-name="caron" unicode="&#x2c7;" horiz-adv-x="233" 
d="M153 556h-70l-83 144h46l72 -106l68 106h47z" />
    <glyph glyph-name="uni02C9" unicode="&#x2c9;" horiz-adv-x="306" 
d="M306 591h-306v47h306v-47z" />
    <glyph glyph-name="uni02CB" unicode="&#x2cb;" horiz-adv-x="186" 
d="M186 556h-52l-134 144h73z" />
    <glyph glyph-name="breve" unicode="&#x2d8;" horiz-adv-x="295" 
d="M295 619q-56 -74 -147 -74q-92 0 -148 74l37 30q39 -57 111 -57q71 0 110 57z" />
    <glyph glyph-name="dotaccent" unicode="&#x2d9;" horiz-adv-x="108" 
d="M54 556q-18 0 -32 13.5t-14 32.5q0 18 14 31.5t32 13.5q19 0 32 -13t13 -32t-13 -32.5t-32 -13.5z" />
    <glyph glyph-name="ring" unicode="&#x2da;" horiz-adv-x="181" 
d="M91 544q-37 0 -64 27t-27 64t27 64t64 27t63.5 -26.5t26.5 -64.5t-26.5 -64.5t-63.5 -26.5zM91 582q22 0 37 15.5t15 37.5t-15 37.5t-37 15.5t-37.5 -15.5t-15.5 -37.5t15.5 -37.5t37.5 -15.5z" />
    <glyph glyph-name="ogonek" unicode="&#x2db;" horiz-adv-x="158" 
d="M122 -110l36 -20q-22 -56 -78 -56q-36 0 -58 20.5t-22 60.5q0 76 82 127l32 -22q-71 -41 -71 -103q0 -45 37 -45q31 0 42 38z" />
    <glyph glyph-name="tilde" unicode="&#x2dc;" horiz-adv-x="270" 
d="M185 554q-22 0 -37.5 14.5t-23 32.5t-18.5 32.5t-24 14.5q-18 0 -29 -22t-11 -66h-42q0 60 22 97t63 37q22 0 37.5 -14.5t23 -32t18.5 -32t24 -14.5q40 0 40 87h42q0 -60 -22 -97t-63 -37z" />
    <glyph glyph-name="hungarumlaut" unicode="&#x2dd;" horiz-adv-x="268" 
d="M139 700l-96 -144h-43l75 144h64zM268 700l-96 -144h-43l75 144h64z" />
    <glyph glyph-name="hookabovecomb" unicode="&#x309;" horiz-adv-x="158" 
d="M46 731l-32 8q14 51 65 51q28 0 45.5 -16.5t17.5 -48.5q0 -29 -19 -58h-37q23 27 23 57q0 35 -30 35q-25 0 -33 -28z" />
    <glyph glyph-name="uni037E" unicode="&#x37e;" horiz-adv-x="228" 
d="M114 384q-22 0 -37.5 16t-15.5 37q0 22 15.5 37.5t37.5 15.5t38 -15.5t16 -37.5q0 -21 -16 -37t-38 -16zM173 24q0 -44 -22.5 -84t-57.5 -65l-36 30q24 16 42.5 42.5t21.5 50.5q-4 -2 -13 -2q-20 0 -33.5 14t-13.5 36q0 21 15 36.5t37 15.5q25 0 42.5 -20t17.5 -54z" />
    <glyph glyph-name="tonos" unicode="&#x384;" horiz-adv-x="197" 
d="M137 566h-36l18 199h75z" />
    <glyph glyph-name="dieresistonos" unicode="&#x385;" 
d="M239 566h-36l18 199h75zM402 603q0 -18 -13 -31t-32 -13t-32 13t-13 31q0 19 13 32t32 13t32 -13t13 -32zM152 603q0 -18 -13 -31t-32 -13q-18 0 -31.5 13t-13.5 31q0 19 13.5 32t31.5 13q19 0 32 -13t13 -32z" />
    <glyph glyph-name="Alphatonos" unicode="&#x386;" horiz-adv-x="511" 
d="M126 566h-36l18 199h75zM503 0h-86l-43 151h-237l-43 -151h-86l200 667h95zM357 221l-102 358l-101 -358h203z" />
    <glyph glyph-name="Epsilontonos" unicode="&#x388;" horiz-adv-x="481" 
d="M26 566h-36l18 199h75zM433 0h-343v667h343v-70h-263v-221h256v-70h-256v-235h263v-71z" />
    <glyph glyph-name="Etatonos" unicode="&#x389;" horiz-adv-x="594" 
d="M26 566h-36l18 199h75zM524 0h-80v308h-274v-308h-80v667h80v-289h274v289h80v-667z" />
    <glyph glyph-name="Iotatonos" unicode="&#x38a;" horiz-adv-x="240" 
d="M26 566h-36l18 199h75zM170 0h-80v667h80v-667z" />
    <glyph glyph-name="Omicrontonos" unicode="&#x38c;" horiz-adv-x="605" 
d="M53 566h-36l18 199h75zM304 -12q-118 0 -185 97.5t-67 247.5t67 247.5t185 97.5t185.5 -97.5t67.5 -247.5t-67.5 -247.5t-185.5 -97.5zM304 59q80 0 125.5 77.5t45.5 196.5q0 120 -45 197t-126 77q-80 0 -125 -77t-45 -197q0 -119 45 -196.5t125 -77.5z" />
    <glyph glyph-name="Upsilontonos" unicode="&#x38e;" horiz-adv-x="560" 
d="M22 566h-36l18 199h75zM350 0h-79v282l-206 385h89l157 -308l157 308h88l-206 -385v-282z" />
    <glyph glyph-name="Omegatonos" unicode="&#x38f;" horiz-adv-x="600" 
d="M53 566h-36l18 199h75zM66 71h104q-118 88 -118 276q0 149 67.5 240t185.5 91q117 0 185 -90.5t68 -240.5q0 -188 -118 -276h104v-71h-186v71q48 20 82.5 88.5t34.5 173.5q0 124 -44 198.5t-126 74.5t-126.5 -74.5t-44.5 -198.5q0 -105 35 -173.5t83 -88.5v-71h-186v71z
" />
    <glyph glyph-name="iotadieresistonos" unicode="&#x390;" horiz-adv-x="215" 
d="M114 566h-36l18 199h75zM277 603q0 -18 -13 -31t-32 -13t-32 13t-13 31q0 19 13 32t32 13t32 -13t13 -32zM27 603q0 -18 -13 -31t-32 -13q-18 0 -31.5 13t-13.5 31q0 19 13.5 32t31.5 13q19 0 32 -13t13 -32zM162 -12q-96 0 -96 109v386h71v-377q0 -54 39 -54q12 0 17 1
l5 -61q-18 -4 -36 -4z" />
    <glyph glyph-name="Alpha" unicode="&#x391;" horiz-adv-x="511" 
d="M503 0h-86l-43 151h-237l-43 -151h-86l200 667h95zM357 221l-102 358l-101 -358h203z" />
    <glyph glyph-name="Beta" unicode="&#x392;" horiz-adv-x="516" 
d="M297 0h-227v667h221q78 0 121.5 -46.5t43.5 -123.5q0 -61 -28 -100.5t-74 -52.5q48 -7 80.5 -55t32.5 -109q0 -83 -44 -131.5t-126 -48.5zM276 376q49 0 73.5 30.5t24.5 79.5t-24.5 80t-73.5 31h-126v-221h126zM281 71q51 0 77.5 30.5t26.5 86.5q0 51 -26.5 84.5
t-77.5 33.5h-131v-235h131z" />
    <glyph glyph-name="Gamma" unicode="&#x393;" horiz-adv-x="451" 
d="M150 0h-80v667h343v-70h-263v-597z" />
    <glyph glyph-name="uni0394" unicode="&#x394;" horiz-adv-x="526" 
d="M518 0h-510l207 667h95zM415 71l-152 508l-152 -508h304z" />
    <glyph glyph-name="Epsilon" unicode="&#x395;" horiz-adv-x="461" 
d="M413 0h-343v667h343v-70h-263v-221h256v-70h-256v-235h263v-71z" />
    <glyph glyph-name="Zeta" unicode="&#x396;" horiz-adv-x="462" 
d="M422 0h-382v67l280 530h-280v70h375v-66l-281 -530h288v-71z" />
    <glyph glyph-name="Eta" unicode="&#x397;" horiz-adv-x="574" 
d="M504 0h-80v308h-274v-308h-80v667h80v-289h274v289h80v-667z" />
    <glyph glyph-name="Theta" unicode="&#x398;" horiz-adv-x="599" 
d="M428 306h-256v70h256v-70zM299 -12q-118 0 -185 97.5t-67 247.5t67 247.5t185 97.5t185.5 -97.5t67.5 -247.5t-67.5 -247.5t-185.5 -97.5zM299 59q80 0 125.5 77.5t45.5 196.5q0 120 -45 197t-126 77q-80 0 -125 -77t-45 -197q0 -119 45 -196.5t125 -77.5z" />
    <glyph glyph-name="Iota" unicode="&#x399;" horiz-adv-x="220" 
d="M150 0h-80v667h80v-667z" />
    <glyph glyph-name="Kappa" unicode="&#x39a;" horiz-adv-x="509" 
d="M496 0h-96l-195 294l-55 -80v-214h-80v667h80v-346l233 346h94l-223 -317z" />
    <glyph glyph-name="Lambda" unicode="&#x39b;" horiz-adv-x="511" 
d="M503 0h-86l-162 579l-161 -579h-86l200 667h95z" />
    <glyph glyph-name="Mu" unicode="&#x39c;" horiz-adv-x="683" 
d="M613 0h-78v524l-178 -524h-31l-176 524v-524h-80v667h111l161 -474l162 474h109v-667z" />
    <glyph glyph-name="Nu" unicode="&#x39d;" horiz-adv-x="572" 
d="M502 0h-77l-275 497v-497h-80v667h80l272 -487v487h80v-667z" />
    <glyph glyph-name="Xi" unicode="&#x39e;" horiz-adv-x="493" 
d="M445 597h-396v70h396v-70zM445 0h-397v71h397v-71zM438 306h-382v70h382v-70z" />
    <glyph glyph-name="Omicron" unicode="&#x39f;" horiz-adv-x="599" 
d="M299 -12q-118 0 -185 97.5t-67 247.5t67 247.5t185 97.5t185.5 -97.5t67.5 -247.5t-67.5 -247.5t-185.5 -97.5zM299 59q80 0 125.5 77.5t45.5 196.5q0 120 -45 197t-126 77q-80 0 -125 -77t-45 -197q0 -119 45 -196.5t125 -77.5z" />
    <glyph glyph-name="Pi" unicode="&#x3a0;" horiz-adv-x="574" 
d="M504 0h-80v597h-274v-597h-80v667h434v-667z" />
    <glyph glyph-name="Rho" unicode="&#x3a1;" horiz-adv-x="487" 
d="M150 0h-80v667h203q88 0 136 -57t48 -143q0 -85 -48.5 -142.5t-135.5 -57.5h-123v-267zM265 337q51 0 80.5 36t29.5 94t-29.5 94t-80.5 36h-115v-260h115z" />
    <glyph glyph-name="Sigma" unicode="&#x3a3;" horiz-adv-x="451" 
d="M139 597l172 -253l-175 -273h271v-71h-359v72l173 271l-172 254v70h358v-70h-268z" />
    <glyph glyph-name="Tau" unicode="&#x3a4;" horiz-adv-x="446" 
d="M262 0h-79v597h-158v70h396v-70h-159v-597z" />
    <glyph glyph-name="Upsilon" unicode="&#x3a5;" horiz-adv-x="499" 
d="M289 0h-79v282l-206 385h89l157 -308l157 308h88l-206 -385v-282z" />
    <glyph glyph-name="Phi" unicode="&#x3a6;" horiz-adv-x="695" 
d="M387 0h-79v66q-126 10 -193.5 83t-67.5 184q0 110 67.5 183t193.5 84v67h79v-67q126 -10 194 -83.5t68 -183.5t-68 -183.5t-194 -84.5v-65zM566 333q0 79 -46 132.5t-133 63.5v-392q87 10 133 63.5t46 132.5zM129 333q0 -79 45.5 -132t133.5 -64v391q-88 -10 -133.5 -63
t-45.5 -132z" />
    <glyph glyph-name="Chi" unicode="&#x3a7;" horiz-adv-x="510" 
d="M502 0h-92l-155 276l-155 -276h-92l199 341l-188 326h93l143 -262l143 262h93l-188 -326z" />
    <glyph glyph-name="Psi" unicode="&#x3a8;" horiz-adv-x="694" 
d="M387 0h-79v125q-113 10 -175.5 73t-62.5 171v298h80v-296q0 -157 158 -174v470h79v-470q157 17 157 174v296h80v-297q0 -110 -62 -172.5t-175 -72.5v-125z" />
    <glyph glyph-name="uni03A9" unicode="&#x3a9;" horiz-adv-x="592" 
d="M57 71h104q-118 88 -118 276q0 149 67.5 240t185.5 91q117 0 185 -90.5t68 -240.5q0 -188 -118 -276h104v-71h-186v71q48 20 82.5 88.5t34.5 173.5q0 124 -44 198.5t-126 74.5t-126.5 -74.5t-44.5 -198.5q0 -105 35 -173.5t83 -88.5v-71h-186v71z" />
    <glyph glyph-name="Iotadieresis" unicode="&#x3aa;" horiz-adv-x="220" 
d="M150 0h-80v667h80v-667zM242 787q0 -18 -13.5 -31t-31.5 -13q-19 0 -32 13t-13 31q0 19 13 32t32 13q18 0 31.5 -13t13.5 -32zM68 787q0 -18 -13 -31t-32 -13q-18 0 -31.5 13t-13.5 31q0 19 13.5 32t31.5 13q19 0 32 -13t13 -32z" />
    <glyph glyph-name="Upsilondieresis" unicode="&#x3ab;" horiz-adv-x="499" 
d="M289 0h-79v282l-206 385h89l157 -308l157 308h88l-206 -385v-282zM381 787q0 -18 -13.5 -31t-31.5 -13q-19 0 -32 13t-13 31q0 19 13 32t32 13q18 0 31.5 -13t13.5 -32zM207 787q0 -18 -13 -31t-32 -13q-18 0 -31.5 13t-13.5 31q0 19 13.5 32t31.5 13q19 0 32 -13t13 -32
z" />
    <glyph glyph-name="alphatonos" unicode="&#x3ac;" horiz-adv-x="491" 
d="M255 566h-36l18 199h75zM469 53l6 -61q-18 -4 -36 -4q-83 0 -94 85q-20 -38 -55 -61.5t-75 -23.5q-80 0 -126.5 69t-46.5 184q0 114 46 184t127 70q38 0 72 -21t55 -61v70h72v-377q0 -54 38 -54q12 0 17 1zM233 52q34 0 64.5 23t44.5 55v221q-14 33 -45 56.5t-64 23.5
q-57 0 -86.5 -53.5t-29.5 -136.5t29.5 -136t86.5 -53z" />
    <glyph glyph-name="epsilontonos" unicode="&#x3ad;" horiz-adv-x="432" 
d="M226 566h-36l18 199h75zM227 -12q-86 0 -135.5 40t-49.5 101q0 50 35.5 81t81.5 36q-44 9 -76.5 42t-32.5 77q0 60 52 95t135 35q105 0 165 -78l-40 -42q-45 61 -126 61q-50 0 -81.5 -21.5t-31.5 -57.5q0 -39 31 -61t80 -22h90v-59h-90q-118 0 -118 -81q0 -39 30.5 -63
t81.5 -24q89 0 142 63l38 -43q-64 -79 -181 -79z" />
    <glyph glyph-name="etatonos" unicode="&#x3ae;" 
d="M242 566h-36l18 199h75zM399 -184h-72v528q0 87 -77 87q-34 0 -64.5 -22.5t-48.5 -54.5v-354h-71v483h71v-69q23 34 61 57.5t79 23.5q122 0 122 -131v-548z" />
    <glyph glyph-name="iotatonos" unicode="&#x3af;" horiz-adv-x="215" 
d="M118 566h-36l18 199h75zM162 -12q-96 0 -96 109v386h71v-377q0 -54 39 -54q12 0 17 1l5 -61q-18 -4 -36 -4z" />
    <glyph glyph-name="upsilondieresistonos" unicode="&#x3b0;" horiz-adv-x="471" 
d="M242 566h-36l18 199h75zM405 603q0 -18 -13 -31t-32 -13t-32 13t-13 31q0 19 13 32t32 13t32 -13t13 -32zM155 603q0 -18 -13 -31t-32 -13q-18 0 -31.5 13t-13.5 31q0 19 13.5 32t31.5 13q19 0 32 -13t13 -32zM232 -12q-82 0 -124 52t-42 143v300h71v-299q0 -132 95 -132
q60 0 90.5 56t30.5 141q0 122 -62 216l65 30q73 -112 73 -246q0 -113 -51.5 -187t-145.5 -74z" />
    <glyph glyph-name="alpha" unicode="&#x3b1;" horiz-adv-x="491" 
d="M469 53l6 -61q-18 -4 -36 -4q-83 0 -94 85q-20 -38 -55 -61.5t-75 -23.5q-80 0 -126.5 69t-46.5 184q0 114 46 184t127 70q38 0 72 -21t55 -61v70h72v-377q0 -54 38 -54q12 0 17 1zM233 52q34 0 64.5 23t44.5 55v221q-14 33 -45 56.5t-64 23.5q-57 0 -86.5 -53.5
t-29.5 -136.5t29.5 -136t86.5 -53z" />
    <glyph glyph-name="beta" unicode="&#x3b2;" horiz-adv-x="480" 
d="M137 457v-327q16 -33 47 -55.5t66 -22.5q53 0 82.5 36t29.5 92q0 64 -33.5 97t-85.5 33h-27v64h25q48 0 78 31t30 88q0 56 -27 88t-70 32q-51 0 -83 -38t-32 -118zM137 69v-253h-71v641q0 113 53.5 166.5t133.5 53.5q77 0 124 -46t47 -131q0 -60 -32 -101.5t-79 -53.5
q48 -8 86 -54.5t38 -120.5q0 -80 -46.5 -131t-120.5 -51q-42 0 -77 21.5t-56 59.5z" />
    <glyph glyph-name="gamma" unicode="&#x3b3;" horiz-adv-x="408" 
d="M240 -184h-72v141q0 149 -47 287t-125 239h82q55 -79 93.5 -182t45.5 -203q42 76 68.5 181.5t26.5 203.5h71q0 -117 -39 -245t-104 -233v-189z" />
    <glyph glyph-name="delta" unicode="&#x3b4;" horiz-adv-x="477" 
d="M241 -12q-93 0 -146 64.5t-53 153.5q0 148 121 225q-75 47 -75 118q0 56 41.5 93t111.5 37q90 0 147 -62l-33 -49q-41 53 -113 53q-39 0 -62.5 -20t-23.5 -50q0 -25 20.5 -45.5t51.5 -34.5t67.5 -36t67.5 -48t51.5 -73t20.5 -108q0 -90 -51 -154t-143 -64zM366 206
q0 39 -11 69.5t-33.5 53t-43 36t-52.5 30.5q-51 -26 -80 -74.5t-29 -114.5q0 -60 32 -107t91 -47q60 0 93 47t33 107z" />
    <glyph glyph-name="epsilon" unicode="&#x3b5;" horiz-adv-x="432" 
d="M227 -12q-86 0 -135.5 40t-49.5 101q0 50 35.5 81t81.5 36q-44 9 -76.5 42t-32.5 77q0 60 52 95t135 35q105 0 165 -78l-40 -42q-45 61 -126 61q-50 0 -81.5 -21.5t-31.5 -57.5q0 -39 31 -61t80 -22h90v-59h-90q-118 0 -118 -81q0 -39 30.5 -63t81.5 -24q89 0 142 63
l38 -43q-64 -79 -181 -79z" />
    <glyph glyph-name="zeta" unicode="&#x3b6;" horiz-adv-x="403" 
d="M298 -47q0 19 -10.5 27t-34.5 8q-95 0 -153 59.5t-58 149.5q0 229 240 407h-228v63h311v-55q-248 -193 -248 -407q0 -66 39.5 -109.5t109.5 -43.5q54 0 78.5 -20.5t24.5 -63.5q0 -49 -43 -125h-73q45 70 45 110z" />
    <glyph glyph-name="eta" unicode="&#x3b7;" 
d="M399 -184h-72v528q0 87 -77 87q-34 0 -64.5 -22.5t-48.5 -54.5v-354h-71v483h71v-69q23 34 61 57.5t79 23.5q122 0 122 -131v-548z" />
    <glyph glyph-name="theta" unicode="&#x3b8;" horiz-adv-x="477" 
d="M238 -12q-98 0 -147 94.5t-49 251.5t49 251t147 94q99 0 148 -94t49 -251t-49 -251.5t-148 -94.5zM238 52q115 0 122 252h-243q5 -252 121 -252zM238 615q-114 0 -121 -248h242q-7 248 -121 248z" />
    <glyph glyph-name="iota" unicode="&#x3b9;" horiz-adv-x="215" 
d="M162 -12q-96 0 -96 109v386h71v-377q0 -54 39 -54q12 0 17 1l5 -61q-18 -4 -36 -4z" />
    <glyph glyph-name="kappa" unicode="&#x3ba;" horiz-adv-x="438" 
d="M423 0h-85l-133 218l-68 -87v-131h-71v483h71v-262l201 262h85l-169 -217z" />
    <glyph glyph-name="lambda" unicode="&#x3bb;" horiz-adv-x="408" 
d="M52 608l-11 64q19 7 48 7q45 -1 74 -22t46 -72l193 -585h-77l-121 396l-120 -396h-78l161 493l-26 74q-10 27 -22.5 37.5t-34.5 10.5q-19 0 -32 -7z" />
    <glyph glyph-name="uni03BC" unicode="&#x3bc;" horiz-adv-x="476" 
d="M137 22v-206h-71v667h71v-345q0 -88 79 -88q34 0 64 22.5t47 54.5v356h72v-377q0 -54 39 -54q11 0 16 1l6 -61q-18 -4 -36 -4q-82 0 -94 85q-20 -38 -52 -61.5t-68 -23.5q-52 0 -73 34z" />
    <glyph glyph-name="nu" unicode="&#x3bd;" horiz-adv-x="408" 
d="M237 0h-73l-158 483h78l123 -406q49 90 77 198t28 208h71q0 -118 -40 -247.5t-106 -235.5z" />
    <glyph glyph-name="xi" unicode="&#x3be;" horiz-adv-x="403" 
d="M253 -12q-99 0 -155 52t-56 133q0 64 35 106.5t81 54.5q-45 10 -76 47t-31 89q0 42 24.5 78t64.5 56h-83v63h299v-63h-149q-36 -14 -59 -47t-23 -70q0 -53 34 -83t85 -30h106v-63h-106q-56 0 -91.5 -32t-35.5 -96q0 -54 38.5 -92.5t110.5 -38.5q54 0 78.5 -20.5
t24.5 -63.5q0 -49 -43 -125h-73q45 70 45 110q0 19 -10.5 27t-34.5 8z" />
    <glyph glyph-name="omicron" unicode="&#x3bf;" horiz-adv-x="477" 
d="M238 -12q-92 0 -144 73t-52 181q0 107 52 180t144 73q93 0 145 -72.5t52 -180.5t-52 -181t-145 -73zM238 52q60 0 91 55t31 135q0 79 -31 134t-91 55q-59 0 -90 -55t-31 -134q0 -80 31 -135t90 -55z" />
    <glyph glyph-name="pi" unicode="&#x3c0;" horiz-adv-x="494" 
d="M414 0h-72v420h-190v-420h-72v420h-64v63h463v-63h-65v-420z" />
    <glyph glyph-name="rho" unicode="&#x3c1;" horiz-adv-x="478" 
d="M264 -12q-81 0 -127 82v-254h-71v426q0 108 48.5 180.5t135.5 72.5q88 0 137.5 -71.5t49.5 -181.5q0 -115 -46 -184.5t-127 -69.5zM246 52q57 0 86.5 53.5t29.5 136.5q0 81 -28.5 135t-83.5 54t-84 -55t-29 -134v-110q15 -33 45.5 -56.5t63.5 -23.5z" />
    <glyph glyph-name="sigma1" unicode="&#x3c2;" horiz-adv-x="396" 
d="M253 -12q-96 0 -153.5 70.5t-57.5 183.5q0 110 54.5 181.5t145.5 71.5q86 0 138 -64l-39 -49q-36 49 -93 49q-62 0 -96.5 -54t-34.5 -135q0 -85 39 -137.5t106 -52.5q55 0 80.5 -20.5t25.5 -63.5q0 -49 -43 -125h-70q46 71 46 110q0 19 -11.5 27t-36.5 8z" />
    <glyph glyph-name="sigma" unicode="&#x3c3;" horiz-adv-x="477" 
d="M431 225q0 -99 -50.5 -168t-142.5 -69q-91 0 -143.5 73t-52.5 181q0 103 54.5 172t156.5 69h204v-64h-100q74 -74 74 -194zM360 233q0 131 -79 186h-28q-68 0 -102 -52t-34 -125q0 -80 31 -135t90 -55q60 0 91 53.5t31 127.5z" />
    <glyph glyph-name="tau" unicode="&#x3c4;" horiz-adv-x="369" 
d="M244 -12q-96 0 -96 109v323h-127v63h327v-63h-128v-310q0 -58 39 -58q26 0 42 19l22 -54q-31 -29 -79 -29z" />
    <glyph glyph-name="upsilon" unicode="&#x3c5;" horiz-adv-x="471" 
d="M232 -12q-82 0 -124 52t-42 143v300h71v-299q0 -132 95 -132q60 0 90.5 56t30.5 141q0 122 -62 216l65 30q73 -112 73 -246q0 -113 -51.5 -187t-145.5 -74z" />
    <glyph glyph-name="phi" unicode="&#x3c6;" horiz-adv-x="637" 
d="M595 242q0 -105 -60.5 -174t-179.5 -78v-174h-72v174q-120 9 -180.5 79t-60.5 180q0 170 154 246l32 -56q-111 -57 -111 -190q0 -80 39.5 -133t126.5 -62v441h35q138 0 207.5 -70.5t69.5 -182.5zM520 242q0 78 -41 129.5t-124 57.5v-375q86 9 125.5 61t39.5 127z" />
    <glyph glyph-name="chi" unicode="&#x3c7;" horiz-adv-x="406" 
d="M394 -184h-77l-114 270l-114 -270h-77l147 340l-139 327h77l106 -256l105 256h78l-139 -327z" />
    <glyph glyph-name="psi" unicode="&#x3c8;" horiz-adv-x="638" 
d="M355 -184h-72v174q-107 7 -162 65.5t-55 163.5v264h71v-264q0 -151 146 -165v613h72v-613q145 16 145 165v264h72v-264q0 -105 -55.5 -163t-161.5 -66v-174z" />
    <glyph glyph-name="omega" unicode="&#x3c9;" horiz-adv-x="692" 
d="M649 242q0 -109 -43 -181.5t-119 -72.5q-55 0 -90.5 36.5t-50.5 94.5q-15 -58 -50.5 -94.5t-90.5 -36.5q-77 0 -120 72.5t-43 181.5q0 79 27 149t77 104l50 -44q-79 -58 -79 -210q0 -79 24.5 -134t71.5 -55q49 0 73 54.5t24 135.5v123h72v-123q0 -81 24 -135.5t72 -54.5
q47 0 71.5 55t24.5 135q0 151 -79 209l51 44q50 -34 76.5 -103.5t26.5 -149.5z" />
    <glyph glyph-name="iotadieresis" unicode="&#x3ca;" horiz-adv-x="215" 
d="M240 603q0 -18 -13.5 -31t-31.5 -13q-19 0 -32 13t-13 31q0 19 13 32t32 13q18 0 31.5 -13t13.5 -32zM66 603q0 -18 -13 -31t-32 -13q-18 0 -31.5 13t-13.5 31q0 19 13.5 32t31.5 13q19 0 32 -13t13 -32zM162 -12q-96 0 -96 109v386h71v-377q0 -54 39 -54q12 0 17 1
l5 -61q-18 -4 -36 -4z" />
    <glyph glyph-name="upsilondieresis" unicode="&#x3cb;" horiz-adv-x="471" 
d="M367 603q0 -18 -13.5 -31t-31.5 -13q-19 0 -32 13t-13 31q0 19 13 32t32 13q18 0 31.5 -13t13.5 -32zM193 603q0 -18 -13 -31t-32 -13q-18 0 -31.5 13t-13.5 31q0 19 13.5 32t31.5 13q19 0 32 -13t13 -32zM232 -12q-82 0 -124 52t-42 143v300h71v-299q0 -132 95 -132
q60 0 90.5 56t30.5 141q0 122 -62 216l65 30q73 -112 73 -246q0 -113 -51.5 -187t-145.5 -74z" />
    <glyph glyph-name="omicrontonos" unicode="&#x3cc;" horiz-adv-x="477" 
d="M248 566h-36l18 199h75zM238 -12q-92 0 -144 73t-52 181q0 107 52 180t144 73q93 0 145 -72.5t52 -180.5t-52 -181t-145 -73zM238 52q60 0 91 55t31 135q0 79 -31 134t-91 55q-59 0 -90 -55t-31 -134q0 -80 31 -135t90 -55z" />
    <glyph glyph-name="upsilontonos" unicode="&#x3cd;" horiz-adv-x="471" 
d="M246 566h-36l18 199h75zM232 -12q-82 0 -124 52t-42 143v300h71v-299q0 -132 95 -132q60 0 90.5 56t30.5 141q0 122 -62 216l65 30q73 -112 73 -246q0 -113 -51.5 -187t-145.5 -74z" />
    <glyph glyph-name="omegatonos" unicode="&#x3ce;" horiz-adv-x="692" 
d="M356 566h-36l18 199h75zM649 242q0 -109 -43 -181.5t-119 -72.5q-55 0 -90.5 36.5t-50.5 94.5q-15 -58 -50.5 -94.5t-90.5 -36.5q-77 0 -120 72.5t-43 181.5q0 79 27 149t77 104l50 -44q-79 -58 -79 -210q0 -79 24.5 -134t71.5 -55q49 0 73 54.5t24 135.5v123h72v-123
q0 -81 24 -135.5t72 -54.5q47 0 71.5 55t24.5 135q0 151 -79 209l51 44q50 -34 76.5 -103.5t26.5 -149.5z" />
    <glyph glyph-name="afii10023" unicode="&#x401;" horiz-adv-x="461" 
d="M374 770q0 -18 -13.5 -31t-31.5 -13q-19 0 -32 13t-13 31q0 19 13 32t32 13q18 0 31.5 -13t13.5 -32zM200 770q0 -18 -13 -31t-32 -13q-18 0 -31.5 13t-13.5 31q0 19 13.5 32t31.5 13q19 0 32 -13t13 -32zM413 0h-343v667h343v-70h-263v-221h256v-70h-256v-235h263v-71z
" />
    <glyph glyph-name="afii10051" unicode="&#x402;" horiz-adv-x="623" 
d="M388 -12v71q51 0 80 32t29 95v31q0 65 -33.5 102.5t-95.5 37.5q-56 0 -106 -15l1 -342h-80v597h-158v70h396v-70h-159v-185q60 15 114 15q97 0 149 -59t52 -151v-31q0 -100 -53 -149t-136 -49z" />
    <glyph glyph-name="afii10052" unicode="&#x403;" horiz-adv-x="451" 
d="M376 867l-134 -144h-52l113 144h73zM150 0h-80v667h343v-70h-263v-597z" />
    <glyph glyph-name="afii10053" unicode="&#x404;" horiz-adv-x="533" 
d="M306 -12q-118 0 -188.5 96.5t-70.5 248.5t70.5 248.5t188.5 96.5q127 0 195 -130l-66 -31q-45 90 -129 90q-72 0 -119.5 -64t-56.5 -167h275v-70h-276q6 -110 54 -178.5t123 -68.5q87 0 130 99l67 -31q-69 -139 -197 -139z" />
    <glyph glyph-name="afii10054" unicode="&#x405;" horiz-adv-x="470" 
d="M228 -12q-125 0 -199 84l44 61q61 -74 155 -74q60 0 91 31.5t31 77.5q0 44 -31 75.5t-75 51.5t-88.5 43t-75.5 64.5t-31 100.5q0 76 54 125.5t137 49.5q110 0 178 -70l-42 -60q-53 59 -138 59q-46 0 -77 -28t-31 -72q0 -33 22.5 -58.5t55.5 -41t72.5 -36.5t72.5 -43
t55.5 -62.5t22.5 -92.5q0 -79 -52.5 -132t-150.5 -53z" />
    <glyph glyph-name="afii10055" unicode="&#x406;" horiz-adv-x="220" 
d="M150 0h-80v667h80v-667z" />
    <glyph glyph-name="afii10056" unicode="&#x407;" horiz-adv-x="220" 
d="M150 0h-80v667h80v-667zM242 770q0 -18 -13.5 -31t-31.5 -13q-19 0 -32 13t-13 31q0 19 13 32t32 13q18 0 31.5 -13t13.5 -32zM68 770q0 -18 -13 -31t-32 -13q-18 0 -31.5 13t-13.5 31q0 19 13.5 32t31.5 13q19 0 32 -13t13 -32z" />
    <glyph glyph-name="afii10057" unicode="&#x408;" horiz-adv-x="398" 
d="M149 -12q-86 0 -140 61l36 62q42 -52 98 -52q50 0 78 30t28 84v494h79v-496q0 -91 -49 -137t-130 -46z" />
    <glyph glyph-name="afii10058" unicode="&#x409;" horiz-adv-x="841" 
d="M25 -12v71q35 0 56.5 17.5t38.5 75t28 166.5l32 349h324v-267h123q88 0 136 -57t48 -143t-48 -143t-136 -57h-202v597h-173l-26 -285q-8 -83 -21.5 -142t-30.5 -94.5t-41.5 -55t-49 -26t-58.5 -6.5zM619 330h-115v-259h115q51 0 80.5 35.5t29.5 93.5t-29.5 94t-80.5 36z
" />
    <glyph glyph-name="afii10059" unicode="&#x40a;" horiz-adv-x="841" 
d="M70 0v667h80v-289h275v289h79v-289h129q85 0 131.5 -54t46.5 -135t-46.5 -135t-131.5 -54h-208v308h-275v-308h-80zM504 71h121q48 0 76 32.5t28 85.5t-28 86t-76 33h-121v-237z" />
    <glyph glyph-name="afii10060" unicode="&#x40b;" horiz-adv-x="630" 
d="M494 0v213q0 69 -32 106.5t-94 37.5q-56 0 -106 -15l1 -342h-80v597h-158v70h396v-70h-159v-185q60 15 114 15q97 0 147 -59t50 -155v-213h-79z" />
    <glyph glyph-name="afii10061" unicode="&#x40c;" horiz-adv-x="509" 
d="M396 867l-134 -144h-52l113 144h73zM496 0h-96l-195 294l-55 -80v-214h-80v667h80v-346l233 346h94l-223 -317z" />
    <glyph glyph-name="afii10062" unicode="&#x40e;" horiz-adv-x="499" 
d="M112 -12q-66 0 -106 38l28 65q31 -31 72 -31q29 0 46.5 15.5t35.5 54.5l19 49l-203 488h88l157 -394l159 394h87l-235 -568q-24 -57 -58.5 -84t-89.5 -27zM397 786q-56 -74 -147 -74q-92 0 -148 74l37 30q39 -57 111 -57q71 0 110 57z" />
    <glyph glyph-name="afii10145" unicode="&#x40f;" horiz-adv-x="574" 
d="M70 0v667h80v-596h275v596h79v-667h-177v-128h-79v128h-178z" />
    <glyph glyph-name="afii10017" unicode="&#x410;" horiz-adv-x="511" 
d="M503 0h-86l-43 151h-237l-43 -151h-86l200 667h95zM357 221l-102 358l-101 -358h203z" />
    <glyph glyph-name="afii10018" unicode="&#x411;" horiz-adv-x="487" 
d="M70 667h348v-70h-268v-197h123q87 0 135.5 -57.5t48.5 -142.5q0 -86 -48 -143t-136 -57h-203v667zM265 330h-115v-259h115q51 0 80.5 35.5t29.5 93.5t-29.5 94t-80.5 36z" />
    <glyph glyph-name="afii10019" unicode="&#x412;" horiz-adv-x="516" 
d="M297 0h-227v667h221q78 0 121.5 -46.5t43.5 -123.5q0 -61 -28 -100.5t-74 -52.5q48 -7 80.5 -55t32.5 -109q0 -83 -44 -131.5t-126 -48.5zM276 376q49 0 73.5 30.5t24.5 79.5t-24.5 80t-73.5 31h-126v-221h126zM281 71q51 0 77.5 30.5t26.5 86.5q0 51 -26.5 84.5
t-77.5 33.5h-131v-235h131z" />
    <glyph glyph-name="afii10020" unicode="&#x413;" horiz-adv-x="451" 
d="M150 0h-80v667h343v-70h-263v-597z" />
    <glyph glyph-name="afii10021" unicode="&#x414;" horiz-adv-x="589" 
d="M25 -123v187q36 3 56.5 19t38 73t28.5 168l32 343h324v-596h60v-194h-79v123h-381v-123h-79zM226 318q-18 -186 -83 -247h282v526h-173z" />
    <glyph glyph-name="afii10022" unicode="&#x415;" horiz-adv-x="461" 
d="M413 0h-343v667h343v-70h-263v-221h256v-70h-256v-235h263v-71z" />
    <glyph glyph-name="afii10024" unicode="&#x416;" horiz-adv-x="742" 
d="M107 0h-95l242 350l-224 317h95l206 -309v309h79v-310l207 310h95l-224 -317l242 -350h-95l-195 294l-30 -45v-249h-79v251l-29 43z" />
    <glyph glyph-name="afii10025" unicode="&#x417;" horiz-adv-x="487" 
d="M234 -12q-69 0 -123 31.5t-82 79.5l52 47q24 -39 63.5 -63t86.5 -24q62 0 94.5 34t32.5 93q0 62 -36.5 91.5t-95.5 29.5h-105v70h102q56 0 90.5 28.5t34.5 83.5q0 57 -32.5 87t-87.5 30q-83 0 -139 -79l-51 45q31 49 82.5 77t114.5 28q86 0 140.5 -46t54.5 -131
q0 -60 -36 -102t-88 -54q53 -7 93 -51.5t40 -112.5q0 -85 -55 -138.5t-150 -53.5z" />
    <glyph glyph-name="afii10026" unicode="&#x418;" horiz-adv-x="572" 
d="M147 0h-77v667h80v-496l272 496h80v-667h-79v506z" />
    <glyph glyph-name="afii10027" unicode="&#x419;" horiz-adv-x="572" 
d="M147 0h-77v667h80v-496l272 496h80v-667h-79v506zM433 786q-56 -74 -147 -74q-92 0 -148 74l37 30q39 -57 111 -57q71 0 110 57z" />
    <glyph glyph-name="afii10028" unicode="&#x41a;" horiz-adv-x="509" 
d="M496 0h-96l-195 294l-55 -80v-214h-80v667h80v-346l233 346h94l-223 -317z" />
    <glyph glyph-name="afii10029" unicode="&#x41b;" horiz-adv-x="574" 
d="M25 -12v71q35 0 56.5 17.5t38.5 75t28 166.5l32 349h324v-667h-80v597h-172l-26 -285q-8 -83 -21.5 -142t-30.5 -94.5t-41.5 -55t-49 -26t-58.5 -6.5z" />
    <glyph glyph-name="afii10030" unicode="&#x41c;" horiz-adv-x="683" 
d="M613 0h-78v524l-178 -524h-31l-176 524v-524h-80v667h111l161 -474l162 474h109v-667z" />
    <glyph glyph-name="afii10031" unicode="&#x41d;" horiz-adv-x="574" 
d="M504 0h-80v308h-274v-308h-80v667h80v-289h274v289h80v-667z" />
    <glyph glyph-name="afii10032" unicode="&#x41e;" horiz-adv-x="599" 
d="M299 -12q-118 0 -185 97.5t-67 247.5t67 247.5t185 97.5t185.5 -97.5t67.5 -247.5t-67.5 -247.5t-185.5 -97.5zM299 59q80 0 125.5 77.5t45.5 196.5q0 120 -45 197t-126 77q-80 0 -125 -77t-45 -197q0 -119 45 -196.5t125 -77.5z" />
    <glyph glyph-name="afii10033" unicode="&#x41f;" horiz-adv-x="574" 
d="M504 0h-80v597h-274v-597h-80v667h434v-667z" />
    <glyph glyph-name="afii10034" unicode="&#x420;" horiz-adv-x="487" 
d="M150 0h-80v667h203q88 0 136 -57t48 -143q0 -85 -48.5 -142.5t-135.5 -57.5h-123v-267zM265 337q51 0 80.5 36t29.5 94t-29.5 94t-80.5 36h-115v-260h115z" />
    <glyph glyph-name="afii10035" unicode="&#x421;" horiz-adv-x="533" 
d="M306 -12q-118 0 -188.5 96.5t-70.5 248.5t70.5 248.5t188.5 96.5q127 0 195 -130l-66 -31q-45 90 -129 90q-80 0 -128.5 -77t-48.5 -197t48.5 -197t128.5 -77q87 0 130 99l67 -31q-69 -139 -197 -139z" />
    <glyph glyph-name="afii10036" unicode="&#x422;" horiz-adv-x="446" 
d="M262 0h-79v597h-158v70h396v-70h-159v-597z" />
    <glyph glyph-name="afii10037" unicode="&#x423;" horiz-adv-x="499" 
d="M112 -12q-66 0 -106 38l28 65q31 -31 72 -31q29 0 46.5 15.5t35.5 54.5l19 49l-203 488h88l157 -394l159 394h87l-235 -568q-24 -57 -58.5 -84t-89.5 -27z" />
    <glyph glyph-name="afii10038" unicode="&#x424;" horiz-adv-x="695" 
d="M387 0h-79v66q-126 10 -193.5 83t-67.5 184q0 110 67.5 183t193.5 84v67h79v-67q126 -10 194 -83.5t68 -183.5t-68 -183.5t-194 -84.5v-65zM566 333q0 79 -46 132.5t-133 63.5v-392q87 10 133 63.5t46 132.5zM129 333q0 -79 45.5 -132t133.5 -64v391q-88 -10 -133.5 -63
t-45.5 -132z" />
    <glyph glyph-name="afii10039" unicode="&#x425;" horiz-adv-x="510" 
d="M502 0h-92l-155 276l-155 -276h-92l199 341l-188 326h93l143 -262l143 262h93l-188 -326z" />
    <glyph glyph-name="afii10040" unicode="&#x426;" horiz-adv-x="589" 
d="M485 -123v123h-415v667h80v-596h275v596h79v-596h60v-194h-79z" />
    <glyph glyph-name="afii10041" unicode="&#x427;" horiz-adv-x="513" 
d="M132 667v-186q0 -69 32 -106.5t94 -37.5q55 0 105 15v315h80v-667h-80v282q-60 -15 -113 -15q-97 0 -147 59t-50 155v186h79z" />
    <glyph glyph-name="afii10042" unicode="&#x428;" horiz-adv-x="794" 
d="M644 667h79v-667h-652v667h79v-596h208v596h79v-596h207v596z" />
    <glyph glyph-name="afii10043" unicode="&#x429;" horiz-adv-x="811" 
d="M647 667h79v-596h60v-194h-79v123h-634v667h79v-596h208v596h79v-596h208v596z" />
    <glyph glyph-name="afii10044" unicode="&#x42a;" horiz-adv-x="600" 
d="M386 0h-203v597h-158v70h237v-267h124q87 0 135.5 -57.5t48.5 -142.5q0 -86 -48 -143t-136 -57zM378 330h-116v-259h116q51 0 80.5 35.5t29.5 93.5t-29.5 94t-80.5 36z" />
    <glyph glyph-name="afii10045" unicode="&#x42b;" horiz-adv-x="676" 
d="M70 667h80v-267h123q87 0 135.5 -57.5t48.5 -142.5q0 -86 -48 -143t-136 -57h-203v667zM265 330h-115v-259h115q51 0 80.5 35.5t29.5 93.5t-29.5 94t-80.5 36zM605 0h-79v667h79v-667z" />
    <glyph glyph-name="afii10046" unicode="&#x42c;" horiz-adv-x="487" 
d="M70 667h80v-267h123q87 0 135.5 -57.5t48.5 -142.5q0 -86 -48 -143t-136 -57h-203v667zM265 330h-115v-259h115q51 0 80.5 35.5t29.5 93.5t-29.5 94t-80.5 36z" />
    <glyph glyph-name="afii10047" unicode="&#x42d;" horiz-adv-x="533" 
d="M228 -12q-128 0 -198 139l67 31q43 -99 131 -99q75 0 122.5 68.5t52.5 178.5h-275v70h274q-8 103 -55 167t-119 64q-85 0 -130 -90l-66 31q68 130 196 130q117 0 187.5 -96.5t70.5 -248.5q0 -151 -70.5 -248t-187.5 -97z" />
    <glyph glyph-name="afii10048" unicode="&#x42e;" horiz-adv-x="803" 
d="M503 -12q-113 0 -180 89.5t-73 230.5h-100v-308h-80v667h80v-289h101q10 133 76.5 216.5t175.5 83.5q118 0 185.5 -97.5t67.5 -247.5t-67.5 -247.5t-185.5 -97.5zM503 59q80 0 125 77.5t45 196.5q0 120 -45 197t-125 77q-81 0 -126 -77t-45 -197q0 -119 45.5 -196.5
t125.5 -77.5z" />
    <glyph glyph-name="afii10049" unicode="&#x42f;" horiz-adv-x="509" 
d="M135 0h-90l140 279q-55 10 -94 58t-39 131q0 91 51 145t132 54h203v-667h-79v267h-96zM244 337h115v260h-115q-51 0 -80.5 -36t-29.5 -94t29.5 -94t80.5 -36z" />
    <glyph glyph-name="afii10065" unicode="&#x430;" horiz-adv-x="451" 
d="M386 0h-72v52q-45 -64 -127 -64q-61 0 -103.5 44t-42.5 117t42 116t104 43q84 0 127 -62v84q0 49 -26 76t-73 27q-69 0 -121 -59l-32 51q67 70 164 70q75 0 117.5 -38.5t42.5 -118.5v-338zM210 40q70 0 104 61v92q-33 62 -104 62q-44 0 -70 -30.5t-26 -76.5t26 -77
t70 -31z" />
    <glyph glyph-name="afii10066" unicode="&#x431;" horiz-adv-x="480" 
d="M238 52q60 0 90.5 55t30.5 136q0 79 -31 133.5t-90 54.5t-90 -54.5t-31 -133.5q0 -81 31 -136t90 -55zM238 -12q-93 0 -144.5 76t-51.5 200q0 181 45 257t162 97q56 10 78 21.5t22 27.5h71q0 -27 -13 -46.5t-38 -32t-48 -19t-55 -12.5q-81 -15 -116.5 -51.5t-44.5 -102.5
q20 39 57 65.5t87 26.5q86 0 135.5 -72.5t49.5 -179.5q0 -108 -51.5 -181.5t-144.5 -73.5z" />
    <glyph glyph-name="afii10067" unicode="&#x432;" horiz-adv-x="464" 
d="M270 0h-204v483h200q63 0 98.5 -33.5t35.5 -90.5q0 -42 -20.5 -70t-55.5 -39q37 -10 61 -43.5t24 -75.5q0 -60 -35.5 -95.5t-103.5 -35.5zM257 61q78 0 78 77q0 34 -20 57t-58 23h-120v-157h120zM253 278q36 0 54.5 20t18.5 52t-18 52.5t-55 20.5h-116v-145h116z" />
    <glyph glyph-name="afii10068" unicode="&#x433;" horiz-adv-x="364" 
d="M341 483v-63h-204v-420h-71v483h275z" />
    <glyph glyph-name="afii10069" unicode="&#x434;" horiz-adv-x="479" 
d="M18 -123v180q24 4 38 16.5t26 51t19 108.5l24 250h274v-420h55v-186h-71v123h-293v-123h-72zM191 420l-18 -194q-13 -123 -59 -163h214v357h-137z" />
    <glyph glyph-name="afii10070" unicode="&#x435;" horiz-adv-x="468" 
d="M249 -12q-95 0 -151 70.5t-56 183.5q0 108 53.5 180.5t142.5 72.5q92 0 141.5 -72t49.5 -183v-22h-313q2 -75 39 -122.5t100 -47.5q68 0 115 59l38 -42q-63 -77 -159 -77zM358 271q-1 65 -31 114.5t-90 49.5q-58 0 -88.5 -50.5t-32.5 -113.5h242z" />
    <glyph glyph-name="afii10072" unicode="&#x436;" horiz-adv-x="592" 
d="M100 0h-85l168 266l-168 217h84l161 -211v211h72v-210l160 210h85l-169 -217l169 -266h-85l-132 218l-28 -36v-182h-72v182l-28 36z" />
    <glyph glyph-name="afii10073" unicode="&#x437;" horiz-adv-x="432" 
d="M205 -12q-117 0 -181 79l39 43q52 -63 141 -63q51 0 82 24t31 63q0 81 -118 81h-90v59h89q50 0 80.5 22t30.5 61q0 36 -31 57.5t-81 21.5q-81 0 -126 -61l-40 42q60 78 164 78q84 0 135.5 -35t51.5 -95q0 -44 -32.5 -77t-76.5 -42q46 -5 81.5 -36t35.5 -81
q0 -61 -49 -101t-136 -40z" />
    <glyph glyph-name="afii10074" unicode="&#x438;" 
d="M137 0h-71v483h71v-351l188 351h74v-483h-71v359z" />
    <glyph glyph-name="afii10075" unicode="&#x439;" 
d="M137 0h-71v483h71v-351l188 351h74v-483h-71v359zM380 619q-56 -74 -147 -74q-92 0 -148 74l37 30q39 -57 111 -57q71 0 110 57z" />
    <glyph glyph-name="afii10076" unicode="&#x43a;" horiz-adv-x="438" 
d="M423 0h-85l-133 218l-68 -87v-131h-71v483h71v-262l201 262h85l-169 -217z" />
    <glyph glyph-name="afii10077" unicode="&#x43b;" 
d="M18 -12v62q34 0 53.5 39.5t29.5 143.5l24 250h274v-483h-71v420h-137l-18 -194q-12 -132 -50 -185t-105 -53z" />
    <glyph glyph-name="afii10078" unicode="&#x43c;" horiz-adv-x="561" 
d="M496 0h-71v364l-129 -364h-30l-129 364v-364h-71v483h94l121 -340l121 340h94v-483z" />
    <glyph glyph-name="afii10079" unicode="&#x43d;" 
d="M137 0h-71v483h71v-201h191v201h71v-483h-71v219h-191v-219z" />
    <glyph glyph-name="afii10080" unicode="&#x43e;" horiz-adv-x="477" 
d="M238 -12q-92 0 -144 73t-52 181q0 107 52 180t144 73q93 0 145 -72.5t52 -180.5t-52 -181t-145 -73zM238 52q60 0 91 55t31 135q0 79 -31 134t-91 55q-59 0 -90 -55t-31 -134q0 -80 31 -135t90 -55z" />
    <glyph glyph-name="afii10081" unicode="&#x43f;" 
d="M399 0h-71v420h-191v-420h-71v483h333v-483z" />
    <glyph glyph-name="afii10082" unicode="&#x440;" horiz-adv-x="478" 
d="M264 -12q-81 0 -127 82v-254h-71v667h71v-69q21 37 55 59t72 22q81 0 127 -69t46 -184t-46 -184.5t-127 -69.5zM246 52q57 0 86.5 53.5t29.5 136.5t-29.5 136t-86.5 53q-33 0 -63.5 -22.5t-45.5 -55.5v-221q15 -33 45.5 -56.5t63.5 -23.5z" />
    <glyph glyph-name="afii10083" unicode="&#x441;" horiz-adv-x="406" 
d="M242 -12q-91 0 -145.5 72t-54.5 182t54.5 181.5t145.5 71.5q86 0 138 -64l-39 -49q-36 49 -93 49q-62 0 -96.5 -54t-34.5 -135t34.5 -135.5t96.5 -54.5q56 0 93 49l39 -49q-51 -64 -138 -64z" />
    <glyph glyph-name="afii10084" unicode="&#x442;" horiz-adv-x="340" 
d="M206 0h-72v420h-111v63h294v-63h-111v-420z" />
    <glyph glyph-name="afii10085" unicode="&#x443;" horiz-adv-x="408" 
d="M41 -189l11 64q13 -7 32 -7q22 0 34.5 10.5t22.5 37.5l26 74l-161 493h78l120 -396l121 396h77l-193 -585q-17 -51 -46.5 -72.5t-73.5 -21.5q-29 0 -48 7z" />
    <glyph glyph-name="afii10086" unicode="&#x444;" horiz-adv-x="679" 
d="M196 495q68 0 108 -81v253h71v-252q18 37 47 58.5t61 21.5q68 0 107 -69t39 -184t-39 -184.5t-107 -69.5q-32 0 -61 21t-47 60v-253h-71v252q-17 -37 -46 -58.5t-62 -21.5q-68 0 -107 69t-39 184t39 184.5t107 69.5zM216 431q-46 0 -69.5 -53t-23.5 -137
q0 -82 24.5 -135.5t69.5 -53.5q26 0 50.5 23t36.5 56v221q-12 33 -36.5 56t-51.5 23zM462 52q45 0 69.5 53.5t24.5 136.5t-23.5 136t-69.5 53q-27 0 -51.5 -22.5t-36.5 -55.5v-221q12 -33 36.5 -56.5t50.5 -23.5z" />
    <glyph glyph-name="afii10087" unicode="&#x445;" horiz-adv-x="406" 
d="M394 0h-80l-111 194l-111 -194h-80l147 246l-139 237h80l103 -184l103 184h80l-139 -237z" />
    <glyph glyph-name="afii10088" unicode="&#x446;" horiz-adv-x="479" 
d="M383 -123v123h-317v483h71v-420h191v420h71v-420h55v-186h-71z" />
    <glyph glyph-name="afii10089" unicode="&#x447;" horiz-adv-x="454" 
d="M55 483h72v-153q0 -49 21.5 -69t69.5 -20q60 0 99 25v217h72v-483h-72v209q-50 -32 -119 -32q-76 0 -109.5 32t-33.5 100v174z" />
    <glyph glyph-name="afii10090" unicode="&#x448;" horiz-adv-x="666" 
d="M528 483h72v-483h-534v483h71v-420h160v420h72v-420h159v420z" />
    <glyph glyph-name="afii10091" unicode="&#x449;" horiz-adv-x="682" 
d="M528 483h72v-420h58v-186h-72v123h-520v483h71v-420h160v420h72v-420h159v420z" />
    <glyph glyph-name="afii10092" unicode="&#x44a;" horiz-adv-x="509" 
d="M324 0h-190v420h-111v63h183v-189h118q72 0 110 -42t38 -105t-38.5 -105t-109.5 -42zM316 233h-110v-172h110q39 0 60.5 23.5t21.5 62.5t-21 62.5t-61 23.5z" />
    <glyph glyph-name="afii10093" unicode="&#x44b;" horiz-adv-x="612" 
d="M66 483h71v-189h118q72 0 110.5 -42t38.5 -105t-38.5 -105t-110.5 -42h-189v483zM248 233h-111v-172h111q39 0 60.5 23.5t21.5 62.5t-21 62.5t-61 23.5zM546 0h-71v483h71v-483z" />
    <glyph glyph-name="afii10094" unicode="&#x44c;" horiz-adv-x="440" 
d="M66 483h71v-189h118q72 0 110.5 -42t38.5 -105t-38.5 -105t-110.5 -42h-189v483zM248 233h-111v-172h111q39 0 60.5 23.5t21.5 62.5t-21 62.5t-61 23.5z" />
    <glyph glyph-name="afii10095" unicode="&#x44d;" horiz-adv-x="406" 
d="M164 -12q-87 0 -138 64l38 46q38 -50 94 -50t90 46t39 119h-194v63h194q-6 70 -40 114.5t-89 44.5q-56 0 -94 -50l-38 46q52 64 138 64q92 0 146 -71.5t54 -181.5t-54 -182t-146 -72z" />
    <glyph glyph-name="afii10096" unicode="&#x44e;" horiz-adv-x="655" 
d="M416 -12q-87 0 -138.5 66t-57.5 165h-83v-219h-71v483h71v-201h85q9 93 60 153t134 60q93 0 144.5 -72.5t51.5 -180.5t-51.5 -181t-144.5 -73zM416 52q60 0 90.5 55t30.5 135t-30.5 134.5t-90.5 54.5q-59 0 -90 -55t-31 -134q0 -80 31 -135t90 -55z" />
    <glyph glyph-name="afii10097" unicode="&#x44f;" horiz-adv-x="463" 
d="M132 0h-82l107 197q-44 9 -73 45.5t-29 93.5q0 64 39.5 105.5t109.5 41.5h193v-483h-72v189h-96zM211 250h114v172h-114q-39 0 -60.5 -23.5t-21.5 -62.5t21 -62.5t61 -23.5z" />
    <glyph glyph-name="afii10071" unicode="&#x451;" horiz-adv-x="468" 
d="M370 603q0 -18 -13.5 -31t-31.5 -13q-19 0 -32 13t-13 31q0 19 13 32t32 13q18 0 31.5 -13t13.5 -32zM196 603q0 -18 -13 -31t-32 -13q-18 0 -31.5 13t-13.5 31q0 19 13.5 32t31.5 13q19 0 32 -13t13 -32zM249 -12q-95 0 -151 70.5t-56 183.5q0 108 53.5 180.5
t142.5 72.5q92 0 141.5 -72t49.5 -183v-22h-313q2 -75 39 -122.5t100 -47.5q68 0 115 59l38 -42q-63 -77 -159 -77zM358 271q-1 65 -31 114.5t-90 49.5q-58 0 -88.5 -50.5t-32.5 -113.5h242z" />
    <glyph glyph-name="afii10099" unicode="&#x452;" horiz-adv-x="473" 
d="M282 536h-137v-122q23 34 61.5 57.5t79.5 23.5q121 0 121 -130v-424q0 -137 -120 -137q-49 0 -82 34l26 53q21 -26 49 -26q56 0 56 76v404q0 86 -78 86q-34 0 -64.5 -22.5t-48.5 -54.5v-354h-71v536h-59v46h59v85h71v-85h137v-46z" />
    <glyph glyph-name="afii10100" unicode="&#x453;" horiz-adv-x="364" 
d="M343 700l-134 -144h-52l113 144h73zM341 483v-63h-204v-420h-71v483h275z" />
    <glyph glyph-name="afii10101" unicode="&#x454;" horiz-adv-x="406" 
d="M242 -12q-91 0 -145.5 72t-54.5 182t54.5 181.5t145.5 71.5q86 0 138 -64l-38 -46q-38 50 -94 50t-89.5 -44t-40.5 -115h195v-63h-195q6 -73 40 -119t90 -46t94 50l38 -46q-51 -64 -138 -64z" />
    <glyph glyph-name="afii10102" unicode="&#x455;" horiz-adv-x="387" 
d="M190 -12q-104 0 -163 68l36 51q50 -61 126 -61q42 0 67.5 21.5t25.5 56.5q0 31 -25 52t-60 34.5t-70.5 29.5t-60.5 47.5t-25 77.5q0 56 42 93t112 37q90 0 147 -62l-34 -49q-40 53 -112 53q-39 0 -62.5 -20t-23.5 -50q0 -28 25 -47t60 -32.5t70.5 -30.5t60.5 -50t25 -81
q0 -61 -44 -99.5t-117 -38.5z" />
    <glyph glyph-name="afii10103" unicode="&#x456;" horiz-adv-x="203" 
d="M101 553q-20 0 -34.5 14.5t-14.5 34.5t14.5 34.5t34.5 14.5t34.5 -14.5t14.5 -34.5t-14.5 -34.5t-34.5 -14.5zM137 0h-71v483h71v-483z" />
    <glyph glyph-name="afii10104" unicode="&#x457;" horiz-adv-x="203" 
d="M233 603q0 -18 -13.5 -31t-31.5 -13q-19 0 -32 13t-13 31q0 19 13 32t32 13q18 0 31.5 -13t13.5 -32zM59 603q0 -18 -13 -31t-32 -13q-18 0 -31.5 13t-13.5 31q0 19 13.5 32t31.5 13q19 0 32 -13t13 -32zM137 0h-71v483h71v-483z" />
    <glyph glyph-name="afii10105" unicode="&#x458;" horiz-adv-x="203" 
d="M101 553q-20 0 -34.5 14.5t-14.5 34.5t14.5 34.5t34.5 14.5t34.5 -14.5t14.5 -34.5t-14.5 -34.5t-34.5 -14.5zM17 -196q-51 0 -82 34l26 53q21 -26 49 -26q56 0 56 76v542h71v-542q0 -137 -120 -137z" />
    <glyph glyph-name="afii10106" unicode="&#x459;" horiz-adv-x="703" 
d="M18 -12v62q34 0 53.5 39.5t29.5 143.5l24 250h274v-189h118q72 0 110.5 -42t38.5 -105t-38.5 -105t-110.5 -42h-189v420h-137l-18 -194q-12 -132 -50 -185t-105 -53zM510 233h-111v-172h111q39 0 60.5 23.5t21.5 62.5t-21 62.5t-61 23.5z" />
    <glyph glyph-name="afii10107" unicode="&#x45a;" horiz-adv-x="703" 
d="M137 0h-71v483h71v-201h191v201h71v-201h122q70 0 107.5 -40t37.5 -102q0 -60 -38 -100t-107 -40h-193v219h-191v-219zM514 221h-115v-160h115q37 0 57.5 22t20.5 58t-20 58t-58 22z" />
    <glyph glyph-name="afii10108" unicode="&#x45b;" horiz-adv-x="473" 
d="M285 536h-140v-122q23 34 61.5 57.5t79.5 23.5q121 0 121 -129v-366h-71v345q0 86 -78 86q-34 0 -64.5 -22.5t-48.5 -54.5v-354h-71v536h-59v46h59v85h71v-85h140v-46z" />
    <glyph glyph-name="afii10109" unicode="&#x45c;" horiz-adv-x="438" 
d="M359 700l-134 -144h-52l113 144h73zM423 0h-85l-133 218l-68 -87v-131h-71v483h71v-262l201 262h85l-169 -217z" />
    <glyph glyph-name="afii10110" unicode="&#x45e;" horiz-adv-x="408" 
d="M41 -189l11 64q13 -7 32 -7q22 0 34.5 10.5t22.5 37.5l26 74l-161 493h78l120 -396l121 396h77l-193 -585q-17 -51 -46.5 -72.5t-73.5 -21.5q-29 0 -48 7zM351 619q-56 -74 -147 -74q-92 0 -148 74l37 30q39 -57 111 -57q71 0 110 57z" />
    <glyph glyph-name="afii10193" unicode="&#x45f;" 
d="M197 -125v125h-131v483h71v-420h191v420h71v-483h-130v-125h-72z" />
    <glyph glyph-name="afii10050" unicode="&#x490;" horiz-adv-x="451" 
d="M150 597v-597h-80v667h264v123h79v-193h-263z" />
    <glyph glyph-name="afii10098" unicode="&#x491;" horiz-adv-x="364" 
d="M137 420v-420h-71v483h203v125h72v-188h-204z" />
    <glyph glyph-name="uni1E02" unicode="&#x1e02;" horiz-adv-x="516" 
d="M297 0h-227v667h221q78 0 121.5 -46.5t43.5 -123.5q0 -61 -28 -100.5t-74 -52.5q48 -7 80.5 -55t32.5 -109q0 -83 -44 -131.5t-126 -48.5zM276 376q49 0 73.5 30.5t24.5 79.5t-24.5 80t-73.5 31h-126v-221h126zM281 71q51 0 77.5 30.5t26.5 86.5q0 51 -26.5 84.5
t-77.5 33.5h-131v-235h131zM258 723q-18 0 -32 13.5t-14 32.5q0 18 14 31.5t32 13.5q19 0 32 -13t13 -32t-13 -32.5t-32 -13.5z" />
    <glyph glyph-name="uni1E03" unicode="&#x1e03;" horiz-adv-x="480" 
d="M137 130q15 -33 45.5 -55.5t63.5 -22.5q57 0 86.5 53t29.5 136t-29.5 136.5t-86.5 53.5q-33 0 -63.5 -23.5t-45.5 -56.5v-221zM137 0h-71v667h71v-254q46 82 127 82t127 -70t46 -184q0 -115 -46 -184t-127 -69q-38 0 -72 22t-55 59v-69zM247 723q-18 0 -32 13.5t-14 32.5
q0 18 14 31.5t32 13.5q19 0 32 -13t13 -32t-13 -32.5t-32 -13.5z" />
    <glyph glyph-name="uni1E0A" unicode="&#x1e0a;" horiz-adv-x="564" 
d="M248 0h-178v667h178q126 0 197 -93t71 -241t-70.5 -240.5t-197.5 -92.5zM248 71q89 0 137.5 72.5t48.5 189.5q0 118 -48 191t-138 73h-98v-526h98zM282 723q-18 0 -32 13.5t-14 32.5q0 18 14 31.5t32 13.5q19 0 32 -13t13 -32t-13 -32.5t-32 -13.5z" />
    <glyph glyph-name="uni1E0B" unicode="&#x1e0b;" horiz-adv-x="480" 
d="M414 0h-72v69q-21 -37 -55 -59t-72 -22q-80 0 -126.5 69t-46.5 184q0 114 46 184t127 70q38 0 72 -21t55 -61v254h72v-667zM233 52q34 0 64.5 23t44.5 55v222q-14 33 -45 56t-64 23q-57 0 -86.5 -53.5t-29.5 -136.5t29.5 -136t86.5 -53zM234 723q-18 0 -32 13.5t-14 32.5
q0 18 14 31.5t32 13.5q19 0 32 -13t13 -32t-13 -32.5t-32 -13.5z" />
    <glyph glyph-name="uni1E1E" unicode="&#x1e1e;" horiz-adv-x="451" 
d="M244 723q-18 0 -32 13.5t-14 32.5q0 18 14 31.5t32 13.5q19 0 32 -13t13 -32t-13 -32.5t-32 -13.5zM150 0h-80v667h343v-70h-263v-221h256v-70h-256v-306z" />
    <glyph glyph-name="uni1E1F" unicode="&#x1e1f;" horiz-adv-x="254" 
d="M204 723q-18 0 -32 13.5t-14 32.5q0 18 14 31.5t32 13.5q19 0 32 -13t13 -32t-13 -32.5t-32 -13.5zM155 0h-72v420h-64v63h64v59q0 63 32.5 99t88.5 36q53 0 86 -32l-28 -51q-20 22 -47 22q-60 0 -60 -74v-59h82v-63h-82v-420z" />
    <glyph glyph-name="uni1E22" unicode="&#x1e22;" horiz-adv-x="574" 
d="M504 0h-80v308h-274v-308h-80v667h80v-289h274v289h80v-667zM287 723q-18 0 -32 13.5t-14 32.5q0 18 14 31.5t32 13.5q19 0 32 -13t13 -32t-13 -32.5t-32 -13.5z" />
    <glyph glyph-name="uni1E23" unicode="&#x1e23;" 
d="M399 0h-71v345q0 86 -78 86q-34 0 -64.5 -22.5t-48.5 -54.5v-354h-71v667h71v-253q22 34 61 57.5t80 23.5q121 0 121 -129v-366zM233 723q-18 0 -32 13.5t-14 32.5q0 18 14 31.5t32 13.5q19 0 32 -13t13 -32t-13 -32.5t-32 -13.5z" />
    <glyph glyph-name="uni1E56" unicode="&#x1e56;" horiz-adv-x="487" 
d="M150 0h-80v667h203q88 0 136 -57t48 -143q0 -85 -48.5 -142.5t-135.5 -57.5h-123v-267zM265 337q51 0 80.5 36t29.5 94t-29.5 94t-80.5 36h-115v-260h115zM243 723q-18 0 -32 13.5t-14 32.5q0 18 14 31.5t32 13.5q19 0 32 -13t13 -32t-13 -32.5t-32 -13.5z" />
    <glyph glyph-name="uni1E57" unicode="&#x1e57;" horiz-adv-x="478" 
d="M264 -12q-81 0 -127 82v-254h-71v667h71v-69q21 37 55 59t72 22q81 0 127 -69t46 -184t-46 -184.5t-127 -69.5zM246 52q57 0 86.5 53.5t29.5 136.5t-29.5 136t-86.5 53q-33 0 -63.5 -22.5t-45.5 -55.5v-221q15 -33 45.5 -56.5t63.5 -23.5zM247 556q-18 0 -32 13.5
t-14 32.5q0 18 14 31.5t32 13.5q19 0 32 -13t13 -32t-13 -32.5t-32 -13.5z" />
    <glyph glyph-name="uni1E60" unicode="&#x1e60;" horiz-adv-x="470" 
d="M228 -12q-125 0 -199 84l44 61q61 -74 155 -74q60 0 91 31.5t31 77.5q0 44 -31 75.5t-75 51.5t-88.5 43t-75.5 64.5t-31 100.5q0 76 54 125.5t137 49.5q110 0 178 -70l-42 -60q-53 59 -138 59q-46 0 -77 -28t-31 -72q0 -33 22.5 -58.5t55.5 -41t72.5 -36.5t72.5 -43
t55.5 -62.5t22.5 -92.5q0 -79 -52.5 -132t-150.5 -53zM235 723q-18 0 -32 13.5t-14 32.5q0 18 14 31.5t32 13.5q19 0 32 -13t13 -32t-13 -32.5t-32 -13.5z" />
    <glyph glyph-name="uni1E61" unicode="&#x1e61;" horiz-adv-x="387" 
d="M190 -12q-104 0 -163 68l36 51q50 -61 126 -61q42 0 67.5 21.5t25.5 56.5q0 31 -25 52t-60 34.5t-70.5 29.5t-60.5 47.5t-25 77.5q0 56 42 93t112 37q90 0 147 -62l-34 -49q-40 53 -112 53q-39 0 -62.5 -20t-23.5 -50q0 -28 25 -47t60 -32.5t70.5 -30.5t60.5 -50t25 -81
q0 -61 -44 -99.5t-117 -38.5zM194 556q-18 0 -32 13.5t-14 32.5q0 18 14 31.5t32 13.5q19 0 32 -13t13 -32t-13 -32.5t-32 -13.5z" />
    <glyph glyph-name="uni1E6A" unicode="&#x1e6a;" horiz-adv-x="446" 
d="M262 0h-79v597h-158v70h396v-70h-159v-597zM223 723q-18 0 -32 13.5t-14 32.5q0 18 14 31.5t32 13.5q19 0 32 -13t13 -32t-13 -32.5t-32 -13.5z" />
    <glyph glyph-name="uni1E6B" unicode="&#x1e6b;" horiz-adv-x="263" 
d="M177 -12q-97 0 -97 109v323h-64v63h64v132h72v-132h82v-63h-82v-310q0 -58 39 -58q26 0 42 19l22 -54q-29 -29 -78 -29zM120 723q-18 0 -32 13.5t-14 32.5q0 18 14 31.5t32 13.5q19 0 32 -13t13 -32t-13 -32.5t-32 -13.5z" />
    <glyph glyph-name="Wgrave" unicode="&#x1e80;" horiz-adv-x="715" 
d="M551 0h-85l-109 526l-108 -526h-85l-148 667h85l109 -544l114 544h67l114 -544l109 544h85zM404 723h-52l-134 144h73z" />
    <glyph glyph-name="wgrave" unicode="&#x1e81;" horiz-adv-x="638" 
d="M496 0h-74l-103 388l-104 -388h-73l-129 483h75l94 -386l102 386h68l103 -386l95 386h75zM366 556h-52l-134 144h73z" />
    <glyph glyph-name="Wacute" unicode="&#x1e82;" horiz-adv-x="715" 
d="M499 867l-134 -144h-52l113 144h73zM551 0h-85l-109 526l-108 -526h-85l-148 667h85l109 -544l114 544h67l114 -544l109 544h85z" />
    <glyph glyph-name="wacute" unicode="&#x1e83;" horiz-adv-x="638" 
d="M458 700l-134 -144h-52l113 144h73zM496 0h-74l-103 388l-104 -388h-73l-129 483h75l94 -386l102 386h68l103 -386l95 386h75z" />
    <glyph glyph-name="Wdieresis" unicode="&#x1e84;" horiz-adv-x="715" 
d="M490 770q0 -18 -13.5 -31t-31.5 -13q-19 0 -32 13t-13 31q0 19 13 32t32 13q18 0 31.5 -13t13.5 -32zM316 770q0 -18 -13 -31t-32 -13q-18 0 -31.5 13t-13.5 31q0 19 13.5 32t31.5 13q19 0 32 -13t13 -32zM551 0h-85l-109 526l-108 -526h-85l-148 667h85l109 -544
l114 544h67l114 -544l109 544h85z" />
    <glyph glyph-name="wdieresis" unicode="&#x1e85;" horiz-adv-x="638" 
d="M451 603q0 -18 -13.5 -31t-31.5 -13q-19 0 -32 13t-13 31q0 19 13 32t32 13q18 0 31.5 -13t13.5 -32zM277 603q0 -18 -13 -31t-32 -13q-18 0 -31.5 13t-13.5 31q0 19 13.5 32t31.5 13q19 0 32 -13t13 -32zM496 0h-74l-103 388l-104 -388h-73l-129 483h75l94 -386l102 386
h68l103 -386l95 386h75z" />
    <glyph glyph-name="uni1EA0" unicode="&#x1ea0;" horiz-adv-x="511" 
d="M503 0h-86l-43 151h-237l-43 -151h-86l200 667h95zM357 221l-102 358l-101 -358h203zM256 -183q-18 0 -32 13.5t-14 32.5q0 18 14 31.5t32 13.5q19 0 32 -13t13 -32t-13 -32.5t-32 -13.5z" />
    <glyph glyph-name="uni1EA1" unicode="&#x1ea1;" horiz-adv-x="451" 
d="M386 0h-72v52q-45 -64 -127 -64q-61 0 -103.5 44t-42.5 117t42 116t104 43q84 0 127 -62v84q0 49 -26 76t-73 27q-69 0 -121 -59l-32 51q67 70 164 70q75 0 117.5 -38.5t42.5 -118.5v-338zM210 40q70 0 104 61v92q-33 62 -104 62q-44 0 -70 -30.5t-26 -76.5t26 -77
t70 -31zM226 -183q-18 0 -32 13.5t-14 32.5q0 18 14 31.5t32 13.5q19 0 32 -13t13 -32t-13 -32.5t-32 -13.5z" />
    <glyph glyph-name="uni1EA2" unicode="&#x1ea2;" horiz-adv-x="511" 
d="M503 0h-86l-43 151h-237l-43 -151h-86l200 667h95zM357 221l-102 358l-101 -358h203zM223 761l-32 8q14 51 65 51q28 0 45.5 -16.5t17.5 -48.5q0 -29 -19 -58h-37q23 27 23 57q0 35 -30 35q-25 0 -33 -28z" />
    <glyph glyph-name="uni1EA3" unicode="&#x1ea3;" horiz-adv-x="451" 
d="M386 0h-72v52q-45 -64 -127 -64q-61 0 -103.5 44t-42.5 117t42 116t104 43q84 0 127 -62v84q0 49 -26 76t-73 27q-69 0 -121 -59l-32 51q67 70 164 70q75 0 117.5 -38.5t42.5 -118.5v-338zM210 40q70 0 104 61v92q-33 62 -104 62q-44 0 -70 -30.5t-26 -76.5t26 -77
t70 -31zM193 591l-32 8q14 51 65 51q28 0 45.5 -16.5t17.5 -48.5q0 -29 -19 -58h-37q23 27 23 57q0 35 -30 35q-25 0 -33 -28z" />
    <glyph glyph-name="uni1EA4" unicode="&#x1ea4;" horiz-adv-x="511" 
d="M373 682h-47l-71 79l-69 -79h-46l80 108h70zM503 0h-86l-43 151h-237l-43 -151h-86l200 667h95zM357 221l-102 358l-101 -358h203zM531 844l-134 -108h-52l113 108h73z" />
    <glyph glyph-name="uni1EA5" unicode="&#x1ea5;" horiz-adv-x="451" 
d="M386 0h-72v52q-45 -64 -127 -64q-61 0 -103.5 44t-42.5 117t42 116t104 43q84 0 127 -62v84q0 49 -26 76t-73 27q-69 0 -121 -59l-32 51q67 70 164 70q75 0 117.5 -38.5t42.5 -118.5v-338zM210 40q70 0 104 61v92q-33 62 -104 62q-44 0 -70 -30.5t-26 -76.5t26 -77
t70 -31zM345 556h-47l-71 105l-69 -105h-46l80 144h70zM498 771l-134 -144h-52l113 144h73z" />
    <glyph glyph-name="uni1EA6" unicode="&#x1ea6;" horiz-adv-x="511" 
d="M373 682h-47l-71 79l-69 -79h-46l80 108h70zM503 0h-86l-43 151h-237l-43 -151h-86l200 667h95zM357 221l-102 358l-101 -358h203zM167 736h-52l-134 108h73z" />
    <glyph glyph-name="uni1EA7" unicode="&#x1ea7;" horiz-adv-x="451" 
d="M386 0h-72v52q-45 -64 -127 -64q-61 0 -103.5 44t-42.5 117t42 116t104 43q84 0 127 -62v84q0 49 -26 76t-73 27q-69 0 -121 -59l-32 51q67 70 164 70q75 0 117.5 -38.5t42.5 -118.5v-338zM210 40q70 0 104 61v92q-33 62 -104 62q-44 0 -70 -30.5t-26 -76.5t26 -77
t70 -31zM345 556h-47l-71 105l-69 -105h-46l80 144h70zM141 627h-52l-134 144h73z" />
    <glyph glyph-name="uni1EA8" unicode="&#x1ea8;" horiz-adv-x="511" 
d="M373 682h-47l-71 79l-69 -79h-46l80 108h70zM503 0h-86l-43 151h-237l-43 -151h-86l200 667h95zM357 221l-102 358l-101 -358h203zM344 791l-32 6q14 38 65 38q28 0 45.5 -12t17.5 -36q0 -22 -19 -44h-37q23 20 23 43q0 26 -30 26q-25 0 -33 -21z" />
    <glyph glyph-name="uni1EA9" unicode="&#x1ea9;" horiz-adv-x="451" 
d="M386 0h-72v52q-45 -64 -127 -64q-61 0 -103.5 44t-42.5 117t42 116t104 43q84 0 127 -62v84q0 49 -26 76t-73 27q-69 0 -121 -59l-32 51q67 70 164 70q75 0 117.5 -38.5t42.5 -118.5v-338zM210 40q70 0 104 61v92q-33 62 -104 62q-44 0 -70 -30.5t-26 -76.5t26 -77
t70 -31zM345 556h-47l-71 105l-69 -105h-46l80 144h70zM274 731l-32 8q14 51 65 51q28 0 45.5 -16.5t17.5 -48.5q0 -29 -19 -58h-37q23 27 23 57q0 35 -30 35q-25 0 -33 -28z" />
    <glyph glyph-name="uni1EAA" unicode="&#x1eaa;" horiz-adv-x="511" 
d="M373 678h-47l-71 52l-69 -52h-46l80 72h70zM503 0h-86l-43 151h-237l-43 -151h-86l200 667h95zM357 221l-102 358l-101 -358h203zM305 757q-27 0 -44.5 11.5t-30 23.5t-28.5 12q-18 0 -29 -11t-11 -33h-42q0 30 22 48.5t63 18.5q27 0 44.5 -11.5t30 -23.5t28.5 -12
q40 0 40 44h42q0 -30 -22 -48.5t-63 -18.5z" />
    <glyph glyph-name="uni1EAB" unicode="&#x1eab;" horiz-adv-x="451" 
d="M386 0h-72v52q-45 -64 -127 -64q-61 0 -103.5 44t-42.5 117t42 116t104 43q84 0 127 -62v84q0 49 -26 76t-73 27q-69 0 -121 -59l-32 51q67 70 164 70q75 0 117.5 -38.5t42.5 -118.5v-338zM210 40q70 0 104 61v92q-33 62 -104 62q-44 0 -70 -30.5t-26 -76.5t26 -77
t70 -31zM345 523h-47l-71 105l-69 -105h-46l80 144h70zM275 682q-22 0 -37.5 14.5t-23 32.5t-18.5 32.5t-24 14.5q-18 0 -29 -22t-11 -66h-42q0 60 22 97t63 37q22 0 37.5 -14.5t23 -32t18.5 -32t24 -14.5q40 0 40 87h42q0 -60 -22 -97t-63 -37z" />
    <glyph glyph-name="uni1EAC" unicode="&#x1eac;" horiz-adv-x="511" 
d="M503 0h-86l-43 151h-237l-43 -151h-86l200 667h95zM357 221l-102 358l-101 -358h203zM373 723h-47l-71 105l-69 -105h-46l80 144h70zM256 -183q-18 0 -32 13.5t-14 32.5q0 18 14 31.5t32 13.5q19 0 32 -13t13 -32t-13 -32.5t-32 -13.5z" />
    <glyph glyph-name="uni1EAD" unicode="&#x1ead;" horiz-adv-x="451" 
d="M386 0h-72v52q-45 -64 -127 -64q-61 0 -103.5 44t-42.5 117t42 116t104 43q84 0 127 -62v84q0 49 -26 76t-73 27q-69 0 -121 -59l-32 51q67 70 164 70q75 0 117.5 -38.5t42.5 -118.5v-338zM210 40q70 0 104 61v92q-33 62 -104 62q-44 0 -70 -30.5t-26 -76.5t26 -77
t70 -31zM342 556h-47l-71 105l-69 -105h-46l80 144h70zM226 -183q-18 0 -32 13.5t-14 32.5q0 18 14 31.5t32 13.5q19 0 32 -13t13 -32t-13 -32.5t-32 -13.5z" />
    <glyph glyph-name="uni1EAE" unicode="&#x1eae;" horiz-adv-x="511" 
d="M503 0h-86l-43 151h-237l-43 -151h-86l200 667h95zM357 221l-102 358l-101 -358h203zM393 838l-134 -98h-52l113 98h73zM403 749q-56 -64 -147 -64q-92 0 -148 64l37 26q39 -49 111 -49q71 0 110 49z" />
    <glyph glyph-name="uni1EAF" unicode="&#x1eaf;" horiz-adv-x="451" 
d="M386 0h-72v52q-45 -64 -127 -64q-61 0 -103.5 44t-42.5 117t42 116t104 43q84 0 127 -62v84q0 49 -26 76t-73 27q-69 0 -121 -59l-32 51q67 70 164 70q75 0 117.5 -38.5t42.5 -118.5v-338zM210 40q70 0 104 61v92q-33 62 -104 62q-44 0 -70 -30.5t-26 -76.5t26 -77
t70 -31zM366 766l-134 -144h-52l113 144h73zM374 597q-56 -74 -147 -74q-92 0 -148 74l37 30q39 -57 111 -57q71 0 110 57z" />
    <glyph glyph-name="uni1EB0" unicode="&#x1eb0;" horiz-adv-x="511" 
d="M503 0h-86l-43 151h-237l-43 -151h-86l200 667h95zM357 221l-102 358l-101 -358h203zM305 740h-52l-134 98h73zM403 747q-56 -64 -147 -64q-92 0 -148 64l37 26q39 -49 111 -49q71 0 110 49z" />
    <glyph glyph-name="uni1EB1" unicode="&#x1eb1;" horiz-adv-x="451" 
d="M386 0h-72v52q-45 -64 -127 -64q-61 0 -103.5 44t-42.5 117t42 116t104 43q84 0 127 -62v84q0 49 -26 76t-73 27q-69 0 -121 -59l-32 51q67 70 164 70q75 0 117.5 -38.5t42.5 -118.5v-338zM210 40q70 0 104 61v92q-33 62 -104 62q-44 0 -70 -30.5t-26 -76.5t26 -77
t70 -31zM272 622h-52l-134 144h73zM374 599q-56 -74 -147 -74q-92 0 -148 74l37 30q39 -57 111 -57q71 0 110 57z" />
    <glyph glyph-name="uni1EB2" unicode="&#x1eb2;" horiz-adv-x="511" 
d="M503 0h-86l-43 151h-237l-43 -151h-86l200 667h95zM357 221l-102 358l-101 -358h203zM223 788l-32 5q14 35 65 35q28 0 45.5 -11.5t17.5 -33.5q0 -20 -19 -39h-37q23 19 23 39q0 24 -30 24q-25 0 -33 -19zM403 748q-56 -64 -147 -64q-92 0 -148 64l37 26q39 -49 111 -49
q71 0 110 49z" />
    <glyph glyph-name="uni1EB3" unicode="&#x1eb3;" horiz-adv-x="451" 
d="M386 0h-72v52q-45 -64 -127 -64q-61 0 -103.5 44t-42.5 117t42 116t104 43q84 0 127 -62v84q0 49 -26 76t-73 27q-69 0 -121 -59l-32 51q67 70 164 70q75 0 117.5 -38.5t42.5 -118.5v-338zM210 40q70 0 104 61v92q-33 62 -104 62q-44 0 -70 -30.5t-26 -76.5t26 -77
t70 -31zM195 683l-32 8q14 51 65 51q28 0 45.5 -16.5t17.5 -48.5q0 -29 -19 -58h-37q23 27 23 57q0 35 -30 35q-25 0 -33 -28zM374 599q-56 -74 -147 -74q-92 0 -148 74l37 30q39 -57 111 -57q71 0 110 57z" />
    <glyph glyph-name="uni1EB4" unicode="&#x1eb4;" horiz-adv-x="511" 
d="M503 0h-86l-43 151h-237l-43 -151h-86l200 667h95zM357 221l-102 358l-101 -358h203zM403 730q-56 -48 -147 -48q-92 0 -148 48l37 19q40 -37 111 -37q70 0 110 37zM305 757q-27 0 -44.5 11.5t-30 23.5t-28.5 12q-18 0 -29 -11t-11 -33h-42q0 30 22 48.5t63 18.5
q27 0 44.5 -11.5t30 -23.5t28.5 -12q40 0 40 44h42q0 -30 -22 -48.5t-63 -18.5z" />
    <glyph glyph-name="uni1EB5" unicode="&#x1eb5;" horiz-adv-x="451" 
d="M386 0h-72v52q-45 -64 -127 -64q-61 0 -103.5 44t-42.5 117t42 116t104 43q84 0 127 -62v84q0 49 -26 76t-73 27q-69 0 -121 -59l-32 51q67 70 164 70q75 0 117.5 -38.5t42.5 -118.5v-338zM210 40q70 0 104 61v92q-33 62 -104 62q-44 0 -70 -30.5t-26 -76.5t26 -77
t70 -31zM374 599q-56 -74 -147 -74q-92 0 -148 74l37 30q39 -57 111 -57q71 0 110 57zM274 650q-22 0 -37.5 14.5t-23 32.5t-18.5 32.5t-24 14.5q-18 0 -29 -22t-11 -66h-42q0 60 22 97t63 37q22 0 37.5 -14.5t23 -32t18.5 -32t24 -14.5q40 0 40 87h42q0 -60 -22 -97
t-63 -37z" />
    <glyph glyph-name="uni1EB6" unicode="&#x1eb6;" horiz-adv-x="511" 
d="M503 0h-86l-43 151h-237l-43 -151h-86l200 667h95zM357 221l-102 358l-101 -358h203zM256 -183q-18 0 -32 13.5t-14 32.5q0 18 14 31.5t32 13.5q19 0 32 -13t13 -32t-13 -32.5t-32 -13.5zM403 786q-56 -74 -147 -74q-92 0 -148 74l37 30q39 -57 111 -57q71 0 110 57z" />
    <glyph glyph-name="uni1EB7" unicode="&#x1eb7;" horiz-adv-x="451" 
d="M386 0h-72v52q-45 -64 -127 -64q-61 0 -103.5 44t-42.5 117t42 116t104 43q84 0 127 -62v84q0 49 -26 76t-73 27q-69 0 -121 -59l-32 51q67 70 164 70q75 0 117.5 -38.5t42.5 -118.5v-338zM210 40q70 0 104 61v92q-33 62 -104 62q-44 0 -70 -30.5t-26 -76.5t26 -77
t70 -31zM226 -183q-18 0 -32 13.5t-14 32.5q0 18 14 31.5t32 13.5q19 0 32 -13t13 -32t-13 -32.5t-32 -13.5zM373 619q-56 -74 -147 -74q-92 0 -148 74l37 30q39 -57 111 -57q71 0 110 57z" />
    <glyph glyph-name="uni1EB8" unicode="&#x1eb8;" horiz-adv-x="461" 
d="M413 0h-343v667h343v-70h-263v-221h256v-70h-256v-235h263v-71zM247 -183q-18 0 -32 13.5t-14 32.5q0 18 14 31.5t32 13.5q19 0 32 -13t13 -32t-13 -32.5t-32 -13.5z" />
    <glyph glyph-name="uni1EB9" unicode="&#x1eb9;" horiz-adv-x="468" 
d="M249 -12q-95 0 -151 70.5t-56 183.5q0 108 53.5 180.5t142.5 72.5q92 0 141.5 -72t49.5 -183v-22h-313q2 -75 39 -122.5t100 -47.5q68 0 115 59l38 -42q-63 -77 -159 -77zM358 271q-1 65 -31 114.5t-90 49.5q-58 0 -88.5 -50.5t-32.5 -113.5h242zM239 -183
q-18 0 -32 13.5t-14 32.5q0 18 14 31.5t32 13.5q19 0 32 -13t13 -32t-13 -32.5t-32 -13.5z" />
    <glyph glyph-name="uni1EBA" unicode="&#x1eba;" horiz-adv-x="461" 
d="M413 0h-343v667h343v-70h-263v-221h256v-70h-256v-235h263v-71zM201 761l-32 8q14 51 65 51q28 0 45.5 -16.5t17.5 -48.5q0 -29 -19 -58h-37q23 27 23 57q0 35 -30 35q-25 0 -33 -28z" />
    <glyph glyph-name="uni1EBB" unicode="&#x1ebb;" horiz-adv-x="468" 
d="M249 -12q-95 0 -151 70.5t-56 183.5q0 108 53.5 180.5t142.5 72.5q92 0 141.5 -72t49.5 -183v-22h-313q2 -75 39 -122.5t100 -47.5q68 0 115 59l38 -42q-63 -77 -159 -77zM358 271q-1 65 -31 114.5t-90 49.5q-58 0 -88.5 -50.5t-32.5 -113.5h242zM205 591l-32 8
q14 51 65 51q28 0 45.5 -16.5t17.5 -48.5q0 -29 -19 -58h-37q23 27 23 57q0 35 -30 35q-25 0 -33 -28z" />
    <glyph glyph-name="uni1EBC" unicode="&#x1ebc;" horiz-adv-x="461" 
d="M413 0h-343v667h343v-70h-263v-221h256v-70h-256v-235h263v-71zM291 721q-22 0 -37.5 14.5t-23 32.5t-18.5 32.5t-24 14.5q-18 0 -29 -22t-11 -66h-42q0 60 22 97t63 37q22 0 37.5 -14.5t23 -32t18.5 -32t24 -14.5q40 0 40 87h42q0 -60 -22 -97t-63 -37z" />
    <glyph glyph-name="uni1EBD" unicode="&#x1ebd;" horiz-adv-x="468" 
d="M249 -12q-95 0 -151 70.5t-56 183.5q0 108 53.5 180.5t142.5 72.5q92 0 141.5 -72t49.5 -183v-22h-313q2 -75 39 -122.5t100 -47.5q68 0 115 59l38 -42q-63 -77 -159 -77zM358 271q-1 65 -31 114.5t-90 49.5q-58 0 -88.5 -50.5t-32.5 -113.5h242zM289 554
q-22 0 -37.5 14.5t-23 32.5t-18.5 32.5t-24 14.5q-18 0 -29 -22t-11 -66h-42q0 60 22 97t63 37q22 0 37.5 -14.5t23 -32t18.5 -32t24 -14.5q40 0 40 87h42q0 -60 -22 -97t-63 -37z" />
    <glyph glyph-name="uni1EBE" unicode="&#x1ebe;" horiz-adv-x="461" 
d="M362 682h-47l-71 79l-69 -79h-46l80 108h70zM519 844l-134 -108h-52l113 108h73zM413 0h-343v667h343v-70h-263v-221h256v-70h-256v-235h263v-71z" />
    <glyph glyph-name="uni1EBF" unicode="&#x1ebf;" horiz-adv-x="468" 
d="M355 556h-47l-71 105l-69 -105h-46l80 144h70zM507 771l-134 -144h-52l113 144h73zM249 -12q-95 0 -151 70.5t-56 183.5q0 108 53.5 180.5t142.5 72.5q92 0 141.5 -72t49.5 -183v-22h-313q2 -75 39 -122.5t100 -47.5q68 0 115 59l38 -42q-63 -77 -159 -77zM358 271
q-1 65 -31 114.5t-90 49.5q-58 0 -88.5 -50.5t-32.5 -113.5h242z" />
    <glyph glyph-name="uni1EC0" unicode="&#x1ec0;" horiz-adv-x="461" 
d="M360 682h-47l-71 79l-69 -79h-46l80 108h70zM413 0h-343v667h343v-70h-263v-221h256v-70h-256v-235h263v-71zM154 736h-52l-134 108h73z" />
    <glyph glyph-name="uni1EC1" unicode="&#x1ec1;" horiz-adv-x="468" 
d="M354 556h-47l-71 105l-69 -105h-46l80 144h70zM249 -12q-95 0 -151 70.5t-56 183.5q0 108 53.5 180.5t142.5 72.5q92 0 141.5 -72t49.5 -183v-22h-313q2 -75 39 -122.5t100 -47.5q68 0 115 59l38 -42q-63 -77 -159 -77zM358 271q-1 65 -31 114.5t-90 49.5
q-58 0 -88.5 -50.5t-32.5 -113.5h242zM150 627h-52l-134 144h73z" />
    <glyph glyph-name="uni1EC2" unicode="&#x1ec2;" horiz-adv-x="461" 
d="M361 682h-47l-71 79l-69 -79h-46l80 108h70zM413 0h-343v667h343v-70h-263v-221h256v-70h-256v-235h263v-71zM332 791l-32 6q14 38 65 38q28 0 45.5 -12t17.5 -36q0 -22 -19 -44h-37q23 20 23 43q0 26 -30 26q-25 0 -33 -21z" />
    <glyph glyph-name="uni1EC3" unicode="&#x1ec3;" horiz-adv-x="468" 
d="M354 556h-47l-71 105l-69 -105h-46l80 144h70zM249 -12q-95 0 -151 70.5t-56 183.5q0 108 53.5 180.5t142.5 72.5q92 0 141.5 -72t49.5 -183v-22h-313q2 -75 39 -122.5t100 -47.5q68 0 115 59l38 -42q-63 -77 -159 -77zM358 271q-1 65 -31 114.5t-90 49.5
q-58 0 -88.5 -50.5t-32.5 -113.5h242zM283 731l-32 8q14 51 65 51q28 0 45.5 -16.5t17.5 -48.5q0 -29 -19 -58h-37q23 27 23 57q0 35 -30 35q-25 0 -33 -28z" />
    <glyph glyph-name="uni1EC4" unicode="&#x1ec4;" horiz-adv-x="461" 
d="M360 678h-47l-71 52l-69 -52h-46l80 72h70zM413 0h-343v667h343v-70h-263v-221h256v-70h-256v-235h263v-71zM292 757q-27 0 -44.5 11.5t-30 23.5t-28.5 12q-17 0 -28.5 -11t-11.5 -33h-42q0 30 22 48.5t63 18.5q27 0 44.5 -11.5t30 -23.5t28.5 -12q40 0 40 44h42
q0 -30 -22 -48.5t-63 -18.5z" />
    <glyph glyph-name="uni1EC5" unicode="&#x1ec5;" horiz-adv-x="468" 
d="M353 523h-47l-71 105l-69 -105h-46l80 144h70zM249 -12q-95 0 -151 70.5t-56 183.5q0 108 53.5 180.5t142.5 72.5q92 0 141.5 -72t49.5 -183v-22h-313q2 -75 39 -122.5t100 -47.5q68 0 115 59l38 -42q-63 -77 -159 -77zM358 271q-1 65 -31 114.5t-90 49.5
q-58 0 -88.5 -50.5t-32.5 -113.5h242zM285 682q-22 0 -37.5 14.5t-23 32.5t-18.5 32.5t-24 14.5q-18 0 -29 -22t-11 -66h-42q0 60 22 97t63 37q22 0 37.5 -14.5t23 -32t18.5 -32t24 -14.5q40 0 40 87h42q0 -60 -22 -97t-63 -37z" />
    <glyph glyph-name="uni1EC6" unicode="&#x1ec6;" horiz-adv-x="461" 
d="M359 723h-47l-71 105l-69 -105h-46l80 144h70zM413 0h-343v667h343v-70h-263v-221h256v-70h-256v-235h263v-71zM247 -183q-18 0 -32 13.5t-14 32.5q0 18 14 31.5t32 13.5q19 0 32 -13t13 -32t-13 -32.5t-32 -13.5z" />
    <glyph glyph-name="uni1EC7" unicode="&#x1ec7;" horiz-adv-x="468" 
d="M356 556h-47l-71 105l-69 -105h-46l80 144h70zM249 -12q-95 0 -151 70.5t-56 183.5q0 108 53.5 180.5t142.5 72.5q92 0 141.5 -72t49.5 -183v-22h-313q2 -75 39 -122.5t100 -47.5q68 0 115 59l38 -42q-63 -77 -159 -77zM358 271q-1 65 -31 114.5t-90 49.5
q-58 0 -88.5 -50.5t-32.5 -113.5h242zM239 -183q-18 0 -32 13.5t-14 32.5q0 18 14 31.5t32 13.5q19 0 32 -13t13 -32t-13 -32.5t-32 -13.5z" />
    <glyph glyph-name="uni1EC8" unicode="&#x1ec8;" horiz-adv-x="220" 
d="M150 0h-80v667h80v-667zM78 761l-32 8q14 51 65 51q28 0 45.5 -16.5t17.5 -48.5q0 -29 -19 -58h-37q23 27 23 57q0 35 -30 35q-25 0 -33 -28z" />
    <glyph glyph-name="uni1EC9" unicode="&#x1ec9;" horiz-adv-x="203" 
d="M137 0h-71v483h71v-483zM69 591l-32 8q14 51 65 51q28 0 45.5 -16.5t17.5 -48.5q0 -29 -19 -58h-37q23 27 23 57q0 35 -30 35q-25 0 -33 -28z" />
    <glyph glyph-name="uni1ECA" unicode="&#x1eca;" horiz-adv-x="220" 
d="M150 0h-80v667h80v-667zM110 -183q-18 0 -32 13.5t-14 32.5q0 18 14 31.5t32 13.5q19 0 32 -13t13 -32t-13 -32.5t-32 -13.5z" />
    <glyph glyph-name="uni1ECB" unicode="&#x1ecb;" horiz-adv-x="203" 
d="M101 553q-20 0 -34.5 14.5t-14.5 34.5t14.5 34.5t34.5 14.5t34.5 -14.5t14.5 -34.5t-14.5 -34.5t-34.5 -14.5zM137 0h-71v483h71v-483zM102 -183q-18 0 -32 13.5t-14 32.5q0 18 14 31.5t32 13.5q19 0 32 -13t13 -32t-13 -32.5t-32 -13.5z" />
    <glyph glyph-name="uni1ECC" unicode="&#x1ecc;" horiz-adv-x="599" 
d="M299 -12q-118 0 -185 97.5t-67 247.5t67 247.5t185 97.5t185.5 -97.5t67.5 -247.5t-67.5 -247.5t-185.5 -97.5zM299 59q80 0 125.5 77.5t45.5 196.5q0 120 -45 197t-126 77q-80 0 -125 -77t-45 -197q0 -119 45 -196.5t125 -77.5zM302 -183q-18 0 -32 13.5t-14 32.5
q0 18 14 31.5t32 13.5q19 0 32 -13t13 -32t-13 -32.5t-32 -13.5z" />
    <glyph glyph-name="uni1ECD" unicode="&#x1ecd;" horiz-adv-x="477" 
d="M238 -12q-92 0 -144 73t-52 181q0 107 52 180t144 73q93 0 145 -72.5t52 -180.5t-52 -181t-145 -73zM238 52q60 0 91 55t31 135q0 79 -31 134t-91 55q-59 0 -90 -55t-31 -134q0 -80 31 -135t90 -55zM239 -183q-18 0 -32 13.5t-14 32.5q0 18 14 31.5t32 13.5q19 0 32 -13
t13 -32t-13 -32.5t-32 -13.5z" />
    <glyph glyph-name="uni1ECE" unicode="&#x1ece;" horiz-adv-x="599" 
d="M299 -12q-118 0 -185 97.5t-67 247.5t67 247.5t185 97.5t185.5 -97.5t67.5 -247.5t-67.5 -247.5t-185.5 -97.5zM299 59q80 0 125.5 77.5t45.5 196.5q0 120 -45 197t-126 77q-80 0 -125 -77t-45 -197q0 -119 45 -196.5t125 -77.5zM267 761l-32 8q14 51 65 51
q28 0 45.5 -16.5t17.5 -48.5q0 -29 -19 -58h-37q23 27 23 57q0 35 -30 35q-25 0 -33 -28z" />
    <glyph glyph-name="uni1ECF" unicode="&#x1ecf;" horiz-adv-x="477" 
d="M238 -12q-92 0 -144 73t-52 181q0 107 52 180t144 73q93 0 145 -72.5t52 -180.5t-52 -181t-145 -73zM238 52q60 0 91 55t31 135q0 79 -31 134t-91 55q-59 0 -90 -55t-31 -134q0 -80 31 -135t90 -55zM206 591l-32 8q14 51 65 51q28 0 45.5 -16.5t17.5 -48.5q0 -29 -19 -58
h-37q23 27 23 57q0 35 -30 35q-25 0 -33 -28z" />
    <glyph glyph-name="uni1ED0" unicode="&#x1ed0;" horiz-adv-x="599" 
d="M414 682h-47l-71 79l-69 -79h-46l80 108h70zM572 844l-134 -108h-52l113 108h73zM299 -12q-118 0 -185 97.5t-67 247.5t67 247.5t185 97.5t185.5 -97.5t67.5 -247.5t-67.5 -247.5t-185.5 -97.5zM299 59q80 0 125.5 77.5t45.5 196.5q0 120 -45 197t-126 77q-80 0 -125 -77
t-45 -197q0 -119 45 -196.5t125 -77.5z" />
    <glyph glyph-name="uni1ED1" unicode="&#x1ed1;" horiz-adv-x="477" 
d="M355 556h-47l-71 105l-69 -105h-46l80 144h70zM508 771l-134 -144h-52l113 144h73zM238 -12q-92 0 -144 73t-52 181q0 107 52 180t144 73q93 0 145 -72.5t52 -180.5t-52 -181t-145 -73zM238 52q60 0 91 55t31 135q0 79 -31 134t-91 55q-59 0 -90 -55t-31 -134
q0 -80 31 -135t90 -55z" />
    <glyph glyph-name="uni1ED2" unicode="&#x1ed2;" horiz-adv-x="599" 
d="M413 682h-47l-71 79l-69 -79h-46l80 108h70zM299 -12q-118 0 -185 97.5t-67 247.5t67 247.5t185 97.5t185.5 -97.5t67.5 -247.5t-67.5 -247.5t-185.5 -97.5zM299 59q80 0 125.5 77.5t45.5 196.5q0 120 -45 197t-126 77q-80 0 -125 -77t-45 -197q0 -119 45 -196.5
t125 -77.5zM207 736h-52l-134 108h73z" />
    <glyph glyph-name="uni1ED3" unicode="&#x1ed3;" horiz-adv-x="477" 
d="M355 556h-47l-71 105l-69 -105h-46l80 144h70zM238 -12q-92 0 -144 73t-52 181q0 107 52 180t144 73q93 0 145 -72.5t52 -180.5t-52 -181t-145 -73zM238 52q60 0 91 55t31 135q0 79 -31 134t-91 55q-59 0 -90 -55t-31 -134q0 -80 31 -135t90 -55zM151 627h-52l-134 144
h73z" />
    <glyph glyph-name="uni1ED4" unicode="&#x1ed4;" horiz-adv-x="599" 
d="M413 682h-47l-71 79l-69 -79h-46l80 108h70zM299 -12q-118 0 -185 97.5t-67 247.5t67 247.5t185 97.5t185.5 -97.5t67.5 -247.5t-67.5 -247.5t-185.5 -97.5zM299 59q80 0 125.5 77.5t45.5 196.5q0 120 -45 197t-126 77q-80 0 -125 -77t-45 -197q0 -119 45 -196.5
t125 -77.5zM384 791l-32 6q14 38 65 38q28 0 45.5 -12t17.5 -36q0 -22 -19 -44h-37q23 20 23 43q0 26 -30 26q-26 0 -33 -21z" />
    <glyph glyph-name="uni1ED5" unicode="&#x1ed5;" horiz-adv-x="477" 
d="M355 556h-47l-71 105l-69 -105h-46l80 144h70zM238 -12q-92 0 -144 73t-52 181q0 107 52 180t144 73q93 0 145 -72.5t52 -180.5t-52 -181t-145 -73zM238 52q60 0 91 55t31 135q0 79 -31 134t-91 55q-59 0 -90 -55t-31 -134q0 -80 31 -135t90 -55zM284 731l-32 8
q14 51 65 51q28 0 45.5 -16.5t17.5 -48.5q0 -29 -19 -58h-37q23 27 23 57q0 35 -30 35q-25 0 -33 -28z" />
    <glyph glyph-name="uni1ED6" unicode="&#x1ed6;" horiz-adv-x="599" 
d="M416 678h-47l-71 52l-69 -52h-46l80 72h70zM299 -12q-118 0 -185 97.5t-67 247.5t67 247.5t185 97.5t185.5 -97.5t67.5 -247.5t-67.5 -247.5t-185.5 -97.5zM299 59q80 0 125.5 77.5t45.5 196.5q0 120 -45 197t-126 77q-80 0 -125 -77t-45 -197q0 -119 45 -196.5
t125 -77.5zM348 757q-27 0 -44.5 11.5t-30 23.5t-28.5 12q-17 0 -28.5 -11t-11.5 -33h-42q0 30 22 48.5t63 18.5q27 0 44.5 -11.5t30 -23.5t28.5 -12q40 0 40 44h42q0 -30 -22 -48.5t-63 -18.5z" />
    <glyph glyph-name="uni1ED7" unicode="&#x1ed7;" horiz-adv-x="477" 
d="M355 523h-47l-71 105l-69 -105h-46l80 144h70zM238 -12q-92 0 -144 73t-52 181q0 107 52 180t144 73q93 0 145 -72.5t52 -180.5t-52 -181t-145 -73zM238 52q60 0 91 55t31 135q0 79 -31 134t-91 55q-59 0 -90 -55t-31 -134q0 -80 31 -135t90 -55zM287 682
q-22 0 -37.5 14.5t-23 32.5t-18.5 32.5t-24 14.5q-18 0 -29 -22t-11 -66h-42q0 60 22 97t63 37q22 0 37.5 -14.5t23 -32t18.5 -32t24 -14.5q40 0 40 87h42q0 -60 -22 -97t-63 -37z" />
    <glyph glyph-name="uni1ED8" unicode="&#x1ed8;" horiz-adv-x="599" 
d="M418 723h-47l-71 105l-69 -105h-46l80 144h70zM299 -12q-118 0 -185 97.5t-67 247.5t67 247.5t185 97.5t185.5 -97.5t67.5 -247.5t-67.5 -247.5t-185.5 -97.5zM299 59q80 0 125.5 77.5t45.5 196.5q0 120 -45 197t-126 77q-80 0 -125 -77t-45 -197q0 -119 45 -196.5
t125 -77.5zM302 -183q-18 0 -32 13.5t-14 32.5q0 18 14 31.5t32 13.5q19 0 32 -13t13 -32t-13 -32.5t-32 -13.5z" />
    <glyph glyph-name="uni1ED9" unicode="&#x1ed9;" horiz-adv-x="477" 
d="M355 556h-47l-71 105l-69 -105h-46l80 144h70zM238 -12q-92 0 -144 73t-52 181q0 107 52 180t144 73q93 0 145 -72.5t52 -180.5t-52 -181t-145 -73zM238 52q60 0 91 55t31 135q0 79 -31 134t-91 55q-59 0 -90 -55t-31 -134q0 -80 31 -135t90 -55zM239 -183
q-18 0 -32 13.5t-14 32.5q0 18 14 31.5t32 13.5q19 0 32 -13t13 -32t-13 -32.5t-32 -13.5z" />
    <glyph glyph-name="uni1EDA" unicode="&#x1eda;" horiz-adv-x="599" 
d="M439 867l-134 -144h-52l113 144h73zM299 -12q-118 0 -185 97.5t-67 247.5t67 247.5t185 97.5q121 0 191 -107q39 34 42 74q-2 -2 -10 -2q-17 0 -28 12t-11 29t12 29.5t30 12.5q21 0 35 -16.5t14 -45.5q0 -37 -18.5 -70.5t-46.5 -54.5q43 -88 43 -206q0 -150 -67.5 -247.5
t-185.5 -97.5zM299 59q80 0 125.5 77.5t45.5 196.5q0 120 -45 197t-126 77q-80 0 -125 -77t-45 -197q0 -119 45 -196.5t125 -77.5z" />
    <glyph glyph-name="uni1EDB" unicode="&#x1edb;" horiz-adv-x="477" 
d="M378 700l-134 -144h-52l113 144h73zM447 530q0 -69 -57 -119q45 -67 45 -169q0 -108 -52 -181t-145 -73q-92 0 -144 73t-52 181q0 107 52 180t144 73q77 0 129 -55q34 32 39 71q-2 -2 -11 -2q-16 0 -27 12t-11 29t12 29.5t30 12.5q20 0 34 -16.5t14 -45.5zM238 52
q60 0 91 55t31 135q0 79 -31 134t-91 55q-59 0 -90 -55t-31 -134q0 -80 31 -135t90 -55z" />
    <glyph glyph-name="uni1EDC" unicode="&#x1edc;" horiz-adv-x="599" 
d="M299 -12q-118 0 -185 97.5t-67 247.5t67 247.5t185 97.5q121 0 191 -107q39 34 42 74q-2 -2 -10 -2q-17 0 -28 12t-11 29t12 29.5t30 12.5q21 0 35 -16.5t14 -45.5q0 -37 -18.5 -70.5t-46.5 -54.5q43 -88 43 -206q0 -150 -67.5 -247.5t-185.5 -97.5zM299 59
q80 0 125.5 77.5t45.5 196.5q0 120 -45 197t-126 77q-80 0 -125 -77t-45 -197q0 -119 45 -196.5t125 -77.5zM346 723h-52l-134 144h73z" />
    <glyph glyph-name="uni1EDD" unicode="&#x1edd;" horiz-adv-x="477" 
d="M447 530q0 -69 -57 -119q45 -67 45 -169q0 -108 -52 -181t-145 -73q-92 0 -144 73t-52 181q0 107 52 180t144 73q77 0 129 -55q34 32 39 71q-2 -2 -11 -2q-16 0 -27 12t-11 29t12 29.5t30 12.5q20 0 34 -16.5t14 -45.5zM238 52q60 0 91 55t31 135q0 79 -31 134t-91 55
q-59 0 -90 -55t-31 -134q0 -80 31 -135t90 -55zM286 556h-52l-134 144h73z" />
    <glyph glyph-name="uni1EDE" unicode="&#x1ede;" horiz-adv-x="599" 
d="M299 -12q-118 0 -185 97.5t-67 247.5t67 247.5t185 97.5q121 0 191 -107q39 34 42 74q-2 -2 -10 -2q-17 0 -28 12t-11 29t12 29.5t30 12.5q21 0 35 -16.5t14 -45.5q0 -37 -18.5 -70.5t-46.5 -54.5q43 -88 43 -206q0 -150 -67.5 -247.5t-185.5 -97.5zM299 59
q80 0 125.5 77.5t45.5 196.5q0 120 -45 197t-126 77q-80 0 -125 -77t-45 -197q0 -119 45 -196.5t125 -77.5zM267 761l-32 8q14 51 65 51q28 0 45.5 -16.5t17.5 -48.5q0 -29 -19 -58h-37q23 27 23 57q0 35 -30 35q-25 0 -33 -28z" />
    <glyph glyph-name="uni1EDF" unicode="&#x1edf;" horiz-adv-x="477" 
d="M447 530q0 -69 -57 -119q45 -67 45 -169q0 -108 -52 -181t-145 -73q-92 0 -144 73t-52 181q0 107 52 180t144 73q77 0 129 -55q34 32 39 71q-2 -2 -11 -2q-16 0 -27 12t-11 29t12 29.5t30 12.5q20 0 34 -16.5t14 -45.5zM238 52q60 0 91 55t31 135q0 79 -31 134t-91 55
q-59 0 -90 -55t-31 -134q0 -80 31 -135t90 -55zM206 591l-32 8q14 51 65 51q28 0 45.5 -16.5t17.5 -48.5q0 -29 -19 -58h-37q23 27 23 57q0 35 -30 35q-25 0 -33 -28z" />
    <glyph glyph-name="uni1EE0" unicode="&#x1ee0;" horiz-adv-x="599" 
d="M299 -12q-118 0 -185 97.5t-67 247.5t67 247.5t185 97.5q121 0 191 -107q39 34 42 74q-2 -2 -10 -2q-17 0 -28 12t-11 29t12 29.5t30 12.5q21 0 35 -16.5t14 -45.5q0 -37 -18.5 -70.5t-46.5 -54.5q43 -88 43 -206q0 -150 -67.5 -247.5t-185.5 -97.5zM299 59
q80 0 125.5 77.5t45.5 196.5q0 120 -45 197t-126 77q-80 0 -125 -77t-45 -197q0 -119 45 -196.5t125 -77.5zM350 721q-22 0 -37.5 14.5t-23 32.5t-18.5 32.5t-24 14.5q-18 0 -29 -22t-11 -66h-42q0 60 22 97t63 37q22 0 37.5 -14.5t23 -32t18.5 -32t24 -14.5q40 0 40 87h42
q0 -60 -22 -97t-63 -37z" />
    <glyph glyph-name="uni1EE1" unicode="&#x1ee1;" horiz-adv-x="477" 
d="M447 530q0 -69 -57 -119q45 -67 45 -169q0 -108 -52 -181t-145 -73q-92 0 -144 73t-52 181q0 107 52 180t144 73q77 0 129 -55q34 32 39 71q-2 -2 -11 -2q-16 0 -27 12t-11 29t12 29.5t30 12.5q20 0 34 -16.5t14 -45.5zM238 52q60 0 91 55t31 135q0 79 -31 134t-91 55
q-59 0 -90 -55t-31 -134q0 -80 31 -135t90 -55zM284 554q-22 0 -37.5 14.5t-23 32.5t-18.5 32.5t-24 14.5q-18 0 -29 -22t-11 -66h-42q0 60 22 97t63 37q22 0 37.5 -14.5t23 -32t18.5 -32t24 -14.5q40 0 40 87h42q0 -60 -22 -97t-63 -37z" />
    <glyph glyph-name="uni1EE2" unicode="&#x1ee2;" horiz-adv-x="599" 
d="M299 -12q-118 0 -185 97.5t-67 247.5t67 247.5t185 97.5q121 0 191 -107q39 34 42 74q-2 -2 -10 -2q-17 0 -28 12t-11 29t12 29.5t30 12.5q21 0 35 -16.5t14 -45.5q0 -37 -18.5 -70.5t-46.5 -54.5q43 -88 43 -206q0 -150 -67.5 -247.5t-185.5 -97.5zM299 59
q80 0 125.5 77.5t45.5 196.5q0 120 -45 197t-126 77q-80 0 -125 -77t-45 -197q0 -119 45 -196.5t125 -77.5zM302 -183q-18 0 -32 13.5t-14 32.5q0 18 14 31.5t32 13.5q19 0 32 -13t13 -32t-13 -32.5t-32 -13.5z" />
    <glyph glyph-name="uni1EE3" unicode="&#x1ee3;" horiz-adv-x="477" 
d="M447 530q0 -69 -57 -119q45 -67 45 -169q0 -108 -52 -181t-145 -73q-92 0 -144 73t-52 181q0 107 52 180t144 73q77 0 129 -55q34 32 39 71q-2 -2 -11 -2q-16 0 -27 12t-11 29t12 29.5t30 12.5q20 0 34 -16.5t14 -45.5zM238 52q60 0 91 55t31 135q0 79 -31 134t-91 55
q-59 0 -90 -55t-31 -134q0 -80 31 -135t90 -55zM239 -183q-18 0 -32 13.5t-14 32.5q0 18 14 31.5t32 13.5q19 0 32 -13t13 -32t-13 -32.5t-32 -13.5z" />
    <glyph glyph-name="uni1EE4" unicode="&#x1ee4;" horiz-adv-x="569" 
d="M284 -12q-101 0 -157.5 59.5t-56.5 168.5v451h80v-452q0 -77 35 -116.5t99 -39.5q65 0 100 39.5t35 116.5v452h79v-451q0 -110 -56 -169t-158 -59zM287 -183q-18 0 -32 13.5t-14 32.5q0 18 14 31.5t32 13.5q19 0 32 -13t13 -32t-13 -32.5t-32 -13.5z" />
    <glyph glyph-name="uni1EE5" unicode="&#x1ee5;" 
d="M399 0h-72v67q-24 -34 -60.5 -56.5t-79.5 -22.5q-121 0 -121 129v366h71v-345q0 -86 77 -86q35 0 65.5 21.5t47.5 53.5v356h72v-483zM234 -183q-18 0 -32 13.5t-14 32.5q0 18 14 31.5t32 13.5q19 0 32 -13t13 -32t-13 -32.5t-32 -13.5z" />
    <glyph glyph-name="uni1EE6" unicode="&#x1ee6;" horiz-adv-x="569" 
d="M284 -12q-101 0 -157.5 59.5t-56.5 168.5v451h80v-452q0 -77 35 -116.5t99 -39.5q65 0 100 39.5t35 116.5v452h79v-451q0 -110 -56 -169t-158 -59zM252 761l-32 8q14 51 65 51q28 0 45.5 -16.5t17.5 -48.5q0 -29 -19 -58h-37q23 27 23 57q0 35 -30 35q-25 0 -33 -28z" />
    <glyph glyph-name="uni1EE7" unicode="&#x1ee7;" 
d="M399 0h-72v67q-24 -34 -60.5 -56.5t-79.5 -22.5q-121 0 -121 129v366h71v-345q0 -86 77 -86q35 0 65.5 21.5t47.5 53.5v356h72v-483zM200 591l-32 8q14 51 65 51q28 0 45.5 -16.5t17.5 -48.5q0 -29 -19 -58h-37q23 27 23 57q0 35 -30 35q-25 0 -33 -28z" />
    <glyph glyph-name="uni1EE8" unicode="&#x1ee8;" horiz-adv-x="569" 
d="M424 867l-134 -144h-52l113 144h73zM602 729q0 -45 -27.5 -85.5t-76.5 -64.5v-363q0 -110 -56 -169t-158 -59q-101 0 -157.5 59.5t-56.5 168.5v451h80v-452q0 -77 35 -116.5t99 -39.5q65 0 100 39.5t35 116.5v452h79v-48q25 15 43 41t20 49q-1 0 -5 -0.5t-6 -0.5
q-16 0 -27 11.5t-11 28.5q0 18 11.5 30t29.5 12q21 0 35 -16.5t14 -44.5z" />
    <glyph glyph-name="uni1EE9" unicode="&#x1ee9;" 
d="M371 700l-134 -144h-52l113 144h73zM399 0h-72v67q-24 -34 -60.5 -56.5t-79.5 -22.5q-121 0 -121 129v366h71v-345q0 -86 77 -86q35 0 65.5 21.5t47.5 53.5v356h72v-41q39 36 42 74q-7 -1 -10 -1q-17 0 -28 11.5t-11 28.5q0 18 12 30.5t30 12.5q21 0 35 -17t14 -45
q0 -86 -84 -139v-397z" />
    <glyph glyph-name="uni1EEA" unicode="&#x1eea;" horiz-adv-x="569" 
d="M331 723h-52l-134 144h73zM602 729q0 -45 -27.5 -85.5t-76.5 -64.5v-363q0 -110 -56 -169t-158 -59q-101 0 -157.5 59.5t-56.5 168.5v451h80v-452q0 -77 35 -116.5t99 -39.5q65 0 100 39.5t35 116.5v452h79v-48q25 15 43 41t20 49q-1 0 -5 -0.5t-6 -0.5q-16 0 -27 11.5
t-11 28.5q0 18 11.5 30t29.5 12q21 0 35 -16.5t14 -44.5z" />
    <glyph glyph-name="uni1EEB" unicode="&#x1eeb;" 
d="M279 556h-52l-134 144h73zM399 0h-72v67q-24 -34 -60.5 -56.5t-79.5 -22.5q-121 0 -121 129v366h71v-345q0 -86 77 -86q35 0 65.5 21.5t47.5 53.5v356h72v-41q39 36 42 74q-7 -1 -10 -1q-17 0 -28 11.5t-11 28.5q0 18 12 30.5t30 12.5q21 0 35 -17t14 -45q0 -86 -84 -139
v-397z" />
    <glyph glyph-name="uni1EEC" unicode="&#x1eec;" horiz-adv-x="569" 
d="M252 761l-32 8q14 51 65 51q28 0 45.5 -16.5t17.5 -48.5q0 -29 -19 -58h-37q23 27 23 57q0 35 -30 35q-25 0 -33 -28zM602 729q0 -45 -27.5 -85.5t-76.5 -64.5v-363q0 -110 -56 -169t-158 -59q-101 0 -157.5 59.5t-56.5 168.5v451h80v-452q0 -77 35 -116.5t99 -39.5
q65 0 100 39.5t35 116.5v452h79v-48q25 15 43 41t20 49q-1 0 -5 -0.5t-6 -0.5q-16 0 -27 11.5t-11 28.5q0 18 11.5 30t29.5 12q21 0 35 -16.5t14 -44.5z" />
    <glyph glyph-name="uni1EED" unicode="&#x1eed;" 
d="M200 591l-32 8q14 51 65 51q28 0 45.5 -16.5t17.5 -48.5q0 -29 -19 -58h-37q23 27 23 57q0 35 -30 35q-25 0 -33 -28zM399 0h-72v67q-24 -34 -60.5 -56.5t-79.5 -22.5q-121 0 -121 129v366h71v-345q0 -86 77 -86q35 0 65.5 21.5t47.5 53.5v356h72v-41q39 36 42 74
q-7 -1 -10 -1q-17 0 -28 11.5t-11 28.5q0 18 12 30.5t30 12.5q21 0 35 -17t14 -45q0 -86 -84 -139v-397z" />
    <glyph glyph-name="uni1EEE" unicode="&#x1eee;" horiz-adv-x="569" 
d="M602 729q0 -45 -27.5 -85.5t-76.5 -64.5v-363q0 -110 -56 -169t-158 -59q-101 0 -157.5 59.5t-56.5 168.5v451h80v-452q0 -77 35 -116.5t99 -39.5q65 0 100 39.5t35 116.5v452h79v-48q25 15 43 41t20 49q-1 0 -5 -0.5t-6 -0.5q-16 0 -27 11.5t-11 28.5q0 18 11.5 30
t29.5 12q21 0 35 -16.5t14 -44.5zM334 721q-22 0 -37.5 14.5t-23 32.5t-18.5 32.5t-24 14.5q-18 0 -29 -22t-11 -66h-42q0 60 22 97t63 37q22 0 37.5 -14.5t23 -32t18.5 -32t24 -14.5q40 0 40 87h42q0 -60 -22 -97t-63 -37z" />
    <glyph glyph-name="uni1EEF" unicode="&#x1eef;" 
d="M399 0h-72v67q-24 -34 -60.5 -56.5t-79.5 -22.5q-121 0 -121 129v366h71v-345q0 -86 77 -86q35 0 65.5 21.5t47.5 53.5v356h72v-41q39 36 42 74q-7 -1 -10 -1q-17 0 -28 11.5t-11 28.5q0 18 12 30.5t30 12.5q21 0 35 -17t14 -45q0 -86 -84 -139v-397zM283 554
q-22 0 -37.5 14.5t-23 32.5t-18.5 32.5t-24 14.5q-18 0 -29 -22t-11 -66h-42q0 60 22 97t63 37q22 0 37.5 -14.5t23 -32t18.5 -32t24 -14.5q40 0 40 87h42q0 -60 -22 -97t-63 -37z" />
    <glyph glyph-name="uni1EF0" unicode="&#x1ef0;" horiz-adv-x="569" 
d="M287 -183q-18 0 -32 13.5t-14 32.5q0 18 14 31.5t32 13.5q19 0 32 -13t13 -32t-13 -32.5t-32 -13.5zM602 729q0 -45 -27.5 -85.5t-76.5 -64.5v-363q0 -110 -56 -169t-158 -59q-101 0 -157.5 59.5t-56.5 168.5v451h80v-452q0 -77 35 -116.5t99 -39.5q65 0 100 39.5
t35 116.5v452h79v-48q25 15 43 41t20 49q-1 0 -5 -0.5t-6 -0.5q-16 0 -27 11.5t-11 28.5q0 18 11.5 30t29.5 12q21 0 35 -16.5t14 -44.5z" />
    <glyph glyph-name="uni1EF1" unicode="&#x1ef1;" 
d="M234 -183q-18 0 -32 13.5t-14 32.5q0 18 14 31.5t32 13.5q19 0 32 -13t13 -32t-13 -32.5t-32 -13.5zM399 0h-72v67q-24 -34 -60.5 -56.5t-79.5 -22.5q-121 0 -121 129v366h71v-345q0 -86 77 -86q35 0 65.5 21.5t47.5 53.5v356h72v-41q39 36 42 74q-7 -1 -10 -1
q-17 0 -28 11.5t-11 28.5q0 18 12 30.5t30 12.5q21 0 35 -17t14 -45q0 -86 -84 -139v-397z" />
    <glyph glyph-name="Ygrave" unicode="&#x1ef2;" horiz-adv-x="499" 
d="M289 0h-79v282l-206 385h89l157 -308l157 308h88l-206 -385v-282zM297 723h-52l-134 144h73z" />
    <glyph glyph-name="ygrave" unicode="&#x1ef3;" horiz-adv-x="408" 
d="M41 -189l11 64q13 -7 32 -7q22 0 34.5 10.5t22.5 37.5l26 74l-161 493h78l120 -396l121 396h77l-193 -585q-17 -51 -46.5 -72.5t-73.5 -21.5q-29 0 -48 7zM251 556h-52l-134 144h73z" />
    <glyph glyph-name="thinspace" unicode="&#x2009;" horiz-adv-x="43" 
 />
    <glyph glyph-name="endash" unicode="&#x2013;" horiz-adv-x="527" 
d="M497 210h-467v64h467v-64z" />
    <glyph glyph-name="emdash" unicode="&#x2014;" horiz-adv-x="737" 
d="M707 210h-677v64h677v-64z" />
    <glyph glyph-name="afii00208" unicode="&#x2015;" horiz-adv-x="527" 
d="M497 210h-467v64h467v-64z" />
    <glyph glyph-name="quoteleft" unicode="&#x2018;" horiz-adv-x="229" 
d="M53 529q0 44 22 83.5t57 64.5l37 -29q-24 -16 -42.5 -42.5t-21.5 -50.5q1 0 5.5 1t7.5 1q20 0 33.5 -14.5t13.5 -35.5t-15 -36.5t-37 -15.5q-25 0 -42.5 20t-17.5 54z" />
    <glyph glyph-name="quoteright" unicode="&#x2019;" horiz-adv-x="229" 
d="M173 603q0 -44 -22.5 -84t-57.5 -65l-36 30q24 16 42.5 42.5t21.5 50.5q-4 -2 -13 -2q-20 0 -33.5 14t-13.5 36q0 21 15 36.5t37 15.5q25 0 42.5 -20t17.5 -54z" />
    <glyph glyph-name="quotesinglbase" unicode="&#x201a;" horiz-adv-x="228" 
d="M173 22q0 -43 -22.5 -83t-57.5 -65l-36 29q24 17 42.5 43t21.5 50q-1 0 -6 -0.5t-7 -0.5q-20 0 -33.5 14t-13.5 35q0 22 15 37.5t37 15.5q25 0 42.5 -20t17.5 -55z" />
    <glyph glyph-name="quotereversed" unicode="&#x201b;" horiz-adv-x="229" 
d="M56 603q0 34 17.5 54t42.5 20q22 0 37 -15.5t15 -36.5q0 -22 -13.5 -36t-33.5 -14q-9 0 -13 2q3 -24 21.5 -50.5t42.5 -42.5l-37 -30q-35 25 -57 65t-22 84z" />
    <glyph glyph-name="quotedblleft" unicode="&#x201c;" horiz-adv-x="386" 
d="M56 529q0 44 22 83.5t57 64.5l37 -29q-24 -16 -42.5 -42.5t-21.5 -50.5l5 1q5 1 8 1q20 0 33.5 -14.5t13.5 -35.5t-15 -36.5t-37 -15.5q-25 0 -42.5 20t-17.5 54zM213 529q0 44 22.5 83.5t57.5 64.5l36 -29q-24 -16 -42.5 -42.5t-20.5 -50.5l4 1q5 1 8 1q20 0 33.5 -14.5
t13.5 -35.5t-15 -36.5t-37 -15.5q-25 0 -42.5 20t-17.5 54z" />
    <glyph glyph-name="quotedblright" unicode="&#x201d;" horiz-adv-x="386" 
d="M330 603q0 -44 -22 -84t-57 -65l-37 30q24 16 42.5 42.5t21.5 50.5q-4 -2 -13 -2q-20 0 -33.5 14t-13.5 36q0 21 15 36.5t37 15.5q25 0 42.5 -20t17.5 -54zM173 603q0 -44 -22.5 -84t-57.5 -65l-36 30q24 16 42.5 42.5t21.5 50.5q-4 -2 -13 -2q-20 0 -33.5 14t-13.5 36
q0 21 15 36.5t37 15.5q25 0 42.5 -20t17.5 -54z" />
    <glyph glyph-name="quotedblbase" unicode="&#x201e;" horiz-adv-x="386" 
d="M173 22q0 -43 -22.5 -83t-57.5 -65l-36 29q24 17 42.5 43t21.5 50q-1 0 -6 -0.5t-7 -0.5q-20 0 -33.5 14t-13.5 35q0 22 15 37.5t37 15.5q25 0 42.5 -20t17.5 -55zM330 22q0 -43 -22 -83t-57 -65l-37 29q24 17 42.5 43t21.5 50q-1 0 -5.5 -0.5t-7.5 -0.5q-20 0 -33.5 14
t-13.5 35q0 22 15 37.5t37 15.5q25 0 42.5 -20t17.5 -55z" />
    <glyph glyph-name="dagger" unicode="&#x2020;" horiz-adv-x="262" 
d="M239 532l-89 4l4 -209h-47l5 209l-89 -4v42l89 -3l-5 106h47l-4 -106l89 3v-42z" />
    <glyph glyph-name="daggerdbl" unicode="&#x2021;" horiz-adv-x="262" 
d="M239 574v-42l-89 4v-214l89 4v-42l-89 3l4 -107h-47l4 107l-88 -3v42l88 -4v214l-88 -4v42l88 -3l-4 106h47l-4 -106z" />
    <glyph glyph-name="bullet" unicode="&#x2022;" horiz-adv-x="358" 
d="M287 242q0 -44 -31.5 -75t-75.5 -31t-75.5 31t-31.5 75t31.5 75.5t75.5 31.5t75.5 -31.5t31.5 -75.5z" />
    <glyph glyph-name="ellipsis" unicode="&#x2026;" horiz-adv-x="685" 
d="M167 44q0 -22 -15.5 -38t-37.5 -16t-37.5 16t-15.5 38q0 21 15.5 37t37.5 16t37.5 -16t15.5 -37zM396 44q0 -22 -16 -38t-38 -16t-37.5 16t-15.5 38q0 21 15.5 37t37.5 16t38 -16t16 -37zM624 44q0 -22 -16 -38t-38 -16t-37.5 16t-15.5 38q0 21 15.5 37t37.5 16t38 -16
t16 -37z" />
    <glyph glyph-name="perthousand" unicode="&#x2030;" horiz-adv-x="962" 
d="M312 512q0 -71 -39 -117.5t-102 -46.5t-102 46.5t-39 117.5t39 118t102 47t102 -47t39 -118zM526 667l-351 -667h-47l350 667h48zM621 151q0 -70 -39.5 -116.5t-101.5 -46.5q-63 0 -102 46t-39 117q0 72 39 119t102 47q62 0 101.5 -47.5t39.5 -118.5zM255 512
q0 51 -23 84.5t-61 33.5t-61.5 -33.5t-23.5 -84.5t23.5 -84t61.5 -33t61 33.5t23 83.5zM565 151q0 52 -23.5 85t-61.5 33t-61.5 -33t-23.5 -85q0 -50 23.5 -83t61.5 -33t61.5 33t23.5 83zM932 151q0 -70 -39.5 -116.5t-101.5 -46.5q-63 0 -101.5 46t-38.5 117q0 72 38.5 119
t101.5 47q62 0 101.5 -47.5t39.5 -118.5zM876 151q0 52 -23.5 85t-61.5 33t-61.5 -33t-23.5 -85q0 -50 23.5 -83t61.5 -33t61.5 33t23.5 83z" />
    <glyph glyph-name="guilsinglleft" unicode="&#x2039;" horiz-adv-x="252" 
d="M222 63h-67l-125 180l125 177h67l-125 -177z" />
    <glyph glyph-name="guilsinglright" unicode="&#x203a;" horiz-adv-x="252" 
d="M222 243l-125 -180h-67l125 180l-125 177h67z" />
    <glyph glyph-name="uni203E" unicode="&#x203e;" horiz-adv-x="306" 
d="M306 573h-306v46h306v-46z" />
    <glyph glyph-name="fraction" unicode="&#x2044;" horiz-adv-x="127" 
d="M262 667l-350 -667h-48l350 667h48z" />
    <glyph glyph-name="zerosuperior" unicode="&#x2070;" horiz-adv-x="326" 
d="M301 621q0 -53 -13 -98t-45 -77t-79 -32q-70 0 -104.5 61.5t-34.5 145.5t34.5 145t104.5 61q69 0 103 -61t34 -145zM242 621q0 158 -78 158q-80 0 -80 -158q0 -159 80 -159q78 0 78 159z" />
    <glyph glyph-name="foursuperior" unicode="&#x2074;" horiz-adv-x="326" 
d="M301 522h-47v-101h-58v101h-168v45l150 254h76v-252h47v-47zM196 569v193l-114 -193h114z" />
    <glyph glyph-name="fivesuperior" unicode="&#x2075;" horiz-adv-x="326" 
d="M293 547q0 -59 -37 -96t-95 -37q-86 0 -129 66l37 35q33 -53 91 -53q33 0 54 24t21 59q0 40 -20 62.5t-53 22.5q-43 0 -76 -40l-42 15v216h226v-48h-169v-134q31 35 80 35q48 0 80 -33.5t32 -93.5z" />
    <glyph glyph-name="sixsuperior" unicode="&#x2076;" horiz-adv-x="326" 
d="M297 545q0 -55 -35 -93t-92 -38q-73 0 -107 58.5t-34 148.5q0 89 38.5 147.5t112.5 58.5q62 0 101 -47l-30 -40q-27 39 -71 39q-46 0 -69 -43.5t-23 -104.5v-14q14 24 39 41.5t56 17.5q49 0 81.5 -34.5t32.5 -96.5zM238 544q0 43 -20 64t-52 21q-47 0 -78 -57
q4 -45 22 -77.5t57 -32.5q34 0 52.5 25t18.5 57z" />
    <glyph glyph-name="sevensuperior" unicode="&#x2077;" horiz-adv-x="300" 
d="M272 781l-137 -360h-60l137 352h-187v48h247v-40z" />
    <glyph glyph-name="eightsuperior" unicode="&#x2078;" horiz-adv-x="326" 
d="M294 521q0 -50 -36.5 -78.5t-94.5 -28.5t-95 28.5t-37 78.5q0 37 25.5 66t61.5 40q-34 11 -57 36t-23 61q0 51 37 77t88 26t88 -26t37 -77q0 -36 -23 -61t-56 -36q35 -11 60 -40t25 -66zM231 717q0 30 -18.5 47t-49.5 17t-49.5 -17t-18.5 -47q0 -32 23.5 -49t44.5 -21
q21 4 44.5 21t23.5 49zM237 526q0 34 -27 56t-47 24q-20 -2 -47 -24t-27 -56q0 -31 21.5 -49t52.5 -18t52.5 18t21.5 49z" />
    <glyph glyph-name="ninesuperior" unicode="&#x2079;" horiz-adv-x="326" 
d="M30 695q0 55 35 93.5t92 38.5q73 0 107 -58.5t34 -148.5q0 -89 -38.5 -147.5t-112.5 -58.5q-64 0 -101 47l30 40q27 -39 71 -39q45 0 68.5 44t23.5 105v13q-14 -24 -39 -41.5t-56 -17.5q-49 0 -81.5 34.5t-32.5 95.5zM89 697q0 -43 20 -64t51 -21q24 0 44.5 16t33.5 41
q-2 44 -20.5 77t-57.5 33q-34 0 -52.5 -24.5t-18.5 -57.5z" />
    <glyph glyph-name="parenleftsuperior" unicode="&#x207d;" horiz-adv-x="147" 
d="M136 370l-32 -14q-77 118 -77 265t77 265l32 -14q-56 -121 -56 -251t56 -251z" />
    <glyph glyph-name="parenrightsuperior" unicode="&#x207e;" horiz-adv-x="147" 
d="M126 621q0 -147 -77 -265l-32 14q56 121 56 251t-56 251l32 14q77 -118 77 -265z" />
    <glyph glyph-name="nsuperior" unicode="&#x207f;" horiz-adv-x="343" 
d="M290 326h-55v217q0 59 -52 59q-44 0 -75 -48v-228h-55v314h55v-44q16 21 42 36.5t54 15.5q48 0 67 -24t19 -68v-230z" />
    <glyph glyph-name="zeroinferior" unicode="&#x2080;" horiz-adv-x="326" 
d="M301 54q0 -53 -13 -98t-45 -77t-79 -32q-70 0 -104.5 61.5t-34.5 145.5t34.5 145t104.5 61q69 0 103 -61t34 -145zM242 54q0 158 -78 158q-80 0 -80 -158q0 -159 80 -159q78 0 78 159z" />
    <glyph glyph-name="oneinferior" unicode="&#x2081;" horiz-adv-x="225" 
d="M169 -146h-58v325l-63 -66l-34 35l104 106h51v-400z" />
    <glyph glyph-name="twoinferior" unicode="&#x2082;" horiz-adv-x="326" 
d="M291 -146h-250v44q116 114 153 160.5t37 87.5q0 32 -20 49t-49 17q-59 0 -91 -51l-35 35q46 64 128 64q54 0 89.5 -29t35.5 -82q0 -48 -36.5 -98t-133.5 -149h172v-48z" />
    <glyph glyph-name="threeinferior" unicode="&#x2083;" horiz-adv-x="326" 
d="M293 -37q0 -52 -35 -84t-96 -32q-90 0 -131 66l35 34q35 -52 94 -52q36 0 55.5 19t19.5 52q0 70 -83 70q-27 0 -33 -1v48q6 -1 32 -1q78 0 78 65q0 32 -19.5 48.5t-51.5 16.5q-54 0 -88 -48l-35 33q45 63 127 63q56 0 90.5 -28t34.5 -79q0 -36 -23 -61t-54 -31
q31 -4 57 -31t26 -67z" />
    <glyph glyph-name="fourinferior" unicode="&#x2084;" horiz-adv-x="326" 
d="M301 -45h-47v-101h-58v101h-168v45l150 254h76v-252h47v-47zM196 2v193l-114 -193h114z" />
    <glyph glyph-name="fiveinferior" unicode="&#x2085;" horiz-adv-x="326" 
d="M293 -20q0 -59 -37 -96t-95 -37q-86 0 -129 66l37 35q33 -53 91 -53q33 0 54 24t21 59q0 40 -20 62.5t-53 22.5q-43 0 -76 -40l-42 15v216h226v-48h-169v-134q31 35 80 35q48 0 80 -33.5t32 -93.5z" />
    <glyph glyph-name="sixinferior" unicode="&#x2086;" horiz-adv-x="326" 
d="M297 -22q0 -55 -35 -93t-92 -38q-73 0 -107 58.5t-34 148.5q0 89 38.5 147.5t112.5 58.5q62 0 101 -47l-30 -40q-27 39 -71 39q-46 0 -69 -43.5t-23 -104.5v-14q14 24 39 41.5t56 17.5q49 0 81.5 -34.5t32.5 -96.5zM238 -23q0 43 -20 64t-52 21q-47 0 -78 -57
q4 -45 22 -77.5t57 -32.5q34 0 52.5 25t18.5 57z" />
    <glyph glyph-name="seveninferior" unicode="&#x2087;" horiz-adv-x="300" 
d="M272 214l-137 -360h-60l137 352h-187v48h247v-40z" />
    <glyph glyph-name="eightinferior" unicode="&#x2088;" horiz-adv-x="326" 
d="M294 -46q0 -50 -36.5 -78.5t-94.5 -28.5t-95 28.5t-37 78.5q0 37 25.5 66t61.5 40q-34 11 -57 36t-23 61q0 51 37 77t88 26t88 -26t37 -77q0 -36 -23 -61t-56 -36q35 -11 60 -40t25 -66zM231 150q0 30 -18.5 47t-49.5 17t-49.5 -17t-18.5 -47q0 -32 23.5 -49t44.5 -21
q21 4 44.5 21t23.5 49zM237 -41q0 34 -27 56t-47 24q-20 -2 -47 -24t-27 -56q0 -31 21.5 -49t52.5 -18t52.5 18t21.5 49z" />
    <glyph glyph-name="nineinferior" unicode="&#x2089;" horiz-adv-x="326" 
d="M30 128q0 55 35 93.5t92 38.5q73 0 107 -58.5t34 -148.5q0 -89 -38.5 -147.5t-112.5 -58.5q-64 0 -101 47l30 40q27 -39 71 -39q45 0 68.5 44t23.5 105v13q-14 -24 -39 -41.5t-56 -17.5q-49 0 -81.5 34.5t-32.5 95.5zM89 130q0 -43 20 -64t51 -21q24 0 44.5 16t33.5 41
q-2 44 -20.5 77t-57.5 33q-34 0 -52.5 -24.5t-18.5 -57.5z" />
    <glyph glyph-name="parenleftinferior" unicode="&#x208d;" horiz-adv-x="147" 
d="M136 -197l-32 -14q-77 118 -77 265t77 265l32 -14q-56 -121 -56 -251t56 -251z" />
    <glyph glyph-name="parenrightinferior" unicode="&#x208e;" horiz-adv-x="147" 
d="M126 54q0 -147 -77 -265l-32 14q56 121 56 251t-56 251l32 14q77 -118 77 -265z" />
    <glyph glyph-name="colonmonetary" unicode="&#x20a1;" horiz-adv-x="522" 
d="M304 -12q-17 0 -25 1l-24 -89h-48l27 99q-31 9 -58 27l-33 -126h-48l41 160q-91 96 -91 273q0 152 70.5 248.5t188.5 96.5h1l25 90h48l-26 -95q33 -8 58 -24l32 119h48l-41 -150q30 -31 50 -70l-66 -31q-1 2 -7 13l-127 -471h5q87 0 130 99l67 -31q-69 -139 -197 -139z
M197 107q24 -27 56 -39l137 506q-26 22 -57 30zM127 333q0 -102 36 -176l122 448q-72 -9 -115 -84t-43 -188z" />
    <glyph glyph-name="frenchfranc" unicode="&#x20a3;" 
d="M164 0h-80v139h-68v46h68v482h343v-70h-263v-221h256v-70h-256v-121h151v-46h-151v-139z" />
    <glyph glyph-name="lira" unicode="&#x20a4;" horiz-adv-x="449" 
d="M25 328v45h52q-29 51 -29 111q0 79 55.5 136t135.5 57q60 0 105 -29.5t64 -83.5l-63 -34q-12 35 -38 57.5t-63 22.5q-46 0 -78.5 -35t-32.5 -93q0 -57 32 -109h147v-45h-118q24 -39 30 -72h88v-45h-86q-6 -78 -70 -126q22 9 46 9q28 0 64.5 -18t58.5 -18q25 0 47.5 11.5
t32.5 26.5l32 -63q-39 -46 -117 -46q-41 0 -81 22t-67 22q-40 0 -98 -38l-29 59q52 28 81 69.5t29 86.5v3h-130v45h122q-8 22 -41 72h-81z" />
    <glyph glyph-name="uni20A6" unicode="&#x20a6;" horiz-adv-x="599" 
d="M516 0h-77l-134 242h-141v-242h-80v242h-68v47h68v96h-68v47h68v235h80l131 -235h141v235h80v-235h66v-47h-66v-96h66v-47h-66v-242zM164 385v-96h115l-53 96h-62zM321 385l54 -96h61v96h-115zM164 497v-65h36zM401 242l35 -62v62h-35z" />
    <glyph glyph-name="peseta" unicode="&#x20a7;" horiz-adv-x="541" 
d="M531 442h-61q-7 -76 -55 -125.5t-129 -49.5h-123v-267h-79v442h-68v50h68v175h202q81 0 129 -49t55 -126h61v-50zM163 597v-105h224q-6 47 -35 76t-74 29h-115zM278 337q45 0 74 28.5t35 76.5h-224v-105h115z" />
    <glyph glyph-name="rupee" unicode="&#x20a8;" horiz-adv-x="850" 
d="M653 -12q-104 0 -163 68l36 51q50 -61 126 -61q42 0 67.5 21.5t25.5 56.5q0 31 -25 52t-60.5 34.5t-70.5 29.5t-60 47.5t-25 77.5q0 56 42 93t112 37q90 0 147 -62l-34 -49q-40 53 -112 53q-39 0 -62.5 -20t-23.5 -50q0 -28 25 -47t60.5 -32.5t70.5 -30.5t60 -50t25 -81
q0 -61 -44 -99.5t-117 -38.5zM464 0h-90l-128 267h-96v-267h-80v667h204q81 0 132 -54t51 -145q0 -83 -39 -131t-94 -58zM265 337q51 0 80.5 36t29.5 94t-29.5 94t-80.5 36h-115v-260h115z" />
    <glyph glyph-name="uni20A9" unicode="&#x20a9;" horiz-adv-x="730" 
d="M558 0h-85l-50 242h-118l-49 -242h-85l-54 242h-93v47h83l-22 96h-61v47h51l-52 235h85l47 -235h127l49 235h67l49 -235h127l47 235h85l-52 -235h50v-47h-61l-21 -96h82v-47h-93zM164 385l19 -96h69l20 96h-108zM457 385l20 -96h68l19 96h-107zM335 385l-20 -96h98
l-20 96h-58zM487 242l25 -119l24 119h-49zM193 242l24 -119l25 119h-49zM364 526l-20 -94h39z" />
    <glyph glyph-name="afii57636" unicode="&#x20aa;" horiz-adv-x="659" 
d="M412 0h-193v392h64v-332h129q60 0 88.5 30.5t28.5 95.5v364h64v-341q0 -109 -43 -159t-138 -50zM259 550q95 0 138 -50t43 -159v-184h-64v206q0 66 -28.5 96.5t-88.5 30.5h-129v-490h-64v550h193z" />
    <glyph glyph-name="dong" unicode="&#x20ab;" horiz-adv-x="488" 
d="M401 -141h-306v46h306v-46zM414 0h-72v69q-21 -37 -55 -59t-72 -22q-80 0 -126.5 69t-46.5 184q0 114 46 184t127 70q38 0 72 -21t55 -61v123h-138v46h138v85h72v-85h60v-46h-60v-536zM233 52q34 0 64.5 23t44.5 55v222q-14 33 -45 56t-64 23q-57 0 -86.5 -53.5
t-29.5 -136.5t29.5 -136t86.5 -53z" />
    <glyph glyph-name="Euro" unicode="&#x20ac;" horiz-adv-x="549" 
d="M323 -12q-98 0 -164 68t-87 182h-49v50h42q-1 19 -1 45t2 47h-43v51h49q21 113 87.5 180t163.5 67q127 0 195 -130l-66 -31q-45 90 -129 90q-62 0 -106 -48t-62 -128h212v-51h-219q-2 -20 -2 -47q0 -26 2 -45h219v-50h-212q17 -82 61 -130.5t107 -48.5q87 0 130 99
l67 -31q-70 -139 -197 -139z" />
    <glyph glyph-name="afii61289" unicode="&#x2113;" horiz-adv-x="425" 
d="M142 277v-173q0 -58 39 -58q26 0 42 19l22 -48q-28 -29 -78 -29q-96 0 -96 109v418q0 71 47 116.5t123 45.5q66 0 112.5 -34.5t46.5 -90.5q0 -39 -24.5 -73t-77.5 -78zM142 354l118 92q39 33 55 55.5t16 49.5q0 31 -27 51t-64 20q-44 0 -71 -29t-27 -79v-160z" />
    <glyph glyph-name="afii61352" unicode="&#x2116;" horiz-adv-x="919" 
d="M745 350q-64 0 -100.5 47.5t-36.5 117.5t36.5 117.5t100.5 47.5q65 0 101.5 -47.5t36.5 -117.5t-36.5 -117.5t-101.5 -47.5zM745 396q40 0 60.5 34t20.5 85t-20.5 84t-60.5 33q-39 0 -59.5 -33t-20.5 -84t20.5 -85t59.5 -34zM502 0h-77l-275 497v-497h-80v667h80
l272 -487v487h80v-667z" />
    <glyph glyph-name="published" unicode="&#x2117;" horiz-adv-x="778" 
d="M734 334q0 -142 -101 -243.5t-244 -101.5t-244 101.5t-101 243.5t101 243.5t244 101.5t244 -101.5t101 -243.5zM704 334q0 129 -93 222t-222 93t-221.5 -93t-92.5 -222q0 -130 92 -222t222 -92q129 0 222 92.5t93 221.5zM549 419q0 -52 -36.5 -83t-89.5 -31h-112v-174
h-36v405h148q53 0 89.5 -31.5t36.5 -85.5zM512 419q0 38 -24.5 60.5t-64.5 22.5h-112v-163h112q39 0 64 22t25 58z" />
    <glyph glyph-name="servicemark" unicode="&#x2120;" horiz-adv-x="425" 
d="M388 447h-28v182l-65 -182h-8l-65 182v-182h-28v220h43l54 -158l54 158h43v-220zM155 504q0 -29 -19 -46.5t-52 -17.5q-43 0 -69 29l16 23q22 -26 50 -26q20 0 31.5 10t11.5 26q0 18 -16 30.5t-36 18.5t-36 22t-16 40q0 26 19 43t48 17q41 0 63 -24l-15 -21
q-18 20 -46 20q-16 0 -26.5 -9t-10.5 -24q0 -16 16 -27t35.5 -18t35.5 -23.5t16 -42.5z" />
    <glyph glyph-name="trademark" unicode="&#x2122;" horiz-adv-x="414" 
d="M379 447h-28v182l-65 -182h-8l-65 182v-182h-28v220h43l54 -158l54 158h43v-220zM149 641h-52v-194h-28v194h-52v26h132v-26z" />
    <glyph glyph-name="Omega" unicode="&#x2126;" horiz-adv-x="592" 
d="M57 71h104q-118 88 -118 276q0 149 67.5 240t185.5 91q117 0 185 -90.5t68 -240.5q0 -188 -118 -276h104v-71h-186v71q48 20 82.5 88.5t34.5 173.5q0 124 -44 198.5t-126 74.5t-126.5 -74.5t-44.5 -198.5q0 -105 35 -173.5t83 -88.5v-71h-186v71z" />
    <glyph glyph-name="estimated" unicode="&#x212e;" horiz-adv-x="842" 
d="M811 324h-632q-5 0 -5 -5v-190q0 -14 9 -23q98 -103 240 -103q151 0 250 115h57q-54 -63 -135 -99.5t-174 -36.5q-161 0 -275.5 103t-114.5 248t114.5 248t275.5 103t275.5 -103t114.5 -248v-9zM668 349v191q0 14 -10 24q-97 99 -235 99q-140 0 -239 -102
q-10 -10 -10 -24v-188q0 -6 5 -6h485q4 0 4 6z" />
    <glyph glyph-name="onethird" unicode="&#x2153;" horiz-adv-x="707" 
d="M169 267h-58v325l-63 -66l-34 35l104 106h51v-400zM516 667l-350 -667h-48l350 667h48zM674 109q0 -52 -35 -84t-96 -32q-90 0 -131 66l35 34q35 -52 94 -52q36 0 55.5 19t19.5 52q0 70 -83 70q-27 0 -33 -1v48q6 -1 32 -1q78 0 78 65q0 32 -19.5 48.5t-51.5 16.5
q-54 0 -88 -48l-35 33q45 63 127 63q56 0 90.5 -28t34.5 -79q0 -36 -23 -61t-54 -31q31 -4 57 -31t26 -67z" />
    <glyph glyph-name="twothirds" unicode="&#x2154;" horiz-adv-x="779" 
d="M291 267h-250v44q116 114 153 160.5t37 87.5q0 32 -20 49t-49 17q-59 0 -91 -51l-35 35q46 64 128 64q54 0 89.5 -29t35.5 -82q0 -48 -36.5 -98t-133.5 -149h172v-48zM588 667l-350 -667h-48l350 667h48zM746 109q0 -52 -35 -84t-96 -32q-90 0 -131 66l35 34
q35 -52 94 -52q36 0 55.5 19t19.5 52q0 70 -83 70q-27 0 -33 -1v48q6 -1 32 -1q78 0 78 65q0 32 -19.5 48.5t-51.5 16.5q-54 0 -88 -48l-35 33q45 63 127 63q56 0 90.5 -28t34.5 -79q0 -36 -23 -61t-54 -31q31 -4 57 -31t26 -67z" />
    <glyph glyph-name="oneeighth" unicode="&#x215b;" horiz-adv-x="707" 
d="M169 267h-58v325l-63 -66l-34 35l104 106h51v-400zM675 100q0 -50 -36.5 -78.5t-94.5 -28.5t-95 28.5t-37 78.5q0 37 25.5 66t61.5 40q-34 11 -57 36t-23 61q0 51 37 77t88 26t88 -26t37 -77q0 -36 -23 -61t-56 -36q35 -11 60 -40t25 -66zM612 296q0 30 -18.5 47
t-49.5 17t-49.5 -17t-18.5 -47q0 -32 23.5 -49t44.5 -21q21 4 44.5 21t23.5 49zM618 105q0 34 -27 56t-47 24q-20 -2 -47 -24t-27 -56q0 -31 21.5 -49t52.5 -18t52.5 18t21.5 49zM516 667l-350 -667h-48l350 667h48z" />
    <glyph glyph-name="threeeighths" unicode="&#x215c;" horiz-adv-x="779" 
d="M747 100q0 -50 -36.5 -78.5t-94.5 -28.5t-95 28.5t-37 78.5q0 37 25.5 66t61.5 40q-34 11 -57 36t-23 61q0 51 37 77t88 26t88 -26t37 -77q0 -36 -23 -61t-56 -36q35 -11 60 -40t25 -66zM684 296q0 30 -18.5 47t-49.5 17t-49.5 -17t-18.5 -47q0 -32 23.5 -49t44.5 -21
q21 4 44.5 21t23.5 49zM690 105q0 34 -27 56t-47 24q-20 -2 -47 -24t-27 -56q0 -31 21.5 -49t52.5 -18t52.5 18t21.5 49zM588 667l-350 -667h-48l350 667h48zM293 376q0 -52 -35 -84t-96 -32q-90 0 -131 66l35 34q35 -52 94 -52q36 0 55.5 19t19.5 52q0 70 -83 70
q-27 0 -33 -1v48q6 -1 32 -1q78 0 78 65q0 32 -19.5 48.5t-51.5 16.5q-54 0 -88 -48l-35 33q45 63 127 63q56 0 90.5 -28t34.5 -79q0 -36 -23 -61t-54 -31q31 -4 57 -31t26 -67z" />
    <glyph glyph-name="fiveeighths" unicode="&#x215d;" horiz-adv-x="777" 
d="M745 100q0 -50 -36.5 -78.5t-94.5 -28.5t-95 28.5t-37 78.5q0 37 25.5 66t61.5 40q-34 11 -57 36t-23 61q0 51 37 77t88 26t88 -26t37 -77q0 -36 -23 -61t-56 -36q35 -11 60 -40t25 -66zM682 296q0 30 -18.5 47t-49.5 17t-49.5 -17t-18.5 -47q0 -32 23.5 -49t44.5 -21
q21 4 44.5 21t23.5 49zM688 105q0 34 -27 56t-47 24q-20 -2 -47 -24t-27 -56q0 -31 21.5 -49t52.5 -18t52.5 18t21.5 49zM293 393q0 -59 -37 -96t-95 -37q-86 0 -129 66l37 35q33 -53 91 -53q33 0 54 24t21 59q0 40 -20 62.5t-53 22.5q-43 0 -76 -40l-42 15v216h226v-48
h-169v-134q31 35 80 35q48 0 80 -33.5t32 -93.5zM586 667l-350 -667h-48l350 667h48z" />
    <glyph glyph-name="seveneighths" unicode="&#x215e;" horiz-adv-x="709" 
d="M677 100q0 -50 -36.5 -78.5t-94.5 -28.5t-95 28.5t-37 78.5q0 37 25.5 66t61.5 40q-34 11 -57 36t-23 61q0 51 37 77t88 26t88 -26t37 -77q0 -36 -23 -61t-56 -36q35 -11 60 -40t25 -66zM614 296q0 30 -18.5 47t-49.5 17t-49.5 -17t-18.5 -47q0 -32 23.5 -49t44.5 -21
q21 4 44.5 21t23.5 49zM620 105q0 34 -27 56t-47 24q-20 -2 -47 -24t-27 -56q0 -31 21.5 -49t52.5 -18t52.5 18t21.5 49zM272 627l-137 -360h-60l137 352h-187v48h247v-40zM518 667l-350 -667h-48l350 667h48z" />
    <glyph glyph-name="arrowleft" unicode="&#x2190;" horiz-adv-x="582" 
d="M538 211h-269l12 -130l-281 205l281 204l-12 -129h269v-150z" />
    <glyph glyph-name="arrowup" unicode="&#x2191;" horiz-adv-x="582" 
d="M216 17v269l-130 -12l205 281l204 -281l-129 12v-269h-150z" />
    <glyph glyph-name="arrowright" unicode="&#x2192;" horiz-adv-x="582" 
d="M584 286l-281 -205l12 130h-268v150h268l-12 129z" />
    <glyph glyph-name="arrowdown" unicode="&#x2193;" horiz-adv-x="582" 
d="M366 555v-269l130 12l-205 -281l-204 281l129 -12v269h150z" />
    <glyph glyph-name="partialdiff" unicode="&#x2202;" horiz-adv-x="477" 
d="M238 -12q-92 0 -144 71t-52 176q0 104 48.5 174.5t131.5 70.5q76 0 119 -71q-22 63 -67.5 126.5t-105.5 106.5l58 38q92 -82 150.5 -194t58.5 -241q0 -112 -51.5 -184.5t-145.5 -72.5zM238 52q60 0 91 53t31 130q0 76 -31 128.5t-91 52.5q-59 0 -90 -53t-31 -128
q0 -76 31 -129.5t90 -53.5z" />
    <glyph glyph-name="Delta" unicode="&#x2206;" horiz-adv-x="526" 
d="M518 0h-510l207 667h95zM415 71l-152 508l-152 -508h304z" />
    <glyph glyph-name="product" unicode="&#x220f;" horiz-adv-x="566" 
d="M460 -90h-79v687h-196v-687h-79v687h-81v70h516v-70h-81v-687z" />
    <glyph glyph-name="summation" unicode="&#x2211;" horiz-adv-x="451" 
d="M139 597l172 -298l-175 -319h271v-70h-359v72l173 316l-172 299v70h358v-70h-268z" />
    <glyph glyph-name="minus" unicode="&#x2212;" horiz-adv-x="439" 
d="M410 312h-381v51h381v-51z" />
    <glyph glyph-name="uni2215" unicode="&#x2215;" horiz-adv-x="127" 
d="M262 667l-350 -667h-48l350 667h48z" />
    <glyph glyph-name="uni2219" unicode="&#x2219;" horiz-adv-x="228" 
d="M168 245q0 -22 -16 -38t-38 -16t-37.5 16t-15.5 38q0 21 15.5 37t37.5 16t38 -16t16 -37z" />
    <glyph glyph-name="radical" unicode="&#x221a;" horiz-adv-x="595" 
d="M358 0h-56l-101 323l-134 -43l-13 49l181 56l96 -311l185 593h54z" />
    <glyph glyph-name="infinity" unicode="&#x221e;" horiz-adv-x="568" 
d="M160 171q-64 0 -97.5 49t-33.5 115q0 67 33.5 116t97.5 49q79 0 124 -109q19 47 51 77.5t72 30.5q65 0 98.5 -48.5t33.5 -115.5q0 -66 -33.5 -115t-98.5 -49q-40 0 -72 30.5t-51 78.5q-44 -109 -124 -109zM401 222q40 0 62.5 31.5t22.5 81.5q0 51 -22.5 82.5t-62.5 31.5
q-59 0 -94 -114q35 -113 94 -113zM167 222q57 0 94 113q-37 114 -94 114q-40 0 -63 -31.5t-23 -82.5q0 -50 23 -81.5t63 -31.5z" />
    <glyph glyph-name="integral" unicode="&#x222b;" horiz-adv-x="291" 
d="M63 -100h-46v53h46q22 0 38 19t16 48v628q0 53 33.5 86.5t77.5 33.5h46v-53h-46q-22 0 -38 -19t-16 -48v-629q0 -53 -33.5 -86t-77.5 -33z" />
    <glyph glyph-name="approxequal" unicode="&#x2248;" horiz-adv-x="439" 
d="M29 212v55q43 -26 95 -26q40 0 90.5 23t99.5 23q56 0 96 -21v-56q-44 27 -96 27q-40 0 -91 -23.5t-99 -23.5q-53 0 -95 22zM29 402v55q41 -25 95 -25q40 0 90.5 22.5t99.5 22.5q56 0 96 -21v-55q-43 25 -96 25q-40 0 -91 -22.5t-99 -22.5q-51 0 -95 21z" />
    <glyph glyph-name="notequal" unicode="&#x2260;" horiz-adv-x="439" 
d="M117 93h-48l62 119h-102v50h129l75 143h-204v51h231l61 118h49l-62 -118h102v-51h-129l-75 -143h204v-50h-231z" />
    <glyph glyph-name="lessequal" unicode="&#x2264;" horiz-adv-x="439" 
d="M410 130l-381 184v51l381 183v-60l-319 -149l319 -148v-61zM410 22h-381v51h381v-51z" />
    <glyph glyph-name="greaterequal" unicode="&#x2265;" horiz-adv-x="439" 
d="M409 314l-380 -184v61l318 148l-318 149v60l380 -183v-51zM409 22h-380v51h380v-51z" />
    <glyph glyph-name="triangleright" unicode="&#x22b2;" horiz-adv-x="587" 
d="M589 286l-535 -309v618z" />
    <glyph glyph-name="triangleleft" unicode="&#x22b3;" horiz-adv-x="587" 
d="M535 595v-618l-535 309z" />
    <glyph glyph-name="dotmath" unicode="&#x22c5;" horiz-adv-x="228" 
d="M168 245q0 -22 -16 -38t-38 -16t-37.5 16t-15.5 38q0 21 15.5 37t37.5 16t38 -16t16 -37z" />
    <glyph glyph-name="uni2318" unicode="&#x2318;" horiz-adv-x="667" 
d="M227 154v74h-74q-31 0 -52 -21.5t-21 -52.5q0 -32 21 -54t52 -22t52.5 22t21.5 54zM227 438v76q0 31 -21 52.5t-52 21.5t-52.5 -21.5t-21.5 -52.5t21.5 -53.5t52.5 -22.5h73zM265 265h137v137h-137v-137zM587 154q0 31 -21 52.5t-52 21.5h-74v-74q0 -32 21.5 -54
t52.5 -22t52 22t21 54zM587 514q0 31 -21 52.5t-52 21.5t-52.5 -21.5t-21.5 -52.5v-76h74q30 0 51.5 22.5t21.5 53.5zM625 154q0 -46 -32.5 -79t-78.5 -33t-79 33t-33 79v74h-137v-74q0 -46 -33 -79t-79 -33t-78.5 33t-32.5 79t32.5 78.5t78.5 32.5h74v137h-73q-46 0 -79 33
t-33 79t33 78.5t79 32.5t78.5 -32.5t32.5 -78.5v-76h137v76q0 46 33 78.5t79 32.5t78.5 -32.5t32.5 -78.5t-32.5 -79t-78.5 -33h-74v-137h74q46 0 78.5 -32.5t32.5 -78.5z" />
    <glyph glyph-name="blacksquare" unicode="&#x25a0;" horiz-adv-x="661" 
d="M618 0h-571v572h571v-572z" />
    <glyph glyph-name="triagup" unicode="&#x25b2;" horiz-adv-x="616" 
d="M617 29l-619 1l309 535z" />
    <glyph glyph-name="triagdn" unicode="&#x25bc;" horiz-adv-x="616" 
d="M617 510l-310 -535l-309 535h619z" />
    <glyph glyph-name="lozenge" unicode="&#x25ca;" horiz-adv-x="375" 
d="M198 0h-21l-158 334l158 333h21l158 -333zM188 41l132 293l-133 292l-132 -292z" />
    <glyph glyph-name="circlesolid" unicode="&#x25cf;" horiz-adv-x="695" 
d="M644 285q0 -123 -87 -210t-210 -87t-210 87t-87 210t87 210t210 87t210 -87t87 -210z" />
    <glyph glyph-name="blackstar" unicode="&#x2605;" horiz-adv-x="759" 
d="M759 421l-235 -171l90 -275l-235 170l-234 -170l89 275l-234 171h290l89 276l90 -276h290z" />
    <glyph glyph-name="ballotbox" unicode="&#x2610;" horiz-adv-x="661" 
d="M616 0h-571v572h571v-572zM561 51v470h-462v-470h462z" />
    <glyph glyph-name="boxchecked" unicode="&#x2611;" horiz-adv-x="661" 
d="M676 698l-69 -126h9v-572h-571v572h503l83 155zM561 51v435l-214 -395l-202 246l41 38l154 -190l180 336h-421v-470h462z" />
    <glyph glyph-name="diamond" unicode="&#x2666;" horiz-adv-x="501" 
d="M501 285l-251 -250l-250 250l250 251z" />
    <glyph glyph-name="checkmark" unicode="&#x2713;" horiz-adv-x="531" 
d="M531 698l-329 -607l-202 246l41 38l154 -190l291 542z" />
    <glyph glyph-name="perthousand.onum" unicode="&#xf628;" horiz-adv-x="784" 
d="M257 425q0 -59 -32.5 -97.5t-84.5 -38.5t-84 38.5t-32 97.5t32 98t84 39t84.5 -39t32.5 -98zM504 125q0 -59 -32.5 -97.5t-84.5 -38.5q-51 0 -83.5 39t-32.5 97q0 59 32.5 98t83.5 39q52 0 84.5 -39t32.5 -98zM445 550l-314 -550h-46l313 550h47zM206 425q0 41 -18 67.5
t-48 26.5t-48 -27t-18 -67t18 -66.5t48 -26.5t48 26t18 67zM454 125q0 41 -18.5 67.5t-48.5 26.5t-48.5 -27t-18.5 -67t19 -67t48 -27q30 0 48.5 27t18.5 67zM761 125q0 -59 -32.5 -97.5t-84.5 -38.5q-51 0 -83.5 39.5t-32.5 96.5q0 59 32.5 98t83.5 39q52 0 84.5 -39
t32.5 -98zM711 125q0 41 -18.5 67.5t-48.5 26.5t-48 -26.5t-18 -67.5q0 -40 18 -67t48 -27t48.5 27t18.5 67z" />
    <glyph glyph-name="uniF637" unicode="&#xf637;" horiz-adv-x="342" 
d="M290 326h-56v218q0 57 -52 57q-22 0 -42 -14t-32 -33v-228h-55v434h55v-164q15 21 41.5 36.5t54.5 15.5q86 0 86 -90v-232z" />
    <glyph glyph-name="zero.tzero" unicode="&#xf638;" horiz-adv-x="494" 
d="M247 -12q-73 0 -123 53l-21 -41h-58l45 88q-52 94 -52 245q0 64 11 122.5t34.5 109.5t65.5 81.5t98 30.5q72 0 121 -52l22 42h59l-46 -89q53 -93 53 -245q0 -64 -11 -122t-34.5 -109.5t-65.5 -82.5t-98 -31zM247 59q37 0 63 23.5t39.5 65t19.5 86.5t6 99q0 91 -17 159
l-197 -381q31 -52 86 -52zM120 333q0 -94 16 -157l196 379q-31 51 -85 51q-127 0 -127 -273z" />
    <glyph glyph-name="zero.tnum" unicode="&#xf639;" horiz-adv-x="494" 
d="M247 -12q-56 0 -98 31t-65.5 82.5t-34.5 109.5t-11 122t11 122.5t34.5 109.5t65.5 81.5t98 30.5t98 -30.5t65.5 -81.5t34.5 -109.5t11 -122.5t-11 -122t-34.5 -109.5t-65.5 -82.5t-98 -31zM247 59q37 0 63 23.5t39.5 65t19.5 86.5t6 99q0 273 -128 273q-127 0 -127 -273
q0 -274 127 -274z" />
    <glyph glyph-name="two.tnum" unicode="&#xf63a;" horiz-adv-x="494" 
d="M438 0h-377v65q185 213 225 268q66 96 68 162q0 51 -31 81t-76 30q-90 0 -141 -84l-52 48q69 107 194 107q80 0 133.5 -49t53.5 -133q0 -33 -12 -69t-27 -65.5t-55.5 -83t-69.5 -89.5t-97 -117h264v-71z" />
    </font>
</defs>
</svg>
