<?xml version="1.0" standalone="no"?>
<!DOCTYPE svg PUBLIC "-//W3C//DTD SVG 1.1//EN" "http://www.w3.org/Graphics/SVG/1.1/DTD/svg11.dtd" >
<svg xmlns="http://www.w3.org/2000/svg" xmlns:xlink="http://www.w3.org/1999/xlink" version="1.1">
<metadata>
Created by FontForge 20170731 at Tue Nov 30 17:34:53 2010
 By ,,,
Copyright (c) Mark Simonson, 2005. All rights reserved.
</metadata>
<defs>
<font id="ProximaNovaCond-RegularIt" horiz-adv-x="465" >
  <font-face 
    font-family="Proxima Nova Cn Rg"
    font-weight="400"
    font-style="italic"
    font-stretch="normal"
    units-per-em="1000"
    panose-1="2 0 5 6 3 0 0 2 0 4"
    ascent="790"
    descent="-210"
    x-height="483"
    cap-height="667"
    bbox="-190 -265 940 886"
    underline-thickness="20"
    underline-position="-173"
    unicode-range="U+000D-FB04"
  />
<missing-glyph horiz-adv-x="492" 
d="M441 -90h-351v842h351v-842zM409 -60v782h-288v-782h288z" />
    <glyph glyph-name="f_f_j" unicode="ffj" horiz-adv-x="710" 
d="M355 0h-72l93 420h-64l14 63h64l13 59q29 135 137 135q41 0 69 -17l-27 -55q-14 11 -36 11q-55 0 -72 -74l-12 -59h82l-14 -63h-82zM444 -196q-64 0 -89 38l36 50q15 -27 47 -27q50 0 67 76l121 542h71l-120 -542q-16 -71 -47 -104t-86 -33zM681 553q-19 0 -31.5 12.5
t-12.5 29.5q0 25 17.5 40.5t37.5 15.5q19 0 32 -12.5t13 -30.5q0 -25 -17.5 -40t-38.5 -15zM101 0h-72l93 420h-64l15 63h63l13 59q29 135 139 135q57 0 89 -35l-38 -48q-17 22 -47 22q-55 0 -72 -74l-12 -59h82l-14 -63h-82z" />
    <glyph glyph-name="f_j" unicode="fj" horiz-adv-x="457" 
d="M101 0h-72l93 420h-64l14 63h64l13 59q29 135 137 135q41 0 69 -17l-27 -55q-14 11 -36 11q-55 0 -72 -74l-12 -59h82l-14 -63h-82zM191 -196q-64 0 -89 38l36 50q15 -27 47 -27q50 0 67 76l121 542h71l-120 -542q-16 -71 -47 -104t-86 -33zM428 553q-19 0 -31.5 12.5
t-12.5 29.5q0 25 17.5 40.5t37.5 15.5q19 0 32 -12.5t13 -30.5q0 -25 -17.5 -40t-38.5 -15z" />
    <glyph glyph-name="f_f" unicode="ff" horiz-adv-x="507" 
d="M101 0h-72l93 420h-64l15 63h63l13 59q29 135 139 135q57 0 89 -35l-38 -48q-17 22 -47 22q-55 0 -72 -74l-12 -59h82l-14 -63h-82zM355 0h-72l93 420h-64l15 63h63l13 59q29 135 139 135q57 0 89 -35l-38 -48q-17 22 -47 22q-55 0 -72 -74l-12 -59h82l-14 -63h-82z" />
    <glyph glyph-name="fi" unicode="fi" horiz-adv-x="457" 
d="M101 0h-72l93 420h-64l14 63h64l13 59q29 135 137 135q41 0 69 -17l-27 -55q-14 11 -36 11q-55 0 -72 -74l-12 -59h82l-14 -63h-82zM428 553q-19 0 -31.5 12.5t-12.5 29.5q0 25 17.5 40.5t37.5 15.5q19 0 32 -12.5t13 -30.5q0 -25 -17.5 -40t-38.5 -15zM337 0h-71
l107 483h71z" />
    <glyph glyph-name="fl" unicode="fl" horiz-adv-x="457" 
d="M101 0h-72l93 420h-64l14 63h64l13 59q29 135 137 135q41 0 69 -17l-27 -55q-14 11 -36 11q-55 0 -72 -74l-12 -59h82l-14 -63h-82zM337 0h-71l147 667h71z" />
    <glyph glyph-name="f_f_i" unicode="ffi" horiz-adv-x="710" 
d="M355 0h-72l93 420h-64l14 63h64l13 59q29 135 137 135q41 0 69 -17l-27 -55q-14 11 -36 11q-55 0 -72 -74l-12 -59h82l-14 -63h-82zM681 553q-19 0 -31.5 12.5t-12.5 29.5q0 25 17.5 40.5t37.5 15.5q19 0 32 -12.5t13 -30.5q0 -25 -17.5 -40t-38.5 -15zM590 0h-71
l107 483h71zM101 0h-72l93 420h-64l15 63h63l13 59q29 135 139 135q57 0 89 -35l-38 -48q-17 22 -47 22q-55 0 -72 -74l-12 -59h82l-14 -63h-82z" />
    <glyph glyph-name="f_f_l" unicode="ffl" horiz-adv-x="710" 
d="M355 0h-72l93 420h-64l14 63h64l13 59q29 135 137 135q41 0 69 -17l-27 -55q-14 11 -36 11q-55 0 -72 -74l-12 -59h82l-14 -63h-82zM590 0h-71l147 667h71zM101 0h-72l93 420h-64l15 63h63l13 59q29 135 139 135q57 0 89 -35l-38 -48q-17 22 -47 22q-55 0 -72 -74
l-12 -59h82l-14 -63h-82z" />
    <glyph glyph-name="f_b" unicode="fb" horiz-adv-x="733" 
d="M101 0h-72l93 420h-64l14 63h64l13 59q29 135 137 135q41 0 69 -17l-27 -55q-14 11 -36 11q-55 0 -72 -74l-12 -59h82l-14 -63h-82zM481 -12q-91 0 -128 85l-16 -73h-71l147 667h71l-55 -250q54 78 131 78q65 0 103 -45t38 -126q0 -73 -24.5 -148.5t-77 -131.5
t-118.5 -56zM471 52q45 0 82 45t55 104.5t18 112.5q0 56 -25.5 86.5t-69.5 30.5q-33 0 -64.5 -23.5t-52.5 -57.5l-48 -218q11 -35 39.5 -57.5t65.5 -22.5z" />
    <glyph glyph-name="f_h" unicode="fh" horiz-adv-x="718" 
d="M101 0h-72l93 420h-64l14 63h64l13 59q29 135 137 135q41 0 69 -17l-27 -55q-14 11 -36 11q-55 0 -72 -74l-12 -59h82l-14 -63h-82zM599 0h-71l76 344q4 28 4 29q0 58 -69 58q-63 0 -124 -79l-78 -352h-71l147 667h71l-55 -251q69 79 144 79q52 0 81.5 -25.5t29.5 -71.5
q0 -11 -5 -36z" />
    <glyph glyph-name="f_k" unicode="fk" horiz-adv-x="691" 
d="M101 0h-72l93 420h-64l14 63h64l13 59q29 135 137 135q41 0 69 -17l-27 -55q-14 11 -36 11q-55 0 -72 -74l-12 -59h82l-14 -63h-82zM623 0h-82l-86 221l-89 -90l-29 -131h-71l147 667h71l-97 -441l255 257h88l-217 -217z" />
    <glyph glyph-name=".notdef" horiz-adv-x="492" 
d="M441 -90h-351v842h351v-842zM409 -60v782h-288v-782h288z" />
    <glyph glyph-name=".null" horiz-adv-x="0" 
 />
    <glyph glyph-name=".null" horiz-adv-x="0" 
 />
    <glyph glyph-name="nonmarkingreturn" horiz-adv-x="333" 
 />
    <glyph glyph-name="CR" unicode="&#xd;" horiz-adv-x="0" 
 />
    <glyph glyph-name="space" unicode=" " horiz-adv-x="215" 
 />
    <glyph glyph-name="exclam" unicode="!" horiz-adv-x="228" 
d="M130 185h-59l92 482h89zM65 -10q-21 0 -35 14.5t-14 34.5q0 24 17.5 41t41.5 17q20 0 34 -14.5t14 -35.5q0 -24 -17 -40.5t-41 -16.5z" />
    <glyph glyph-name="quotedbl" unicode="&#x22;" horiz-adv-x="340" 
d="M152 414h-36q21 199 21 210q2 23 16 38t36 15q16 0 27.5 -11.5t11.5 -28.5q0 -3 -5 -23zM297 414h-36q20 199 21 210q2 23 15.5 38t35.5 15q17 0 28 -11.5t11 -28.5q0 -13 -5 -23z" />
    <glyph glyph-name="numbersign" unicode="#" horiz-adv-x="507" 
d="M209 0h-59l92 182h-91l-91 -182h-59l92 182h-88l25 51h89l101 201h-89l24 50h90l92 183h59l-92 -183h91l91 183h59l-92 -183h87l-23 -50h-89l-103 -201h92l-25 -51h-92zM266 233l103 201h-90l-102 -201h89z" />
    <glyph glyph-name="dollar" unicode="$" horiz-adv-x="468" 
d="M136 -100l20 93q-51 8 -91.5 32t-62.5 57l52 58q42 -62 118 -78l55 251q-29 20 -46 33t-38 35t-31 47.5t-10 55.5q0 80 60 137t146 57h1l20 90h59l-22 -97q81 -17 124 -73l-50 -57q-34 45 -90 59l-51 -228q58 -39 90 -78t32 -95q0 -85 -57 -146.5t-150 -64.5l-19 -88h-59
zM337 187q0 48 -59 91l-48 -218q49 7 78 42.5t29 84.5zM186 495q0 -43 62 -89l45 200q-46 -3 -76.5 -35.5t-30.5 -75.5z" />
    <glyph glyph-name="percent" unicode="%" horiz-adv-x="651" 
d="M121 0h-47l497 667h48zM441 -12q-57 0 -91.5 36t-34.5 92q0 85 49 143t113 58q57 0 92 -36t35 -92q0 -85 -49 -143t-114 -58zM443 37q41 0 72.5 43t31.5 104q0 39 -19.5 61.5t-52.5 22.5q-40 0 -72 -43t-32 -104q0 -39 19.5 -61.5t52.5 -22.5zM212 348q-57 0 -91.5 36
t-34.5 92q0 85 48.5 143t113.5 58q57 0 91.5 -36t34.5 -92q0 -85 -48.5 -143t-113.5 -58zM214 397q40 0 72 43t32 104q0 39 -19.5 61.5t-52.5 22.5q-41 0 -72.5 -43t-31.5 -104q0 -39 19.5 -61.5t52.5 -22.5z" />
    <glyph glyph-name="ampersand" unicode="&#x26;" horiz-adv-x="520" 
d="M435 0h-83q-13 21 -30 53q-75 -65 -152 -65q-69 0 -112.5 38t-43.5 108q0 87 45 141t125 99q-15 56 -15 107q0 79 48 137.5t112 58.5q52 0 84.5 -28t32.5 -83q0 -24 -6 -45.5t-13.5 -37t-24.5 -33t-28 -27.5t-35.5 -25.5t-35.5 -22t-39 -21.5q14 -41 37 -91
q19 -49 43 -98q45 61 86 145l55 -31q-58 -108 -111 -173q10 -19 61 -106zM181 48q52 0 112 58q-38 74 -52 111q-26 63 -39 99q-110 -71 -110 -174q0 -44 25.5 -69t63.5 -25zM240 476q0 -30 8 -67q65 37 98 70.5t33 83.5q0 58 -52 58q-33 0 -60 -43.5t-27 -101.5z" />
    <glyph glyph-name="quotesingle" unicode="'" horiz-adv-x="197" 
d="M152 414h-36q21 199 21 210q2 23 16 38t36 15q16 0 27.5 -11.5t11.5 -28.5q0 -3 -5 -23z" />
    <glyph glyph-name="parenleft" unicode="(" horiz-adv-x="229" 
d="M119 -176l-52 -23q-45 110 -45 249q0 340 239 635l41 -31q-96 -144 -151 -309t-55 -330q0 -87 23 -191z" />
    <glyph glyph-name="parenright" unicode=")" horiz-adv-x="229" 
d="M109 662l52 23q44 -112 44 -249q0 -340 -239 -635l-40 31q95 143 150 308t55 331q0 91 -22 191z" />
    <glyph glyph-name="asterisk" unicode="*" horiz-adv-x="321" 
d="M215 391h-45l32 117l-111 -51l-13 40l113 41l-89 62l30 35l82 -71l20 113h45l-32 -117l110 51l13 -40l-113 -41l90 -62l-31 -35l-82 71z" />
    <glyph glyph-name="plus" unicode="+" horiz-adv-x="439" 
d="M424 312h-162l-41 -184h-55l40 184h-162l11 51h163l39 177h55l-39 -177h163z" />
    <glyph glyph-name="comma" unicode="," horiz-adv-x="228" 
d="M125 40q0 -45 -33 -90.5t-80 -69.5l-30 32q28 14 51.5 37t31.5 47q-1 -1 -8 -1q-17 0 -29 12.5t-12 31.5q0 24 17.5 41t40.5 17q22 0 36.5 -15t14.5 -42z" />
    <glyph glyph-name="hyphen" unicode="-" horiz-adv-x="267" 
d="M230 210h-208l14 64h207z" />
    <glyph glyph-name="period" unicode="." horiz-adv-x="228" 
d="M65 -10q-21 0 -35 14.5t-14 34.5q0 24 17.5 41t41.5 17q20 0 34 -14.5t14 -35.5q0 -24 -17 -40.5t-41 -16.5z" />
    <glyph glyph-name="slash" unicode="/" horiz-adv-x="248" 
d="M-1 -20h-58l348 707h59z" />
    <glyph glyph-name="zero" unicode="0" horiz-adv-x="512" 
d="M222 -12q-81 0 -127 57.5t-46 163.5q0 105 33.5 211t99.5 181.5t147 75.5t126.5 -57.5t45.5 -163.5q0 -105 -33 -211t-99 -181.5t-147 -75.5zM229 59q55 0 101.5 72.5t69 164.5t22.5 169q0 141 -100 141q-56 0 -102.5 -72.5t-69 -164.5t-22.5 -169q0 -141 101 -141z" />
    <glyph glyph-name="one" unicode="1" horiz-adv-x="315" 
d="M191 0h-79l124 562l-127 -110l-37 50l196 165h70z" />
    <glyph glyph-name="two" unicode="2" horiz-adv-x="489" 
d="M376 0h-377l17 80q30 27 85 75q76 67 110 98t80.5 76.5t65 71.5t33 56.5t14.5 58.5q0 41 -29 65.5t-76 24.5q-82 0 -139 -68l-43 52q77 87 187 87q79 0 131.5 -40.5t52.5 -113.5q0 -60 -48 -131.5t-96.5 -119.5t-186.5 -173q-20 -19 -30 -28h264z" />
    <glyph glyph-name="three" unicode="3" horiz-adv-x="473" 
d="M203 -12q-72 0 -129 36t-78 100l63 41q17 -51 56 -78.5t88 -27.5q61 0 97.5 46.5t36.5 109.5q0 43 -30.5 67.5t-80.5 24.5q-38 0 -48 -1l17 72q8 -1 68 -1q57 0 95 39.5t38 98.5q0 42 -30 66.5t-82 24.5q-76 0 -135 -68l-40 50q34 40 82.5 64.5t101.5 24.5
q83 0 134 -39.5t51 -110.5q0 -70 -47 -124t-112 -64q44 -13 70 -48.5t26 -84.5q0 -88 -60.5 -153t-151.5 -65z" />
    <glyph glyph-name="four" unicode="4" horiz-adv-x="462" 
d="M312 0h-79l37 171h-264l17 75l330 421h106l-95 -426h73l-15 -70h-73zM285 241l75 338l-264 -338h189z" />
    <glyph glyph-name="five" unicode="5" horiz-adv-x="491" 
d="M217 -12q-146 0 -197 133l64 41q32 -103 135 -103q58 0 101 57.5t43 131.5q0 48 -28.5 75.5t-77.5 27.5q-60 0 -116 -51l-53 26l76 341h340l-15 -70h-261l-50 -226q47 47 117 47q65 0 108 -43.5t43 -118.5q0 -107 -65.5 -187.5t-163.5 -80.5z" />
    <glyph glyph-name="six" unicode="6" horiz-adv-x="492" 
d="M224 -12q-88 0 -133 56.5t-45 154.5q0 64 17.5 141.5t51 155t93 129.5t133.5 52q57 0 99.5 -27t62.5 -75l-56 -50q-26 81 -111 81q-38 0 -70.5 -23t-55.5 -62.5t-38.5 -81.5t-27.5 -90q-4 -13 -5 -21q27 37 69 63t87 26q69 0 111.5 -41.5t42.5 -114.5q0 -103 -64 -188
t-161 -85zM227 59q60 0 100 62.5t40 130.5q0 44 -27.5 71t-76.5 27q-70 0 -136 -93q-5 -28 -5 -70q0 -59 27 -93.5t78 -34.5z" />
    <glyph glyph-name="seven" unicode="7" horiz-adv-x="422" 
d="M132 0h-89l339 597h-278l15 70h371l-12 -55z" />
    <glyph glyph-name="eight" unicode="8" horiz-adv-x="486" 
d="M216 -12q-88 0 -141 38t-53 114q0 71 47 128t130 84q-38 20 -64.5 57t-26.5 81q0 81 61.5 134t142.5 53q76 0 130 -38.5t54 -109.5q0 -74 -47 -123.5t-119 -68.5q42 -24 69.5 -63.5t27.5 -87.5q0 -86 -61.5 -142t-149.5 -56zM272 374q60 11 100 47.5t40 96.5
q0 39 -29.5 63t-74.5 24q-50 0 -85 -35.5t-35 -90.5q0 -35 26 -64t58 -41zM217 59q51 0 91 39t40 97q0 43 -28.5 74.5t-61.5 42.5q-64 -10 -108.5 -53t-44.5 -104q0 -47 31.5 -71.5t80.5 -24.5z" />
    <glyph glyph-name="nine" unicode="9" horiz-adv-x="492" 
d="M307 678q88 0 133 -56.5t45 -153.5q0 -50 -10.5 -110.5t-34 -126t-56.5 -119t-84 -88.5t-111 -35q-56 0 -99 27t-63 74l56 51q12 -38 41 -59.5t70 -21.5q38 0 70.5 23t55.5 62.5t39 81t28 90.5q2 12 5 21q-27 -37 -69 -63t-88 -26q-68 0 -111 41.5t-43 114.5
q0 102 64.5 187.5t161.5 85.5zM303 607q-60 0 -100 -63t-40 -130q0 -44 28 -71t76 -27q72 0 136 93q6 34 6 70q0 59 -27.5 93.5t-78.5 34.5z" />
    <glyph glyph-name="colon" unicode=":" horiz-adv-x="228" 
d="M65 -10q-21 0 -35 14.5t-14 34.5q0 24 17.5 41t41.5 17q20 0 34 -14.5t14 -35.5q0 -24 -17 -40.5t-41 -16.5zM152 383q-21 0 -35 14.5t-14 35.5q0 23 17.5 40t40.5 17q21 0 35 -14.5t14 -34.5q0 -24 -17 -41t-41 -17z" />
    <glyph glyph-name="semicolon" unicode=";" horiz-adv-x="228" 
d="M125 40q0 -45 -33 -90.5t-80 -69.5l-30 32q28 14 51.5 37t31.5 47q-1 -1 -8 -1q-17 0 -29 12.5t-12 31.5q0 24 17.5 41t40.5 17q22 0 36.5 -15t14.5 -42zM152 383q-21 0 -35 14.5t-14 35.5q0 23 17.5 40t40.5 17q21 0 35 -14.5t14 -34.5q0 -24 -17 -41t-41 -17z" />
    <glyph glyph-name="less" unicode="&#x3c;" horiz-adv-x="439" 
d="M382 126l-339 183l11 51l421 184l-14 -64l-351 -149l285 -148z" />
    <glyph glyph-name="equal" unicode="=" horiz-adv-x="439" 
d="M445 405h-381l12 51h380zM402 212h-381l12 50h380z" />
    <glyph glyph-name="greater" unicode="&#x3e;" horiz-adv-x="439" 
d="M423 309l-421 -183l15 63l351 148l-285 149l12 58l340 -184z" />
    <glyph glyph-name="question" unicode="?" horiz-adv-x="387" 
d="M220 210l-65 -26q-17 29 -17 66q0 39 21 71t50.5 54t59 43t50.5 49t21 62t-24.5 56.5t-68.5 22.5q-62 0 -110 -45l-31 55q69 60 155 60q72 0 117.5 -38t45.5 -95q0 -39 -16 -71.5t-40 -54t-52 -43t-52 -38t-40 -39t-16 -47.5q0 -26 12 -42zM142 -10q-20 0 -34 14.5
t-14 34.5q0 24 17 41t41 17q20 0 34.5 -14.5t14.5 -35.5q0 -24 -17.5 -40.5t-41.5 -16.5z" />
    <glyph glyph-name="at" unicode="@" horiz-adv-x="691" 
d="M327 -70q-120 0 -196 83.5t-76 216.5q0 162 109.5 285.5t253.5 123.5q115 0 186.5 -78.5t71.5 -202.5q0 -120 -49 -196.5t-112 -76.5q-36 0 -58.5 21.5t-24.5 54.5v6q-56 -82 -133 -82q-54 0 -88 37t-34 106q0 105 62 188t147 83q37 0 63 -21t37 -54l12 59h65l-58 -274
q-2 -12 -2 -25q0 -47 38 -47q19 0 41 22t40.5 75t18.5 123q0 113 -62 180.5t-163 67.5q-130 0 -228 -114.5t-98 -259.5q0 -118 67 -193t175 -75q84 0 161 56l17 -26q-87 -63 -183 -63zM321 139q66 0 121 85l32 150q-8 29 -27.5 50t-50.5 21q-64 0 -107.5 -67.5t-43.5 -143.5
q0 -44 19.5 -69.5t56.5 -25.5z" />
    <glyph glyph-name="A" unicode="A" horiz-adv-x="511" 
d="M449 0h-83l-10 151h-237l-76 -151h-89l347 667h95zM355 221l-23 358l-180 -358h203z" />
    <glyph glyph-name="B" unicode="B" horiz-adv-x="516" 
d="M252 0h-236l147 667h198q68 0 110 -40t42 -104q0 -68 -40 -122.5t-100 -64.5q38 -11 60 -47.5t22 -79.5q0 -83 -53.5 -146t-149.5 -63zM178 376h135q57 0 86 42t29 93q0 39 -24.5 62.5t-63.5 23.5h-113zM247 71q58 0 92.5 42.5t34.5 101.5q0 43 -24.5 67t-68.5 24h-118
l-52 -235h136z" />
    <glyph glyph-name="C" unicode="C" horiz-adv-x="533" 
d="M272 -12q-100 0 -161 64.5t-61 176.5q0 108 38.5 210t113 170.5t164.5 68.5q78 0 128.5 -42.5t72.5 -112.5l-75 -23q-35 107 -132 107q-61 0 -114.5 -58.5t-83 -145.5t-29.5 -174q0 -81 38 -125.5t106 -44.5q71 0 136 81l61 -38q-83 -114 -202 -114z" />
    <glyph glyph-name="D" unicode="D" horiz-adv-x="564" 
d="M194 0h-178l147 667h174q86 0 147 -65.5t61 -176.5q0 -52 -11.5 -107.5t-38.5 -113t-66 -102.5t-100 -73.5t-135 -28.5zM111 71h96q61 0 111.5 34.5t81 88t47 113.5t16.5 115q0 80 -40 127.5t-101 47.5h-95z" />
    <glyph glyph-name="E" unicode="E" horiz-adv-x="461" 
d="M359 0h-343l147 667h343l-15 -70h-264l-49 -221h257l-16 -70h-256l-52 -235h263z" />
    <glyph glyph-name="F" unicode="F" horiz-adv-x="451" 
d="M96 0h-80l147 667h343l-15 -70h-264l-49 -221h257l-16 -70h-256z" />
    <glyph glyph-name="G" unicode="G" horiz-adv-x="562" 
d="M272 -12q-101 0 -161.5 64.5t-60.5 176.5q0 109 38.5 211t113 170t167.5 68q76 0 124.5 -41t69.5 -105l-70 -25q-16 46 -50 73t-83 27q-61 0 -114.5 -58t-83 -145t-29.5 -175q0 -82 38 -126t106 -44t127 64l33 148h-160l16 71h235l-55 -250q-85 -104 -201 -104z" />
    <glyph glyph-name="H" unicode="H" horiz-adv-x="574" 
d="M450 0h-80l68 308h-275l-67 -308h-80l147 667h80l-64 -289h275l63 289h80z" />
    <glyph glyph-name="I" unicode="I" horiz-adv-x="220" 
d="M96 0h-80l147 667h80z" />
    <glyph glyph-name="J" unicode="J" horiz-adv-x="398" 
d="M117 -12q-101 0 -146 67l43 59q32 -55 98 -55q96 0 121 114l109 494h79l-109 -496q-41 -183 -195 -183z" />
    <glyph glyph-name="K" unicode="K" horiz-adv-x="509" 
d="M442 0h-90l-134 298l-76 -84l-46 -214h-80l147 667h80l-74 -336l302 336h99l-293 -317z" />
    <glyph glyph-name="L" unicode="L" horiz-adv-x="425" 
d="M337 0h-321l147 667h80l-132 -596h241z" />
    <glyph glyph-name="M" unicode="M" horiz-adv-x="683" 
d="M559 0h-78l118 536l-296 -536h-31l-58 536l-118 -536h-80l147 667h108l53 -486l270 486h112z" />
    <glyph glyph-name="N" unicode="N" horiz-adv-x="572" 
d="M448 0h-77l-163 511l-112 -511h-80l147 667h80l161 -500l111 500h80z" />
    <glyph glyph-name="O" unicode="O" horiz-adv-x="599" 
d="M272 -12q-101 0 -161.5 66t-60.5 175q0 105 37 206t111.5 172t167.5 71q100 0 161 -66.5t61 -174.5q0 -77 -22.5 -156t-62 -144.5t-100.5 -107t-131 -41.5zM277 59q62 0 116 58t83 144.5t29 174.5q0 80 -40 125.5t-105 45.5q-63 0 -116 -58.5t-82 -145t-29 -174.5
q0 -80 39 -125t105 -45z" />
    <glyph glyph-name="P" unicode="P" horiz-adv-x="487" 
d="M96 0h-80l147 667h187q71 0 114.5 -46t43.5 -116q0 -43 -14 -84t-40.5 -76t-73 -56.5t-104.5 -21.5h-122zM169 337h114q66 0 104 48.5t38 113.5q0 44 -25.5 71t-64.5 27h-108z" />
    <glyph glyph-name="Q" unicode="Q" horiz-adv-x="599" 
d="M272 -12q-101 0 -161.5 66t-60.5 175q0 105 37 206t111.5 172t167.5 71q100 0 161 -66.5t61 -174.5q0 -111 -44 -220.5t-119 -171.5l24 -55l-63 -23l-18 42q-48 -21 -96 -21zM277 59q31 0 63 16l-54 129l63 23l45 -109q50 55 80.5 142.5t30.5 175.5q0 80 -40 125.5
t-105 45.5q-63 0 -116 -58.5t-82 -145t-29 -174.5q0 -80 39 -125t105 -45z" />
    <glyph glyph-name="R" unicode="R" horiz-adv-x="509" 
d="M410 0h-86l-69 267h-101l-58 -267h-80l147 667h185q68 0 114.5 -45t46.5 -117q0 -89 -50 -153.5t-127 -76.5zM169 337h115q66 0 103.5 48t37.5 114q0 45 -26 71.5t-64 26.5h-108z" />
    <glyph glyph-name="S" unicode="S" horiz-adv-x="470" 
d="M205 -12q-65 0 -121 26.5t-84 67.5l52 58q25 -37 67 -59t90 -22q58 0 92 37t34 91q0 27 -17.5 51.5t-43.5 41.5t-56.5 38.5t-56.5 42t-43.5 53t-17.5 70.5q0 80 60 137t146 57q56 0 105 -21.5t77 -58.5l-50 -57q-49 66 -138 66q-49 0 -82.5 -33.5t-33.5 -78.5
q0 -25 17.5 -48t43.5 -40t56.5 -38.5t56.5 -43t43.5 -54.5t17.5 -72q0 -87 -59 -149t-155 -62z" />
    <glyph glyph-name="T" unicode="T" horiz-adv-x="446" 
d="M208 0h-79l132 597h-158l15 70h396l-15 -70h-159z" />
    <glyph glyph-name="U" unicode="U" horiz-adv-x="569" 
d="M259 -12q-92 0 -146 48.5t-54 132.5q0 26 5 48l99 450h80l-100 -452q-4 -28 -4 -39q0 -54 33 -86t90 -32q61 0 96.5 38.5t53.5 118.5l100 452h79l-99 -451q-26 -114 -81 -171t-152 -57z" />
    <glyph glyph-name="V" unicode="V" horiz-adv-x="511" 
d="M249 0h-95l-53 667h83l35 -572l288 572h89z" />
    <glyph glyph-name="W" unicode="W" horiz-adv-x="715" 
d="M497 0h-85l8 526l-225 -526h-85l-1 667h84l-12 -544l235 544h67l-7 -544l230 544h86z" />
    <glyph glyph-name="X" unicode="X" horiz-adv-x="510" 
d="M448 0h-87l-97 273l-213 -273h-97l275 345l-117 322h88l88 -259l198 259h98l-261 -331z" />
    <glyph glyph-name="Y" unicode="Y" horiz-adv-x="499" 
d="M235 0h-79l62 282l-121 385h84l89 -308l225 308h93l-291 -385z" />
    <glyph glyph-name="Z" unicode="Z" horiz-adv-x="462" 
d="M368 0h-382l15 67l391 530h-274l15 70h375l-14 -66l-394 -530h283z" />
    <glyph glyph-name="bracketleft" unicode="[" horiz-adv-x="213" 
d="M98 -190h-157l192 868h158l-12 -53h-101l-169 -762h101z" />
    <glyph glyph-name="backslash" unicode="\" horiz-adv-x="248" 
d="M134 -20l-40 707h56l40 -707h-56z" />
    <glyph glyph-name="bracketright" unicode="]" horiz-adv-x="213" 
d="M78 -190h-157l12 53h101l169 762h-102l12 53h158z" />
    <glyph glyph-name="asciicircum" unicode="^" horiz-adv-x="381" 
d="M381 333h-56l-52 277l-174 -277h-61l218 334h55z" />
    <glyph glyph-name="underscore" unicode="_" horiz-adv-x="422" 
d="M349 -93h-426l12 53h427z" />
    <glyph glyph-name="grave" unicode="`" horiz-adv-x="186" 
d="M255 556h-52l-102 144h73z" />
    <glyph glyph-name="a" unicode="a" horiz-adv-x="480" 
d="M252 495q43 0 76.5 -22t51.5 -63l16 73h71l-107 -483h-72l15 66q-54 -78 -130 -78q-65 0 -103.5 45t-38.5 126q0 73 24.5 148.5t77 131.5t119.5 56zM262 431q-45 0 -82 -45t-55 -104.5t-18 -112.5q0 -56 25 -86.5t70 -30.5q33 0 64.5 23.5t51.5 57.5l49 218
q-11 35 -39.5 57.5t-65.5 22.5z" />
    <glyph glyph-name="b" unicode="b" horiz-adv-x="480" 
d="M227 -12q-91 0 -128 85l-16 -73h-71l147 667h71l-55 -250q54 78 131 78q65 0 103 -45t38 -126q0 -73 -24.5 -148.5t-77 -131.5t-118.5 -56zM217 52q45 0 82 45t55 104.5t18 112.5q0 56 -25.5 86.5t-69.5 30.5q-33 0 -64.5 -23.5t-52.5 -57.5l-48 -218q11 -35 39.5 -57.5
t65.5 -22.5z" />
    <glyph glyph-name="c" unicode="c" horiz-adv-x="406" 
d="M210 -12q-81 0 -129 50t-48 141q0 75 29 146.5t85.5 120.5t126.5 49q97 0 141 -70l-48 -46q-28 52 -91 52q-75 0 -122 -81t-47 -170q0 -63 31 -95.5t81 -32.5q54 0 93 44l30 -51q-57 -57 -132 -57z" />
    <glyph glyph-name="d" unicode="d" horiz-adv-x="480" 
d="M252 495q43 0 76.5 -22t51.5 -63l56 257h72l-148 -667h-72l15 66q-54 -78 -130 -78q-65 0 -103.5 45t-38.5 126q0 73 24.5 148.5t77 131.5t119.5 56zM262 431q-45 0 -82 -45t-55 -104.5t-18 -112.5q0 -56 25 -86.5t70 -30.5q33 0 64.5 23.5t51.5 57.5l49 218
q-11 35 -39.5 57.5t-65.5 22.5z" />
    <glyph glyph-name="e" unicode="e" horiz-adv-x="468" 
d="M220 -12q-88 0 -138 50t-50 140q0 68 27 139t84 124.5t128 53.5q76 0 120.5 -48t44.5 -132q0 -43 -13 -97h-315q-4 -19 -4 -45q0 -54 31.5 -89.5t91.5 -35.5q63 0 113 50l28 -47q-63 -63 -148 -63zM117 271h247q6 22 6 47q0 51 -27.5 84t-77.5 33q-55 0 -95.5 -50
t-52.5 -114z" />
    <glyph glyph-name="f" unicode="f" horiz-adv-x="254" 
d="M101 0h-72l93 420h-64l15 63h63l13 59q29 135 139 135q57 0 89 -35l-38 -48q-17 22 -47 22q-55 0 -72 -74l-12 -59h82l-14 -63h-82z" />
    <glyph glyph-name="g" unicode="g" horiz-adv-x="479" 
d="M156 -196q-119 0 -174 69l44 52q39 -60 129 -60q103 0 132 132l18 77q-54 -79 -133 -79q-63 0 -102 43t-39 127q0 71 24 145t76 129.5t120 55.5q39 0 75.5 -23.5t52.5 -61.5l16 73h72l-107 -482q-44 -197 -204 -197zM202 59q32 0 63.5 23t53.5 56l47 212q-12 35 -42 58
t-66 23q-45 0 -81 -43.5t-53.5 -101t-17.5 -110.5q0 -57 25.5 -87t70.5 -30z" />
    <glyph glyph-name="h" unicode="h" 
d="M345 0h-71l76 344q4 28 4 29q0 58 -69 58q-63 0 -124 -79l-78 -352h-71l147 667h71l-55 -251q69 79 144 79q52 0 81.5 -25.5t29.5 -71.5q0 -11 -5 -36z" />
    <glyph glyph-name="i" unicode="i" horiz-adv-x="203" 
d="M174 553q-19 0 -31.5 12.5t-12.5 29.5q0 25 17.5 40.5t37.5 15.5q19 0 32 -12.5t13 -30.5q0 -25 -17.5 -40t-38.5 -15zM83 0h-71l107 483h71z" />
    <glyph glyph-name="j" unicode="j" horiz-adv-x="203" 
d="M-63 -196q-64 0 -89 38l36 50q15 -27 47 -27q50 0 67 76l121 542h71l-120 -542q-16 -71 -47 -104t-86 -33zM174 553q-19 0 -31.5 12.5t-12.5 29.5q0 25 17.5 40.5t37.5 15.5q19 0 32 -12.5t13 -30.5q0 -25 -17.5 -40t-38.5 -15z" />
    <glyph glyph-name="k" unicode="k" horiz-adv-x="438" 
d="M369 0h-82l-86 221l-89 -90l-29 -131h-71l147 667h71l-97 -441l255 257h88l-217 -217z" />
    <glyph glyph-name="l" unicode="l" horiz-adv-x="203" 
d="M83 0h-71l147 667h71z" />
    <glyph glyph-name="m" unicode="m" horiz-adv-x="692" 
d="M572 0h-72l77 347q4 20 4 27q0 27 -16.5 42t-43.5 15q-29 0 -60.5 -23t-55.5 -56l-77 -352h-72l77 347q4 22 4 31q-2 53 -61 53q-58 0 -115 -79l-78 -352h-71l107 483h71l-15 -67q62 79 135 79q47 0 74 -25t27 -54q0 -3 -1 -7q66 86 144 86q45 0 74 -25.5t29 -70.5
q0 -10 -5 -37z" />
    <glyph glyph-name="n" unicode="n" 
d="M345 0h-72l77 344q0 1 2 12.5t2 16.5q0 58 -66 58q-34 0 -68 -23t-59 -56l-78 -352h-71l107 483h71l-15 -67q69 79 144 79q51 0 81 -25.5t30 -71.5q0 -14 -5 -36z" />
    <glyph glyph-name="o" unicode="o" horiz-adv-x="477" 
d="M205 -12q-81 0 -127 49t-46 137q0 75 28 147.5t84.5 123t125.5 50.5q81 0 127 -49t46 -137q0 -75 -28 -147.5t-84.5 -123t-125.5 -50.5zM208 52q68 0 114.5 85t46.5 171q0 60 -27 91.5t-75 31.5q-46 0 -84 -43.5t-57.5 -102t-19.5 -111.5q0 -60 27 -91t75 -31z" />
    <glyph glyph-name="p" unicode="p" horiz-adv-x="478" 
d="M227 -12q-91 0 -128 85l-57 -257h-71l148 667h71l-15 -66q54 78 131 78q65 0 103 -45t38 -126q0 -73 -24.5 -148.5t-77 -131.5t-118.5 -56zM217 52q45 0 82 45t55 104.5t18 112.5q0 56 -25.5 86.5t-69.5 30.5q-33 0 -64.5 -23.5t-52.5 -57.5l-48 -218q11 -35 39.5 -57.5
t65.5 -22.5z" />
    <glyph glyph-name="q" unicode="q" horiz-adv-x="478" 
d="M252 495q43 0 76.5 -22t51.5 -63l15 73h72l-148 -667h-72l56 250q-54 -78 -130 -78q-65 0 -103.5 45t-38.5 126q0 73 24.5 148.5t77 131.5t119.5 56zM262 431q-45 0 -82 -45t-55 -104.5t-18 -112.5q0 -56 25 -86.5t70 -30.5q33 0 64.5 23.5t51.5 57.5l49 218
q-11 35 -39.5 57.5t-65.5 22.5z" />
    <glyph glyph-name="r" unicode="r" horiz-adv-x="291" 
d="M83 0h-71l107 483h71l-16 -71q61 81 155 81l-17 -73q-18 3 -30 3q-35 0 -68 -22.5t-55 -57.5z" />
    <glyph glyph-name="s" unicode="s" horiz-adv-x="387" 
d="M159 -12q-115 0 -166 76l45 48q17 -28 50.5 -47t73.5 -19q41 0 68 25.5t27 59.5q0 24 -20 44t-48.5 36t-56.5 33t-48 44t-20 61q0 61 44 103.5t118 42.5q47 0 87.5 -19t62.5 -50l-42 -46q-13 24 -44.5 40.5t-66.5 16.5q-40 0 -64 -21t-24 -54q0 -27 30.5 -50.5
t66.5 -40.5t66.5 -50t30.5 -76q0 -65 -47 -111t-123 -46z" />
    <glyph glyph-name="t" unicode="t" horiz-adv-x="263" 
d="M140 -12q-96 0 -96 79q0 16 4 32l71 321h-64l14 63h65l29 132h71l-29 -132h82l-14 -63h-82l-69 -308q-3 -21 -3 -24q0 -36 39 -36q23 0 39 14l9 -56q-27 -22 -66 -22z" />
    <glyph glyph-name="u" unicode="u" 
d="M119 483h71l-76 -343q-4 -20 -4 -30q0 -58 69 -58q62 0 123 77l78 354h72l-107 -483h-72l16 67q-71 -79 -144 -79q-51 0 -81 25.5t-30 71.5q0 13 5 36z" />
    <glyph glyph-name="v" unicode="v" horiz-adv-x="408" 
d="M189 0h-79l-51 483h75l32 -398l209 398h80z" />
    <glyph glyph-name="w" unicode="w" horiz-adv-x="638" 
d="M442 0h-74l-18 388l-189 -388h-73l-22 483h72l9 -386l188 386h67l18 -386l180 386h78z" />
    <glyph glyph-name="x" unicode="x" horiz-adv-x="406" 
d="M340 0h-77l-68 194l-155 -194h-82l201 246l-86 237h77l62 -184l144 184h83l-193 -237z" />
    <glyph glyph-name="y" unicode="y" horiz-adv-x="408" 
d="M-54 -186l25 63q11 -8 35 -8q32 0 60 47l43 76l-50 491h75l32 -396l209 396h80l-323 -585q-29 -51 -59 -72.5t-70 -21.5q-29 0 -57 10z" />
    <glyph glyph-name="z" unicode="z" horiz-adv-x="387" 
d="M290 0h-301l12 56l286 364h-205l14 63h297l-12 -55l-288 -365h210z" />
    <glyph glyph-name="braceleft" unicode="{" horiz-adv-x="231" 
d="M117 -190h-36q-39 0 -68 26t-29 68q0 13 4 27l48 219q3 18 3 19q0 22 -10.5 36.5t-28.5 14.5l11 48q53 0 67 70l49 220q26 120 137 120h46l-12 -53h-46q-54 0 -69 -67l-51 -232q-16 -70 -65 -88q29 -15 29 -54q0 -18 -4 -34l-48 -219q-2 -12 -2 -19q0 -22 13 -35.5
t32 -13.5h43z" />
    <glyph glyph-name="bar" unicode="|" horiz-adv-x="194" 
d="M144 -20h-54v707h54v-707z" />
    <glyph glyph-name="braceright" unicode="}" horiz-adv-x="231" 
d="M113 678h36q39 0 68 -26t29 -68q0 -9 -3 -27l-49 -219q-2 -12 -2 -20q0 -22 10 -36t29 -14l-11 -48q-52 0 -68 -70l-49 -220q-26 -120 -137 -120h-46l12 53h46q54 0 69 66l52 233q14 69 64 88q-29 15 -29 54q0 18 4 34l48 219q2 12 2 18q0 22 -13 36t-32 14h-42z" />
    <glyph glyph-name="asciitilde" unicode="~" horiz-adv-x="449" 
d="M460 667l54 -6q-54 -237 -166 -237q-42 0 -61 30t-19.5 65.5t-9 65.5t-31.5 30q-62 0 -106 -192l-53 6q52 237 165 237q42 0 61 -30t19 -66t8.5 -66t32.5 -30q62 0 106 193z" />
    <glyph glyph-name="nbspace" unicode="&#xa0;" horiz-adv-x="215" 
 />
    <glyph glyph-name="exclamdown" unicode="&#xa1;" horiz-adv-x="228" 
d="M96 298h60l-92 -482h-90zM162 493q20 0 34.5 -14t14.5 -35q0 -24 -17.5 -40.5t-41.5 -16.5q-20 0 -34 14t-14 34q0 25 17 41.5t41 16.5z" />
    <glyph glyph-name="cent" unicode="&#xa2;" horiz-adv-x="406" 
d="M134 -100l21 95q-57 15 -89.5 62.5t-32.5 121.5q0 115 66 213t167 102l16 71h57l-17 -76q63 -15 93 -64l-48 -46q-21 36 -59 47l-83 -374q51 3 87 44l30 -51q-56 -56 -131 -57l-20 -88h-57zM107 180q0 -91 63 -119l81 367q-44 -9 -78 -51t-50 -94.5t-16 -102.5z" />
    <glyph glyph-name="sterling" unicode="&#xa3;" horiz-adv-x="449" 
d="M30 269l11 52h93q-3 7 -12.5 27.5t-13.5 31.5t-8.5 30.5t-4.5 38.5q0 92 64.5 160t151.5 68q64 0 111.5 -32t56.5 -88l-70 -27q-6 36 -31.5 58t-64.5 22q-53 0 -93 -48t-40 -120q0 -22 6 -42t17 -44t15 -35h110l-11 -52h-90q-1 -55 -33 -105.5t-73 -77.5q21 8 41 8
q28 0 68.5 -18t62.5 -18q44 0 80 38l17 -64q-47 -45 -106 -45q-41 0 -90 22t-79 22q-39 0 -97 -38l-16 59q62 29 105.5 85t43.5 112q0 6 -2 20h-119z" />
    <glyph glyph-name="currency" unicode="&#xa4;" horiz-adv-x="494" 
d="M219 99q-60 6 -98 41l-90 -73l-40 51l93 75q-30 67 -9 161q17 81 66 138l-57 73l51 41l54 -71q59 38 132 31q59 -7 97 -42l92 75l40 -50l-95 -77q29 -66 10 -160q-19 -83 -67 -139l57 -72l-51 -41l-54 70q-59 -38 -131 -31zM233 165q59 -7 102 38.5t58 116.5
q15 69 -6 121.5t-80 58.5q-60 7 -102.5 -38.5t-57.5 -115.5q-16 -70 5 -122.5t81 -58.5z" />
    <glyph glyph-name="yen" unicode="&#xa5;" horiz-adv-x="499" 
d="M238 0h-79l27 123h-192l12 51h191l24 108h-191l11 51h164l-105 334h84l89 -308l225 308h93l-253 -334h158l-11 -51h-185l-24 -108h185l-12 -51h-184z" />
    <glyph glyph-name="brokenbar" unicode="&#xa6;" horiz-adv-x="194" 
d="M144 -20h-54v316h54v-316zM144 371h-54v316h54v-316z" />
    <glyph glyph-name="section" unicode="&#xa7;" horiz-adv-x="389" 
d="M367 323q0 -50 -29 -87.5t-84 -55.5q58 -39 58 -103q0 -65 -46.5 -111.5t-119.5 -46.5q-120 0 -175 72l45 45q41 -63 127 -63q42 0 69.5 27.5t27.5 66.5q0 25 -19.5 45t-47.5 35t-55.5 31.5t-47 44t-19.5 63.5q0 50 33.5 87.5t94.5 47.5q-74 44 -74 112q0 60 44.5 102
t113.5 42q108 0 159 -67l-42 -40q-36 53 -114 53q-39 0 -65 -23.5t-26 -57.5q0 -25 20 -45t48 -35t56 -32t48 -44t20 -63zM296 308q0 50 -65 85q-57 -8 -84 -34t-27 -60q0 -51 86 -92q90 28 90 101z" />
    <glyph glyph-name="dieresis" unicode="&#xa8;" horiz-adv-x="268" 
d="M345 608q0 -20 -15 -34.5t-35 -14.5q-17 0 -28.5 11.5t-11.5 28.5q0 19 15 34t35 15q17 0 28.5 -11.5t11.5 -28.5zM172 608q0 -19 -15.5 -34t-35.5 -15q-17 0 -28.5 11.5t-11.5 28.5q0 19 15.5 34t35.5 15q17 0 28.5 -11.5t11.5 -28.5z" />
    <glyph glyph-name="copyright" unicode="&#xa9;" horiz-adv-x="778" 
d="M754 334q0 -143 -101.5 -244t-244.5 -101q-142 0 -243 101t-101 244t100.5 244t243.5 101t244.5 -101t101.5 -244zM724 334q0 130 -93 222.5t-223 92.5t-221.5 -92.5t-91.5 -222.5t91.5 -222t221.5 -92t223 92t93 222zM505 201l19 -28q-62 -52 -134 -52q-88 0 -140 53
t-52 133q0 100 72 170.5t164 70.5q108 0 155 -80l-30 -22q-37 70 -126 70q-75 0 -137 -60.5t-62 -147.5q0 -65 43.5 -110t112.5 -45q67 0 115 48z" />
    <glyph glyph-name="ordfeminine" unicode="&#xaa;" horiz-adv-x="351" 
d="M242 603q-43 0 -73 -52t-30 -109q0 -38 17 -58.5t46 -20.5q43 0 78 51l31 142q-7 20 -26 33.5t-43 13.5zM330 640h55l-69 -314h-56l10 45q-39 -53 -90 -53q-44 0 -71.5 30.5t-27.5 89.5q0 78 42.5 144t107.5 66q62 0 89 -52z" />
    <glyph glyph-name="guillemotleft" unicode="&#xab;" horiz-adv-x="382" 
d="M178 63h-64l-85 180l165 177h70l-169 -181zM308 63h-64l-85 180l165 177h70l-169 -181z" />
    <glyph glyph-name="logicalnot" unicode="&#xac;" horiz-adv-x="441" 
d="M456 456l-54 -244h-53l43 193h-328l12 51h380z" />
    <glyph glyph-name="uni00AD" unicode="&#xad;" horiz-adv-x="267" 
d="M230 210h-208l14 64h207z" />
    <glyph glyph-name="registered" unicode="&#xae;" horiz-adv-x="494" 
d="M508 465q0 -88 -62.5 -150t-150.5 -62t-149.5 62t-61.5 150t62 150t150 62t150 -61.5t62 -150.5zM479 465q0 77 -53.5 130t-130.5 53t-130 -53t-53 -130q0 -76 53.5 -130t129.5 -54t130 54t54 130zM367 343h-38l-42 96h-46l-21 -96h-32l53 243h92q30 0 50 -17.5t20 -46.5
q0 -35 -25 -58.5t-55 -23.5zM369 518q0 19 -11.5 29.5t-29.5 10.5h-61l-20 -90h68q23 0 38.5 14.5t15.5 35.5z" />
    <glyph glyph-name="macron" unicode="&#xaf;" horiz-adv-x="306" 
d="M377 573h-304l10 46h305z" />
    <glyph glyph-name="degree" unicode="&#xb0;" horiz-adv-x="289" 
d="M334 556q0 -50 -35.5 -85.5t-85.5 -35.5t-85.5 35.5t-35.5 85.5t35.5 85.5t85.5 35.5t85.5 -35.5t35.5 -85.5zM288 556q0 30 -22.5 52t-52.5 22q-31 0 -52.5 -22t-21.5 -52q0 -31 21 -52.5t52 -21.5q30 0 53 22t23 52z" />
    <glyph glyph-name="plusminus" unicode="&#xb1;" horiz-adv-x="439" 
d="M425 318h-162l-41 -184h-55l41 184h-163l11 51h163l39 177h55l-39 -177h163zM360 22h-380l10 51h381z" />
    <glyph glyph-name="twosuperior" unicode="&#xb2;" horiz-adv-x="326" 
d="M330 421h-250l10 47q161 127 198 165q48 50 48 90q0 27 -19 41.5t-48 14.5q-55 0 -94 -47l-29 38q52 57 126 57q51 0 87 -26t36 -74q0 -37 -30.5 -78.5t-64 -71t-115.5 -95.5q-3 -3 -5 -4.5t-5 -4t-6 -4.5h171z" />
    <glyph glyph-name="threesuperior" unicode="&#xb3;" horiz-adv-x="326" 
d="M357 539q0 -47 -37 -86t-97 -39q-47 0 -83 19t-52 53l42 32q26 -56 91 -56q37 0 57.5 26t20.5 60q0 26 -20.5 40.5t-52.5 14.5q-22 0 -28 -1l10 48q9 -1 46 -1q36 0 58.5 20t22.5 55q0 25 -20 40t-51 15q-50 0 -91 -43l-27 35q53 56 122 56q56 0 90.5 -25t34.5 -71
q0 -40 -27.5 -71.5t-72.5 -37.5q28 -7 46 -29t18 -54z" />
    <glyph glyph-name="acute" unicode="&#xb4;" horiz-adv-x="186" 
d="M287 700l-166 -144h-54l145 144h75z" />
    <glyph glyph-name="mu" unicode="&#xb5;" horiz-adv-x="476" 
d="M88 23l-46 -207h-72l149 667h72l-77 -344q-10 -44 7 -66.5t52 -22.5q33 0 68 22.5t60 54.5l79 356h72l-84 -377q-13 -54 26 -54q13 0 18 1l-8 -61q-18 -4 -38 -4q-80 0 -72 85q-28 -38 -65.5 -61.5t-73.5 -23.5q-49 0 -67 35z" />
    <glyph glyph-name="paragraph" unicode="&#xb6;" horiz-adv-x="449" 
d="M300 -100h-45l161 723h-89l-161 -723h-44l94 423q-57 0 -97 44.5t-40 111.5q0 73 56.5 130.5t137.5 57.5h197z" />
    <glyph glyph-name="periodcentered" unicode="&#xb7;" horiz-adv-x="228" 
d="M109 191q-20 0 -34 14.5t-14 34.5q0 24 17 41t41 17q20 0 34.5 -14.5t14.5 -34.5q0 -24 -17.5 -41t-41.5 -17z" />
    <glyph glyph-name="cedilla" unicode="&#xb8;" horiz-adv-x="185" 
d="M6 -191q-62 0 -95 38l25 34q28 -33 72 -33q25 0 40 14t15 34q0 28 -31 28q-18 0 -31 -15l-28 18l50 84h43l-41 -67q12 11 29 11q24 0 38.5 -15.5t14.5 -41.5q0 -38 -29 -63.5t-72 -25.5z" />
    <glyph glyph-name="onesuperior" unicode="&#xb9;" horiz-adv-x="225" 
d="M208 421h-58l70 321l-74 -63l-28 36l127 106h51z" />
    <glyph glyph-name="ordmasculine" unicode="&#xba;" horiz-adv-x="347" 
d="M205 318q-58 0 -90.5 34.5t-32.5 92.5q0 74 46.5 138.5t116.5 64.5q58 0 90.5 -34.5t32.5 -92.5q0 -74 -46.5 -138.5t-116.5 -64.5zM206 364q47 0 76 52.5t29 105.5q0 37 -18 57.5t-50 20.5q-47 0 -75.5 -52t-28.5 -105q0 -37 18 -58t49 -21z" />
    <glyph glyph-name="guillemotright" unicode="&#xbb;" horiz-adv-x="382" 
d="M75 420h64l85 -180l-165 -177h-70l169 182zM205 420h64l85 -180l-165 -177h-70l169 182z" />
    <glyph glyph-name="onequarter" unicode="&#xbc;" horiz-adv-x="673" 
d="M174 267h-58l70 321l-74 -63l-28 36l127 106h51zM615 101h-47l-22 -101h-58l22 101h-168l10 45l206 254h76l-56 -252h47zM520 148l43 189l-156 -189h113zM609 667l-497 -667h-48l497 667h48z" />
    <glyph glyph-name="onehalf" unicode="&#xbd;" horiz-adv-x="707" 
d="M174 267h-58l70 321l-74 -63l-28 36l127 106h51zM618 0h-250l10 47q161 127 198 165q48 51 48 90q0 27 -19 41.5t-48 14.5q-55 0 -94 -47l-29 38q52 57 126 57q51 0 87 -26t36 -74q0 -37 -30.5 -78.5t-64 -71t-115.5 -95.5q-10 -9 -16 -13h171zM609 667l-497 -667h-48
l497 667h48z" />
    <glyph glyph-name="threequarters" unicode="&#xbe;" horiz-adv-x="745" 
d="M688 101h-47l-22 -101h-58l22 101h-168l10 45l206 254h76l-56 -252h47zM593 148l43 189l-156 -189h113zM681 667l-497 -667h-48l497 667h48zM323 385q0 -47 -37 -86t-97 -39q-47 0 -83 19t-52 53l42 32q26 -56 91 -56q37 0 57.5 26t20.5 60q0 26 -20.5 40.5t-52.5 14.5
q-22 0 -28 -1l10 48q9 -1 46 -1q36 0 58.5 20t22.5 55q0 25 -20 40t-51 15q-50 0 -91 -43l-27 35q53 56 122 56q56 0 90.5 -25t34.5 -71q0 -40 -27.5 -71.5t-72.5 -37.5q28 -7 46 -29t18 -54z" />
    <glyph glyph-name="questiondown" unicode="&#xbf;" horiz-adv-x="332" 
d="M165 273l65 26q18 -30 18 -67q0 -39 -21 -71t-50.5 -53.5t-59.5 -42.5t-51 -49t-21 -62t25 -56.5t69 -22.5q61 0 110 44l30 -54q-69 -60 -154 -60q-72 0 -118 38t-46 95q0 46 22.5 83t54.5 61t63.5 45.5t54 47.5t22.5 55q0 26 -13 43zM243 493q21 0 35 -14.5t14 -34.5
q0 -24 -17.5 -41t-41.5 -17q-20 0 -34 14.5t-14 34.5q0 24 17.5 41t40.5 17z" />
    <glyph glyph-name="Agrave" unicode="&#xc0;" horiz-adv-x="511" 
d="M449 0h-83l-10 151h-237l-76 -151h-89l347 667h95zM355 221l-23 358l-180 -358h203zM408 723h-52l-102 144h73z" />
    <glyph glyph-name="Aacute" unicode="&#xc1;" horiz-adv-x="511" 
d="M449 0h-83l-10 151h-237l-76 -151h-89l347 667h95zM355 221l-23 358l-180 -358h203zM532 867l-166 -144h-54l145 144h75z" />
    <glyph glyph-name="Acircumflex" unicode="&#xc2;" horiz-adv-x="511" 
d="M478 723h-45l-48 105l-92 -105h-48l112 144h70zM449 0h-83l-10 151h-237l-76 -151h-89l347 667h95zM355 221l-23 358l-180 -358h203z" />
    <glyph glyph-name="Atilde" unicode="&#xc3;" horiz-adv-x="511" 
d="M449 0h-83l-10 151h-237l-76 -151h-89l347 667h95zM355 221l-23 358l-180 -358h203zM419 721q-23 0 -37 14.5t-18.5 32.5t-14.5 32.5t-25 14.5q-35 0 -54 -88h-43q28 134 105 134q23 0 37 -14.5t19 -32t14.5 -32t24.5 -14.5q34 0 55 87h43q-30 -134 -106 -134z" />
    <glyph glyph-name="Adieresis" unicode="&#xc4;" horiz-adv-x="511" 
d="M503 775q0 -20 -15 -34.5t-35 -14.5q-17 0 -28.5 11.5t-11.5 28.5q0 19 15 34t35 15q17 0 28.5 -11.5t11.5 -28.5zM330 775q0 -19 -15.5 -34t-35.5 -15q-17 0 -28.5 11.5t-11.5 28.5q0 19 15.5 34t35.5 15q17 0 28.5 -11.5t11.5 -28.5zM449 0h-83l-10 151h-237l-76 -151
h-89l347 667h95zM355 221l-23 358l-180 -358h203z" />
    <glyph glyph-name="Aring" unicode="&#xc5;" horiz-adv-x="511" 
d="M449 0h-83l-10 151h-237l-76 -151h-89l347 667h95zM355 221l-23 358l-180 -358h203zM365 691q-36 0 -59 23.5t-23 59.5q0 40 30 70t70 30q36 0 59 -23.5t23 -59.5q0 -41 -29.5 -70.5t-70.5 -29.5zM368 729q24 0 41.5 17t17.5 42q0 21 -13 34.5t-33 13.5q-24 0 -42 -17.5
t-18 -41.5q0 -21 13 -34.5t34 -13.5z" />
    <glyph glyph-name="AE" unicode="&#xc6;" horiz-adv-x="751" 
d="M648 0h-342l33 151h-191l-102 -151h-89l463 667h375l-15 -70h-263l-49 -221h256l-16 -70h-256l-52 -235h263zM355 221l77 351l-239 -351h162z" />
    <glyph glyph-name="Ccedilla" unicode="&#xc7;" horiz-adv-x="533" 
d="M217 -191q-62 0 -95 38l25 34q29 -33 72 -33q25 0 40 14t15 34q0 28 -31 28q-17 0 -31 -15l-28 18l39 66q-80 14 -126.5 76t-46.5 160q0 108 38.5 210t113 170.5t164.5 68.5q78 0 128.5 -42.5t72.5 -112.5l-75 -23q-35 107 -132 107q-61 0 -114.5 -58.5t-83 -145.5
t-29.5 -174q0 -81 38 -125.5t106 -44.5q71 0 136 81l61 -38q-83 -114 -202 -114h-9l-27 -44q12 11 29 11q24 0 38.5 -15.5t14.5 -41.5q0 -38 -29 -63.5t-72 -25.5z" />
    <glyph glyph-name="Egrave" unicode="&#xc8;" horiz-adv-x="461" 
d="M359 0h-343l147 667h343l-15 -70h-264l-49 -221h257l-16 -70h-256l-52 -235h263zM394 723h-52l-102 144h73z" />
    <glyph glyph-name="Eacute" unicode="&#xc9;" horiz-adv-x="461" 
d="M518 867l-166 -144h-54l145 144h75zM359 0h-343l147 667h343l-15 -70h-264l-49 -221h257l-16 -70h-256l-52 -235h263z" />
    <glyph glyph-name="Ecircumflex" unicode="&#xca;" horiz-adv-x="461" 
d="M464 723h-45l-48 105l-92 -105h-48l112 144h70zM359 0h-343l147 667h343l-15 -70h-264l-49 -221h257l-16 -70h-256l-52 -235h263z" />
    <glyph glyph-name="Edieresis" unicode="&#xcb;" horiz-adv-x="461" 
d="M489 775q0 -20 -15 -34.5t-35 -14.5q-17 0 -28.5 11.5t-11.5 28.5q0 19 15 34t35 15q17 0 28.5 -11.5t11.5 -28.5zM316 775q0 -19 -15.5 -34t-35.5 -15q-17 0 -28.5 11.5t-11.5 28.5q0 19 15.5 34t35.5 15q17 0 28.5 -11.5t11.5 -28.5zM359 0h-343l147 667h343l-15 -70
h-264l-49 -221h257l-16 -70h-256l-52 -235h263z" />
    <glyph glyph-name="Igrave" unicode="&#xcc;" horiz-adv-x="220" 
d="M96 0h-80l147 667h80zM262 723h-52l-102 144h73z" />
    <glyph glyph-name="Iacute" unicode="&#xcd;" horiz-adv-x="220" 
d="M96 0h-80l147 667h80zM387 867l-166 -144h-54l145 144h75z" />
    <glyph glyph-name="Icircumflex" unicode="&#xce;" horiz-adv-x="220" 
d="M333 723h-45l-48 105l-92 -105h-48l112 144h70zM96 0h-80l147 667h80z" />
    <glyph glyph-name="Idieresis" unicode="&#xcf;" horiz-adv-x="220" 
d="M358 775q0 -20 -15 -34.5t-35 -14.5q-17 0 -28.5 11.5t-11.5 28.5q0 19 15 34t35 15q17 0 28.5 -11.5t11.5 -28.5zM185 775q0 -19 -15.5 -34t-35.5 -15q-17 0 -28.5 11.5t-11.5 28.5q0 19 15.5 34t35.5 15q17 0 28.5 -11.5t11.5 -28.5zM96 0h-80l147 667h80z" />
    <glyph glyph-name="Eth" unicode="&#xd0;" horiz-adv-x="587" 
d="M218 0h-178l66 301h-78l15 66h78l66 300h174q86 0 147 -65.5t61 -176.5q0 -52 -11.5 -107.5t-38.5 -113t-66 -102.5t-100 -73.5t-135 -28.5zM312 301h-127l-50 -230h96q61 0 111.5 34.5t81 88t47 113.5t16.5 115q0 80 -40 127.5t-101 47.5h-95l-51 -230h127z" />
    <glyph glyph-name="Ntilde" unicode="&#xd1;" horiz-adv-x="572" 
d="M450 721q-23 0 -37 14.5t-18.5 32.5t-14.5 32.5t-25 14.5q-35 0 -54 -88h-43q28 134 105 134q23 0 37 -14.5t19 -32t14.5 -32t24.5 -14.5q34 0 55 87h43q-30 -134 -106 -134zM448 0h-77l-163 511l-112 -511h-80l147 667h80l161 -500l111 500h80z" />
    <glyph glyph-name="Ograve" unicode="&#xd2;" horiz-adv-x="599" 
d="M452 723h-52l-102 144h73zM272 -12q-101 0 -161.5 66t-60.5 175q0 105 37 206t111.5 172t167.5 71q100 0 161 -66.5t61 -174.5q0 -77 -22.5 -156t-62 -144.5t-100.5 -107t-131 -41.5zM277 59q62 0 116 58t83 144.5t29 174.5q0 80 -40 125.5t-105 45.5q-63 0 -116 -58.5
t-82 -145t-29 -174.5q0 -80 39 -125t105 -45z" />
    <glyph glyph-name="Oacute" unicode="&#xd3;" horiz-adv-x="599" 
d="M577 867l-166 -144h-54l145 144h75zM272 -12q-101 0 -161.5 66t-60.5 175q0 105 37 206t111.5 172t167.5 71q100 0 161 -66.5t61 -174.5q0 -77 -22.5 -156t-62 -144.5t-100.5 -107t-131 -41.5zM277 59q62 0 116 58t83 144.5t29 174.5q0 80 -40 125.5t-105 45.5
q-63 0 -116 -58.5t-82 -145t-29 -174.5q0 -80 39 -125t105 -45z" />
    <glyph glyph-name="Ocircumflex" unicode="&#xd4;" horiz-adv-x="599" 
d="M523 723h-45l-48 105l-92 -105h-48l112 144h70zM272 -12q-101 0 -161.5 66t-60.5 175q0 105 37 206t111.5 172t167.5 71q100 0 161 -66.5t61 -174.5q0 -77 -22.5 -156t-62 -144.5t-100.5 -107t-131 -41.5zM277 59q62 0 116 58t83 144.5t29 174.5q0 80 -40 125.5
t-105 45.5q-63 0 -116 -58.5t-82 -145t-29 -174.5q0 -80 39 -125t105 -45z" />
    <glyph glyph-name="Otilde" unicode="&#xd5;" horiz-adv-x="599" 
d="M272 -12q-101 0 -161.5 66t-60.5 175q0 105 37 206t111.5 172t167.5 71q100 0 161 -66.5t61 -174.5q0 -77 -22.5 -156t-62 -144.5t-100.5 -107t-131 -41.5zM277 59q62 0 116 58t83 144.5t29 174.5q0 80 -40 125.5t-105 45.5q-63 0 -116 -58.5t-82 -145t-29 -174.5
q0 -80 39 -125t105 -45zM464 721q-23 0 -37 14.5t-18.5 32.5t-14.5 32.5t-25 14.5q-35 0 -54 -88h-43q28 134 105 134q23 0 37 -14.5t19 -32t14.5 -32t24.5 -14.5q34 0 55 87h43q-30 -134 -106 -134z" />
    <glyph glyph-name="Odieresis" unicode="&#xd6;" horiz-adv-x="599" 
d="M548 775q0 -20 -15 -34.5t-35 -14.5q-17 0 -28.5 11.5t-11.5 28.5q0 19 15 34t35 15q17 0 28.5 -11.5t11.5 -28.5zM375 775q0 -19 -15.5 -34t-35.5 -15q-17 0 -28.5 11.5t-11.5 28.5q0 19 15.5 34t35.5 15q17 0 28.5 -11.5t11.5 -28.5zM272 -12q-101 0 -161.5 66
t-60.5 175q0 105 37 206t111.5 172t167.5 71q100 0 161 -66.5t61 -174.5q0 -77 -22.5 -156t-62 -144.5t-100.5 -107t-131 -41.5zM277 59q62 0 116 58t83 144.5t29 174.5q0 80 -40 125.5t-105 45.5q-63 0 -116 -58.5t-82 -145t-29 -174.5q0 -80 39 -125t105 -45z" />
    <glyph glyph-name="multiply" unicode="&#xd7;" horiz-adv-x="439" 
d="M332 172l-98 126l-157 -129l-32 39l159 129l-99 126l41 33l97 -126l158 129l32 -39l-158 -129l97 -126z" />
    <glyph glyph-name="Oslash" unicode="&#xd8;" horiz-adv-x="599" 
d="M272 -12q-90 0 -149 53l-31 -41h-59l59 77q-42 62 -42 152q0 105 37 206t111.5 172t167.5 71q86 0 146 -52l31 41h59l-58 -76q44 -64 44 -154q0 -77 -22.5 -156t-62 -144.5t-100.5 -107t-131 -41.5zM277 59q62 0 116 58t83 144.5t29 174.5q0 46 -16 84l-317 -416
q39 -45 105 -45zM133 229q0 -44 13 -81l317 415q-39 44 -103 44q-63 0 -116 -58.5t-82 -145t-29 -174.5z" />
    <glyph glyph-name="Ugrave" unicode="&#xd9;" horiz-adv-x="569" 
d="M259 -12q-92 0 -146 48.5t-54 132.5q0 26 5 48l99 450h80l-100 -452q-4 -28 -4 -39q0 -54 33 -86t90 -32q61 0 96.5 38.5t53.5 118.5l100 452h79l-99 -451q-26 -114 -81 -171t-152 -57zM436 723h-52l-102 144h73z" />
    <glyph glyph-name="Uacute" unicode="&#xda;" horiz-adv-x="569" 
d="M561 867l-166 -144h-54l145 144h75zM259 -12q-92 0 -146 48.5t-54 132.5q0 26 5 48l99 450h80l-100 -452q-4 -28 -4 -39q0 -54 33 -86t90 -32q61 0 96.5 38.5t53.5 118.5l100 452h79l-99 -451q-26 -114 -81 -171t-152 -57z" />
    <glyph glyph-name="Ucircumflex" unicode="&#xdb;" horiz-adv-x="569" 
d="M507 723h-45l-48 105l-92 -105h-48l112 144h70zM259 -12q-92 0 -146 48.5t-54 132.5q0 26 5 48l99 450h80l-100 -452q-4 -28 -4 -39q0 -54 33 -86t90 -32q61 0 96.5 38.5t53.5 118.5l100 452h79l-99 -451q-26 -114 -81 -171t-152 -57z" />
    <glyph glyph-name="Udieresis" unicode="&#xdc;" horiz-adv-x="569" 
d="M531 775q0 -20 -15 -34.5t-35 -14.5q-17 0 -28.5 11.5t-11.5 28.5q0 19 15 34t35 15q17 0 28.5 -11.5t11.5 -28.5zM358 775q0 -19 -15.5 -34t-35.5 -15q-17 0 -28.5 11.5t-11.5 28.5q0 19 15.5 34t35.5 15q17 0 28.5 -11.5t11.5 -28.5zM259 -12q-92 0 -146 48.5
t-54 132.5q0 26 5 48l99 450h80l-100 -452q-4 -28 -4 -39q0 -54 33 -86t90 -32q61 0 96.5 38.5t53.5 118.5l100 452h79l-99 -451q-26 -114 -81 -171t-152 -57z" />
    <glyph glyph-name="Yacute" unicode="&#xdd;" horiz-adv-x="499" 
d="M235 0h-79l62 282l-121 385h84l89 -308l225 308h93l-291 -385zM527 867l-166 -144h-54l145 144h75z" />
    <glyph glyph-name="Thorn" unicode="&#xde;" horiz-adv-x="487" 
d="M96 0h-80l147 667h80l-27 -120h112q66 0 109.5 -46.5t43.5 -115.5q0 -42 -13.5 -82.5t-40 -76t-73 -57.5t-105.5 -22h-121zM256 218q67 0 104.5 48t37.5 113q0 43 -25.5 70.5t-64.5 27.5h-108l-56 -259h112z" />
    <glyph glyph-name="germandbls" unicode="&#xdf;" horiz-adv-x="524" 
d="M486 142q0 -61 -45.5 -107.5t-121.5 -46.5q-106 0 -166 77l44 47q45 -65 121 -65q40 0 66.5 25.5t26.5 61.5q0 23 -18.5 41.5t-45.5 32t-53.5 29.5t-45 41.5t-18.5 59.5q0 36 17 63.5t41.5 43.5t49.5 30t42 32t17 41q0 29 -24.5 47t-60.5 18q-40 0 -70 -26.5t-42 -77.5
l-112 -509h-71l112 509q17 76 65.5 122t121.5 46q64 0 110 -33.5t46 -85.5q0 -35 -17.5 -61t-42.5 -42t-50 -30t-42.5 -33t-17.5 -43q0 -27 29 -49t63 -37t63 -46.5t29 -74.5z" />
    <glyph glyph-name="agrave" unicode="&#xe0;" horiz-adv-x="480" 
d="M252 495q43 0 76.5 -22t51.5 -63l16 73h71l-107 -483h-72l15 66q-54 -78 -130 -78q-65 0 -103.5 45t-38.5 126q0 73 24.5 148.5t77 131.5t119.5 56zM262 431q-45 0 -82 -45t-55 -104.5t-18 -112.5q0 -56 25 -86.5t70 -30.5q33 0 64.5 23.5t51.5 57.5l49 218
q-11 35 -39.5 57.5t-65.5 22.5zM350 556h-52l-102 144h73z" />
    <glyph glyph-name="aacute" unicode="&#xe1;" horiz-adv-x="480" 
d="M252 495q43 0 76.5 -22t51.5 -63l16 73h71l-107 -483h-72l15 66q-54 -78 -130 -78q-65 0 -103.5 45t-38.5 126q0 73 24.5 148.5t77 131.5t119.5 56zM262 431q-45 0 -82 -45t-55 -104.5t-18 -112.5q0 -56 25 -86.5t70 -30.5q33 0 64.5 23.5t51.5 57.5l49 218
q-11 35 -39.5 57.5t-65.5 22.5zM474 700l-166 -144h-54l145 144h75z" />
    <glyph glyph-name="acircumflex" unicode="&#xe2;" horiz-adv-x="480" 
d="M252 495q43 0 76.5 -22t51.5 -63l16 73h71l-107 -483h-72l15 66q-54 -78 -130 -78q-65 0 -103.5 45t-38.5 126q0 73 24.5 148.5t77 131.5t119.5 56zM262 431q-45 0 -82 -45t-55 -104.5t-18 -112.5q0 -56 25 -86.5t70 -30.5q33 0 64.5 23.5t51.5 57.5l49 218
q-11 35 -39.5 57.5t-65.5 22.5zM420 556h-45l-48 105l-92 -105h-48l112 144h70z" />
    <glyph glyph-name="atilde" unicode="&#xe3;" horiz-adv-x="480" 
d="M252 495q43 0 76.5 -22t51.5 -63l16 73h71l-107 -483h-72l15 66q-54 -78 -130 -78q-65 0 -103.5 45t-38.5 126q0 73 24.5 148.5t77 131.5t119.5 56zM262 431q-45 0 -82 -45t-55 -104.5t-18 -112.5q0 -56 25 -86.5t70 -30.5q33 0 64.5 23.5t51.5 57.5l49 218
q-11 35 -39.5 57.5t-65.5 22.5zM362 554q-23 0 -37 14.5t-18.5 32.5t-14.5 32.5t-25 14.5q-35 0 -54 -88h-43q28 134 105 134q23 0 37 -14.5t19 -32t14.5 -32t24.5 -14.5q34 0 55 87h43q-30 -134 -106 -134z" />
    <glyph glyph-name="adieresis" unicode="&#xe4;" horiz-adv-x="480" 
d="M252 495q43 0 76.5 -22t51.5 -63l16 73h71l-107 -483h-72l15 66q-54 -78 -130 -78q-65 0 -103.5 45t-38.5 126q0 73 24.5 148.5t77 131.5t119.5 56zM262 431q-45 0 -82 -45t-55 -104.5t-18 -112.5q0 -56 25 -86.5t70 -30.5q33 0 64.5 23.5t51.5 57.5l49 218
q-11 35 -39.5 57.5t-65.5 22.5zM446 608q0 -20 -15 -34.5t-35 -14.5q-17 0 -28.5 11.5t-11.5 28.5q0 19 15 34t35 15q17 0 28.5 -11.5t11.5 -28.5zM273 608q0 -19 -15.5 -34t-35.5 -15q-17 0 -28.5 11.5t-11.5 28.5q0 19 15.5 34t35.5 15q17 0 28.5 -11.5t11.5 -28.5z" />
    <glyph glyph-name="aring" unicode="&#xe5;" horiz-adv-x="480" 
d="M252 495q43 0 76.5 -22t51.5 -63l16 73h71l-107 -483h-72l15 66q-54 -78 -130 -78q-65 0 -103.5 45t-38.5 126q0 73 24.5 148.5t77 131.5t119.5 56zM262 431q-45 0 -82 -45t-55 -104.5t-18 -112.5q0 -56 25 -86.5t70 -30.5q33 0 64.5 23.5t51.5 57.5l49 218
q-11 35 -39.5 57.5t-65.5 22.5zM311 539q-36 0 -59 23.5t-23 59.5q0 40 30 70t70 30q36 0 59 -23.5t23 -59.5q0 -41 -29.5 -70.5t-70.5 -29.5zM314 577q24 0 41.5 17t17.5 42q0 21 -13 34.5t-33 13.5q-24 0 -42 -17.5t-18 -41.5q0 -21 13 -34.5t34 -13.5z" />
    <glyph glyph-name="ae" unicode="&#xe6;" horiz-adv-x="767" 
d="M262 431q-45 0 -82 -45t-55 -104.5t-18 -112.5q0 -56 25 -86.5t70 -30.5q33 0 64.5 23.5t51.5 57.5l49 218q-11 35 -39.5 57.5t-65.5 22.5zM384 107l-24 -107h-72l15 66q-54 -78 -130 -78q-65 0 -103.5 45t-38.5 126q0 73 24.5 148.5t77 131.5t119.5 56q43 0 76.5 -22
t51.5 -63l16 73h71l-16 -74q24 37 61 61.5t80 24.5q70 0 107.5 -45t37.5 -131q0 -47 -14 -101h-312q-4 -19 -4 -45q0 -54 32 -89t92 -35t109 51l29 -51q-64 -61 -136 -61q-125 0 -149 119zM420 271h244q5 25 5 47q0 52 -25.5 84.5t-75.5 32.5q-54 0 -95 -50.5t-53 -113.5z
" />
    <glyph glyph-name="ccedilla" unicode="&#xe7;" horiz-adv-x="406" 
d="M159 -191q-62 0 -95 38l25 34q29 -33 72 -33q25 0 40 14t15 34q0 28 -31 28q-17 0 -31 -15l-28 18l39 66q-61 12 -96.5 60t-35.5 126q0 75 29 146.5t85.5 120.5t126.5 49q97 0 141 -70l-48 -46q-28 52 -91 52q-75 0 -122 -81t-47 -170q0 -63 31 -95.5t81 -32.5
q54 0 93 44l30 -51q-57 -57 -132 -57h-5l-27 -44q12 11 29 11q24 0 38.5 -15.5t14.5 -41.5q0 -38 -29 -63.5t-72 -25.5z" />
    <glyph glyph-name="egrave" unicode="&#xe8;" horiz-adv-x="468" 
d="M220 -12q-88 0 -138 50t-50 140q0 68 27 139t84 124.5t128 53.5q76 0 120.5 -48t44.5 -132q0 -43 -13 -97h-315q-4 -19 -4 -45q0 -54 31.5 -89.5t91.5 -35.5q63 0 113 50l28 -47q-63 -63 -148 -63zM117 271h247q6 22 6 47q0 51 -27.5 84t-77.5 33q-55 0 -95.5 -50
t-52.5 -114zM356 556h-52l-102 144h73z" />
    <glyph glyph-name="eacute" unicode="&#xe9;" horiz-adv-x="468" 
d="M481 700l-166 -144h-54l145 144h75zM220 -12q-88 0 -138 50t-50 140q0 68 27 139t84 124.5t128 53.5q76 0 120.5 -48t44.5 -132q0 -43 -13 -97h-315q-4 -19 -4 -45q0 -54 31.5 -89.5t91.5 -35.5q63 0 113 50l28 -47q-63 -63 -148 -63zM117 271h247q6 22 6 47
q0 51 -27.5 84t-77.5 33q-55 0 -95.5 -50t-52.5 -114z" />
    <glyph glyph-name="ecircumflex" unicode="&#xea;" horiz-adv-x="468" 
d="M425 556h-45l-48 105l-92 -105h-48l112 144h70zM220 -12q-88 0 -138 50t-50 140q0 68 27 139t84 124.5t128 53.5q76 0 120.5 -48t44.5 -132q0 -43 -13 -97h-315q-4 -19 -4 -45q0 -54 31.5 -89.5t91.5 -35.5q63 0 113 50l28 -47q-63 -63 -148 -63zM117 271h247q6 22 6 47
q0 51 -27.5 84t-77.5 33q-55 0 -95.5 -50t-52.5 -114z" />
    <glyph glyph-name="edieresis" unicode="&#xeb;" horiz-adv-x="468" 
d="M451 608q0 -20 -15 -34.5t-35 -14.5q-17 0 -28.5 11.5t-11.5 28.5q0 19 15 34t35 15q17 0 28.5 -11.5t11.5 -28.5zM278 608q0 -19 -15.5 -34t-35.5 -15q-17 0 -28.5 11.5t-11.5 28.5q0 19 15.5 34t35.5 15q17 0 28.5 -11.5t11.5 -28.5zM220 -12q-88 0 -138 50t-50 140
q0 68 27 139t84 124.5t128 53.5q76 0 120.5 -48t44.5 -132q0 -43 -13 -97h-315q-4 -19 -4 -45q0 -54 31.5 -89.5t91.5 -35.5q63 0 113 50l28 -47q-63 -63 -148 -63zM117 271h247q6 22 6 47q0 51 -27.5 84t-77.5 33q-55 0 -95.5 -50t-52.5 -114z" />
    <glyph glyph-name="igrave" unicode="&#xec;" horiz-adv-x="203" 
d="M83 0h-71l107 483h71zM217 556h-52l-102 144h73z" />
    <glyph glyph-name="iacute" unicode="&#xed;" horiz-adv-x="203" 
d="M342 700l-166 -144h-54l145 144h75zM83 0h-71l107 483h71z" />
    <glyph glyph-name="icircumflex" unicode="&#xee;" horiz-adv-x="203" 
d="M288 556h-45l-48 105l-92 -105h-48l112 144h70zM83 0h-71l107 483h71z" />
    <glyph glyph-name="idieresis" unicode="&#xef;" horiz-adv-x="203" 
d="M313 608q0 -20 -15 -34.5t-35 -14.5q-17 0 -28.5 11.5t-11.5 28.5q0 19 15 34t35 15q17 0 28.5 -11.5t11.5 -28.5zM140 608q0 -19 -15.5 -34t-35.5 -15q-17 0 -28.5 11.5t-11.5 28.5q0 19 15.5 34t35.5 15q17 0 28.5 -11.5t11.5 -28.5zM83 0h-71l107 483h71z" />
    <glyph glyph-name="eth" unicode="&#xf0;" horiz-adv-x="477" 
d="M178 514l-10 39l126 38q-21 34 -49 65l61 39q35 -43 61 -83l92 28l11 -39l-82 -25q61 -108 61 -217q0 -87 -26.5 -170t-83 -142t-130.5 -59q-83 0 -130 49.5t-47 133.5q0 115 64 212t156 97q43 0 76.5 -22.5t48.5 -66.5q-16 79 -61 164zM210 52q43 0 80.5 41.5t56.5 98
t19 108.5q0 46 -26.5 81t-78.5 35q-43 0 -79.5 -41t-55.5 -96t-19 -106q0 -59 27 -90t76 -31z" />
    <glyph glyph-name="ntilde" unicode="&#xf1;" 
d="M345 0h-72l77 344q0 1 2 12.5t2 16.5q0 58 -66 58q-34 0 -68 -23t-59 -56l-78 -352h-71l107 483h71l-15 -67q69 79 144 79q51 0 81 -25.5t30 -71.5q0 -14 -5 -36zM360 554q-23 0 -37 14.5t-18.5 32.5t-14.5 32.5t-25 14.5q-35 0 -54 -88h-43q28 134 105 134
q23 0 37 -14.5t19 -32t14.5 -32t24.5 -14.5q34 0 55 87h43q-30 -134 -106 -134z" />
    <glyph glyph-name="ograve" unicode="&#xf2;" horiz-adv-x="477" 
d="M205 -12q-81 0 -127 49t-46 137q0 75 28 147.5t84.5 123t125.5 50.5q81 0 127 -49t46 -137q0 -75 -28 -147.5t-84.5 -123t-125.5 -50.5zM208 52q68 0 114.5 85t46.5 171q0 60 -27 91.5t-75 31.5q-46 0 -84 -43.5t-57.5 -102t-19.5 -111.5q0 -60 27 -91t75 -31zM355 556
h-52l-102 144h73z" />
    <glyph glyph-name="oacute" unicode="&#xf3;" horiz-adv-x="477" 
d="M478 700l-166 -144h-54l145 144h75zM205 -12q-81 0 -127 49t-46 137q0 75 28 147.5t84.5 123t125.5 50.5q81 0 127 -49t46 -137q0 -75 -28 -147.5t-84.5 -123t-125.5 -50.5zM208 52q68 0 114.5 85t46.5 171q0 60 -27 91.5t-75 31.5q-46 0 -84 -43.5t-57.5 -102
t-19.5 -111.5q0 -60 27 -91t75 -31z" />
    <glyph glyph-name="ocircumflex" unicode="&#xf4;" horiz-adv-x="477" 
d="M425 556h-45l-48 105l-92 -105h-48l112 144h70zM205 -12q-81 0 -127 49t-46 137q0 75 28 147.5t84.5 123t125.5 50.5q81 0 127 -49t46 -137q0 -75 -28 -147.5t-84.5 -123t-125.5 -50.5zM208 52q68 0 114.5 85t46.5 171q0 60 -27 91.5t-75 31.5q-46 0 -84 -43.5
t-57.5 -102t-19.5 -111.5q0 -60 27 -91t75 -31z" />
    <glyph glyph-name="otilde" unicode="&#xf5;" horiz-adv-x="477" 
d="M205 -12q-81 0 -127 49t-46 137q0 75 28 147.5t84.5 123t125.5 50.5q81 0 127 -49t46 -137q0 -75 -28 -147.5t-84.5 -123t-125.5 -50.5zM208 52q68 0 114.5 85t46.5 171q0 60 -27 91.5t-75 31.5q-46 0 -84 -43.5t-57.5 -102t-19.5 -111.5q0 -60 27 -91t75 -31zM367 554
q-23 0 -37 14.5t-18.5 32.5t-14.5 32.5t-25 14.5q-35 0 -54 -88h-43q28 134 105 134q23 0 37 -14.5t19 -32t14.5 -32t24.5 -14.5q34 0 55 87h43q-30 -134 -106 -134z" />
    <glyph glyph-name="odieresis" unicode="&#xf6;" horiz-adv-x="477" 
d="M450 608q0 -20 -15 -34.5t-35 -14.5q-17 0 -28.5 11.5t-11.5 28.5q0 19 15 34t35 15q17 0 28.5 -11.5t11.5 -28.5zM277 608q0 -19 -15.5 -34t-35.5 -15q-17 0 -28.5 11.5t-11.5 28.5q0 19 15.5 34t35.5 15q17 0 28.5 -11.5t11.5 -28.5zM205 -12q-81 0 -127 49t-46 137
q0 75 28 147.5t84.5 123t125.5 50.5q81 0 127 -49t46 -137q0 -75 -28 -147.5t-84.5 -123t-125.5 -50.5zM208 52q68 0 114.5 85t46.5 171q0 60 -27 91.5t-75 31.5q-46 0 -84 -43.5t-57.5 -102t-19.5 -111.5q0 -60 27 -91t75 -31z" />
    <glyph glyph-name="divide" unicode="&#xf7;" horiz-adv-x="443" 
d="M428 312h-384l11 51h385zM200 124q-17 0 -28.5 12t-11.5 29q0 20 14.5 34t34.5 14q17 0 29 -12t12 -29q0 -20 -15 -34t-35 -14zM275 457q-17 0 -29 12.5t-12 29.5q0 20 14.5 34t34.5 14q17 0 29 -12t12 -29q0 -21 -14.5 -35t-34.5 -14z" />
    <glyph glyph-name="oslash" unicode="&#xf8;" horiz-adv-x="477" 
d="M52 0h-52l57 65q-25 43 -25 109q0 75 28 147.5t84.5 123t125.5 50.5q75 0 122 -44l28 32h52l-56 -64q27 -46 27 -110q0 -75 -28 -147.5t-84.5 -123t-125.5 -50.5q-77 0 -124 45zM208 52q68 0 114.5 85t46.5 171q0 28 -6 49l-234 -269q25 -36 79 -36zM106 174q0 -30 5 -47
l233 269q-26 35 -77 35q-46 0 -84 -43.5t-57.5 -102t-19.5 -111.5z" />
    <glyph glyph-name="ugrave" unicode="&#xf9;" 
d="M119 483h71l-76 -343q-4 -20 -4 -30q0 -58 69 -58q62 0 123 77l78 354h72l-107 -483h-72l16 67q-71 -79 -144 -79q-51 0 -81 25.5t-30 71.5q0 13 5 36zM349 556h-52l-102 144h73z" />
    <glyph glyph-name="uacute" unicode="&#xfa;" 
d="M473 700l-166 -144h-54l145 144h75zM119 483h71l-76 -343q-4 -20 -4 -30q0 -58 69 -58q62 0 123 77l78 354h72l-107 -483h-72l16 67q-71 -79 -144 -79q-51 0 -81 25.5t-30 71.5q0 13 5 36z" />
    <glyph glyph-name="ucircumflex" unicode="&#xfb;" 
d="M419 556h-45l-48 105l-92 -105h-48l112 144h70zM119 483h71l-76 -343q-4 -20 -4 -30q0 -58 69 -58q62 0 123 77l78 354h72l-107 -483h-72l16 67q-71 -79 -144 -79q-51 0 -81 25.5t-30 71.5q0 13 5 36z" />
    <glyph glyph-name="udieresis" unicode="&#xfc;" 
d="M444 608q0 -20 -15 -34.5t-35 -14.5q-17 0 -28.5 11.5t-11.5 28.5q0 19 15 34t35 15q17 0 28.5 -11.5t11.5 -28.5zM271 608q0 -19 -15.5 -34t-35.5 -15q-17 0 -28.5 11.5t-11.5 28.5q0 19 15.5 34t35.5 15q17 0 28.5 -11.5t11.5 -28.5zM119 483h71l-76 -343
q-4 -20 -4 -30q0 -58 69 -58q62 0 123 77l78 354h72l-107 -483h-72l16 67q-71 -79 -144 -79q-51 0 -81 25.5t-30 71.5q0 13 5 36z" />
    <glyph glyph-name="yacute" unicode="&#xfd;" horiz-adv-x="408" 
d="M-54 -186l25 63q11 -8 35 -8q32 0 60 47l43 76l-50 491h75l32 -396l209 396h80l-323 -585q-29 -51 -59 -72.5t-70 -21.5q-29 0 -57 10zM441 700l-166 -144h-54l145 144h75z" />
    <glyph glyph-name="thorn" unicode="&#xfe;" horiz-adv-x="478" 
d="M227 -12q-91 0 -128 85l-57 -257h-71l188 851h71l-55 -250q54 78 131 78q65 0 103 -45t38 -126q0 -73 -24.5 -148.5t-77 -131.5t-118.5 -56zM217 52q45 0 82 45t55 104.5t18 112.5q0 56 -25.5 86.5t-69.5 30.5q-33 0 -64.5 -23.5t-52.5 -57.5l-48 -218q11 -35 39.5 -57.5
t65.5 -22.5z" />
    <glyph glyph-name="ydieresis" unicode="&#xff;" horiz-adv-x="408" 
d="M-54 -186l25 63q11 -8 35 -8q32 0 60 47l43 76l-50 491h75l32 -396l209 396h80l-323 -585q-29 -51 -59 -72.5t-70 -21.5q-29 0 -57 10zM413 608q0 -20 -15 -34.5t-35 -14.5q-17 0 -28.5 11.5t-11.5 28.5q0 19 15 34t35 15q17 0 28.5 -11.5t11.5 -28.5zM240 608
q0 -19 -15.5 -34t-35.5 -15q-17 0 -28.5 11.5t-11.5 28.5q0 19 15.5 34t35.5 15q17 0 28.5 -11.5t11.5 -28.5z" />
    <glyph glyph-name="Amacron" unicode="&#x100;" horiz-adv-x="511" 
d="M449 0h-83l-10 151h-237l-76 -151h-89l347 667h95zM355 221l-23 358l-180 -358h203zM517 740h-304l10 46h305z" />
    <glyph glyph-name="amacron" unicode="&#x101;" horiz-adv-x="480" 
d="M252 495q43 0 76.5 -22t51.5 -63l16 73h71l-107 -483h-72l15 66q-54 -78 -130 -78q-65 0 -103.5 45t-38.5 126q0 73 24.5 148.5t77 131.5t119.5 56zM262 431q-45 0 -82 -45t-55 -104.5t-18 -112.5q0 -56 25 -86.5t70 -30.5q33 0 64.5 23.5t51.5 57.5l49 218
q-11 35 -39.5 57.5t-65.5 22.5zM460 573h-304l10 46h305z" />
    <glyph glyph-name="Abreve" unicode="&#x102;" horiz-adv-x="511" 
d="M449 0h-83l-10 151h-237l-76 -151h-89l347 667h95zM355 221l-23 358l-180 -358h203zM517 786q-71 -74 -163 -74q-44 0 -78.5 20t-52.5 54l40 30q28 -57 99 -57t123 57z" />
    <glyph glyph-name="abreve" unicode="&#x103;" horiz-adv-x="480" 
d="M252 495q43 0 76.5 -22t51.5 -63l16 73h71l-107 -483h-72l15 66q-54 -78 -130 -78q-65 0 -103.5 45t-38.5 126q0 73 24.5 148.5t77 131.5t119.5 56zM262 431q-45 0 -82 -45t-55 -104.5t-18 -112.5q0 -56 25 -86.5t70 -30.5q33 0 64.5 23.5t51.5 57.5l49 218
q-11 35 -39.5 57.5t-65.5 22.5zM460 619q-71 -74 -163 -74q-44 0 -78.5 20t-52.5 54l40 30q28 -57 99 -57t123 57z" />
    <glyph glyph-name="Aogonek" unicode="&#x104;" horiz-adv-x="511" 
d="M433 -111l31 -23q-31 -52 -82 -52q-32 0 -52 17t-20 48q0 68 74 121h-18l-10 151h-237l-76 -151h-89l347 667h95l53 -667q-96 -50 -96 -115q0 -33 34 -33q29 0 46 37zM355 221l-23 358l-180 -358h203z" />
    <glyph glyph-name="aogonek" unicode="&#x105;" horiz-adv-x="480" 
d="M344 -111l31 -23q-31 -52 -82 -52q-32 0 -52 17t-20 48q0 68 74 121h-7l15 66q-54 -78 -130 -78q-65 0 -103.5 45t-38.5 126q0 73 24.5 148.5t77 131.5t119.5 56q43 0 76.5 -22t51.5 -63l16 73h71l-107 -483q-96 -50 -96 -115q0 -33 34 -33q29 0 46 37zM262 431
q-45 0 -82 -45t-55 -104.5t-18 -112.5q0 -56 25 -86.5t70 -30.5q33 0 64.5 23.5t51.5 57.5l49 218q-11 35 -39.5 57.5t-65.5 22.5z" />
    <glyph glyph-name="Cacute" unicode="&#x106;" horiz-adv-x="533" 
d="M578 872l-166 -144h-54l145 144h75zM272 -12q-100 0 -161 64.5t-61 176.5q0 108 38.5 210t113 170.5t164.5 68.5q78 0 128.5 -42.5t72.5 -112.5l-75 -23q-35 107 -132 107q-61 0 -114.5 -58.5t-83 -145.5t-29.5 -174q0 -81 38 -125.5t106 -44.5q71 0 136 81l61 -38
q-83 -114 -202 -114z" />
    <glyph glyph-name="cacute" unicode="&#x107;" horiz-adv-x="406" 
d="M484 700l-166 -144h-54l145 144h75zM210 -12q-81 0 -129 50t-48 141q0 75 29 146.5t85.5 120.5t126.5 49q97 0 141 -70l-48 -46q-28 52 -91 52q-75 0 -122 -81t-47 -170q0 -63 31 -95.5t81 -32.5q54 0 93 44l30 -51q-57 -57 -132 -57z" />
    <glyph glyph-name="Ccircumflex" unicode="&#x108;" horiz-adv-x="533" 
d="M522 723h-45l-48 105l-92 -105h-48l112 144h70zM272 -12q-100 0 -161 64.5t-61 176.5q0 108 38.5 210t113 170.5t164.5 68.5q78 0 128.5 -42.5t72.5 -112.5l-75 -23q-35 107 -132 107q-61 0 -114.5 -58.5t-83 -145.5t-29.5 -174q0 -81 38 -125.5t106 -44.5q71 0 136 81
l61 -38q-83 -114 -202 -114z" />
    <glyph glyph-name="ccircumflex" unicode="&#x109;" horiz-adv-x="406" 
d="M430 556h-45l-48 105l-92 -105h-48l112 144h70zM210 -12q-81 0 -129 50t-48 141q0 75 29 146.5t85.5 120.5t126.5 49q97 0 141 -70l-48 -46q-28 52 -91 52q-75 0 -122 -81t-47 -170q0 -63 31 -95.5t81 -32.5q54 0 93 44l30 -51q-57 -57 -132 -57z" />
    <glyph glyph-name="Cdotaccent" unicode="&#x10a;" horiz-adv-x="533" 
d="M272 -12q-100 0 -161 64.5t-61 176.5q0 108 38.5 210t113 170.5t164.5 68.5q78 0 128.5 -42.5t72.5 -112.5l-75 -23q-35 107 -132 107q-61 0 -114.5 -58.5t-83 -145.5t-29.5 -174q0 -81 38 -125.5t106 -44.5q71 0 136 81l61 -38q-83 -114 -202 -114zM461 774
q0 -21 -15.5 -36t-35.5 -15q-17 0 -29 11.5t-12 29.5q0 20 15.5 35t36.5 15q17 0 28.5 -11.5t11.5 -28.5z" />
    <glyph glyph-name="cdotaccent" unicode="&#x10b;" horiz-adv-x="406" 
d="M210 -12q-81 0 -129 50t-48 141q0 75 29 146.5t85.5 120.5t126.5 49q97 0 141 -70l-48 -46q-28 52 -91 52q-75 0 -122 -81t-47 -170q0 -63 31 -95.5t81 -32.5q54 0 93 44l30 -51q-57 -57 -132 -57zM369 607q0 -21 -15.5 -36t-35.5 -15q-17 0 -29 11.5t-12 29.5
q0 20 15.5 35t36.5 15q17 0 28.5 -11.5t11.5 -28.5z" />
    <glyph glyph-name="Ccaron" unicode="&#x10c;" horiz-adv-x="533" 
d="M443 723h-70l-51 144h44l48 -106l92 106h49zM272 -12q-100 0 -161 64.5t-61 176.5q0 108 38.5 210t113 170.5t164.5 68.5q78 0 128.5 -42.5t72.5 -112.5l-75 -23q-35 107 -132 107q-61 0 -114.5 -58.5t-83 -145.5t-29.5 -174q0 -81 38 -125.5t106 -44.5q71 0 136 81
l61 -38q-83 -114 -202 -114z" />
    <glyph glyph-name="ccaron" unicode="&#x10d;" horiz-adv-x="406" 
d="M349 556h-70l-51 144h44l48 -106l92 106h49zM210 -12q-81 0 -129 50t-48 141q0 75 29 146.5t85.5 120.5t126.5 49q97 0 141 -70l-48 -46q-28 52 -91 52q-75 0 -122 -81t-47 -170q0 -63 31 -95.5t81 -32.5q54 0 93 44l30 -51q-57 -57 -132 -57z" />
    <glyph glyph-name="Dcaron" unicode="&#x10e;" horiz-adv-x="564" 
d="M431 723h-70l-51 144h44l48 -106l92 106h49zM194 0h-178l147 667h174q86 0 147 -65.5t61 -176.5q0 -52 -11.5 -107.5t-38.5 -113t-66 -102.5t-100 -73.5t-135 -28.5zM111 71h96q61 0 111.5 34.5t81 88t47 113.5t16.5 115q0 80 -40 127.5t-101 47.5h-95z" />
    <glyph glyph-name="dcaron" unicode="&#x10f;" horiz-adv-x="555" 
d="M641 631q0 -41 -30 -81.5t-72 -62.5l-25 28q26 13 47 34.5t28 43.5q-1 -1 -7 -1q-15 0 -25.5 11t-10.5 27q0 20 15 35t35 15t32.5 -13t12.5 -36zM252 495q43 0 76.5 -22t51.5 -63l56 257h72l-148 -667h-72l15 66q-54 -78 -130 -78q-65 0 -103.5 45t-38.5 126
q0 73 24.5 148.5t77 131.5t119.5 56zM262 431q-45 0 -82 -45t-55 -104.5t-18 -112.5q0 -56 25 -86.5t70 -30.5q33 0 64.5 23.5t51.5 57.5l49 218q-11 35 -39.5 57.5t-65.5 22.5z" />
    <glyph glyph-name="Dcroat" unicode="&#x110;" horiz-adv-x="587" 
d="M218 0h-178l66 301h-78l15 66h78l66 300h174q86 0 147 -65.5t61 -176.5q0 -52 -11.5 -107.5t-38.5 -113t-66 -102.5t-100 -73.5t-135 -28.5zM312 301h-127l-50 -230h96q61 0 111.5 34.5t81 88t47 113.5t16.5 115q0 80 -40 127.5t-101 47.5h-95l-51 -230h127z" />
    <glyph glyph-name="dcroat" unicode="&#x111;" horiz-adv-x="484" 
d="M252 495q43 0 76.5 -22t51.5 -63l27 126h-147l9 46h148l19 85h72l-19 -85h50l-10 -46h-50l-119 -536h-72l15 66q-54 -78 -130 -78q-65 0 -103.5 45t-38.5 126q0 73 24.5 148.5t77 131.5t119.5 56zM262 431q-45 0 -82 -45t-55 -104.5t-18 -112.5q0 -56 25 -86.5t70 -30.5
q33 0 64.5 23.5t51.5 57.5l49 218q-11 35 -39.5 57.5t-65.5 22.5z" />
    <glyph glyph-name="Emacron" unicode="&#x112;" horiz-adv-x="461" 
d="M359 0h-343l147 667h343l-15 -70h-264l-49 -221h257l-16 -70h-256l-52 -235h263zM502 740h-304l10 46h305z" />
    <glyph glyph-name="emacron" unicode="&#x113;" horiz-adv-x="468" 
d="M220 -12q-88 0 -138 50t-50 140q0 68 27 139t84 124.5t128 53.5q76 0 120.5 -48t44.5 -132q0 -43 -13 -97h-315q-4 -19 -4 -45q0 -54 31.5 -89.5t91.5 -35.5q63 0 113 50l28 -47q-63 -63 -148 -63zM117 271h247q6 22 6 47q0 51 -27.5 84t-77.5 33q-55 0 -95.5 -50
t-52.5 -114zM466 573h-304l10 46h305z" />
    <glyph glyph-name="Ebreve" unicode="&#x114;" horiz-adv-x="461" 
d="M359 0h-343l147 667h343l-15 -70h-264l-49 -221h257l-16 -70h-256l-52 -235h263zM503 786q-71 -74 -163 -74q-44 0 -78.5 20t-52.5 54l40 30q28 -57 99 -57t123 57z" />
    <glyph glyph-name="ebreve" unicode="&#x115;" horiz-adv-x="468" 
d="M220 -12q-88 0 -138 50t-50 140q0 68 27 139t84 124.5t128 53.5q76 0 120.5 -48t44.5 -132q0 -43 -13 -97h-315q-4 -19 -4 -45q0 -54 31.5 -89.5t91.5 -35.5q63 0 113 50l28 -47q-63 -63 -148 -63zM117 271h247q6 22 6 47q0 51 -27.5 84t-77.5 33q-55 0 -95.5 -50
t-52.5 -114zM466 619q-71 -74 -163 -74q-44 0 -78.5 20t-52.5 54l40 30q28 -57 99 -57t123 57z" />
    <glyph glyph-name="Edotaccent" unicode="&#x116;" horiz-adv-x="461" 
d="M359 0h-343l147 667h343l-15 -70h-264l-49 -221h257l-16 -70h-256l-52 -235h263zM404 776q0 -21 -15.5 -36t-35.5 -15q-17 0 -29 11.5t-12 29.5q0 20 15.5 35t36.5 15q17 0 28.5 -11.5t11.5 -28.5z" />
    <glyph glyph-name="edotaccent" unicode="&#x117;" horiz-adv-x="468" 
d="M220 -12q-88 0 -138 50t-50 140q0 68 27 139t84 124.5t128 53.5q76 0 120.5 -48t44.5 -132q0 -43 -13 -97h-315q-4 -19 -4 -45q0 -54 31.5 -89.5t91.5 -35.5q63 0 113 50l28 -47q-63 -63 -148 -63zM117 271h247q6 22 6 47q0 51 -27.5 84t-77.5 33q-55 0 -95.5 -50
t-52.5 -114zM366 607q0 -21 -15.5 -36t-35.5 -15q-17 0 -29 11.5t-12 29.5q0 20 15.5 35t36.5 15q17 0 28.5 -11.5t11.5 -28.5z" />
    <glyph glyph-name="Eogonek" unicode="&#x118;" horiz-adv-x="461" 
d="M359 0q-96 -50 -96 -115q0 -33 34 -33q29 0 46 37l31 -23q-31 -52 -82 -52q-32 0 -52 17t-20 48q0 68 74 121h-278l147 667h343l-15 -70h-264l-49 -221h257l-16 -70h-256l-52 -235h263z" />
    <glyph glyph-name="eogonek" unicode="&#x119;" horiz-adv-x="468" 
d="M272 -111l31 -23q-31 -52 -82 -52q-32 0 -52 17t-20 48q0 60 58 109q-82 4 -128.5 54t-46.5 136q0 68 27 139t84 124.5t128 53.5q76 0 120.5 -48t44.5 -132q0 -43 -13 -97h-315q-4 -19 -4 -45q0 -54 31.5 -89.5t91.5 -35.5q63 0 113 50l28 -47q-36 -36 -80 -51
q-96 -50 -96 -115q0 -33 34 -33q29 0 46 37zM117 271h247q6 22 6 47q0 51 -27.5 84t-77.5 33q-55 0 -95.5 -50t-52.5 -114z" />
    <glyph glyph-name="Ecaron" unicode="&#x11a;" horiz-adv-x="461" 
d="M384 723h-70l-51 144h44l48 -106l92 106h49zM359 0h-343l147 667h343l-15 -70h-264l-49 -221h257l-16 -70h-256l-52 -235h263z" />
    <glyph glyph-name="ecaron" unicode="&#x11b;" horiz-adv-x="468" 
d="M347 556h-70l-51 144h44l48 -106l92 106h49zM220 -12q-88 0 -138 50t-50 140q0 68 27 139t84 124.5t128 53.5q76 0 120.5 -48t44.5 -132q0 -43 -13 -97h-315q-4 -19 -4 -45q0 -54 31.5 -89.5t91.5 -35.5q63 0 113 50l28 -47q-63 -63 -148 -63zM117 271h247q6 22 6 47
q0 51 -27.5 84t-77.5 33q-55 0 -95.5 -50t-52.5 -114z" />
    <glyph glyph-name="Gcircumflex" unicode="&#x11c;" horiz-adv-x="562" 
d="M524 723h-45l-48 105l-92 -105h-48l112 144h70zM272 -12q-101 0 -161.5 64.5t-60.5 176.5q0 109 38.5 211t113 170t167.5 68q76 0 124.5 -41t69.5 -105l-70 -25q-16 46 -50 73t-83 27q-61 0 -114.5 -58t-83 -145t-29.5 -175q0 -82 38 -126t106 -44t127 64l33 148h-160
l16 71h235l-55 -250q-85 -104 -201 -104z" />
    <glyph glyph-name="gcircumflex" unicode="&#x11d;" horiz-adv-x="479" 
d="M415 549h-45l-48 105l-92 -105h-48l112 144h70zM156 -196q-119 0 -174 69l44 52q39 -60 129 -60q103 0 132 132l18 77q-54 -79 -133 -79q-63 0 -102 43t-39 127q0 71 24 145t76 129.5t120 55.5q39 0 75.5 -23.5t52.5 -61.5l16 73h72l-107 -482q-44 -197 -204 -197z
M202 59q32 0 63.5 23t53.5 56l47 212q-12 35 -42 58t-66 23q-45 0 -81 -43.5t-53.5 -101t-17.5 -110.5q0 -57 25.5 -87t70.5 -30z" />
    <glyph glyph-name="Gbreve" unicode="&#x11e;" horiz-adv-x="562" 
d="M272 -12q-101 0 -161.5 64.5t-60.5 176.5q0 109 38.5 211t113 170t167.5 68q76 0 124.5 -41t69.5 -105l-70 -25q-16 46 -50 73t-83 27q-61 0 -114.5 -58t-83 -145t-29.5 -175q0 -82 38 -126t106 -44t127 64l33 148h-160l16 71h235l-55 -250q-85 -104 -201 -104zM564 786
q-71 -74 -163 -74q-44 0 -78.5 20t-52.5 54l40 30q28 -57 99 -57t123 57z" />
    <glyph glyph-name="gbreve" unicode="&#x11f;" horiz-adv-x="479" 
d="M156 -196q-119 0 -174 69l44 52q39 -60 129 -60q103 0 132 132l18 77q-54 -79 -133 -79q-63 0 -102 43t-39 127q0 71 24 145t76 129.5t120 55.5q39 0 75.5 -23.5t52.5 -61.5l16 73h72l-107 -482q-44 -197 -204 -197zM202 59q32 0 63.5 23t53.5 56l47 212q-12 35 -42 58
t-66 23q-45 0 -81 -43.5t-53.5 -101t-17.5 -110.5q0 -57 25.5 -87t70.5 -30zM457 619q-71 -74 -163 -74q-44 0 -78.5 20t-52.5 54l40 30q28 -57 99 -57t123 57z" />
    <glyph glyph-name="Gdotaccent" unicode="&#x120;" horiz-adv-x="562" 
d="M272 -12q-101 0 -161.5 64.5t-60.5 176.5q0 109 38.5 211t113 170t167.5 68q76 0 124.5 -41t69.5 -105l-70 -25q-16 46 -50 73t-83 27q-61 0 -114.5 -58t-83 -145t-29.5 -175q0 -82 38 -126t106 -44t127 64l33 148h-160l16 71h235l-55 -250q-85 -104 -201 -104zM463 774
q0 -21 -15.5 -36t-35.5 -15q-17 0 -29 11.5t-12 29.5q0 20 15.5 35t36.5 15q17 0 28.5 -11.5t11.5 -28.5z" />
    <glyph glyph-name="gdotaccent" unicode="&#x121;" horiz-adv-x="479" 
d="M156 -196q-119 0 -174 69l44 52q39 -60 129 -60q103 0 132 132l18 77q-54 -79 -133 -79q-63 0 -102 43t-39 127q0 71 24 145t76 129.5t120 55.5q39 0 75.5 -23.5t52.5 -61.5l16 73h72l-107 -482q-44 -197 -204 -197zM202 59q32 0 63.5 23t53.5 56l47 212q-12 35 -42 58
t-66 23q-45 0 -81 -43.5t-53.5 -101t-17.5 -110.5q0 -57 25.5 -87t70.5 -30zM356 607q0 -21 -15.5 -36t-35.5 -15q-17 0 -29 11.5t-12 29.5q0 20 15.5 35t36.5 15q17 0 28.5 -11.5t11.5 -28.5z" />
    <glyph glyph-name="Gcommaaccent" unicode="&#x122;" horiz-adv-x="562" 
d="M267 -121q0 -41 -30 -81.5t-72 -62.5l-25 28q26 13 47 34.5t28 43.5q-1 -1 -7 -1q-15 0 -25.5 11t-10.5 27q0 20 15 35t35 15t32.5 -13t12.5 -36zM272 -12q-101 0 -161.5 64.5t-60.5 176.5q0 109 38.5 211t113 170t167.5 68q76 0 124.5 -41t69.5 -105l-70 -25
q-16 46 -50 73t-83 27q-61 0 -114.5 -58t-83 -145t-29.5 -175q0 -82 38 -126t106 -44t127 64l33 148h-160l16 71h235l-55 -250q-85 -104 -201 -104z" />
    <glyph glyph-name="gcommaaccent" unicode="&#x123;" horiz-adv-x="479" 
d="M266 606q0 41 30 81.5t72 62.5l25 -28q-26 -13 -47 -34.5t-28 -43.5h7q15 0 25.5 -11t10.5 -27q0 -21 -15 -35.5t-36 -14.5q-20 0 -32 13t-12 37zM156 -196q-119 0 -174 69l44 52q39 -60 129 -60q103 0 132 132l18 77q-54 -79 -133 -79q-63 0 -102 43t-39 127
q0 71 24 145t76 129.5t120 55.5q39 0 75.5 -23.5t52.5 -61.5l16 73h72l-107 -482q-44 -197 -204 -197zM202 59q32 0 63.5 23t53.5 56l47 212q-12 35 -42 58t-66 23q-45 0 -81 -43.5t-53.5 -101t-17.5 -110.5q0 -57 25.5 -87t70.5 -30z" />
    <glyph glyph-name="Hcircumflex" unicode="&#x124;" horiz-adv-x="574" 
d="M509 723h-45l-48 105l-92 -105h-48l112 144h70zM450 0h-80l68 308h-275l-67 -308h-80l147 667h80l-64 -289h275l63 289h80z" />
    <glyph glyph-name="hcircumflex" unicode="&#x125;" 
d="M457 723h-45l-48 105l-92 -105h-48l112 144h70zM345 0h-71l76 344q4 28 4 29q0 58 -69 58q-63 0 -124 -79l-78 -352h-71l147 667h71l-55 -251q69 79 144 79q52 0 81.5 -25.5t29.5 -71.5q0 -11 -5 -36z" />
    <glyph glyph-name="Hbar" unicode="&#x126;" horiz-adv-x="605" 
d="M466 0h-80l68 308h-275l-67 -308h-80l110 501h-69l10 47h70l26 119h80l-27 -119h275l26 119h80l-26 -119h67l-11 -47h-67zM195 378h275l27 123h-275z" />
    <glyph glyph-name="hbar" unicode="&#x127;" horiz-adv-x="469" 
d="M349 0h-71l76 344q4 28 4 29q0 58 -69 58q-63 0 -124 -79l-78 -352h-71l118 535h-59l11 47h58l19 85h71l-19 -85h137l-10 -47h-137l-26 -119q69 79 144 79q52 0 81.5 -25.5t29.5 -71.5q0 -11 -5 -36z" />
    <glyph glyph-name="Itilde" unicode="&#x128;" horiz-adv-x="220" 
d="M96 0h-80l147 667h80zM275 721q-23 0 -37 14.5t-18.5 32.5t-14.5 32.5t-25 14.5q-35 0 -54 -88h-43q28 134 105 134q23 0 37 -14.5t19 -32t14.5 -32t24.5 -14.5q34 0 55 87h43q-30 -134 -106 -134z" />
    <glyph glyph-name="itilde" unicode="&#x129;" horiz-adv-x="203" 
d="M83 0h-71l107 483h71zM229 554q-23 0 -37 14.5t-18.5 32.5t-14.5 32.5t-25 14.5q-35 0 -54 -88h-43q28 134 105 134q23 0 37 -14.5t19 -32t14.5 -32t24.5 -14.5q34 0 55 87h43q-30 -134 -106 -134z" />
    <glyph glyph-name="Imacron" unicode="&#x12a;" horiz-adv-x="220" 
d="M96 0h-80l147 667h80zM371 740h-304l10 46h305z" />
    <glyph glyph-name="imacron" unicode="&#x12b;" horiz-adv-x="203" 
d="M83 0h-71l107 483h71zM327 573h-304l10 46h305z" />
    <glyph glyph-name="Ibreve" unicode="&#x12c;" horiz-adv-x="220" 
d="M96 0h-80l147 667h80zM372 786q-71 -74 -163 -74q-44 0 -78.5 20t-52.5 54l40 30q28 -57 99 -57t123 57z" />
    <glyph glyph-name="ibreve" unicode="&#x12d;" horiz-adv-x="203" 
d="M83 0h-71l107 483h71zM327 619q-71 -74 -163 -74q-44 0 -78.5 20t-52.5 54l40 30q28 -57 99 -57t123 57z" />
    <glyph glyph-name="Iogonek" unicode="&#x12e;" horiz-adv-x="220" 
d="M79 -111l31 -23q-31 -52 -82 -52q-32 0 -52 17t-20 48q0 67 74 121h-14l147 667h80l-147 -667h-1q-96 -50 -96 -115q0 -33 34 -33q29 0 46 37z" />
    <glyph glyph-name="iogonek" unicode="&#x12f;" horiz-adv-x="203" 
d="M67 -111l31 -23q-31 -52 -82 -52q-32 0 -52 17t-20 48q0 67 74 121h-6l107 483h71l-107 -483q-96 -50 -96 -115q0 -33 34 -33q29 0 46 37zM174 553q-19 0 -31.5 12.5t-12.5 29.5q0 25 17.5 40.5t37.5 15.5q19 0 32 -12.5t13 -30.5q0 -25 -17.5 -40t-38.5 -15z" />
    <glyph glyph-name="Idotaccent" unicode="&#x130;" horiz-adv-x="220" 
d="M96 0h-80l147 667h80zM272 774q0 -21 -15.5 -36t-35.5 -15q-17 0 -29 11.5t-12 29.5q0 20 15.5 35t36.5 15q17 0 28.5 -11.5t11.5 -28.5z" />
    <glyph glyph-name="dotlessi" unicode="&#x131;" horiz-adv-x="203" 
d="M83 0h-71l107 483h71z" />
    <glyph glyph-name="IJ" unicode="&#x132;" horiz-adv-x="618" 
d="M96 0h-80l147 667h80zM337 -12q-101 0 -146 67l43 59q32 -55 98 -55q96 0 121 114l109 494h79l-109 -496q-41 -183 -195 -183z" />
    <glyph glyph-name="ij" unicode="&#x133;" horiz-adv-x="406" 
d="M174 553q-19 0 -31.5 12.5t-12.5 29.5q0 25 17.5 40.5t37.5 15.5q19 0 32 -12.5t13 -30.5q0 -25 -17.5 -40t-38.5 -15zM83 0h-71l107 483h71zM140 -196q-64 0 -89 38l36 50q15 -27 47 -27q50 0 67 76l121 542h71l-120 -542q-16 -71 -47 -104t-86 -33zM377 553
q-19 0 -31.5 12.5t-12.5 29.5q0 25 17.5 40.5t37.5 15.5q19 0 32 -12.5t13 -30.5q0 -25 -17.5 -40t-38.5 -15z" />
    <glyph glyph-name="Jcircumflex" unicode="&#x134;" horiz-adv-x="398" 
d="M512 723h-45l-48 105l-92 -105h-48l112 144h70zM117 -12q-101 0 -146 67l43 59q32 -55 98 -55q96 0 121 114l109 494h79l-109 -496q-41 -183 -195 -183z" />
    <glyph glyph-name="jcircumflex" unicode="&#x135;" horiz-adv-x="203" 
d="M289 556h-45l-48 105l-92 -105h-48l112 144h70zM-63 -196q-64 0 -89 38l36 50q15 -27 47 -27q50 0 67 76l121 542h71l-120 -542q-16 -71 -47 -104t-86 -33z" />
    <glyph glyph-name="Kcommaaccent" unicode="&#x136;" horiz-adv-x="509" 
d="M237 -121q0 -41 -30 -81.5t-72 -62.5l-25 28q26 13 47 34.5t28 43.5q-1 -1 -7 -1q-15 0 -25.5 11t-10.5 27q0 20 15 35t35 15t32.5 -13t12.5 -36zM442 0h-90l-134 298l-76 -84l-46 -214h-80l147 667h80l-74 -336l302 336h99l-293 -317z" />
    <glyph glyph-name="kcommaaccent" unicode="&#x137;" horiz-adv-x="438" 
d="M198 -121q0 -41 -30 -81.5t-72 -62.5l-25 28q26 13 47 34.5t28 43.5q-1 -1 -7 -1q-15 0 -25.5 11t-10.5 27q0 20 15 35t35 15t32.5 -13t12.5 -36zM369 0h-82l-86 221l-89 -90l-29 -131h-71l147 667h71l-97 -441l255 257h88l-217 -217z" />
    <glyph glyph-name="kgreenlandic" unicode="&#x138;" horiz-adv-x="438" 
d="M369 0h-82l-86 221l-89 -90l-29 -131h-71l107 483h71l-57 -257l255 257h88l-217 -217z" />
    <glyph glyph-name="Lacute" unicode="&#x139;" horiz-adv-x="425" 
d="M508 867l-166 -144h-54l145 144h75zM337 0h-321l147 667h80l-132 -596h241z" />
    <glyph glyph-name="lacute" unicode="&#x13a;" horiz-adv-x="203" 
d="M379 867l-166 -144h-54l145 144h75zM83 0h-71l147 667h71z" />
    <glyph glyph-name="Lcommaaccent" unicode="&#x13b;" horiz-adv-x="425" 
d="M198 -121q0 -41 -30 -81.5t-72 -62.5l-25 28q26 13 47 34.5t28 43.5q-1 -1 -7 -1q-15 0 -25.5 11t-10.5 27q0 20 15 35t35 15t32.5 -13t12.5 -36zM337 0h-321l147 667h80l-132 -596h241z" />
    <glyph glyph-name="lcommaaccent" unicode="&#x13c;" horiz-adv-x="203" 
d="M67 -121q0 -41 -30 -81.5t-72 -62.5l-25 28q26 13 47 34.5t28 43.5q-1 -1 -7 -1q-15 0 -25.5 11t-10.5 27q0 20 15 35t35 15t32.5 -13t12.5 -36zM83 0h-71l147 667h71z" />
    <glyph glyph-name="Lcaron" unicode="&#x13d;" horiz-adv-x="425" 
d="M403 631q0 -41 -30 -81.5t-72 -62.5l-25 28q26 13 47 34.5t28 43.5q-1 -1 -7 -1q-15 0 -25.5 11t-10.5 27q0 20 15 35t35 15t32.5 -13t12.5 -36zM337 0h-321l147 667h80l-132 -596h241z" />
    <glyph glyph-name="lcaron" unicode="&#x13e;" horiz-adv-x="276" 
d="M378 631q0 -41 -30 -81.5t-72 -62.5l-25 28q26 13 47 34.5t28 43.5q-1 -1 -7 -1q-15 0 -25.5 11t-10.5 27q0 20 15 35t35 15t32.5 -13t12.5 -36zM83 0h-71l147 667h71z" />
    <glyph glyph-name="Ldot" unicode="&#x13f;" horiz-adv-x="440" 
d="M337 0h-321l147 667h80l-132 -596h241zM342 288q-20 0 -34 14.5t-14 34.5q0 24 17 41t41 17q20 0 34.5 -14.5t14.5 -34.5q0 -24 -17.5 -41t-41.5 -17z" />
    <glyph glyph-name="ldot" unicode="&#x140;" horiz-adv-x="297" 
d="M83 0h-71l147 667h71zM245 191q-20 0 -34 14.5t-14 34.5q0 24 17 41t41 17q20 0 34.5 -14.5t14.5 -34.5q0 -24 -17.5 -41t-41.5 -17z" />
    <glyph glyph-name="Lslash" unicode="&#x141;" horiz-adv-x="447" 
d="M19 234l15 69l80 41l71 323h80l-61 -277l88 46l-15 -70l-89 -46l-55 -249h241l-15 -71h-321l60 274z" />
    <glyph glyph-name="lslash" unicode="&#x142;" horiz-adv-x="254" 
d="M15 245l14 58l85 43l71 321h71l-62 -281l86 44l-13 -58l-86 -43l-72 -329h-71l63 288z" />
    <glyph glyph-name="Nacute" unicode="&#x143;" horiz-adv-x="572" 
d="M564 867l-166 -144h-54l145 144h75zM448 0h-77l-163 511l-112 -511h-80l147 667h80l161 -500l111 500h80z" />
    <glyph glyph-name="nacute" unicode="&#x144;" 
d="M472 700l-166 -144h-54l145 144h75zM345 0h-72l77 344q0 1 2 12.5t2 16.5q0 58 -66 58q-34 0 -68 -23t-59 -56l-78 -352h-71l107 483h71l-15 -67q69 79 144 79q51 0 81 -25.5t30 -71.5q0 -14 -5 -36z" />
    <glyph glyph-name="Ncommaaccent" unicode="&#x145;" horiz-adv-x="572" 
d="M252 -121q0 -41 -30 -81.5t-72 -62.5l-25 28q26 13 47 34.5t28 43.5q-1 -1 -7 -1q-15 0 -25.5 11t-10.5 27q0 20 15 35t35 15t32.5 -13t12.5 -36zM448 0h-77l-163 511l-112 -511h-80l147 667h80l161 -500l111 500h80z" />
    <glyph glyph-name="ncommaaccent" unicode="&#x146;" 
d="M198 -121q0 -41 -30 -81.5t-72 -62.5l-25 28q26 13 47 34.5t28 43.5q-1 -1 -7 -1q-15 0 -25.5 11t-10.5 27q0 20 15 35t35 15t32.5 -13t12.5 -36zM345 0h-72l77 344q0 1 2 12.5t2 16.5q0 58 -66 58q-34 0 -68 -23t-59 -56l-78 -352h-71l107 483h71l-15 -67q69 79 144 79
q51 0 81 -25.5t30 -71.5q0 -14 -5 -36z" />
    <glyph glyph-name="Ncaron" unicode="&#x147;" horiz-adv-x="572" 
d="M429 723h-70l-51 144h44l48 -106l92 106h49zM448 0h-77l-163 511l-112 -511h-80l147 667h80l161 -500l111 500h80z" />
    <glyph glyph-name="ncaron" unicode="&#x148;" 
d="M338 556h-70l-51 144h44l48 -106l92 106h49zM345 0h-72l77 344q0 1 2 12.5t2 16.5q0 58 -66 58q-34 0 -68 -23t-59 -56l-78 -352h-71l107 483h71l-15 -67q69 79 144 79q51 0 81 -25.5t30 -71.5q0 -14 -5 -36z" />
    <glyph glyph-name="napostrophe" unicode="&#x149;" 
d="M245 693q0 -41 -30 -81.5t-72 -62.5l-25 28q26 13 47 34.5t28 43.5q-1 -1 -7 -1q-15 0 -25.5 11t-10.5 27q0 20 15 35t35 15t32.5 -13t12.5 -36zM345 0h-72l77 344q0 1 2 12.5t2 16.5q0 58 -66 58q-34 0 -68 -23t-59 -56l-78 -352h-71l107 483h71l-15 -67q69 79 144 79
q51 0 81 -25.5t30 -71.5q0 -14 -5 -36z" />
    <glyph glyph-name="Eng" unicode="&#x14a;" horiz-adv-x="572" 
d="M250 -196q-100 0 -146 67l43 55q31 -55 98 -55q99 0 120 113l4 21l-161 506l-112 -511h-80l147 667h80l161 -500l111 500h80l-151 -681q-22 -94 -69.5 -138t-124.5 -44z" />
    <glyph glyph-name="eng" unicode="&#x14b;" 
d="M425 362l-93 -421q-16 -71 -47 -104t-85 -33q-62 0 -90 38l37 52q15 -26 46 -26q50 0 67 73l90 403q4 20 4 29q0 58 -66 58q-34 0 -68 -23t-59 -56l-78 -352h-71l107 483h71l-15 -69q69 81 144 81q50 0 80.5 -25t30.5 -72q0 -16 -5 -36z" />
    <glyph glyph-name="Omacron" unicode="&#x14c;" horiz-adv-x="599" 
d="M561 740h-304l10 46h305zM272 -12q-101 0 -161.5 66t-60.5 175q0 105 37 206t111.5 172t167.5 71q100 0 161 -66.5t61 -174.5q0 -77 -22.5 -156t-62 -144.5t-100.5 -107t-131 -41.5zM277 59q62 0 116 58t83 144.5t29 174.5q0 80 -40 125.5t-105 45.5q-63 0 -116 -58.5
t-82 -145t-29 -174.5q0 -80 39 -125t105 -45z" />
    <glyph glyph-name="omacron" unicode="&#x14d;" horiz-adv-x="477" 
d="M464 573h-304l10 46h305zM205 -12q-81 0 -127 49t-46 137q0 75 28 147.5t84.5 123t125.5 50.5q81 0 127 -49t46 -137q0 -75 -28 -147.5t-84.5 -123t-125.5 -50.5zM208 52q68 0 114.5 85t46.5 171q0 60 -27 91.5t-75 31.5q-46 0 -84 -43.5t-57.5 -102t-19.5 -111.5
q0 -60 27 -91t75 -31z" />
    <glyph glyph-name="Obreve" unicode="&#x14e;" horiz-adv-x="599" 
d="M272 -12q-101 0 -161.5 66t-60.5 175q0 105 37 206t111.5 172t167.5 71q100 0 161 -66.5t61 -174.5q0 -77 -22.5 -156t-62 -144.5t-100.5 -107t-131 -41.5zM277 59q62 0 116 58t83 144.5t29 174.5q0 80 -40 125.5t-105 45.5q-63 0 -116 -58.5t-82 -145t-29 -174.5
q0 -80 39 -125t105 -45zM562 786q-71 -74 -163 -74q-44 0 -78.5 20t-52.5 54l40 30q28 -57 99 -57t123 57z" />
    <glyph glyph-name="obreve" unicode="&#x14f;" horiz-adv-x="477" 
d="M205 -12q-81 0 -127 49t-46 137q0 75 28 147.5t84.5 123t125.5 50.5q81 0 127 -49t46 -137q0 -75 -28 -147.5t-84.5 -123t-125.5 -50.5zM208 52q68 0 114.5 85t46.5 171q0 60 -27 91.5t-75 31.5q-46 0 -84 -43.5t-57.5 -102t-19.5 -111.5q0 -60 27 -91t75 -31zM464 619
q-71 -74 -163 -74q-44 0 -78.5 20t-52.5 54l40 30q28 -57 99 -57t123 57z" />
    <glyph glyph-name="Ohungarumlaut" unicode="&#x150;" horiz-adv-x="599" 
d="M477 867l-128 -144h-45l107 144h66zM606 867l-128 -144h-45l107 144h66zM272 -12q-101 0 -161.5 66t-60.5 175q0 105 37 206t111.5 172t167.5 71q100 0 161 -66.5t61 -174.5q0 -77 -22.5 -156t-62 -144.5t-100.5 -107t-131 -41.5zM277 59q62 0 116 58t83 144.5t29 174.5
q0 80 -40 125.5t-105 45.5q-63 0 -116 -58.5t-82 -145t-29 -174.5q0 -80 39 -125t105 -45z" />
    <glyph glyph-name="ohungarumlaut" unicode="&#x151;" horiz-adv-x="477" 
d="M380 700l-128 -144h-45l107 144h66zM509 700l-128 -144h-45l107 144h66zM205 -12q-81 0 -127 49t-46 137q0 75 28 147.5t84.5 123t125.5 50.5q81 0 127 -49t46 -137q0 -75 -28 -147.5t-84.5 -123t-125.5 -50.5zM208 52q68 0 114.5 85t46.5 171q0 60 -27 91.5t-75 31.5
q-46 0 -84 -43.5t-57.5 -102t-19.5 -111.5q0 -60 27 -91t75 -31z" />
    <glyph glyph-name="OE" unicode="&#x152;" horiz-adv-x="850" 
d="M747 0h-343l18 84q-65 -96 -176 -96q-88 0 -142.5 66.5t-54.5 174.5t38.5 209.5t113.5 170t167 68.5q126 0 161 -115l22 105h343l-15 -70h-263l-49 -221h256l-16 -70h-256l-52 -235h263zM446 189l59 267q-7 73 -43.5 111.5t-95.5 38.5q-66 0 -121 -58t-84 -144t-29 -175
q0 -77 37.5 -123.5t101.5 -46.5q50 0 97 34.5t78 95.5z" />
    <glyph glyph-name="oe" unicode="&#x153;" horiz-adv-x="785" 
d="M741 218h-311q-4 -14 -4 -45q0 -57 31.5 -91t89.5 -34q61 0 111 50l28 -47q-63 -63 -146 -63q-68 0 -111 36.5t-51 87.5q-71 -124 -175 -124q-80 0 -125.5 49t-45.5 137q0 121 67 221t169 100q63 0 101 -36t47 -86q69 122 174 122q75 0 119.5 -47.5t44.5 -132.5
q0 -45 -13 -97zM439 271h243q6 24 6 47q0 53 -26.5 85t-76.5 32q-57 0 -96.5 -51.5t-49.5 -112.5zM365 308q0 61 -27.5 92t-72.5 31t-82.5 -42.5t-57 -101t-19.5 -113.5q0 -58 26 -90.5t74 -32.5q45 0 83 43.5t57 101.5t19 112z" />
    <glyph glyph-name="Racute" unicode="&#x154;" horiz-adv-x="509" 
d="M536 867l-166 -144h-54l145 144h75zM410 0h-86l-69 267h-101l-58 -267h-80l147 667h185q68 0 114.5 -45t46.5 -117q0 -89 -50 -153.5t-127 -76.5zM169 337h115q66 0 103.5 48t37.5 114q0 45 -26 71.5t-64 26.5h-108z" />
    <glyph glyph-name="racute" unicode="&#x155;" horiz-adv-x="291" 
d="M407 700l-166 -144h-54l145 144h75zM83 0h-71l107 483h71l-16 -71q61 81 155 81l-17 -73q-18 3 -30 3q-35 0 -68 -22.5t-55 -57.5z" />
    <glyph glyph-name="Rcommaaccent" unicode="&#x156;" horiz-adv-x="509" 
d="M225 -121q0 -41 -30 -81.5t-72 -62.5l-25 28q26 13 47 34.5t28 43.5q-1 -1 -7 -1q-15 0 -25.5 11t-10.5 27q0 20 15 35t35 15t32.5 -13t12.5 -36zM410 0h-86l-69 267h-101l-58 -267h-80l147 667h185q68 0 114.5 -45t46.5 -117q0 -89 -50 -153.5t-127 -76.5zM169 337h115
q66 0 103.5 48t37.5 114q0 45 -26 71.5t-64 26.5h-108z" />
    <glyph glyph-name="rcommaaccent" unicode="&#x157;" horiz-adv-x="291" 
d="M136 -121q0 -41 -30 -81.5t-72 -62.5l-25 28q26 13 47 34.5t28 43.5q-1 -1 -7 -1q-15 0 -25.5 11t-10.5 27q0 20 15 35t35 15t32.5 -13t12.5 -36zM83 0h-71l107 483h71l-16 -71q61 81 155 81l-17 -73q-18 3 -30 3q-35 0 -68 -22.5t-55 -57.5z" />
    <glyph glyph-name="Rcaron" unicode="&#x158;" horiz-adv-x="509" 
d="M401 723h-70l-51 144h44l48 -106l92 106h49zM410 0h-86l-69 267h-101l-58 -267h-80l147 667h185q68 0 114.5 -45t46.5 -117q0 -89 -50 -153.5t-127 -76.5zM169 337h115q66 0 103.5 48t37.5 114q0 45 -26 71.5t-64 26.5h-108z" />
    <glyph glyph-name="rcaron" unicode="&#x159;" horiz-adv-x="291" 
d="M276 556h-70l-51 144h44l48 -106l92 106h49zM83 0h-71l107 483h71l-16 -71q61 81 155 81l-17 -73q-18 3 -30 3q-35 0 -68 -22.5t-55 -57.5z" />
    <glyph glyph-name="Sacute" unicode="&#x15a;" horiz-adv-x="470" 
d="M513 867l-166 -144h-54l145 144h75zM205 -12q-65 0 -121 26.5t-84 67.5l52 58q25 -37 67 -59t90 -22q58 0 92 37t34 91q0 27 -17.5 51.5t-43.5 41.5t-56.5 38.5t-56.5 42t-43.5 53t-17.5 70.5q0 80 60 137t146 57q56 0 105 -21.5t77 -58.5l-50 -57q-49 66 -138 66
q-49 0 -82.5 -33.5t-33.5 -78.5q0 -25 17.5 -48t43.5 -40t56.5 -38.5t56.5 -43t43.5 -54.5t17.5 -72q0 -87 -59 -149t-155 -62z" />
    <glyph glyph-name="sacute" unicode="&#x15b;" horiz-adv-x="387" 
d="M433 700l-166 -144h-54l145 144h75zM159 -12q-115 0 -166 76l45 48q17 -28 50.5 -47t73.5 -19q41 0 68 25.5t27 59.5q0 24 -20 44t-48.5 36t-56.5 33t-48 44t-20 61q0 61 44 103.5t118 42.5q47 0 87.5 -19t62.5 -50l-42 -46q-13 24 -44.5 40.5t-66.5 16.5q-40 0 -64 -21
t-24 -54q0 -27 30.5 -50.5t66.5 -40.5t66.5 -50t30.5 -76q0 -65 -47 -111t-123 -46z" />
    <glyph glyph-name="Scircumflex" unicode="&#x15c;" horiz-adv-x="470" 
d="M459 723h-45l-48 105l-92 -105h-48l112 144h70zM205 -12q-65 0 -121 26.5t-84 67.5l52 58q25 -37 67 -59t90 -22q58 0 92 37t34 91q0 27 -17.5 51.5t-43.5 41.5t-56.5 38.5t-56.5 42t-43.5 53t-17.5 70.5q0 80 60 137t146 57q56 0 105 -21.5t77 -58.5l-50 -57
q-49 66 -138 66q-49 0 -82.5 -33.5t-33.5 -78.5q0 -25 17.5 -48t43.5 -40t56.5 -38.5t56.5 -43t43.5 -54.5t17.5 -72q0 -87 -59 -149t-155 -62z" />
    <glyph glyph-name="scircumflex" unicode="&#x15d;" horiz-adv-x="387" 
d="M380 556h-45l-48 105l-92 -105h-48l112 144h70zM159 -12q-115 0 -166 76l45 48q17 -28 50.5 -47t73.5 -19q41 0 68 25.5t27 59.5q0 24 -20 44t-48.5 36t-56.5 33t-48 44t-20 61q0 61 44 103.5t118 42.5q47 0 87.5 -19t62.5 -50l-42 -46q-13 24 -44.5 40.5t-66.5 16.5
q-40 0 -64 -21t-24 -54q0 -27 30.5 -50.5t66.5 -40.5t66.5 -50t30.5 -76q0 -65 -47 -111t-123 -46z" />
    <glyph glyph-name="Scedilla" unicode="&#x15e;" horiz-adv-x="470" 
d="M140 -191q-62 0 -95 38l25 34q28 -33 72 -33q25 0 40 14t15 34q0 28 -31 28q-18 0 -31 -15l-28 18l39 67q-101 21 -146 88l52 58q25 -37 67 -59t90 -22q58 0 92 37t34 91q0 27 -17.5 51.5t-43.5 41.5t-56.5 38.5t-56.5 42t-43.5 53t-17.5 70.5q0 80 60 137t146 57
q56 0 105 -21.5t77 -58.5l-50 -57q-49 66 -138 66q-49 0 -82.5 -33.5t-33.5 -78.5q0 -25 17.5 -48t43.5 -40t56.5 -38.5t56.5 -43t43.5 -54.5t17.5 -72q0 -87 -59 -149t-155 -62q-13 0 -19 1l-27 -45q12 11 29 11q24 0 38.5 -15.5t14.5 -41.5q0 -38 -29 -63.5t-72 -25.5z
" />
    <glyph glyph-name="scedilla" unicode="&#x15f;" horiz-adv-x="387" 
d="M103 -191q-62 0 -95 38l25 34q29 -33 72 -33q25 0 40 14t15 34q0 28 -31 28q-17 0 -31 -15l-28 18l39 66q-77 14 -116 71l45 48q17 -28 50.5 -47t73.5 -19q41 0 68 25.5t27 59.5q0 24 -20 44t-48.5 36t-56.5 33t-48 44t-20 61q0 61 44 103.5t118 42.5q47 0 87.5 -19
t62.5 -50l-42 -46q-13 24 -44.5 40.5t-66.5 16.5q-40 0 -64 -21t-24 -54q0 -27 30.5 -50.5t66.5 -40.5t66.5 -50t30.5 -76q0 -65 -47 -111t-123 -46h-10l-27 -44q12 11 29 11q24 0 38.5 -15.5t14.5 -41.5q0 -38 -29 -63.5t-72 -25.5z" />
    <glyph glyph-name="Scaron" unicode="&#x160;" horiz-adv-x="470" 
d="M380 723h-70l-51 144h44l48 -106l92 106h49zM205 -12q-65 0 -121 26.5t-84 67.5l52 58q25 -37 67 -59t90 -22q58 0 92 37t34 91q0 27 -17.5 51.5t-43.5 41.5t-56.5 38.5t-56.5 42t-43.5 53t-17.5 70.5q0 80 60 137t146 57q56 0 105 -21.5t77 -58.5l-50 -57
q-49 66 -138 66q-49 0 -82.5 -33.5t-33.5 -78.5q0 -25 17.5 -48t43.5 -40t56.5 -38.5t56.5 -43t43.5 -54.5t17.5 -72q0 -87 -59 -149t-155 -62z" />
    <glyph glyph-name="scaron" unicode="&#x161;" horiz-adv-x="387" 
d="M300 556h-70l-51 144h44l48 -106l92 106h49zM159 -12q-115 0 -166 76l45 48q17 -28 50.5 -47t73.5 -19q41 0 68 25.5t27 59.5q0 24 -20 44t-48.5 36t-56.5 33t-48 44t-20 61q0 61 44 103.5t118 42.5q47 0 87.5 -19t62.5 -50l-42 -46q-13 24 -44.5 40.5t-66.5 16.5
q-40 0 -64 -21t-24 -54q0 -27 30.5 -50.5t66.5 -40.5t66.5 -50t30.5 -76q0 -65 -47 -111t-123 -46z" />
    <glyph glyph-name="Tcommaaccent" unicode="&#x162;" horiz-adv-x="446" 
d="M192 -121q0 -41 -30 -81.5t-72 -62.5l-25 28q26 13 47 34.5t28 43.5q-1 -1 -7 -1q-15 0 -25.5 11t-10.5 27q0 20 15 35t35 15t32.5 -13t12.5 -36zM208 0h-79l132 597h-158l15 70h396l-15 -70h-159z" />
    <glyph glyph-name="tcommaaccent" unicode="&#x163;" horiz-adv-x="263" 
d="M93 -121q0 -41 -30 -81.5t-72 -62.5l-25 28q26 13 47 34.5t28 43.5q-1 -1 -7 -1q-15 0 -25.5 11t-10.5 27q0 20 15 35t35 15t32.5 -13t12.5 -36zM140 -12q-96 0 -96 79q0 16 4 32l71 321h-64l14 63h65l29 132h71l-29 -132h82l-14 -63h-82l-69 -308q-3 -21 -3 -24
q0 -36 39 -36q23 0 39 14l9 -56q-27 -22 -66 -22z" />
    <glyph glyph-name="Tcaron" unicode="&#x164;" horiz-adv-x="446" 
d="M360 723h-70l-51 144h44l48 -106l92 106h49zM208 0h-79l132 597h-158l15 70h396l-15 -70h-159z" />
    <glyph glyph-name="tcaron" unicode="&#x165;" horiz-adv-x="284" 
d="M400 693q0 -41 -30 -81.5t-72 -62.5l-25 28q26 13 47 34.5t28 43.5q-1 -1 -7 -1q-15 0 -25.5 11t-10.5 27q0 20 15 35t35 15t32.5 -13t12.5 -36zM140 -12q-96 0 -96 79q0 16 4 32l71 321h-64l14 63h65l29 132h71l-29 -132h82l-14 -63h-82l-69 -308q-3 -21 -3 -24
q0 -36 39 -36q23 0 39 14l9 -56q-27 -22 -66 -22z" />
    <glyph glyph-name="Tbar" unicode="&#x166;" horiz-adv-x="446" 
d="M208 0h-79l65 296h-112l10 46h112l57 255h-158l15 70h396l-15 -70h-159l-57 -255h114l-11 -46h-113z" />
    <glyph glyph-name="tbar" unicode="&#x167;" horiz-adv-x="263" 
d="M140 -12q-96 0 -96 79q0 16 4 32l28 129h-64l10 46h64l33 146h-64l14 63h65l29 132h71l-29 -132h82l-14 -63h-82l-33 -146h54l-11 -46h-53l-26 -116q-3 -21 -3 -24q0 -36 39 -36q23 0 39 14l9 -56q-27 -22 -66 -22z" />
    <glyph glyph-name="Utilde" unicode="&#x168;" horiz-adv-x="569" 
d="M259 -12q-92 0 -146 48.5t-54 132.5q0 26 5 48l99 450h80l-100 -452q-4 -28 -4 -39q0 -54 33 -86t90 -32q61 0 96.5 38.5t53.5 118.5l100 452h79l-99 -451q-26 -114 -81 -171t-152 -57zM448 721q-23 0 -37 14.5t-18.5 32.5t-14.5 32.5t-25 14.5q-35 0 -54 -88h-43
q28 134 105 134q23 0 37 -14.5t19 -32t14.5 -32t24.5 -14.5q34 0 55 87h43q-30 -134 -106 -134z" />
    <glyph glyph-name="utilde" unicode="&#x169;" 
d="M119 483h71l-76 -343q-4 -20 -4 -30q0 -58 69 -58q62 0 123 77l78 354h72l-107 -483h-72l16 67q-71 -79 -144 -79q-51 0 -81 25.5t-30 71.5q0 13 5 36zM360 554q-23 0 -37 14.5t-18.5 32.5t-14.5 32.5t-25 14.5q-35 0 -54 -88h-43q28 134 105 134q23 0 37 -14.5t19 -32
t14.5 -32t24.5 -14.5q34 0 55 87h43q-30 -134 -106 -134z" />
    <glyph glyph-name="Umacron" unicode="&#x16a;" horiz-adv-x="569" 
d="M259 -12q-92 0 -146 48.5t-54 132.5q0 26 5 48l99 450h80l-100 -452q-4 -28 -4 -39q0 -54 33 -86t90 -32q61 0 96.5 38.5t53.5 118.5l100 452h79l-99 -451q-26 -114 -81 -171t-152 -57zM545 740h-304l10 46h305z" />
    <glyph glyph-name="umacron" unicode="&#x16b;" 
d="M119 483h71l-76 -343q-4 -20 -4 -30q0 -58 69 -58q62 0 123 77l78 354h72l-107 -483h-72l16 67q-71 -79 -144 -79q-51 0 -81 25.5t-30 71.5q0 13 5 36zM458 573h-304l10 46h305z" />
    <glyph glyph-name="Ubreve" unicode="&#x16c;" horiz-adv-x="569" 
d="M259 -12q-92 0 -146 48.5t-54 132.5q0 26 5 48l99 450h80l-100 -452q-4 -28 -4 -39q0 -54 33 -86t90 -32q61 0 96.5 38.5t53.5 118.5l100 452h79l-99 -451q-26 -114 -81 -171t-152 -57zM546 786q-71 -74 -163 -74q-44 0 -78.5 20t-52.5 54l40 30q28 -57 99 -57t123 57z
" />
    <glyph glyph-name="ubreve" unicode="&#x16d;" 
d="M119 483h71l-76 -343q-4 -20 -4 -30q0 -58 69 -58q62 0 123 77l78 354h72l-107 -483h-72l16 67q-71 -79 -144 -79q-51 0 -81 25.5t-30 71.5q0 13 5 36zM458 619q-71 -74 -163 -74q-44 0 -78.5 20t-52.5 54l40 30q28 -57 99 -57t123 57z" />
    <glyph glyph-name="Uring" unicode="&#x16e;" horiz-adv-x="569" 
d="M393 691q-36 0 -59 23.5t-23 59.5q0 40 30 70t70 30q36 0 59 -23.5t23 -59.5q0 -41 -29.5 -70.5t-70.5 -29.5zM396 729q24 0 41.5 17t17.5 42q0 21 -13 34.5t-33 13.5q-24 0 -42 -17.5t-18 -41.5q0 -21 13 -34.5t34 -13.5zM259 -12q-92 0 -146 48.5t-54 132.5q0 26 5 48
l99 450h80l-100 -452q-4 -28 -4 -39q0 -54 33 -86t90 -32q61 0 96.5 38.5t53.5 118.5l100 452h79l-99 -451q-26 -114 -81 -171t-152 -57z" />
    <glyph glyph-name="uring" unicode="&#x16f;" 
d="M310 544q-36 0 -59 23.5t-23 59.5q0 40 30 70t70 30q36 0 59 -23.5t23 -59.5q0 -40 -30 -70t-70 -30zM313 582q24 0 41.5 17t17.5 42q0 21 -13 34.5t-33 13.5q-24 0 -42 -17.5t-18 -41.5q0 -21 13 -34.5t34 -13.5zM119 483h71l-76 -343q-4 -20 -4 -30q0 -58 69 -58
q62 0 123 77l78 354h72l-107 -483h-72l16 67q-71 -79 -144 -79q-51 0 -81 25.5t-30 71.5q0 13 5 36z" />
    <glyph glyph-name="Uhungarumlaut" unicode="&#x170;" horiz-adv-x="569" 
d="M259 -12q-92 0 -146 48.5t-54 132.5q0 26 5 48l99 450h80l-100 -452q-4 -28 -4 -39q0 -54 33 -86t90 -32q61 0 96.5 38.5t53.5 118.5l100 452h79l-99 -451q-26 -114 -81 -171t-152 -57zM462 867l-128 -144h-45l107 144h66zM591 867l-128 -144h-45l107 144h66z" />
    <glyph glyph-name="uhungarumlaut" unicode="&#x171;" 
d="M119 483h71l-76 -343q-4 -20 -4 -30q0 -58 69 -58q62 0 123 77l78 354h72l-107 -483h-72l16 67q-71 -79 -144 -79q-51 0 -81 25.5t-30 71.5q0 13 5 36zM374 700l-128 -144h-45l107 144h66zM503 700l-128 -144h-45l107 144h66z" />
    <glyph glyph-name="Uogonek" unicode="&#x172;" horiz-adv-x="569" 
d="M321 -111l31 -23q-31 -52 -82 -52q-32 0 -52 17t-20 48q0 60 58 109q-91 1 -144 49.5t-53 131.5q0 26 5 48l99 450h80l-100 -452q-4 -28 -4 -39q0 -54 33 -86t90 -32q61 0 96.5 38.5t53.5 118.5l100 452h79l-99 -451q-41 -181 -159 -217q-92 -50 -92 -114q0 -33 34 -33
q29 0 46 37z" />
    <glyph glyph-name="uogonek" unicode="&#x173;" 
d="M119 483h71l-76 -343q-4 -20 -4 -30q0 -58 69 -58q62 0 123 77l78 354h72l-107 -483q-96 -50 -96 -115q0 -33 34 -33q29 0 46 37l31 -23q-31 -52 -82 -52q-32 0 -52 17t-20 48q0 68 74 121h-7l16 67q-71 -79 -144 -79q-51 0 -81 25.5t-30 71.5q0 13 5 36z" />
    <glyph glyph-name="Wcircumflex" unicode="&#x174;" horiz-adv-x="715" 
d="M579 723h-45l-48 105l-92 -105h-48l112 144h70zM497 0h-85l8 526l-225 -526h-85l-1 667h84l-12 -544l235 544h67l-7 -544l230 544h86z" />
    <glyph glyph-name="wcircumflex" unicode="&#x175;" horiz-adv-x="638" 
d="M503 556h-45l-48 105l-92 -105h-48l112 144h70zM442 0h-74l-18 388l-189 -388h-73l-22 483h72l9 -386l188 386h67l18 -386l180 386h78z" />
    <glyph glyph-name="Ycircumflex" unicode="&#x176;" horiz-adv-x="499" 
d="M473 723h-45l-48 105l-92 -105h-48l112 144h70zM235 0h-79l62 282l-121 385h84l89 -308l225 308h93l-291 -385z" />
    <glyph glyph-name="ycircumflex" unicode="&#x177;" horiz-adv-x="408" 
d="M-54 -186l25 63q11 -8 35 -8q32 0 60 47l43 76l-50 491h75l32 -396l209 396h80l-323 -585q-29 -51 -59 -72.5t-70 -21.5q-29 0 -57 10zM388 556h-45l-48 105l-92 -105h-48l112 144h70z" />
    <glyph glyph-name="Ydieresis" unicode="&#x178;" horiz-adv-x="499" 
d="M499 775q0 -20 -15 -34.5t-35 -14.5q-17 0 -28.5 11.5t-11.5 28.5q0 19 15 34t35 15q17 0 28.5 -11.5t11.5 -28.5zM326 775q0 -19 -15.5 -34t-35.5 -15q-17 0 -28.5 11.5t-11.5 28.5q0 19 15.5 34t35.5 15q17 0 28.5 -11.5t11.5 -28.5zM235 0h-79l62 282l-121 385h84
l89 -308l225 308h93l-291 -385z" />
    <glyph glyph-name="Zacute" unicode="&#x179;" horiz-adv-x="462" 
d="M504 867l-166 -144h-54l145 144h75zM368 0h-382l15 67l391 530h-274l15 70h375l-14 -66l-394 -530h283z" />
    <glyph glyph-name="zacute" unicode="&#x17a;" horiz-adv-x="387" 
d="M431 700l-166 -144h-54l145 144h75zM290 0h-301l12 56l286 364h-205l14 63h297l-12 -55l-288 -365h210z" />
    <glyph glyph-name="Zdotaccent" unicode="&#x17b;" horiz-adv-x="462" 
d="M368 0h-382l15 67l391 530h-274l15 70h375l-14 -66l-394 -530h283zM389 774q0 -21 -15.5 -36t-35.5 -15q-17 0 -29 11.5t-12 29.5q0 20 15.5 35t36.5 15q17 0 28.5 -11.5t11.5 -28.5z" />
    <glyph glyph-name="zdotaccent" unicode="&#x17c;" horiz-adv-x="387" 
d="M290 0h-301l12 56l286 364h-205l14 63h297l-12 -55l-288 -365h210zM316 607q0 -21 -15.5 -36t-35.5 -15q-17 0 -29 11.5t-12 29.5q0 20 15.5 35t36.5 15q17 0 28.5 -11.5t11.5 -28.5z" />
    <glyph glyph-name="Zcaron" unicode="&#x17d;" horiz-adv-x="462" 
d="M371 723h-70l-51 144h44l48 -106l92 106h49zM368 0h-382l15 67l391 530h-274l15 70h375l-14 -66l-394 -530h283z" />
    <glyph glyph-name="zcaron" unicode="&#x17e;" horiz-adv-x="387" 
d="M296 556h-70l-51 144h44l48 -106l92 106h49zM290 0h-301l12 56l286 364h-205l14 63h297l-12 -55l-288 -365h210z" />
    <glyph glyph-name="longs" unicode="&#x17f;" horiz-adv-x="254" 
d="M101 0h-72l93 420h-64l15 63h63l13 59q29 135 139 135q57 0 89 -35l-38 -48q-17 22 -47 22q-54 0 -72 -74z" />
    <glyph glyph-name="florin" unicode="&#x192;" horiz-adv-x="398" 
d="M50 -161h-80l91 416h-57v65h72l50 228q14 61 48.5 95t88.5 34q59 0 92 -34l-33 -56q-16 20 -46 20q-57 0 -72 -74l-47 -213h114v-65h-129z" />
    <glyph glyph-name="Ohorn" unicode="&#x1a0;" horiz-adv-x="599" 
d="M272 -12q-101 0 -161.5 66t-60.5 175q0 105 37 206t111.5 172t167.5 71q62 0 110 -26.5t76 -74.5q45 28 57 67h-7q-14 0 -23.5 10t-9.5 26q0 19 14 32.5t33 13.5q17 0 29 -12t12 -34q0 -37 -26 -74.5t-63 -59.5q20 -49 20 -109q0 -77 -22.5 -156t-62 -144.5t-100.5 -107
t-131 -41.5zM277 59q62 0 116 58t83 144.5t29 174.5q0 80 -40 125.5t-105 45.5q-63 0 -116 -58.5t-82 -145t-29 -174.5q0 -80 39 -125t105 -45z" />
    <glyph glyph-name="ohorn" unicode="&#x1a1;" horiz-adv-x="477" 
d="M501 546q0 -35 -23.5 -70.5t-59.5 -59.5q25 -45 25 -107q0 -75 -28 -147.5t-84.5 -123t-125.5 -50.5q-81 0 -127 49t-46 137q0 75 28 147.5t84.5 123t125.5 50.5q82 0 128 -51q43 30 55 66h-7q-14 0 -24 10.5t-10 25.5q0 18 14.5 32t32.5 14t30 -12t12 -34zM208 52
q68 0 114.5 85t46.5 171q0 60 -27 91.5t-75 31.5q-46 0 -84 -43.5t-57.5 -102t-19.5 -111.5q0 -60 27 -91t75 -31z" />
    <glyph glyph-name="Uhorn" unicode="&#x1af;" horiz-adv-x="569" 
d="M702 744q0 -46 -37 -89t-91 -64l-82 -375q-26 -114 -81 -171t-152 -57q-92 0 -146 48.5t-54 132.5q0 18 5 48l99 450h80l-100 -452q-4 -28 -4 -39q0 -54 33 -86t90 -32q61 0 96.5 38.5t53.5 118.5l100 452h79l-8 -34q57 32 71 76q-1 -1 -7 -1q-14 0 -23.5 10t-9.5 26
q0 19 14 32.5t33 13.5q18 0 29.5 -12t11.5 -34z" />
    <glyph glyph-name="uhorn" unicode="&#x1b0;" 
d="M547 551q0 -42 -32 -82t-81 -64l-89 -405h-72l16 67q-71 -79 -144 -79q-51 0 -81 25t-30 71q0 22 5 37l79 362h72l-76 -344q-4 -16 -4 -29q0 -58 69 -58q63 0 123 77l78 354h72l-7 -32q44 31 54 64h-7q-14 0 -23.5 10t-9.5 26q0 19 14 32.5t32 13.5q19 0 30.5 -12
t11.5 -34z" />
    <glyph glyph-name="AEacute" unicode="&#x1fc;" horiz-adv-x="751" 
d="M677 867l-166 -144h-54l145 144h75zM648 0h-342l33 151h-191l-102 -151h-89l463 667h375l-15 -70h-263l-49 -221h256l-16 -70h-256l-52 -235h263zM355 221l77 351l-239 -351h162z" />
    <glyph glyph-name="aeacute" unicode="&#x1fd;" horiz-adv-x="767" 
d="M619 700l-166 -144h-54l145 144h75zM262 431q-45 0 -82 -45t-55 -104.5t-18 -112.5q0 -56 25 -86.5t70 -30.5q33 0 64.5 23.5t51.5 57.5l49 218q-11 35 -39.5 57.5t-65.5 22.5zM384 107l-24 -107h-72l15 66q-54 -78 -130 -78q-65 0 -103.5 45t-38.5 126q0 73 24.5 148.5
t77 131.5t119.5 56q43 0 76.5 -22t51.5 -63l16 73h71l-16 -74q24 37 61 61.5t80 24.5q70 0 107.5 -45t37.5 -131q0 -47 -14 -101h-312q-4 -19 -4 -45q0 -54 32 -89t92 -35t109 51l29 -51q-64 -61 -136 -61q-125 0 -149 119zM420 271h244q5 25 5 47q0 52 -25.5 84.5
t-75.5 32.5q-54 0 -95 -50.5t-53 -113.5z" />
    <glyph glyph-name="Oslashacute" unicode="&#x1fe;" horiz-adv-x="599" 
d="M577 867l-166 -144h-54l145 144h75zM272 -12q-90 0 -149 53l-31 -41h-59l59 77q-42 62 -42 152q0 105 37 206t111.5 172t167.5 71q86 0 146 -52l31 41h59l-58 -76q44 -64 44 -154q0 -77 -22.5 -156t-62 -144.5t-100.5 -107t-131 -41.5zM277 59q62 0 116 58t83 144.5
t29 174.5q0 46 -16 84l-317 -416q39 -45 105 -45zM133 229q0 -44 13 -81l317 415q-39 44 -103 44q-63 0 -116 -58.5t-82 -145t-29 -174.5z" />
    <glyph glyph-name="oslashacute" unicode="&#x1ff;" horiz-adv-x="477" 
d="M479 700l-166 -144h-54l145 144h75zM52 0h-52l57 65q-25 43 -25 109q0 75 28 147.5t84.5 123t125.5 50.5q75 0 122 -44l28 32h52l-56 -64q27 -46 27 -110q0 -75 -28 -147.5t-84.5 -123t-125.5 -50.5q-77 0 -124 45zM208 52q68 0 114.5 85t46.5 171q0 28 -6 49l-234 -269
q25 -36 79 -36zM106 174q0 -30 5 -47l233 269q-26 35 -77 35q-46 0 -84 -43.5t-57.5 -102t-19.5 -111.5z" />
    <glyph glyph-name="Scommaaccent" unicode="&#x218;" horiz-adv-x="470" 
d="M203 -121q0 -41 -30 -81.5t-72 -62.5l-25 28q26 13 47 34.5t28 43.5q-1 -1 -7 -1q-15 0 -25.5 11t-10.5 27q0 20 15 35t35 15t32.5 -13t12.5 -36zM205 -12q-65 0 -121 26.5t-84 67.5l52 58q25 -37 67 -59t90 -22q58 0 92 37t34 91q0 27 -17.5 51.5t-43.5 41.5t-56.5 38.5
t-56.5 42t-43.5 53t-17.5 70.5q0 80 60 137t146 57q56 0 105 -21.5t77 -58.5l-50 -57q-49 66 -138 66q-49 0 -82.5 -33.5t-33.5 -78.5q0 -25 17.5 -48t43.5 -40t56.5 -38.5t56.5 -43t43.5 -54.5t17.5 -72q0 -87 -59 -149t-155 -62z" />
    <glyph glyph-name="scommaaccent" unicode="&#x219;" horiz-adv-x="387" 
d="M158 -121q0 -41 -30 -81.5t-72 -62.5l-25 28q26 13 47 34.5t28 43.5q-1 -1 -7 -1q-15 0 -25.5 11t-10.5 27q0 20 15 35t35 15t32.5 -13t12.5 -36zM159 -12q-115 0 -166 76l45 48q17 -28 50.5 -47t73.5 -19q41 0 68 25.5t27 59.5q0 24 -20 44t-48.5 36t-56.5 33t-48 44
t-20 61q0 61 44 103.5t118 42.5q47 0 87.5 -19t62.5 -50l-42 -46q-13 24 -44.5 40.5t-66.5 16.5q-40 0 -64 -21t-24 -54q0 -27 30.5 -50.5t66.5 -40.5t66.5 -50t30.5 -76q0 -65 -47 -111t-123 -46z" />
    <glyph glyph-name="uni021A" unicode="&#x21a;" horiz-adv-x="446" 
d="M192 -121q0 -41 -30 -81.5t-72 -62.5l-25 28q26 13 47 34.5t28 43.5q-1 -1 -7 -1q-15 0 -25.5 11t-10.5 27q0 20 15 35t35 15t32.5 -13t12.5 -36zM208 0h-79l132 597h-158l15 70h396l-15 -70h-159z" />
    <glyph glyph-name="uni021B" unicode="&#x21b;" horiz-adv-x="263" 
d="M90 -121q0 -41 -30 -81.5t-72 -62.5l-25 28q26 13 47 34.5t28 43.5q-1 -1 -7 -1q-15 0 -25.5 11t-10.5 27q0 20 15 35t35 15t32.5 -13t12.5 -36zM140 -12q-96 0 -96 79q0 16 4 32l71 321h-64l14 63h65l29 132h71l-29 -132h82l-14 -63h-82l-69 -308q-3 -21 -3 -24
q0 -36 39 -36q23 0 39 14l9 -56q-27 -22 -66 -22z" />
    <glyph glyph-name="uni0237" unicode="&#x237;" horiz-adv-x="203" 
d="M-63 -196q-64 0 -89 38l36 50q15 -27 47 -27q50 0 67 76l121 542h71l-120 -542q-16 -71 -47 -104t-86 -33z" />
    <glyph glyph-name="hsuperior" unicode="&#x2b0;" horiz-adv-x="342" 
d="M306 326h-55l47 216q3 15 3 19q0 41 -46 41q-40 0 -81 -52l-49 -224h-56l96 434h55l-36 -164q43 52 97 52q37 0 58 -17.5t21 -47.5q0 -3 -0.5 -8t-1.5 -12t-1 -10z" />
    <glyph glyph-name="uni02BC" unicode="&#x2bc;" horiz-adv-x="229" 
d="M254 620q0 -45 -33.5 -90.5t-80.5 -69.5l-29 32q28 14 51.5 37.5t31.5 46.5h-8q-17 0 -29 12t-12 31q0 24 17.5 41t40.5 17q22 0 36.5 -15t14.5 -42z" />
    <glyph glyph-name="circumflex" unicode="&#x2c6;" horiz-adv-x="233" 
d="M302 556h-45l-48 105l-92 -105h-48l112 144h70z" />
    <glyph glyph-name="caron" unicode="&#x2c7;" horiz-adv-x="233" 
d="M222 556h-70l-51 144h44l48 -106l92 106h49z" />
    <glyph glyph-name="uni02C9" unicode="&#x2c9;" horiz-adv-x="306" 
d="M382 591h-305l10 47h305z" />
    <glyph glyph-name="uni02CB" unicode="&#x2cb;" horiz-adv-x="186" 
d="M255 556h-52l-102 144h73z" />
    <glyph glyph-name="breve" unicode="&#x2d8;" horiz-adv-x="295" 
d="M377 619q-71 -74 -163 -74q-44 0 -78.5 20t-52.5 54l40 30q28 -57 99 -57t123 57z" />
    <glyph glyph-name="dotaccent" unicode="&#x2d9;" horiz-adv-x="108" 
d="M179 607q0 -21 -15.5 -36t-35.5 -15q-17 0 -29 11.5t-12 29.5q0 20 15.5 35t36.5 15q17 0 28.5 -11.5t11.5 -28.5z" />
    <glyph glyph-name="ring" unicode="&#x2da;" horiz-adv-x="181" 
d="M167 544q-36 0 -59 23.5t-23 59.5q0 40 30 70t70 30q36 0 59 -23.5t23 -59.5q0 -40 -29.5 -70t-70.5 -30zM170 582q24 0 41.5 17t17.5 42q0 21 -13 34.5t-33 13.5q-24 0 -42 -17.5t-18 -41.5q0 -21 13 -34.5t34 -13.5z" />
    <glyph glyph-name="ogonek" unicode="&#x2db;" horiz-adv-x="158" 
d="M44 -111l31 -23q-31 -52 -82 -52q-32 0 -52 17t-20 48q0 84 110 143l29 -22q-96 -50 -96 -115q0 -33 34 -33q29 0 46 37z" />
    <glyph glyph-name="tilde" unicode="&#x2dc;" horiz-adv-x="270" 
d="M262 554q-23 0 -37 14.5t-18.5 32.5t-14.5 32.5t-25 14.5q-35 0 -54 -88h-43q28 134 105 134q23 0 37 -14.5t19 -32t14.5 -32t24.5 -14.5q34 0 55 87h43q-30 -134 -106 -134z" />
    <glyph glyph-name="hungarumlaut" unicode="&#x2dd;" horiz-adv-x="268" 
d="M240 700l-128 -144h-45l107 144h66zM369 700l-128 -144h-45l107 144h66z" />
    <glyph glyph-name="hookabovecomb" unicode="&#x309;" horiz-adv-x="158" 
d="M212 733l-29 12q23 45 67 45q26 0 42 -14t16 -40q0 -39 -32 -69h-39q36 33 36 65q0 12 -7.5 19.5t-18.5 7.5q-22 0 -35 -26z" />
    <glyph glyph-name="uni037E" unicode="&#x37e;" horiz-adv-x="228" 
d="M125 40q0 -45 -33 -90.5t-80 -69.5l-30 32q28 14 51.5 37t31.5 47q-1 -1 -8 -1q-17 0 -29 12.5t-12 31.5q0 24 17.5 41t40.5 17q22 0 36.5 -15t14.5 -42zM152 383q-21 0 -35 14.5t-14 35.5q0 23 17.5 40t40.5 17q21 0 35 -14.5t14 -34.5q0 -24 -17 -41t-41 -17z" />
    <glyph glyph-name="tonos" unicode="&#x384;" 
d="M211 566h-37l64 199h75z" />
    <glyph glyph-name="dieresistonos" unicode="&#x385;" 
d="M313 566h-37l64 199h75zM485 608q0 -19 -15.5 -34t-35.5 -15q-17 0 -28.5 11.5t-11.5 28.5q0 19 15.5 34t35.5 15q17 0 28.5 -11.5t11.5 -28.5zM236 608q0 -19 -15.5 -34t-35.5 -15q-17 0 -28.5 11.5t-11.5 28.5q0 19 15.5 34t35.5 15q17 0 28.5 -11.5t11.5 -28.5z" />
    <glyph glyph-name="Alphatonos" unicode="&#x386;" horiz-adv-x="511" 
d="M167 566h-37l64 199h75zM449 0h-83l-10 151h-237l-76 -151h-89l347 667h95zM355 221l-23 358l-180 -358h203z" />
    <glyph glyph-name="Epsilontonos" unicode="&#x388;" horiz-adv-x="481" 
d="M100 566h-37l64 199h75zM379 0h-343l147 667h343l-15 -70h-264l-49 -221h257l-16 -70h-256l-52 -235h263z" />
    <glyph glyph-name="Etatonos" unicode="&#x389;" horiz-adv-x="594" 
d="M100 566h-37l64 199h75zM470 0h-80l68 308h-275l-67 -308h-80l147 667h80l-64 -289h275l63 289h80z" />
    <glyph glyph-name="Iotatonos" unicode="&#x38a;" horiz-adv-x="240" 
d="M100 566h-37l64 199h75zM116 0h-80l147 667h80z" />
    <glyph glyph-name="Omicrontonos" unicode="&#x38c;" horiz-adv-x="605" 
d="M127 566h-37l64 199h75zM277 -12q-101 0 -161.5 66t-60.5 175q0 105 37 206t111.5 172t167.5 71q100 0 161 -66.5t61 -174.5q0 -77 -22.5 -156t-62 -144.5t-100.5 -107t-131 -41.5zM282 59q62 0 116 58t83 144.5t29 174.5q0 80 -40 125.5t-105 45.5q-63 0 -116 -58.5
t-82 -145t-29 -174.5q0 -80 39 -125t105 -45z" />
    <glyph glyph-name="Upsilontonos" unicode="&#x38e;" horiz-adv-x="560" 
d="M96 566h-37l64 199h75zM296 0h-79l62 282l-121 385h84l89 -308l225 308h93l-291 -385z" />
    <glyph glyph-name="Omegatonos" unicode="&#x38f;" horiz-adv-x="600" 
d="M127 566h-37l64 199h75zM27 71h116q-80 70 -80 195q0 98 35.5 190.5t107.5 157t163 64.5q101 0 162.5 -60t61.5 -175q0 -125 -54.5 -223.5t-130.5 -148.5h97l-15 -71h-186l15 71q78 33 134 145t56 220q0 82 -37 126t-105 44q-66 0 -119.5 -58t-81 -142t-27.5 -170
q0 -113 74 -165l-15 -71h-186z" />
    <glyph glyph-name="iotadieresistonos" unicode="&#x390;" horiz-adv-x="214" 
d="M189 566h-37l64 199h75zM361 608q0 -19 -15.5 -34t-35.5 -15q-17 0 -28.5 11.5t-11.5 28.5q0 19 15.5 34t35.5 15q17 0 28.5 -11.5t11.5 -28.5zM112 608q0 -19 -15.5 -34t-35.5 -15q-17 0 -28.5 11.5t-11.5 28.5q0 19 15.5 34t35.5 15q17 0 28.5 -11.5t11.5 -28.5z
M104 -12q-95 0 -71 109l85 386h72l-84 -377q-11 -54 26 -54q13 0 18 1l-8 -61q-18 -4 -38 -4z" />
    <glyph glyph-name="Alpha" unicode="&#x391;" horiz-adv-x="511" 
d="M449 0h-83l-10 151h-237l-76 -151h-89l347 667h95zM355 221l-23 358l-180 -358h203z" />
    <glyph glyph-name="Beta" unicode="&#x392;" horiz-adv-x="516" 
d="M252 0h-236l147 667h198q68 0 110 -40t42 -104q0 -68 -40 -122.5t-100 -64.5q38 -11 60 -47.5t22 -79.5q0 -83 -53.5 -146t-149.5 -63zM178 376h135q57 0 86 42t29 93q0 39 -24.5 62.5t-63.5 23.5h-113zM247 71q58 0 92.5 42.5t34.5 101.5q0 43 -24.5 67t-68.5 24h-118
l-52 -235h136z" />
    <glyph glyph-name="Gamma" unicode="&#x393;" horiz-adv-x="451" 
d="M96 0h-80l147 667h343l-15 -70h-264z" />
    <glyph glyph-name="uni0394" unicode="&#x394;" horiz-adv-x="511" 
d="M449 0h-495l347 667h95zM364 71l-32 508l-257 -508h289z" />
    <glyph glyph-name="Epsilon" unicode="&#x395;" horiz-adv-x="461" 
d="M359 0h-343l147 667h343l-15 -70h-264l-49 -221h257l-16 -70h-256l-52 -235h263z" />
    <glyph glyph-name="Zeta" unicode="&#x396;" horiz-adv-x="462" 
d="M368 0h-382l15 67l391 530h-274l15 70h375l-14 -66l-394 -530h283z" />
    <glyph glyph-name="Eta" unicode="&#x397;" horiz-adv-x="574" 
d="M450 0h-80l68 308h-275l-67 -308h-80l147 667h80l-64 -289h275l63 289h80z" />
    <glyph glyph-name="Theta" unicode="&#x398;" horiz-adv-x="599" 
d="M438 306h-255l16 70h255zM272 -12q-101 0 -161.5 66t-60.5 175q0 105 37 206t111.5 172t167.5 71q100 0 161 -66.5t61 -174.5q0 -77 -22.5 -156t-62 -144.5t-100.5 -107t-131 -41.5zM277 59q62 0 116 58t83 144.5t29 174.5q0 80 -40 125.5t-105 45.5q-63 0 -116 -58.5
t-82 -145t-29 -174.5q0 -80 39 -125t105 -45z" />
    <glyph glyph-name="Iota" unicode="&#x399;" horiz-adv-x="220" 
d="M96 0h-80l147 667h80z" />
    <glyph glyph-name="Kappa" unicode="&#x39a;" horiz-adv-x="509" 
d="M442 0h-90l-134 298l-76 -84l-46 -214h-80l147 667h80l-74 -336l302 336h99l-293 -317z" />
    <glyph glyph-name="Lambda" unicode="&#x39b;" horiz-adv-x="511" 
d="M449 0h-83l-34 579l-289 -579h-89l347 667h95z" />
    <glyph glyph-name="Mu" unicode="&#x39c;" horiz-adv-x="683" 
d="M559 0h-78l118 536l-296 -536h-31l-58 536l-118 -536h-80l147 667h108l53 -486l270 486h112z" />
    <glyph glyph-name="Nu" unicode="&#x39d;" horiz-adv-x="572" 
d="M448 0h-77l-163 511l-112 -511h-80l147 667h80l161 -500l111 500h80z" />
    <glyph glyph-name="Xi" unicode="&#x39e;" horiz-adv-x="493" 
d="M523 597h-397l15 70h397zM391 0h-396l15 71h396zM452 306h-383l15 70h383z" />
    <glyph glyph-name="Omicron" unicode="&#x39f;" horiz-adv-x="599" 
d="M272 -12q-101 0 -161.5 66t-60.5 175q0 105 37 206t111.5 172t167.5 71q100 0 161 -66.5t61 -174.5q0 -77 -22.5 -156t-62 -144.5t-100.5 -107t-131 -41.5zM277 59q62 0 116 58t83 144.5t29 174.5q0 80 -40 125.5t-105 45.5q-63 0 -116 -58.5t-82 -145t-29 -174.5
q0 -80 39 -125t105 -45z" />
    <glyph glyph-name="Pi" unicode="&#x3a0;" horiz-adv-x="574" 
d="M450 0h-80l132 597h-275l-131 -597h-80l147 667h434z" />
    <glyph glyph-name="Rho" unicode="&#x3a1;" horiz-adv-x="487" 
d="M96 0h-80l147 667h187q71 0 114.5 -46t43.5 -116q0 -43 -14 -84t-40.5 -76t-73 -56.5t-104.5 -21.5h-122zM169 337h114q66 0 104 48.5t38 113.5q0 44 -25.5 71t-64.5 27h-108z" />
    <glyph glyph-name="Sigma" unicode="&#x3a3;" horiz-adv-x="429" 
d="M211 597l117 -259l-231 -267h252l-15 -71h-343l16 78l234 271l-116 254l14 64h342l-15 -70h-255z" />
    <glyph glyph-name="Tau" unicode="&#x3a4;" horiz-adv-x="446" 
d="M208 0h-79l132 597h-158l15 70h396l-15 -70h-159z" />
    <glyph glyph-name="Upsilon" unicode="&#x3a5;" horiz-adv-x="499" 
d="M235 0h-79l62 282l-121 385h84l89 -308l225 308h93l-291 -385z" />
    <glyph glyph-name="Phi" unicode="&#x3a6;" horiz-adv-x="695" 
d="M333 0h-79l15 67q-106 12 -158 69t-52 149q0 118 91 213t241 103l15 66h79l-16 -68q105 -12 157.5 -69.5t52.5 -148.5q0 -119 -91 -214t-241 -103zM143 285q0 -60 36 -99.5t106 -48.5l89 392q-109 -12 -170 -83t-61 -161zM595 381q0 60 -36 99t-106 48l-89 -391
q109 12 170 83t61 161z" />
    <glyph glyph-name="Chi" unicode="&#x3a7;" horiz-adv-x="510" 
d="M448 0h-87l-97 273l-213 -273h-97l275 345l-117 322h88l88 -259l198 259h98l-261 -331z" />
    <glyph glyph-name="Psi" unicode="&#x3a8;" horiz-adv-x="694" 
d="M333 0h-79l29 127q-189 20 -189 180q0 33 9 76l65 284h80l-67 -296q-7 -28 -7 -57q0 -49 31.5 -79.5t93.5 -37.5l107 470h79l-107 -470q161 17 196 174l68 296h80l-71 -312q-24 -103 -101 -163.5t-189 -67.5z" />
    <glyph glyph-name="uni03A9" unicode="&#x3a9;" horiz-adv-x="592" 
d="M18 71h116q-80 70 -80 195q0 98 35.5 190.5t107.5 157t163 64.5q101 0 162.5 -60t61.5 -175q0 -125 -54.5 -223.5t-130.5 -148.5h97l-15 -71h-186l15 71q78 33 134 145t56 220q0 82 -37 126t-105 44q-66 0 -119.5 -58t-81 -142t-27.5 -170q0 -113 74 -165l-15 -71h-186z
" />
    <glyph glyph-name="Iotadieresis" unicode="&#x3aa;" horiz-adv-x="220" 
d="M96 0h-80l147 667h80zM362 792q0 -20 -15 -34.5t-35 -14.5q-17 0 -28.5 11.5t-11.5 28.5q0 19 15 34t35 15q17 0 28.5 -11.5t11.5 -28.5zM189 792q0 -19 -15.5 -34t-35.5 -15q-17 0 -28.5 11.5t-11.5 28.5q0 19 15.5 34t35.5 15q17 0 28.5 -11.5t11.5 -28.5z" />
    <glyph glyph-name="Upsilondieresis" unicode="&#x3ab;" horiz-adv-x="499" 
d="M235 0h-79l62 282l-121 385h84l89 -308l225 308h93l-291 -385zM502 792q0 -20 -15 -34.5t-35 -14.5q-17 0 -28.5 11.5t-11.5 28.5q0 19 15 34t35 15q17 0 28.5 -11.5t11.5 -28.5zM329 792q0 -19 -15.5 -34t-35.5 -15q-17 0 -28.5 11.5t-11.5 28.5q0 19 15.5 34t35.5 15
q17 0 28.5 -11.5t11.5 -28.5z" />
    <glyph glyph-name="alphatonos" unicode="&#x3ac;" horiz-adv-x="491" 
d="M325 566h-37l64 199h75zM427 53l-8 -61q-18 -4 -37 -4q-83 0 -75 85q-56 -85 -134 -85q-65 0 -103.5 45.5t-38.5 125.5q0 73 24.5 148.5t77 131.5t119.5 56q43 0 76.5 -22t51.5 -63l16 73h71l-83 -377q-13 -54 25 -54q13 0 18 1zM202 52q33 0 64.5 23.5t51.5 57.5l49 218
q-11 35 -39.5 57.5t-65.5 22.5q-45 0 -82 -45t-55 -104.5t-18 -112.5q0 -56 25 -86.5t70 -30.5z" />
    <glyph glyph-name="epsilontonos" unicode="&#x3ad;" horiz-adv-x="432" 
d="M305 566h-37l64 199h75zM180 -12q-83 0 -124.5 33t-41.5 87q0 57 46 95t100 45q-36 7 -60.5 33.5t-24.5 63.5q0 67 60 108.5t145 41.5q113 0 161 -78l-47 -40q-35 59 -114 59q-56 0 -95 -26.5t-39 -68.5q0 -32 26.5 -49.5t69.5 -17.5h89l-13 -59h-90q-59 0 -99 -22.5
t-40 -74.5q0 -32 26 -51.5t72 -19.5q84 0 153 64l30 -46q-82 -77 -190 -77z" />
    <glyph glyph-name="etatonos" unicode="&#x3ae;" 
d="M318 566h-37l64 199h75zM304 -184h-72l118 528q0 1 2 12.5t2 16.5q0 58 -69 58q-32 0 -65.5 -23t-58.5 -56l-78 -352h-71l107 483h71l-15 -67q69 79 144 79q51 0 81 -25.5t30 -71.5q0 -14 -5 -36z" />
    <glyph glyph-name="iotatonos" unicode="&#x3af;" horiz-adv-x="214" 
d="M191 566h-37l64 199h75zM104 -12q-95 0 -71 109l85 386h72l-84 -377q-11 -54 26 -54q13 0 18 1l-8 -61q-18 -4 -38 -4z" />
    <glyph glyph-name="upsilondieresistonos" unicode="&#x3b0;" horiz-adv-x="471" 
d="M327 566h-37l64 199h75zM499 608q0 -19 -15.5 -34t-35.5 -15q-17 0 -28.5 11.5t-11.5 28.5q0 19 15.5 34t35.5 15q17 0 28.5 -11.5t11.5 -28.5zM250 608q0 -19 -15.5 -34t-35.5 -15q-17 0 -28.5 11.5t-11.5 28.5q0 19 15.5 34t35.5 15q17 0 28.5 -11.5t11.5 -28.5z
M191 -12q-87 0 -122.5 54.5t-14.5 145.5l66 295h71l-66 -299q-30 -132 70 -132q72 0 123 83t51 195q0 81 -26 139l69 25q30 -64 30 -160q0 -86 -29 -164t-88 -130t-134 -52z" />
    <glyph glyph-name="alpha" unicode="&#x3b1;" horiz-adv-x="491" 
d="M427 53l-8 -61q-18 -4 -37 -4q-83 0 -75 85q-56 -85 -134 -85q-65 0 -103.5 45.5t-38.5 125.5q0 73 24.5 148.5t77 131.5t119.5 56q43 0 76.5 -22t51.5 -63l16 73h71l-83 -377q-13 -54 25 -54q13 0 18 1zM202 52q33 0 64.5 23.5t51.5 57.5l49 218q-11 35 -39.5 57.5
t-65.5 22.5q-45 0 -82 -45t-55 -104.5t-18 -112.5q0 -56 25 -86.5t70 -30.5z" />
    <glyph glyph-name="beta" unicode="&#x3b2;" horiz-adv-x="480" 
d="M224 -12q-94 0 -126 80l-56 -252h-71l143 644q25 113 87 165t138 52q70 0 109.5 -35t39.5 -102q0 -72 -44.5 -126t-107.5 -69q38 -9 64.5 -43t26.5 -89q0 -94 -60 -159.5t-143 -65.5zM185 457l-73 -328q8 -33 34.5 -55t64.5 -22q63 0 102.5 49.5t39.5 113.5q0 47 -26 71
t-69 24h-26l14 64h24q59 0 99.5 43t40.5 112q0 40 -21 62t-59 22q-47 0 -87 -38.5t-58 -117.5z" />
    <glyph glyph-name="gamma" unicode="&#x3b3;" horiz-adv-x="408" 
d="M145 -184h-72l31 141q32 158 16.5 291.5t-70.5 234.5h82q38 -79 53 -182t0 -203q59 76 109 181.5t72 203.5h71q-26 -117 -94 -245t-156 -233z" />
    <glyph glyph-name="delta" unicode="&#x3b4;" horiz-adv-x="477" 
d="M203 -12q-85 0 -129.5 50.5t-44.5 128.5q0 85 47.5 152.5t130.5 112.5q-55 41 -55 101q0 61 51.5 103.5t127.5 42.5q97 0 141 -62l-44 -45q-31 49 -102 49q-44 0 -73.5 -24.5t-29.5 -58.5q0 -24 22 -44.5t53.5 -39t62.5 -42.5t53 -65.5t22 -96.5q0 -93 -65 -177.5
t-168 -84.5zM365 244q0 38 -17 68.5t-36 46t-52 36.5q-67 -29 -110.5 -88t-43.5 -134q0 -52 26.5 -86.5t77.5 -34.5q67 0 111 62.5t44 129.5z" />
    <glyph glyph-name="epsilon" unicode="&#x3b5;" horiz-adv-x="432" 
d="M180 -12q-83 0 -124.5 33t-41.5 87q0 57 46 95t100 45q-36 7 -60.5 33.5t-24.5 63.5q0 67 60 108.5t145 41.5q113 0 161 -78l-47 -40q-35 59 -114 59q-56 0 -95 -26.5t-39 -68.5q0 -32 26.5 -49.5t69.5 -17.5h89l-13 -59h-90q-59 0 -99 -22.5t-40 -74.5q0 -32 26 -51.5
t72 -19.5q84 0 153 64l30 -46q-82 -77 -190 -77z" />
    <glyph glyph-name="zeta" unicode="&#x3b6;" horiz-adv-x="403" 
d="M235 -37q0 25 -39 25q-79 0 -124.5 45.5t-45.5 118.5q0 106 83.5 223t253.5 229h-228l14 63h312l-13 -55q-159 -103 -251.5 -219t-92.5 -227q0 -51 31 -82.5t88 -31.5q88 0 88 -62q0 -54 -74 -147h-79q77 83 77 120z" />
    <glyph glyph-name="eta" unicode="&#x3b7;" 
d="M304 -184h-72l118 528q0 1 2 12.5t2 16.5q0 58 -69 58q-32 0 -65.5 -23t-58.5 -56l-78 -352h-71l107 483h71l-15 -67q69 79 144 79q51 0 81 -25.5t30 -71.5q0 -14 -5 -36z" />
    <glyph glyph-name="theta" unicode="&#x3b8;" horiz-adv-x="477" 
d="M207 -12q-78 0 -121.5 57.5t-43.5 164.5q0 105 32.5 211t96.5 182t143 76q78 0 120.5 -58t42.5 -165q0 -105 -32 -211t-95.5 -181.5t-142.5 -75.5zM211 52q55 0 99.5 73.5t70.5 178.5h-255q-11 -63 -11 -109q0 -143 96 -143zM308 615q-54 0 -98 -72t-71 -176h255
q10 63 10 104q0 144 -96 144z" />
    <glyph glyph-name="iota" unicode="&#x3b9;" horiz-adv-x="214" 
d="M104 -12q-95 0 -71 109l85 386h72l-84 -377q-11 -54 26 -54q13 0 18 1l-8 -61q-18 -4 -38 -4z" />
    <glyph glyph-name="kappa" unicode="&#x3ba;" horiz-adv-x="438" 
d="M369 0h-82l-86 221l-89 -90l-29 -131h-71l107 483h71l-57 -257l255 257h88l-217 -217z" />
    <glyph glyph-name="lambda" unicode="&#x3bb;" horiz-adv-x="408" 
d="M137 608l2 64q23 7 49 7q45 -1 69.5 -22.5t30.5 -71.5l60 -585h-75l-31 396l-210 -396h-80l272 493l-8 74q-4 27 -14 37.5t-32 10.5q-20 0 -33 -7z" />
    <glyph glyph-name="uni03BC" unicode="&#x3bc;" horiz-adv-x="476" 
d="M88 23l-46 -207h-72l149 667h72l-77 -344q-10 -44 7 -66.5t52 -22.5q33 0 68 22.5t60 54.5l79 356h72l-84 -377q-13 -54 26 -54q13 0 18 1l-8 -61q-18 -4 -38 -4q-80 0 -72 85q-28 -38 -65.5 -61.5t-73.5 -23.5q-49 0 -67 35z" />
    <glyph glyph-name="nu" unicode="&#x3bd;" horiz-adv-x="408" 
d="M183 0h-73l-50 483h78l32 -406q69 89 121.5 197.5t74.5 208.5h71q-26 -118 -95 -247.5t-159 -235.5z" />
    <glyph glyph-name="xi" unicode="&#x3be;" horiz-adv-x="403" 
d="M201 -12q-88 0 -134 40.5t-46 108.5q0 78 45.5 129.5t112.5 67.5q-35 8 -58 37t-23 73q0 49 34.5 92t88.5 68h-83l15 63h299l-15 -63h-149q-48 -18 -80 -58t-32 -85q0 -42 27 -64.5t71 -22.5h106l-14 -63h-104q-69 0 -115.5 -41.5t-46.5 -116.5q0 -44 31.5 -72.5
t91.5 -28.5q88 0 88 -62q0 -54 -74 -147h-74q72 82 72 120q0 25 -34 25z" />
    <glyph glyph-name="omicron" unicode="&#x3bf;" horiz-adv-x="477" 
d="M205 -12q-81 0 -127 49t-46 137q0 75 28 147.5t84.5 123t125.5 50.5q81 0 127 -49t46 -137q0 -75 -28 -147.5t-84.5 -123t-125.5 -50.5zM208 52q68 0 114.5 85t46.5 171q0 60 -27 91.5t-75 31.5q-46 0 -84 -43.5t-57.5 -102t-19.5 -111.5q0 -60 27 -91t75 -31z" />
    <glyph glyph-name="pi" unicode="&#x3c0;" horiz-adv-x="494" 
d="M360 0h-72l94 420h-190l-94 -420h-72l94 420h-64l14 63h463l-15 -63h-64z" />
    <glyph glyph-name="rho" unicode="&#x3c1;" horiz-adv-x="478" 
d="M227 -12q-43 0 -76.5 22t-51.5 63l-57 -257h-71l94 426q25 112 85.5 182.5t145.5 70.5q73 0 112 -49t39 -127q0 -70 -24.5 -144.5t-77 -130.5t-118.5 -56zM217 52q45 0 82 45t55 104.5t18 112.5q0 54 -22 85.5t-62 31.5q-54 0 -93.5 -52.5t-57.5 -136.5l-25 -110
q10 -34 39 -57t66 -23z" />
    <glyph glyph-name="sigma1" unicode="&#x3c2;" horiz-adv-x="396" 
d="M196 -12q-71 0 -117 50.5t-46 140.5q0 75 29 146.5t85.5 120.5t126.5 49q97 0 141 -70l-48 -46q-28 52 -91 52q-75 0 -122 -81t-47 -170q0 -63 31.5 -95.5t86.5 -32.5q85 0 85 -62q0 -54 -74 -147h-75q77 81 77 120q0 25 -42 25z" />
    <glyph glyph-name="sigma" unicode="&#x3c3;" horiz-adv-x="477" 
d="M438 295q0 -69 -27 -138t-82 -119t-124 -50q-81 0 -126.5 49t-45.5 137q0 74 30.5 143.5t93.5 117.5t143 48h211l-15 -64h-98q40 -48 40 -124zM368 300q0 84 -41 119h-36q-83 0 -133.5 -79t-50.5 -166q0 -60 26.5 -91t74.5 -31q46 0 84 43t57 99t19 106z" />
    <glyph glyph-name="tau" unicode="&#x3c4;" horiz-adv-x="369" 
d="M202 -12q-51 0 -74 27t-11 83l71 322h-127l14 63h327l-14 -63h-128l-69 -312q-13 -56 33 -56q23 0 41 16l10 -55q-30 -25 -73 -25z" />
    <glyph glyph-name="upsilon" unicode="&#x3c5;" horiz-adv-x="471" 
d="M191 -12q-87 0 -122.5 54.5t-14.5 145.5l66 295h71l-66 -299q-30 -132 70 -132q72 0 123 83t51 195q0 81 -26 139l69 25q30 -64 30 -160q0 -86 -29 -164t-88 -130t-134 -52z" />
    <glyph glyph-name="phi" unicode="&#x3c6;" horiz-adv-x="637" 
d="M604 291q0 -51 -19 -102t-55.5 -95t-97 -73t-134.5 -32l-38 -173h-72l39 175q-97 12 -144.5 66t-47.5 140q0 96 56.5 175t161.5 123l19 -56q-77 -35 -119 -98.5t-42 -140.5q0 -128 130 -146l98 441h36q112 0 170.5 -56t58.5 -148zM396 429l-83 -376q58 6 102 32.5
t67.5 63.5t34.5 72t11 67q0 61 -32.5 99t-99.5 42z" />
    <glyph glyph-name="chi" unicode="&#x3c7;" horiz-adv-x="406" 
d="M299 -184h-75l-53 270l-174 -270h-80l223 340l-66 327h74l49 -256l163 256h80l-213 -327z" />
    <glyph glyph-name="psi" unicode="&#x3c8;" horiz-adv-x="638" 
d="M260 -184h-72l39 175q-174 19 -174 161q0 32 10 80l57 251h71l-58 -261q-8 -36 -8 -63q0 -92 116 -105l137 613h72l-137 -614q148 15 183 166l58 264h72l-62 -275q-22 -102 -91 -158t-175 -61z" />
    <glyph glyph-name="omega" unicode="&#x3c9;" horiz-adv-x="692" 
d="M661 320q0 -74 -26 -149t-76.5 -129t-112.5 -54q-119 0 -124 131q-59 -131 -159 -131q-65 0 -99 48.5t-34 127.5q0 94 47.5 189t124.5 142l44 -45q-66 -41 -104 -121t-38 -163q0 -114 72 -114q47 0 81.5 54t52.5 136l27 123h72l-27 -123q-20 -74 -6 -132t66 -58
q42 0 76.5 45t52 105.5t17.5 114.5q0 97 -43 139l57 39q28 -25 43.5 -73t15.5 -102z" />
    <glyph glyph-name="iotadieresis" unicode="&#x3ca;" horiz-adv-x="214" 
d="M315 608q0 -20 -15 -34.5t-35 -14.5q-17 0 -28.5 11.5t-11.5 28.5q0 19 15 34t35 15q17 0 28.5 -11.5t11.5 -28.5zM142 608q0 -19 -15.5 -34t-35.5 -15q-17 0 -28.5 11.5t-11.5 28.5q0 19 15.5 34t35.5 15q17 0 28.5 -11.5t11.5 -28.5zM104 -12q-95 0 -71 109l85 386h72
l-84 -377q-11 -54 26 -54q13 0 18 1l-8 -61q-18 -4 -38 -4z" />
    <glyph glyph-name="upsilondieresis" unicode="&#x3cb;" horiz-adv-x="471" 
d="M454 608q0 -20 -15 -34.5t-35 -14.5q-17 0 -28.5 11.5t-11.5 28.5q0 19 15 34t35 15q17 0 28.5 -11.5t11.5 -28.5zM281 608q0 -19 -15.5 -34t-35.5 -15q-17 0 -28.5 11.5t-11.5 28.5q0 19 15.5 34t35.5 15q17 0 28.5 -11.5t11.5 -28.5zM191 -12q-87 0 -122.5 54.5
t-14.5 145.5l66 295h71l-66 -299q-30 -132 70 -132q72 0 123 83t51 195q0 81 -26 139l69 25q30 -64 30 -160q0 -86 -29 -164t-88 -130t-134 -52z" />
    <glyph glyph-name="omicrontonos" unicode="&#x3cc;" horiz-adv-x="477" 
d="M324 566h-37l64 199h75zM205 -12q-81 0 -127 49t-46 137q0 75 28 147.5t84.5 123t125.5 50.5q81 0 127 -49t46 -137q0 -75 -28 -147.5t-84.5 -123t-125.5 -50.5zM208 52q68 0 114.5 85t46.5 171q0 60 -27 91.5t-75 31.5q-46 0 -84 -43.5t-57.5 -102t-19.5 -111.5
q0 -60 27 -91t75 -31z" />
    <glyph glyph-name="upsilontonos" unicode="&#x3cd;" horiz-adv-x="471" 
d="M329 566h-37l64 199h75zM191 -12q-87 0 -122.5 54.5t-14.5 145.5l66 295h71l-66 -299q-30 -132 70 -132q72 0 123 83t51 195q0 81 -26 139l69 25q30 -64 30 -160q0 -86 -29 -164t-88 -130t-134 -52z" />
    <glyph glyph-name="omegatonos" unicode="&#x3ce;" horiz-adv-x="692" 
d="M432 566h-37l64 199h75zM661 320q0 -74 -26 -149t-76.5 -129t-112.5 -54q-119 0 -124 131q-59 -131 -159 -131q-65 0 -99 48.5t-34 127.5q0 94 47.5 189t124.5 142l44 -45q-66 -41 -104 -121t-38 -163q0 -114 72 -114q47 0 81.5 54t52.5 136l27 123h72l-27 -123
q-20 -74 -6 -132t66 -58q42 0 76.5 45t52 105.5t17.5 114.5q0 97 -43 139l57 39q28 -25 43.5 -73t15.5 -102z" />
    <glyph glyph-name="afii10023" unicode="&#x401;" horiz-adv-x="461" 
d="M489 775q0 -20 -15 -34.5t-35 -14.5q-17 0 -28.5 11.5t-11.5 28.5q0 19 15 34t35 15q17 0 28.5 -11.5t11.5 -28.5zM316 775q0 -19 -15.5 -34t-35.5 -15q-17 0 -28.5 11.5t-11.5 28.5q0 19 15.5 34t35.5 15q17 0 28.5 -11.5t11.5 -28.5zM359 0h-343l147 667h343l-15 -70
h-264l-49 -221h257l-16 -70h-256l-52 -235h263z" />
    <glyph glyph-name="afii10051" unicode="&#x402;" horiz-adv-x="623" 
d="M331 -12l15 71q51 0 87.5 32t50.5 95l7 31q14 65 -11.5 102.5t-87.5 37.5q-56 0 -109 -15l-74 -342h-80l132 597h-159l15 70h396l-15 -70h-158l-41 -185q62 15 117 15q97 0 135.5 -59t18.5 -151l-7 -31q-22 -100 -85.5 -149t-146.5 -49z" />
    <glyph glyph-name="afii10052" unicode="&#x403;" horiz-adv-x="451" 
d="M526 867l-166 -144h-54l145 144h75zM96 0h-80l147 667h343l-15 -70h-264z" />
    <glyph glyph-name="afii10053" unicode="&#x404;" horiz-adv-x="533" 
d="M272 -12q-100 0 -161 64.5t-61 176.5q0 108 38.5 210t113 170.5t164.5 68.5q78 0 128.5 -42.5t72.5 -112.5l-75 -23q-35 107 -132 107q-67 0 -122 -66t-84 -165h281l-16 -70h-280q-6 -39 -6 -77q0 -81 38 -125.5t106 -44.5q71 0 136 81l61 -38q-83 -114 -202 -114z" />
    <glyph glyph-name="afii10054" unicode="&#x405;" horiz-adv-x="470" 
d="M205 -12q-65 0 -121 26.5t-84 67.5l52 58q25 -37 67 -59t90 -22q58 0 92 37t34 91q0 27 -17.5 51.5t-43.5 41.5t-56.5 38.5t-56.5 42t-43.5 53t-17.5 70.5q0 80 60 137t146 57q56 0 105 -21.5t77 -58.5l-50 -57q-49 66 -138 66q-49 0 -82.5 -33.5t-33.5 -78.5
q0 -25 17.5 -48t43.5 -40t56.5 -38.5t56.5 -43t43.5 -54.5t17.5 -72q0 -87 -59 -149t-155 -62z" />
    <glyph glyph-name="afii10055" unicode="&#x406;" horiz-adv-x="220" 
d="M96 0h-80l147 667h80z" />
    <glyph glyph-name="afii10056" unicode="&#x407;" horiz-adv-x="220" 
d="M359 775q0 -20 -15 -34.5t-35 -14.5q-17 0 -28.5 11.5t-11.5 28.5q0 19 15 34t35 15q17 0 28.5 -11.5t11.5 -28.5zM186 775q0 -19 -15.5 -34t-35.5 -15q-17 0 -28.5 11.5t-11.5 28.5q0 19 15.5 34t35.5 15q17 0 28.5 -11.5t11.5 -28.5zM96 0h-80l147 667h80z" />
    <glyph glyph-name="afii10057" unicode="&#x408;" horiz-adv-x="398" 
d="M117 -12q-101 0 -146 67l43 59q32 -55 98 -55q96 0 121 114l109 494h79l-109 -496q-41 -183 -195 -183z" />
    <glyph glyph-name="afii10058" unicode="&#x409;" horiz-adv-x="841" 
d="M-31 -12l15 71q35 0 60 17.5t55 75t64 164.5l109 351h324l-58 -267h111q79 0 119.5 -50.5t33.5 -127.5q-7 -90 -66.5 -156t-163.5 -66h-201l131 597h-173l-89 -285q-26 -83 -52.5 -142t-51 -94.5t-53.5 -55t-54.5 -26t-59.5 -6.5zM634 330h-112l-57 -259h113
q59 0 97 41.5t44 103.5q6 51 -17 82.5t-68 31.5z" />
    <glyph glyph-name="afii10059" unicode="&#x40a;" horiz-adv-x="841" 
d="M574 0h-207l68 308h-276l-67 -308h-79l146 667h79l-63 -289h275l63 289h79l-63 -289h118q77 0 116 -48t33 -122q-8 -84 -65.5 -146t-156.5 -62zM632 308h-118l-53 -237h120q54 0 90 38t42 93q6 48 -16 77t-65 29z" />
    <glyph glyph-name="afii10060" unicode="&#x40b;" horiz-adv-x="630" 
d="M440 0l46 213q15 69 -8.5 106.5t-85.5 37.5q-56 0 -109 -15l-74 -342h-80l132 597h-159l15 70h396l-15 -70h-158l-41 -185q62 15 117 15q97 0 134 -59t16 -155l-47 -213h-79z" />
    <glyph glyph-name="afii10061" unicode="&#x40c;" horiz-adv-x="509" 
d="M539 867l-166 -144h-54l145 144h75zM442 0h-90l-134 298l-76 -84l-46 -214h-80l147 667h80l-74 -336l302 336h99l-293 -317z" />
    <glyph glyph-name="afii10062" unicode="&#x40e;" horiz-adv-x="499" 
d="M55 -12q-66 0 -97 38l42 65q24 -31 64 -31q28 0 47.5 15.5t45.5 53.5l33 56l-94 482h84l71 -394l245 394h91l-360 -568q-37 -57 -77 -84t-95 -27zM507 786q-71 -74 -163 -74q-44 0 -78.5 20t-52.5 54l40 30q28 -57 99 -57t123 57z" />
    <glyph glyph-name="afii10145" unicode="&#x40f;" horiz-adv-x="574" 
d="M165 -128l28 128h-177l147 667h79l-131 -596h275l131 596h79l-146 -667h-178l-28 -128h-79z" />
    <glyph glyph-name="afii10017" unicode="&#x410;" horiz-adv-x="511" 
d="M449 0h-83l-10 151h-237l-76 -151h-89l347 667h95zM355 221l-23 358l-180 -358h203z" />
    <glyph glyph-name="afii10018" unicode="&#x411;" horiz-adv-x="487" 
d="M163 667h347l-15 -70h-268l-44 -197h108q71 0 114.5 -46t43.5 -116q0 -43 -13.5 -84t-40.5 -76t-73 -56.5t-104 -21.5h-202zM276 330h-108l-57 -259h113q67 0 104.5 48t37.5 113q0 44 -25.5 71t-64.5 27z" />
    <glyph glyph-name="afii10019" unicode="&#x412;" horiz-adv-x="516" 
d="M252 0h-236l147 667h198q68 0 110 -40t42 -104q0 -68 -40 -122.5t-100 -64.5q38 -11 60 -47.5t22 -79.5q0 -83 -53.5 -146t-149.5 -63zM178 376h135q57 0 86 42t29 93q0 39 -24.5 62.5t-63.5 23.5h-113zM247 71q58 0 92.5 42.5t34.5 101.5q0 43 -24.5 67t-68.5 24h-118
l-52 -235h136z" />
    <glyph glyph-name="afii10020" unicode="&#x413;" horiz-adv-x="451" 
d="M96 0h-80l147 667h343l-15 -70h-264z" />
    <glyph glyph-name="afii10021" unicode="&#x414;" horiz-adv-x="589" 
d="M-56 -123l40 187q37 5 60.5 20t55 72.5t65.5 167.5l107 343h324l-132 -596h61l-43 -194h-79l27 123h-381l-27 -123h-78zM329 597l-88 -279q-59 -188 -137 -247h281l117 526h-173z" />
    <glyph glyph-name="afii10022" unicode="&#x415;" horiz-adv-x="461" 
d="M359 0h-343l147 667h343l-15 -70h-264l-49 -221h257l-16 -70h-256l-52 -235h263z" />
    <glyph glyph-name="afii10024" unicode="&#x416;" horiz-adv-x="742" 
d="M58 0h-100l319 350l-154 317h88l143 -318l70 318h79l-66 -300l267 300h100l-293 -317l165 -350h-90l-132 299l-43 -49l-55 -250h-79l55 251l-17 39z" />
    <glyph glyph-name="afii10025" unicode="&#x417;" horiz-adv-x="487" 
d="M212 -12q-75 0 -132.5 36t-78.5 100l63 41q17 -51 56 -78.5t90 -27.5q62 0 100 46t38 107q0 46 -31 70.5t-86 24.5h-94l16 70h110q62 0 103 39.5t41 98.5q0 41 -31 66t-84 25q-81 0 -138 -68l-40 50q33 40 82.5 64.5t104.5 24.5q85 0 137 -40t52 -110t-50.5 -124.5
t-115.5 -63.5q48 -11 76 -47.5t28 -85.5q0 -88 -62 -153t-154 -65z" />
    <glyph glyph-name="afii10026" unicode="&#x418;" horiz-adv-x="572" 
d="M93 0h-77l147 667h80l-111 -500l383 500h80l-147 -667h-80l113 511z" />
    <glyph glyph-name="afii10027" unicode="&#x419;" horiz-adv-x="572" 
d="M93 0h-77l147 667h80l-111 -500l383 500h80l-147 -667h-80l113 511zM548 786q-71 -74 -163 -74q-44 0 -78.5 20t-52.5 54l40 30q28 -57 99 -57t123 57z" />
    <glyph glyph-name="afii10028" unicode="&#x41a;" horiz-adv-x="509" 
d="M442 0h-90l-134 298l-76 -84l-46 -214h-80l147 667h80l-74 -336l302 336h99l-293 -317z" />
    <glyph glyph-name="afii10029" unicode="&#x41b;" horiz-adv-x="574" 
d="M-32 -12l16 71q35 0 60 17.5t55 75.5t64 166l109 349h324l-146 -667h-80l131 597h-172l-89 -285q-26 -83 -52.5 -142t-51 -94.5t-53.5 -55t-55 -26t-60 -6.5z" />
    <glyph glyph-name="afii10030" unicode="&#x41c;" horiz-adv-x="683" 
d="M559 0h-78l118 536l-296 -536h-31l-58 536l-118 -536h-80l147 667h108l53 -486l270 486h112z" />
    <glyph glyph-name="afii10031" unicode="&#x41d;" horiz-adv-x="574" 
d="M450 0h-80l68 308h-275l-67 -308h-80l147 667h80l-64 -289h275l63 289h80z" />
    <glyph glyph-name="afii10032" unicode="&#x41e;" horiz-adv-x="599" 
d="M272 -12q-101 0 -161.5 66t-60.5 175q0 105 37 206t111.5 172t167.5 71q100 0 161 -66.5t61 -174.5q0 -77 -22.5 -156t-62 -144.5t-100.5 -107t-131 -41.5zM277 59q62 0 116 58t83 144.5t29 174.5q0 80 -40 125.5t-105 45.5q-63 0 -116 -58.5t-82 -145t-29 -174.5
q0 -80 39 -125t105 -45z" />
    <glyph glyph-name="afii10033" unicode="&#x41f;" horiz-adv-x="574" 
d="M450 0h-80l132 597h-275l-131 -597h-80l147 667h434z" />
    <glyph glyph-name="afii10034" unicode="&#x420;" horiz-adv-x="487" 
d="M96 0h-80l147 667h187q71 0 114.5 -46t43.5 -116q0 -43 -14 -84t-40.5 -76t-73 -56.5t-104.5 -21.5h-122zM169 337h114q66 0 104 48.5t38 113.5q0 44 -25.5 71t-64.5 27h-108z" />
    <glyph glyph-name="afii10035" unicode="&#x421;" horiz-adv-x="533" 
d="M272 -12q-100 0 -161 64.5t-61 176.5q0 108 38.5 210t113 170.5t164.5 68.5q78 0 128.5 -42.5t72.5 -112.5l-75 -23q-35 107 -132 107q-61 0 -114.5 -58.5t-83 -145.5t-29.5 -174q0 -81 38 -125.5t106 -44.5q71 0 136 81l61 -38q-83 -114 -202 -114z" />
    <glyph glyph-name="afii10036" unicode="&#x422;" horiz-adv-x="446" 
d="M208 0h-79l132 597h-158l15 70h396l-15 -70h-159z" />
    <glyph glyph-name="afii10037" unicode="&#x423;" horiz-adv-x="499" 
d="M55 -12q-66 0 -97 38l42 65q24 -31 64 -31q28 0 47.5 15.5t45.5 53.5l33 56l-94 482h84l71 -394l245 394h91l-360 -568q-37 -57 -77 -84t-95 -27z" />
    <glyph glyph-name="afii10038" unicode="&#x424;" horiz-adv-x="695" 
d="M333 0h-79l15 67q-106 12 -158 69t-52 149q0 118 91 213t241 103l15 66h79l-16 -68q105 -12 157.5 -69.5t52.5 -148.5q0 -119 -91 -214t-241 -103zM143 285q0 -60 36 -99.5t106 -48.5l89 392q-109 -12 -170 -83t-61 -161zM595 381q0 60 -36 99t-106 48l-89 -391
q109 12 170 83t61 161z" />
    <glyph glyph-name="afii10039" unicode="&#x425;" horiz-adv-x="510" 
d="M448 0h-87l-97 273l-213 -273h-97l275 345l-117 322h88l88 -259l198 259h98l-261 -331z" />
    <glyph glyph-name="afii10040" unicode="&#x426;" horiz-adv-x="589" 
d="M403 -123l27 123h-414l147 667h79l-131 -596h275l131 596h79l-131 -596h60l-43 -194h-79z" />
    <glyph glyph-name="afii10041" unicode="&#x427;" horiz-adv-x="513" 
d="M224 667l-40 -186q-15 -68 9 -106t85 -38q56 0 108 15l70 315h79l-146 -667h-80l62 282q-64 -15 -117 -15q-97 0 -134 59t-15 155l40 186h79z" />
    <glyph glyph-name="afii10042" unicode="&#x428;" horiz-adv-x="794" 
d="M737 667h79l-147 -667h-652l146 667h79l-131 -596h208l131 596h79l-131 -596h208z" />
    <glyph glyph-name="afii10043" unicode="&#x429;" horiz-adv-x="809" 
d="M737 667h79l-132 -596h59l-42 -194h-79l26 123h-631l146 667h79l-131 -596h208l131 596h79l-131 -596h208z" />
    <glyph glyph-name="afii10044" unicode="&#x42a;" horiz-adv-x="600" 
d="M331 0h-202l131 597h-158l15 70h238l-59 -267h108q71 0 114.5 -46t43.5 -116q0 -59 -23 -111t-77 -89.5t-131 -37.5zM389 330h-108l-58 -259h113q67 0 105 48t38 113q0 44 -25.5 71t-64.5 27z" />
    <glyph glyph-name="afii10045" unicode="&#x42b;" horiz-adv-x="675" 
d="M551 0h-79l146 667h79zM163 667h79l-59 -267h108q71 0 114.5 -46t43.5 -116q0 -43 -13.5 -84t-40.5 -76t-73 -56.5t-104 -21.5h-202zM276 330h-108l-57 -259h112q67 0 105 48t38 113q0 44 -25.5 71t-64.5 27z" />
    <glyph glyph-name="afii10046" unicode="&#x42c;" horiz-adv-x="487" 
d="M163 667h79l-59 -267h108q71 0 114.5 -46t43.5 -116q0 -43 -13.5 -84t-40.5 -76t-73 -56.5t-104 -21.5h-202zM276 330h-108l-57 -259h112q67 0 105 48t38 113q0 44 -25.5 71t-64.5 27z" />
    <glyph glyph-name="afii10047" unicode="&#x42d;" horiz-adv-x="533" 
d="M300 678q100 0 161 -64.5t61 -176.5q0 -108 -38.5 -210t-113 -170.5t-164.5 -68.5q-78 0 -128.5 42.5t-72.5 112.5l75 23q35 -107 132 -107q69 0 126 71.5t84 175.5h-280l16 70h277q4 40 4 61q0 81 -38 125.5t-106 44.5q-71 0 -136 -81l-61 38q83 114 202 114z" />
    <glyph glyph-name="afii10048" unicode="&#x42e;" horiz-adv-x="803" 
d="M473 -12q-101 0 -161.5 66t-60.5 175q0 45 5 79h-93l-67 -308h-80l147 667h79l-64 -289h93q33 127 111.5 213.5t184.5 86.5q100 0 161 -66.5t61 -174.5q0 -77 -22.5 -156t-62 -144.5t-100.5 -107t-131 -41.5zM478 59q62 0 116 58t83 144.5t29 174.5q0 80 -40 125.5
t-105 45.5q-63 0 -116 -58.5t-82 -145t-29 -174.5q0 -80 39 -125t105 -45z" />
    <glyph glyph-name="afii10049" unicode="&#x42f;" horiz-adv-x="509" 
d="M88 0h-97l203 281q-39 15 -67.5 53t-28.5 95q0 95 60.5 166.5t172.5 71.5h200l-147 -667h-79l59 267h-89zM274 337h105l57 260h-113q-65 0 -103 -48.5t-38 -113.5q0 -45 25.5 -71.5t66.5 -26.5z" />
    <glyph glyph-name="afii10065" unicode="&#x430;" horiz-adv-x="480" 
d="M252 495q43 0 76.5 -22t51.5 -63l16 73h71l-107 -483h-72l15 66q-54 -78 -130 -78q-65 0 -103.5 45t-38.5 126q0 73 24.5 148.5t77 131.5t119.5 56zM262 431q-45 0 -82 -45t-55 -104.5t-18 -112.5q0 -56 25 -86.5t70 -30.5q33 0 64.5 23.5t51.5 57.5l49 218
q-11 35 -39.5 57.5t-65.5 22.5z" />
    <glyph glyph-name="afii10066" unicode="&#x431;" horiz-adv-x="480" 
d="M208 52q68 0 114.5 85t46.5 171q0 60 -27 91.5t-75 31.5q-46 0 -84 -43.5t-57.5 -102t-19.5 -111.5q0 -60 27 -91t75 -31zM205 -12q-81 0 -127 49t-46 137t48 224q38 98 99.5 151.5t166.5 71.5q89 15 95 46h71q-7 -35 -38 -59t-62 -33.5t-75 -16.5q-86 -16 -130.5 -52.5
t-69.5 -102.5q64 92 155 92q69 0 110 -49.5t41 -136.5q0 -75 -28 -147.5t-84.5 -123t-125.5 -50.5z" />
    <glyph glyph-name="afii10067" unicode="&#x432;" horiz-adv-x="457" 
d="M231 0h-219l106 483h183q57 0 90.5 -26.5t33.5 -74.5q1 -48 -26.5 -86t-77.5 -50q63 -25 63 -92q0 -63 -40.5 -108.5t-112.5 -45.5zM96 61h125q41 0 66 28.5t24 66.5q0 29 -18 45.5t-51 16.5h-111zM144 278h123q38 0 60 27t22 61q0 57 -71 57h-102z" />
    <glyph glyph-name="afii10068" unicode="&#x433;" horiz-adv-x="364" 
d="M393 483l-14 -63h-204l-92 -420h-71l106 483h275z" />
    <glyph glyph-name="afii10069" unicode="&#x434;" horiz-adv-x="479" 
d="M-62 -123l38 180q24 5 40.5 17t38 50.5t43.5 108.5l79 250h274l-92 -420h55l-41 -186h-72l27 123h-292l-28 -123h-70zM229 420l-62 -194q-39 -123 -94 -163h215l78 357h-137z" />
    <glyph glyph-name="afii10070" unicode="&#x435;" horiz-adv-x="468" 
d="M220 -12q-88 0 -138 50t-50 140q0 68 27 139t84 124.5t128 53.5q76 0 120.5 -48t44.5 -132q0 -43 -13 -97h-315q-4 -19 -4 -45q0 -54 31.5 -89.5t91.5 -35.5q63 0 113 50l28 -47q-63 -63 -148 -63zM117 271h247q6 22 6 47q0 51 -27.5 84t-77.5 33q-55 0 -95.5 -50
t-52.5 -114z" />
    <glyph glyph-name="afii10072" unicode="&#x436;" horiz-adv-x="592" 
d="M51 0h-90l226 266l-120 217h80l117 -218l48 218h72l-45 -204l201 204h89l-217 -217l111 -266h-80l-87 221l-38 -39l-40 -182h-72l40 182l-18 33z" />
    <glyph glyph-name="afii10073" unicode="&#x437;" horiz-adv-x="432" 
d="M258 495q79 0 119 -32t40 -85q0 -58 -43.5 -94.5t-96.5 -42.5q37 -7 64 -35t27 -66q0 -68 -58.5 -110t-140.5 -42q-123 0 -173 81l46 40q41 -62 127 -62q53 0 90 27t37 70q0 33 -27.5 52t-70.5 19h-91l13 59h88q57 0 95.5 23.5t38.5 70.5q0 32 -23.5 50t-67.5 18
q-83 0 -152 -61l-32 45q83 75 191 75z" />
    <glyph glyph-name="afii10074" unicode="&#x438;" 
d="M83 0h-71l106 483h71l-77 -351l265 351h74l-106 -483h-71l78 359z" />
    <glyph glyph-name="afii10075" unicode="&#x439;" 
d="M83 0h-71l106 483h71l-77 -351l265 351h74l-106 -483h-71l78 359zM458 619q-71 -74 -163 -74q-44 0 -78.5 20t-52.5 54l40 30q28 -57 99 -57t123 57z" />
    <glyph glyph-name="afii10076" unicode="&#x43a;" horiz-adv-x="438" 
d="M369 0h-82l-86 221l-89 -90l-29 -131h-71l107 483h71l-57 -257l255 257h88l-217 -217z" />
    <glyph glyph-name="afii10077" unicode="&#x43b;" 
d="M-39 -12l14 62q33 0 61 39.5t62 143.5l79 250h274l-106 -483h-71l92 420h-137l-62 -194q-40 -132 -89.5 -185t-116.5 -53z" />
    <glyph glyph-name="afii10078" unicode="&#x43c;" horiz-adv-x="561" 
d="M442 0h-71l79 364l-208 -364h-30l-49 364l-80 -364h-71l106 483h91l45 -340l196 340h98z" />
    <glyph glyph-name="afii10079" unicode="&#x43d;" 
d="M83 0h-71l108 483h71l-44 -200h190l45 200h71l-108 -483h-71l49 220h-191z" />
    <glyph glyph-name="afii10080" unicode="&#x43e;" horiz-adv-x="477" 
d="M205 -12q-81 0 -127 49t-46 137q0 75 28 147.5t84.5 123t125.5 50.5q81 0 127 -49t46 -137q0 -75 -28 -147.5t-84.5 -123t-125.5 -50.5zM208 52q68 0 114.5 85t46.5 171q0 60 -27 91.5t-75 31.5q-46 0 -84 -43.5t-57.5 -102t-19.5 -111.5q0 -60 27 -91t75 -31z" />
    <glyph glyph-name="afii10081" unicode="&#x43f;" 
d="M345 0h-71l94 420h-191l-94 -420h-71l108 483h333z" />
    <glyph glyph-name="afii10082" unicode="&#x440;" horiz-adv-x="478" 
d="M227 -12q-91 0 -128 85l-57 -257h-71l148 667h71l-15 -66q54 78 131 78q65 0 103 -45t38 -126q0 -73 -24.5 -148.5t-77 -131.5t-118.5 -56zM217 52q45 0 82 45t55 104.5t18 112.5q0 56 -25.5 86.5t-69.5 30.5q-33 0 -64.5 -23.5t-52.5 -57.5l-48 -218q11 -35 39.5 -57.5
t65.5 -22.5z" />
    <glyph glyph-name="afii10083" unicode="&#x441;" horiz-adv-x="406" 
d="M210 -12q-81 0 -129 50t-48 141q0 75 29 146.5t85.5 120.5t126.5 49q97 0 141 -70l-48 -46q-28 52 -91 52q-75 0 -122 -81t-47 -170q0 -63 31 -95.5t81 -32.5q54 0 93 44l30 -51q-57 -57 -132 -57z" />
    <glyph glyph-name="afii10084" unicode="&#x442;" horiz-adv-x="340" 
d="M152 0h-72l92 420h-111l14 63h294l-14 -63h-112z" />
    <glyph glyph-name="afii10085" unicode="&#x443;" horiz-adv-x="408" 
d="M-54 -186l25 63q11 -8 35 -8q32 0 60 47l43 76l-50 491h75l32 -396l209 396h80l-323 -585q-29 -51 -59 -72.5t-70 -21.5q-29 0 -57 10z" />
    <glyph glyph-name="afii10086" unicode="&#x444;" horiz-adv-x="679" 
d="M233 495q78 0 107 -82l56 254h71l-55 -249q51 77 117 77q57 0 85 -44.5t28 -117.5t-23.5 -151t-71 -136t-104.5 -58q-78 0 -107 82l-56 -254h-71l55 249q-51 -77 -117 -77q-57 0 -85 44.5t-28 117.5t23.5 151t71 136t104.5 58zM248 431q-39 0 -72.5 -48t-50.5 -109.5
t-17 -114.5q0 -107 71 -107q53 0 99 78l48 220q-6 33 -27.5 57t-50.5 24zM428 52q40 0 73.5 48t50 109.5t16.5 114.5q0 107 -71 107q-53 0 -99 -78l-48 -220q6 -33 27.5 -57t50.5 -24z" />
    <glyph glyph-name="afii10087" unicode="&#x445;" horiz-adv-x="406" 
d="M340 0h-77l-68 194l-155 -194h-82l201 246l-86 237h77l62 -184l144 184h83l-193 -237z" />
    <glyph glyph-name="afii10088" unicode="&#x446;" horiz-adv-x="479" 
d="M301 -123l27 123h-316l106 483h71l-92 -420h190l93 420h71l-92 -420h55l-41 -186h-72z" />
    <glyph glyph-name="afii10089" unicode="&#x447;" horiz-adv-x="454" 
d="M107 483h72l-34 -153q-10 -49 7 -69t65 -20q59 0 104 25l48 217h72l-106 -483h-72l46 209q-59 -32 -126 -32q-77 0 -103 31.5t-11 100.5z" />
    <glyph glyph-name="afii10090" unicode="&#x448;" horiz-adv-x="666" 
d="M580 483h72l-106 -483h-534l106 483h71l-92 -420h159l93 420h72l-93 -420h160z" />
    <glyph glyph-name="afii10091" unicode="&#x449;" horiz-adv-x="682" 
d="M580 483h72l-92 -420h54l-41 -186h-71l27 123h-517l106 483h71l-92 -420h159l93 420h72l-93 -420h160z" />
    <glyph glyph-name="afii10092" unicode="&#x44a;" horiz-adv-x="509" 
d="M281 0h-201l92 420h-111l14 63h183l-43 -189h106q63 0 98 -33.5t33 -90.5q-2 -68 -48.5 -119t-122.5 -51zM308 233h-106l-38 -172h119q40 0 66 31t28 71q3 70 -69 70z" />
    <glyph glyph-name="afii10093" unicode="&#x44b;" horiz-adv-x="612" 
d="M492 0h-71l106 483h71zM118 483h71l-42 -189h102q62 0 98.5 -32.5t36.5 -87.5q0 -69 -46 -121.5t-124 -52.5h-202zM236 233h-102l-38 -172h121q41 0 66.5 32.5t25.5 73.5q0 66 -73 66z" />
    <glyph glyph-name="afii10094" unicode="&#x44c;" horiz-adv-x="440" 
d="M118 483h71l-42 -189h102q62 0 98.5 -32.5t36.5 -87.5q0 -69 -46 -121.5t-124 -52.5h-202zM236 233h-102l-38 -172h121q41 0 66.5 32.5t25.5 73.5q0 66 -73 66z" />
    <glyph glyph-name="afii10095" unicode="&#x44d;" horiz-adv-x="406" 
d="M204 495q81 0 129 -50t48 -141q0 -74 -29 -146t-85.5 -121t-126.5 -49q-97 0 -141 70l45 43q28 -53 92 -53q56 0 97.5 47.5t60.5 117.5h-196l14 63h194q1 9 1 26q0 64 -31 98.5t-82 34.5q-56 0 -94 -45l-29 49q58 56 133 56z" />
    <glyph glyph-name="afii10096" unicode="&#x44e;" horiz-adv-x="655" 
d="M383 -12q-81 0 -127 49t-46 137q0 30 2 45h-81l-48 -219h-71l106 483h71l-44 -201h80q26 91 84.5 152t137.5 61q81 0 127.5 -49.5t46.5 -136.5q0 -75 -28 -147.5t-84.5 -123t-125.5 -50.5zM386 52q46 0 84 43.5t57 101.5t19 111q0 60 -27 91.5t-74 31.5
q-68 0 -114.5 -85.5t-46.5 -171.5q0 -60 27 -91t75 -31z" />
    <glyph glyph-name="afii10097" unicode="&#x44f;" horiz-adv-x="463" 
d="M81 0h-85l152 200q-75 26 -75 109q0 69 46 121.5t124 52.5h206l-106 -483h-72l42 189h-94zM218 250h108l38 172h-124q-41 0 -66.5 -32t-25.5 -74q0 -66 70 -66z" />
    <glyph glyph-name="afii10071" unicode="&#x451;" horiz-adv-x="468" 
d="M451 608q0 -20 -15 -34.5t-35 -14.5q-17 0 -28.5 11.5t-11.5 28.5q0 19 15 34t35 15q17 0 28.5 -11.5t11.5 -28.5zM278 608q0 -19 -15.5 -34t-35.5 -15q-17 0 -28.5 11.5t-11.5 28.5q0 19 15.5 34t35.5 15q17 0 28.5 -11.5t11.5 -28.5zM220 -12q-88 0 -138 50t-50 140
q0 68 27 139t84 124.5t128 53.5q76 0 120.5 -48t44.5 -132q0 -43 -13 -97h-315q-4 -19 -4 -45q0 -54 31.5 -89.5t91.5 -35.5q63 0 113 50l28 -47q-63 -63 -148 -63zM117 271h247q6 22 6 47q0 51 -27.5 84t-77.5 33q-55 0 -95.5 -50t-52.5 -114z" />
    <glyph glyph-name="afii10099" unicode="&#x452;" horiz-adv-x="473" 
d="M344 536h-136l-26 -122q30 34 73.5 57.5t84.5 23.5q121 0 93 -130l-93 -424q-29 -137 -151 -137q-49 0 -74 34l38 53q14 -26 43 -26q55 0 72 76l89 404q19 86 -58 86q-34 0 -70 -22.5t-60 -54.5l-78 -354h-71l117 536h-59l10 46h59l19 85h72l-19 -85h135z" />
    <glyph glyph-name="afii10100" unicode="&#x453;" horiz-adv-x="364" 
d="M450 700l-166 -144h-54l145 144h75zM393 483l-14 -63h-204l-92 -420h-71l106 483h275z" />
    <glyph glyph-name="afii10101" unicode="&#x454;" horiz-adv-x="406" 
d="M210 -12q-81 0 -129 50t-48 141q0 75 29 146.5t85.5 120.5t126.5 49q97 0 141 -70l-45 -43q-28 53 -92 53q-55 0 -95.5 -45.5t-61.5 -113.5h196l-14 -63h-194q-2 -22 -2 -32q0 -64 31 -98.5t81 -34.5q57 0 94 45l29 -49q-56 -56 -132 -56z" />
    <glyph glyph-name="afii10102" unicode="&#x455;" horiz-adv-x="387" 
d="M159 -12q-115 0 -166 76l45 48q17 -28 50.5 -47t73.5 -19q41 0 68 25.5t27 59.5q0 24 -20 44t-48.5 36t-56.5 33t-48 44t-20 61q0 61 44 103.5t118 42.5q47 0 87.5 -19t62.5 -50l-42 -46q-13 24 -44.5 40.5t-66.5 16.5q-40 0 -64 -21t-24 -54q0 -27 30.5 -50.5
t66.5 -40.5t66.5 -50t30.5 -76q0 -65 -47 -111t-123 -46z" />
    <glyph glyph-name="afii10103" unicode="&#x456;" horiz-adv-x="203" 
d="M174 553q-19 0 -31.5 12.5t-12.5 29.5q0 25 17.5 40.5t37.5 15.5q19 0 32 -12.5t13 -30.5q0 -25 -17.5 -40t-38.5 -15zM83 0h-71l107 483h71z" />
    <glyph glyph-name="afii10104" unicode="&#x457;" horiz-adv-x="203" 
d="M313 608q0 -20 -15 -34.5t-35 -14.5q-17 0 -28.5 11.5t-11.5 28.5q0 19 15 34t35 15q17 0 28.5 -11.5t11.5 -28.5zM140 608q0 -19 -15.5 -34t-35.5 -15q-17 0 -28.5 11.5t-11.5 28.5q0 19 15.5 34t35.5 15q17 0 28.5 -11.5t11.5 -28.5zM83 0h-71l107 483h71z" />
    <glyph glyph-name="afii10105" unicode="&#x458;" horiz-adv-x="203" 
d="M-63 -196q-64 0 -89 38l36 50q15 -27 47 -27q50 0 67 76l121 542h71l-120 -542q-16 -71 -47 -104t-86 -33zM174 553q-19 0 -31.5 12.5t-12.5 29.5q0 25 17.5 40.5t37.5 15.5q19 0 32 -12.5t13 -30.5q0 -25 -17.5 -40t-38.5 -15z" />
    <glyph glyph-name="afii10106" unicode="&#x459;" horiz-adv-x="703" 
d="M-39 -12l14 62q33 0 61 39.5t62 143.5l79 250h274l-42 -192h104q67 0 102 -35t30 -94q-4 -66 -50.5 -114t-123.5 -48h-197l92 420h-137l-62 -194q-40 -132 -89.5 -185t-116.5 -53zM496 230h-101l-37 -169h116q42 0 68.5 28.5t28.5 69.5q2 34 -17 52.5t-58 18.5z" />
    <glyph glyph-name="afii10107" unicode="&#x45a;" horiz-adv-x="703" 
d="M83 0h-71l106 483h71l-44 -201h190l45 201h71l-44 -201h106q61 0 97 -30t36 -84q0 -67 -44.5 -117.5t-121.5 -50.5h-206l48 219h-191zM500 221h-106l-36 -160h124q40 0 64 30t24 70q0 60 -70 60z" />
    <glyph glyph-name="afii10108" unicode="&#x45b;" horiz-adv-x="473" 
d="M349 0h-71l76 344q4 28 4 29q0 58 -69 58q-63 0 -124 -79l-78 -352h-71l118 535h-59l11 47h58l19 85h71l-19 -85h137l-10 -47h-137l-26 -119q69 79 144 79q52 0 81.5 -25.5t29.5 -71.5q0 -11 -5 -36z" />
    <glyph glyph-name="afii10109" unicode="&#x45c;" horiz-adv-x="438" 
d="M468 700l-166 -144h-54l145 144h75zM369 0h-82l-86 221l-89 -90l-29 -131h-71l107 483h71l-57 -257l255 257h88l-217 -217z" />
    <glyph glyph-name="afii10110" unicode="&#x45e;" horiz-adv-x="408" 
d="M-54 -186l25 63q11 -8 35 -8q32 0 60 47l43 76l-50 491h75l32 -396l209 396h80l-323 -585q-29 -51 -59 -72.5t-70 -21.5q-29 0 -57 10zM428 619q-71 -74 -163 -74q-44 0 -78.5 20t-52.5 54l40 30q28 -57 99 -57t123 57z" />
    <glyph glyph-name="afii10193" unicode="&#x45f;" 
d="M115 -125l27 125h-130l106 483h71l-92 -420h190l93 420h71l-106 -483h-131l-27 -125h-72z" />
    <glyph glyph-name="afii10050" unicode="&#x490;" horiz-adv-x="451" 
d="M96 0h-80l147 667h263l28 125h79l-43 -195h-263z" />
    <glyph glyph-name="afii10098" unicode="&#x491;" horiz-adv-x="364" 
d="M175 420l-92 -420h-71l106 483h203l28 125h71l-41 -188h-204z" />
    <glyph glyph-name="uni1E02" unicode="&#x1e02;" horiz-adv-x="516" 
d="M252 0h-236l147 667h198q68 0 110 -40t42 -104q0 -68 -40 -122.5t-100 -64.5q38 -11 60 -47.5t22 -79.5q0 -83 -53.5 -146t-149.5 -63zM178 376h135q57 0 86 42t29 93q0 39 -24.5 62.5t-63.5 23.5h-113zM247 71q58 0 92.5 42.5t34.5 101.5q0 43 -24.5 67t-68.5 24h-118
l-52 -235h136zM420 774q0 -21 -15.5 -36t-35.5 -15q-17 0 -29 11.5t-12 29.5q0 20 15.5 35t36.5 15q17 0 28.5 -11.5t11.5 -28.5z" />
    <glyph glyph-name="uni1E03" unicode="&#x1e03;" horiz-adv-x="480" 
d="M227 -12q-91 0 -128 85l-16 -73h-71l147 667h71l-55 -250q54 78 131 78q65 0 103 -45t38 -126q0 -73 -24.5 -148.5t-77 -131.5t-118.5 -56zM217 52q45 0 82 45t55 104.5t18 112.5q0 56 -25.5 86.5t-69.5 30.5q-33 0 -64.5 -23.5t-52.5 -57.5l-48 -218q11 -35 39.5 -57.5
t65.5 -22.5zM410 774q0 -21 -15.5 -36t-35.5 -15q-17 0 -29 11.5t-12 29.5q0 20 15.5 35t36.5 15q17 0 28.5 -11.5t11.5 -28.5z" />
    <glyph glyph-name="uni1E0A" unicode="&#x1e0a;" horiz-adv-x="564" 
d="M194 0h-178l147 667h174q86 0 147 -65.5t61 -176.5q0 -52 -11.5 -107.5t-38.5 -113t-66 -102.5t-100 -73.5t-135 -28.5zM111 71h96q61 0 111.5 34.5t81 88t47 113.5t16.5 115q0 80 -40 127.5t-101 47.5h-95zM450 774q0 -21 -15.5 -36t-35.5 -15q-17 0 -29 11.5t-12 29.5
q0 20 15.5 35t36.5 15q17 0 28.5 -11.5t11.5 -28.5z" />
    <glyph glyph-name="uni1E0B" unicode="&#x1e0b;" horiz-adv-x="480" 
d="M252 495q43 0 76.5 -22t51.5 -63l56 257h72l-148 -667h-72l15 66q-54 -78 -130 -78q-65 0 -103.5 45t-38.5 126q0 73 24.5 148.5t77 131.5t119.5 56zM262 431q-45 0 -82 -45t-55 -104.5t-18 -112.5q0 -56 25 -86.5t70 -30.5q33 0 64.5 23.5t51.5 57.5l49 218
q-11 35 -39.5 57.5t-65.5 22.5zM396 774q0 -21 -15.5 -36t-35.5 -15q-17 0 -29 11.5t-12 29.5q0 20 15.5 35t36.5 15q17 0 28.5 -11.5t11.5 -28.5z" />
    <glyph glyph-name="uni1E1E" unicode="&#x1e1e;" horiz-adv-x="451" 
d="M403 774q0 -21 -15.5 -36t-35.5 -15q-17 0 -29 11.5t-12 29.5q0 20 15.5 35t36.5 15q17 0 28.5 -11.5t11.5 -28.5zM96 0h-80l147 667h343l-15 -70h-264l-49 -221h257l-16 -70h-256z" />
    <glyph glyph-name="uni1E1F" unicode="&#x1e1f;" horiz-adv-x="254" 
d="M349 774q0 -21 -15.5 -36t-35.5 -15q-17 0 -29 11.5t-12 29.5q0 20 15.5 35t36.5 15q17 0 28.5 -11.5t11.5 -28.5zM101 0h-72l93 420h-64l15 63h63l13 59q29 135 139 135q57 0 89 -35l-38 -48q-17 22 -47 22q-55 0 -72 -74l-12 -59h82l-14 -63h-82z" />
    <glyph glyph-name="uni1E22" unicode="&#x1e22;" horiz-adv-x="574" 
d="M450 0h-80l68 308h-275l-67 -308h-80l147 667h80l-64 -289h275l63 289h80zM448 774q0 -21 -15.5 -36t-35.5 -15q-17 0 -29 11.5t-12 29.5q0 20 15.5 35t36.5 15q17 0 28.5 -11.5t11.5 -28.5z" />
    <glyph glyph-name="uni1E23" unicode="&#x1e23;" 
d="M345 0h-71l76 344q4 28 4 29q0 58 -69 58q-63 0 -124 -79l-78 -352h-71l147 667h71l-55 -251q69 79 144 79q52 0 81.5 -25.5t29.5 -71.5q0 -11 -5 -36zM396 774q0 -21 -15.5 -36t-35.5 -15q-17 0 -29 11.5t-12 29.5q0 20 15.5 35t36.5 15q17 0 28.5 -11.5t11.5 -28.5z
" />
    <glyph glyph-name="uni1E56" unicode="&#x1e56;" horiz-adv-x="487" 
d="M96 0h-80l147 667h187q71 0 114.5 -46t43.5 -116q0 -43 -14 -84t-40.5 -76t-73 -56.5t-104.5 -21.5h-122zM169 337h114q66 0 104 48.5t38 113.5q0 44 -25.5 71t-64.5 27h-108zM418 774q0 -21 -15.5 -36t-35.5 -15q-17 0 -29 11.5t-12 29.5q0 20 15.5 35t36.5 15
q17 0 28.5 -11.5t11.5 -28.5z" />
    <glyph glyph-name="uni1E57" unicode="&#x1e57;" horiz-adv-x="478" 
d="M227 -12q-91 0 -128 85l-57 -257h-71l148 667h71l-15 -66q54 78 131 78q65 0 103 -45t38 -126q0 -73 -24.5 -148.5t-77 -131.5t-118.5 -56zM217 52q45 0 82 45t55 104.5t18 112.5q0 56 -25.5 86.5t-69.5 30.5q-33 0 -64.5 -23.5t-52.5 -57.5l-48 -218q11 -35 39.5 -57.5
t65.5 -22.5zM374 607q0 -21 -15.5 -36t-35.5 -15q-17 0 -29 11.5t-12 29.5q0 20 15.5 35t36.5 15q17 0 28.5 -11.5t11.5 -28.5z" />
    <glyph glyph-name="uni1E60" unicode="&#x1e60;" horiz-adv-x="470" 
d="M205 -12q-65 0 -121 26.5t-84 67.5l52 58q25 -37 67 -59t90 -22q58 0 92 37t34 91q0 27 -17.5 51.5t-43.5 41.5t-56.5 38.5t-56.5 42t-43.5 53t-17.5 70.5q0 80 60 137t146 57q56 0 105 -21.5t77 -58.5l-50 -57q-49 66 -138 66q-49 0 -82.5 -33.5t-33.5 -78.5
q0 -25 17.5 -48t43.5 -40t56.5 -38.5t56.5 -43t43.5 -54.5t17.5 -72q0 -87 -59 -149t-155 -62zM398 774q0 -21 -15.5 -36t-35.5 -15q-17 0 -29 11.5t-12 29.5q0 20 15.5 35t36.5 15q17 0 28.5 -11.5t11.5 -28.5z" />
    <glyph glyph-name="uni1E61" unicode="&#x1e61;" horiz-adv-x="387" 
d="M159 -12q-115 0 -166 76l45 48q17 -28 50.5 -47t73.5 -19q41 0 68 25.5t27 59.5q0 24 -20 44t-48.5 36t-56.5 33t-48 44t-20 61q0 61 44 103.5t118 42.5q47 0 87.5 -19t62.5 -50l-42 -46q-13 24 -44.5 40.5t-66.5 16.5q-40 0 -64 -21t-24 -54q0 -27 30.5 -50.5
t66.5 -40.5t66.5 -50t30.5 -76q0 -65 -47 -111t-123 -46zM318 607q0 -21 -15.5 -36t-35.5 -15q-17 0 -29 11.5t-12 29.5q0 20 15.5 35t36.5 15q17 0 28.5 -11.5t11.5 -28.5z" />
    <glyph glyph-name="uni1E6A" unicode="&#x1e6a;" horiz-adv-x="446" 
d="M208 0h-79l132 597h-158l15 70h396l-15 -70h-159zM385 774q0 -21 -15.5 -36t-35.5 -15q-17 0 -29 11.5t-12 29.5q0 20 15.5 35t36.5 15q17 0 28.5 -11.5t11.5 -28.5z" />
    <glyph glyph-name="uni1E6B" unicode="&#x1e6b;" horiz-adv-x="263" 
d="M140 -12q-96 0 -96 79q0 16 4 32l71 321h-64l14 63h65l29 132h71l-29 -132h82l-14 -63h-82l-69 -308q-3 -21 -3 -24q0 -36 39 -36q23 0 39 14l9 -56q-27 -22 -66 -22zM278 774q0 -21 -15.5 -36t-35.5 -15q-17 0 -29 11.5t-12 29.5q0 20 15.5 35t36.5 15q17 0 28.5 -11.5
t11.5 -28.5z" />
    <glyph glyph-name="Wgrave" unicode="&#x1e80;" horiz-adv-x="715" 
d="M497 0h-85l8 526l-225 -526h-85l-1 667h84l-12 -544l235 544h67l-7 -544l230 544h86zM507 723h-52l-102 144h73z" />
    <glyph glyph-name="wgrave" unicode="&#x1e81;" horiz-adv-x="638" 
d="M442 0h-74l-18 388l-189 -388h-73l-22 483h72l9 -386l188 386h67l18 -386l180 386h78zM432 556h-52l-102 144h73z" />
    <glyph glyph-name="Wacute" unicode="&#x1e82;" horiz-adv-x="715" 
d="M631 867l-166 -144h-54l145 144h75zM497 0h-85l8 526l-225 -526h-85l-1 667h84l-12 -544l235 544h67l-7 -544l230 544h86z" />
    <glyph glyph-name="wacute" unicode="&#x1e83;" horiz-adv-x="638" 
d="M557 700l-166 -144h-54l145 144h75zM442 0h-74l-18 388l-189 -388h-73l-22 483h72l9 -386l188 386h67l18 -386l180 386h78z" />
    <glyph glyph-name="Wdieresis" unicode="&#x1e84;" horiz-adv-x="715" 
d="M603 775q0 -20 -15 -34.5t-35 -14.5q-17 0 -28.5 11.5t-11.5 28.5q0 19 15 34t35 15q17 0 28.5 -11.5t11.5 -28.5zM430 775q0 -19 -15.5 -34t-35.5 -15q-17 0 -28.5 11.5t-11.5 28.5q0 19 15.5 34t35.5 15q17 0 28.5 -11.5t11.5 -28.5zM497 0h-85l8 526l-225 -526h-85
l-1 667h84l-12 -544l235 544h67l-7 -544l230 544h86z" />
    <glyph glyph-name="wdieresis" unicode="&#x1e85;" horiz-adv-x="638" 
d="M528 608q0 -20 -15 -34.5t-35 -14.5q-17 0 -28.5 11.5t-11.5 28.5q0 19 15 34t35 15q17 0 28.5 -11.5t11.5 -28.5zM355 608q0 -19 -15.5 -34t-35.5 -15q-17 0 -28.5 11.5t-11.5 28.5q0 19 15.5 34t35.5 15q17 0 28.5 -11.5t11.5 -28.5zM442 0h-74l-18 388l-189 -388h-73
l-22 483h72l9 -386l188 386h67l18 -386l180 386h78z" />
    <glyph glyph-name="uni1EA0" unicode="&#x1ea0;" horiz-adv-x="511" 
d="M449 0h-83l-10 151h-237l-76 -151h-89l347 667h95zM355 221l-23 358l-180 -358h203zM216 -132q0 -21 -15.5 -36t-35.5 -15q-17 0 -29 11.5t-12 29.5q0 20 15.5 35t36.5 15q17 0 28.5 -11.5t11.5 -28.5z" />
    <glyph glyph-name="uni1EA1" unicode="&#x1ea1;" horiz-adv-x="480" 
d="M252 495q43 0 76.5 -22t51.5 -63l16 73h71l-107 -483h-72l15 66q-54 -78 -130 -78q-65 0 -103.5 45t-38.5 126q0 73 24.5 148.5t77 131.5t119.5 56zM262 431q-45 0 -82 -45t-55 -104.5t-18 -112.5q0 -56 25 -86.5t70 -30.5q33 0 64.5 23.5t51.5 57.5l49 218
q-11 35 -39.5 57.5t-65.5 22.5zM196 -132q0 -21 -15.5 -36t-35.5 -15q-17 0 -29 11.5t-12 29.5q0 20 15.5 35t36.5 15q17 0 28.5 -11.5t11.5 -28.5z" />
    <glyph glyph-name="uni1EA2" unicode="&#x1ea2;" horiz-adv-x="511" 
d="M449 0h-83l-10 151h-237l-76 -151h-89l347 667h95zM355 221l-23 358l-180 -358h203zM335 763l-29 12q22 45 67 45q26 0 42 -14t16 -40q0 -39 -32 -69h-39q36 33 36 65q0 12 -7.5 19.5t-18.5 7.5q-22 0 -35 -26z" />
    <glyph glyph-name="uni1EA3" unicode="&#x1ea3;" horiz-adv-x="480" 
d="M252 495q43 0 76.5 -22t51.5 -63l16 73h71l-107 -483h-72l15 66q-54 -78 -130 -78q-65 0 -103.5 45t-38.5 126q0 73 24.5 148.5t77 131.5t119.5 56zM262 431q-45 0 -82 -45t-55 -104.5t-18 -112.5q0 -56 25 -86.5t70 -30.5q33 0 64.5 23.5t51.5 57.5l49 218
q-11 35 -39.5 57.5t-65.5 22.5zM278 593l-29 12q23 45 67 45q26 0 42 -14t16 -40q0 -39 -32 -69h-39q36 33 36 65q0 12 -7.5 19.5t-18.5 7.5q-22 0 -35 -26z" />
    <glyph glyph-name="uni1EA4" unicode="&#x1ea4;" horiz-adv-x="511" 
d="M462 682h-45l-48 79l-92 -79h-48l112 108h70zM449 0h-83l-10 151h-237l-76 -151h-89l347 667h95zM355 221l-23 358l-180 -358h203zM662 844l-166 -108h-54l145 108h75z" />
    <glyph glyph-name="uni1EA5" unicode="&#x1ea5;" horiz-adv-x="480" 
d="M252 495q43 0 76.5 -22t51.5 -63l16 73h71l-107 -483h-72l15 66q-54 -78 -130 -78q-65 0 -103.5 45t-38.5 126q0 73 24.5 148.5t77 131.5t119.5 56zM262 431q-45 0 -82 -45t-55 -104.5t-18 -112.5q0 -56 25 -86.5t70 -30.5q33 0 64.5 23.5t51.5 57.5l49 218
q-11 35 -39.5 57.5t-65.5 22.5zM420 556h-45l-48 105l-92 -105h-48l112 144h70zM621 771l-166 -144h-54l145 144h75z" />
    <glyph glyph-name="uni1EA6" unicode="&#x1ea6;" horiz-adv-x="511" 
d="M462 682h-45l-48 79l-92 -79h-48l112 108h70zM449 0h-83l-10 151h-237l-76 -151h-89l347 667h95zM355 221l-23 358l-180 -358h203zM275 736h-52l-102 108h73z" />
    <glyph glyph-name="uni1EA7" unicode="&#x1ea7;" horiz-adv-x="480" 
d="M252 495q43 0 76.5 -22t51.5 -63l16 73h71l-107 -483h-72l15 66q-54 -78 -130 -78q-65 0 -103.5 45t-38.5 126q0 73 24.5 148.5t77 131.5t119.5 56zM262 431q-45 0 -82 -45t-55 -104.5t-18 -112.5q0 -56 25 -86.5t70 -30.5q33 0 64.5 23.5t51.5 57.5l49 218
q-11 35 -39.5 57.5t-65.5 22.5zM420 556h-45l-48 105l-92 -105h-48l112 144h70zM234 627h-52l-102 144h73z" />
    <glyph glyph-name="uni1EA8" unicode="&#x1ea8;" horiz-adv-x="511" 
d="M462 682h-45l-48 79l-92 -79h-48l112 108h70zM449 0h-83l-10 151h-237l-76 -151h-89l347 667h95zM355 221l-23 358l-180 -358h203zM421 806l-29 9q23 33 67 33q26 0 42 -10.5t16 -29.5q0 -28 -32 -52h-39q36 25 36 49q0 20 -26 20q-22 0 -35 -19z" />
    <glyph glyph-name="uni1EA9" unicode="&#x1ea9;" horiz-adv-x="480" 
d="M252 495q43 0 76.5 -22t51.5 -63l16 73h71l-107 -483h-72l15 66q-54 -78 -130 -78q-65 0 -103.5 45t-38.5 126q0 73 24.5 148.5t77 131.5t119.5 56zM262 431q-45 0 -82 -45t-55 -104.5t-18 -112.5q0 -56 25 -86.5t70 -30.5q33 0 64.5 23.5t51.5 57.5l49 218
q-11 35 -39.5 57.5t-65.5 22.5zM420 556h-45l-48 105l-92 -105h-48l112 144h70zM373 733l-29 12q22 45 67 45q26 0 42 -14t16 -40q0 -39 -32 -69h-39q36 33 36 65q0 12 -7.5 19.5t-18.5 7.5q-22 0 -35 -26z" />
    <glyph glyph-name="uni1EAA" unicode="&#x1eaa;" horiz-adv-x="511" 
d="M459 678h-45l-48 52l-92 -52h-48l112 72h70zM449 0h-83l-10 151h-237l-76 -151h-89l347 667h95zM355 221l-23 358l-180 -358h203zM420 757q-23 0 -37 7.5t-18.5 16t-14.5 16t-25 7.5q-35 0 -54 -44h-43q28 67 105 67q23 0 37 -7.5t19 -16t14.5 -16t24.5 -7.5q34 0 55 44
h43q-30 -67 -106 -67z" />
    <glyph glyph-name="uni1EAB" unicode="&#x1eab;" horiz-adv-x="480" 
d="M252 495q43 0 76.5 -22t51.5 -63l16 73h71l-107 -483h-72l15 66q-54 -78 -130 -78q-65 0 -103.5 45t-38.5 126q0 73 24.5 148.5t77 131.5t119.5 56zM262 431q-45 0 -82 -45t-55 -104.5t-18 -112.5q0 -56 25 -86.5t70 -30.5q33 0 64.5 23.5t51.5 57.5l49 218
q-11 35 -39.5 57.5t-65.5 22.5zM413 523h-45l-48 105l-92 -105h-48l112 144h70zM391 682q-23 0 -37 14.5t-18.5 32.5t-14.5 32.5t-25 14.5q-35 0 -54 -88h-43q28 134 105 134q23 0 37 -14.5t19 -32t14.5 -32t24.5 -14.5q34 0 55 87h43q-30 -134 -106 -134z" />
    <glyph glyph-name="uni1EAC" unicode="&#x1eac;" horiz-adv-x="511" 
d="M449 0h-83l-10 151h-237l-76 -151h-89l347 667h95zM355 221l-23 358l-180 -358h203zM477 723h-45l-48 105l-92 -105h-48l112 144h70zM216 -132q0 -21 -15.5 -36t-35.5 -15q-17 0 -29 11.5t-12 29.5q0 20 15.5 35t36.5 15q17 0 28.5 -11.5t11.5 -28.5z" />
    <glyph glyph-name="uni1EAD" unicode="&#x1ead;" horiz-adv-x="480" 
d="M252 495q43 0 76.5 -22t51.5 -63l16 73h71l-107 -483h-72l15 66q-54 -78 -130 -78q-65 0 -103.5 45t-38.5 126q0 73 24.5 148.5t77 131.5t119.5 56zM262 431q-45 0 -82 -45t-55 -104.5t-18 -112.5q0 -56 25 -86.5t70 -30.5q33 0 64.5 23.5t51.5 57.5l49 218
q-11 35 -39.5 57.5t-65.5 22.5zM420 556h-45l-48 105l-92 -105h-48l112 144h70zM196 -132q0 -21 -15.5 -36t-35.5 -15q-17 0 -29 11.5t-12 29.5q0 20 15.5 35t36.5 15q17 0 28.5 -11.5t11.5 -28.5z" />
    <glyph glyph-name="uni1EAE" unicode="&#x1eae;" horiz-adv-x="511" 
d="M449 0h-83l-10 151h-237l-76 -151h-89l347 667h95zM355 221l-23 358l-180 -358h203zM523 839l-166 -98h-54l145 98h75zM508 743q-71 -64 -163 -64t-131 64l40 26q28 -49 99 -49t123 49z" />
    <glyph glyph-name="uni1EAF" unicode="&#x1eaf;" horiz-adv-x="480" 
d="M252 495q43 0 76.5 -22t51.5 -63l16 73h71l-107 -483h-72l15 66q-54 -78 -130 -78q-65 0 -103.5 45t-38.5 126q0 73 24.5 148.5t77 131.5t119.5 56zM262 431q-45 0 -82 -45t-55 -104.5t-18 -112.5q0 -56 25 -86.5t70 -30.5q33 0 64.5 23.5t51.5 57.5l49 218
q-11 35 -39.5 57.5t-65.5 22.5zM470 764l-166 -144h-54l145 144h75zM454 594q-71 -74 -163 -74q-44 0 -78.5 20t-52.5 54l40 30q28 -57 99 -57t123 57z" />
    <glyph glyph-name="uni1EB0" unicode="&#x1eb0;" horiz-adv-x="511" 
d="M449 0h-83l-10 151h-237l-76 -151h-89l347 667h95zM355 221l-23 358l-180 -358h203zM419 744h-52l-102 98h73zM508 743q-71 -64 -163 -64t-131 64l40 26q28 -49 99 -49t123 49z" />
    <glyph glyph-name="uni1EB1" unicode="&#x1eb1;" horiz-adv-x="480" 
d="M252 495q43 0 76.5 -22t51.5 -63l16 73h71l-107 -483h-72l15 66q-54 -78 -130 -78q-65 0 -103.5 45t-38.5 126q0 73 24.5 148.5t77 131.5t119.5 56zM262 431q-45 0 -82 -45t-55 -104.5t-18 -112.5q0 -56 25 -86.5t70 -30.5q33 0 64.5 23.5t51.5 57.5l49 218
q-11 35 -39.5 57.5t-65.5 22.5zM375 622h-52l-102 144h73zM455 597q-71 -74 -163 -74q-44 0 -78.5 20t-52.5 54l40 30q28 -57 99 -57t123 57z" />
    <glyph glyph-name="uni1EB2" unicode="&#x1eb2;" horiz-adv-x="511" 
d="M449 0h-83l-10 151h-237l-76 -151h-89l347 667h95zM355 221l-23 358l-180 -358h203zM342 789l-29 8q22 31 67 31q26 0 42 -10t16 -27q0 -27 -32 -47h-39q36 23 36 44q0 19 -26 19q-21 0 -35 -18zM508 743q-71 -64 -163 -64t-131 64l40 26q28 -49 99 -49t123 49z" />
    <glyph glyph-name="uni1EB3" unicode="&#x1eb3;" horiz-adv-x="480" 
d="M252 495q43 0 76.5 -22t51.5 -63l16 73h71l-107 -483h-72l15 66q-54 -78 -130 -78q-65 0 -103.5 45t-38.5 126q0 73 24.5 148.5t77 131.5t119.5 56zM262 431q-45 0 -82 -45t-55 -104.5t-18 -112.5q0 -56 25 -86.5t70 -30.5q33 0 64.5 23.5t51.5 57.5l49 218
q-11 35 -39.5 57.5t-65.5 22.5zM297 687l-29 12q22 45 67 45q26 0 42 -14t16 -40q0 -39 -32 -69h-39q36 33 36 65q0 12 -7.5 19.5t-18.5 7.5q-22 0 -35 -26zM455 597q-71 -74 -163 -74q-44 0 -78.5 20t-52.5 54l40 30q28 -57 99 -57t123 57z" />
    <glyph glyph-name="uni1EB4" unicode="&#x1eb4;" horiz-adv-x="511" 
d="M449 0h-83l-10 151h-237l-76 -151h-89l347 667h95zM355 221l-23 358l-180 -358h203zM507 729q-71 -48 -163 -48q-91 0 -131 48l40 19q29 -37 99 -37q69 0 123 37zM420 759q-23 0 -37 7.5t-18.5 16t-14.5 16t-25 7.5q-35 0 -54 -44h-43q28 67 105 67q23 0 37 -7.5t19 -16
t14.5 -16t24.5 -7.5q34 0 55 44h43q-30 -67 -106 -67z" />
    <glyph glyph-name="uni1EB5" unicode="&#x1eb5;" horiz-adv-x="480" 
d="M252 495q43 0 76.5 -22t51.5 -63l16 73h71l-107 -483h-72l15 66q-54 -78 -130 -78q-65 0 -103.5 45t-38.5 126q0 73 24.5 148.5t77 131.5t119.5 56zM262 431q-45 0 -82 -45t-55 -104.5t-18 -112.5q0 -56 25 -86.5t70 -30.5q33 0 64.5 23.5t51.5 57.5l49 218
q-11 35 -39.5 57.5t-65.5 22.5zM456 599q-71 -74 -163 -74q-44 0 -78.5 20t-52.5 54l40 30q28 -57 99 -57t123 57zM385 655q-23 0 -37 14.5t-18.5 32.5t-14.5 32.5t-25 14.5q-35 0 -54 -88h-43q28 134 105 134q23 0 37 -14.5t19 -32t14.5 -32t24.5 -14.5q34 0 55 87h43
q-30 -134 -106 -134z" />
    <glyph glyph-name="uni1EB6" unicode="&#x1eb6;" horiz-adv-x="511" 
d="M449 0h-83l-10 151h-237l-76 -151h-89l347 667h95zM355 221l-23 358l-180 -358h203zM216 -132q0 -21 -15.5 -36t-35.5 -15q-17 0 -29 11.5t-12 29.5q0 20 15.5 35t36.5 15q17 0 28.5 -11.5t11.5 -28.5zM517 786q-71 -74 -163 -74q-44 0 -78.5 20t-52.5 54l40 30
q28 -57 99 -57t123 57z" />
    <glyph glyph-name="uni1EB7" unicode="&#x1eb7;" horiz-adv-x="480" 
d="M252 495q43 0 76.5 -22t51.5 -63l16 73h71l-107 -483h-72l15 66q-54 -78 -130 -78q-65 0 -103.5 45t-38.5 126q0 73 24.5 148.5t77 131.5t119.5 56zM262 431q-45 0 -82 -45t-55 -104.5t-18 -112.5q0 -56 25 -86.5t70 -30.5q33 0 64.5 23.5t51.5 57.5l49 218
q-11 35 -39.5 57.5t-65.5 22.5zM196 -132q0 -21 -15.5 -36t-35.5 -15q-17 0 -29 11.5t-12 29.5q0 20 15.5 35t36.5 15q17 0 28.5 -11.5t11.5 -28.5zM460 619q-71 -74 -163 -74q-44 0 -78.5 20t-52.5 54l40 30q28 -57 99 -57t123 57z" />
    <glyph glyph-name="uni1EB8" unicode="&#x1eb8;" horiz-adv-x="461" 
d="M359 0h-343l147 667h343l-15 -70h-264l-49 -221h257l-16 -70h-256l-52 -235h263zM202 -132q0 -21 -15.5 -36t-35.5 -15q-17 0 -29 11.5t-12 29.5q0 20 15.5 35t36.5 15q17 0 28.5 -11.5t11.5 -28.5z" />
    <glyph glyph-name="uni1EB9" unicode="&#x1eb9;" horiz-adv-x="468" 
d="M220 -12q-88 0 -138 50t-50 140q0 68 27 139t84 124.5t128 53.5q76 0 120.5 -48t44.5 -132q0 -43 -13 -97h-315q-4 -19 -4 -45q0 -54 31.5 -89.5t91.5 -35.5q63 0 113 50l28 -47q-63 -63 -148 -63zM117 271h247q6 22 6 47q0 51 -27.5 84t-77.5 33q-55 0 -95.5 -50
t-52.5 -114zM202 -132q0 -21 -15.5 -36t-35.5 -15q-17 0 -29 11.5t-12 29.5q0 20 15.5 35t36.5 15q17 0 28.5 -11.5t11.5 -28.5z" />
    <glyph glyph-name="uni1EBA" unicode="&#x1eba;" horiz-adv-x="461" 
d="M359 0h-343l147 667h343l-15 -70h-264l-49 -221h257l-16 -70h-256l-52 -235h263zM322 763l-29 12q23 45 67 45q26 0 42 -14t16 -40q0 -39 -32 -69h-39q36 33 36 65q0 12 -7.5 19.5t-18.5 7.5q-22 0 -35 -26z" />
    <glyph glyph-name="uni1EBB" unicode="&#x1ebb;" horiz-adv-x="468" 
d="M220 -12q-88 0 -138 50t-50 140q0 68 27 139t84 124.5t128 53.5q76 0 120.5 -48t44.5 -132q0 -43 -13 -97h-315q-4 -19 -4 -45q0 -54 31.5 -89.5t91.5 -35.5q63 0 113 50l28 -47q-63 -63 -148 -63zM117 271h247q6 22 6 47q0 51 -27.5 84t-77.5 33q-55 0 -95.5 -50
t-52.5 -114zM283 593l-29 12q22 45 67 45q26 0 42 -14t16 -40q0 -39 -32 -69h-39q36 33 36 65q0 12 -7.5 19.5t-18.5 7.5q-22 0 -35 -26z" />
    <glyph glyph-name="uni1EBC" unicode="&#x1ebc;" horiz-adv-x="461" 
d="M359 0h-343l147 667h343l-15 -70h-264l-49 -221h257l-16 -70h-256l-52 -235h263zM406 721q-23 0 -37 14.5t-18.5 32.5t-14.5 32.5t-25 14.5q-35 0 -54 -88h-43q28 134 105 134q23 0 37 -14.5t19 -32t14.5 -32t24.5 -14.5q34 0 55 87h43q-30 -134 -106 -134z" />
    <glyph glyph-name="uni1EBD" unicode="&#x1ebd;" horiz-adv-x="468" 
d="M220 -12q-88 0 -138 50t-50 140q0 68 27 139t84 124.5t128 53.5q76 0 120.5 -48t44.5 -132q0 -43 -13 -97h-315q-4 -19 -4 -45q0 -54 31.5 -89.5t91.5 -35.5q63 0 113 50l28 -47q-63 -63 -148 -63zM117 271h247q6 22 6 47q0 51 -27.5 84t-77.5 33q-55 0 -95.5 -50
t-52.5 -114zM368 554q-23 0 -37 14.5t-18.5 32.5t-14.5 32.5t-25 14.5q-35 0 -54 -88h-43q28 134 105 134q23 0 37 -14.5t19 -32t14.5 -32t24.5 -14.5q34 0 55 87h43q-30 -134 -106 -134z" />
    <glyph glyph-name="uni1EBE" unicode="&#x1ebe;" horiz-adv-x="461" 
d="M449 682h-45l-48 79l-92 -79h-48l112 108h70zM649 844l-166 -108h-54l145 108h75zM359 0h-343l147 667h343l-15 -70h-264l-49 -221h257l-16 -70h-256l-52 -235h263z" />
    <glyph glyph-name="uni1EBF" unicode="&#x1ebf;" horiz-adv-x="468" 
d="M426 556h-45l-48 105l-92 -105h-48l112 144h70zM627 771l-166 -144h-54l145 144h75zM220 -12q-88 0 -138 50t-50 140q0 68 27 139t84 124.5t128 53.5q76 0 120.5 -48t44.5 -132q0 -43 -13 -97h-315q-4 -19 -4 -45q0 -54 31.5 -89.5t91.5 -35.5q63 0 113 50l28 -47
q-63 -63 -148 -63zM117 271h247q6 22 6 47q0 51 -27.5 84t-77.5 33q-55 0 -95.5 -50t-52.5 -114z" />
    <glyph glyph-name="uni1EC0" unicode="&#x1ec0;" horiz-adv-x="461" 
d="M449 682h-45l-48 79l-92 -79h-48l112 108h70zM359 0h-343l147 667h343l-15 -70h-264l-49 -221h257l-16 -70h-256l-52 -235h263zM261 736h-52l-102 108h73z" />
    <glyph glyph-name="uni1EC1" unicode="&#x1ec1;" horiz-adv-x="468" 
d="M427 556h-45l-48 105l-92 -105h-48l112 144h70zM220 -12q-88 0 -138 50t-50 140q0 68 27 139t84 124.5t128 53.5q76 0 120.5 -48t44.5 -132q0 -43 -13 -97h-315q-4 -19 -4 -45q0 -54 31.5 -89.5t91.5 -35.5q63 0 113 50l28 -47q-63 -63 -148 -63zM117 271h247q6 22 6 47
q0 51 -27.5 84t-77.5 33q-55 0 -95.5 -50t-52.5 -114zM241 627h-52l-102 144h73z" />
    <glyph glyph-name="uni1EC2" unicode="&#x1ec2;" horiz-adv-x="461" 
d="M448 682h-45l-48 79l-92 -79h-48l112 108h70zM359 0h-343l147 667h343l-15 -70h-264l-49 -221h257l-16 -70h-256l-52 -235h263zM407 806l-29 9q23 33 67 33q26 0 42 -10.5t16 -29.5q0 -28 -32 -52h-39q36 25 36 49q0 20 -26 20q-22 0 -35 -19z" />
    <glyph glyph-name="uni1EC3" unicode="&#x1ec3;" horiz-adv-x="468" 
d="M426 556h-45l-48 105l-92 -105h-48l112 144h70zM220 -12q-88 0 -138 50t-50 140q0 68 27 139t84 124.5t128 53.5q76 0 120.5 -48t44.5 -132q0 -43 -13 -97h-315q-4 -19 -4 -45q0 -54 31.5 -89.5t91.5 -35.5q63 0 113 50l28 -47q-63 -63 -148 -63zM117 271h247q6 22 6 47
q0 51 -27.5 84t-77.5 33q-55 0 -95.5 -50t-52.5 -114zM379 733l-29 12q22 45 67 45q26 0 42 -14t16 -40q0 -39 -32 -69h-39q36 33 36 65q0 12 -7.5 19.5t-18.5 7.5q-22 0 -35 -26z" />
    <glyph glyph-name="uni1EC4" unicode="&#x1ec4;" horiz-adv-x="461" 
d="M447 678h-45l-48 52l-92 -52h-48l112 72h70zM359 0h-343l147 667h343l-15 -70h-264l-49 -221h257l-16 -70h-256l-52 -235h263zM406 757q-23 0 -37 7.5t-18.5 16t-14.5 16t-25 7.5q-35 0 -54 -44h-43q28 67 105 67q23 0 37 -7.5t19 -16t14.5 -16t24.5 -7.5q34 0 55 44h43
q-30 -67 -106 -67z" />
    <glyph glyph-name="uni1EC5" unicode="&#x1ec5;" horiz-adv-x="468" 
d="M419 523h-45l-48 105l-92 -105h-48l112 144h70zM220 -12q-88 0 -138 50t-50 140q0 68 27 139t84 124.5t128 53.5q76 0 120.5 -48t44.5 -132q0 -43 -13 -97h-315q-4 -19 -4 -45q0 -54 31.5 -89.5t91.5 -35.5q63 0 113 50l28 -47q-63 -63 -148 -63zM117 271h247q6 22 6 47
q0 51 -27.5 84t-77.5 33q-55 0 -95.5 -50t-52.5 -114zM397 682q-23 0 -37 14.5t-18.5 32.5t-14.5 32.5t-25 14.5q-35 0 -54 -88h-43q28 134 105 134q23 0 37 -14.5t19 -32t14.5 -32t24.5 -14.5q34 0 55 87h43q-30 -134 -106 -134z" />
    <glyph glyph-name="uni1EC6" unicode="&#x1ec6;" horiz-adv-x="461" 
d="M464 723h-45l-48 105l-92 -105h-48l112 144h70zM359 0h-343l147 667h343l-15 -70h-264l-49 -221h257l-16 -70h-256l-52 -235h263zM202 -132q0 -21 -15.5 -36t-35.5 -15q-17 0 -29 11.5t-12 29.5q0 20 15.5 35t36.5 15q17 0 28.5 -11.5t11.5 -28.5z" />
    <glyph glyph-name="uni1EC7" unicode="&#x1ec7;" horiz-adv-x="468" 
d="M426 556h-45l-48 105l-92 -105h-48l112 144h70zM220 -12q-88 0 -138 50t-50 140q0 68 27 139t84 124.5t128 53.5q76 0 120.5 -48t44.5 -132q0 -43 -13 -97h-315q-4 -19 -4 -45q0 -54 31.5 -89.5t91.5 -35.5q63 0 113 50l28 -47q-63 -63 -148 -63zM117 271h247q6 22 6 47
q0 51 -27.5 84t-77.5 33q-55 0 -95.5 -50t-52.5 -114zM202 -132q0 -21 -15.5 -36t-35.5 -15q-17 0 -29 11.5t-12 29.5q0 20 15.5 35t36.5 15q17 0 28.5 -11.5t11.5 -28.5z" />
    <glyph glyph-name="uni1EC8" unicode="&#x1ec8;" horiz-adv-x="220" 
d="M96 0h-80l147 667h80zM190 763l-29 12q23 45 67 45q26 0 42 -14t16 -40q0 -39 -32 -69h-39q36 33 36 65q0 12 -7.5 19.5t-18.5 7.5q-22 0 -35 -26z" />
    <glyph glyph-name="uni1EC9" unicode="&#x1ec9;" horiz-adv-x="203" 
d="M83 0h-71l107 483h71zM144 593l-29 12q23 45 67 45q26 0 42 -14t16 -40q0 -39 -32 -69h-39q36 33 36 65q0 12 -7.5 19.5t-18.5 7.5q-22 0 -35 -26z" />
    <glyph glyph-name="uni1ECA" unicode="&#x1eca;" horiz-adv-x="220" 
d="M96 0h-80l147 667h80zM71 -132q0 -21 -15.5 -36t-35.5 -15q-17 0 -29 11.5t-12 29.5q0 20 15.5 35t36.5 15q17 0 28.5 -11.5t11.5 -28.5z" />
    <glyph glyph-name="uni1ECB" unicode="&#x1ecb;" horiz-adv-x="203" 
d="M174 553q-19 0 -31.5 12.5t-12.5 29.5q0 25 17.5 40.5t37.5 15.5q19 0 32 -12.5t13 -30.5q0 -25 -17.5 -40t-38.5 -15zM83 0h-71l107 483h71zM64 -132q0 -21 -15.5 -36t-35.5 -15q-17 0 -29 11.5t-12 29.5q0 20 15.5 35t36.5 15q17 0 28.5 -11.5t11.5 -28.5z" />
    <glyph glyph-name="uni1ECC" unicode="&#x1ecc;" horiz-adv-x="599" 
d="M272 -12q-101 0 -161.5 66t-60.5 175q0 105 37 206t111.5 172t167.5 71q100 0 161 -66.5t61 -174.5q0 -77 -22.5 -156t-62 -144.5t-100.5 -107t-131 -41.5zM277 59q62 0 116 58t83 144.5t29 174.5q0 80 -40 125.5t-105 45.5q-63 0 -116 -58.5t-82 -145t-29 -174.5
q0 -80 39 -125t105 -45zM261 -132q0 -21 -15.5 -36t-35.5 -15q-17 0 -29 11.5t-12 29.5q0 20 15.5 35t36.5 15q17 0 28.5 -11.5t11.5 -28.5z" />
    <glyph glyph-name="uni1ECD" unicode="&#x1ecd;" horiz-adv-x="477" 
d="M205 -12q-81 0 -127 49t-46 137q0 75 28 147.5t84.5 123t125.5 50.5q81 0 127 -49t46 -137q0 -75 -28 -147.5t-84.5 -123t-125.5 -50.5zM208 52q68 0 114.5 85t46.5 171q0 60 -27 91.5t-75 31.5q-46 0 -84 -43.5t-57.5 -102t-19.5 -111.5q0 -60 27 -91t75 -31zM200 -132
q0 -21 -15.5 -36t-35.5 -15q-17 0 -29 11.5t-12 29.5q0 20 15.5 35t36.5 15q17 0 28.5 -11.5t11.5 -28.5z" />
    <glyph glyph-name="uni1ECE" unicode="&#x1ece;" horiz-adv-x="599" 
d="M272 -12q-101 0 -161.5 66t-60.5 175q0 105 37 206t111.5 172t167.5 71q100 0 161 -66.5t61 -174.5q0 -77 -22.5 -156t-62 -144.5t-100.5 -107t-131 -41.5zM277 59q62 0 116 58t83 144.5t29 174.5q0 80 -40 125.5t-105 45.5q-63 0 -116 -58.5t-82 -145t-29 -174.5
q0 -80 39 -125t105 -45zM380 763l-29 12q23 45 67 45q26 0 42 -14t16 -40q0 -39 -32 -69h-39q36 33 36 65q0 12 -7.5 19.5t-18.5 7.5q-22 0 -35 -26z" />
    <glyph glyph-name="uni1ECF" unicode="&#x1ecf;" horiz-adv-x="477" 
d="M205 -12q-81 0 -127 49t-46 137q0 75 28 147.5t84.5 123t125.5 50.5q81 0 127 -49t46 -137q0 -75 -28 -147.5t-84.5 -123t-125.5 -50.5zM208 52q68 0 114.5 85t46.5 171q0 60 -27 91.5t-75 31.5q-46 0 -84 -43.5t-57.5 -102t-19.5 -111.5q0 -60 27 -91t75 -31zM282 593
l-29 12q23 45 67 45q26 0 42 -14t16 -40q0 -39 -32 -69h-39q36 33 36 65q0 12 -7.5 19.5t-18.5 7.5q-22 0 -35 -26z" />
    <glyph glyph-name="uni1ED0" unicode="&#x1ed0;" horiz-adv-x="599" 
d="M507 682h-45l-48 79l-92 -79h-48l112 108h70zM707 844l-166 -108h-54l145 108h75zM272 -12q-101 0 -161.5 66t-60.5 175q0 105 37 206t111.5 172t167.5 71q100 0 161 -66.5t61 -174.5q0 -77 -22.5 -156t-62 -144.5t-100.5 -107t-131 -41.5zM277 59q62 0 116 58t83 144.5
t29 174.5q0 80 -40 125.5t-105 45.5q-63 0 -116 -58.5t-82 -145t-29 -174.5q0 -80 39 -125t105 -45z" />
    <glyph glyph-name="uni1ED1" unicode="&#x1ed1;" horiz-adv-x="477" 
d="M424 556h-45l-48 105l-92 -105h-48l112 144h70zM625 771l-166 -144h-54l145 144h75zM205 -12q-81 0 -127 49t-46 137q0 75 28 147.5t84.5 123t125.5 50.5q81 0 127 -49t46 -137q0 -75 -28 -147.5t-84.5 -123t-125.5 -50.5zM208 52q68 0 114.5 85t46.5 171q0 60 -27 91.5
t-75 31.5q-46 0 -84 -43.5t-57.5 -102t-19.5 -111.5q0 -60 27 -91t75 -31z" />
    <glyph glyph-name="uni1ED2" unicode="&#x1ed2;" horiz-adv-x="599" 
d="M507 682h-45l-48 79l-92 -79h-48l112 108h70zM272 -12q-101 0 -161.5 66t-60.5 175q0 105 37 206t111.5 172t167.5 71q100 0 161 -66.5t61 -174.5q0 -77 -22.5 -156t-62 -144.5t-100.5 -107t-131 -41.5zM277 59q62 0 116 58t83 144.5t29 174.5q0 80 -40 125.5t-105 45.5
q-63 0 -116 -58.5t-82 -145t-29 -174.5q0 -80 39 -125t105 -45zM319 736h-52l-102 108h73z" />
    <glyph glyph-name="uni1ED3" unicode="&#x1ed3;" horiz-adv-x="477" 
d="M424 556h-45l-48 105l-92 -105h-48l112 144h70zM205 -12q-81 0 -127 49t-46 137q0 75 28 147.5t84.5 123t125.5 50.5q81 0 127 -49t46 -137q0 -75 -28 -147.5t-84.5 -123t-125.5 -50.5zM208 52q68 0 114.5 85t46.5 171q0 60 -27 91.5t-75 31.5q-46 0 -84 -43.5
t-57.5 -102t-19.5 -111.5q0 -60 27 -91t75 -31zM239 627h-52l-102 144h73z" />
    <glyph glyph-name="uni1ED4" unicode="&#x1ed4;" horiz-adv-x="599" 
d="M507 682h-45l-48 79l-92 -79h-48l112 108h70zM272 -12q-101 0 -161.5 66t-60.5 175q0 105 37 206t111.5 172t167.5 71q100 0 161 -66.5t61 -174.5q0 -77 -22.5 -156t-62 -144.5t-100.5 -107t-131 -41.5zM277 59q62 0 116 58t83 144.5t29 174.5q0 80 -40 125.5t-105 45.5
q-63 0 -116 -58.5t-82 -145t-29 -174.5q0 -80 39 -125t105 -45zM465 806l-29 9q23 33 67 33q26 0 42 -10.5t16 -29.5q0 -28 -32 -52h-39q36 25 36 49q0 20 -26 20q-22 0 -35 -19z" />
    <glyph glyph-name="uni1ED5" unicode="&#x1ed5;" horiz-adv-x="477" 
d="M424 556h-45l-48 105l-92 -105h-48l112 144h70zM205 -12q-81 0 -127 49t-46 137q0 75 28 147.5t84.5 123t125.5 50.5q81 0 127 -49t46 -137q0 -75 -28 -147.5t-84.5 -123t-125.5 -50.5zM208 52q68 0 114.5 85t46.5 171q0 60 -27 91.5t-75 31.5q-46 0 -84 -43.5
t-57.5 -102t-19.5 -111.5q0 -60 27 -91t75 -31zM377 733l-29 12q22 45 67 45q26 0 42 -14t16 -40q0 -39 -32 -69h-39q36 33 36 65q0 12 -7.5 19.5t-18.5 7.5q-22 0 -35 -26z" />
    <glyph glyph-name="uni1ED6" unicode="&#x1ed6;" horiz-adv-x="599" 
d="M502 678h-45l-48 52l-92 -52h-48l112 72h70zM272 -12q-101 0 -161.5 66t-60.5 175q0 105 37 206t111.5 172t167.5 71q100 0 161 -66.5t61 -174.5q0 -77 -22.5 -156t-62 -144.5t-100.5 -107t-131 -41.5zM277 59q62 0 116 58t83 144.5t29 174.5q0 80 -40 125.5t-105 45.5
q-63 0 -116 -58.5t-82 -145t-29 -174.5q0 -80 39 -125t105 -45zM464 757q-23 0 -37 7.5t-18.5 16t-14.5 16t-25 7.5q-35 0 -54 -44h-43q28 67 105 67q23 0 37 -7.5t19 -16t14.5 -16t24.5 -7.5q34 0 55 44h43q-30 -67 -106 -67z" />
    <glyph glyph-name="uni1ED7" unicode="&#x1ed7;" horiz-adv-x="477" 
d="M417 523h-45l-48 105l-92 -105h-48l112 144h70zM205 -12q-81 0 -127 49t-46 137q0 75 28 147.5t84.5 123t125.5 50.5q81 0 127 -49t46 -137q0 -75 -28 -147.5t-84.5 -123t-125.5 -50.5zM208 52q68 0 114.5 85t46.5 171q0 60 -27 91.5t-75 31.5q-46 0 -84 -43.5
t-57.5 -102t-19.5 -111.5q0 -60 27 -91t75 -31zM395 682q-23 0 -37 14.5t-18.5 32.5t-14.5 32.5t-25 14.5q-35 0 -54 -88h-43q28 134 105 134q23 0 37 -14.5t19 -32t14.5 -32t24.5 -14.5q34 0 55 87h43q-30 -134 -106 -134z" />
    <glyph glyph-name="uni1ED8" unicode="&#x1ed8;" horiz-adv-x="599" 
d="M522 723h-45l-48 105l-92 -105h-48l112 144h70zM272 -12q-101 0 -161.5 66t-60.5 175q0 105 37 206t111.5 172t167.5 71q100 0 161 -66.5t61 -174.5q0 -77 -22.5 -156t-62 -144.5t-100.5 -107t-131 -41.5zM277 59q62 0 116 58t83 144.5t29 174.5q0 80 -40 125.5
t-105 45.5q-63 0 -116 -58.5t-82 -145t-29 -174.5q0 -80 39 -125t105 -45zM261 -132q0 -21 -15.5 -36t-35.5 -15q-17 0 -29 11.5t-12 29.5q0 20 15.5 35t36.5 15q17 0 28.5 -11.5t11.5 -28.5z" />
    <glyph glyph-name="uni1ED9" unicode="&#x1ed9;" horiz-adv-x="477" 
d="M424 556h-45l-48 105l-92 -105h-48l112 144h70zM205 -12q-81 0 -127 49t-46 137q0 75 28 147.5t84.5 123t125.5 50.5q81 0 127 -49t46 -137q0 -75 -28 -147.5t-84.5 -123t-125.5 -50.5zM208 52q68 0 114.5 85t46.5 171q0 60 -27 91.5t-75 31.5q-46 0 -84 -43.5
t-57.5 -102t-19.5 -111.5q0 -60 27 -91t75 -31zM200 -132q0 -21 -15.5 -36t-35.5 -15q-17 0 -29 11.5t-12 29.5q0 20 15.5 35t36.5 15q17 0 28.5 -11.5t11.5 -28.5z" />
    <glyph glyph-name="uni1EDA" unicode="&#x1eda;" horiz-adv-x="599" 
d="M577 867l-166 -144h-54l145 144h75zM272 -12q-101 0 -161.5 66t-60.5 175q0 105 37 206t111.5 172t167.5 71q62 0 110 -26.5t76 -74.5q45 28 57 67h-7q-14 0 -23.5 10t-9.5 26q0 19 14 32.5t33 13.5q17 0 29 -12t12 -34q0 -37 -26 -74.5t-63 -59.5q20 -49 20 -109
q0 -77 -22.5 -156t-62 -144.5t-100.5 -107t-131 -41.5zM277 59q62 0 116 58t83 144.5t29 174.5q0 80 -40 125.5t-105 45.5q-63 0 -116 -58.5t-82 -145t-29 -174.5q0 -80 39 -125t105 -45z" />
    <glyph glyph-name="uni1EDB" unicode="&#x1edb;" horiz-adv-x="477" 
d="M478 700l-166 -144h-54l145 144h75zM501 546q0 -35 -23.5 -70.5t-59.5 -59.5q25 -45 25 -107q0 -75 -28 -147.5t-84.5 -123t-125.5 -50.5q-81 0 -127 49t-46 137q0 75 28 147.5t84.5 123t125.5 50.5q82 0 128 -51q43 30 55 66h-7q-14 0 -24 10.5t-10 25.5q0 18 14.5 32
t32.5 14t30 -12t12 -34zM208 52q68 0 114.5 85t46.5 171q0 60 -27 91.5t-75 31.5q-46 0 -84 -43.5t-57.5 -102t-19.5 -111.5q0 -60 27 -91t75 -31z" />
    <glyph glyph-name="uni1EDC" unicode="&#x1edc;" horiz-adv-x="599" 
d="M272 -12q-101 0 -161.5 66t-60.5 175q0 105 37 206t111.5 172t167.5 71q62 0 110 -26.5t76 -74.5q45 28 57 67h-7q-14 0 -23.5 10t-9.5 26q0 19 14 32.5t33 13.5q17 0 29 -12t12 -34q0 -37 -26 -74.5t-63 -59.5q20 -49 20 -109q0 -77 -22.5 -156t-62 -144.5t-100.5 -107
t-131 -41.5zM277 59q62 0 116 58t83 144.5t29 174.5q0 80 -40 125.5t-105 45.5q-63 0 -116 -58.5t-82 -145t-29 -174.5q0 -80 39 -125t105 -45zM452 723h-52l-102 144h73z" />
    <glyph glyph-name="uni1EDD" unicode="&#x1edd;" horiz-adv-x="477" 
d="M501 546q0 -35 -23.5 -70.5t-59.5 -59.5q25 -45 25 -107q0 -75 -28 -147.5t-84.5 -123t-125.5 -50.5q-81 0 -127 49t-46 137q0 75 28 147.5t84.5 123t125.5 50.5q82 0 128 -51q43 30 55 66h-7q-14 0 -24 10.5t-10 25.5q0 18 14.5 32t32.5 14t30 -12t12 -34zM208 52
q68 0 114.5 85t46.5 171q0 60 -27 91.5t-75 31.5q-46 0 -84 -43.5t-57.5 -102t-19.5 -111.5q0 -60 27 -91t75 -31zM355 556h-52l-102 144h73z" />
    <glyph glyph-name="uni1EDE" unicode="&#x1ede;" horiz-adv-x="599" 
d="M272 -12q-101 0 -161.5 66t-60.5 175q0 105 37 206t111.5 172t167.5 71q62 0 110 -26.5t76 -74.5q45 28 57 67h-7q-14 0 -23.5 10t-9.5 26q0 19 14 32.5t33 13.5q17 0 29 -12t12 -34q0 -37 -26 -74.5t-63 -59.5q20 -49 20 -109q0 -77 -22.5 -156t-62 -144.5t-100.5 -107
t-131 -41.5zM277 59q62 0 116 58t83 144.5t29 174.5q0 80 -40 125.5t-105 45.5q-63 0 -116 -58.5t-82 -145t-29 -174.5q0 -80 39 -125t105 -45zM380 763l-29 12q23 45 67 45q26 0 42 -14t16 -40q0 -39 -32 -69h-39q36 33 36 65q0 12 -7.5 19.5t-18.5 7.5q-22 0 -35 -26z" />
    <glyph glyph-name="uni1EDF" unicode="&#x1edf;" horiz-adv-x="477" 
d="M501 546q0 -35 -23.5 -70.5t-59.5 -59.5q25 -45 25 -107q0 -75 -28 -147.5t-84.5 -123t-125.5 -50.5q-81 0 -127 49t-46 137q0 75 28 147.5t84.5 123t125.5 50.5q82 0 128 -51q43 30 55 66h-7q-14 0 -24 10.5t-10 25.5q0 18 14.5 32t32.5 14t30 -12t12 -34zM208 52
q68 0 114.5 85t46.5 171q0 60 -27 91.5t-75 31.5q-46 0 -84 -43.5t-57.5 -102t-19.5 -111.5q0 -60 27 -91t75 -31zM282 593l-29 12q23 45 67 45q26 0 42 -14t16 -40q0 -39 -32 -69h-39q36 33 36 65q0 12 -7.5 19.5t-18.5 7.5q-22 0 -35 -26z" />
    <glyph glyph-name="uni1EE0" unicode="&#x1ee0;" horiz-adv-x="599" 
d="M272 -12q-101 0 -161.5 66t-60.5 175q0 105 37 206t111.5 172t167.5 71q62 0 110 -26.5t76 -74.5q45 28 57 67h-7q-14 0 -23.5 10t-9.5 26q0 19 14 32.5t33 13.5q17 0 29 -12t12 -34q0 -37 -26 -74.5t-63 -59.5q20 -49 20 -109q0 -77 -22.5 -156t-62 -144.5t-100.5 -107
t-131 -41.5zM277 59q62 0 116 58t83 144.5t29 174.5q0 80 -40 125.5t-105 45.5q-63 0 -116 -58.5t-82 -145t-29 -174.5q0 -80 39 -125t105 -45zM465 721q-23 0 -37 14.5t-18.5 32.5t-14.5 32.5t-25 14.5q-35 0 -54 -88h-43q28 134 105 134q23 0 37 -14.5t19 -32t14.5 -32
t24.5 -14.5q34 0 55 87h43q-30 -134 -106 -134z" />
    <glyph glyph-name="uni1EE1" unicode="&#x1ee1;" horiz-adv-x="477" 
d="M501 546q0 -35 -23.5 -70.5t-59.5 -59.5q25 -45 25 -107q0 -75 -28 -147.5t-84.5 -123t-125.5 -50.5q-81 0 -127 49t-46 137q0 75 28 147.5t84.5 123t125.5 50.5q82 0 128 -51q43 30 55 66h-7q-14 0 -24 10.5t-10 25.5q0 18 14.5 32t32.5 14t30 -12t12 -34zM208 52
q68 0 114.5 85t46.5 171q0 60 -27 91.5t-75 31.5q-46 0 -84 -43.5t-57.5 -102t-19.5 -111.5q0 -60 27 -91t75 -31zM347 554q-23 0 -37 14.5t-18.5 32.5t-14.5 32.5t-25 14.5q-35 0 -54 -88h-43q28 134 105 134q23 0 37 -14.5t19 -32t14.5 -32t24.5 -14.5q34 0 55 87h43
q-30 -134 -106 -134z" />
    <glyph glyph-name="uni1EE2" unicode="&#x1ee2;" horiz-adv-x="599" 
d="M272 -12q-101 0 -161.5 66t-60.5 175q0 105 37 206t111.5 172t167.5 71q62 0 110 -26.5t76 -74.5q45 28 57 67h-7q-14 0 -23.5 10t-9.5 26q0 19 14 32.5t33 13.5q17 0 29 -12t12 -34q0 -37 -26 -74.5t-63 -59.5q20 -49 20 -109q0 -77 -22.5 -156t-62 -144.5t-100.5 -107
t-131 -41.5zM277 59q62 0 116 58t83 144.5t29 174.5q0 80 -40 125.5t-105 45.5q-63 0 -116 -58.5t-82 -145t-29 -174.5q0 -80 39 -125t105 -45zM261 -132q0 -21 -15.5 -36t-35.5 -15q-17 0 -29 11.5t-12 29.5q0 20 15.5 35t36.5 15q17 0 28.5 -11.5t11.5 -28.5z" />
    <glyph glyph-name="uni1EE3" unicode="&#x1ee3;" horiz-adv-x="477" 
d="M501 546q0 -35 -23.5 -70.5t-59.5 -59.5q25 -45 25 -107q0 -75 -28 -147.5t-84.5 -123t-125.5 -50.5q-81 0 -127 49t-46 137q0 75 28 147.5t84.5 123t125.5 50.5q82 0 128 -51q43 30 55 66h-7q-14 0 -24 10.5t-10 25.5q0 18 14.5 32t32.5 14t30 -12t12 -34zM208 52
q68 0 114.5 85t46.5 171q0 60 -27 91.5t-75 31.5q-46 0 -84 -43.5t-57.5 -102t-19.5 -111.5q0 -60 27 -91t75 -31zM200 -132q0 -21 -15.5 -36t-35.5 -15q-17 0 -29 11.5t-12 29.5q0 20 15.5 35t36.5 15q17 0 28.5 -11.5t11.5 -28.5z" />
    <glyph glyph-name="uni1EE4" unicode="&#x1ee4;" horiz-adv-x="569" 
d="M259 -12q-92 0 -146 48.5t-54 132.5q0 26 5 48l99 450h80l-100 -452q-4 -28 -4 -39q0 -54 33 -86t90 -32q61 0 96.5 38.5t53.5 118.5l100 452h79l-99 -451q-26 -114 -81 -171t-152 -57zM245 -132q0 -21 -15.5 -36t-35.5 -15q-17 0 -29 11.5t-12 29.5q0 20 15.5 35
t36.5 15q17 0 28.5 -11.5t11.5 -28.5z" />
    <glyph glyph-name="uni1EE5" unicode="&#x1ee5;" 
d="M119 483h71l-76 -343q-4 -20 -4 -30q0 -58 69 -58q62 0 123 77l78 354h72l-107 -483h-72l16 67q-71 -79 -144 -79q-51 0 -81 25.5t-30 71.5q0 13 5 36zM194 -132q0 -21 -15.5 -36t-35.5 -15q-17 0 -29 11.5t-12 29.5q0 20 15.5 35t36.5 15q17 0 28.5 -11.5t11.5 -28.5z
" />
    <glyph glyph-name="uni1EE6" unicode="&#x1ee6;" horiz-adv-x="569" 
d="M259 -12q-92 0 -146 48.5t-54 132.5q0 26 5 48l99 450h80l-100 -452q-4 -28 -4 -39q0 -54 33 -86t90 -32q61 0 96.5 38.5t53.5 118.5l100 452h79l-99 -451q-26 -114 -81 -171t-152 -57zM364 763l-29 12q23 45 67 45q26 0 42 -14t16 -40q0 -39 -32 -69h-39q36 33 36 65
q0 12 -7.5 19.5t-18.5 7.5q-22 0 -35 -26z" />
    <glyph glyph-name="uni1EE7" unicode="&#x1ee7;" 
d="M119 483h71l-76 -343q-4 -20 -4 -30q0 -58 69 -58q62 0 123 77l78 354h72l-107 -483h-72l16 67q-71 -79 -144 -79q-51 0 -81 25.5t-30 71.5q0 13 5 36zM276 593l-29 12q23 45 67 45q26 0 42 -14t16 -40q0 -39 -32 -69h-39q36 33 36 65q0 12 -7.5 19.5t-18.5 7.5
q-22 0 -35 -26z" />
    <glyph glyph-name="uni1EE8" unicode="&#x1ee8;" horiz-adv-x="569" 
d="M561 867l-166 -144h-54l145 144h75zM702 744q0 -46 -37 -89t-91 -64l-82 -375q-26 -114 -81 -171t-152 -57q-92 0 -146 48.5t-54 132.5q0 18 5 48l99 450h80l-100 -452q-4 -28 -4 -39q0 -54 33 -86t90 -32q61 0 96.5 38.5t53.5 118.5l100 452h79l-8 -34q57 32 71 76
q-1 -1 -7 -1q-14 0 -23.5 10t-9.5 26q0 19 14 32.5t33 13.5q18 0 29.5 -12t11.5 -34z" />
    <glyph glyph-name="uni1EE9" unicode="&#x1ee9;" 
d="M473 700l-166 -144h-54l145 144h75zM547 551q0 -42 -32 -82t-81 -64l-89 -405h-72l16 67q-71 -79 -144 -79q-51 0 -81 25t-30 71q0 22 5 37l79 362h72l-76 -344q-4 -16 -4 -29q0 -58 69 -58q63 0 123 77l78 354h72l-7 -32q44 31 54 64h-7q-14 0 -23.5 10t-9.5 26
q0 19 14 32.5t32 13.5q19 0 30.5 -12t11.5 -34z" />
    <glyph glyph-name="uni1EEA" unicode="&#x1eea;" horiz-adv-x="569" 
d="M436 723h-52l-102 144h73zM702 744q0 -46 -37 -89t-91 -64l-82 -375q-26 -114 -81 -171t-152 -57q-92 0 -146 48.5t-54 132.5q0 18 5 48l99 450h80l-100 -452q-4 -28 -4 -39q0 -54 33 -86t90 -32q61 0 96.5 38.5t53.5 118.5l100 452h79l-8 -34q57 32 71 76q-1 -1 -7 -1
q-14 0 -23.5 10t-9.5 26q0 19 14 32.5t33 13.5q18 0 29.5 -12t11.5 -34z" />
    <glyph glyph-name="uni1EEB" unicode="&#x1eeb;" 
d="M349 556h-52l-102 144h73zM547 551q0 -42 -32 -82t-81 -64l-89 -405h-72l16 67q-71 -79 -144 -79q-51 0 -81 25t-30 71q0 22 5 37l79 362h72l-76 -344q-4 -16 -4 -29q0 -58 69 -58q63 0 123 77l78 354h72l-7 -32q44 31 54 64h-7q-14 0 -23.5 10t-9.5 26q0 19 14 32.5
t32 13.5q19 0 30.5 -12t11.5 -34z" />
    <glyph glyph-name="uni1EEC" unicode="&#x1eec;" horiz-adv-x="569" 
d="M364 763l-29 12q23 45 67 45q26 0 42 -14t16 -40q0 -39 -32 -69h-39q36 33 36 65q0 12 -7.5 19.5t-18.5 7.5q-22 0 -35 -26zM702 744q0 -46 -37 -89t-91 -64l-82 -375q-26 -114 -81 -171t-152 -57q-92 0 -146 48.5t-54 132.5q0 18 5 48l99 450h80l-100 -452
q-4 -28 -4 -39q0 -54 33 -86t90 -32q61 0 96.5 38.5t53.5 118.5l100 452h79l-8 -34q57 32 71 76q-1 -1 -7 -1q-14 0 -23.5 10t-9.5 26q0 19 14 32.5t33 13.5q18 0 29.5 -12t11.5 -34z" />
    <glyph glyph-name="uni1EED" unicode="&#x1eed;" 
d="M276 593l-29 12q23 45 67 45q26 0 42 -14t16 -40q0 -39 -32 -69h-39q36 33 36 65q0 12 -7.5 19.5t-18.5 7.5q-22 0 -35 -26zM547 551q0 -42 -32 -82t-81 -64l-89 -405h-72l16 67q-71 -79 -144 -79q-51 0 -81 25t-30 71q0 22 5 37l79 362h72l-76 -344q-4 -16 -4 -29
q0 -58 69 -58q63 0 123 77l78 354h72l-7 -32q44 31 54 64h-7q-14 0 -23.5 10t-9.5 26q0 19 14 32.5t32 13.5q19 0 30.5 -12t11.5 -34z" />
    <glyph glyph-name="uni1EEE" unicode="&#x1eee;" horiz-adv-x="569" 
d="M702 744q0 -46 -37 -89t-91 -64l-82 -375q-26 -114 -81 -171t-152 -57q-92 0 -146 48.5t-54 132.5q0 18 5 48l99 450h80l-100 -452q-4 -28 -4 -39q0 -54 33 -86t90 -32q61 0 96.5 38.5t53.5 118.5l100 452h79l-8 -34q57 32 71 76q-1 -1 -7 -1q-14 0 -23.5 10t-9.5 26
q0 19 14 32.5t33 13.5q18 0 29.5 -12t11.5 -34zM448 721q-23 0 -37 14.5t-18.5 32.5t-14.5 32.5t-25 14.5q-35 0 -54 -88h-43q28 134 105 134q23 0 37 -14.5t19 -32t14.5 -32t24.5 -14.5q34 0 55 87h43q-30 -134 -106 -134z" />
    <glyph glyph-name="uni1EEF" unicode="&#x1eef;" 
d="M547 551q0 -42 -32 -82t-81 -64l-89 -405h-72l16 67q-71 -79 -144 -79q-51 0 -81 25t-30 71q0 22 5 37l79 362h72l-76 -344q-4 -16 -4 -29q0 -58 69 -58q63 0 123 77l78 354h72l-7 -32q44 31 54 64h-7q-14 0 -23.5 10t-9.5 26q0 19 14 32.5t32 13.5q19 0 30.5 -12
t11.5 -34zM354 554q-23 0 -37 14.5t-18.5 32.5t-14.5 32.5t-25 14.5q-35 0 -54 -88h-43q28 134 105 134q23 0 37 -14.5t19 -32t14.5 -32t24.5 -14.5q34 0 55 87h43q-30 -134 -106 -134z" />
    <glyph glyph-name="uni1EF0" unicode="&#x1ef0;" horiz-adv-x="569" 
d="M245 -132q0 -21 -15.5 -36t-35.5 -15q-17 0 -29 11.5t-12 29.5q0 20 15.5 35t36.5 15q17 0 28.5 -11.5t11.5 -28.5zM702 744q0 -46 -37 -89t-91 -64l-82 -375q-26 -114 -81 -171t-152 -57q-92 0 -146 48.5t-54 132.5q0 18 5 48l99 450h80l-100 -452q-4 -28 -4 -39
q0 -54 33 -86t90 -32q61 0 96.5 38.5t53.5 118.5l100 452h79l-8 -34q57 32 71 76q-1 -1 -7 -1q-14 0 -23.5 10t-9.5 26q0 19 14 32.5t33 13.5q18 0 29.5 -12t11.5 -34z" />
    <glyph glyph-name="uni1EF1" unicode="&#x1ef1;" 
d="M194 -132q0 -21 -15.5 -36t-35.5 -15q-17 0 -29 11.5t-12 29.5q0 20 15.5 35t36.5 15q17 0 28.5 -11.5t11.5 -28.5zM547 551q0 -42 -32 -82t-81 -64l-89 -405h-72l16 67q-71 -79 -144 -79q-51 0 -81 25t-30 71q0 22 5 37l79 362h72l-76 -344q-4 -16 -4 -29q0 -58 69 -58
q63 0 123 77l78 354h72l-7 -32q44 31 54 64h-7q-14 0 -23.5 10t-9.5 26q0 19 14 32.5t32 13.5q19 0 30.5 -12t11.5 -34z" />
    <glyph glyph-name="Ygrave" unicode="&#x1ef2;" horiz-adv-x="499" 
d="M235 0h-79l62 282l-121 385h84l89 -308l225 308h93l-291 -385zM403 723h-52l-102 144h73z" />
    <glyph glyph-name="ygrave" unicode="&#x1ef3;" horiz-adv-x="408" 
d="M-54 -186l25 63q11 -8 35 -8q32 0 60 47l43 76l-50 491h75l32 -396l209 396h80l-323 -585q-29 -51 -59 -72.5t-70 -21.5q-29 0 -57 10zM317 556h-52l-102 144h73z" />
    <glyph glyph-name="thinspace" unicode="&#x2009;" horiz-adv-x="43" 
 />
    <glyph glyph-name="endash" unicode="&#x2013;" horiz-adv-x="527" 
d="M489 210h-467l14 64h466z" />
    <glyph glyph-name="emdash" unicode="&#x2014;" horiz-adv-x="737" 
d="M699 210h-677l14 64h676z" />
    <glyph glyph-name="afii00208" unicode="&#x2015;" horiz-adv-x="527" 
d="M489 210h-467l14 64h466z" />
    <glyph glyph-name="quoteleft" unicode="&#x2018;" horiz-adv-x="229" 
d="M115 517q0 45 33 90.5t80 69.5l30 -31q-28 -15 -51.5 -38t-31.5 -46h8q17 0 29 -12.5t12 -31.5q0 -24 -17.5 -40.5t-40.5 -16.5q-22 0 -36.5 14.5t-14.5 41.5z" />
    <glyph glyph-name="quoteright" unicode="&#x2019;" horiz-adv-x="229" 
d="M254 620q0 -45 -33.5 -90.5t-80.5 -69.5l-29 32q28 14 51.5 37.5t31.5 46.5h-8q-17 0 -29 12t-12 31q0 24 17.5 41t40.5 17q22 0 36.5 -15t14.5 -42z" />
    <glyph glyph-name="quotesinglbase" unicode="&#x201a;" horiz-adv-x="229" 
d="M125 40q0 -45 -33 -90.5t-80 -69.5l-30 32q28 14 51.5 37t31.5 47q-1 -1 -8 -1q-17 0 -29 12.5t-12 31.5q0 24 17.5 41t40.5 17q22 0 36.5 -15t14.5 -42z" />
    <glyph glyph-name="quotereversed" unicode="&#x201b;" horiz-adv-x="229" 
d="M136 577q0 48 22.5 74t49.5 26q23 0 36.5 -13.5t13.5 -32.5q0 -23 -16.5 -38.5t-39.5 -15.5q-14 0 -22 3q-3 -24 9 -53t33 -49l-35 -23q-51 52 -51 122z" />
    <glyph glyph-name="quotedblleft" unicode="&#x201c;" horiz-adv-x="386" 
d="M275 517q0 45 33.5 90.5t80.5 69.5l29 -31q-28 -15 -51.5 -38t-31.5 -46h8q17 0 29 -12.5t12 -31.5q0 -24 -17 -40.5t-40 -16.5t-37.5 14.5t-14.5 41.5zM119 517q0 45 33.5 90.5t80.5 69.5l29 -31q-28 -15 -51.5 -38t-31.5 -46h8q17 0 29 -12.5t12 -31.5
q0 -24 -17.5 -40.5t-40.5 -16.5q-22 0 -36.5 14.5t-14.5 41.5z" />
    <glyph glyph-name="quotedblright" unicode="&#x201d;" horiz-adv-x="386" 
d="M254 620q0 -45 -33.5 -90.5t-80.5 -69.5l-29 32q28 14 51.5 37.5t31.5 46.5h-8q-17 0 -29 12t-12 31q0 24 17.5 41t40.5 17q22 0 36.5 -15t14.5 -42zM410 620q0 -45 -33 -90.5t-80 -69.5l-30 32q29 14 52.5 37.5t30.5 46.5h-8q-17 0 -29 12t-12 31q0 24 17.5 41t40.5 17
q22 0 36.5 -15t14.5 -42z" />
    <glyph glyph-name="quotedblbase" unicode="&#x201e;" horiz-adv-x="386" 
d="M125 40q0 -45 -33 -90.5t-80 -69.5l-30 32q28 14 51.5 37t31.5 47q-2 -1 -8 -1q-17 0 -29 12.5t-12 31.5q0 24 17.5 41t40.5 17q22 0 36.5 -15t14.5 -42zM282 40q0 -45 -33.5 -90.5t-80.5 -69.5l-30 32q29 14 52.5 37t30.5 47q-2 -1 -7 -1q-18 0 -30 12.5t-12 31.5
q0 24 17.5 41t40.5 17q22 0 37 -15t15 -42z" />
    <glyph glyph-name="dagger" unicode="&#x2020;" horiz-adv-x="262" 
d="M303 532l-88 4l-43 -209h-47l51 209l-90 -4l9 42l89 -3l19 106h47l-28 -106l90 3z" />
    <glyph glyph-name="daggerdbl" unicode="&#x2021;" horiz-adv-x="262" 
d="M312 574l-9 -42l-88 4l-48 -214l90 4l-9 -42l-88 3l-21 -107h-47l29 107l-90 -3l9 42l88 -4l48 214l-90 -4l9 42l88 -3l20 106h47l-28 -106z" />
    <glyph glyph-name="bullet" unicode="&#x2022;" horiz-adv-x="358" 
d="M287 253q0 -48 -36 -82.5t-84 -34.5q-41 0 -68.5 27.5t-27.5 68.5q0 48 36 82.5t84 34.5q41 0 68.5 -27.5t27.5 -68.5z" />
    <glyph glyph-name="ellipsis" unicode="&#x2026;" horiz-adv-x="685" 
d="M65 -10q-21 0 -35 14.5t-14 34.5q0 24 17.5 41t41.5 17q20 0 34 -14.5t14 -35.5q0 -24 -17 -40.5t-41 -16.5zM293 -10q-20 0 -34.5 14.5t-14.5 34.5q0 24 17.5 41t41.5 17q20 0 34.5 -14.5t14.5 -35.5q0 -24 -17.5 -40.5t-41.5 -16.5zM521 -10q-20 0 -34 14.5t-14 34.5
q0 24 17 41t41 17q21 0 35 -14.5t14 -35.5q0 -24 -17.5 -40.5t-41.5 -16.5z" />
    <glyph glyph-name="perthousand" unicode="&#x2030;" horiz-adv-x="962" 
d="M121 0h-47l497 667h48zM441 -12q-57 0 -91.5 36t-34.5 92q0 85 49 143t113 58q57 0 92 -36t35 -92q0 -85 -49 -143t-114 -58zM443 37q41 0 72.5 43t31.5 104q0 39 -19.5 61.5t-52.5 22.5q-40 0 -72 -43t-32 -104q0 -39 19.5 -61.5t52.5 -22.5zM212 348q-57 0 -91.5 36
t-34.5 92q0 85 48.5 143t113.5 58q57 0 91.5 -36t34.5 -92q0 -85 -48.5 -143t-113.5 -58zM214 397q40 0 72 43t32 104q0 39 -19.5 61.5t-52.5 22.5q-41 0 -72.5 -43t-31.5 -104q0 -39 19.5 -61.5t52.5 -22.5zM752 -12q-56 0 -91 36t-35 92q0 85 49 143t113 58q57 0 92 -36
t35 -92q0 -85 -49 -143t-114 -58zM754 37q41 0 73 43t32 104q0 39 -20 61.5t-53 22.5q-40 0 -72 -43t-32 -104q0 -39 19.5 -61.5t52.5 -22.5z" />
    <glyph glyph-name="guilsinglleft" unicode="&#x2039;" horiz-adv-x="252" 
d="M178 63h-64l-85 180l165 177h70l-169 -181z" />
    <glyph glyph-name="guilsinglright" unicode="&#x203a;" horiz-adv-x="252" 
d="M75 420h64l85 -180l-165 -177h-70l169 182z" />
    <glyph glyph-name="uni203E" unicode="&#x203e;" horiz-adv-x="306" 
d="M377 573h-304l10 46h305z" />
    <glyph glyph-name="fraction" unicode="&#x2044;" horiz-adv-x="127" 
d="M355 667l-497 -667h-48l497 667h48z" />
    <glyph glyph-name="zerosuperior" unicode="&#x2070;" horiz-adv-x="326" 
d="M384 686q0 -38 -10.5 -82.5t-30.5 -88t-55.5 -72.5t-80.5 -29q-56 0 -86.5 36.5t-30.5 104.5q0 38 10.5 82.5t30.5 88t55.5 72.5t80.5 29q56 0 86.5 -36.5t30.5 -104.5zM326 692q0 87 -62 87q-28 0 -51.5 -26t-37 -64t-20.5 -75t-7 -65q0 -87 61 -87q38 0 66 44.5
t39.5 95t11.5 90.5z" />
    <glyph glyph-name="foursuperior" unicode="&#x2074;" horiz-adv-x="326" 
d="M353 522h-47l-22 -101h-58l22 101h-168l10 45l206 254h76l-56 -252h47zM258 569l43 189l-156 -189h113z" />
    <glyph glyph-name="fivesuperior" unicode="&#x2075;" horiz-adv-x="326" 
d="M354 574q0 -65 -41.5 -112.5t-104.5 -47.5q-95 0 -130 71l44 31q23 -54 86 -54q38 0 62 31.5t24 73.5q0 30 -18 46.5t-47 16.5q-41 0 -76 -38l-39 15l48 214h226l-11 -48h-168l-29 -130q33 31 74 31q42 0 71 -26.5t29 -73.5z" />
    <glyph glyph-name="sixsuperior" unicode="&#x2076;" horiz-adv-x="326" 
d="M357 574q0 -60 -38.5 -110t-104.5 -50q-59 0 -90 35t-31 97t21.5 125.5t65.5 109.5t99 46q75 0 108 -52l-37 -36q-20 40 -72 40q-49 0 -79.5 -49.5t-39.5 -103.5q0 -2 -0.5 -5t-0.5 -4q41 59 98 59q44 0 72.5 -26.5t28.5 -75.5zM298 567q0 30 -18 46t-48 16
q-42 0 -81 -57q-3 -14 -3 -33q0 -34 18 -55.5t49 -21.5q36 0 59.5 33.5t23.5 71.5z" />
    <glyph glyph-name="sevensuperior" unicode="&#x2077;" horiz-adv-x="300" 
d="M382 781l-217 -360h-61l215 352h-187l11 48h247z" />
    <glyph glyph-name="eightsuperior" unicode="&#x2078;" horiz-adv-x="326" 
d="M348 531q0 -51 -37.5 -84t-96.5 -33q-58 0 -96 25.5t-38 72.5q0 44 33 77t80 42q-61 28 -61 83q0 51 38.5 82t90.5 31q50 0 88 -24t38 -69q0 -41 -27.5 -72t-76.5 -41q26 -11 45.5 -35.5t19.5 -54.5zM327 727q0 27 -18 40.5t-47 13.5q-32 0 -53.5 -21.5t-21.5 -51.5
q0 -24 19.5 -40.5t36.5 -21.5q34 6 59 26.5t25 54.5zM290 535q0 25 -17 44.5t-39 26.5q-39 -4 -66.5 -29t-27.5 -61q0 -24 20.5 -40.5t49.5 -16.5q33 0 56.5 22t23.5 54z" />
    <glyph glyph-name="ninesuperior" unicode="&#x2079;" horiz-adv-x="326" 
d="M118 668q0 60 38.5 110t104.5 50q59 0 90.5 -35t31.5 -97t-21.5 -125.5t-65.5 -109.5t-100 -46q-76 0 -108 52l37 36q19 -40 72 -40q49 0 80 50t39 103q0 2 0.5 5t0.5 4q-41 -59 -98 -59q-44 0 -72.5 26.5t-28.5 75.5zM177 675q0 -30 18 -46t48 -16q42 0 81 56q4 20 4 34
q0 34 -18 55.5t-50 21.5q-36 0 -59.5 -33.5t-23.5 -71.5z" />
    <glyph glyph-name="parenleftsuperior" unicode="&#x207d;" horiz-adv-x="147" 
d="M163 370l-35 -14q-32 68 -32 162q0 195 149 368l29 -14q-127 -188 -127 -375q0 -75 16 -127z" />
    <glyph glyph-name="parenrightsuperior" unicode="&#x207e;" horiz-adv-x="147" 
d="M155 872l35 14q32 -68 32 -162q0 -197 -149 -368l-29 14q127 188 127 375q0 75 -16 127z" />
    <glyph glyph-name="nsuperior" unicode="&#x207f;" horiz-adv-x="343" 
d="M306 326h-55l47 216q3 15 3 20q0 40 -46 40q-40 0 -81 -52l-49 -224h-56l69 314h56l-10 -44q43 52 97 52q38 0 58.5 -17.5t20.5 -48.5q0 -3 -0.5 -8t-1.5 -11t-1 -10z" />
    <glyph glyph-name="zeroinferior" unicode="&#x2080;" horiz-adv-x="326" 
d="M268 119q0 -38 -10.5 -82.5t-30.5 -88t-55.5 -72.5t-80.5 -29q-56 0 -86.5 36.5t-30.5 104.5q0 38 10.5 82.5t30.5 88t55.5 72.5t80.5 29q56 0 86.5 -36.5t30.5 -104.5zM210 125q0 87 -62 87q-28 0 -51.5 -26t-37 -64t-20.5 -75t-7 -65q0 -87 61 -87q38 0 66 44.5
t39.5 95t11.5 90.5z" />
    <glyph glyph-name="oneinferior" unicode="&#x2081;" horiz-adv-x="225" 
d="M83 -146h-58l70 321l-74 -63l-28 36l127 106h51z" />
    <glyph glyph-name="twoinferior" unicode="&#x2082;" horiz-adv-x="326" 
d="M205 -146h-250l10 47q161 127 198 165q48 50 48 90q0 27 -19 41.5t-48 14.5q-55 0 -94 -47l-29 38q52 57 126 57q51 0 87 -26t36 -74q0 -37 -30.5 -78.5t-64 -71t-115.5 -95.5q-10 -9 -16 -13h171z" />
    <glyph glyph-name="threeinferior" unicode="&#x2083;" horiz-adv-x="326" 
d="M232 -28q0 -47 -37 -86t-97 -39q-47 0 -83 19t-52 53l42 32q26 -56 91 -56q37 0 57.5 26t20.5 60q0 26 -20.5 40.5t-52.5 14.5q-22 0 -28 -1l10 48q9 -1 46 -1q36 0 58.5 20t22.5 55q0 25 -20 40t-51 15q-50 0 -91 -43l-27 35q53 56 122 56q56 0 90.5 -25t34.5 -71
q0 -40 -27.5 -71.5t-72.5 -37.5q28 -7 46 -29t18 -54z" />
    <glyph glyph-name="fourinferior" unicode="&#x2084;" horiz-adv-x="326" 
d="M237 -45h-47l-22 -101h-58l22 101h-168l10 45l206 254h76l-56 -252h47zM142 2l43 189l-156 -189h113z" />
    <glyph glyph-name="fiveinferior" unicode="&#x2085;" horiz-adv-x="326" 
d="M238 7q0 -65 -41.5 -112.5t-104.5 -47.5q-95 0 -130 71l44 31q23 -54 86 -54q38 0 62 31.5t24 73.5q0 30 -18 46.5t-47 16.5q-41 0 -76 -38l-39 15l48 214h226l-11 -48h-168l-29 -130q33 31 74 31q42 0 71 -26.5t29 -73.5z" />
    <glyph glyph-name="sixinferior" unicode="&#x2086;" horiz-adv-x="326" 
d="M241 7q0 -60 -38.5 -110t-104.5 -50q-59 0 -90 35t-31 97t21.5 125.5t65.5 109.5t99 46q75 0 108 -52l-37 -36q-20 40 -72 40q-49 0 -79.5 -49.5t-39.5 -103.5q0 -2 -0.5 -5t-0.5 -4q41 59 98 59q44 0 72.5 -26.5t28.5 -75.5zM182 0q0 30 -18 46t-48 16q-42 0 -81 -57
q-3 -13 -3 -33q0 -34 18 -55.5t49 -21.5q36 0 59.5 33.5t23.5 71.5z" />
    <glyph glyph-name="seveninferior" unicode="&#x2087;" horiz-adv-x="300" 
d="M266 214l-217 -360h-61l215 352h-187l11 48h247z" />
    <glyph glyph-name="eightinferior" unicode="&#x2088;" horiz-adv-x="326" 
d="M232 -36q0 -51 -37.5 -84t-96.5 -33q-58 0 -96 25.5t-38 72.5q0 44 33 77t80 42q-61 28 -61 83q0 51 38.5 82t90.5 31q50 0 88 -24t38 -69q0 -41 -27.5 -72t-76.5 -41q26 -11 45.5 -35.5t19.5 -54.5zM211 160q0 27 -18 40.5t-47 13.5q-32 0 -53.5 -21.5t-21.5 -51.5
q0 -24 19.5 -40.5t36.5 -21.5q34 6 59 26.5t25 54.5zM174 -32q0 25 -17 44.5t-39 26.5q-39 -4 -66.5 -29t-27.5 -61q0 -24 20.5 -40.5t49.5 -16.5q33 0 56.5 22t23.5 54z" />
    <glyph glyph-name="nineinferior" unicode="&#x2089;" horiz-adv-x="326" 
d="M2 101q0 60 38.5 110t104.5 50q59 0 90.5 -35t31.5 -97t-21.5 -125.5t-65.5 -109.5t-100 -46q-76 0 -108 52l37 36q19 -40 72 -40q49 0 80 50t39 103q0 2 0.5 5t0.5 4q-41 -59 -98 -59q-44 0 -72.5 26.5t-28.5 75.5zM61 108q0 -30 18 -46t48 -16q42 0 81 56q4 20 4 34
q0 34 -18 55.5t-50 21.5q-36 0 -59.5 -33.5t-23.5 -71.5z" />
    <glyph glyph-name="parenleftinferior" unicode="&#x208d;" horiz-adv-x="147" 
d="M38 -197l-35 -14q-32 68 -32 162q0 195 149 368l29 -14q-127 -188 -127 -375q0 -75 16 -127z" />
    <glyph glyph-name="parenrightinferior" unicode="&#x208e;" horiz-adv-x="147" 
d="M30 305l35 14q32 -68 32 -162q0 -197 -149 -368l-29 14q127 188 127 375q0 75 -16 127z" />
    <glyph glyph-name="colonmonetary" unicode="&#x20a1;" horiz-adv-x="522" 
d="M271 -12q-27 0 -46 4l-45 -92h-51l51 104q-26 10 -48 27l-64 -131h-50l81 165q-50 63 -50 164q0 108 38.5 210t113 170.5t164.5 68.5q17 0 34 -3l46 93h50l-51 -104q28 -11 48 -28l65 132h50l-82 -165q27 -34 41 -80l-75 -23l-7 18l-226 -458q6 -1 18 -1q71 0 136 81
l61 -38q-83 -114 -202 -114zM132 229q0 -45 10 -76l223 454h-6q-61 0 -114.5 -58.5t-83 -145.5t-29.5 -174zM168 105q16 -21 45 -34l243 493q-20 22 -45 33z" />
    <glyph glyph-name="frenchfranc" unicode="&#x20a3;" 
d="M110 0h-80l30 139h-68l10 46h68l107 482h343l-15 -70h-264l-49 -221h257l-16 -70h-256l-27 -121h151l-10 -46h-151z" />
    <glyph glyph-name="lira" unicode="&#x20a4;" horiz-adv-x="449" 
d="M43 328l10 45h57q-15 37 -15 76q0 92 64.5 160t151.5 68q64 0 111.5 -32t56.5 -88l-70 -27q-6 36 -31.5 58t-64.5 22q-53 0 -93 -48t-40 -120q0 -32 15 -69h145l-11 -45h-114q12 -31 12 -58q0 -10 -1 -14h88l-10 -45h-87q-27 -79 -96 -125q21 8 41 8q28 0 68.5 -18
t62.5 -18q44 0 80 38l17 -64q-47 -45 -106 -45q-41 0 -90 22t-79 22q-39 0 -97 -38l-16 59q51 24 90.5 67.5t52.5 91.5h-128l10 45h124q-2 33 -20 72h-88z" />
    <glyph glyph-name="uni20A6" unicode="&#x20a6;" horiz-adv-x="599" 
d="M462 0h-77l-78 242h-144l-53 -242h-80l53 242h-68l10 47h69l21 96h-68l10 47h68l52 235h80l76 -235h144l52 235h80l-52 -235h65l-9 -47h-66l-21 -96h65l-10 -47h-66zM194 385l-21 -96h119l-30 96h-68zM348 385l31 -96h66l21 96h-118zM222 511l-17 -79h42zM394 242l24 -75
l16 75h-40z" />
    <glyph glyph-name="peseta" unicode="&#x20a7;" horiz-adv-x="541" 
d="M109 0h-79l97 443h-67l10 48h68l39 176h192q66 0 109.5 -46.5t43.5 -115.5q0 -3 -0.5 -7.5t-0.5 -6.5h66l-11 -48h-62q-17 -75 -74.5 -125.5t-150.5 -50.5h-121zM297 337q51 0 85 29.5t48 76.5h-224l-23 -106h114zM241 597l-24 -106h221v8q0 44 -25 71t-64 27h-108z" />
    <glyph glyph-name="rupee" unicode="&#x20a8;" horiz-adv-x="850" 
d="M622 -12q-115 0 -166 76l45 48q17 -28 50.5 -47t73.5 -19q41 0 68 25.5t27 59.5q0 24 -20 44t-48 36t-56.5 33t-48.5 44t-20 61q0 61 44 103.5t118 42.5q47 0 87.5 -19t62.5 -50l-42 -46q-13 24 -44.5 40.5t-66.5 16.5q-40 0 -64 -21t-24 -54q0 -27 30.5 -50.5
t66.5 -40.5t66.5 -50t30.5 -76q0 -65 -47 -111t-123 -46zM410 0h-86l-69 267h-101l-58 -267h-80l147 667h185q68 0 114.5 -45t46.5 -117q0 -89 -50 -153.5t-127 -76.5zM169 337h115q66 0 103.5 48t37.5 114q0 45 -26 71.5t-64 26.5h-108z" />
    <glyph glyph-name="uni20A9" unicode="&#x20a9;" horiz-adv-x="730" 
d="M504 0h-85l3 242h-117l-103 -242h-85l-1 242h-93l11 47h82v96h-60l9 47h51v235h84l-6 -235h127l102 235h67l-3 -235h127l99 235h86l-104 -235h49l-9 -47h-61l-42 -96h81l-10 -47h-92zM193 385l-2 -96h69l41 96h-108zM486 385l-1 -96h68l41 96h-108zM366 385l-41 -96h98
l1 96h-58zM239 242h-49l-2 -119zM533 242h-49l-1 -119zM427 526l-41 -94h39z" />
    <glyph glyph-name="afii57636" unicode="&#x20aa;" horiz-adv-x="659" 
d="M392 0h-227l87 392h64l-74 -332h149q52 0 81 29.5t43 96.5l81 364h64l-81 -364q-20 -93 -64 -139.5t-123 -46.5zM133 550h170q75 0 121 -33.5t46 -103.5q0 -22 -8 -66l-41 -190h-65l44 199q6 28 6 44q0 45 -27.5 67.5t-75.5 22.5h-119l-108 -490h-64z" />
    <glyph glyph-name="dong" unicode="&#x20ab;" horiz-adv-x="488" 
d="M311 -141h-304l10 46h305zM252 495q43 0 76.5 -22t51.5 -63l27 126h-147l9 46h148l19 85h72l-19 -85h50l-10 -46h-50l-119 -536h-72l15 66q-54 -78 -130 -78q-65 0 -103.5 45t-38.5 126q0 73 24.5 148.5t77 131.5t119.5 56zM262 431q-45 0 -82 -45t-55 -104.5t-18 -112.5
q0 -56 25 -86.5t70 -30.5q33 0 64.5 23.5t51.5 57.5l49 218q-11 35 -39.5 57.5t-65.5 22.5z" />
    <glyph glyph-name="Euro" unicode="&#x20ac;" horiz-adv-x="549" 
d="M291 -12q-100 0 -161 64.5t-61 176.5v9h-47l11 50h39q4 44 17 92h-36l12 51h40q41 109 114.5 178t165.5 69q78 0 128.5 -42.5t72.5 -112.5l-75 -23q-35 107 -132 107q-57 0 -105.5 -48.5t-81.5 -127.5h216l-12 -51h-221q-14 -48 -20 -92h221l-12 -50h-212v-9
q0 -81 38 -125.5t106 -44.5q71 0 136 81l61 -38q-83 -114 -202 -114z" />
    <glyph glyph-name="afii61289" unicode="&#x2113;" horiz-adv-x="425" 
d="M202 514l-36 -161l138 93q34 24 51 37t31.5 33t14.5 40q0 29 -24 48t-58 19q-93 0 -117 -109zM333 401l-184 -125l-38 -168q0 -2 -1.5 -10.5t-1.5 -13.5q0 -36 39 -36q21 0 39 16l10 -54q-26 -22 -66 -22q-44 0 -70 19.5t-26 56.5q0 18 4 35l93 419q16 76 64.5 117.5
t128.5 41.5q60 0 103.5 -30.5t43.5 -81.5q0 -24 -10 -45t-34 -44t-41 -36t-53 -39z" />
    </font>
</defs>
</svg>
