<?xml version="1.0" standalone="no"?>
<!DOCTYPE svg PUBLIC "-//W3C//DTD SVG 1.1//EN" "http://www.w3.org/Graphics/SVG/1.1/DTD/svg11.dtd" >
<svg xmlns="http://www.w3.org/2000/svg" xmlns:xlink="http://www.w3.org/1999/xlink" version="1.1">
<metadata>
Created by FontForge 20170731 at Tue Nov 30 17:35:37 2010
 By ,,,
Copyright (c) Mark Simonson, 2005. All rights reserved.
</metadata>
<defs>
<font id="ProximaNovaCond-ThinIt" horiz-adv-x="459" >
  <font-face 
    font-family="Proxima Nova Cn Th"
    font-weight="250"
    font-style="italic"
    font-stretch="normal"
    units-per-em="1000"
    panose-1="2 0 5 6 3 0 0 2 0 4"
    ascent="790"
    descent="-210"
    x-height="483"
    cap-height="667"
    bbox="-190 -252 897 886"
    underline-thickness="20"
    underline-position="-173"
    unicode-range="U+000D-FB04"
  />
<missing-glyph horiz-adv-x="511" 
d="M451 -90h-351v842h351v-842zM419 -60v782h-288v-782h288z" />
    <glyph glyph-name="f_f_j" unicode="ffj" horiz-adv-x="629" 
d="M289 0h-30l101 456h-65l6 27h65l17 79q25 115 116 115q31 0 51 -14l-15 -24q-15 11 -39 11q-64 0 -83 -88l-17 -79h84l-6 -27h-84zM378 -196q-56 0 -77 41l25 17q16 -31 51 -31q55 0 73 83l127 569h30l-127 -569q-13 -60 -37.5 -85t-64.5 -25zM613 566q-11 0 -19 7.5
t-8 18.5q0 14 10.5 23t22.5 9q11 0 19 -7.5t8 -18.5q0 -14 -10.5 -23t-22.5 -9zM65 0h-30l101 456h-65l6 27h65l17 79q26 115 116 115q45 0 70 -31l-21 -21q-19 25 -52 25q-64 0 -83 -88l-17 -79h84l-6 -27h-84z" />
    <glyph glyph-name="f_j" unicode="fj" horiz-adv-x="405" 
d="M65 0h-30l101 456h-65l6 27h65l17 79q25 115 116 115q31 0 51 -14l-15 -24q-15 11 -39 11q-64 0 -83 -88l-17 -79h84l-6 -27h-84zM154 -196q-56 0 -77 41l25 17q16 -31 51 -31q55 0 73 83l127 569h30l-127 -569q-13 -60 -37.5 -85t-64.5 -25zM389 566q-11 0 -19 7.5
t-8 18.5q0 14 10.5 23t22.5 9q11 0 19 -7.5t8 -18.5q0 -14 -10.5 -23t-22.5 -9z" />
    <glyph glyph-name="f_f" unicode="ff" horiz-adv-x="448" 
d="M65 0h-30l101 456h-65l6 27h65l17 79q26 115 116 115q45 0 70 -31l-21 -21q-19 25 -52 25q-64 0 -83 -88l-17 -79h84l-6 -27h-84zM289 0h-30l101 456h-65l6 27h65l17 79q26 115 116 115q45 0 70 -31l-21 -21q-19 25 -52 25q-64 0 -83 -88l-17 -79h84l-6 -27h-84z" />
    <glyph glyph-name="fi" unicode="fi" horiz-adv-x="405" 
d="M65 0h-30l101 456h-65l6 27h65l17 79q25 115 116 115q31 0 51 -14l-15 -24q-15 11 -39 11q-64 0 -83 -88l-17 -79h84l-6 -27h-84zM389 566q-11 0 -19 7.5t-8 18.5q0 14 10.5 23t22.5 9q11 0 19 -7.5t8 -18.5q0 -14 -10.5 -23t-22.5 -9zM276 0h-30l107 483h30z" />
    <glyph glyph-name="fl" unicode="fl" horiz-adv-x="405" 
d="M65 0h-30l101 456h-65l6 27h65l17 79q25 115 116 115q31 0 51 -14l-15 -24q-15 11 -39 11q-64 0 -83 -88l-17 -79h84l-6 -27h-84zM276 0h-30l147 667h30z" />
    <glyph glyph-name="f_f_i" unicode="ffi" horiz-adv-x="629" 
d="M289 0h-30l101 456h-65l6 27h65l17 79q25 115 116 115q31 0 51 -14l-15 -24q-15 11 -39 11q-64 0 -83 -88l-17 -79h84l-6 -27h-84zM613 566q-11 0 -19 7.5t-8 18.5q0 14 10.5 23t22.5 9q11 0 19 -7.5t8 -18.5q0 -14 -10.5 -23t-22.5 -9zM500 0h-30l107 483h30zM65 0h-30
l101 456h-65l6 27h65l17 79q26 115 116 115q45 0 70 -31l-21 -21q-19 25 -52 25q-64 0 -83 -88l-17 -79h84l-6 -27h-84z" />
    <glyph glyph-name="f_f_l" unicode="ffl" horiz-adv-x="629" 
d="M289 0h-30l101 456h-65l6 27h65l17 79q25 115 116 115q31 0 51 -14l-15 -24q-15 11 -39 11q-64 0 -83 -88l-17 -79h84l-6 -27h-84zM500 0h-30l147 667h30zM65 0h-30l101 456h-65l6 27h65l17 79q26 115 116 115q45 0 70 -31l-21 -21q-19 25 -52 25q-64 0 -83 -88l-17 -79
h84l-6 -27h-84z" />
    <glyph glyph-name="f_b" unicode="fb" horiz-adv-x="683" 
d="M65 0h-30l101 456h-65l6 27h65l17 79q25 115 116 115q31 0 51 -14l-15 -24q-15 11 -39 11q-64 0 -83 -88l-17 -79h84l-6 -27h-84zM424 -12q-44 0 -78.5 25t-52.5 69l-17 -82h-30l147 667h30l-56 -255q54 83 136 83q63 0 100.5 -44t37.5 -121q0 -74 -25 -151t-76.5 -134
t-115.5 -57zM425 15q53 0 97 54.5t65 125t21 134.5q0 68 -29 103.5t-81 35.5q-40 0 -79 -29.5t-63 -72.5l-55 -251q11 -42 45 -71t79 -29z" />
    <glyph glyph-name="f_h" unicode="fh" horiz-adv-x="659" 
d="M65 0h-30l101 456h-65l6 27h65l17 79q25 115 116 115q31 0 51 -14l-15 -24q-15 11 -39 11q-64 0 -83 -88l-17 -79h84l-6 -27h-84zM530 0h-30l81 367q5 20 5 33q0 68 -80 68q-38 0 -77.5 -27.5t-70.5 -67.5l-82 -373h-30l147 667h30l-56 -256q71 84 145 84q48 0 76 -23.5
t28 -67.5q0 -18 -6 -38z" />
    <glyph glyph-name="f_k" unicode="fk" horiz-adv-x="635" 
d="M65 0h-30l101 456h-65l6 27h65l17 79q25 115 116 115q31 0 51 -14l-15 -24q-15 11 -39 11q-64 0 -83 -88l-17 -79h84l-6 -27h-84zM556 0h-33l-109 245l-107 -103l-31 -142h-30l147 667h30l-106 -480l310 296h40l-231 -218z" />
    <glyph glyph-name=".notdef" horiz-adv-x="511" 
d="M451 -90h-351v842h351v-842zM419 -60v782h-288v-782h288z" />
    <glyph glyph-name=".null" horiz-adv-x="0" 
 />
    <glyph glyph-name=".null" horiz-adv-x="0" 
 />
    <glyph glyph-name="nonmarkingreturn" horiz-adv-x="333" 
 />
    <glyph glyph-name="CR" unicode="&#xd;" horiz-adv-x="0" 
 />
    <glyph glyph-name="space" unicode=" " horiz-adv-x="220" 
 />
    <glyph glyph-name="exclam" unicode="!" horiz-adv-x="208" 
d="M95 161h-20l101 506h42zM52 -9q-13 0 -21.5 8.5t-8.5 21.5q0 15 10.5 25t25.5 10q13 0 21.5 -8.5t8.5 -21.5q0 -15 -10.5 -25t-25.5 -10z" />
    <glyph glyph-name="quotedbl" unicode="&#x22;" horiz-adv-x="290" 
d="M140 443h-21q29 195 30 201q5 33 31 33q10 0 16.5 -7t6.5 -17q0 -5 -4 -17zM256 443h-21q29 195 30 201q5 33 31 33q10 0 16.5 -7t6.5 -17q0 -5 -4 -17z" />
    <glyph glyph-name="numbersign" unicode="#" horiz-adv-x="481" 
d="M175 0h-33l98 191h-102l-96 -191h-33l97 191h-96l14 29h96l116 227h-97l12 29h99l95 191h33l-95 -191h100l96 191h32l-96 -191h95l-12 -29h-97l-116 -227h99l-13 -29h-100zM252 220l117 227h-101l-115 -227h99z" />
    <glyph glyph-name="dollar" unicode="$" horiz-adv-x="440" 
d="M136 -100l20 90q-48 7 -87.5 30.5t-58.5 56.5l28 22q42 -68 124 -79l71 318q-28 20 -44 33.5t-36 34.5t-29 45t-9 52q0 73 54.5 124t127.5 51h12l20 90h32l-21 -94q82 -16 115 -71l-26 -22q-34 50 -96 63l-64 -290q54 -40 83.5 -78t29.5 -91q0 -81 -53.5 -139t-140.5 -58
h-1l-19 -88h-32zM348 185q0 41 -23 71.5t-65 61.5l-66 -300q70 1 112 49t42 118zM149 503q0 -37 23 -65.5t69 -62.5l61 273h-5q-62 0 -105 -43.5t-43 -101.5z" />
    <glyph glyph-name="percent" unicode="%" horiz-adv-x="632" 
d="M107 0h-34l495 667h35zM423 -12q-54 0 -86 36t-32 89q0 85 48 143t109 58q54 0 85.5 -35.5t31.5 -89.5q0 -85 -47.5 -143t-108.5 -58zM423 15q48 0 85.5 50t37.5 122q0 47 -23.5 73.5t-61.5 26.5q-48 0 -85.5 -50t-37.5 -121q0 -47 23.5 -74t61.5 -27zM209 351
q-54 0 -85.5 35.5t-31.5 89.5q0 85 47.5 143t108.5 58q54 0 86 -36t32 -89q0 -85 -48 -143t-109 -58zM210 378q48 0 85.5 50t37.5 122q0 47 -23.5 73.5t-61.5 26.5q-48 0 -85.5 -50t-37.5 -121q0 -47 23.5 -74t61.5 -27z" />
    <glyph glyph-name="ampersand" unicode="&#x26;" horiz-adv-x="498" 
d="M400 0h-43q-30 55 -39 73q-78 -85 -158 -85q-60 0 -98.5 36t-38.5 98q0 47 13 85t39.5 68t51.5 50t63 44q-16 57 -16 113q0 77 44 136t99 59q42 0 67.5 -23.5t25.5 -72.5q0 -31 -10 -59t-23.5 -47t-39.5 -40.5t-44.5 -33.5t-51.5 -33q-9 -5 -13 -8q16 -50 44 -112
q26 -65 52 -116q52 68 97 166l28 -13q-58 -120 -109 -185zM160 18q67 0 141 86q-43 87 -57 122q-24 56 -45 115q-67 -44 -104 -93.5t-37 -123.5q0 -50 29 -78t73 -28zM208 475q0 -42 12 -87q39 24 60 39t47.5 39.5t38 53t11.5 62.5q0 65 -62 65q-40 0 -73.5 -51.5
t-33.5 -120.5z" />
    <glyph glyph-name="quotesingle" unicode="'" horiz-adv-x="176" 
d="M140 443h-21q29 195 30 201q5 33 31 33q10 0 16.5 -7t6.5 -17q0 -5 -4 -17z" />
    <glyph glyph-name="parenleft" unicode="(" horiz-adv-x="187" 
d="M74 -192l-19 -7q-33 112 -33 231q0 341 228 653l15 -10q-213 -332 -213 -668q0 -92 22 -199z" />
    <glyph glyph-name="parenright" unicode=")" horiz-adv-x="187" 
d="M112 678l19 7q33 -112 33 -230q0 -342 -228 -654l-16 10q214 332 214 669q0 91 -22 198z" />
    <glyph glyph-name="asterisk" unicode="*" horiz-adv-x="309" 
d="M206 409h-31l33 120l-114 -53l-9 27l118 42l-93 64l20 24l85 -74l20 118h31l-33 -120l114 53l9 -27l-117 -42l92 -64l-20 -24l-85 74z" />
    <glyph glyph-name="plus" unicode="+" horiz-adv-x="434" 
d="M422 322h-172l-42 -192h-32l42 192h-172l7 30h172l41 186h32l-41 -186h172z" />
    <glyph glyph-name="comma" unicode="," horiz-adv-x="208" 
d="M89 18q0 -36 -27 -73.5t-62 -56.5l-18 20q27 15 47 38t25 46h-6q-10 0 -18 8.5t-8 19.5q0 15 10.5 25.5t24.5 10.5q32 0 32 -38z" />
    <glyph glyph-name="hyphen" unicode="-" horiz-adv-x="265" 
d="M231 227h-205l6 30h205z" />
    <glyph glyph-name="period" unicode="." horiz-adv-x="208" 
d="M52 -9q-13 0 -21.5 8.5t-8.5 21.5q0 15 10.5 25t25.5 10q13 0 21.5 -8.5t8.5 -21.5q0 -15 -10.5 -25t-25.5 -10z" />
    <glyph glyph-name="slash" unicode="/" horiz-adv-x="223" 
d="M-28 -20h-31l348 707h33z" />
    <glyph glyph-name="zero" unicode="0" horiz-adv-x="491" 
d="M209 -12q-73 0 -111.5 53.5t-38.5 152.5q0 74 18 157t50 156.5t83.5 121.5t110.5 48q73 0 111 -53t38 -152q0 -74 -18 -157t-50 -156.5t-83 -122t-110 -48.5zM211 18q65 0 119 81t80.5 185t26.5 193q0 170 -118 170q-65 0 -119 -80.5t-81 -184.5t-27 -193
q0 -171 119 -171z" />
    <glyph glyph-name="one" unicode="1" horiz-adv-x="260" 
d="M126 0h-32l137 621l-130 -115l-17 23l159 138h30z" />
    <glyph glyph-name="two" unicode="2" horiz-adv-x="463" 
d="M334 0h-328l8 37q39 40 101.5 101.5t91.5 91t71.5 74t61.5 69.5t40 57.5t28.5 58t7.5 51.5q0 49 -32.5 78t-85.5 29q-83 0 -140 -75l-25 19q67 86 165 86q66 0 109.5 -34.5t43.5 -100.5q0 -25 -8 -51.5t-19 -50t-36 -56t-44.5 -56t-59 -65t-66 -68t-80 -79.5t-86.5 -86
h288z" />
    <glyph glyph-name="three" unicode="3" horiz-adv-x="439" 
d="M178 -12q-64 0 -111.5 36.5t-61.5 99.5l32 12q13 -56 50.5 -87t90.5 -31q71 0 115 59t44 139q0 54 -35.5 84t-89.5 30q-29 0 -38 -1l8 32q8 -1 65 -1q65 0 109.5 51t44.5 125q0 51 -32.5 81t-88.5 30q-79 0 -139 -79l-24 19q29 40 73 65t92 25q68 0 110.5 -37t42.5 -104
q0 -74 -45.5 -130.5t-109.5 -65.5q41 -13 65.5 -48.5t24.5 -81.5q0 -87 -54 -154.5t-138 -67.5z" />
    <glyph glyph-name="four" unicode="4" horiz-adv-x="417" 
d="M260 0h-32l43 195h-257l8 34l342 438h43l-98 -442h78l-6 -30h-78zM277 225l88 396l-310 -396h222z" />
    <glyph glyph-name="five" unicode="5" horiz-adv-x="461" 
d="M196 -12q-67 0 -106 34.5t-58 100.5l33 11q26 -116 135 -116q66 0 117.5 73.5t51.5 164.5q0 59 -31.5 91.5t-85.5 32.5q-63 0 -126 -57l-22 18l72 326h289l-6 -30h-257l-61 -275q46 48 118 48q62 0 103 -41t41 -113q0 -104 -60.5 -186t-146.5 -82z" />
    <glyph glyph-name="six" unicode="6" horiz-adv-x="464" 
d="M202 -12q-75 0 -110.5 51.5t-35.5 139.5q0 44 8.5 103t29 129t50 128.5t76.5 98t104 39.5q53 0 91 -29.5t50 -81.5l-30 -14q-9 44 -38.5 69.5t-74.5 25.5q-150 0 -218 -324q-1 -5 -3 -17q27 40 71 70t92 30q65 0 104.5 -38t39.5 -108q0 -99 -58 -185.5t-148 -86.5z
M207 18q72 0 120 79t48 162q0 53 -30.5 85t-84.5 32q-88 0 -167 -120q-7 -37 -7 -86q0 -70 30.5 -111t90.5 -41z" />
    <glyph glyph-name="seven" unicode="7" horiz-adv-x="384" 
d="M83 0h-36l356 637h-286l6 30h324l-5 -22z" />
    <glyph glyph-name="eight" unicode="8" horiz-adv-x="455" 
d="M197 -12q-75 0 -120 36.5t-45 105.5q0 76 49 133.5t134 84.5q-38 21 -66 59t-28 84q0 77 53.5 131.5t126.5 54.5q65 0 109 -36.5t44 -102.5q0 -78 -49 -128t-122 -69q41 -25 70.5 -65.5t29.5 -90.5q0 -83 -54.5 -140t-131.5 -57zM253 359q69 12 117.5 58.5t48.5 121.5
q0 48 -34 77.5t-87 29.5q-58 0 -100.5 -44.5t-42.5 -113.5q0 -43 30.5 -79t67.5 -50zM196 18q59 0 106.5 48.5t47.5 120.5q0 53 -33.5 92t-69.5 52q-75 -13 -127.5 -67t-52.5 -129q0 -57 37 -87t92 -30z" />
    <glyph glyph-name="nine" unicode="9" horiz-adv-x="464" 
d="M300 678q75 0 111 -51.5t36 -139.5q0 -44 -8.5 -103t-29 -129t-50 -128.5t-77 -98t-104.5 -39.5q-53 0 -90.5 29.5t-50.5 81.5l30 15q10 -45 39 -70.5t74 -25.5q149 0 219 324q1 8 3 18q-28 -41 -72 -71t-92 -30q-65 0 -104.5 38.5t-39.5 108.5q0 62 24 123.5t73 104.5
t109 43zM296 648q-73 0 -121 -79t-48 -162q0 -52 30.5 -84.5t85.5 -32.5q86 0 167 120q7 49 7 86q0 70 -30.5 111t-90.5 41z" />
    <glyph glyph-name="colon" unicode=":" horiz-adv-x="208" 
d="M52 -9q-13 0 -21.5 8.5t-8.5 21.5q0 15 10.5 25t25.5 10q13 0 21.5 -8.5t8.5 -21.5q0 -15 -10.5 -25t-25.5 -10zM148 425q-13 0 -21.5 8.5t-8.5 21.5q0 15 10.5 25t25.5 10q13 0 21.5 -8.5t8.5 -21.5q0 -15 -10.5 -25t-25.5 -10z" />
    <glyph glyph-name="semicolon" unicode=";" horiz-adv-x="208" 
d="M89 18q0 -36 -27 -73.5t-62 -56.5l-18 20q27 15 47 38t25 46h-6q-10 0 -18 8.5t-8 19.5q0 15 10.5 25.5t24.5 10.5q32 0 32 -38zM148 425q-13 0 -21.5 8.5t-8.5 21.5q0 15 10.5 25t25.5 10q13 0 21.5 -8.5t8.5 -21.5q0 -15 -10.5 -25t-25.5 -10z" />
    <glyph glyph-name="less" unicode="&#x3c;" horiz-adv-x="434" 
d="M379 128l-333 196l5 21l420 197l-9 -38l-373 -172l297 -170z" />
    <glyph glyph-name="equal" unicode="=" horiz-adv-x="434" 
d="M443 418h-376l7 30h376zM399 220h-376l7 30h376z" />
    <glyph glyph-name="greater" unicode="&#x3e;" horiz-adv-x="434" 
d="M422 324l-419 -196l9 38l373 170l-297 172l7 34l332 -197z" />
    <glyph glyph-name="question" unicode="?" horiz-adv-x="385" 
d="M197 189l-27 -20q-21 29 -21 67q0 33 17 61.5t42.5 47.5t55.5 41t55.5 42t42.5 50.5t17 66.5q0 44 -32 73.5t-87 29.5q-70 0 -128 -53l-16 24q65 59 144 59q70 0 111.5 -38t41.5 -92q0 -47 -24 -85t-58 -64t-68 -49t-58 -51t-24 -59t16 -51zM137 -9q-13 0 -21.5 8.5
t-8.5 21.5q0 15 10.5 25t25.5 10q13 0 21.5 -8.5t8.5 -21.5q0 -15 -10.5 -25t-25.5 -10z" />
    <glyph glyph-name="at" unicode="@" horiz-adv-x="676" 
d="M324 -70q-116 0 -192.5 84t-76.5 216q0 162 107.5 285.5t247.5 123.5q112 0 181.5 -79.5t69.5 -207.5q0 -118 -43 -192.5t-99 -74.5q-35 0 -55 23t-20 57v6q-58 -86 -137 -86q-52 0 -86 36t-34 103q0 107 63 191.5t147 84.5q38 0 64 -23t37 -59l13 64h30l-63 -296
q-2 -12 -2 -23q0 -51 42 -51q15 0 33.5 14t37 41t31 76t12.5 109q0 116 -62 186.5t-161 70.5q-85 0 -160 -54.5t-118.5 -142t-43.5 -181.5q0 -121 68 -196.5t173 -75.5q83 0 158 57l15 -23q-82 -63 -177 -63zM307 112q77 0 146 103l37 170q-9 36 -32 62t-61 26
q-74 0 -125.5 -80t-51.5 -169q0 -51 22.5 -81.5t64.5 -30.5z" />
    <glyph glyph-name="A" unicode="A" horiz-adv-x="474" 
d="M404 0h-34l-14 179h-265l-92 -179h-37l349 667h38zM355 209l-32 416l-216 -416h248z" />
    <glyph glyph-name="B" unicode="B" horiz-adv-x="480" 
d="M212 0h-186l147 667h157q59 0 98 -37.5t39 -99.5q0 -71 -38.5 -126t-97.5 -66q35 -9 56 -46t21 -79q0 -86 -52 -149.5t-144 -63.5zM137 358h153q70 0 106 54t36 118q0 49 -30 78t-78 29h-125zM218 30q70 0 112.5 55t42.5 128q0 54 -29.5 84.5t-83.5 30.5h-130l-66 -298
h154z" />
    <glyph glyph-name="C" unicode="C" horiz-adv-x="512" 
d="M258 -12q-89 0 -143 60t-54 168t38 213.5t108 177t153 71.5q129 0 177 -126l-30 -12q-42 108 -151 108q-69 0 -130 -67t-95.5 -167t-34.5 -200q0 -94 43.5 -145t121.5 -51q76 0 150 82l23 -19q-79 -93 -176 -93z" />
    <glyph glyph-name="D" unicode="D" horiz-adv-x="535" 
d="M172 0h-146l147 667h142q80 0 135.5 -62.5t55.5 -171.5q0 -49 -11.5 -104.5t-37.5 -114.5t-63.5 -106t-95.5 -77.5t-126 -30.5zM64 30h113q56 0 105.5 27t83.5 70t58.5 96.5t36 107.5t11.5 102q0 94 -46.5 149t-116.5 55h-110z" />
    <glyph glyph-name="E" unicode="E" horiz-adv-x="444" 
d="M335 0h-309l147 667h309l-6 -30h-277l-62 -279h270l-7 -30h-270l-66 -298h277z" />
    <glyph glyph-name="F" unicode="F" horiz-adv-x="432" 
d="M58 0h-32l147 667h309l-6 -30h-277l-62 -279h270l-7 -30h-270z" />
    <glyph glyph-name="G" unicode="G" horiz-adv-x="542" 
d="M258 -12q-91 0 -144 60.5t-53 167.5q0 108 37 213.5t107 177t155 71.5q125 0 177 -126l-29 -11q-42 107 -152 107q-70 0 -131 -67t-95 -166.5t-34 -200.5q0 -96 44 -146t121 -50q82 0 151 78l43 195h-188l6 30h220l-53 -240q-85 -93 -182 -93z" />
    <glyph glyph-name="H" unicode="H" horiz-adv-x="545" 
d="M411 0h-32l72 328h-321l-72 -328h-32l147 667h32l-68 -309h321l68 309h32z" />
    <glyph glyph-name="I" unicode="I" horiz-adv-x="192" 
d="M58 0h-32l147 667h32z" />
    <glyph glyph-name="J" unicode="J" horiz-adv-x="382" 
d="M110 -12q-97 0 -136 75l27 20q33 -65 109 -65q109 0 139 135l114 514h32l-114 -514q-37 -165 -171 -165z" />
    <glyph glyph-name="K" unicode="K" horiz-adv-x="472" 
d="M393 0h-37l-161 326l-85 -90l-52 -236h-32l147 667h32l-83 -376l353 376h44l-302 -319z" />
    <glyph glyph-name="L" unicode="L" horiz-adv-x="412" 
d="M315 0h-289l147 667h32l-141 -637h257z" />
    <glyph glyph-name="M" unicode="M" horiz-adv-x="639" 
d="M505 0h-32l137 619l-337 -619h-14l-64 619l-137 -619h-32l147 667h50l61 -577l316 577h52z" />
    <glyph glyph-name="N" unicode="N" horiz-adv-x="543" 
d="M409 0h-32l-186 599l-133 -599h-32l147 667h32l187 -592l132 592h32z" />
    <glyph glyph-name="O" unicode="O" horiz-adv-x="580" 
d="M258 -12q-89 0 -143 62t-54 166q0 76 21.5 157t59 149t95.5 112t123 44q89 0 143.5 -62.5t54.5 -165.5q0 -104 -36 -208.5t-107 -179t-157 -74.5zM261 18q71 0 132.5 66.5t95.5 165.5t34 201q0 93 -46 145t-121 52q-71 0 -132 -66.5t-94.5 -166t-33.5 -201.5
q0 -93 45.5 -144.5t119.5 -51.5z" />
    <glyph glyph-name="P" unicode="P" horiz-adv-x="448" 
d="M58 0h-32l147 667h155q59 0 97.5 -42.5t38.5 -106.5q0 -90 -55 -159.5t-156 -69.5h-131zM128 319h131q81 0 125.5 59.5t44.5 139.5q0 53 -30.5 86t-76.5 33h-123z" />
    <glyph glyph-name="Q" unicode="Q" horiz-adv-x="580" 
d="M258 -12q-89 0 -143 62t-54 166q0 76 21.5 157t59 149t95.5 112t123 44q89 0 143.5 -62.5t54.5 -165.5q0 -111 -43.5 -225t-115.5 -179l28 -62l-28 -13l-25 55q-55 -38 -116 -38zM261 18q50 0 100 37l-63 139l29 13l58 -131q62 60 100 164.5t38 210.5q0 93 -46 145
t-121 52q-71 0 -132 -66.5t-94.5 -166t-33.5 -201.5q0 -93 45.5 -144.5t119.5 -51.5z" />
    <glyph glyph-name="R" unicode="R" horiz-adv-x="473" 
d="M365 0h-35l-88 289h-120l-64 -289h-32l147 667h150q59 0 101 -41t42 -106q0 -93 -53 -157.5t-139 -71.5zM128 319h132q80 0 125 60t45 141q0 54 -31 85.5t-76 31.5h-124z" />
    <glyph glyph-name="S" unicode="S" horiz-adv-x="447" 
d="M188 -12q-57 0 -106.5 25.5t-71.5 63.5l28 22q24 -37 63.5 -59t87.5 -22q72 0 115.5 48t43.5 119q0 40 -24 72.5t-58.5 57t-68.5 49.5t-58 60.5t-24 78.5q0 73 54.5 124t127.5 51q52 0 94.5 -20t63.5 -55l-26 -22q-43 67 -132 67q-62 0 -105 -43.5t-43 -101.5
q0 -35 24 -65.5t58.5 -55.5t68.5 -51t58 -63.5t24 -82.5q0 -81 -53.5 -139t-140.5 -58z" />
    <glyph glyph-name="T" unicode="T" horiz-adv-x="423" 
d="M173 0h-32l141 637h-167l6 30h367l-6 -30h-168z" />
    <glyph glyph-name="U" unicode="U" horiz-adv-x="534" 
d="M239 -12q-79 0 -126 44t-47 121q0 28 5 51l102 463h32l-102 -463q-5 -20 -5 -46q0 -65 38.5 -102.5t103.5 -37.5q72 0 112 45t61 141l102 463h32l-102 -463q-24 -110 -71.5 -163t-134.5 -53z" />
    <glyph glyph-name="V" unicode="V" horiz-adv-x="474" 
d="M202 0h-38l-54 667h33l48 -625l323 625h37z" />
    <glyph glyph-name="W" unicode="W" horiz-adv-x="671" 
d="M448 0h-38l4 597l-260 -597h-38l2 667h34l-6 -611l265 611h34l-5 -611l264 611h36z" />
    <glyph glyph-name="X" unicode="X" horiz-adv-x="473" 
d="M403 0h-36l-114 311l-248 -311h-43l277 343l-118 324h36l106 -295l232 295h44l-262 -328z" />
    <glyph glyph-name="Y" unicode="Y" horiz-adv-x="466" 
d="M195 0h-32l64 289l-122 378h35l108 -342l259 342h41l-289 -378z" />
    <glyph glyph-name="Z" unicode="Z" horiz-adv-x="444" 
d="M345 0h-355l6 31l444 606h-308l6 30h347l-6 -30l-444 -607h316z" />
    <glyph glyph-name="bracketleft" unicode="[" horiz-adv-x="187" 
d="M73 -190h-135l192 868h136l-7 -30h-106l-179 -808h106z" />
    <glyph glyph-name="backslash" unicode="\" horiz-adv-x="223" 
d="M134 -20l-40 707h30l40 -707h-30z" />
    <glyph glyph-name="bracketright" unicode="]" horiz-adv-x="187" 
d="M56 -190h-135l7 30h105l179 808h-106l7 30h136z" />
    <glyph glyph-name="asciicircum" unicode="^" horiz-adv-x="374" 
d="M374 333h-31l-67 305l-203 -305h-35l229 334h26z" />
    <glyph glyph-name="underscore" unicode="_" horiz-adv-x="422" 
d="M355 -70h-427l7 30h427z" />
    <glyph glyph-name="grave" unicode="`" horiz-adv-x="162" 
d="M231 556h-27l-103 144h43z" />
    <glyph glyph-name="a" unicode="a" 
d="M258 495q44 0 78.5 -24.5t52.5 -68.5l17 81h30l-107 -483h-30l16 72q-55 -84 -136 -84q-63 0 -100.5 44.5t-37.5 121.5q0 73 25 150t76.5 134t115.5 57zM257 468q-53 0 -97 -54t-65 -125t-21 -134q0 -68 29 -104t81 -36q40 0 79 29.5t63 72.5l55 251q-11 42 -45 71
t-79 29z" />
    <glyph glyph-name="b" unicode="b" 
d="M200 -12q-44 0 -78.5 25t-52.5 69l-17 -82h-30l147 667h30l-56 -255q54 83 136 83q63 0 100.5 -44t37.5 -121q0 -74 -25 -151t-76.5 -134t-115.5 -57zM201 15q53 0 97 54.5t65 125t21 134.5q0 68 -29 103.5t-81 35.5q-40 0 -79 -29.5t-63 -72.5l-55 -251q11 -42 45 -71
t79 -29z" />
    <glyph glyph-name="c" unicode="c" horiz-adv-x="394" 
d="M200 -12q-71 0 -114.5 47t-43.5 136q0 73 27 146t81 125.5t121 52.5q85 0 124 -67l-24 -19q-32 59 -100 59q-60 0 -106.5 -51.5t-68 -118.5t-21.5 -132q0 -75 34.5 -113t91.5 -38q59 0 103 51l18 -21q-56 -57 -122 -57z" />
    <glyph glyph-name="d" unicode="d" 
d="M258 495q44 0 78.5 -24.5t52.5 -68.5l58 265h30l-148 -667h-30l16 72q-55 -84 -136 -84q-63 0 -100.5 44.5t-37.5 121.5q0 73 25 150t76.5 134t115.5 57zM257 468q-53 0 -97 -54t-65 -125t-21 -134q0 -68 29 -104t81 -36q40 0 79 29.5t63 72.5l55 251q-11 42 -45 71
t-79 29z" />
    <glyph glyph-name="e" unicode="e" 
d="M212 -12q-80 0 -125.5 48.5t-45.5 133.5q0 65 25 137.5t79 130t123 57.5q70 0 110.5 -45.5t40.5 -125.5q0 -44 -13 -92h-325q-6 -28 -6 -61q0 -71 35.5 -113.5t101.5 -42.5q65 0 121 61l19 -21q-64 -67 -140 -67zM85 259h296q7 35 7 61q0 66 -32.5 107t-91.5 41
q-64 0 -114.5 -64.5t-64.5 -144.5z" />
    <glyph glyph-name="f" unicode="f" horiz-adv-x="224" 
d="M65 0h-30l101 456h-65l6 27h65l17 79q26 115 116 115q45 0 70 -31l-21 -21q-19 25 -52 25q-64 0 -83 -88l-17 -79h84l-6 -27h-84z" />
    <glyph glyph-name="g" unicode="g" 
d="M147 -196q-106 0 -156 66l25 24q39 -63 132 -63q114 0 146 146l22 95q-57 -84 -140 -84q-60 0 -98 42.5t-38 125.5q0 52 15 110t41.5 110t69 85.5t92.5 33.5q40 0 77 -26t54 -67l18 81h29l-112 -506q-39 -173 -177 -173zM182 15q38 0 77 28.5t65 69.5l57 255
q-12 41 -48 70.5t-78 29.5q-53 0 -96.5 -54t-64.5 -124t-21 -134q0 -70 29 -105.5t80 -35.5z" />
    <glyph glyph-name="h" unicode="h" horiz-adv-x="435" 
d="M306 0h-30l81 367q5 20 5 33q0 68 -80 68q-38 0 -77.5 -27.5t-70.5 -67.5l-82 -373h-30l147 667h30l-56 -256q71 84 145 84q48 0 76 -23.5t28 -67.5q0 -18 -6 -38z" />
    <glyph glyph-name="i" unicode="i" horiz-adv-x="181" 
d="M165 566q-11 0 -19 7.5t-8 18.5q0 14 10.5 23t22.5 9q11 0 19 -7.5t8 -18.5q0 -14 -10.5 -23t-22.5 -9zM52 0h-30l107 483h30z" />
    <glyph glyph-name="j" unicode="j" horiz-adv-x="181" 
d="M-70 -196q-56 0 -77 41l25 17q16 -31 51 -31q55 0 73 83l127 569h30l-127 -569q-13 -60 -37.5 -85t-64.5 -25zM165 566q-11 0 -19 7.5t-8 18.5q0 14 10.5 23t22.5 9q11 0 19 -7.5t8 -18.5q0 -14 -10.5 -23t-22.5 -9z" />
    <glyph glyph-name="k" unicode="k" horiz-adv-x="411" 
d="M332 0h-33l-109 245l-107 -103l-31 -142h-30l147 667h30l-106 -480l310 296h40l-231 -218z" />
    <glyph glyph-name="l" unicode="l" horiz-adv-x="181" 
d="M52 0h-30l147 667h30z" />
    <glyph glyph-name="m" unicode="m" horiz-adv-x="647" 
d="M518 0h-30l82 371q4 20 4 29q0 33 -19 50.5t-50 17.5q-34 0 -72 -27.5t-66 -67.5l-82 -373h-30l82 371q4 28 4 33q0 64 -70 64q-34 0 -70.5 -27.5t-66.5 -67.5l-82 -373h-30l107 483h30l-16 -72q62 84 134 84q43 0 68.5 -24t25.5 -56q0 -5 -1 -9q69 89 141 89
q41 0 67 -24t26 -66q0 -13 -6 -39z" />
    <glyph glyph-name="n" unicode="n" horiz-adv-x="435" 
d="M306 0h-30l81 366q5 25 5 34q0 68 -80 68q-38 0 -77.5 -27.5t-70.5 -67.5l-82 -373h-30l107 483h30l-16 -72q71 84 145 84q48 0 76 -23t28 -68q0 -20 -6 -38z" />
    <glyph glyph-name="o" unicode="o" horiz-adv-x="461" 
d="M193 -12q-70 0 -111 45t-41 130q0 75 26.5 150t80 128.5t119.5 53.5q70 0 111 -45t41 -130q0 -75 -26.5 -150t-80 -128.5t-119.5 -53.5zM194 15q54 0 100 51t69 120.5t23 133.5q0 72 -31.5 110t-88.5 38q-54 0 -100 -51t-69 -120.5t-23 -133.5q0 -72 31.5 -110t88.5 -38z
" />
    <glyph glyph-name="p" unicode="p" horiz-adv-x="457" 
d="M200 -12q-44 0 -78.5 25t-52.5 69l-58 -266h-31l149 667h30l-16 -71q54 83 136 83q63 0 100.5 -44t37.5 -121q0 -74 -25 -151t-76.5 -134t-115.5 -57zM201 15q53 0 97 54.5t65 125t21 134.5q0 68 -29 103.5t-81 35.5q-40 0 -79 -29.5t-63 -72.5l-55 -251q11 -42 45 -71
t79 -29z" />
    <glyph glyph-name="q" unicode="q" horiz-adv-x="457" 
d="M258 495q44 0 78.5 -24.5t52.5 -68.5l17 81h30l-148 -667h-30l57 256q-55 -84 -136 -84q-63 0 -100.5 44.5t-37.5 121.5q0 73 25 150t76.5 134t115.5 57zM257 468q-53 0 -97 -54t-65 -125t-21 -134q0 -68 29 -104t81 -36q40 0 79 29.5t63 72.5l55 251q-11 42 -45 71
t-79 29z" />
    <glyph glyph-name="r" unicode="r" horiz-adv-x="266" 
d="M52 0h-30l107 483h30l-18 -77q33 45 69 65.5t91 20.5l-8 -35q-5 2 -25 2q-39 0 -75.5 -27.5t-60.5 -69.5z" />
    <glyph glyph-name="s" unicode="s" horiz-adv-x="366" 
d="M144 -12q-102 0 -143 74l26 19q36 -66 118 -66q52 0 86 33.5t34 78.5q0 30 -19.5 54.5t-48 42.5t-56.5 36t-47.5 44.5t-19.5 58.5q0 56 39.5 94t105.5 38q44 0 78.5 -18.5t50.5 -47.5l-25 -19q-12 26 -42.5 42t-65.5 16q-49 0 -79.5 -27.5t-30.5 -69.5q0 -28 19.5 -51.5
t48 -41t56.5 -36.5t47.5 -46t19.5 -61q0 -61 -42 -104t-110 -43z" />
    <glyph glyph-name="t" unicode="t" horiz-adv-x="234" 
d="M114 -12q-69 0 -69 65q0 11 3 28l84 375h-66l6 27h66l29 132h30l-29 -132h84l-6 -27h-84l-84 -375q-3 -13 -3 -27q0 -39 41 -39q25 0 45 20l15 -22q-29 -25 -62 -25z" />
    <glyph glyph-name="u" unicode="u" horiz-adv-x="435" 
d="M129 483h30l-81 -366q-5 -23 -5 -33q0 -69 79 -69q38 0 77.5 26.5t69.5 65.5l84 376h30l-107 -483h-30l16 72q-73 -84 -146 -84q-47 0 -75 23.5t-28 68.5q0 13 5 38z" />
    <glyph glyph-name="v" unicode="v" horiz-adv-x="375" 
d="M151 0h-35l-49 483h32l40 -448l240 448h36z" />
    <glyph glyph-name="w" unicode="w" horiz-adv-x="594" 
d="M389 0h-27l-22 439l-216 -439h-27l-23 483h32l14 -436l214 436h30l20 -436l208 436h34z" />
    <glyph glyph-name="x" unicode="x" horiz-adv-x="379" 
d="M304 0h-34l-83 223l-182 -223h-38l206 247l-90 236h34l76 -211l172 211h38l-196 -236z" />
    <glyph glyph-name="y" unicode="y" horiz-adv-x="375" 
d="M-56 -187l12 28q11 -8 35 -8q19 0 33.5 12.5t33.5 45.5l56 98l-47 494h32l41 -445l239 445h36l-331 -602q-42 -77 -100 -77q-24 0 -40 9z" />
    <glyph glyph-name="z" unicode="z" horiz-adv-x="371" 
d="M266 0h-270l6 27l326 429h-230l6 27h265l-6 -27l-326 -429h234z" />
    <glyph glyph-name="braceleft" unicode="{" horiz-adv-x="212" 
d="M98 -190h-39q-31 0 -54 21.5t-23 57.5q0 11 3 26l54 242q3 18 3 19q0 24 -10 38.5t-29 14.5l7 30q53 0 68 72l54 244q12 52 41.5 77.5t70.5 25.5h47l-7 -30h-47q-58 0 -75 -73l-55 -247q-14 -69 -64 -87q29 -15 29 -53q0 -18 -4 -34l-53 -241q-2 -12 -2 -19q0 -24 14 -39
t34 -15h44z" />
    <glyph glyph-name="bar" unicode="|" horiz-adv-x="190" 
d="M130 -20h-30v707h30v-707z" />
    <glyph glyph-name="braceright" unicode="}" horiz-adv-x="212" 
d="M113 678h39q31 0 54 -22t23 -58q0 -13 -3 -25l-54 -242q-2 -10 -2 -19q0 -23 9.5 -38t28.5 -15l-7 -30q-51 0 -68 -72l-54 -244q-23 -103 -112 -103h-47l7 30h47q60 0 75 73l55 248q14 67 64 87q-29 14 -29 53q0 18 4 34l53 240q2 12 2 19q0 24 -13.5 39t-34.5 15h-44z
" />
    <glyph glyph-name="asciitilde" unicode="~" horiz-adv-x="436" 
d="M471 667l30 -3q-55 -231 -156 -231q-32 0 -48.5 21t-20.5 50.5t-6 59t-13 50.5t-34 21q-73 0 -124 -204l-29 5q56 229 156 229q39 0 56 -31.5t16.5 -70t10 -70t38.5 -31.5q74 0 124 205z" />
    <glyph glyph-name="nbspace" unicode="&#xa0;" horiz-adv-x="220" 
 />
    <glyph glyph-name="exclamdown" unicode="&#xa1;" horiz-adv-x="208" 
d="M111 322h20l-101 -506h-42zM154 492q13 0 21.5 -8.5t8.5 -21.5q0 -15 -10.5 -25t-25.5 -10q-13 0 -21.5 8.5t-8.5 21.5q0 15 10.5 25t25.5 10z" />
    <glyph glyph-name="cent" unicode="&#xa2;" horiz-adv-x="394" 
d="M137 -100l20 93q-54 12 -84.5 57.5t-30.5 120.5q0 72 26.5 145t80.5 125.5t120 53.5l16 70h30l-16 -72q63 -10 96 -65l-24 -19q-26 47 -78 57l-101 -451h9q59 0 103 51l18 -21q-56 -57 -122 -57q-9 0 -14 1l-19 -89h-30zM75 166q0 -122 88 -147l100 448
q-58 -3 -102.5 -54.5t-65 -117.5t-20.5 -129z" />
    <glyph glyph-name="sterling" unicode="&#xa3;" horiz-adv-x="417" 
d="M29 267l6 30h118q-5 13 -21 42.5t-24.5 54.5t-8.5 55q0 90 57.5 159t137.5 69q53 0 94.5 -29t49.5 -75l-29 -14q-8 39 -38.5 63.5t-76.5 24.5q-63 0 -112 -55t-49 -141q0 -29 9 -55t23.5 -54t20.5 -45h113l-6 -30h-99q2 -16 2 -23q0 -57 -36.5 -110t-82.5 -84q24 9 42 9
q30 0 73.5 -21t66.5 -21q47 0 84 41l13 -26q-47 -45 -100 -45q-39 0 -79.5 22t-74.5 22q-38 0 -96 -38l-10 31q68 32 118 94t50 123q0 14 -3 26h-132z" />
    <glyph glyph-name="currency" unicode="&#xa4;" horiz-adv-x="463" 
d="M225 102q-75 0 -119 54l-95 -77l-21 26l98 80q-17 37 -17 90q0 59 21 120t56 102l-58 74l26 21l56 -72q54 44 116 44q74 0 117 -55l97 80l21 -26l-101 -82q18 -41 18 -93q0 -59 -21.5 -119t-56.5 -101l59 -73l-26 -20l-55 71q-50 -44 -115 -44zM105 281q0 -61 30 -104
t93 -43q79 0 129 80t50 172q0 63 -30.5 104.5t-93.5 41.5q-53 0 -95 -40.5t-62.5 -97t-20.5 -113.5z" />
    <glyph glyph-name="yen" unicode="&#xa5;" horiz-adv-x="466" 
d="M199 0h-32l28 129h-201l7 30h201l29 130h-201l6 30h185l-112 348h35l108 -342l259 342h41l-266 -348h176l-6 -30h-193l-29 -130h193l-7 -30h-193z" />
    <glyph glyph-name="brokenbar" unicode="&#xa6;" horiz-adv-x="190" 
d="M130 -20h-30v316h30v-316zM130 371h-30v316h30v-316z" />
    <glyph glyph-name="section" unicode="&#xa7;" horiz-adv-x="366" 
d="M334 313q0 -48 -29 -84.5t-87 -53.5q61 -41 61 -106q0 -61 -40.5 -105.5t-107.5 -44.5q-104 0 -152 70l27 20q36 -63 124 -63q50 0 84 34t34 84q0 29 -19.5 52t-47 39.5t-55 34.5t-47 45t-19.5 62q0 50 36.5 87t100.5 43q-83 48 -83 117q0 54 39.5 93.5t100.5 39.5
q97 0 139 -64l-25 -18q-34 55 -114 55q-45 0 -77 -29.5t-32 -71.5q0 -30 19.5 -53.5t47.5 -40t55.5 -34t47 -45t19.5 -63.5zM304 309q0 59 -78 100q-70 -8 -103 -38.5t-33 -70.5q0 -33 26 -58.5t78 -51.5q110 34 110 119z" />
    <glyph glyph-name="dieresis" unicode="&#xa8;" horiz-adv-x="252" 
d="M313 601q0 -13 -9 -22t-22 -9q-10 0 -17.5 7t-7.5 18q0 13 9 22t22 9q10 0 17.5 -7t7.5 -18zM151 601q0 -13 -9 -22t-22 -9q-10 0 -17.5 7t-7.5 18q0 13 9 22t22 9q10 0 17.5 -7t7.5 -18z" />
    <glyph glyph-name="copyright" unicode="&#xa9;" horiz-adv-x="778" 
d="M754 334q0 -143 -101.5 -244t-244.5 -101q-142 0 -243 101t-101 244t100.5 244t243.5 101t244.5 -101t101.5 -244zM728 334q0 132 -94 225.5t-226 93.5q-131 0 -224.5 -93.5t-93.5 -225.5q0 -131 93.5 -225t224.5 -94q132 0 226 94t94 225zM504 193l15 -23
q-61 -51 -131 -51q-89 0 -140.5 54t-51.5 134q0 101 72.5 172t164.5 71q106 0 153 -80l-24 -17q-37 70 -129 70q-79 0 -143.5 -63t-64.5 -153q0 -67 46 -114t117 -47q69 0 116 47z" />
    <glyph glyph-name="ordfeminine" unicode="&#xaa;" horiz-adv-x="341" 
d="M239 624q-50 0 -85.5 -60.5t-35.5 -126.5q0 -46 20 -70.5t54 -24.5q53 0 96 65l35 158q-8 25 -31.5 42t-52.5 17zM339 640h28l-69 -314h-28l11 50q-42 -58 -96 -58q-43 0 -69.5 30t-26.5 89q0 76 42 143.5t106 67.5q30 0 55 -15.5t37 -41.5z" />
    <glyph glyph-name="guillemotleft" unicode="&#xab;" horiz-adv-x="319" 
d="M147 63h-33l-85 180l165 177h39l-168 -181zM245 63h-33l-85 180l165 177h39l-169 -181z" />
    <glyph glyph-name="logicalnot" unicode="&#xac;" horiz-adv-x="434" 
d="M450 448l-51 -228h-32l44 198h-344l7 30h376z" />
    <glyph glyph-name="uni00AD" unicode="&#xad;" horiz-adv-x="265" 
d="M231 227h-205l6 30h205z" />
    <glyph glyph-name="registered" unicode="&#xae;" horiz-adv-x="494" 
d="M508 465q0 -88 -62.5 -150t-150.5 -62t-149.5 62t-61.5 150t62 150t150 62t150 -61.5t62 -150.5zM482 465q0 78 -54.5 132t-132.5 54q-77 0 -131 -54t-54 -132q0 -77 54 -131.5t131 -54.5t132 54.5t55 131.5zM365 343h-35l-42 96h-49l-21 -96h-29l53 243h91q28 0 48 -17
t20 -47q0 -35 -25 -58.5t-55 -23.5zM370 518q0 19 -12 30t-29 11h-64l-20 -92h70q23 0 39 15t16 36z" />
    <glyph glyph-name="macron" unicode="&#xaf;" horiz-adv-x="302" 
d="M375 581h-300l6 27h300z" />
    <glyph glyph-name="degree" unicode="&#xb0;" horiz-adv-x="273" 
d="M318 566q0 -46 -32.5 -78t-78.5 -32t-78 32t-32 78t32 78.5t78 32.5t78.5 -32.5t32.5 -78.5zM288 566q0 33 -24 57t-57 24t-56.5 -24t-23.5 -57t23 -56.5t56 -23.5t57.5 23.5t24.5 56.5z" />
    <glyph glyph-name="plusminus" unicode="&#xb1;" horiz-adv-x="434" 
d="M422 322h-172l-42 -192h-32l42 192h-172l7 30h172l41 186h32l-41 -186h172zM358 30h-377l6 30h377z" />
    <glyph glyph-name="twosuperior" unicode="&#xb2;" horiz-adv-x="310" 
d="M307 421h-224l5 26q19 17 50 43.5t46.5 40t39.5 35t36 33.5t28.5 29.5t24.5 29t16.5 26t11.5 26.5t3 25q0 32 -22 49t-53 17q-56 0 -94 -50l-19 19q48 57 113 57q41 0 73 -23t32 -69q0 -18 -5 -35t-20 -38t-26 -35.5t-39.5 -41t-43.5 -40t-54.5 -48t-57.5 -50.5h184z" />
    <glyph glyph-name="threesuperior" unicode="&#xb3;" horiz-adv-x="310" 
d="M334 541q0 -47 -33.5 -87t-89.5 -40q-88 0 -117 72l25 14q26 -60 92 -60q43 0 68 33t25 76q0 31 -22.5 48.5t-56.5 17.5q-20 0 -26 -1l6 27q10 -1 42 -1q40 0 67.5 26t27.5 68q0 30 -22 48.5t-56 18.5q-49 0 -93 -49l-18 19q48 56 112 56q47 0 76.5 -23.5t29.5 -67.5
q0 -42 -27 -73.5t-70 -38.5q25 -6 42.5 -28.5t17.5 -54.5z" />
    <glyph glyph-name="acute" unicode="&#xb4;" horiz-adv-x="162" 
d="M263 700l-167 -144h-29l151 144h45z" />
    <glyph glyph-name="mu" unicode="&#xb5;" horiz-adv-x="446" 
d="M60 35l-49 -219h-31l150 667h30l-82 -366q-11 -51 9 -77.5t60 -26.5q38 0 80.5 27t71.5 65l84 378h30l-89 -402q-14 -66 28 -66q6 0 18 2l-3 -27q-10 -2 -21 -2q-69 0 -54 84q-75 -84 -151 -84q-60 0 -81 47z" />
    <glyph glyph-name="paragraph" unicode="&#xb6;" horiz-adv-x="449" 
d="M280 -100h-30l164 737h-98l-164 -737h-30l94 423q-57 0 -97 44.5t-40 111.5q0 73 56.5 130.5t137.5 57.5h177z" />
    <glyph glyph-name="periodcentered" unicode="&#xb7;" horiz-adv-x="208" 
d="M101 212q-13 0 -21.5 8.5t-8.5 21.5q0 15 10.5 25t25.5 10q13 0 21.5 -8.5t8.5 -21.5q0 -15 -10.5 -25t-25.5 -10z" />
    <glyph glyph-name="cedilla" unicode="&#xb8;" horiz-adv-x="171" 
d="M-4 -187q-55 0 -85 35l19 25q26 -33 69 -33q30 0 47.5 16.5t17.5 40.5q0 33 -36 33q-20 0 -36 -17l-18 13l50 85h30l-42 -70q12 11 30 11q23 0 37 -14.5t14 -39.5q0 -36 -27.5 -60.5t-69.5 -24.5z" />
    <glyph glyph-name="onesuperior" unicode="&#xb9;" horiz-adv-x="191" 
d="M170 421h-30l78 356l-74 -65l-16 21l103 88h27z" />
    <glyph glyph-name="ordmasculine" unicode="&#xba;" horiz-adv-x="339" 
d="M200 318q-52 0 -81 32.5t-29 89.5q0 73 43.5 140.5t110.5 67.5q52 0 81 -32.5t29 -89.5q0 -72 -43.5 -140t-110.5 -68zM200 344q55 0 90 60t35 122q0 44 -22 69.5t-60 25.5q-55 0 -89 -59.5t-34 -121.5q0 -44 21.5 -70t58.5 -26z" />
    <glyph glyph-name="guillemotright" unicode="&#xbb;" horiz-adv-x="319" 
d="M75 420h33l85 -180l-165 -177h-39l169 182zM173 420h33l85 -180l-165 -177h-39l168 182z" />
    <glyph glyph-name="onequarter" unicode="&#xbc;" horiz-adv-x="615" 
d="M136 267h-30l78 356l-74 -65l-16 21l103 88h27zM554 113h-50l-25 -113h-29l25 113h-165l5 27l214 260h38l-58 -261h50zM480 139l50 223l-185 -223h135zM569 667l-496 -667h-34l495 667h35z" />
    <glyph glyph-name="onehalf" unicode="&#xbd;" horiz-adv-x="650" 
d="M136 267h-30l78 356l-74 -65l-16 21l103 88h27zM554 0h-224l5 26q19 17 50 43.5t46.5 40t39.5 35t36 33.5t28.5 29.5t24.5 29t16.5 26t11.5 26.5t3 25q0 32 -22 49t-53 17q-56 0 -94 -50l-19 19q47 57 113 57q41 0 73 -23t32 -69q0 -18 -5 -35t-20 -38t-26 -35.5
t-39.5 -41t-43.5 -40t-54.5 -48t-57.5 -50.5h184zM569 667l-496 -667h-34l495 667h35z" />
    <glyph glyph-name="threequarters" unicode="&#xbe;" horiz-adv-x="696" 
d="M635 113h-50l-25 -113h-29l25 113h-165l5 27l214 260h38l-58 -261h50zM561 139l50 223l-185 -223h135zM650 667l-496 -667h-34l495 667h35zM300 387q0 -47 -33.5 -87t-89.5 -40q-88 0 -117 72l25 14q26 -60 92 -60q43 0 68 33t25 76q0 31 -22.5 48.5t-56.5 17.5
q-20 0 -26 -1l6 27q10 -1 42 -1q40 0 67.5 26t27.5 68q0 30 -22 48.5t-56 18.5q-49 0 -93 -49l-18 19q48 56 112 56q47 0 76.5 -23.5t29.5 -67.5q0 -42 -27 -73.5t-70 -38.5q25 -6 42.5 -28.5t17.5 -54.5z" />
    <glyph glyph-name="questiondown" unicode="&#xbf;" horiz-adv-x="324" 
d="M186 295l27 20q21 -29 21 -68t-23.5 -71t-57.5 -55t-68 -47t-57.5 -58.5t-23.5 -77.5q0 -44 32 -73.5t87 -29.5q70 0 128 53l16 -24q-65 -59 -144 -59q-70 0 -112 38t-42 92q0 47 24 85t58.5 64t68.5 49t58 51t24 59t-16 52zM246 492q13 0 21.5 -8.5t8.5 -21.5
q0 -15 -10.5 -25t-25.5 -10q-13 0 -21.5 8.5t-8.5 21.5q0 15 10.5 25t25.5 10z" />
    <glyph glyph-name="Agrave" unicode="&#xc0;" horiz-adv-x="474" 
d="M404 0h-34l-14 179h-265l-92 -179h-37l349 667h38zM355 209l-32 416l-216 -416h248zM383 723h-27l-103 144h43z" />
    <glyph glyph-name="Aacute" unicode="&#xc1;" horiz-adv-x="474" 
d="M404 0h-34l-14 179h-265l-92 -179h-37l349 667h38zM355 209l-32 416l-216 -416h248zM496 867l-167 -144h-29l151 144h45z" />
    <glyph glyph-name="Acircumflex" unicode="&#xc2;" horiz-adv-x="474" 
d="M446 723h-23l-53 118l-101 -118h-28l115 144h36zM404 0h-34l-14 179h-265l-92 -179h-37l349 667h38zM355 209l-32 416l-216 -416h248z" />
    <glyph glyph-name="Atilde" unicode="&#xc3;" horiz-adv-x="474" 
d="M404 0h-34l-14 179h-265l-92 -179h-37l349 667h38zM355 209l-32 416l-216 -416h248zM399 721q-24 0 -36 17.5t-14.5 39t-11.5 39t-26 17.5q-43 0 -67 -107h-25q30 134 99 134q23 0 35 -17.5t14.5 -39t11.5 -39t26 -17.5q44 0 68 107h25q-28 -134 -99 -134z" />
    <glyph glyph-name="Adieresis" unicode="&#xc4;" horiz-adv-x="474" 
d="M461 768q0 -13 -9 -22t-22 -9q-10 0 -17.5 7.5t-7.5 17.5q0 13 9 22t22 9q10 0 17.5 -7.5t7.5 -17.5zM299 768q0 -13 -9 -22t-22 -9q-10 0 -17.5 7.5t-7.5 17.5q0 13 9 22t22 9q10 0 17.5 -7.5t7.5 -17.5zM404 0h-34l-14 179h-265l-92 -179h-37l349 667h38zM355 209
l-32 416l-216 -416h248z" />
    <glyph glyph-name="Aring" unicode="&#xc5;" horiz-adv-x="474" 
d="M404 0h-34l-14 179h-265l-92 -179h-37l349 667h38zM355 209l-32 416l-216 -416h248zM346 692q-34 0 -55 22t-21 56q0 38 28 66t66 28q34 0 55 -22t21 -56q0 -38 -28 -66t-66 -28zM347 716q28 0 48.5 20.5t20.5 48.5q0 24 -14.5 39.5t-38.5 15.5q-28 0 -48.5 -20
t-20.5 -48q0 -24 14.5 -40t38.5 -16z" />
    <glyph glyph-name="AE" unicode="&#xc6;" horiz-adv-x="720" 
d="M607 0h-309l39 179h-209l-123 -179h-38l466 667h321l-6 -30h-277l-62 -279h270l-7 -30h-270l-66 -298h277zM344 209l91 412l-287 -412h196z" />
    <glyph glyph-name="Ccedilla" unicode="&#xc7;" horiz-adv-x="512" 
d="M207 -187q-55 0 -85 35l19 25q26 -33 69 -33q30 0 47.5 16.5t17.5 40.5q0 33 -36 33q-20 0 -36 -17l-18 13l38 65q-75 11 -118.5 69.5t-43.5 155.5q0 108 38 213.5t108 177t153 71.5q129 0 177 -126l-30 -12q-42 108 -151 108q-69 0 -130 -67t-95.5 -167t-34.5 -200
q0 -94 43.5 -145t121.5 -51q76 0 150 82l23 -19q-79 -93 -176 -93h-7l-28 -47q12 11 30 11q23 0 37 -14.5t14 -39.5q0 -36 -27.5 -60.5t-69.5 -24.5z" />
    <glyph glyph-name="Egrave" unicode="&#xc8;" horiz-adv-x="444" 
d="M335 0h-309l147 667h309l-6 -30h-277l-62 -279h270l-7 -30h-270l-66 -298h277zM380 723h-27l-103 144h43z" />
    <glyph glyph-name="Eacute" unicode="&#xc9;" horiz-adv-x="444" 
d="M493 867l-167 -144h-29l151 144h45zM335 0h-309l147 667h309l-6 -30h-277l-62 -279h270l-7 -30h-270l-66 -298h277z" />
    <glyph glyph-name="Ecircumflex" unicode="&#xca;" horiz-adv-x="444" 
d="M442 723h-23l-53 118l-101 -118h-28l115 144h36zM335 0h-309l147 667h309l-6 -30h-277l-62 -279h270l-7 -30h-270l-66 -298h277z" />
    <glyph glyph-name="Edieresis" unicode="&#xcb;" horiz-adv-x="444" 
d="M458 768q0 -13 -9 -22t-22 -9q-11 0 -18 7.5t-7 17.5q0 13 9 22t22 9q11 0 18 -7.5t7 -17.5zM296 768q0 -13 -9 -22t-22 -9q-11 0 -18 7.5t-7 17.5q0 13 9 22t22 9q11 0 18 -7.5t7 -17.5zM335 0h-309l147 667h309l-6 -30h-277l-62 -279h270l-7 -30h-270l-66 -298h277z
" />
    <glyph glyph-name="Igrave" unicode="&#xcc;" horiz-adv-x="192" 
d="M58 0h-32l147 667h32zM243 723h-27l-103 144h43z" />
    <glyph glyph-name="Iacute" unicode="&#xcd;" horiz-adv-x="192" 
d="M58 0h-32l147 667h32zM356 867l-167 -144h-29l151 144h45z" />
    <glyph glyph-name="Icircumflex" unicode="&#xce;" horiz-adv-x="192" 
d="M306 723h-23l-53 118l-101 -118h-28l115 144h36zM58 0h-32l147 667h32z" />
    <glyph glyph-name="Idieresis" unicode="&#xcf;" horiz-adv-x="192" 
d="M321 768q0 -13 -9 -22t-22 -9q-10 0 -17.5 7.5t-7.5 17.5q0 13 9 22t22 9q10 0 17.5 -7.5t7.5 -17.5zM159 768q0 -13 -9 -22t-22 -9q-10 0 -17.5 7.5t-7.5 17.5q0 13 9 22t22 9q10 0 17.5 -7.5t7.5 -17.5zM58 0h-32l147 667h32z" />
    <glyph glyph-name="Eth" unicode="&#xd0;" horiz-adv-x="559" 
d="M196 0h-146l70 319h-85l7 30h85l70 318h142q80 0 135.5 -62.5t55.5 -171.5q0 -49 -11.5 -104.5t-37.5 -114.5t-63.5 -106t-95.5 -77.5t-126 -30.5zM294 319h-142l-64 -289h113q56 0 105.5 27t83.5 70t58.5 96.5t36 107.5t11.5 102q0 94 -46.5 149t-116.5 55h-110
l-64 -288h142z" />
    <glyph glyph-name="Ntilde" unicode="&#xd1;" horiz-adv-x="543" 
d="M433 721q-24 0 -36 17.5t-14.5 39t-11.5 39t-26 17.5q-43 0 -67 -107h-25q30 134 99 134q23 0 35 -17.5t14.5 -39t11.5 -39t26 -17.5q44 0 68 107h25q-28 -134 -99 -134zM409 0h-32l-186 599l-133 -599h-32l147 667h32l187 -592l132 592h32z" />
    <glyph glyph-name="Ograve" unicode="&#xd2;" horiz-adv-x="580" 
d="M436 723h-27l-103 144h43zM258 -12q-89 0 -143 62t-54 166q0 76 21.5 157t59 149t95.5 112t123 44q89 0 143.5 -62.5t54.5 -165.5q0 -104 -36 -208.5t-107 -179t-157 -74.5zM261 18q71 0 132.5 66.5t95.5 165.5t34 201q0 93 -46 145t-121 52q-71 0 -132 -66.5t-94.5 -166
t-33.5 -201.5q0 -93 45.5 -144.5t119.5 -51.5z" />
    <glyph glyph-name="Oacute" unicode="&#xd3;" horiz-adv-x="580" 
d="M549 867l-167 -144h-29l151 144h45zM258 -12q-89 0 -143 62t-54 166q0 76 21.5 157t59 149t95.5 112t123 44q89 0 143.5 -62.5t54.5 -165.5q0 -104 -36 -208.5t-107 -179t-157 -74.5zM261 18q71 0 132.5 66.5t95.5 165.5t34 201q0 93 -46 145t-121 52q-71 0 -132 -66.5
t-94.5 -166t-33.5 -201.5q0 -93 45.5 -144.5t119.5 -51.5z" />
    <glyph glyph-name="Ocircumflex" unicode="&#xd4;" horiz-adv-x="580" 
d="M499 723h-23l-53 118l-101 -118h-28l115 144h36zM258 -12q-89 0 -143 62t-54 166q0 76 21.5 157t59 149t95.5 112t123 44q89 0 143.5 -62.5t54.5 -165.5q0 -104 -36 -208.5t-107 -179t-157 -74.5zM261 18q71 0 132.5 66.5t95.5 165.5t34 201q0 93 -46 145t-121 52
q-71 0 -132 -66.5t-94.5 -166t-33.5 -201.5q0 -93 45.5 -144.5t119.5 -51.5z" />
    <glyph glyph-name="Otilde" unicode="&#xd5;" horiz-adv-x="580" 
d="M258 -12q-89 0 -143 62t-54 166q0 76 21.5 157t59 149t95.5 112t123 44q89 0 143.5 -62.5t54.5 -165.5q0 -104 -36 -208.5t-107 -179t-157 -74.5zM261 18q71 0 132.5 66.5t95.5 165.5t34 201q0 93 -46 145t-121 52q-71 0 -132 -66.5t-94.5 -166t-33.5 -201.5
q0 -93 45.5 -144.5t119.5 -51.5zM452 721q-24 0 -36 17.5t-14.5 39t-11.5 39t-26 17.5q-43 0 -67 -107h-25q30 134 99 134q23 0 35 -17.5t14.5 -39t11.5 -39t26 -17.5q44 0 68 107h25q-28 -134 -99 -134z" />
    <glyph glyph-name="Odieresis" unicode="&#xd6;" horiz-adv-x="580" 
d="M514 768q0 -13 -9 -22t-22 -9q-11 0 -18 7.5t-7 17.5q0 13 9 22t22 9q11 0 18 -7.5t7 -17.5zM352 768q0 -13 -9 -22t-22 -9q-11 0 -18 7.5t-7 17.5q0 13 9 22t22 9q11 0 18 -7.5t7 -17.5zM258 -12q-89 0 -143 62t-54 166q0 76 21.5 157t59 149t95.5 112t123 44
q89 0 143.5 -62.5t54.5 -165.5q0 -104 -36 -208.5t-107 -179t-157 -74.5zM261 18q71 0 132.5 66.5t95.5 165.5t34 201q0 93 -46 145t-121 52q-71 0 -132 -66.5t-94.5 -166t-33.5 -201.5q0 -93 45.5 -144.5t119.5 -51.5z" />
    <glyph glyph-name="multiply" unicode="&#xd7;" horiz-adv-x="434" 
d="M337 180l-103 133l-164 -135l-19 24l165 134l-104 133l25 19l102 -133l165 135l18 -23l-164 -135l103 -132z" />
    <glyph glyph-name="Oslash" unicode="&#xd8;" horiz-adv-x="580" 
d="M258 -12q-82 0 -135 53l-29 -41h-34l44 63q-43 60 -43 153q0 76 21.5 157t59 149t95.5 112t123 44q81 0 135 -54l30 43h35l-46 -65q44 -61 44 -152q0 -104 -36 -208.5t-107 -179t-157 -74.5zM96 214q0 -73 29 -122l351 505q-46 51 -120 51q-71 0 -132 -66.5t-94.5 -166
t-33.5 -201.5zM261 18q71 0 132.5 66.5t95.5 165.5t34 201q0 70 -30 121l-351 -504q44 -50 119 -50z" />
    <glyph glyph-name="Ugrave" unicode="&#xd9;" horiz-adv-x="534" 
d="M239 -12q-79 0 -126 44t-47 121q0 28 5 51l102 463h32l-102 -463q-5 -20 -5 -46q0 -65 38.5 -102.5t103.5 -37.5q72 0 112 45t61 141l102 463h32l-102 -463q-24 -110 -71.5 -163t-134.5 -53zM413 723h-27l-103 144h43z" />
    <glyph glyph-name="Uacute" unicode="&#xda;" horiz-adv-x="534" 
d="M527 867l-167 -144h-29l151 144h45zM239 -12q-79 0 -126 44t-47 121q0 28 5 51l102 463h32l-102 -463q-5 -20 -5 -46q0 -65 38.5 -102.5t103.5 -37.5q72 0 112 45t61 141l102 463h32l-102 -463q-24 -110 -71.5 -163t-134.5 -53z" />
    <glyph glyph-name="Ucircumflex" unicode="&#xdb;" horiz-adv-x="534" 
d="M476 723h-23l-53 118l-101 -118h-28l115 144h36zM239 -12q-79 0 -126 44t-47 121q0 28 5 51l102 463h32l-102 -463q-5 -20 -5 -46q0 -65 38.5 -102.5t103.5 -37.5q72 0 112 45t61 141l102 463h32l-102 -463q-24 -110 -71.5 -163t-134.5 -53z" />
    <glyph glyph-name="Udieresis" unicode="&#xdc;" horiz-adv-x="534" 
d="M491 768q0 -13 -9 -22t-22 -9q-10 0 -17.5 7.5t-7.5 17.5q0 13 9 22t22 9q10 0 17.5 -7.5t7.5 -17.5zM329 768q0 -13 -9 -22t-22 -9q-10 0 -17.5 7.5t-7.5 17.5q0 13 9 22t22 9q10 0 17.5 -7.5t7.5 -17.5zM239 -12q-79 0 -126 44t-47 121q0 28 5 51l102 463h32l-102 -463
q-5 -20 -5 -46q0 -65 38.5 -102.5t103.5 -37.5q72 0 112 45t61 141l102 463h32l-102 -463q-24 -110 -71.5 -163t-134.5 -53z" />
    <glyph glyph-name="Yacute" unicode="&#xdd;" horiz-adv-x="466" 
d="M195 0h-32l64 289l-122 378h35l108 -342l259 342h41l-289 -378zM492 867l-167 -144h-29l151 144h45z" />
    <glyph glyph-name="Thorn" unicode="&#xde;" horiz-adv-x="448" 
d="M58 0h-32l147 667h32l-28 -129h122q59 0 97.5 -42.5t38.5 -106.5q0 -39 -12.5 -78t-36.5 -73.5t-66 -56t-96 -21.5h-131zM229 190q82 0 126.5 59.5t44.5 139.5q0 52 -30 85.5t-77 33.5h-123l-70 -318h129z" />
    <glyph glyph-name="germandbls" unicode="&#xdf;" horiz-adv-x="477" 
d="M434 131q0 -56 -40.5 -99.5t-109.5 -43.5q-97 0 -151 76l27 20q45 -69 125 -69q52 0 85 33.5t33 81.5q0 28 -19.5 50.5t-47.5 38.5t-55.5 32.5t-47 42.5t-19.5 60q0 36 18.5 62.5t45 42.5t53.5 31t45.5 35.5t18.5 47.5q0 35 -28 56t-66 21q-44 0 -78.5 -30.5t-46.5 -87.5
l-118 -532h-30l118 532q15 67 56.5 106t99.5 39q52 0 87.5 -28t35.5 -73q0 -34 -18.5 -59.5t-45 -40.5t-53.5 -29.5t-45.5 -36.5t-18.5 -52q0 -28 19.5 -50t47.5 -38.5t56 -33.5t47.5 -44t19.5 -61z" />
    <glyph glyph-name="agrave" unicode="&#xe0;" 
d="M258 495q44 0 78.5 -24.5t52.5 -68.5l17 81h30l-107 -483h-30l16 72q-55 -84 -136 -84q-63 0 -100.5 44.5t-37.5 121.5q0 73 25 150t76.5 134t115.5 57zM257 468q-53 0 -97 -54t-65 -125t-21 -134q0 -68 29 -104t81 -36q40 0 79 29.5t63 72.5l55 251q-11 42 -45 71
t-79 29zM332 556h-27l-103 144h43z" />
    <glyph glyph-name="aacute" unicode="&#xe1;" 
d="M258 495q44 0 78.5 -24.5t52.5 -68.5l17 81h30l-107 -483h-30l16 72q-55 -84 -136 -84q-63 0 -100.5 44.5t-37.5 121.5q0 73 25 150t76.5 134t115.5 57zM257 468q-53 0 -97 -54t-65 -125t-21 -134q0 -68 29 -104t81 -36q40 0 79 29.5t63 72.5l55 251q-11 42 -45 71
t-79 29zM444 700l-167 -144h-29l151 144h45z" />
    <glyph glyph-name="acircumflex" unicode="&#xe2;" 
d="M258 495q44 0 78.5 -24.5t52.5 -68.5l17 81h30l-107 -483h-30l16 72q-55 -84 -136 -84q-63 0 -100.5 44.5t-37.5 121.5q0 73 25 150t76.5 134t115.5 57zM257 468q-53 0 -97 -54t-65 -125t-21 -134q0 -68 29 -104t81 -36q40 0 79 29.5t63 72.5l55 251q-11 42 -45 71
t-79 29zM393 556h-23l-53 118l-101 -118h-28l115 144h36z" />
    <glyph glyph-name="atilde" unicode="&#xe3;" 
d="M258 495q44 0 78.5 -24.5t52.5 -68.5l17 81h30l-107 -483h-30l16 72q-55 -84 -136 -84q-63 0 -100.5 44.5t-37.5 121.5q0 73 25 150t76.5 134t115.5 57zM257 468q-53 0 -97 -54t-65 -125t-21 -134q0 -68 29 -104t81 -36q40 0 79 29.5t63 72.5l55 251q-11 42 -45 71
t-79 29zM347 554q-24 0 -36 17.5t-14.5 39t-11.5 39t-26 17.5q-43 0 -67 -107h-25q30 134 99 134q23 0 35 -17.5t14.5 -39t11.5 -39t26 -17.5q44 0 68 107h25q-28 -134 -99 -134z" />
    <glyph glyph-name="adieresis" unicode="&#xe4;" 
d="M258 495q44 0 78.5 -24.5t52.5 -68.5l17 81h30l-107 -483h-30l16 72q-55 -84 -136 -84q-63 0 -100.5 44.5t-37.5 121.5q0 73 25 150t76.5 134t115.5 57zM257 468q-53 0 -97 -54t-65 -125t-21 -134q0 -68 29 -104t81 -36q40 0 79 29.5t63 72.5l55 251q-11 42 -45 71
t-79 29zM409 601q0 -13 -9 -22t-22 -9q-10 0 -17.5 7t-7.5 18q0 13 9 22t22 9q10 0 17.5 -7t7.5 -18zM247 601q0 -13 -9 -22t-22 -9q-10 0 -17.5 7t-7.5 18q0 13 9 22t22 9q10 0 17.5 -7t7.5 -18z" />
    <glyph glyph-name="aring" unicode="&#xe5;" 
d="M258 495q44 0 78.5 -24.5t52.5 -68.5l17 81h30l-107 -483h-30l16 72q-55 -84 -136 -84q-63 0 -100.5 44.5t-37.5 121.5q0 73 25 150t76.5 134t115.5 57zM257 468q-53 0 -97 -54t-65 -125t-21 -134q0 -68 29 -104t81 -36q40 0 79 29.5t63 72.5l55 251q-11 42 -45 71
t-79 29zM298 546q-34 0 -55 22t-21 56q0 38 28 66t66 28q34 0 55 -22t21 -56q0 -38 -28 -66t-66 -28zM299 570q28 0 48.5 20.5t20.5 48.5q0 24 -14.5 39.5t-38.5 15.5q-28 0 -48.5 -20t-20.5 -48q0 -24 14.5 -40t38.5 -16z" />
    <glyph glyph-name="ae" unicode="&#xe6;" horiz-adv-x="756" 
d="M257 468q-53 0 -97 -54t-65 -125t-21 -134q0 -68 29 -104t81 -36q40 0 79 29.5t63 72.5l55 251q-11 42 -45 71t-79 29zM359 132l-30 -132h-30l16 72q-55 -84 -136 -84q-63 0 -100.5 44.5t-37.5 121.5q0 73 25 150t76.5 134t115.5 57q44 0 78.5 -24.5t52.5 -68.5l17 81h30
l-19 -89q26 43 66 72t87 29q70 0 108 -45t38 -126q0 -44 -13 -92h-321q-6 -28 -6 -61q0 -70 36 -113t102 -43q62 0 117 61l19 -21q-62 -67 -135 -67q-67 0 -107.5 37t-48.5 107zM386 259h292q7 35 7 61q0 67 -29.5 107.5t-88.5 40.5q-65 0 -115.5 -64.5t-65.5 -144.5z" />
    <glyph glyph-name="ccedilla" unicode="&#xe7;" horiz-adv-x="394" 
d="M149 -187q-55 0 -85 35l19 25q26 -33 69 -33q30 0 47.5 16.5t17.5 40.5q0 33 -36 33q-20 0 -36 -17l-18 13l38 66q-57 10 -90 55.5t-33 123.5q0 73 27 146t81 125.5t121 52.5q85 0 124 -67l-24 -19q-32 59 -100 59q-60 0 -106.5 -51.5t-68 -118.5t-21.5 -132
q0 -75 34.5 -113t91.5 -38q59 0 103 51l18 -21q-56 -57 -122 -57h-7l-28 -47q12 11 30 11q23 0 37 -14.5t14 -39.5q0 -36 -27.5 -60.5t-69.5 -24.5z" />
    <glyph glyph-name="egrave" unicode="&#xe8;" 
d="M212 -12q-80 0 -125.5 48.5t-45.5 133.5q0 65 25 137.5t79 130t123 57.5q70 0 110.5 -45.5t40.5 -125.5q0 -44 -13 -92h-325q-6 -28 -6 -61q0 -71 35.5 -113.5t101.5 -42.5q65 0 121 61l19 -21q-64 -67 -140 -67zM85 259h296q7 35 7 61q0 66 -32.5 107t-91.5 41
q-64 0 -114.5 -64.5t-64.5 -144.5zM344 556h-27l-103 144h43z" />
    <glyph glyph-name="eacute" unicode="&#xe9;" 
d="M456 700l-167 -144h-29l151 144h45zM212 -12q-80 0 -125.5 48.5t-45.5 133.5q0 65 25 137.5t79 130t123 57.5q70 0 110.5 -45.5t40.5 -125.5q0 -44 -13 -92h-325q-6 -28 -6 -61q0 -71 35.5 -113.5t101.5 -42.5q65 0 121 61l19 -21q-64 -67 -140 -67zM85 259h296
q7 35 7 61q0 66 -32.5 107t-91.5 41q-64 0 -114.5 -64.5t-64.5 -144.5z" />
    <glyph glyph-name="ecircumflex" unicode="&#xea;" 
d="M404 556h-23l-53 118l-101 -118h-28l115 144h36zM212 -12q-80 0 -125.5 48.5t-45.5 133.5q0 65 25 137.5t79 130t123 57.5q70 0 110.5 -45.5t40.5 -125.5q0 -44 -13 -92h-325q-6 -28 -6 -61q0 -71 35.5 -113.5t101.5 -42.5q65 0 121 61l19 -21q-64 -67 -140 -67zM85 259
h296q7 35 7 61q0 66 -32.5 107t-91.5 41q-64 0 -114.5 -64.5t-64.5 -144.5z" />
    <glyph glyph-name="edieresis" unicode="&#xeb;" 
d="M420 601q0 -13 -9 -22t-22 -9q-11 0 -18 7t-7 18q0 13 9 22t22 9q11 0 18 -7t7 -18zM258 601q0 -13 -9 -22t-22 -9q-11 0 -18 7t-7 18q0 13 9 22t22 9q11 0 18 -7t7 -18zM212 -12q-80 0 -125.5 48.5t-45.5 133.5q0 65 25 137.5t79 130t123 57.5q70 0 110.5 -45.5
t40.5 -125.5q0 -44 -13 -92h-325q-6 -28 -6 -61q0 -71 35.5 -113.5t101.5 -42.5q65 0 121 61l19 -21q-64 -67 -140 -67zM85 259h296q7 35 7 61q0 66 -32.5 107t-91.5 41q-64 0 -114.5 -64.5t-64.5 -144.5z" />
    <glyph glyph-name="igrave" unicode="&#xec;" horiz-adv-x="181" 
d="M52 0h-30l107 483h30zM200 556h-27l-103 144h43z" />
    <glyph glyph-name="iacute" unicode="&#xed;" horiz-adv-x="181" 
d="M313 700l-167 -144h-29l151 144h45zM52 0h-30l107 483h30z" />
    <glyph glyph-name="icircumflex" unicode="&#xee;" horiz-adv-x="181" 
d="M262 556h-23l-53 118l-101 -118h-28l115 144h36zM52 0h-30l107 483h30z" />
    <glyph glyph-name="idieresis" unicode="&#xef;" horiz-adv-x="181" 
d="M277 601q0 -13 -9 -22t-22 -9q-10 0 -17.5 7t-7.5 18q0 13 9 22t22 9q10 0 17.5 -7t7.5 -18zM115 601q0 -13 -9 -22t-22 -9q-10 0 -17.5 7t-7.5 18q0 13 9 22t22 9q10 0 17.5 -7t7.5 -18zM52 0h-30l107 483h30z" />
    <glyph glyph-name="eth" unicode="&#xf0;" horiz-adv-x="461" 
d="M183 532l-7 25l130 39q-25 39 -52 69l28 18q35 -46 55 -78l99 30l7 -24l-92 -28q69 -120 69 -230q0 -84 -25.5 -166t-78 -140.5t-119.5 -58.5q-72 0 -113.5 47.5t-41.5 128.5q0 77 28 152.5t80 127t113 51.5q38 0 72.5 -20.5t50.5 -64.5q-22 85 -66 163zM197 15
q52 0 97 52.5t68 123.5t23 134q0 56 -30.5 99.5t-91.5 43.5q-52 0 -96.5 -51t-68 -120t-23.5 -132q0 -73 32.5 -111.5t89.5 -38.5z" />
    <glyph glyph-name="ntilde" unicode="&#xf1;" horiz-adv-x="435" 
d="M306 0h-30l81 366q5 25 5 34q0 68 -80 68q-38 0 -77.5 -27.5t-70.5 -67.5l-82 -373h-30l107 483h30l-16 -72q71 84 145 84q48 0 76 -23t28 -68q0 -20 -6 -38zM344 554q-24 0 -36 17.5t-14.5 39t-11.5 39t-26 17.5q-43 0 -67 -107h-25q30 134 99 134q23 0 35 -17.5
t14.5 -39t11.5 -39t26 -17.5q44 0 68 107h25q-28 -134 -99 -134z" />
    <glyph glyph-name="ograve" unicode="&#xf2;" horiz-adv-x="461" 
d="M193 -12q-70 0 -111 45t-41 130q0 75 26.5 150t80 128.5t119.5 53.5q70 0 111 -45t41 -130q0 -75 -26.5 -150t-80 -128.5t-119.5 -53.5zM194 15q54 0 100 51t69 120.5t23 133.5q0 72 -31.5 110t-88.5 38q-54 0 -100 -51t-69 -120.5t-23 -133.5q0 -72 31.5 -110t88.5 -38z
M342 556h-27l-103 144h43z" />
    <glyph glyph-name="oacute" unicode="&#xf3;" horiz-adv-x="461" 
d="M453 700l-167 -144h-29l151 144h45zM193 -12q-70 0 -111 45t-41 130q0 75 26.5 150t80 128.5t119.5 53.5q70 0 111 -45t41 -130q0 -75 -26.5 -150t-80 -128.5t-119.5 -53.5zM194 15q54 0 100 51t69 120.5t23 133.5q0 72 -31.5 110t-88.5 38q-54 0 -100 -51t-69 -120.5
t-23 -133.5q0 -72 31.5 -110t88.5 -38z" />
    <glyph glyph-name="ocircumflex" unicode="&#xf4;" horiz-adv-x="461" 
d="M403 556h-23l-53 118l-101 -118h-28l115 144h36zM193 -12q-70 0 -111 45t-41 130q0 75 26.5 150t80 128.5t119.5 53.5q70 0 111 -45t41 -130q0 -75 -26.5 -150t-80 -128.5t-119.5 -53.5zM194 15q54 0 100 51t69 120.5t23 133.5q0 72 -31.5 110t-88.5 38q-54 0 -100 -51
t-69 -120.5t-23 -133.5q0 -72 31.5 -110t88.5 -38z" />
    <glyph glyph-name="otilde" unicode="&#xf5;" horiz-adv-x="461" 
d="M193 -12q-70 0 -111 45t-41 130q0 75 26.5 150t80 128.5t119.5 53.5q70 0 111 -45t41 -130q0 -75 -26.5 -150t-80 -128.5t-119.5 -53.5zM194 15q54 0 100 51t69 120.5t23 133.5q0 72 -31.5 110t-88.5 38q-54 0 -100 -51t-69 -120.5t-23 -133.5q0 -72 31.5 -110t88.5 -38z
M356 554q-24 0 -36 17.5t-14.5 39t-11.5 39t-26 17.5q-43 0 -67 -107h-25q30 134 99 134q23 0 35 -17.5t14.5 -39t11.5 -39t26 -17.5q44 0 68 107h25q-28 -134 -99 -134z" />
    <glyph glyph-name="odieresis" unicode="&#xf6;" horiz-adv-x="461" 
d="M419 601q0 -13 -9 -22t-22 -9q-10 0 -17.5 7t-7.5 18q0 13 9 22t22 9q10 0 17.5 -7t7.5 -18zM257 601q0 -13 -9 -22t-22 -9q-10 0 -17.5 7t-7.5 18q0 13 9 22t22 9q10 0 17.5 -7t7.5 -18zM193 -12q-70 0 -111 45t-41 130q0 75 26.5 150t80 128.5t119.5 53.5q70 0 111 -45
t41 -130q0 -75 -26.5 -150t-80 -128.5t-119.5 -53.5zM194 15q54 0 100 51t69 120.5t23 133.5q0 72 -31.5 110t-88.5 38q-54 0 -100 -51t-69 -120.5t-23 -133.5q0 -72 31.5 -110t88.5 -38z" />
    <glyph glyph-name="divide" unicode="&#xf7;" horiz-adv-x="443" 
d="M431 322h-385l7 30h385zM201 131q-13 0 -21.5 8.5t-8.5 21.5q0 15 10.5 25t25.5 10q13 0 21.5 -8.5t8.5 -21.5q0 -15 -10.5 -25t-25.5 -10zM277 473q-13 0 -21.5 8.5t-8.5 21.5q0 15 10.5 25t25.5 10q13 0 21.5 -8.5t8.5 -21.5q0 -15 -10.5 -25t-25.5 -10z" />
    <glyph glyph-name="oslash" unicode="&#xf8;" horiz-adv-x="461" 
d="M49 0h-33l48 59q-23 41 -23 104q0 75 26.5 150t80 128.5t119.5 53.5q70 0 111 -46l28 34h33l-45 -56q25 -42 25 -107q0 -75 -26.5 -150t-80 -128.5t-119.5 -53.5q-74 0 -114 49zM194 15q54 0 100 51t69 120.5t23 133.5q0 46 -14 80l-273 -338q30 -47 95 -47zM74 163
q0 -45 12 -76l273 337q-32 44 -93 44q-54 0 -100 -51t-69 -120.5t-23 -133.5z" />
    <glyph glyph-name="ugrave" unicode="&#xf9;" horiz-adv-x="435" 
d="M129 483h30l-81 -366q-5 -23 -5 -33q0 -69 79 -69q38 0 77.5 26.5t69.5 65.5l84 376h30l-107 -483h-30l16 72q-73 -84 -146 -84q-47 0 -75 23.5t-28 68.5q0 13 5 38zM328 556h-27l-103 144h43z" />
    <glyph glyph-name="uacute" unicode="&#xfa;" horiz-adv-x="435" 
d="M440 700l-167 -144h-29l151 144h45zM129 483h30l-81 -366q-5 -23 -5 -33q0 -69 79 -69q38 0 77.5 26.5t69.5 65.5l84 376h30l-107 -483h-30l16 72q-73 -84 -146 -84q-47 0 -75 23.5t-28 68.5q0 13 5 38z" />
    <glyph glyph-name="ucircumflex" unicode="&#xfb;" horiz-adv-x="435" 
d="M390 556h-23l-53 118l-101 -118h-28l115 144h36zM129 483h30l-81 -366q-5 -23 -5 -33q0 -69 79 -69q38 0 77.5 26.5t69.5 65.5l84 376h30l-107 -483h-30l16 72q-73 -84 -146 -84q-47 0 -75 23.5t-28 68.5q0 13 5 38z" />
    <glyph glyph-name="udieresis" unicode="&#xfc;" horiz-adv-x="435" 
d="M405 601q0 -13 -9 -22t-22 -9q-10 0 -17.5 7t-7.5 18q0 13 9 22t22 9q10 0 17.5 -7t7.5 -18zM243 601q0 -13 -9 -22t-22 -9q-10 0 -17.5 7t-7.5 18q0 13 9 22t22 9q10 0 17.5 -7t7.5 -18zM129 483h30l-81 -366q-5 -23 -5 -33q0 -69 79 -69q38 0 77.5 26.5t69.5 65.5
l84 376h30l-107 -483h-30l16 72q-73 -84 -146 -84q-47 0 -75 23.5t-28 68.5q0 13 5 38z" />
    <glyph glyph-name="yacute" unicode="&#xfd;" horiz-adv-x="375" 
d="M-56 -187l12 28q11 -8 35 -8q19 0 33.5 12.5t33.5 45.5l56 98l-47 494h32l41 -445l239 445h36l-331 -602q-42 -77 -100 -77q-24 0 -40 9zM407 700l-167 -144h-29l151 144h45z" />
    <glyph glyph-name="thorn" unicode="&#xfe;" horiz-adv-x="457" 
d="M200 -12q-44 0 -78.5 25t-52.5 69l-58 -266h-31l189 851h30l-56 -255q54 83 136 83q63 0 100.5 -44t37.5 -121q0 -74 -25 -151t-76.5 -134t-115.5 -57zM201 15q53 0 97 54.5t65 125t21 134.5q0 68 -29 103.5t-81 35.5q-40 0 -79 -29.5t-63 -72.5l-55 -251q11 -42 45 -71
t79 -29z" />
    <glyph glyph-name="ydieresis" unicode="&#xff;" horiz-adv-x="375" 
d="M-56 -187l12 28q11 -8 35 -8q19 0 33.5 12.5t33.5 45.5l56 98l-47 494h32l41 -445l239 445h36l-331 -602q-42 -77 -100 -77q-24 0 -40 9zM372 601q0 -13 -9 -22t-22 -9q-11 0 -18 7t-7 18q0 13 9 22t22 9q11 0 18 -7t7 -18zM210 601q0 -13 -9 -22t-22 -9q-11 0 -18 7
t-7 18q0 13 9 22t22 9q11 0 18 -7t7 -18z" />
    <glyph glyph-name="Amacron" unicode="&#x100;" horiz-adv-x="474" 
d="M404 0h-34l-14 179h-265l-92 -179h-37l349 667h38zM355 209l-32 416l-216 -416h248zM499 748h-300l6 27h300z" />
    <glyph glyph-name="amacron" unicode="&#x101;" 
d="M258 495q44 0 78.5 -24.5t52.5 -68.5l17 81h30l-107 -483h-30l16 72q-55 -84 -136 -84q-63 0 -100.5 44.5t-37.5 121.5q0 73 25 150t76.5 134t115.5 57zM257 468q-53 0 -97 -54t-65 -125t-21 -134q0 -68 29 -104t81 -36q40 0 79 29.5t63 72.5l55 251q-11 42 -45 71
t-79 29zM447 581h-300l6 27h300z" />
    <glyph glyph-name="Abreve" unicode="&#x102;" horiz-adv-x="474" 
d="M404 0h-34l-14 179h-265l-92 -179h-37l349 667h38zM355 209l-32 416l-216 -416h248zM498 792q-70 -73 -161 -73t-130 73l23 18q14 -29 44 -46.5t67 -17.5q80 0 137 64z" />
    <glyph glyph-name="abreve" unicode="&#x103;" 
d="M258 495q44 0 78.5 -24.5t52.5 -68.5l17 81h30l-107 -483h-30l16 72q-55 -84 -136 -84q-63 0 -100.5 44.5t-37.5 121.5q0 73 25 150t76.5 134t115.5 57zM257 468q-53 0 -97 -54t-65 -125t-21 -134q0 -68 29 -104t81 -36q40 0 79 29.5t63 72.5l55 251q-11 42 -45 71
t-79 29zM446 625q-70 -73 -161 -73t-130 73l23 18q14 -29 44 -46.5t67 -17.5q80 0 137 64z" />
    <glyph glyph-name="Aogonek" unicode="&#x104;" horiz-adv-x="474" 
d="M392 -118l21 -14q-28 -54 -78 -54q-29 0 -46 15.5t-17 44.5q0 78 97 135l-13 170h-265l-92 -179h-37l349 667h38l55 -667q-104 -52 -104 -122q0 -37 39 -37q35 0 53 41zM355 209l-32 416l-216 -416h248z" />
    <glyph glyph-name="aogonek" unicode="&#x105;" 
d="M317 -118l21 -14q-28 -54 -78 -54q-29 0 -46 15.5t-17 44.5q0 81 105 139l13 59q-55 -84 -136 -84q-63 0 -100.5 44.5t-37.5 121.5q0 73 25 150t76.5 134t115.5 57q44 0 78.5 -24.5t52.5 -68.5l17 81h30l-107 -483q-104 -52 -104 -122q0 -37 39 -37q35 0 53 41zM257 468
q-53 0 -97 -54t-65 -125t-21 -134q0 -68 29 -104t81 -36q40 0 79 29.5t63 72.5l55 251q-11 42 -45 71t-79 29z" />
    <glyph glyph-name="Cacute" unicode="&#x106;" horiz-adv-x="512" 
d="M550 872l-167 -144h-29l151 144h45zM258 -12q-89 0 -143 60t-54 168t38 213.5t108 177t153 71.5q129 0 177 -126l-30 -12q-42 108 -151 108q-69 0 -130 -67t-95.5 -167t-34.5 -200q0 -94 43.5 -145t121.5 -51q76 0 150 82l23 -19q-79 -93 -176 -93z" />
    <glyph glyph-name="cacute" unicode="&#x107;" horiz-adv-x="394" 
d="M458 700l-167 -144h-29l151 144h45zM200 -12q-71 0 -114.5 47t-43.5 136q0 73 27 146t81 125.5t121 52.5q85 0 124 -67l-24 -19q-32 59 -100 59q-60 0 -106.5 -51.5t-68 -118.5t-21.5 -132q0 -75 34.5 -113t91.5 -38q59 0 103 51l18 -21q-56 -57 -122 -57z" />
    <glyph glyph-name="Ccircumflex" unicode="&#x108;" horiz-adv-x="512" 
d="M499 723h-23l-53 118l-101 -118h-28l115 144h36zM258 -12q-89 0 -143 60t-54 168t38 213.5t108 177t153 71.5q129 0 177 -126l-30 -12q-42 108 -151 108q-69 0 -130 -67t-95.5 -167t-34.5 -200q0 -94 43.5 -145t121.5 -51q76 0 150 82l23 -19q-79 -93 -176 -93z" />
    <glyph glyph-name="ccircumflex" unicode="&#x109;" horiz-adv-x="394" 
d="M408 556h-23l-53 118l-101 -118h-28l115 144h36zM200 -12q-71 0 -114.5 47t-43.5 136q0 73 27 146t81 125.5t121 52.5q85 0 124 -67l-24 -19q-32 59 -100 59q-60 0 -106.5 -51.5t-68 -118.5t-21.5 -132q0 -75 34.5 -113t91.5 -38q59 0 103 51l18 -21q-56 -57 -122 -57z
" />
    <glyph glyph-name="Cdotaccent" unicode="&#x10a;" horiz-adv-x="512" 
d="M258 -12q-89 0 -143 60t-54 168t38 213.5t108 177t153 71.5q129 0 177 -126l-30 -12q-42 108 -151 108q-69 0 -130 -67t-95.5 -167t-34.5 -200q0 -94 43.5 -145t121.5 -51q76 0 150 82l23 -19q-79 -93 -176 -93zM433 765q0 -13 -9.5 -22.5t-22.5 -9.5q-11 0 -18.5 7.5
t-7.5 18.5q0 13 9.5 22.5t22.5 9.5q11 0 18.5 -7.5t7.5 -18.5z" />
    <glyph glyph-name="cdotaccent" unicode="&#x10b;" horiz-adv-x="394" 
d="M200 -12q-71 0 -114.5 47t-43.5 136q0 73 27 146t81 125.5t121 52.5q85 0 124 -67l-24 -19q-32 59 -100 59q-60 0 -106.5 -51.5t-68 -118.5t-21.5 -132q0 -75 34.5 -113t91.5 -38q59 0 103 51l18 -21q-56 -57 -122 -57zM344 598q0 -13 -9.5 -22.5t-22.5 -9.5
q-11 0 -18.5 7.5t-7.5 18.5q0 13 9.5 22.5t22.5 9.5q11 0 18.5 -7.5t7.5 -18.5z" />
    <glyph glyph-name="Ccaron" unicode="&#x10c;" horiz-adv-x="512" 
d="M417 723h-36l-54 144h24l52 -118l102 118h27zM258 -12q-89 0 -143 60t-54 168t38 213.5t108 177t153 71.5q129 0 177 -126l-30 -12q-42 108 -151 108q-69 0 -130 -67t-95.5 -167t-34.5 -200q0 -94 43.5 -145t121.5 -51q76 0 150 82l23 -19q-79 -93 -176 -93z" />
    <glyph glyph-name="ccaron" unicode="&#x10d;" horiz-adv-x="394" 
d="M324 556h-36l-54 144h24l52 -118l102 118h27zM200 -12q-71 0 -114.5 47t-43.5 136q0 73 27 146t81 125.5t121 52.5q85 0 124 -67l-24 -19q-32 59 -100 59q-60 0 -106.5 -51.5t-68 -118.5t-21.5 -132q0 -75 34.5 -113t91.5 -38q59 0 103 51l18 -21q-56 -57 -122 -57z" />
    <glyph glyph-name="Dcaron" unicode="&#x10e;" horiz-adv-x="535" 
d="M401 723h-36l-54 144h24l52 -118l102 118h27zM172 0h-146l147 667h142q80 0 135.5 -62.5t55.5 -171.5q0 -49 -11.5 -104.5t-37.5 -114.5t-63.5 -106t-95.5 -77.5t-126 -30.5zM64 30h113q56 0 105.5 27t83.5 70t58.5 96.5t36 107.5t11.5 102q0 94 -46.5 149t-116.5 55
h-110z" />
    <glyph glyph-name="dcaron" unicode="&#x10f;" horiz-adv-x="506" 
d="M593 642q0 -37 -27 -74t-63 -56l-18 20q28 15 48 38t25 46h-6q-10 0 -18.5 8.5t-8.5 19.5q0 15 11 25.5t25 10.5q32 0 32 -38zM258 495q44 0 78.5 -24.5t52.5 -68.5l58 265h30l-148 -667h-30l16 72q-55 -84 -136 -84q-63 0 -100.5 44.5t-37.5 121.5q0 73 25 150t76.5 134
t115.5 57zM257 468q-53 0 -97 -54t-65 -125t-21 -134q0 -68 29 -104t81 -36q40 0 79 29.5t63 72.5l55 251q-11 42 -45 71t-79 29z" />
    <glyph glyph-name="Dcroat" unicode="&#x110;" horiz-adv-x="559" 
d="M196 0h-146l70 319h-85l7 30h85l70 318h142q80 0 135.5 -62.5t55.5 -171.5q0 -49 -11.5 -104.5t-37.5 -114.5t-63.5 -106t-95.5 -77.5t-126 -30.5zM294 319h-142l-64 -289h113q56 0 105.5 27t83.5 70t58.5 96.5t36 107.5t11.5 102q0 94 -46.5 149t-116.5 55h-110
l-64 -288h142z" />
    <glyph glyph-name="dcroat" unicode="&#x111;" horiz-adv-x="468" 
d="M258 495q44 0 78.5 -24.5t52.5 -68.5l30 139h-158l5 27h159l22 99h30l-22 -99h51l-4 -27h-53l-120 -541h-30l16 72q-55 -84 -136 -84q-63 0 -100.5 44.5t-37.5 121.5q0 73 25 150t76.5 134t115.5 57zM257 468q-53 0 -97 -54t-65 -125t-21 -134q0 -68 29 -104t81 -36
q40 0 79 29.5t63 72.5l55 251q-11 42 -45 71t-79 29z" />
    <glyph glyph-name="Emacron" unicode="&#x112;" horiz-adv-x="444" 
d="M335 0h-309l147 667h309l-6 -30h-277l-62 -279h270l-7 -30h-270l-66 -298h277zM495 748h-300l6 27h300z" />
    <glyph glyph-name="emacron" unicode="&#x113;" 
d="M212 -12q-80 0 -125.5 48.5t-45.5 133.5q0 65 25 137.5t79 130t123 57.5q70 0 110.5 -45.5t40.5 -125.5q0 -44 -13 -92h-325q-6 -28 -6 -61q0 -71 35.5 -113.5t101.5 -42.5q65 0 121 61l19 -21q-64 -67 -140 -67zM85 259h296q7 35 7 61q0 66 -32.5 107t-91.5 41
q-64 0 -114.5 -64.5t-64.5 -144.5zM459 581h-300l6 27h300z" />
    <glyph glyph-name="Ebreve" unicode="&#x114;" horiz-adv-x="444" 
d="M335 0h-309l147 667h309l-6 -30h-277l-62 -279h270l-7 -30h-270l-66 -298h277zM495 792q-70 -73 -161 -73t-130 73l23 18q14 -29 44 -46.5t67 -17.5q80 0 137 64z" />
    <glyph glyph-name="ebreve" unicode="&#x115;" 
d="M212 -12q-80 0 -125.5 48.5t-45.5 133.5q0 65 25 137.5t79 130t123 57.5q70 0 110.5 -45.5t40.5 -125.5q0 -44 -13 -92h-325q-6 -28 -6 -61q0 -71 35.5 -113.5t101.5 -42.5q65 0 121 61l19 -21q-64 -67 -140 -67zM85 259h296q7 35 7 61q0 66 -32.5 107t-91.5 41
q-64 0 -114.5 -64.5t-64.5 -144.5zM458 625q-70 -73 -161 -73t-130 73l23 18q14 -29 44 -46.5t67 -17.5q80 0 137 64z" />
    <glyph glyph-name="Edotaccent" unicode="&#x116;" horiz-adv-x="444" 
d="M335 0h-309l147 667h309l-6 -30h-277l-62 -279h270l-7 -30h-270l-66 -298h277zM377 765q0 -13 -9.5 -22.5t-22.5 -9.5q-11 0 -18.5 7.5t-7.5 18.5q0 13 9.5 22.5t22.5 9.5q11 0 18.5 -7.5t7.5 -18.5z" />
    <glyph glyph-name="edotaccent" unicode="&#x117;" 
d="M212 -12q-80 0 -125.5 48.5t-45.5 133.5q0 65 25 137.5t79 130t123 57.5q70 0 110.5 -45.5t40.5 -125.5q0 -44 -13 -92h-325q-6 -28 -6 -61q0 -71 35.5 -113.5t101.5 -42.5q65 0 121 61l19 -21q-64 -67 -140 -67zM85 259h296q7 35 7 61q0 66 -32.5 107t-91.5 41
q-64 0 -114.5 -64.5t-64.5 -144.5zM341 598q0 -13 -9.5 -22.5t-22.5 -9.5q-11 0 -18.5 7.5t-7.5 18.5q0 13 9.5 22.5t22.5 9.5q11 0 18.5 -7.5t7.5 -18.5z" />
    <glyph glyph-name="Eogonek" unicode="&#x118;" horiz-adv-x="444" 
d="M335 0q-104 -52 -104 -122q0 -37 39 -37q35 0 53 41l21 -14q-28 -54 -78 -54q-29 0 -46 15.5t-17 44.5q0 73 83 126h-260l147 667h309l-6 -30h-277l-62 -279h270l-7 -30h-270l-66 -298h277z" />
    <glyph glyph-name="eogonek" unicode="&#x119;" 
d="M261 -118l21 -14q-28 -54 -78 -54q-29 0 -46 15.5t-17 44.5q0 63 66 114q-78 2 -122 49.5t-44 132.5q0 65 25 137.5t79 130t123 57.5q70 0 110.5 -45.5t40.5 -125.5q0 -44 -13 -92h-325q-6 -28 -6 -61q0 -71 35.5 -113.5t101.5 -42.5q65 0 121 61l19 -21q-38 -39 -79 -55
q-104 -52 -104 -122q0 -37 39 -37q35 0 53 41zM85 259h296q7 35 7 61q0 66 -32.5 107t-91.5 41q-64 0 -114.5 -64.5t-64.5 -144.5z" />
    <glyph glyph-name="Ecaron" unicode="&#x11a;" horiz-adv-x="444" 
d="M360 723h-36l-54 144h24l52 -118l102 118h27zM335 0h-309l147 667h309l-6 -30h-277l-62 -279h270l-7 -30h-270l-66 -298h277z" />
    <glyph glyph-name="ecaron" unicode="&#x11b;" 
d="M323 556h-36l-54 144h24l52 -118l102 118h27zM212 -12q-80 0 -125.5 48.5t-45.5 133.5q0 65 25 137.5t79 130t123 57.5q70 0 110.5 -45.5t40.5 -125.5q0 -44 -13 -92h-325q-6 -28 -6 -61q0 -71 35.5 -113.5t101.5 -42.5q65 0 121 61l19 -21q-64 -67 -140 -67zM85 259h296
q7 35 7 61q0 66 -32.5 107t-91.5 41q-64 0 -114.5 -64.5t-64.5 -144.5z" />
    <glyph glyph-name="Gcircumflex" unicode="&#x11c;" horiz-adv-x="542" 
d="M498 723h-23l-53 118l-101 -118h-28l115 144h36zM258 -12q-91 0 -144 60.5t-53 167.5q0 108 37 213.5t107 177t155 71.5q125 0 177 -126l-29 -11q-42 107 -152 107q-70 0 -131 -67t-95 -166.5t-34 -200.5q0 -96 44 -146t121 -50q82 0 151 78l43 195h-188l6 30h220
l-53 -240q-85 -93 -182 -93z" />
    <glyph glyph-name="gcircumflex" unicode="&#x11d;" 
d="M390 551h-23l-53 118l-101 -118h-28l115 144h36zM147 -196q-106 0 -156 66l25 24q39 -63 132 -63q114 0 146 146l22 95q-57 -84 -140 -84q-60 0 -98 42.5t-38 125.5q0 52 15 110t41.5 110t69 85.5t92.5 33.5q40 0 77 -26t54 -67l18 81h29l-112 -506q-39 -173 -177 -173z
M182 15q38 0 77 28.5t65 69.5l57 255q-12 41 -48 70.5t-78 29.5q-53 0 -96.5 -54t-64.5 -124t-21 -134q0 -70 29 -105.5t80 -35.5z" />
    <glyph glyph-name="Gbreve" unicode="&#x11e;" horiz-adv-x="542" 
d="M258 -12q-91 0 -144 60.5t-53 167.5q0 108 37 213.5t107 177t155 71.5q125 0 177 -126l-29 -11q-42 107 -152 107q-70 0 -131 -67t-95 -166.5t-34 -200.5q0 -96 44 -146t121 -50q82 0 151 78l43 195h-188l6 30h220l-53 -240q-85 -93 -182 -93zM552 792q-70 -73 -161 -73
t-130 73l23 18q14 -29 44 -46.5t67 -17.5q80 0 137 64z" />
    <glyph glyph-name="gbreve" unicode="&#x11f;" 
d="M147 -196q-106 0 -156 66l25 24q39 -63 132 -63q114 0 146 146l22 95q-57 -84 -140 -84q-60 0 -98 42.5t-38 125.5q0 52 15 110t41.5 110t69 85.5t92.5 33.5q40 0 77 -26t54 -67l18 81h29l-112 -506q-39 -173 -177 -173zM182 15q38 0 77 28.5t65 69.5l57 255
q-12 41 -48 70.5t-78 29.5q-53 0 -96.5 -54t-64.5 -124t-21 -134q0 -70 29 -105.5t80 -35.5zM444 625q-70 -73 -161 -73t-130 73l23 18q14 -29 44 -46.5t67 -17.5q80 0 137 64z" />
    <glyph glyph-name="Gdotaccent" unicode="&#x120;" horiz-adv-x="542" 
d="M258 -12q-91 0 -144 60.5t-53 167.5q0 108 37 213.5t107 177t155 71.5q125 0 177 -126l-29 -11q-42 107 -152 107q-70 0 -131 -67t-95 -166.5t-34 -200.5q0 -96 44 -146t121 -50q82 0 151 78l43 195h-188l6 30h220l-53 -240q-85 -93 -182 -93zM433 765q0 -13 -9.5 -22.5
t-22.5 -9.5q-11 0 -18.5 7.5t-7.5 18.5q0 13 9.5 22.5t22.5 9.5q11 0 18.5 -7.5t7.5 -18.5z" />
    <glyph glyph-name="gdotaccent" unicode="&#x121;" 
d="M147 -196q-106 0 -156 66l25 24q39 -63 132 -63q114 0 146 146l22 95q-57 -84 -140 -84q-60 0 -98 42.5t-38 125.5q0 52 15 110t41.5 110t69 85.5t92.5 33.5q40 0 77 -26t54 -67l18 81h29l-112 -506q-39 -173 -177 -173zM182 15q38 0 77 28.5t65 69.5l57 255
q-12 41 -48 70.5t-78 29.5q-53 0 -96.5 -54t-64.5 -124t-21 -134q0 -70 29 -105.5t80 -35.5zM327 598q0 -13 -9.5 -22.5t-22.5 -9.5q-11 0 -18.5 7.5t-7.5 18.5q0 13 9.5 22.5t22.5 9.5q11 0 18.5 -7.5t7.5 -18.5z" />
    <glyph glyph-name="Gcommaaccent" unicode="&#x122;" horiz-adv-x="542" 
d="M244 -122q0 -37 -27 -74t-63 -56l-18 20q28 15 48 38t25 46h-6q-10 0 -18.5 8.5t-8.5 19.5q0 15 11 25.5t25 10.5q32 0 32 -38zM258 -12q-91 0 -144 60.5t-53 167.5q0 108 37 213.5t107 177t155 71.5q125 0 177 -126l-29 -11q-42 107 -152 107q-70 0 -131 -67t-95 -166.5
t-34 -200.5q0 -96 44 -146t121 -50q82 0 151 78l43 195h-188l6 30h220l-53 -240q-85 -93 -182 -93z" />
    <glyph glyph-name="gcommaaccent" unicode="&#x123;" 
d="M267 604q0 36 27 73.5t62 56.5l18 -20q-27 -15 -47 -38t-25 -46h6q10 0 18 -8.5t8 -19.5q0 -15 -10.5 -25.5t-24.5 -10.5q-32 0 -32 38zM147 -196q-106 0 -156 66l25 24q39 -63 132 -63q114 0 146 146l22 95q-57 -84 -140 -84q-60 0 -98 42.5t-38 125.5q0 52 15 110
t41.5 110t69 85.5t92.5 33.5q40 0 77 -26t54 -67l18 81h29l-112 -506q-39 -173 -177 -173zM182 15q38 0 77 28.5t65 69.5l57 255q-12 41 -48 70.5t-78 29.5q-53 0 -96.5 -54t-64.5 -124t-21 -134q0 -70 29 -105.5t80 -35.5z" />
    <glyph glyph-name="Hcircumflex" unicode="&#x124;" horiz-adv-x="545" 
d="M481 723h-23l-53 118l-101 -118h-28l115 144h36zM411 0h-32l72 328h-321l-72 -328h-32l147 667h32l-68 -309h321l68 309h32z" />
    <glyph glyph-name="hcircumflex" unicode="&#x125;" horiz-adv-x="435" 
d="M429 723h-23l-53 118l-101 -118h-28l115 144h36zM306 0h-30l81 367q5 20 5 33q0 68 -80 68q-38 0 -77.5 -27.5t-70.5 -67.5l-82 -373h-30l147 667h30l-56 -256q71 84 145 84q48 0 76 -23.5t28 -67.5q0 -18 -6 -38z" />
    <glyph glyph-name="Hbar" unicode="&#x126;" horiz-adv-x="582" 
d="M430 0h-32l72 328h-321l-72 -328h-32l110 501h-79l6 27h79l31 139h32l-31 -139h321l31 139h32l-31 -139h78l-6 -27h-78zM156 358h321l31 143h-321z" />
    <glyph glyph-name="hbar" unicode="&#x127;" horiz-adv-x="444" 
d="M315 0h-30l81 367q5 20 5 33q0 68 -80 68q-38 0 -77.5 -27.5t-70.5 -67.5l-82 -373h-30l119 541h-66l6 27h66l22 99h30l-22 -99h142l-6 -27h-142l-28 -130q71 84 145 84q48 0 76 -23.5t28 -67.5q0 -18 -6 -38z" />
    <glyph glyph-name="Itilde" unicode="&#x128;" horiz-adv-x="192" 
d="M58 0h-32l147 667h32zM258 721q-24 0 -36 17.5t-14.5 39t-11.5 39t-26 17.5q-43 0 -67 -107h-25q30 134 99 134q23 0 35 -17.5t14.5 -39t11.5 -39t26 -17.5q44 0 68 107h25q-28 -134 -99 -134z" />
    <glyph glyph-name="itilde" unicode="&#x129;" horiz-adv-x="181" 
d="M52 0h-30l107 483h30zM215 554q-24 0 -36 17.5t-14.5 39t-11.5 39t-26 17.5q-43 0 -67 -107h-25q30 134 99 134q23 0 35 -17.5t14.5 -39t11.5 -39t26 -17.5q44 0 68 107h25q-28 -134 -99 -134z" />
    <glyph glyph-name="Imacron" unicode="&#x12a;" horiz-adv-x="192" 
d="M58 0h-32l147 667h32zM357 748h-300l6 27h300z" />
    <glyph glyph-name="imacron" unicode="&#x12b;" horiz-adv-x="181" 
d="M52 0h-30l107 483h30zM316 581h-300l6 27h300z" />
    <glyph glyph-name="Ibreve" unicode="&#x12c;" horiz-adv-x="192" 
d="M58 0h-32l147 667h32zM357 792q-70 -73 -161 -73t-130 73l23 18q14 -29 44 -46.5t67 -17.5q80 0 137 64z" />
    <glyph glyph-name="ibreve" unicode="&#x12d;" horiz-adv-x="181" 
d="M52 0h-30l107 483h30zM315 625q-70 -73 -161 -73t-130 73l23 18q14 -29 44 -46.5t67 -17.5q80 0 137 64z" />
    <glyph glyph-name="Iogonek" unicode="&#x12e;" horiz-adv-x="192" 
d="M46 -118l21 -14q-28 -54 -78 -54q-29 0 -46 15.5t-17 44.5q0 80 102 138l145 655h32l-147 -667q-104 -52 -104 -122q0 -37 39 -37q35 0 53 41z" />
    <glyph glyph-name="iogonek" unicode="&#x12f;" horiz-adv-x="181" 
d="M40 -118l21 -14q-28 -54 -78 -54q-29 0 -46 15.5t-17 44.5q0 81 105 139l104 470h30l-107 -483q-104 -52 -104 -122q0 -37 39 -37q35 0 53 41zM165 566q-11 0 -19 7.5t-8 18.5q0 14 10.5 23t22.5 9q11 0 19 -7.5t8 -18.5q0 -14 -10.5 -23t-22.5 -9z" />
    <glyph glyph-name="Idotaccent" unicode="&#x130;" horiz-adv-x="192" 
d="M58 0h-32l147 667h32zM240 765q0 -13 -9.5 -22.5t-22.5 -9.5q-11 0 -18.5 7.5t-7.5 18.5q0 13 9.5 22.5t22.5 9.5q11 0 18.5 -7.5t7.5 -18.5z" />
    <glyph glyph-name="dotlessi" unicode="&#x131;" horiz-adv-x="181" 
d="M52 0h-30l107 483h30z" />
    <glyph glyph-name="IJ" unicode="&#x132;" horiz-adv-x="574" 
d="M58 0h-32l147 667h32zM302 -12q-97 0 -136 75l27 20q33 -65 109 -65q109 0 139 135l114 514h32l-114 -514q-37 -165 -171 -165z" />
    <glyph glyph-name="ij" unicode="&#x133;" horiz-adv-x="362" 
d="M165 566q-11 0 -19 7.5t-8 18.5q0 14 10.5 23t22.5 9q11 0 19 -7.5t8 -18.5q0 -14 -10.5 -23t-22.5 -9zM52 0h-30l107 483h30zM111 -196q-56 0 -77 41l25 17q15 -31 51 -31q55 0 73 83l127 569h30l-127 -569q-13 -60 -37.5 -85t-64.5 -25zM346 566q-11 0 -19 7.5t-8 18.5
q0 14 10.5 23t22.5 9q11 0 19 -7.5t8 -18.5q0 -14 -10.5 -23t-22.5 -9z" />
    <glyph glyph-name="Jcircumflex" unicode="&#x134;" horiz-adv-x="382" 
d="M495 723h-23l-53 118l-101 -118h-28l115 144h36zM110 -12q-97 0 -136 75l27 20q33 -65 109 -65q109 0 139 135l114 514h32l-114 -514q-37 -165 -171 -165z" />
    <glyph glyph-name="jcircumflex" unicode="&#x135;" horiz-adv-x="181" 
d="M263 556h-23l-53 118l-101 -118h-28l115 144h36zM-70 -196q-56 0 -77 41l25 17q16 -31 51 -31q55 0 73 83l127 569h30l-127 -569q-13 -60 -37.5 -85t-64.5 -25z" />
    <glyph glyph-name="Kcommaaccent" unicode="&#x136;" horiz-adv-x="472" 
d="M205 -122q0 -37 -27 -74t-63 -56l-18 20q28 15 48 38t25 46h-6q-10 0 -18.5 8.5t-8.5 19.5q0 15 11 25.5t25 10.5q32 0 32 -38zM393 0h-37l-161 326l-85 -90l-52 -236h-32l147 667h32l-83 -376l353 376h44l-302 -319z" />
    <glyph glyph-name="kcommaaccent" unicode="&#x137;" horiz-adv-x="411" 
d="M175 -122q0 -37 -27 -74t-63 -56l-18 20q28 15 48 38t25 46h-6q-10 0 -18.5 8.5t-8.5 19.5q0 15 11 25.5t25 10.5q32 0 32 -38zM332 0h-33l-109 245l-107 -103l-31 -142h-30l147 667h30l-106 -480l310 296h40l-231 -218z" />
    <glyph glyph-name="kgreenlandic" unicode="&#x138;" horiz-adv-x="411" 
d="M332 0h-33l-109 245l-107 -103l-31 -142h-30l107 483h30l-66 -296l310 296h40l-231 -218z" />
    <glyph glyph-name="Lacute" unicode="&#x139;" horiz-adv-x="412" 
d="M486 867l-167 -144h-29l151 144h45zM315 0h-289l147 667h32l-141 -637h257z" />
    <glyph glyph-name="lacute" unicode="&#x13a;" horiz-adv-x="181" 
d="M350 867l-167 -144h-29l151 144h45zM52 0h-30l147 667h30z" />
    <glyph glyph-name="Lcommaaccent" unicode="&#x13b;" horiz-adv-x="412" 
d="M178 -122q0 -37 -27 -74t-63 -56l-18 20q28 15 48 38t25 46h-6q-10 0 -18.5 8.5t-8.5 19.5q0 15 11 25.5t25 10.5q32 0 32 -38zM315 0h-289l147 667h32l-141 -637h257z" />
    <glyph glyph-name="lcommaaccent" unicode="&#x13c;" horiz-adv-x="181" 
d="M45 -122q0 -37 -27 -74t-63 -56l-18 20q28 15 48 38t25 46h-6q-10 0 -18.5 8.5t-8.5 19.5q0 15 11 25.5t25 10.5q32 0 32 -38zM52 0h-30l147 667h30z" />
    <glyph glyph-name="Lcaron" unicode="&#x13d;" horiz-adv-x="412" 
d="M350 641q0 -37 -27 -74t-63 -56l-18 20q28 15 48 38t25 46h-6q-10 0 -18.5 8.5t-8.5 19.5q0 15 11 25.5t25 10.5q32 0 32 -38zM315 0h-289l147 667h32l-141 -637h257z" />
    <glyph glyph-name="lcaron" unicode="&#x13e;" horiz-adv-x="226" 
d="M331 641q0 -37 -27 -74t-63 -56l-18 20q28 15 48 38t25 46h-6q-10 0 -18.5 8.5t-8.5 19.5q0 15 11 25.5t25 10.5q32 0 32 -38zM52 0h-30l147 667h30z" />
    <glyph glyph-name="Ldot" unicode="&#x13f;" horiz-adv-x="412" 
d="M315 0h-289l147 667h32l-141 -637h257zM311 309q-13 0 -21.5 8.5t-8.5 21.5q0 15 10.5 25t25.5 10q13 0 21.5 -8.5t8.5 -21.5q0 -15 -10.5 -25t-25.5 -10z" />
    <glyph glyph-name="ldot" unicode="&#x140;" horiz-adv-x="234" 
d="M52 0h-30l147 667h30zM205 212q-13 0 -21.5 8.5t-8.5 21.5q0 15 10.5 25t25.5 10q13 0 21.5 -8.5t8.5 -21.5q0 -15 -10.5 -25t-25.5 -10z" />
    <glyph glyph-name="Lslash" unicode="&#x141;" horiz-adv-x="440" 
d="M30 259l8 34l91 47l72 327h32l-69 -309l101 52l-8 -34l-100 -52l-65 -294h257l-6 -30h-289l67 306z" />
    <glyph glyph-name="lslash" unicode="&#x142;" horiz-adv-x="237" 
d="M24 267l7 32l95 48l71 320h30l-67 -302l95 48l-7 -32l-95 -48l-73 -333h-30l69 315z" />
    <glyph glyph-name="Nacute" unicode="&#x143;" horiz-adv-x="543" 
d="M531 867l-167 -144h-29l151 144h45zM409 0h-32l-186 599l-133 -599h-32l147 667h32l187 -592l132 592h32z" />
    <glyph glyph-name="nacute" unicode="&#x144;" horiz-adv-x="435" 
d="M441 700l-167 -144h-29l151 144h45zM306 0h-30l81 366q5 25 5 34q0 68 -80 68q-38 0 -77.5 -27.5t-70.5 -67.5l-82 -373h-30l107 483h30l-16 -72q71 84 145 84q48 0 76 -23t28 -68q0 -20 -6 -38z" />
    <glyph glyph-name="Ncommaaccent" unicode="&#x145;" horiz-adv-x="543" 
d="M226 -122q0 -37 -27 -74t-63 -56l-18 20q28 15 48 38t25 46h-6q-10 0 -18.5 8.5t-8.5 19.5q0 15 11 25.5t25 10.5q32 0 32 -38zM409 0h-32l-186 599l-133 -599h-32l147 667h32l187 -592l132 592h32z" />
    <glyph glyph-name="ncommaaccent" unicode="&#x146;" horiz-adv-x="435" 
d="M175 -122q0 -37 -27 -74t-63 -56l-18 20q28 15 48 38t25 46h-6q-10 0 -18.5 8.5t-8.5 19.5q0 15 11 25.5t25 10.5q32 0 32 -38zM306 0h-30l81 366q5 25 5 34q0 68 -80 68q-38 0 -77.5 -27.5t-70.5 -67.5l-82 -373h-30l107 483h30l-16 -72q71 84 145 84q48 0 76 -23
t28 -68q0 -20 -6 -38z" />
    <glyph glyph-name="Ncaron" unicode="&#x147;" horiz-adv-x="543" 
d="M398 723h-36l-54 144h24l52 -118l102 118h27zM409 0h-32l-186 599l-133 -599h-32l147 667h32l187 -592l132 592h32z" />
    <glyph glyph-name="ncaron" unicode="&#x148;" horiz-adv-x="435" 
d="M307 556h-36l-54 144h24l52 -118l102 118h27zM306 0h-30l81 366q5 25 5 34q0 68 -80 68q-38 0 -77.5 -27.5t-70.5 -67.5l-82 -373h-30l107 483h30l-16 -72q71 84 145 84q48 0 76 -23t28 -68q0 -20 -6 -38z" />
    <glyph glyph-name="napostrophe" unicode="&#x149;" horiz-adv-x="435" 
d="M232 687q0 -37 -27 -74t-63 -56l-18 20q28 15 48 38t25 46h-6q-10 0 -18.5 8.5t-8.5 19.5q0 15 11 25.5t25 10.5q32 0 32 -38zM306 0h-30l81 366q5 25 5 34q0 68 -80 68q-38 0 -77.5 -27.5t-70.5 -67.5l-82 -373h-30l107 483h30l-16 -72q71 84 145 84q48 0 76 -23t28 -68
q0 -20 -6 -38z" />
    <glyph glyph-name="Eng" unicode="&#x14a;" horiz-adv-x="543" 
d="M231 -196q-97 0 -136 74l26 20q33 -64 110 -64q107 0 138 132l8 34l-186 599l-133 -599h-32l147 667h32l187 -592l132 592h32l-155 -701q-39 -162 -170 -162z" />
    <glyph glyph-name="eng" unicode="&#x14b;" horiz-adv-x="435" 
d="M386 366l-100 -452q-13 -59 -37.5 -84.5t-63.5 -25.5q-56 0 -78 41l27 17q14 -31 50 -31q27 0 44.5 19t27.5 64l101 452q5 30 5 35q0 67 -80 67q-38 0 -77.5 -27.5t-70.5 -67.5l-82 -373h-30l107 483h30l-17 -74q73 86 146 86q47 0 75.5 -23t28.5 -69q0 -13 -6 -37z" />
    <glyph glyph-name="Omacron" unicode="&#x14c;" horiz-adv-x="580" 
d="M552 748h-300l6 27h300zM258 -12q-89 0 -143 62t-54 166q0 76 21.5 157t59 149t95.5 112t123 44q89 0 143.5 -62.5t54.5 -165.5q0 -104 -36 -208.5t-107 -179t-157 -74.5zM261 18q71 0 132.5 66.5t95.5 165.5t34 201q0 93 -46 145t-121 52q-71 0 -132 -66.5t-94.5 -166
t-33.5 -201.5q0 -93 45.5 -144.5t119.5 -51.5z" />
    <glyph glyph-name="omacron" unicode="&#x14d;" horiz-adv-x="461" 
d="M456 581h-300l6 27h300zM193 -12q-70 0 -111 45t-41 130q0 75 26.5 150t80 128.5t119.5 53.5q70 0 111 -45t41 -130q0 -75 -26.5 -150t-80 -128.5t-119.5 -53.5zM194 15q54 0 100 51t69 120.5t23 133.5q0 72 -31.5 110t-88.5 38q-54 0 -100 -51t-69 -120.5t-23 -133.5
q0 -72 31.5 -110t88.5 -38z" />
    <glyph glyph-name="Obreve" unicode="&#x14e;" horiz-adv-x="580" 
d="M258 -12q-89 0 -143 62t-54 166q0 76 21.5 157t59 149t95.5 112t123 44q89 0 143.5 -62.5t54.5 -165.5q0 -104 -36 -208.5t-107 -179t-157 -74.5zM261 18q71 0 132.5 66.5t95.5 165.5t34 201q0 93 -46 145t-121 52q-71 0 -132 -66.5t-94.5 -166t-33.5 -201.5
q0 -93 45.5 -144.5t119.5 -51.5zM551 792q-70 -73 -161 -73t-130 73l23 18q14 -29 44 -46.5t67 -17.5q80 0 137 64z" />
    <glyph glyph-name="obreve" unicode="&#x14f;" horiz-adv-x="461" 
d="M193 -12q-70 0 -111 45t-41 130q0 75 26.5 150t80 128.5t119.5 53.5q70 0 111 -45t41 -130q0 -75 -26.5 -150t-80 -128.5t-119.5 -53.5zM194 15q54 0 100 51t69 120.5t23 133.5q0 72 -31.5 110t-88.5 38q-54 0 -100 -51t-69 -120.5t-23 -133.5q0 -72 31.5 -110t88.5 -38z
M456 625q-70 -73 -161 -73t-130 73l23 18q14 -29 44 -46.5t67 -17.5q80 0 137 64z" />
    <glyph glyph-name="Ohungarumlaut" unicode="&#x150;" horiz-adv-x="580" 
d="M461 867l-127 -144h-25l111 144h41zM582 867l-127 -144h-25l111 144h41zM258 -12q-89 0 -143 62t-54 166q0 76 21.5 157t59 149t95.5 112t123 44q89 0 143.5 -62.5t54.5 -165.5q0 -104 -36 -208.5t-107 -179t-157 -74.5zM261 18q71 0 132.5 66.5t95.5 165.5t34 201
q0 93 -46 145t-121 52q-71 0 -132 -66.5t-94.5 -166t-33.5 -201.5q0 -93 45.5 -144.5t119.5 -51.5z" />
    <glyph glyph-name="ohungarumlaut" unicode="&#x151;" horiz-adv-x="461" 
d="M365 700l-127 -144h-25l111 144h41zM486 700l-127 -144h-25l111 144h41zM193 -12q-70 0 -111 45t-41 130q0 75 26.5 150t80 128.5t119.5 53.5q70 0 111 -45t41 -130q0 -75 -26.5 -150t-80 -128.5t-119.5 -53.5zM194 15q54 0 100 51t69 120.5t23 133.5q0 72 -31.5 110
t-88.5 38q-54 0 -100 -51t-69 -120.5t-23 -133.5q0 -72 31.5 -110t88.5 -38z" />
    <glyph glyph-name="OE" unicode="&#x152;" horiz-adv-x="843" 
d="M730 0h-309l22 103q-74 -115 -195 -115q-87 0 -137 63t-50 165q0 106 37 210.5t110 177.5t162 73q137 0 170 -139l28 129h309l-6 -30h-277l-62 -279h270l-7 -30h-270l-66 -298h277zM460 177l63 287q-7 89 -48 136t-112 47q-74 0 -137 -66.5t-96.5 -165.5t-33.5 -201
q0 -88 42 -142t116 -54q60 0 115 42.5t91 116.5z" />
    <glyph glyph-name="oe" unicode="&#x153;" horiz-adv-x="780" 
d="M728 232h-322q-6 -27 -6 -61q0 -73 35.5 -114.5t99.5 -41.5q66 0 119 61l19 -21q-62 -67 -137 -67t-118 44t-45 103q-68 -147 -182 -147q-69 0 -109.5 45.5t-40.5 129.5q0 78 27 153.5t79.5 127t117.5 51.5q69 0 106 -43.5t38 -100.5q65 144 182 144q70 0 109.5 -45.5
t39.5 -125.5q0 -48 -12 -92zM410 259h292q7 26 7 61q0 68 -31.5 108t-89.5 40q-68 0 -116.5 -66t-61.5 -143zM382 320q0 75 -32.5 111.5t-85.5 36.5t-98 -50.5t-68.5 -120t-23.5 -134.5q0 -70 30.5 -109t87.5 -39q53 0 98.5 51t68.5 120.5t23 133.5z" />
    <glyph glyph-name="Racute" unicode="&#x154;" horiz-adv-x="473" 
d="M503 867l-167 -144h-29l151 144h45zM365 0h-35l-88 289h-120l-64 -289h-32l147 667h150q59 0 101 -41t42 -106q0 -93 -53 -157.5t-139 -71.5zM128 319h132q80 0 125 60t45 141q0 54 -31 85.5t-76 31.5h-124z" />
    <glyph glyph-name="racute" unicode="&#x155;" horiz-adv-x="266" 
d="M379 700l-167 -144h-29l151 144h45zM52 0h-30l107 483h30l-18 -77q33 45 69 65.5t91 20.5l-8 -35q-5 2 -25 2q-39 0 -75.5 -27.5t-60.5 -69.5z" />
    <glyph glyph-name="Rcommaaccent" unicode="&#x156;" horiz-adv-x="473" 
d="M200 -122q0 -37 -27 -74t-63 -56l-18 20q28 15 48 38t25 46h-6q-10 0 -18.5 8.5t-8.5 19.5q0 15 11 25.5t25 10.5q32 0 32 -38zM365 0h-35l-88 289h-120l-64 -289h-32l147 667h150q59 0 101 -41t42 -106q0 -93 -53 -157.5t-139 -71.5zM128 319h132q80 0 125 60t45 141
q0 54 -31 85.5t-76 31.5h-124z" />
    <glyph glyph-name="rcommaaccent" unicode="&#x157;" horiz-adv-x="266" 
d="M111 -122q0 -37 -27 -74t-63 -56l-18 20q28 15 48 38t25 46h-6q-10 0 -18.5 8.5t-8.5 19.5q0 15 11 25.5t25 10.5q32 0 32 -38zM52 0h-30l107 483h30l-18 -77q33 45 69 65.5t91 20.5l-8 -35q-5 2 -25 2q-39 0 -75.5 -27.5t-60.5 -69.5z" />
    <glyph glyph-name="Rcaron" unicode="&#x158;" horiz-adv-x="473" 
d="M369 723h-36l-54 144h24l52 -118l102 118h27zM365 0h-35l-88 289h-120l-64 -289h-32l147 667h150q59 0 101 -41t42 -106q0 -93 -53 -157.5t-139 -71.5zM128 319h132q80 0 125 60t45 141q0 54 -31 85.5t-76 31.5h-124z" />
    <glyph glyph-name="rcaron" unicode="&#x159;" horiz-adv-x="266" 
d="M246 556h-36l-54 144h24l52 -118l102 118h27zM52 0h-30l107 483h30l-18 -77q33 45 69 65.5t91 20.5l-8 -35q-5 2 -25 2q-39 0 -75.5 -27.5t-60.5 -69.5z" />
    <glyph glyph-name="Sacute" unicode="&#x15a;" horiz-adv-x="447" 
d="M483 867l-167 -144h-29l151 144h45zM188 -12q-57 0 -106.5 25.5t-71.5 63.5l28 22q24 -37 63.5 -59t87.5 -22q72 0 115.5 48t43.5 119q0 40 -24 72.5t-58.5 57t-68.5 49.5t-58 60.5t-24 78.5q0 73 54.5 124t127.5 51q52 0 94.5 -20t63.5 -55l-26 -22q-43 67 -132 67
q-62 0 -105 -43.5t-43 -101.5q0 -35 24 -65.5t58.5 -55.5t68.5 -51t58 -63.5t24 -82.5q0 -81 -53.5 -139t-140.5 -58z" />
    <glyph glyph-name="sacute" unicode="&#x15b;" horiz-adv-x="366" 
d="M403 700l-167 -144h-29l151 144h45zM144 -12q-102 0 -143 74l26 19q36 -66 118 -66q52 0 86 33.5t34 78.5q0 30 -19.5 54.5t-48 42.5t-56.5 36t-47.5 44.5t-19.5 58.5q0 56 39.5 94t105.5 38q44 0 78.5 -18.5t50.5 -47.5l-25 -19q-12 26 -42.5 42t-65.5 16
q-49 0 -79.5 -27.5t-30.5 -69.5q0 -28 19.5 -51.5t48 -41t56.5 -36.5t47.5 -46t19.5 -61q0 -61 -42 -104t-110 -43z" />
    <glyph glyph-name="Scircumflex" unicode="&#x15c;" horiz-adv-x="447" 
d="M432 723h-23l-53 118l-101 -118h-28l115 144h36zM188 -12q-57 0 -106.5 25.5t-71.5 63.5l28 22q24 -37 63.5 -59t87.5 -22q72 0 115.5 48t43.5 119q0 40 -24 72.5t-58.5 57t-68.5 49.5t-58 60.5t-24 78.5q0 73 54.5 124t127.5 51q52 0 94.5 -20t63.5 -55l-26 -22
q-43 67 -132 67q-62 0 -105 -43.5t-43 -101.5q0 -35 24 -65.5t58.5 -55.5t68.5 -51t58 -63.5t24 -82.5q0 -81 -53.5 -139t-140.5 -58z" />
    <glyph glyph-name="scircumflex" unicode="&#x15d;" horiz-adv-x="366" 
d="M353 556h-23l-53 118l-101 -118h-28l115 144h36zM144 -12q-102 0 -143 74l26 19q36 -66 118 -66q52 0 86 33.5t34 78.5q0 30 -19.5 54.5t-48 42.5t-56.5 36t-47.5 44.5t-19.5 58.5q0 56 39.5 94t105.5 38q44 0 78.5 -18.5t50.5 -47.5l-25 -19q-12 26 -42.5 42t-65.5 16
q-49 0 -79.5 -27.5t-30.5 -69.5q0 -28 19.5 -51.5t48 -41t56.5 -36.5t47.5 -46t19.5 -61q0 -61 -42 -104t-110 -43z" />
    <glyph glyph-name="Scedilla" unicode="&#x15e;" horiz-adv-x="447" 
d="M127 -187q-55 0 -85 35l19 25q26 -33 69 -33q30 0 47.5 16.5t17.5 40.5q0 33 -36 33q-20 0 -36 -17l-18 13l39 66q-96 18 -134 85l28 22q24 -37 63.5 -59t87.5 -22q72 0 115.5 48t43.5 119q0 40 -24 72.5t-58.5 57t-68.5 49.5t-58 60.5t-24 78.5q0 73 54.5 124t127.5 51
q52 0 94.5 -20t63.5 -55l-26 -22q-43 67 -132 67q-62 0 -105 -43.5t-43 -101.5q0 -35 24 -65.5t58.5 -55.5t68.5 -51t58 -63.5t24 -82.5q0 -81 -53.5 -139t-140.5 -58q-11 0 -17 1l-28 -48q12 11 30 11q23 0 37 -14.5t14 -39.5q0 -36 -27.5 -60.5t-69.5 -24.5z" />
    <glyph glyph-name="scedilla" unicode="&#x15f;" horiz-adv-x="366" 
d="M90 -187q-55 0 -85 35l19 25q26 -33 69 -33q30 0 47.5 16.5t17.5 40.5q0 33 -36 33q-20 0 -36 -17l-18 13l38 65q-73 12 -105 71l26 19q36 -66 118 -66q52 0 86 33.5t34 78.5q0 30 -19.5 54.5t-48 42.5t-56.5 36t-47.5 44.5t-19.5 58.5q0 56 39.5 94t105.5 38
q44 0 78.5 -18.5t50.5 -47.5l-25 -19q-12 26 -42.5 42t-65.5 16q-49 0 -79.5 -27.5t-30.5 -69.5q0 -28 19.5 -51.5t48 -41t56.5 -36.5t47.5 -46t19.5 -61q0 -61 -42 -104t-110 -43h-10l-28 -47q12 11 30 11q23 0 37 -14.5t14 -39.5q0 -36 -27.5 -60.5t-69.5 -24.5z" />
    <glyph glyph-name="Scaron" unicode="&#x160;" horiz-adv-x="447" 
d="M350 723h-36l-54 144h24l52 -118l102 118h27zM188 -12q-57 0 -106.5 25.5t-71.5 63.5l28 22q24 -37 63.5 -59t87.5 -22q72 0 115.5 48t43.5 119q0 40 -24 72.5t-58.5 57t-68.5 49.5t-58 60.5t-24 78.5q0 73 54.5 124t127.5 51q52 0 94.5 -20t63.5 -55l-26 -22
q-43 67 -132 67q-62 0 -105 -43.5t-43 -101.5q0 -35 24 -65.5t58.5 -55.5t68.5 -51t58 -63.5t24 -82.5q0 -81 -53.5 -139t-140.5 -58z" />
    <glyph glyph-name="scaron" unicode="&#x161;" horiz-adv-x="366" 
d="M270 556h-36l-54 144h24l52 -118l102 118h27zM144 -12q-102 0 -143 74l26 19q36 -66 118 -66q52 0 86 33.5t34 78.5q0 30 -19.5 54.5t-48 42.5t-56.5 36t-47.5 44.5t-19.5 58.5q0 56 39.5 94t105.5 38q44 0 78.5 -18.5t50.5 -47.5l-25 -19q-12 26 -42.5 42t-65.5 16
q-49 0 -79.5 -27.5t-30.5 -69.5q0 -28 19.5 -51.5t48 -41t56.5 -36.5t47.5 -46t19.5 -61q0 -61 -42 -104t-110 -43z" />
    <glyph glyph-name="Tcommaaccent" unicode="&#x162;" horiz-adv-x="423" 
d="M168 -122q0 -37 -27 -74t-63 -56l-18 20q28 15 48 38t25 46h-6q-10 0 -18.5 8.5t-8.5 19.5q0 15 11 25.5t25 10.5q32 0 32 -38zM173 0h-32l141 637h-167l6 30h367l-6 -30h-168z" />
    <glyph glyph-name="tcommaaccent" unicode="&#x163;" horiz-adv-x="234" 
d="M61 -122q0 -37 -27 -74t-63 -56l-18 20q28 15 48 38t25 46h-6q-10 0 -18.5 8.5t-8.5 19.5q0 15 11 25.5t25 10.5q32 0 32 -38zM114 -12q-69 0 -69 65q0 11 3 28l84 375h-66l6 27h66l29 132h30l-29 -132h84l-6 -27h-84l-84 -375q-3 -13 -3 -27q0 -39 41 -39q25 0 45 20
l15 -22q-29 -25 -62 -25z" />
    <glyph glyph-name="Tcaron" unicode="&#x164;" horiz-adv-x="423" 
d="M331 723h-36l-54 144h24l52 -118l102 118h27zM173 0h-32l141 637h-167l6 30h367l-6 -30h-168z" />
    <glyph glyph-name="tcaron" unicode="&#x165;" horiz-adv-x="234" 
d="M346 687q0 -37 -27 -74t-63 -56l-18 20q28 15 48 38t25 46h-6q-10 0 -18.5 8.5t-8.5 19.5q0 15 11 25.5t25 10.5q32 0 32 -38zM114 -12q-69 0 -69 65q0 11 3 28l84 375h-66l6 27h66l29 132h30l-29 -132h84l-6 -27h-84l-84 -375q-3 -13 -3 -27q0 -39 41 -39q25 0 45 20
l15 -22q-29 -25 -62 -25z" />
    <glyph glyph-name="Tbar" unicode="&#x166;" horiz-adv-x="423" 
d="M173 0h-32l71 321h-122l6 27h122l64 289h-167l6 30h367l-6 -30h-168l-64 -289h122l-6 -27h-122z" />
    <glyph glyph-name="tbar" unicode="&#x167;" horiz-adv-x="234" 
d="M114 -12q-69 0 -69 65q0 11 3 28l36 161h-66l6 27h66l42 187h-66l6 27h66l29 132h30l-29 -132h84l-6 -27h-84l-42 -187h55l-6 -27h-55l-36 -161q-3 -13 -3 -27q0 -39 41 -39q25 0 45 20l15 -22q-29 -25 -62 -25z" />
    <glyph glyph-name="Utilde" unicode="&#x168;" horiz-adv-x="534" 
d="M239 -12q-79 0 -126 44t-47 121q0 28 5 51l102 463h32l-102 -463q-5 -20 -5 -46q0 -65 38.5 -102.5t103.5 -37.5q72 0 112 45t61 141l102 463h32l-102 -463q-24 -110 -71.5 -163t-134.5 -53zM430 721q-24 0 -36 17.5t-14.5 39t-11.5 39t-26 17.5q-43 0 -67 -107h-25
q30 134 99 134q23 0 35 -17.5t14.5 -39t11.5 -39t26 -17.5q44 0 68 107h25q-28 -134 -99 -134z" />
    <glyph glyph-name="utilde" unicode="&#x169;" horiz-adv-x="435" 
d="M129 483h30l-81 -366q-5 -23 -5 -33q0 -69 79 -69q38 0 77.5 26.5t69.5 65.5l84 376h30l-107 -483h-30l16 72q-73 -84 -146 -84q-47 0 -75 23.5t-28 68.5q0 13 5 38zM342 554q-24 0 -36 17.5t-14.5 39t-11.5 39t-26 17.5q-43 0 -67 -107h-25q30 134 99 134q23 0 35 -17.5
t14.5 -39t11.5 -39t26 -17.5q44 0 68 107h25q-28 -134 -99 -134z" />
    <glyph glyph-name="Umacron" unicode="&#x16a;" horiz-adv-x="534" 
d="M239 -12q-79 0 -126 44t-47 121q0 28 5 51l102 463h32l-102 -463q-5 -20 -5 -46q0 -65 38.5 -102.5t103.5 -37.5q72 0 112 45t61 141l102 463h32l-102 -463q-24 -110 -71.5 -163t-134.5 -53zM528 748h-300l6 27h300z" />
    <glyph glyph-name="umacron" unicode="&#x16b;" horiz-adv-x="435" 
d="M129 483h30l-81 -366q-5 -23 -5 -33q0 -69 79 -69q38 0 77.5 26.5t69.5 65.5l84 376h30l-107 -483h-30l16 72q-73 -84 -146 -84q-47 0 -75 23.5t-28 68.5q0 13 5 38zM443 581h-300l6 27h300z" />
    <glyph glyph-name="Ubreve" unicode="&#x16c;" horiz-adv-x="534" 
d="M239 -12q-79 0 -126 44t-47 121q0 28 5 51l102 463h32l-102 -463q-5 -20 -5 -46q0 -65 38.5 -102.5t103.5 -37.5q72 0 112 45t61 141l102 463h32l-102 -463q-24 -110 -71.5 -163t-134.5 -53zM528 792q-70 -73 -161 -73t-130 73l23 18q14 -29 44 -46.5t67 -17.5
q80 0 137 64z" />
    <glyph glyph-name="ubreve" unicode="&#x16d;" horiz-adv-x="435" 
d="M129 483h30l-81 -366q-5 -23 -5 -33q0 -69 79 -69q38 0 77.5 26.5t69.5 65.5l84 376h30l-107 -483h-30l16 72q-73 -84 -146 -84q-47 0 -75 23.5t-28 68.5q0 13 5 38zM442 625q-70 -73 -161 -73t-130 73l23 18q14 -29 44 -46.5t67 -17.5q80 0 137 64z" />
    <glyph glyph-name="Uring" unicode="&#x16e;" horiz-adv-x="534" 
d="M376 692q-34 0 -55 22t-21 56q0 38 28 66t66 28q34 0 55 -22t21 -56q0 -38 -28 -66t-66 -28zM377 716q28 0 48.5 20.5t20.5 48.5q0 24 -14.5 39.5t-38.5 15.5q-28 0 -48.5 -20t-20.5 -48q0 -24 14.5 -40t38.5 -16zM239 -12q-79 0 -126 44t-47 121q0 28 5 51l102 463h32
l-102 -463q-5 -20 -5 -46q0 -65 38.5 -102.5t103.5 -37.5q72 0 112 45t61 141l102 463h32l-102 -463q-24 -110 -71.5 -163t-134.5 -53z" />
    <glyph glyph-name="uring" unicode="&#x16f;" horiz-adv-x="435" 
d="M296 553q-34 0 -55 22t-21 56q0 37 28 65.5t66 28.5q34 0 55 -22t21 -56q0 -38 -28 -66t-66 -28zM297 577q28 0 48.5 20.5t20.5 48.5q0 24 -14.5 39.5t-38.5 15.5q-28 0 -48.5 -20t-20.5 -48q0 -24 14.5 -40t38.5 -16zM129 483h30l-81 -366q-5 -23 -5 -33q0 -69 79 -69
q38 0 77.5 26.5t69.5 65.5l84 376h30l-107 -483h-30l16 72q-73 -84 -146 -84q-47 0 -75 23.5t-28 68.5q0 13 5 38z" />
    <glyph glyph-name="Uhungarumlaut" unicode="&#x170;" horiz-adv-x="534" 
d="M239 -12q-79 0 -126 44t-47 121q0 28 5 51l102 463h32l-102 -463q-5 -20 -5 -46q0 -65 38.5 -102.5t103.5 -37.5q72 0 112 45t61 141l102 463h32l-102 -463q-24 -110 -71.5 -163t-134.5 -53zM438 867l-127 -144h-25l111 144h41zM559 867l-127 -144h-25l111 144h41z" />
    <glyph glyph-name="uhungarumlaut" unicode="&#x171;" horiz-adv-x="435" 
d="M129 483h30l-81 -366q-5 -23 -5 -33q0 -69 79 -69q38 0 77.5 26.5t69.5 65.5l84 376h30l-107 -483h-30l16 72q-73 -84 -146 -84q-47 0 -75 23.5t-28 68.5q0 13 5 38zM352 700l-127 -144h-25l111 144h41zM473 700l-127 -144h-25l111 144h41z" />
    <glyph glyph-name="Uogonek" unicode="&#x172;" horiz-adv-x="534" 
d="M239 -12q-79 0 -126 44t-47 121q0 28 5 51l102 463h32l-102 -463q-5 -20 -5 -46q0 -65 38.5 -102.5t103.5 -37.5q72 0 112 45t61 141l102 463h32l-102 -463q-37 -169 -133 -204q-104 -52 -104 -122q0 -37 39 -37q35 0 53 41l21 -14q-28 -54 -78 -54q-29 0 -46 15.5
t-17 44.5q0 63 66 114h-7z" />
    <glyph glyph-name="uogonek" unicode="&#x173;" horiz-adv-x="435" 
d="M129 483h30l-81 -366q-5 -23 -5 -33q0 -69 79 -69q38 0 77.5 26.5t69.5 65.5l84 376h30l-107 -483q-104 -52 -104 -122q0 -37 39 -37q35 0 53 41l21 -14q-28 -54 -78 -54q-29 0 -46 15.5t-17 44.5q0 81 105 139l13 59q-73 -84 -146 -84q-47 0 -75 23.5t-28 68.5
q0 13 5 38z" />
    <glyph glyph-name="Wcircumflex" unicode="&#x174;" horiz-adv-x="671" 
d="M544 723h-23l-53 118l-101 -118h-28l115 144h36zM448 0h-38l4 597l-260 -597h-38l2 667h34l-6 -611l265 611h34l-5 -611l264 611h36z" />
    <glyph glyph-name="wcircumflex" unicode="&#x175;" horiz-adv-x="594" 
d="M469 556h-23l-53 118l-101 -118h-28l115 144h36zM389 0h-27l-22 439l-216 -439h-27l-23 483h32l14 -436l214 436h30l20 -436l208 436h34z" />
    <glyph glyph-name="Ycircumflex" unicode="&#x176;" horiz-adv-x="466" 
d="M442 723h-23l-53 118l-101 -118h-28l115 144h36zM195 0h-32l64 289l-122 378h35l108 -342l259 342h41l-289 -378z" />
    <glyph glyph-name="ycircumflex" unicode="&#x177;" horiz-adv-x="375" 
d="M-56 -187l12 28q11 -8 35 -8q19 0 33.5 12.5t33.5 45.5l56 98l-47 494h32l41 -445l239 445h36l-331 -602q-42 -77 -100 -77q-24 0 -40 9zM358 556h-23l-53 118l-101 -118h-28l115 144h36z" />
    <glyph glyph-name="Ydieresis" unicode="&#x178;" horiz-adv-x="466" 
d="M458 768q0 -13 -9 -22t-22 -9q-11 0 -18 7.5t-7 17.5q0 13 9 22t22 9q11 0 18 -7.5t7 -17.5zM296 768q0 -13 -9 -22t-22 -9q-11 0 -18 7.5t-7 17.5q0 13 9 22t22 9q11 0 18 -7.5t7 -17.5zM195 0h-32l64 289l-122 378h35l108 -342l259 342h41l-289 -378z" />
    <glyph glyph-name="Zacute" unicode="&#x179;" horiz-adv-x="444" 
d="M478 867l-167 -144h-29l151 144h45zM345 0h-355l6 31l444 606h-308l6 30h347l-6 -30l-444 -607h316z" />
    <glyph glyph-name="zacute" unicode="&#x17a;" horiz-adv-x="371" 
d="M405 700l-167 -144h-29l151 144h45zM266 0h-270l6 27l326 429h-230l6 27h265l-6 -27l-326 -429h234z" />
    <glyph glyph-name="Zdotaccent" unicode="&#x17b;" horiz-adv-x="444" 
d="M345 0h-355l6 31l444 606h-308l6 30h347l-6 -30l-444 -607h316zM363 765q0 -13 -9.5 -22.5t-22.5 -9.5q-11 0 -18.5 7.5t-7.5 18.5q0 13 9.5 22.5t22.5 9.5q11 0 18.5 -7.5t7.5 -18.5z" />
    <glyph glyph-name="zdotaccent" unicode="&#x17c;" horiz-adv-x="371" 
d="M266 0h-270l6 27l326 429h-230l6 27h265l-6 -27l-326 -429h234zM291 598q0 -13 -9.5 -22.5t-22.5 -9.5q-11 0 -18.5 7.5t-7.5 18.5q0 13 9.5 22.5t22.5 9.5q11 0 18.5 -7.5t7.5 -18.5z" />
    <glyph glyph-name="Zcaron" unicode="&#x17d;" horiz-adv-x="444" 
d="M346 723h-36l-54 144h24l52 -118l102 118h27zM345 0h-355l6 31l444 606h-308l6 30h347l-6 -30l-444 -607h316z" />
    <glyph glyph-name="zcaron" unicode="&#x17e;" horiz-adv-x="371" 
d="M271 556h-36l-54 144h24l52 -118l102 118h27zM266 0h-270l6 27l326 429h-230l6 27h265l-6 -27l-326 -429h234z" />
    <glyph glyph-name="longs" unicode="&#x17f;" horiz-adv-x="224" 
d="M65 0h-30l101 456h-65l6 27h65l17 79q26 115 116 115q45 0 70 -31l-21 -21q-19 25 -52 25q-64 0 -83 -88z" />
    <glyph glyph-name="florin" unicode="&#x192;" horiz-adv-x="374" 
d="M13 -161h-32l95 428h-65v30h71l59 265q26 115 116 115q45 0 72 -31l-23 -20q-16 21 -49 21q-65 0 -84 -86l-58 -264h131v-30h-138z" />
    <glyph glyph-name="Ohorn" unicode="&#x1a0;" horiz-adv-x="580" 
d="M258 -12q-89 0 -143 62t-54 166q0 76 21.5 157t59 149t95.5 112t123 44q118 0 170 -103q50 34 60 77h-6q-10 0 -18 8.5t-8 19.5q0 15 10.5 25.5t24.5 10.5q32 0 32 -38q0 -35 -25 -71t-59 -56q17 -46 17 -101q0 -104 -36 -208.5t-107 -179t-157 -74.5zM261 18
q71 0 132.5 66.5t95.5 165.5t34 201q0 93 -46 145t-121 52q-71 0 -132 -66.5t-94.5 -166t-33.5 -201.5q0 -93 45.5 -144.5t119.5 -51.5z" />
    <glyph glyph-name="ohorn" unicode="&#x1a1;" horiz-adv-x="461" 
d="M473 544q0 -33 -22.5 -66.5t-53.5 -55.5q22 -42 22 -102q0 -75 -26.5 -150t-80 -128.5t-119.5 -53.5q-70 0 -111 45t-41 130q0 75 26.5 150t80 128.5t119.5 53.5q75 0 115 -51q46 32 56 74h-6q-10 0 -18 8.5t-8 19.5q0 15 10.5 25.5t24.5 10.5q32 0 32 -38zM194 15
q54 0 100 51t69 120.5t23 133.5q0 72 -31.5 110t-88.5 38q-54 0 -100 -51t-69 -120.5t-23 -133.5q0 -72 31.5 -110t88.5 -38z" />
    <glyph glyph-name="Uhorn" unicode="&#x1af;" horiz-adv-x="534" 
d="M657 745q0 -43 -37 -84.5t-89 -63.5l-86 -393q-24 -110 -71.5 -163t-134.5 -53q-79 0 -126 44t-47 121q0 21 5 51l102 463h32l-102 -463q-5 -20 -5 -46q0 -65 38.5 -102.5t103.5 -37.5q72 0 112 45t61 141l102 463h32l-9 -38q73 39 84 90h-6q-10 0 -18 8.5t-8 19.5
q0 15 10.5 25.5t24.5 10.5q32 0 32 -38z" />
    <glyph glyph-name="uhorn" unicode="&#x1b0;" horiz-adv-x="435" 
d="M516 544q0 -44 -35.5 -84.5t-86.5 -62.5l-88 -397h-30l16 72q-73 -84 -146 -84q-47 0 -75 23.5t-28 68.5q0 13 5 38l81 365h30l-81 -366q-5 -23 -5 -33q0 -69 79 -69q38 0 77.5 26.5t69.5 65.5l84 376h30l-12 -54q69 37 80 89h-6q-10 0 -18 8.5t-8 19.5q0 15 10.5 25.5
t24.5 10.5q32 0 32 -38z" />
    <glyph glyph-name="AEacute" unicode="&#x1fc;" horiz-adv-x="720" 
d="M626 867l-167 -144h-29l151 144h45zM607 0h-309l39 179h-209l-123 -179h-38l466 667h321l-6 -30h-277l-62 -279h270l-7 -30h-270l-66 -298h277zM344 209l91 412l-287 -412h196z" />
    <glyph glyph-name="aeacute" unicode="&#x1fd;" horiz-adv-x="756" 
d="M591 700l-167 -144h-29l151 144h45zM257 468q-53 0 -97 -54t-65 -125t-21 -134q0 -68 29 -104t81 -36q40 0 79 29.5t63 72.5l55 251q-11 42 -45 71t-79 29zM359 132l-30 -132h-30l16 72q-55 -84 -136 -84q-63 0 -100.5 44.5t-37.5 121.5q0 73 25 150t76.5 134t115.5 57
q44 0 78.5 -24.5t52.5 -68.5l17 81h30l-19 -89q26 43 66 72t87 29q70 0 108 -45t38 -126q0 -44 -13 -92h-321q-6 -28 -6 -61q0 -70 36 -113t102 -43q62 0 117 61l19 -21q-62 -67 -135 -67q-67 0 -107.5 37t-48.5 107zM386 259h292q7 35 7 61q0 67 -29.5 107.5t-88.5 40.5
q-65 0 -115.5 -64.5t-65.5 -144.5z" />
    <glyph glyph-name="Oslashacute" unicode="&#x1fe;" horiz-adv-x="580" 
d="M549 867l-167 -144h-29l151 144h45zM258 -12q-82 0 -135 53l-29 -41h-34l44 63q-43 60 -43 153q0 76 21.5 157t59 149t95.5 112t123 44q81 0 135 -54l30 43h35l-46 -65q44 -61 44 -152q0 -104 -36 -208.5t-107 -179t-157 -74.5zM96 214q0 -73 29 -122l351 505
q-46 51 -120 51q-71 0 -132 -66.5t-94.5 -166t-33.5 -201.5zM261 18q71 0 132.5 66.5t95.5 165.5t34 201q0 70 -30 121l-351 -504q44 -50 119 -50z" />
    <glyph glyph-name="oslashacute" unicode="&#x1ff;" horiz-adv-x="461" 
d="M453 700l-167 -144h-29l151 144h45zM49 0h-33l48 59q-23 41 -23 104q0 75 26.5 150t80 128.5t119.5 53.5q70 0 111 -46l28 34h33l-45 -56q25 -42 25 -107q0 -75 -26.5 -150t-80 -128.5t-119.5 -53.5q-74 0 -114 49zM194 15q54 0 100 51t69 120.5t23 133.5q0 46 -14 80
l-273 -338q30 -47 95 -47zM74 163q0 -45 12 -76l273 337q-32 44 -93 44q-54 0 -100 -51t-69 -120.5t-23 -133.5z" />
    <glyph glyph-name="Scommaaccent" unicode="&#x218;" horiz-adv-x="447" 
d="M180 -122q0 -37 -27 -74t-63 -56l-18 20q28 15 48 38t25 46h-6q-10 0 -18.5 8.5t-8.5 19.5q0 15 11 25.5t25 10.5q32 0 32 -38zM188 -12q-57 0 -106.5 25.5t-71.5 63.5l28 22q24 -37 63.5 -59t87.5 -22q72 0 115.5 48t43.5 119q0 40 -24 72.5t-58.5 57t-68.5 49.5
t-58 60.5t-24 78.5q0 73 54.5 124t127.5 51q52 0 94.5 -20t63.5 -55l-26 -22q-43 67 -132 67q-62 0 -105 -43.5t-43 -101.5q0 -35 24 -65.5t58.5 -55.5t68.5 -51t58 -63.5t24 -82.5q0 -81 -53.5 -139t-140.5 -58z" />
    <glyph glyph-name="scommaaccent" unicode="&#x219;" horiz-adv-x="366" 
d="M135 -122q0 -37 -27 -74t-63 -56l-18 20q28 15 48 38t25 46h-6q-10 0 -18.5 8.5t-8.5 19.5q0 15 11 25.5t25 10.5q32 0 32 -38zM144 -12q-102 0 -143 74l26 19q36 -66 118 -66q52 0 86 33.5t34 78.5q0 30 -19.5 54.5t-48 42.5t-56.5 36t-47.5 44.5t-19.5 58.5
q0 56 39.5 94t105.5 38q44 0 78.5 -18.5t50.5 -47.5l-25 -19q-12 26 -42.5 42t-65.5 16q-49 0 -79.5 -27.5t-30.5 -69.5q0 -28 19.5 -51.5t48 -41t56.5 -36.5t47.5 -46t19.5 -61q0 -61 -42 -104t-110 -43z" />
    <glyph glyph-name="uni021A" unicode="&#x21a;" horiz-adv-x="423" 
d="M168 -122q0 -37 -27 -74t-63 -56l-18 20q28 15 48 38t25 46h-6q-10 0 -18.5 8.5t-8.5 19.5q0 15 11 25.5t25 10.5q32 0 32 -38zM173 0h-32l141 637h-167l6 30h367l-6 -30h-168z" />
    <glyph glyph-name="uni021B" unicode="&#x21b;" horiz-adv-x="234" 
d="M56 -122q0 -37 -27 -74t-63 -56l-18 20q28 15 48 38t25 46h-6q-10 0 -18.5 8.5t-8.5 19.5q0 15 11 25.5t25 10.5q32 0 32 -38zM114 -12q-69 0 -69 65q0 11 3 28l84 375h-66l6 27h66l29 132h30l-29 -132h84l-6 -27h-84l-84 -375q-3 -13 -3 -27q0 -39 41 -39q25 0 45 20
l15 -22q-29 -25 -62 -25z" />
    <glyph glyph-name="uni0237" unicode="&#x237;" horiz-adv-x="181" 
d="M-70 -196q-56 0 -77 41l25 17q16 -31 51 -31q55 0 73 83l127 569h30l-127 -569q-13 -60 -37.5 -85t-64.5 -25z" />
    <glyph glyph-name="hsuperior" unicode="&#x2b0;" horiz-adv-x="327" 
d="M285 326h-28l50 230q3 12 3 20q0 49 -54 49q-47 0 -97 -61l-52 -238h-28l96 434h28l-37 -167q44 55 99 55q36 0 55 -16t19 -45q0 -13 -4 -33z" />
    <glyph glyph-name="uni02BC" unicode="&#x2bc;" horiz-adv-x="208" 
d="M227 639q0 -36 -27 -73.5t-62 -56.5l-18 20q27 15 47 38t25 46h-6q-10 0 -18 8.5t-8 19.5q0 15 10.5 25.5t24.5 10.5q32 0 32 -38z" />
    <glyph glyph-name="circumflex" unicode="&#x2c6;" horiz-adv-x="205" 
d="M274 556h-23l-53 118l-101 -118h-28l115 144h36z" />
    <glyph glyph-name="caron" unicode="&#x2c7;" horiz-adv-x="205" 
d="M191 556h-36l-54 144h24l52 -118l102 118h27z" />
    <glyph glyph-name="uni02C9" unicode="&#x2c9;" horiz-adv-x="302" 
d="M378 591h-301l6 27h301z" />
    <glyph glyph-name="uni02CB" unicode="&#x2cb;" horiz-adv-x="162" 
d="M231 556h-27l-103 144h43z" />
    <glyph glyph-name="breve" unicode="&#x2d8;" horiz-adv-x="291" 
d="M375 625q-70 -73 -161 -73t-130 73l23 18q14 -29 44 -46.5t67 -17.5q80 0 137 64z" />
    <glyph glyph-name="dotaccent" unicode="&#x2d9;" horiz-adv-x="58" 
d="M136 598q0 -13 -9.5 -22.5t-22.5 -9.5q-11 0 -18.5 7.5t-7.5 18.5q0 13 9.5 22.5t22.5 9.5q11 0 18.5 -7.5t7.5 -18.5z" />
    <glyph glyph-name="ring" unicode="&#x2da;" horiz-adv-x="170" 
d="M163 553q-34 0 -55 22t-21 56q0 37 28.5 65.5t65.5 28.5q34 0 55 -22t21 -56q0 -38 -28 -66t-66 -28zM164 577q28 0 48.5 20.5t20.5 48.5q0 24 -14.5 39.5t-38.5 15.5q-28 0 -48.5 -20t-20.5 -48q0 -24 14.5 -40t38.5 -16z" />
    <glyph glyph-name="ogonek" unicode="&#x2db;" horiz-adv-x="144" 
d="M40 -118l21 -14q-28 -54 -78 -54q-29 0 -46 15.5t-17 44.5q0 83 112 143l20 -17q-104 -52 -104 -122q0 -37 39 -37q35 0 53 41z" />
    <glyph glyph-name="tilde" unicode="&#x2dc;" horiz-adv-x="251" 
d="M250 554q-24 0 -36 17.5t-14.5 39t-11.5 39t-26 17.5q-43 0 -67 -107h-25q30 134 99 134q23 0 35 -17.5t14.5 -39t11.5 -39t26 -17.5q44 0 68 107h25q-28 -134 -99 -134z" />
    <glyph glyph-name="hungarumlaut" unicode="&#x2dd;" horiz-adv-x="239" 
d="M219 700l-127 -144h-25l111 144h41zM340 700l-127 -144h-25l111 144h41z" />
    <glyph glyph-name="hookabovecomb" unicode="&#x309;" horiz-adv-x="144" 
d="M203 738l-19 10q21 42 61 42q23 0 37.5 -13.5t14.5 -36.5q0 -39 -37 -73h-28q41 35 41 72q0 13 -8.5 21t-20.5 8q-25 0 -41 -30z" />
    <glyph glyph-name="uni037E" unicode="&#x37e;" horiz-adv-x="208" 
d="M89 18q0 -36 -27 -73.5t-62 -56.5l-18 20q27 15 47 38t25 46h-6q-10 0 -18 8.5t-8 19.5q0 15 10.5 25.5t24.5 10.5q32 0 32 -38zM148 425q-13 0 -21.5 8.5t-8.5 21.5q0 15 10.5 25t25.5 10q13 0 21.5 -8.5t8.5 -21.5q0 -15 -10.5 -25t-25.5 -10z" />
    <glyph glyph-name="tonos" unicode="&#x384;" horiz-adv-x="435" 
d="M193 575h-22l60 190h52z" />
    <glyph glyph-name="dieresistonos" unicode="&#x385;" horiz-adv-x="435" 
d="M297 575h-22l60 190h52zM436 601q0 -13 -9 -22t-22 -9q-11 0 -18 7t-7 18q0 13 9 22t22 9q11 0 18 -7t7 -18zM218 601q0 -13 -9 -22t-22 -9q-11 0 -18 7t-7 18q0 13 9 22t22 9q11 0 18 -7t7 -18z" />
    <glyph glyph-name="Alphatonos" unicode="&#x386;" horiz-adv-x="474" 
d="M171 575h-22l60 190h52zM404 0h-34l-14 179h-265l-92 -179h-37l349 667h38zM355 209l-32 416l-216 -416h248z" />
    <glyph glyph-name="Epsilontonos" unicode="&#x388;" horiz-adv-x="444" 
d="M89 575h-22l60 190h52zM335 0h-309l147 667h309l-6 -30h-277l-62 -279h270l-7 -30h-270l-66 -298h277z" />
    <glyph glyph-name="Etatonos" unicode="&#x389;" horiz-adv-x="545" 
d="M89 575h-22l60 190h52zM411 0h-32l72 328h-321l-72 -328h-32l147 667h32l-68 -309h321l68 309h32z" />
    <glyph glyph-name="Iotatonos" unicode="&#x38a;" horiz-adv-x="192" 
d="M89 575h-22l60 190h52zM58 0h-32l147 667h32z" />
    <glyph glyph-name="Omicrontonos" unicode="&#x38c;" horiz-adv-x="580" 
d="M127 575h-22l60 190h52zM258 -12q-89 0 -143 62t-54 166q0 76 21.5 157t59 149t95.5 112t123 44q89 0 143.5 -62.5t54.5 -165.5q0 -104 -36 -208.5t-107 -179t-157 -74.5zM261 18q71 0 132.5 66.5t95.5 165.5t34 201q0 93 -46 145t-121 52q-71 0 -132 -66.5t-94.5 -166
t-33.5 -201.5q0 -93 45.5 -144.5t119.5 -51.5z" />
    <glyph glyph-name="Upsilontonos" unicode="&#x38e;" horiz-adv-x="503" 
d="M84 575h-22l60 190h52zM232 0h-32l64 289l-122 378h35l108 -342l259 342h41l-289 -378z" />
    <glyph glyph-name="Omegatonos" unicode="&#x38f;" horiz-adv-x="570" 
d="M127 575h-22l60 190h52zM20 30h119q-79 71 -79 200q0 68 21 145t58 145.5t94 113t122 44.5q92 0 144 -58t52 -173q0 -142 -59 -253t-140 -164h103l-6 -30h-158l6 30q88 37 154 164.5t66 255.5q0 95 -43 146t-119 51q-57 0 -107.5 -42.5t-83.5 -107t-52 -137t-19 -136.5
q0 -132 85 -194l-6 -30h-158z" />
    <glyph glyph-name="iotadieresistonos" unicode="&#x390;" horiz-adv-x="192" 
d="M175 575h-22l60 190h52zM314 601q0 -13 -9 -22t-22 -9q-11 0 -18 7t-7 18q0 13 9 22t22 9q11 0 18 -7t7 -18zM96 601q0 -13 -9 -22t-22 -9q-11 0 -18 7t-7 18q0 13 9 22t22 9q11 0 18 -7t7 -18zM92 -12q-72 0 -52 93l88 402h30l-88 -402q-14 -66 28 -66q6 0 18 2l-3 -27
q-10 -2 -21 -2z" />
    <glyph glyph-name="Alpha" unicode="&#x391;" horiz-adv-x="474" 
d="M404 0h-34l-14 179h-265l-92 -179h-37l349 667h38zM355 209l-32 416l-216 -416h248z" />
    <glyph glyph-name="Beta" unicode="&#x392;" horiz-adv-x="480" 
d="M212 0h-186l147 667h157q59 0 98 -37.5t39 -99.5q0 -71 -38.5 -126t-97.5 -66q35 -9 56 -46t21 -79q0 -86 -52 -149.5t-144 -63.5zM137 358h153q70 0 106 54t36 118q0 49 -30 78t-78 29h-125zM218 30q70 0 112.5 55t42.5 128q0 54 -29.5 84.5t-83.5 30.5h-130l-66 -298
h154z" />
    <glyph glyph-name="Gamma" unicode="&#x393;" horiz-adv-x="432" 
d="M58 0h-32l147 667h309l-6 -30h-277z" />
    <glyph glyph-name="uni0394" unicode="&#x394;" horiz-adv-x="474" 
d="M404 0h-442l349 667h38zM368 30l-45 595l-309 -595h354z" />
    <glyph glyph-name="Epsilon" unicode="&#x395;" horiz-adv-x="444" 
d="M335 0h-309l147 667h309l-6 -30h-277l-62 -279h270l-7 -30h-270l-66 -298h277z" />
    <glyph glyph-name="Zeta" unicode="&#x396;" horiz-adv-x="444" 
d="M345 0h-355l6 31l444 606h-308l6 30h347l-6 -30l-444 -607h316z" />
    <glyph glyph-name="Eta" unicode="&#x397;" horiz-adv-x="545" 
d="M411 0h-32l72 328h-321l-72 -328h-32l147 667h32l-68 -309h321l68 309h32z" />
    <glyph glyph-name="Theta" unicode="&#x398;" horiz-adv-x="580" 
d="M454 328h-295l6 30h295zM258 -12q-89 0 -143 62t-54 166q0 76 21.5 157t59 149t95.5 112t123 44q89 0 143.5 -62.5t54.5 -165.5q0 -104 -36 -208.5t-107 -179t-157 -74.5zM261 18q71 0 132.5 66.5t95.5 165.5t34 201q0 93 -46 145t-121 52q-71 0 -132 -66.5t-94.5 -166
t-33.5 -201.5q0 -93 45.5 -144.5t119.5 -51.5z" />
    <glyph glyph-name="Iota" unicode="&#x399;" horiz-adv-x="192" 
d="M58 0h-32l147 667h32z" />
    <glyph glyph-name="Kappa" unicode="&#x39a;" horiz-adv-x="472" 
d="M393 0h-37l-161 326l-85 -90l-52 -236h-32l147 667h32l-83 -376l353 376h44l-302 -319z" />
    <glyph glyph-name="Lambda" unicode="&#x39b;" horiz-adv-x="474" 
d="M404 0h-34l-47 625l-324 -625h-37l349 667h38z" />
    <glyph glyph-name="Mu" unicode="&#x39c;" horiz-adv-x="639" 
d="M505 0h-32l137 619l-337 -619h-14l-64 619l-137 -619h-32l147 667h50l61 -577l316 577h52z" />
    <glyph glyph-name="Nu" unicode="&#x39d;" horiz-adv-x="543" 
d="M409 0h-32l-186 599l-133 -599h-32l147 667h32l187 -592l132 592h32z" />
    <glyph glyph-name="Xi" unicode="&#x39e;" horiz-adv-x="478" 
d="M509 637h-367l6 30h367zM368 0h-367l6 30h367zM434 328h-353l6 30h353z" />
    <glyph glyph-name="Omicron" unicode="&#x39f;" horiz-adv-x="580" 
d="M258 -12q-89 0 -143 62t-54 166q0 76 21.5 157t59 149t95.5 112t123 44q89 0 143.5 -62.5t54.5 -165.5q0 -104 -36 -208.5t-107 -179t-157 -74.5zM261 18q71 0 132.5 66.5t95.5 165.5t34 201q0 93 -46 145t-121 52q-71 0 -132 -66.5t-94.5 -166t-33.5 -201.5
q0 -93 45.5 -144.5t119.5 -51.5z" />
    <glyph glyph-name="Pi" unicode="&#x3a0;" horiz-adv-x="545" 
d="M411 0h-32l140 637h-321l-140 -637h-32l147 667h385z" />
    <glyph glyph-name="Rho" unicode="&#x3a1;" horiz-adv-x="448" 
d="M58 0h-32l147 667h155q59 0 97.5 -42.5t38.5 -106.5q0 -90 -55 -159.5t-156 -69.5h-131zM128 319h131q81 0 125.5 59.5t44.5 139.5q0 53 -30.5 86t-76.5 33h-123z" />
    <glyph glyph-name="Sigma" unicode="&#x3a3;" horiz-adv-x="400" 
d="M165 637l123 -298l-253 -309h272l-6 -30h-310l6 31l257 313l-121 293l6 30h309l-6 -30h-277z" />
    <glyph glyph-name="Tau" unicode="&#x3a4;" horiz-adv-x="423" 
d="M173 0h-32l141 637h-167l6 30h367l-6 -30h-168z" />
    <glyph glyph-name="Upsilon" unicode="&#x3a5;" horiz-adv-x="466" 
d="M195 0h-32l64 289l-122 378h35l108 -342l259 342h41l-289 -378z" />
    <glyph glyph-name="Phi" unicode="&#x3a6;" horiz-adv-x="644" 
d="M284 0h-32l14 64q-96 6 -145.5 63.5t-49.5 145.5q0 122 87 223t231 105l15 66h32l-15 -66q96 -6 145.5 -63t49.5 -145q0 -57 -21.5 -113.5t-60.5 -104t-101 -78.5t-135 -33zM107 273q0 -75 43 -124.5t123 -54.5l109 477q-127 -6 -201 -96t-74 -202zM581 393q0 76 -43 125
t-124 53l-109 -477q84 4 148.5 50t96 112t31.5 137z" />
    <glyph glyph-name="Chi" unicode="&#x3a7;" horiz-adv-x="473" 
d="M403 0h-36l-114 311l-248 -311h-43l277 343l-118 324h36l106 -295l232 295h44l-262 -328z" />
    <glyph glyph-name="Psi" unicode="&#x3a8;" horiz-adv-x="627" 
d="M276 0h-32l28 124q-172 10 -172 167q0 39 10 77l68 299h32l-70 -306q-8 -36 -8 -70q0 -61 36.5 -97t110.5 -40l117 513h32l-117 -513q186 9 232 207l70 306h32l-72 -314q-25 -108 -95 -167.5t-174 -61.5z" />
    <glyph glyph-name="uni03A9" unicode="&#x3a9;" horiz-adv-x="570" 
d="M20 30h119q-79 71 -79 200q0 68 21 145t58 145.5t94 113t122 44.5q92 0 144 -58t52 -173q0 -142 -59 -253t-140 -164h103l-6 -30h-158l6 30q88 37 154 164.5t66 255.5q0 95 -43 146t-119 51q-57 0 -107.5 -42.5t-83.5 -107t-52 -137t-19 -136.5q0 -132 85 -194l-6 -30
h-158z" />
    <glyph glyph-name="Iotadieresis" unicode="&#x3aa;" horiz-adv-x="192" 
d="M58 0h-32l147 667h32zM324 785q0 -13 -9 -22t-22 -9q-11 0 -18 7t-7 18q0 13 9 22t22 9q11 0 18 -7t7 -18zM162 785q0 -13 -9 -22t-22 -9q-11 0 -18 7t-7 18q0 13 9 22t22 9q11 0 18 -7t7 -18z" />
    <glyph glyph-name="Upsilondieresis" unicode="&#x3ab;" horiz-adv-x="466" 
d="M195 0h-32l64 289l-122 378h35l108 -342l259 342h41l-289 -378zM461 785q0 -13 -9 -22t-22 -9q-10 0 -17.5 7t-7.5 18q0 13 9 22t22 9q10 0 17.5 -7t7.5 -18zM299 785q0 -13 -9 -22t-22 -9q-10 0 -17.5 7t-7.5 18q0 13 9 22t22 9q10 0 17.5 -7t7.5 -18z" />
    <glyph glyph-name="alphatonos" unicode="&#x3ac;" horiz-adv-x="469" 
d="M306 575h-22l60 190h52zM393 17l-3 -27q-10 -2 -21 -2q-71 0 -53 88q-55 -88 -137 -88q-63 0 -100.5 44.5t-37.5 121.5q0 73 25 150t76.5 134t115.5 57q44 0 78.5 -24.5t52.5 -68.5l17 81h30l-89 -402q-14 -66 28 -66q8 0 18 2zM184 15q40 0 79 30t63 72l55 251
q-11 42 -45 71t-79 29q-53 0 -97 -54t-65 -125t-21 -134q0 -68 29 -104t81 -36z" />
    <glyph glyph-name="epsilontonos" unicode="&#x3ad;" horiz-adv-x="425" 
d="M308 575h-22l60 190h52zM180 -12q-78 0 -117 33t-39 85q0 59 47 97.5t100 45.5q-35 7 -60 32.5t-25 65.5q0 66 57 107t131 41q109 0 150 -78l-25 -14q-33 65 -125 65q-63 0 -109 -34t-46 -88q0 -41 32.5 -64t81.5 -23h90l-6 -27h-90q-69 0 -119 -30t-50 -96
q0 -42 32 -66.5t90 -24.5q83 0 154 74l19 -20q-78 -81 -173 -81z" />
    <glyph glyph-name="etatonos" unicode="&#x3ae;" horiz-adv-x="435" 
d="M301 575h-22l60 190h52zM265 -184h-30l122 550q5 25 5 34q0 68 -80 68q-38 0 -77.5 -27.5t-70.5 -67.5l-82 -373h-30l107 483h30l-16 -72q71 84 145 84q48 0 76 -23t28 -68q0 -18 -6 -38z" />
    <glyph glyph-name="iotatonos" unicode="&#x3af;" horiz-adv-x="192" 
d="M173 575h-22l60 190h52zM92 -12q-72 0 -52 93l88 402h30l-88 -402q-14 -66 28 -66q6 0 18 2l-3 -27q-10 -2 -21 -2z" />
    <glyph glyph-name="upsilondieresistonos" unicode="&#x3b0;" horiz-adv-x="448" 
d="M316 575h-22l60 190h52zM455 601q0 -13 -9 -22t-22 -9q-10 0 -17.5 7t-7.5 18q0 13 9 22t22 9q10 0 17.5 -7t7.5 -18zM237 601q0 -13 -9 -22t-22 -9q-10 0 -17.5 7t-7.5 18q0 13 9 22t22 9q10 0 17.5 -7t7.5 -18zM172 -12q-75 0 -102.5 50.5t-8.5 137.5l69 307h30
l-69 -307q-36 -161 81 -161q85 0 144 91.5t59 218.5q0 91 -32 155l29 13q34 -70 34 -168q0 -85 -29 -161.5t-83.5 -126t-121.5 -49.5z" />
    <glyph glyph-name="alpha" unicode="&#x3b1;" horiz-adv-x="469" 
d="M393 17l-3 -27q-10 -2 -21 -2q-71 0 -53 88q-55 -88 -137 -88q-63 0 -100.5 44.5t-37.5 121.5q0 73 25 150t76.5 134t115.5 57q44 0 78.5 -24.5t52.5 -68.5l17 81h30l-89 -402q-14 -66 28 -66q8 0 18 2zM184 15q40 0 79 30t63 72l55 251q-11 42 -45 71t-79 29
q-53 0 -97 -54t-65 -125t-21 -134q0 -68 29 -104t81 -36z" />
    <glyph glyph-name="beta" unicode="&#x3b2;" 
d="M192 -12q-47 0 -79 23.5t-45 62.5l-57 -258h-31l145 648q25 113 79.5 163t123.5 50q61 0 95.5 -33t34.5 -97q0 -76 -46 -131t-105 -71q34 -5 61.5 -40t27.5 -90q0 -95 -59.5 -161t-144.5 -66zM155 461l-78 -349q8 -41 39 -69t76 -28q75 0 123 60.5t48 139.5
q0 57 -32.5 86.5t-83.5 29.5h-25l6 27h25q70 0 120.5 51t50.5 138q0 49 -25.5 76t-70.5 27q-56 0 -103.5 -45.5t-69.5 -143.5z" />
    <glyph glyph-name="gamma" unicode="&#x3b3;" horiz-adv-x="375" 
d="M108 -184h-30l36 164q31 152 15 279t-71 224h37q45 -87 62 -198.5t-1 -232.5q72 89 130 205t83 226h30q-27 -117 -92.5 -243t-156.5 -236z" />
    <glyph glyph-name="delta" unicode="&#x3b4;" horiz-adv-x="461" 
d="M196 -12q-73 0 -115 48t-42 121q0 90 51.5 161t141.5 118q-66 50 -66 109q0 56 46.5 95t111.5 39q90 0 122 -62l-24 -15q-26 50 -98 50q-55 0 -91 -31.5t-36 -75.5q0 -25 15.5 -47.5t39 -38t50.5 -37t50.5 -44t39 -59t15.5 -82.5q0 -54 -23.5 -110t-73.5 -97.5
t-114 -41.5zM376 237q0 34 -9.5 62t-30 50.5t-35.5 35t-44 32.5q-80 -32 -132.5 -101.5t-52.5 -158.5q0 -61 33.5 -101.5t90.5 -40.5q77 0 128.5 72t51.5 150z" />
    <glyph glyph-name="epsilon" unicode="&#x3b5;" horiz-adv-x="425" 
d="M180 -12q-78 0 -117 33t-39 85q0 59 47 97.5t100 45.5q-35 7 -60 32.5t-25 65.5q0 66 57 107t131 41q109 0 150 -78l-25 -14q-33 65 -125 65q-63 0 -109 -34t-46 -88q0 -41 32.5 -64t81.5 -23h90l-6 -27h-90q-69 0 -119 -30t-50 -96q0 -42 32 -66.5t90 -24.5q83 0 154 74
l19 -20q-78 -81 -173 -81z" />
    <glyph glyph-name="zeta" unicode="&#x3b6;" horiz-adv-x="394" 
d="M254 -43q0 31 -51 31q-79 0 -122.5 45.5t-43.5 116.5q0 110 89.5 235.5t277.5 254.5h-249l6 27h286l-7 -27q-369 -245 -369 -488q0 -59 36.5 -98t102.5 -39q78 0 78 -52q0 -42 -65 -120h-41q72 77 72 114z" />
    <glyph glyph-name="eta" unicode="&#x3b7;" horiz-adv-x="435" 
d="M265 -184h-30l122 550q5 25 5 34q0 68 -80 68q-38 0 -77.5 -27.5t-70.5 -67.5l-82 -373h-30l107 483h30l-16 -72q71 84 145 84q48 0 76 -23t28 -68q0 -18 -6 -38z" />
    <glyph glyph-name="theta" unicode="&#x3b8;" horiz-adv-x="461" 
d="M196 -12q-72 0 -109 53t-37 153q0 74 18 157t50 157t82.5 122.5t108.5 48.5q71 0 107.5 -53.5t36.5 -153.5q0 -74 -17.5 -157t-49 -156.5t-82 -122t-108.5 -48.5zM198 15q69 0 123 90t82 217h-306q-14 -75 -14 -133q0 -174 115 -174zM307 652q-69 0 -123 -89t-82 -214
h306q13 73 13 128q0 175 -114 175z" />
    <glyph glyph-name="iota" unicode="&#x3b9;" horiz-adv-x="192" 
d="M92 -12q-72 0 -52 93l88 402h30l-88 -402q-14 -66 28 -66q6 0 18 2l-3 -27q-10 -2 -21 -2z" />
    <glyph glyph-name="kappa" unicode="&#x3ba;" horiz-adv-x="411" 
d="M332 0h-33l-109 245l-107 -103l-31 -142h-30l107 483h30l-66 -296l310 296h40l-231 -218z" />
    <glyph glyph-name="lambda" unicode="&#x3bb;" horiz-adv-x="375" 
d="M138 645v27q19 7 41 7q61 0 70 -77l59 -602h-33l-40 446l-240 -446h-36l270 494l-10 98q-4 34 -14.5 47t-31.5 13t-35 -7z" />
    <glyph glyph-name="uni03BC" unicode="&#x3bc;" horiz-adv-x="446" 
d="M60 35l-49 -219h-31l150 667h30l-82 -366q-11 -51 9 -77.5t60 -26.5q38 0 80.5 27t71.5 65l84 378h30l-89 -402q-14 -66 28 -66q6 0 18 2l-3 -27q-10 -2 -21 -2q-69 0 -54 84q-75 -84 -151 -84q-60 0 -81 47z" />
    <glyph glyph-name="nu" unicode="&#x3bd;" horiz-adv-x="375" 
d="M147 0h-31l-48 483h34l41 -449q81 101 141 219.5t85 229.5h30q-27 -118 -93.5 -245t-158.5 -238z" />
    <glyph glyph-name="xi" unicode="&#x3be;" horiz-adv-x="394" 
d="M210 -12q-87 0 -132 41.5t-45 108.5q0 86 49 140.5t116 67.5q-34 10 -59 41.5t-25 77.5q0 55 36.5 101.5t93.5 73.5h-89l6 27h274l-7 -27h-143q-58 -22 -98 -71.5t-40 -104.5q0 -50 31.5 -77.5t80.5 -27.5h100l-7 -27h-96q-80 0 -134.5 -51t-54.5 -142q0 -53 37 -88.5
t106 -35.5q78 0 78 -52q0 -42 -65 -120h-36q67 78 67 114q0 31 -44 31z" />
    <glyph glyph-name="omicron" unicode="&#x3bf;" horiz-adv-x="461" 
d="M193 -12q-70 0 -111 45t-41 130q0 75 26.5 150t80 128.5t119.5 53.5q70 0 111 -45t41 -130q0 -75 -26.5 -150t-80 -128.5t-119.5 -53.5zM194 15q54 0 100 51t69 120.5t23 133.5q0 72 -31.5 110t-88.5 38q-54 0 -100 -51t-69 -120.5t-23 -133.5q0 -72 31.5 -110t88.5 -38z
" />
    <glyph glyph-name="pi" unicode="&#x3c0;" horiz-adv-x="454" 
d="M315 0h-30l102 456h-224l-102 -456h-30l102 456h-66l6 27h416l-6 -27h-66z" />
    <glyph glyph-name="rho" unicode="&#x3c1;" horiz-adv-x="457" 
d="M200 -12q-44 0 -78.5 25t-52.5 69l-58 -266h-31l95 426q25 111 80.5 182t131.5 71q65 0 97.5 -46.5t32.5 -118.5q0 -74 -25 -151t-76.5 -134t-115.5 -57zM201 15q53 0 97 54.5t65 125t21 134.5t-24.5 101.5t-72.5 37.5q-64 0 -112 -63t-70 -163l-28 -127
q10 -41 44.5 -70.5t79.5 -29.5z" />
    <glyph glyph-name="sigma1" unicode="&#x3c2;" horiz-adv-x="380" 
d="M199 -12q-72 0 -114.5 46.5t-42.5 136.5q0 73 27 146t81 125.5t121 52.5q85 0 124 -67l-24 -19q-32 59 -100 59q-60 0 -106.5 -51.5t-68 -118.5t-21.5 -132q0 -74 35.5 -112.5t94.5 -38.5q41 0 59.5 -11.5t18.5 -39.5q0 -45 -64 -121h-37q72 78 72 114q0 31 -55 31z" />
    <glyph glyph-name="sigma" unicode="&#x3c3;" horiz-adv-x="461" 
d="M418 314q0 -72 -26.5 -146t-79.5 -127t-119 -53q-69 0 -110 45t-41 130q0 74 28.5 145.5t90 123t140.5 51.5h192l-6 -27h-116q47 -56 47 -142zM385 313q0 98 -53 143h-36q-52 0 -95.5 -29t-70 -74t-41 -94.5t-14.5 -95.5q0 -72 31.5 -110t87.5 -38q54 0 99.5 51
t68.5 118.5t23 128.5z" />
    <glyph glyph-name="tau" unicode="&#x3c4;" horiz-adv-x="347" 
d="M185 -12q-38 0 -55 23t-7 70l83 375h-135l6 27h301l-6 -27h-136l-83 -375q-14 -66 34 -66q27 0 48 21l15 -21q-32 -27 -65 -27z" />
    <glyph glyph-name="upsilon" unicode="&#x3c5;" horiz-adv-x="448" 
d="M172 -12q-75 0 -102.5 50.5t-8.5 137.5l69 307h30l-69 -307q-36 -161 81 -161q85 0 144 91.5t59 218.5q0 91 -32 155l29 13q34 -70 34 -168q0 -85 -29 -161.5t-83.5 -126t-121.5 -49.5z" />
    <glyph glyph-name="phi" unicode="&#x3c6;" horiz-adv-x="582" 
d="M539 300q0 -52 -17.5 -105t-50.5 -100t-90 -77t-128 -30h-4l-38 -172h-30l39 174q-175 15 -175 197q0 100 55 183.5t154 124.5l10 -25q-90 -40 -138 -115.5t-48 -167.5q0 -71 35 -117.5t113 -53.5l107 479h15q97 0 144 -53t47 -142zM357 468l-102 -453q56 0 101 21.5
t72 54t45 72.5t25 74t7 63q0 160 -148 168z" />
    <glyph glyph-name="chi" unicode="&#x3c7;" horiz-adv-x="379" 
d="M263 -184h-30l-67 310l-206 -310h-34l228 341l-70 326h30l62 -295l193 295h35l-216 -326z" />
    <glyph glyph-name="psi" unicode="&#x3c8;" horiz-adv-x="582" 
d="M211 -184h-30l39 173q-160 12 -160 146q0 36 11 88l59 260h30l-60 -266q-11 -55 -11 -82q0 -111 137 -119l146 651h30l-147 -652q171 2 215 195l61 273h30l-63 -281q-48 -214 -246 -214h-3z" />
    <glyph glyph-name="omega" unicode="&#x3c9;" horiz-adv-x="647" 
d="M605 322q0 -74 -23 -150t-69 -130t-101 -54q-113 0 -113 133q-23 -57 -60.5 -95t-82.5 -38q-60 0 -88 44.5t-28 118.5q0 99 47 200t127 144l13 -24q-71 -40 -112.5 -131.5t-41.5 -188.5q0 -136 83 -136q53 0 92 65t61 162l27 124h30l-27 -124q-12 -59 -13 -109.5
t20.5 -84t64.5 -33.5q46 0 85 51.5t59 121.5t20 134q0 107 -48 152l20 21q58 -49 58 -173z" />
    <glyph glyph-name="iotadieresis" unicode="&#x3ca;" horiz-adv-x="192" 
d="M277 601q0 -13 -9 -22t-22 -9q-10 0 -17.5 7t-7.5 18q0 13 9 22t22 9q10 0 17.5 -7t7.5 -18zM115 601q0 -13 -9 -22t-22 -9q-10 0 -17.5 7t-7.5 18q0 13 9 22t22 9q10 0 17.5 -7t7.5 -18zM92 -12q-72 0 -52 93l88 402h30l-88 -402q-14 -66 28 -66q6 0 18 2l-3 -27
q-10 -2 -21 -2z" />
    <glyph glyph-name="upsilondieresis" unicode="&#x3cb;" horiz-adv-x="448" 
d="M421 601q0 -13 -9 -22t-22 -9q-10 0 -17.5 7t-7.5 18q0 13 9 22t22 9q10 0 17.5 -7t7.5 -18zM259 601q0 -13 -9 -22t-22 -9q-10 0 -17.5 7t-7.5 18q0 13 9 22t22 9q10 0 17.5 -7t7.5 -18zM172 -12q-75 0 -102.5 50.5t-8.5 137.5l69 307h30l-69 -307q-36 -161 81 -161
q85 0 144 91.5t59 218.5q0 91 -32 155l29 13q34 -70 34 -168q0 -85 -29 -161.5t-83.5 -126t-121.5 -49.5z" />
    <glyph glyph-name="omicrontonos" unicode="&#x3cc;" horiz-adv-x="461" 
d="M314 575h-22l60 190h52zM193 -12q-70 0 -111 45t-41 130q0 75 26.5 150t80 128.5t119.5 53.5q70 0 111 -45t41 -130q0 -75 -26.5 -150t-80 -128.5t-119.5 -53.5zM194 15q54 0 100 51t69 120.5t23 133.5q0 72 -31.5 110t-88.5 38q-54 0 -100 -51t-69 -120.5t-23 -133.5
q0 -72 31.5 -110t88.5 -38z" />
    <glyph glyph-name="upsilontonos" unicode="&#x3cd;" horiz-adv-x="448" 
d="M317 575h-22l60 190h52zM172 -12q-75 0 -102.5 50.5t-8.5 137.5l69 307h30l-69 -307q-36 -161 81 -161q85 0 144 91.5t59 218.5q0 91 -32 155l29 13q34 -70 34 -168q0 -85 -29 -161.5t-83.5 -126t-121.5 -49.5z" />
    <glyph glyph-name="omegatonos" unicode="&#x3ce;" horiz-adv-x="647" 
d="M407 575h-22l60 190h52zM605 322q0 -74 -23 -150t-69 -130t-101 -54q-113 0 -113 133q-23 -57 -60.5 -95t-82.5 -38q-60 0 -88 44.5t-28 118.5q0 99 47 200t127 144l13 -24q-71 -40 -112.5 -131.5t-41.5 -188.5q0 -136 83 -136q53 0 92 65t61 162l27 124h30l-27 -124
q-12 -59 -13 -109.5t20.5 -84t64.5 -33.5q46 0 85 51.5t59 121.5t20 134q0 107 -48 152l20 21q58 -49 58 -173z" />
    <glyph glyph-name="afii10023" unicode="&#x401;" horiz-adv-x="444" 
d="M458 768q0 -13 -9 -22t-22 -9q-11 0 -18 7.5t-7 17.5q0 13 9 22t22 9q11 0 18 -7.5t7 -17.5zM296 768q0 -13 -9 -22t-22 -9q-11 0 -18 7.5t-7 17.5q0 13 9 22t22 9q11 0 18 -7.5t7 -17.5zM335 0h-309l147 667h309l-6 -30h-277l-62 -279h270l-7 -30h-270l-66 -298h277z
" />
    <glyph glyph-name="afii10051" unicode="&#x402;" horiz-adv-x="597" 
d="M314 -12l6 30q123 0 159 164l12 53q19 86 -8 133t-100 47q-62 0 -122 -15l-88 -400h-32l140 637h-167l6 30h367l-6 -30h-168l-46 -207q66 15 122 15q89 0 122 -57t12 -153l-12 -53q-22 -100 -74.5 -147t-122.5 -47z" />
    <glyph glyph-name="afii10052" unicode="&#x403;" horiz-adv-x="432" 
d="M501 867l-167 -144h-29l151 144h45zM58 0h-32l147 667h309l-6 -30h-277z" />
    <glyph glyph-name="afii10053" unicode="&#x404;" horiz-adv-x="512" 
d="M258 -12q-89 0 -143 60t-54 168t38 213.5t108 177t153 71.5q129 0 177 -126l-30 -12q-42 108 -151 108q-79 0 -145.5 -84.5t-96.5 -205.5h293l-7 -30h-293q-11 -60 -11 -114q0 -94 43.5 -145t121.5 -51q76 0 150 82l23 -19q-79 -93 -176 -93z" />
    <glyph glyph-name="afii10054" unicode="&#x405;" horiz-adv-x="447" 
d="M188 -12q-57 0 -106.5 25.5t-71.5 63.5l28 22q24 -37 63.5 -59t87.5 -22q72 0 115.5 48t43.5 119q0 40 -24 72.5t-58.5 57t-68.5 49.5t-58 60.5t-24 78.5q0 73 54.5 124t127.5 51q52 0 94.5 -20t63.5 -55l-26 -22q-43 67 -132 67q-62 0 -105 -43.5t-43 -101.5
q0 -35 24 -65.5t58.5 -55.5t68.5 -51t58 -63.5t24 -82.5q0 -81 -53.5 -139t-140.5 -58z" />
    <glyph glyph-name="afii10055" unicode="&#x406;" horiz-adv-x="192" 
d="M58 0h-32l147 667h32z" />
    <glyph glyph-name="afii10056" unicode="&#x407;" horiz-adv-x="192" 
d="M321 768q0 -13 -9 -22t-22 -9q-10 0 -17.5 7.5t-7.5 17.5q0 13 9 22t22 9q10 0 17.5 -7.5t7.5 -17.5zM159 768q0 -13 -9 -22t-22 -9q-10 0 -17.5 7.5t-7.5 17.5q0 13 9 22t22 9q10 0 17.5 -7.5t7.5 -17.5zM58 0h-32l147 667h32z" />
    <glyph glyph-name="afii10057" unicode="&#x408;" horiz-adv-x="382" 
d="M110 -12q-97 0 -136 75l27 20q33 -65 109 -65q109 0 139 135l114 514h32l-114 -514q-37 -165 -171 -165z" />
    <glyph glyph-name="afii10058" unicode="&#x409;" horiz-adv-x="801" 
d="M-29 -12l6 30q60 0 107 61.5t104 240.5l109 347h260l-63 -289h134q78 0 109 -54t14 -135t-72.5 -135t-133.5 -54h-166l140 637h-199l-102 -321q-34 -105 -64.5 -172t-61.5 -100.5t-58 -44.5t-63 -11zM620 348h-133l-70 -318h133q62 0 106.5 44t59.5 115t-9.5 115
t-86.5 44z" />
    <glyph glyph-name="afii10059" unicode="&#x40a;" horiz-adv-x="801" 
d="M550 0h-171l72 328h-321l-72 -328h-32l146 667h32l-68 -309h321l68 309h32l-68 -309h139q76 0 107 -51t14 -128t-70 -128t-129 -51zM621 328h-138l-66 -298h138q59 0 101.5 41.5t57.5 107.5t-9.5 107.5t-83.5 41.5z" />
    <glyph glyph-name="afii10060" unicode="&#x40b;" horiz-adv-x="597" 
d="M440 0l53 246q18 78 -10 123.5t-100 45.5q-62 0 -122 -15l-88 -400h-32l140 637h-167l6 30h367l-6 -30h-168l-46 -207q66 15 122 15q89 0 122.5 -55.5t13.5 -143.5l-53 -246h-32z" />
    <glyph glyph-name="afii10061" unicode="&#x40c;" horiz-adv-x="472" 
d="M502 867l-167 -144h-29l151 144h45zM393 0h-37l-161 326l-85 -90l-52 -236h-32l147 667h32l-83 -376l353 376h44l-302 -319z" />
    <glyph glyph-name="afii10062" unicode="&#x40e;" horiz-adv-x="466" 
d="M43 -12q-57 0 -82 40l25 25q22 -35 63 -35q29 0 49.5 17.5t51.5 62.5l47 76l-93 493h32l88 -449l285 449h38l-367 -580q-33 -51 -64.5 -75t-72.5 -24zM491 792q-70 -73 -161 -73t-130 73l23 18q14 -29 44 -46.5t67 -17.5q80 0 137 64z" />
    <glyph glyph-name="afii10145" unicode="&#x40f;" horiz-adv-x="545" 
d="M174 -128l28 128h-176l146 667h32l-140 -637h321l140 637h32l-146 -667h-177l-28 -128h-32z" />
    <glyph glyph-name="afii10017" unicode="&#x410;" horiz-adv-x="474" 
d="M404 0h-34l-14 179h-265l-92 -179h-37l349 667h38zM355 209l-32 416l-216 -416h248z" />
    <glyph glyph-name="afii10018" unicode="&#x411;" horiz-adv-x="448" 
d="M172 667h299l-6 -30h-267l-57 -259h123q59 0 97.5 -42.5t38.5 -106.5q0 -90 -54.5 -159.5t-155.5 -69.5h-164zM258 348h-124l-70 -318h131q81 0 125.5 59.5t44.5 139.5q0 53 -30.5 86t-76.5 33z" />
    <glyph glyph-name="afii10019" unicode="&#x412;" horiz-adv-x="480" 
d="M212 0h-186l147 667h157q59 0 98 -37.5t39 -99.5q0 -71 -38.5 -126t-97.5 -66q35 -9 56 -46t21 -79q0 -86 -52 -149.5t-144 -63.5zM137 358h153q70 0 106 54t36 118q0 49 -30 78t-78 29h-125zM218 30q70 0 112.5 55t42.5 128q0 54 -29.5 84.5t-83.5 30.5h-130l-66 -298
h154z" />
    <glyph glyph-name="afii10020" unicode="&#x413;" horiz-adv-x="432" 
d="M58 0h-32l147 667h309l-6 -30h-277z" />
    <glyph glyph-name="afii10021" unicode="&#x414;" horiz-adv-x="567" 
d="M-53 -123l32 152q31 2 53 12.5t48 39.5t52 87.5t56 151.5l109 347h260l-140 -637h62l-33 -153h-32l26 123h-434l-28 -123h-31zM320 637l-102 -321q-77 -237 -157 -286h324l134 607h-199z" />
    <glyph glyph-name="afii10022" unicode="&#x415;" horiz-adv-x="444" 
d="M335 0h-309l147 667h309l-6 -30h-277l-62 -279h270l-7 -30h-270l-66 -298h277z" />
    <glyph glyph-name="afii10024" unicode="&#x416;" horiz-adv-x="691" 
d="M8 0h-43l330 348l-162 319h38l173 -356l78 356h32l-76 -347l322 347h42l-302 -319l178 -348h-38l-161 326l-53 -58l-58 -268h-32l58 266l-25 55z" />
    <glyph glyph-name="afii10025" unicode="&#x417;" horiz-adv-x="455" 
d="M184 -12q-67 0 -116 36.5t-63 99.5l32 12q13 -56 52 -87t95 -31q74 0 119.5 59t45.5 139q0 54 -36.5 84t-95.5 30h-87l8 30h114q65 0 113 51.5t48 124.5q0 51 -34 81t-93 30q-85 0 -145 -79l-24 19q29 40 74.5 65t96.5 25q72 0 115.5 -37t43.5 -104q0 -73 -48.5 -129.5
t-113.5 -66.5q43 -10 70 -46.5t27 -83.5q0 -87 -55 -154.5t-143 -67.5z" />
    <glyph glyph-name="afii10026" unicode="&#x418;" horiz-adv-x="543" 
d="M58 0h-32l147 667h33l-131 -592l449 592h32l-147 -667h-33l132 599z" />
    <glyph glyph-name="afii10027" unicode="&#x419;" horiz-adv-x="543" 
d="M58 0h-32l147 667h33l-131 -592l449 592h32l-147 -667h-33l132 599zM532 792q-70 -73 -161 -73t-130 73l23 18q14 -29 44 -46.5t67 -17.5q80 0 137 64z" />
    <glyph glyph-name="afii10028" unicode="&#x41a;" horiz-adv-x="472" 
d="M393 0h-37l-161 326l-85 -90l-52 -236h-32l147 667h32l-83 -376l353 376h44l-302 -319z" />
    <glyph glyph-name="afii10029" unicode="&#x41b;" horiz-adv-x="545" 
d="M-30 -12l6 30q40 0 70.5 22t66.5 89.5t75 190.5l109 347h260l-146 -667h-32l140 637h-199l-102 -321q-34 -105 -64.5 -172t-61.5 -100.5t-58 -44.5t-64 -11z" />
    <glyph glyph-name="afii10030" unicode="&#x41c;" horiz-adv-x="639" 
d="M505 0h-32l137 619l-337 -619h-14l-64 619l-137 -619h-32l147 667h50l61 -577l316 577h52z" />
    <glyph glyph-name="afii10031" unicode="&#x41d;" horiz-adv-x="545" 
d="M411 0h-32l72 328h-321l-72 -328h-32l147 667h32l-68 -309h321l68 309h32z" />
    <glyph glyph-name="afii10032" unicode="&#x41e;" horiz-adv-x="580" 
d="M258 -12q-89 0 -143 62t-54 166q0 76 21.5 157t59 149t95.5 112t123 44q89 0 143.5 -62.5t54.5 -165.5q0 -104 -36 -208.5t-107 -179t-157 -74.5zM261 18q71 0 132.5 66.5t95.5 165.5t34 201q0 93 -46 145t-121 52q-71 0 -132 -66.5t-94.5 -166t-33.5 -201.5
q0 -93 45.5 -144.5t119.5 -51.5z" />
    <glyph glyph-name="afii10033" unicode="&#x41f;" horiz-adv-x="545" 
d="M411 0h-32l140 637h-321l-140 -637h-32l147 667h385z" />
    <glyph glyph-name="afii10034" unicode="&#x420;" horiz-adv-x="448" 
d="M58 0h-32l147 667h155q59 0 97.5 -42.5t38.5 -106.5q0 -90 -55 -159.5t-156 -69.5h-131zM128 319h131q81 0 125.5 59.5t44.5 139.5q0 53 -30.5 86t-76.5 33h-123z" />
    <glyph glyph-name="afii10035" unicode="&#x421;" horiz-adv-x="512" 
d="M258 -12q-89 0 -143 60t-54 168t38 213.5t108 177t153 71.5q129 0 177 -126l-30 -12q-42 108 -151 108q-69 0 -130 -67t-95.5 -167t-34.5 -200q0 -94 43.5 -145t121.5 -51q76 0 150 82l23 -19q-79 -93 -176 -93z" />
    <glyph glyph-name="afii10036" unicode="&#x422;" horiz-adv-x="423" 
d="M173 0h-32l141 637h-167l6 30h367l-6 -30h-168z" />
    <glyph glyph-name="afii10037" unicode="&#x423;" horiz-adv-x="466" 
d="M43 -12q-57 0 -82 40l25 25q22 -35 63 -35q29 0 49.5 17.5t51.5 62.5l47 76l-93 493h32l88 -449l285 449h38l-367 -580q-33 -51 -64.5 -75t-72.5 -24z" />
    <glyph glyph-name="afii10038" unicode="&#x424;" horiz-adv-x="644" 
d="M284 0h-32l14 64q-96 6 -145.5 63.5t-49.5 145.5q0 122 87 223t231 105l15 66h32l-15 -66q96 -6 145.5 -63t49.5 -145q0 -57 -21.5 -113.5t-60.5 -104t-101 -78.5t-135 -33zM107 273q0 -75 43 -124.5t123 -54.5l109 477q-127 -6 -201 -96t-74 -202zM581 393q0 76 -43 125
t-124 53l-109 -477q84 4 148.5 50t96 112t31.5 137z" />
    <glyph glyph-name="afii10039" unicode="&#x425;" horiz-adv-x="473" 
d="M403 0h-36l-114 311l-248 -311h-43l277 343l-118 324h36l106 -295l232 295h44l-262 -328z" />
    <glyph glyph-name="afii10040" unicode="&#x426;" horiz-adv-x="567" 
d="M414 -123l26 123h-414l146 667h32l-140 -637h321l140 637h32l-140 -637h62l-33 -153h-32z" />
    <glyph glyph-name="afii10041" unicode="&#x427;" horiz-adv-x="471" 
d="M185 667l-39 -179q-18 -78 10.5 -123.5t99.5 -45.5q62 0 122 15l73 333h32l-146 -667h-32l66 304q-66 -15 -122 -15q-88 0 -121.5 55.5t-13.5 144.5l39 178h32z" />
    <glyph glyph-name="afii10042" unicode="&#x428;" horiz-adv-x="776" 
d="M756 667h32l-146 -667h-614l146 667h32l-140 -637h259l140 637h32l-140 -637h259z" />
    <glyph glyph-name="afii10043" unicode="&#x429;" horiz-adv-x="797" 
d="M756 667h32l-140 -637h61l-33 -153h-32l27 123h-643l146 667h32l-140 -637h259l140 637h32l-140 -637h259z" />
    <glyph glyph-name="afii10044" unicode="&#x42a;" horiz-adv-x="563" 
d="M305 0h-164l140 637h-167l6 30h199l-63 -289h123q59 0 97.5 -42.5t38.5 -106.5q0 -90 -54.5 -159.5t-155.5 -69.5zM372 348h-123l-70 -318h131q81 0 125.5 59.5t44.5 139.5q0 53 -30.5 86t-77.5 33z" />
    <glyph glyph-name="afii10045" unicode="&#x42b;" horiz-adv-x="607" 
d="M473 0h-32l146 667h32zM172 667h32l-63 -289h123q59 0 97.5 -42.5t38.5 -106.5q0 -90 -54.5 -159.5t-155.5 -69.5h-164zM257 348h-123l-70 -318h131q81 0 125.5 59.5t44.5 139.5q0 53 -30.5 86t-77.5 33z" />
    <glyph glyph-name="afii10046" unicode="&#x42c;" horiz-adv-x="448" 
d="M172 667h32l-63 -289h123q59 0 97.5 -42.5t38.5 -106.5q0 -90 -54.5 -159.5t-155.5 -69.5h-164zM257 348h-123l-70 -318h131q81 0 125.5 59.5t44.5 139.5q0 53 -30.5 86t-77.5 33z" />
    <glyph glyph-name="afii10047" unicode="&#x42d;" horiz-adv-x="512" 
d="M293 678q89 0 143 -60t54 -168t-38 -213.5t-108 -177t-153 -71.5q-129 0 -177 126l30 12q42 -108 151 -108q82 0 150 91t96 219h-287l6 30h287q8 50 8 94q0 94 -43.5 145t-121.5 51q-76 0 -150 -82l-23 19q79 93 176 93z" />
    <glyph glyph-name="afii10048" unicode="&#x42e;" horiz-adv-x="749" 
d="M427 -12q-89 0 -143 62t-54 166q0 52 11 112h-111l-72 -328h-32l146 667h32l-68 -309h111q32 133 107 226.5t175 93.5q89 0 143.5 -62.5t54.5 -165.5q0 -104 -36 -208.5t-107 -179t-157 -74.5zM430 18q71 0 132.5 66.5t95.5 165.5t34 201q0 93 -46 145t-121 52
q-71 0 -132 -66.5t-94.5 -166t-33.5 -201.5q0 -93 45.5 -144.5t119.5 -51.5z" />
    <glyph glyph-name="afii10049" unicode="&#x42f;" horiz-adv-x="473" 
d="M40 0h-41l222 293q-45 11 -78 47.5t-33 97.5q0 94 57.5 161.5t154.5 67.5h164l-148 -667h-32l63 289h-114zM258 319h118l70 318h-130q-80 0 -125 -59.5t-45 -139.5q0 -55 32 -87t80 -32z" />
    <glyph glyph-name="afii10065" unicode="&#x430;" 
d="M258 495q44 0 78.5 -24.5t52.5 -68.5l17 81h30l-107 -483h-30l16 72q-55 -84 -136 -84q-63 0 -100.5 44.5t-37.5 121.5q0 73 25 150t76.5 134t115.5 57zM257 468q-53 0 -97 -54t-65 -125t-21 -134q0 -68 29 -104t81 -36q40 0 79 29.5t63 72.5l55 251q-11 42 -45 71
t-79 29z" />
    <glyph glyph-name="afii10066" unicode="&#x431;" horiz-adv-x="465" 
d="M194 15q54 0 100 51t69 120.5t23 133.5q0 72 -31.5 110t-88.5 38q-54 0 -100 -51t-69 -120.5t-23 -133.5q0 -72 31.5 -110t88.5 -38zM193 -12q-70 0 -111 45t-41 130q0 82 42 212q36 113 97 167.5t171 74.5q101 18 108 50h28q-6 -31 -41.5 -48.5t-100.5 -31.5
q-107 -21 -154.5 -67t-81.5 -140q62 115 163 115q66 0 106.5 -45.5t40.5 -129.5q0 -75 -26.5 -150t-80 -128.5t-119.5 -53.5z" />
    <glyph glyph-name="afii10067" unicode="&#x432;" horiz-adv-x="413" 
d="M190 0h-168l106 483h135q52 0 86.5 -25t34.5 -74q0 -47 -26 -85t-73 -52q25 -10 41 -35.5t16 -55.5q0 -65 -40.5 -110.5t-111.5 -45.5zM57 26h137q52 0 84 39t32 91q0 36 -22 58t-61 22h-124zM109 263h140q47 0 75.5 37t28.5 83q0 37 -25.5 55.5t-69.5 18.5h-106z" />
    <glyph glyph-name="afii10068" unicode="&#x433;" horiz-adv-x="344" 
d="M367 483l-6 -27h-209l-100 -456h-30l106 483h239z" />
    <glyph glyph-name="afii10069" unicode="&#x434;" horiz-adv-x="457" 
d="M-62 -123l32 148q38 6 70.5 49.5t71.5 162.5l82 246h218l-100 -456h59l-33 -150h-30l27 123h-340l-28 -123h-29zM215 456l-75 -224q-55 -167 -110 -205h252l94 429h-161z" />
    <glyph glyph-name="afii10070" unicode="&#x435;" 
d="M212 -12q-80 0 -125.5 48.5t-45.5 133.5q0 65 25 137.5t79 130t123 57.5q70 0 110.5 -45.5t40.5 -125.5q0 -44 -13 -92h-325q-6 -28 -6 -61q0 -71 35.5 -113.5t101.5 -42.5q65 0 121 61l19 -21q-64 -67 -140 -67zM85 259h296q7 35 7 61q0 66 -32.5 107t-91.5 41
q-64 0 -114.5 -64.5t-64.5 -144.5z" />
    <glyph glyph-name="afii10072" unicode="&#x436;" horiz-adv-x="550" 
d="M10 0h-40l237 265l-134 218h35l150 -247l54 247h30l-54 -242l254 242h39l-229 -218l120 -265h-36l-107 244l-50 -47l-43 -197h-30l43 198l-26 44z" />
    <glyph glyph-name="afii10073" unicode="&#x437;" horiz-adv-x="425" 
d="M257 495q71 0 107 -31t36 -81q0 -60 -43 -97t-95 -43q36 -8 63.5 -35.5t27.5 -68.5q0 -68 -54.5 -109.5t-128.5 -41.5q-118 0 -162 85l24 14q41 -72 138 -72q62 0 106 34.5t44 90.5q0 42 -36 67t-87 25h-88l6 27h86q68 0 116.5 30t48.5 94q0 40 -28.5 62.5t-80.5 22.5
q-91 0 -158 -67l-19 20q76 74 177 74z" />
    <glyph glyph-name="afii10074" unicode="&#x438;" horiz-adv-x="435" 
d="M54 0h-32l106 483h30l-94 -423l315 423h33l-106 -483h-30l93 428z" />
    <glyph glyph-name="afii10075" unicode="&#x439;" horiz-adv-x="435" 
d="M54 0h-32l106 483h30l-94 -423l315 423h33l-106 -483h-30l93 428zM442 625q-70 -73 -161 -73t-130 73l23 18q14 -29 44 -46.5t67 -17.5q80 0 137 64z" />
    <glyph glyph-name="afii10076" unicode="&#x43a;" horiz-adv-x="411" 
d="M332 0h-33l-109 245l-107 -103l-31 -142h-30l107 483h30l-66 -296l310 296h40l-231 -218z" />
    <glyph glyph-name="afii10077" unicode="&#x43b;" horiz-adv-x="435" 
d="M-37 -12l6 27q35 0 69 49.5t74 172.5l82 246h218l-106 -483h-30l100 456h-161l-75 -224q-45 -137 -85.5 -190.5t-91.5 -53.5z" />
    <glyph glyph-name="afii10078" unicode="&#x43c;" horiz-adv-x="514" 
d="M384 0h-30l96 438l-240 -438h-14l-49 438l-95 -438h-30l106 483h43l46 -414l228 414h45z" />
    <glyph glyph-name="afii10079" unicode="&#x43d;" horiz-adv-x="435" 
d="M52 0h-30l108 483h30l-49 -218h224l49 218h30l-108 -483h-30l53 238h-224z" />
    <glyph glyph-name="afii10080" unicode="&#x43e;" horiz-adv-x="461" 
d="M193 -12q-70 0 -111 45t-41 130q0 75 26.5 150t80 128.5t119.5 53.5q70 0 111 -45t41 -130q0 -75 -26.5 -150t-80 -128.5t-119.5 -53.5zM194 15q54 0 100 51t69 120.5t23 133.5q0 72 -31.5 110t-88.5 38q-54 0 -100 -51t-69 -120.5t-23 -133.5q0 -72 31.5 -110t88.5 -38z
" />
    <glyph glyph-name="afii10081" unicode="&#x43f;" horiz-adv-x="435" 
d="M306 0h-30l102 456h-224l-102 -456h-30l108 483h284z" />
    <glyph glyph-name="afii10082" unicode="&#x440;" horiz-adv-x="457" 
d="M200 -12q-44 0 -78.5 25t-52.5 69l-58 -266h-31l149 667h30l-16 -71q54 83 136 83q63 0 100.5 -44t37.5 -121q0 -74 -25 -151t-76.5 -134t-115.5 -57zM201 15q53 0 97 54.5t65 125t21 134.5q0 68 -29 103.5t-81 35.5q-40 0 -79 -29.5t-63 -72.5l-55 -251q11 -42 45 -71
t79 -29z" />
    <glyph glyph-name="afii10083" unicode="&#x441;" horiz-adv-x="394" 
d="M200 -12q-71 0 -114.5 47t-43.5 136q0 73 27 146t81 125.5t121 52.5q85 0 124 -67l-24 -19q-32 59 -100 59q-60 0 -106.5 -51.5t-68 -118.5t-21.5 -132q0 -75 34.5 -113t91.5 -38q59 0 103 51l18 -21q-56 -57 -122 -57z" />
    <glyph glyph-name="afii10084" unicode="&#x442;" horiz-adv-x="319" 
d="M120 0h-30l100 456h-114l6 27h259l-6 -27h-115z" />
    <glyph glyph-name="afii10085" unicode="&#x443;" horiz-adv-x="375" 
d="M-56 -187l12 28q11 -8 35 -8q19 0 33.5 12.5t33.5 45.5l56 98l-47 494h32l41 -445l239 445h36l-331 -602q-42 -77 -100 -77q-24 0 -40 9z" />
    <glyph glyph-name="afii10086" unicode="&#x444;" horiz-adv-x="615" 
d="M226 495q79 0 102 -87l57 259h30l-56 -252q52 80 114 80q51 0 76.5 -41.5t25.5 -111.5q0 -73 -24 -154t-69 -140.5t-96 -59.5q-38 0 -64.5 22.5t-36.5 64.5l-57 -259h-30l55 252q-51 -80 -114 -80q-51 0 -76 41.5t-25 112.5q0 72 23.5 153t68.5 140.5t96 59.5zM230 468
q-45 0 -83.5 -57t-58.5 -131.5t-20 -138.5q0 -126 78 -126q31 0 62.5 28t54.5 70l56 255q-4 40 -29 70t-60 30zM383 15q45 0 83.5 57t58.5 132t20 139q0 125 -79 125q-30 0 -61.5 -28t-55.5 -70l-56 -255q5 -40 30 -70t60 -30z" />
    <glyph glyph-name="afii10087" unicode="&#x445;" horiz-adv-x="379" 
d="M304 0h-34l-83 223l-182 -223h-38l206 247l-90 236h34l76 -211l172 211h38l-196 -236z" />
    <glyph glyph-name="afii10088" unicode="&#x446;" horiz-adv-x="457" 
d="M308 -123l27 123h-313l106 483h30l-101 -456h224l101 456h30l-101 -456h60l-33 -150h-30z" />
    <glyph glyph-name="afii10089" unicode="&#x447;" horiz-adv-x="431" 
d="M123 483h30l-37 -170q-13 -59 6 -83t69 -24q33 0 71.5 11t61.5 26l53 240h30l-106 -483h-30l48 217q-67 -38 -136 -38q-66 0 -89.5 31t-7.5 103z" />
    <glyph glyph-name="afii10090" unicode="&#x448;" horiz-adv-x="633" 
d="M579 483h30l-106 -483h-481l106 483h30l-101 -456h195l101 456h30l-101 -456h196z" />
    <glyph glyph-name="afii10091" unicode="&#x449;" horiz-adv-x="655" 
d="M579 483h30l-100 -456h59l-33 -150h-30l28 123h-511l106 483h30l-101 -456h195l101 456h30l-101 -456h196z" />
    <glyph glyph-name="afii10092" unicode="&#x44a;" horiz-adv-x="482" 
d="M258 0h-168l100 456h-114l6 27h144l-46 -206h126q56 0 84.5 -33t22.5 -88q-7 -62 -48 -109t-107 -47zM300 251h-125l-50 -224h137q50 0 81.5 38.5t37.5 90.5q5 46 -15.5 70.5t-65.5 24.5z" />
    <glyph glyph-name="afii10093" unicode="&#x44b;" horiz-adv-x="558" 
d="M428 0h-30l106 483h30zM128 483h30l-46 -206h117q54 0 85 -29t31 -81q0 -65 -41 -116t-110 -51h-172zM223 251h-117l-49 -224h142q52 0 83 42.5t31 97.5q0 41 -23.5 62.5t-66.5 21.5z" />
    <glyph glyph-name="afii10094" unicode="&#x44c;" horiz-adv-x="413" 
d="M128 483h30l-46 -206h117q54 0 85 -29t31 -81q0 -65 -41 -116t-110 -51h-172zM223 251h-117l-49 -224h142q52 0 83 42.5t31 97.5q0 41 -23.5 62.5t-66.5 21.5z" />
    <glyph glyph-name="afii10095" unicode="&#x44d;" horiz-adv-x="394" 
d="M214 495q71 0 114.5 -46.5t43.5 -135.5q0 -73 -27 -146.5t-81 -126t-121 -52.5q-84 0 -124 68l24 18q32 -59 100 -59q70 0 118.5 63.5t67.5 153.5h-215l6 28h214q5 33 5 58q0 74 -34.5 112t-91.5 38q-60 0 -103 -51l-18 22q55 56 122 56z" />
    <glyph glyph-name="afii10096" unicode="&#x44e;" horiz-adv-x="605" 
d="M336 -12q-70 0 -111 45t-41 130q0 30 7 75h-87l-52 -238h-30l106 483h30l-48 -218h87q24 96 80.5 163t132.5 67q70 0 111 -45t41 -130q0 -75 -26.5 -150t-80 -128.5t-119.5 -53.5zM337 15q54 0 100 51t69 120.5t23 133.5q0 72 -31.5 110t-88.5 38q-54 0 -100 -51
t-69 -120.5t-23 -133.5q0 -72 31.5 -110t88.5 -38z" />
    <glyph glyph-name="afii10097" unicode="&#x44f;" horiz-adv-x="435" 
d="M46 0h-37l161 211q-83 17 -83 106q0 65 41 115.5t110 50.5h173l-106 -483h-30l45 206h-120zM202 233h124l49 223h-142q-52 0 -83 -42.5t-31 -96.5q0 -41 22.5 -62.5t60.5 -21.5z" />
    <glyph glyph-name="afii10071" unicode="&#x451;" 
d="M420 601q0 -13 -9 -22t-22 -9q-11 0 -18 7t-7 18q0 13 9 22t22 9q11 0 18 -7t7 -18zM258 601q0 -13 -9 -22t-22 -9q-11 0 -18 7t-7 18q0 13 9 22t22 9q11 0 18 -7t7 -18zM212 -12q-80 0 -125.5 48.5t-45.5 133.5q0 65 25 137.5t79 130t123 57.5q70 0 110.5 -45.5
t40.5 -125.5q0 -44 -13 -92h-325q-6 -28 -6 -61q0 -71 35.5 -113.5t101.5 -42.5q65 0 121 61l19 -21q-64 -67 -140 -67zM85 259h296q7 35 7 61q0 66 -32.5 107t-91.5 41q-64 0 -114.5 -64.5t-64.5 -144.5z" />
    <glyph glyph-name="afii10099" unicode="&#x452;" horiz-adv-x="443" 
d="M317 541h-139l-29 -132q31 36 75 61t83 25q58 0 80 -30t7 -98l-100 -453q-23 -110 -116 -110q-46 0 -65 38l27 19q13 -30 44 -30q62 0 80 83l100 453q11 54 -6.5 77.5t-60.5 23.5q-40 0 -83.5 -27t-71.5 -65l-82 -376h-30l118 541h-69l6 27h69l22 99h30l-22 -99h138z" />
    <glyph glyph-name="afii10100" unicode="&#x453;" horiz-adv-x="344" 
d="M426 700l-167 -144h-29l151 144h45zM367 483l-6 -27h-209l-100 -456h-30l106 483h239z" />
    <glyph glyph-name="afii10101" unicode="&#x454;" horiz-adv-x="394" 
d="M200 -12q-71 0 -114.5 47t-43.5 136q0 73 27 146t81 125.5t121 52.5q85 0 124 -67l-24 -19q-32 59 -100 59t-116 -60.5t-69 -147.5h215l-6 -28h-214q-6 -34 -6 -66q0 -75 34.5 -113t91.5 -38q59 0 103 51l18 -21q-56 -57 -122 -57z" />
    <glyph glyph-name="afii10102" unicode="&#x455;" horiz-adv-x="366" 
d="M144 -12q-102 0 -143 74l26 19q36 -66 118 -66q52 0 86 33.5t34 78.5q0 30 -19.5 54.5t-48 42.5t-56.5 36t-47.5 44.5t-19.5 58.5q0 56 39.5 94t105.5 38q44 0 78.5 -18.5t50.5 -47.5l-25 -19q-12 26 -42.5 42t-65.5 16q-49 0 -79.5 -27.5t-30.5 -69.5q0 -28 19.5 -51.5
t48 -41t56.5 -36.5t47.5 -46t19.5 -61q0 -61 -42 -104t-110 -43z" />
    <glyph glyph-name="afii10103" unicode="&#x456;" horiz-adv-x="181" 
d="M165 566q-11 0 -19 7.5t-8 18.5q0 14 10.5 23t22.5 9q11 0 19 -7.5t8 -18.5q0 -14 -10.5 -23t-22.5 -9zM52 0h-30l107 483h30z" />
    <glyph glyph-name="afii10104" unicode="&#x457;" horiz-adv-x="181" 
d="M277 601q0 -13 -9 -22t-22 -9q-10 0 -17.5 7t-7.5 18q0 13 9 22t22 9q10 0 17.5 -7t7.5 -18zM115 601q0 -13 -9 -22t-22 -9q-10 0 -17.5 7t-7.5 18q0 13 9 22t22 9q10 0 17.5 -7t7.5 -18zM52 0h-30l107 483h30z" />
    <glyph glyph-name="afii10105" unicode="&#x458;" horiz-adv-x="181" 
d="M-70 -196q-56 0 -77 41l25 17q16 -31 51 -31q55 0 73 83l127 569h30l-127 -569q-13 -60 -37.5 -85t-64.5 -25zM165 566q-11 0 -19 7.5t-8 18.5q0 14 10.5 23t22.5 9q11 0 19 -7.5t8 -18.5q0 -14 -10.5 -23t-22.5 -9z" />
    <glyph glyph-name="afii10106" unicode="&#x459;" horiz-adv-x="667" 
d="M-38 -12l6 27q36 0 70 49.5t74 172.5l82 246h218l-46 -206h117q54 0 85 -29t31 -81q0 -65 -41 -116t-110 -51h-172l100 456h-161l-75 -224q-45 -138 -85.5 -191t-92.5 -53zM477 251h-117l-49 -224h142q52 0 83 42.5t31 97.5q0 41 -23.5 62.5t-66.5 21.5z" />
    <glyph glyph-name="afii10107" unicode="&#x45a;" horiz-adv-x="667" 
d="M52 0h-30l106 483h30l-48 -218h224l48 218h30l-48 -218h120q53 0 84 -27t31 -78q0 -63 -40 -111.5t-108 -48.5h-175l52 238h-224zM478 238h-120l-47 -211h145q50 0 80.5 40.5t30.5 92.5q0 78 -89 78z" />
    <glyph glyph-name="afii10108" unicode="&#x45b;" horiz-adv-x="443" 
d="M307 0h-30l81 367q5 20 5 33q0 68 -80 68q-38 0 -77.5 -27.5t-70.5 -67.5l-82 -373h-30l119 541h-66l6 27h66l22 99h30l-22 -99h142l-6 -27h-142l-28 -130q71 84 145 84q48 0 76 -23.5t28 -67.5q0 -18 -6 -38z" />
    <glyph glyph-name="afii10109" unicode="&#x45c;" horiz-adv-x="411" 
d="M439 700l-167 -144h-29l151 144h45zM332 0h-33l-109 245l-107 -103l-31 -142h-30l107 483h30l-66 -296l310 296h40l-231 -218z" />
    <glyph glyph-name="afii10110" unicode="&#x45e;" horiz-adv-x="375" 
d="M-56 -187l12 28q11 -8 35 -8q19 0 33.5 12.5t33.5 45.5l56 98l-47 494h32l41 -445l239 445h36l-331 -602q-42 -77 -100 -77q-24 0 -40 9zM409 625q-70 -73 -161 -73t-130 73l23 18q14 -29 44 -46.5t67 -17.5q80 0 137 64z" />
    <glyph glyph-name="afii10193" unicode="&#x45f;" horiz-adv-x="435" 
d="M121 -122l27 122h-126l106 483h30l-101 -456h224l101 456h30l-106 -483h-128l-27 -122h-30z" />
    <glyph glyph-name="afii10050" unicode="&#x490;" horiz-adv-x="432" 
d="M58 0h-32l146 667h277l27 124h32l-33 -154h-277z" />
    <glyph glyph-name="afii10098" unicode="&#x491;" horiz-adv-x="344" 
d="M152 456l-100 -456h-30l106 483h209l26 122h30l-32 -149h-209z" />
    <glyph glyph-name="uni1E02" unicode="&#x1e02;" horiz-adv-x="480" 
d="M212 0h-186l147 667h157q59 0 98 -37.5t39 -99.5q0 -71 -38.5 -126t-97.5 -66q35 -9 56 -46t21 -79q0 -86 -52 -149.5t-144 -63.5zM137 358h153q70 0 106 54t36 118q0 49 -30 78t-78 29h-125zM218 30q70 0 112.5 55t42.5 128q0 54 -29.5 84.5t-83.5 30.5h-130l-66 -298
h154zM385 765q0 -13 -9.5 -22.5t-22.5 -9.5q-11 0 -18.5 7.5t-7.5 18.5q0 13 9.5 22.5t22.5 9.5q11 0 18.5 -7.5t7.5 -18.5z" />
    <glyph glyph-name="uni1E03" unicode="&#x1e03;" 
d="M200 -12q-44 0 -78.5 25t-52.5 69l-17 -82h-30l147 667h30l-56 -255q54 83 136 83q63 0 100.5 -44t37.5 -121q0 -74 -25 -151t-76.5 -134t-115.5 -57zM201 15q53 0 97 54.5t65 125t21 134.5q0 68 -29 103.5t-81 35.5q-40 0 -79 -29.5t-63 -72.5l-55 -251q11 -42 45 -71
t79 -29zM382 765q0 -13 -9.5 -22.5t-22.5 -9.5q-11 0 -18.5 7.5t-7.5 18.5q0 13 9.5 22.5t22.5 9.5q11 0 18.5 -7.5t7.5 -18.5z" />
    <glyph glyph-name="uni1E0A" unicode="&#x1e0a;" horiz-adv-x="535" 
d="M172 0h-146l147 667h142q80 0 135.5 -62.5t55.5 -171.5q0 -49 -11.5 -104.5t-37.5 -114.5t-63.5 -106t-95.5 -77.5t-126 -30.5zM64 30h113q56 0 105.5 27t83.5 70t58.5 96.5t36 107.5t11.5 102q0 94 -46.5 149t-116.5 55h-110zM419 765q0 -13 -9.5 -22.5t-22.5 -9.5
q-11 0 -18.5 7.5t-7.5 18.5q0 13 9.5 22.5t22.5 9.5q11 0 18.5 -7.5t7.5 -18.5z" />
    <glyph glyph-name="uni1E0B" unicode="&#x1e0b;" 
d="M258 495q44 0 78.5 -24.5t52.5 -68.5l58 265h30l-148 -667h-30l16 72q-55 -84 -136 -84q-63 0 -100.5 44.5t-37.5 121.5q0 73 25 150t76.5 134t115.5 57zM257 468q-53 0 -97 -54t-65 -125t-21 -134q0 -68 29 -104t81 -36q40 0 79 29.5t63 72.5l55 251q-11 42 -45 71
t-79 29zM366 765q0 -13 -9.5 -22.5t-22.5 -9.5q-11 0 -18.5 7.5t-7.5 18.5q0 13 9.5 22.5t22.5 9.5q11 0 18.5 -7.5t7.5 -18.5z" />
    <glyph glyph-name="uni1E1E" unicode="&#x1e1e;" horiz-adv-x="432" 
d="M377 765q0 -13 -9.5 -22.5t-22.5 -9.5q-11 0 -18.5 7.5t-7.5 18.5q0 13 9.5 22.5t22.5 9.5q11 0 18.5 -7.5t7.5 -18.5zM58 0h-32l147 667h309l-6 -30h-277l-62 -279h270l-7 -30h-270z" />
    <glyph glyph-name="uni1E1F" unicode="&#x1e1f;" horiz-adv-x="224" 
d="M319 765q0 -13 -9.5 -22.5t-22.5 -9.5q-11 0 -18.5 7.5t-7.5 18.5q0 13 9.5 22.5t22.5 9.5q11 0 18.5 -7.5t7.5 -18.5zM65 0h-30l101 456h-65l6 27h65l17 79q26 115 116 115q45 0 70 -31l-21 -21q-19 25 -52 25q-64 0 -83 -88l-17 -79h84l-6 -27h-84z" />
    <glyph glyph-name="uni1E22" unicode="&#x1e22;" horiz-adv-x="545" 
d="M411 0h-32l72 328h-321l-72 -328h-32l147 667h32l-68 -309h321l68 309h32zM415 765q0 -13 -9.5 -22.5t-22.5 -9.5q-11 0 -18.5 7.5t-7.5 18.5q0 13 9.5 22.5t22.5 9.5q11 0 18.5 -7.5t7.5 -18.5z" />
    <glyph glyph-name="uni1E23" unicode="&#x1e23;" horiz-adv-x="435" 
d="M306 0h-30l81 367q5 20 5 33q0 68 -80 68q-38 0 -77.5 -27.5t-70.5 -67.5l-82 -373h-30l147 667h30l-56 -256q71 84 145 84q48 0 76 -23.5t28 -67.5q0 -18 -6 -38zM363 765q0 -13 -9.5 -22.5t-22.5 -9.5q-11 0 -18.5 7.5t-7.5 18.5q0 13 9.5 22.5t22.5 9.5
q11 0 18.5 -7.5t7.5 -18.5z" />
    <glyph glyph-name="uni1E56" unicode="&#x1e56;" horiz-adv-x="448" 
d="M58 0h-32l147 667h155q59 0 97.5 -42.5t38.5 -106.5q0 -90 -55 -159.5t-156 -69.5h-131zM128 319h131q81 0 125.5 59.5t44.5 139.5q0 53 -30.5 86t-76.5 33h-123zM382 765q0 -13 -9.5 -22.5t-22.5 -9.5q-11 0 -18.5 7.5t-7.5 18.5q0 13 9.5 22.5t22.5 9.5q11 0 18.5 -7.5
t7.5 -18.5z" />
    <glyph glyph-name="uni1E57" unicode="&#x1e57;" horiz-adv-x="457" 
d="M200 -12q-44 0 -78.5 25t-52.5 69l-58 -266h-31l149 667h30l-16 -71q54 83 136 83q63 0 100.5 -44t37.5 -121q0 -74 -25 -151t-76.5 -134t-115.5 -57zM201 15q53 0 97 54.5t65 125t21 134.5q0 68 -29 103.5t-81 35.5q-40 0 -79 -29.5t-63 -72.5l-55 -251q11 -42 45 -71
t79 -29zM345 598q0 -13 -9.5 -22.5t-22.5 -9.5q-11 0 -18.5 7.5t-7.5 18.5q0 13 9.5 22.5t22.5 9.5q11 0 18.5 -7.5t7.5 -18.5z" />
    <glyph glyph-name="uni1E60" unicode="&#x1e60;" horiz-adv-x="447" 
d="M188 -12q-57 0 -106.5 25.5t-71.5 63.5l28 22q24 -37 63.5 -59t87.5 -22q72 0 115.5 48t43.5 119q0 40 -24 72.5t-58.5 57t-68.5 49.5t-58 60.5t-24 78.5q0 73 54.5 124t127.5 51q52 0 94.5 -20t63.5 -55l-26 -22q-43 67 -132 67q-62 0 -105 -43.5t-43 -101.5
q0 -35 24 -65.5t58.5 -55.5t68.5 -51t58 -63.5t24 -82.5q0 -81 -53.5 -139t-140.5 -58zM366 765q0 -13 -9.5 -22.5t-22.5 -9.5q-11 0 -18.5 7.5t-7.5 18.5q0 13 9.5 22.5t22.5 9.5q11 0 18.5 -7.5t7.5 -18.5z" />
    <glyph glyph-name="uni1E61" unicode="&#x1e61;" horiz-adv-x="366" 
d="M144 -12q-102 0 -143 74l26 19q36 -66 118 -66q52 0 86 33.5t34 78.5q0 30 -19.5 54.5t-48 42.5t-56.5 36t-47.5 44.5t-19.5 58.5q0 56 39.5 94t105.5 38q44 0 78.5 -18.5t50.5 -47.5l-25 -19q-12 26 -42.5 42t-65.5 16q-49 0 -79.5 -27.5t-30.5 -69.5q0 -28 19.5 -51.5
t48 -41t56.5 -36.5t47.5 -46t19.5 -61q0 -61 -42 -104t-110 -43zM288 598q0 -13 -9.5 -22.5t-22.5 -9.5q-11 0 -18.5 7.5t-7.5 18.5q0 13 9.5 22.5t22.5 9.5q11 0 18.5 -7.5t7.5 -18.5z" />
    <glyph glyph-name="uni1E6A" unicode="&#x1e6a;" horiz-adv-x="423" 
d="M173 0h-32l141 637h-167l6 30h367l-6 -30h-168zM355 765q0 -13 -9.5 -22.5t-22.5 -9.5q-11 0 -18.5 7.5t-7.5 18.5q0 13 9.5 22.5t22.5 9.5q11 0 18.5 -7.5t7.5 -18.5z" />
    <glyph glyph-name="uni1E6B" unicode="&#x1e6b;" horiz-adv-x="234" 
d="M114 -12q-69 0 -69 65q0 11 3 28l84 375h-66l6 27h66l29 132h30l-29 -132h84l-6 -27h-84l-84 -375q-3 -13 -3 -27q0 -39 41 -39q25 0 45 20l15 -22q-29 -25 -62 -25zM244 765q0 -13 -9.5 -22.5t-22.5 -9.5q-11 0 -18.5 7.5t-7.5 18.5q0 13 9.5 22.5t22.5 9.5
q11 0 18.5 -7.5t7.5 -18.5z" />
    <glyph glyph-name="Wgrave" unicode="&#x1e80;" horiz-adv-x="671" 
d="M448 0h-38l4 597l-260 -597h-38l2 667h34l-6 -611l265 611h34l-5 -611l264 611h36zM481 723h-27l-103 144h43z" />
    <glyph glyph-name="wgrave" unicode="&#x1e81;" horiz-adv-x="594" 
d="M389 0h-27l-22 439l-216 -439h-27l-23 483h32l14 -436l214 436h30l20 -436l208 436h34zM405 556h-27l-103 144h43z" />
    <glyph glyph-name="Wacute" unicode="&#x1e82;" horiz-adv-x="671" 
d="M592 867l-167 -144h-29l151 144h45zM448 0h-38l4 597l-260 -597h-38l2 667h34l-6 -611l265 611h34l-5 -611l264 611h36z" />
    <glyph glyph-name="wacute" unicode="&#x1e83;" horiz-adv-x="594" 
d="M518 700l-167 -144h-29l151 144h45zM389 0h-27l-22 439l-216 -439h-27l-23 483h32l14 -436l214 436h30l20 -436l208 436h34z" />
    <glyph glyph-name="Wdieresis" unicode="&#x1e84;" horiz-adv-x="671" 
d="M558 768q0 -13 -9 -22t-22 -9q-11 0 -18 7.5t-7 17.5q0 13 9 22t22 9q11 0 18 -7.5t7 -17.5zM396 768q0 -13 -9 -22t-22 -9q-11 0 -18 7.5t-7 17.5q0 13 9 22t22 9q11 0 18 -7.5t7 -17.5zM448 0h-38l4 597l-260 -597h-38l2 667h34l-6 -611l265 611h34l-5 -611l264 611h36
z" />
    <glyph glyph-name="wdieresis" unicode="&#x1e85;" horiz-adv-x="594" 
d="M483 601q0 -13 -9 -22t-22 -9q-10 0 -17.5 7t-7.5 18q0 13 9 22t22 9q10 0 17.5 -7t7.5 -18zM321 601q0 -13 -9 -22t-22 -9q-10 0 -17.5 7t-7.5 18q0 13 9 22t22 9q10 0 17.5 -7t7.5 -18zM389 0h-27l-22 439l-216 -439h-27l-23 483h32l14 -436l214 436h30l20 -436
l208 436h34z" />
    <glyph glyph-name="uni1EA0" unicode="&#x1ea0;" horiz-adv-x="474" 
d="M404 0h-34l-14 179h-265l-92 -179h-37l349 667h38zM355 209l-32 416l-216 -416h248zM180 -141q0 -13 -9.5 -22.5t-22.5 -9.5q-11 0 -18.5 7.5t-7.5 18.5q0 13 9.5 22.5t22.5 9.5q11 0 18.5 -7.5t7.5 -18.5z" />
    <glyph glyph-name="uni1EA1" unicode="&#x1ea1;" 
d="M258 495q44 0 78.5 -24.5t52.5 -68.5l17 81h30l-107 -483h-30l16 72q-55 -84 -136 -84q-63 0 -100.5 44.5t-37.5 121.5q0 73 25 150t76.5 134t115.5 57zM257 468q-53 0 -97 -54t-65 -125t-21 -134q0 -68 29 -104t81 -36q40 0 79 29.5t63 72.5l55 251q-11 42 -45 71
t-79 29zM165 -141q0 -13 -9.5 -22.5t-22.5 -9.5q-11 0 -18.5 7.5t-7.5 18.5q0 13 9.5 22.5t22.5 9.5q11 0 18.5 -7.5t7.5 -18.5z" />
    <glyph glyph-name="uni1EA2" unicode="&#x1ea2;" horiz-adv-x="474" 
d="M404 0h-34l-14 179h-265l-92 -179h-37l349 667h38zM355 209l-32 416l-216 -416h248zM314 768l-19 10q21 42 61 42q23 0 37.5 -13.5t14.5 -36.5q0 -39 -37 -73h-28q41 35 41 72q0 13 -8.5 21t-20.5 8q-25 0 -41 -30z" />
    <glyph glyph-name="uni1EA3" unicode="&#x1ea3;" 
d="M258 495q44 0 78.5 -24.5t52.5 -68.5l17 81h30l-107 -483h-30l16 72q-55 -84 -136 -84q-63 0 -100.5 44.5t-37.5 121.5q0 73 25 150t76.5 134t115.5 57zM257 468q-53 0 -97 -54t-65 -125t-21 -134q0 -68 29 -104t81 -36q40 0 79 29.5t63 72.5l55 251q-11 42 -45 71
t-79 29zM261 598l-19 10q21 42 61 42q23 0 37.5 -13.5t14.5 -36.5q0 -39 -37 -73h-28q41 35 41 72q0 13 -8.5 21t-20.5 8q-25 0 -41 -30z" />
    <glyph glyph-name="uni1EA4" unicode="&#x1ea4;" horiz-adv-x="474" 
d="M429 682h-23l-53 88l-101 -88h-28l115 108h36zM404 0h-34l-14 179h-265l-92 -179h-37l349 667h38zM355 209l-32 416l-216 -416h248zM604 844l-167 -108h-29l151 108h45z" />
    <glyph glyph-name="uni1EA5" unicode="&#x1ea5;" 
d="M258 495q44 0 78.5 -24.5t52.5 -68.5l17 81h30l-107 -483h-30l16 72q-55 -84 -136 -84q-63 0 -100.5 44.5t-37.5 121.5q0 73 25 150t76.5 134t115.5 57zM257 468q-53 0 -97 -54t-65 -125t-21 -134q0 -68 29 -104t81 -36q40 0 79 29.5t63 72.5l55 251q-11 42 -45 71
t-79 29zM393 556h-23l-53 118l-101 -118h-28l115 144h36zM570 771l-167 -144h-29l151 144h45z" />
    <glyph glyph-name="uni1EA6" unicode="&#x1ea6;" horiz-adv-x="474" 
d="M429 682h-23l-53 88l-101 -88h-28l115 108h36zM404 0h-34l-14 179h-265l-92 -179h-37l349 667h38zM355 209l-32 416l-216 -416h248zM270 736h-27l-103 108h43z" />
    <glyph glyph-name="uni1EA7" unicode="&#x1ea7;" 
d="M258 495q44 0 78.5 -24.5t52.5 -68.5l17 81h30l-107 -483h-30l16 72q-55 -84 -136 -84q-63 0 -100.5 44.5t-37.5 121.5q0 73 25 150t76.5 134t115.5 57zM257 468q-53 0 -97 -54t-65 -125t-21 -134q0 -68 29 -104t81 -36q40 0 79 29.5t63 72.5l55 251q-11 42 -45 71
t-79 29zM393 556h-23l-53 118l-101 -118h-28l115 144h36zM235 627h-27l-103 144h43z" />
    <glyph glyph-name="uni1EA8" unicode="&#x1ea8;" horiz-adv-x="474" 
d="M430 682h-23l-53 88l-101 -88h-28l115 108h36zM404 0h-34l-14 179h-265l-92 -179h-37l349 667h38zM355 209l-32 416l-216 -416h248zM382 809l-19 8q21 31 61 31q23 0 37.5 -10t14.5 -27q0 -30 -37 -55h-28q41 27 41 54q0 22 -29 22q-25 0 -41 -23z" />
    <glyph glyph-name="uni1EA9" unicode="&#x1ea9;" 
d="M258 495q44 0 78.5 -24.5t52.5 -68.5l17 81h30l-107 -483h-30l16 72q-55 -84 -136 -84q-63 0 -100.5 44.5t-37.5 121.5q0 73 25 150t76.5 134t115.5 57zM257 468q-53 0 -97 -54t-65 -125t-21 -134q0 -68 29 -104t81 -36q40 0 79 29.5t63 72.5l55 251q-11 42 -45 71
t-79 29zM393 556h-23l-53 118l-101 -118h-28l115 144h36zM340 738l-19 10q21 42 61 42q23 0 37.5 -13.5t14.5 -36.5q0 -39 -37 -73h-28q41 35 41 72q0 13 -8.5 21t-20.5 8q-25 0 -41 -30z" />
    <glyph glyph-name="uni1EAA" unicode="&#x1eaa;" horiz-adv-x="474" 
d="M424 677h-23l-53 59l-101 -59h-28l115 72h36zM404 0h-34l-14 179h-265l-92 -179h-37l349 667h38zM355 209l-32 416l-216 -416h248zM399 757q-24 0 -36 8.5t-14.5 19.5t-11.5 19.5t-26 8.5q-43 0 -67 -53h-25q30 67 99 67q23 0 35 -9t14.5 -19.5t11.5 -19.5t26 -9
q44 0 68 54h25q-28 -67 -99 -67z" />
    <glyph glyph-name="uni1EAB" unicode="&#x1eab;" 
d="M258 495q44 0 78.5 -24.5t52.5 -68.5l17 81h30l-107 -483h-30l16 72q-55 -84 -136 -84q-63 0 -100.5 44.5t-37.5 121.5q0 73 25 150t76.5 134t115.5 57zM257 468q-53 0 -97 -54t-65 -125t-21 -134q0 -68 29 -104t81 -36q40 0 79 29.5t63 72.5l55 251q-11 42 -45 71
t-79 29zM385 523h-23l-53 118l-101 -118h-28l115 144h36zM375 682q-24 0 -36 17.5t-14.5 39t-11.5 39t-26 17.5q-43 0 -67 -107h-25q30 134 99 134q23 0 35 -17.5t14.5 -39t11.5 -39t26 -17.5q44 0 68 107h25q-28 -134 -99 -134z" />
    <glyph glyph-name="uni1EAC" unicode="&#x1eac;" horiz-adv-x="474" 
d="M404 0h-34l-14 179h-265l-92 -179h-37l349 667h38zM355 209l-32 416l-216 -416h248zM445 723h-23l-53 118l-101 -118h-28l115 144h36zM182 -141q0 -13 -9.5 -22.5t-22.5 -9.5q-11 0 -18.5 7.5t-7.5 18.5q0 13 9.5 22.5t22.5 9.5q11 0 18.5 -7.5t7.5 -18.5z" />
    <glyph glyph-name="uni1EAD" unicode="&#x1ead;" 
d="M258 495q44 0 78.5 -24.5t52.5 -68.5l17 81h30l-107 -483h-30l16 72q-55 -84 -136 -84q-63 0 -100.5 44.5t-37.5 121.5q0 73 25 150t76.5 134t115.5 57zM257 468q-53 0 -97 -54t-65 -125t-21 -134q0 -68 29 -104t81 -36q40 0 79 29.5t63 72.5l55 251q-11 42 -45 71
t-79 29zM393 556h-23l-53 118l-101 -118h-28l115 144h36zM165 -141q0 -13 -9.5 -22.5t-22.5 -9.5q-11 0 -18.5 7.5t-7.5 18.5q0 13 9.5 22.5t22.5 9.5q11 0 18.5 -7.5t7.5 -18.5z" />
    <glyph glyph-name="uni1EAE" unicode="&#x1eae;" horiz-adv-x="474" 
d="M404 0h-34l-14 179h-265l-92 -179h-37l349 667h38zM355 209l-32 416l-216 -416h248zM483 844l-167 -108h-29l151 108h45zM490 759q-70 -73 -161 -73t-130 73l23 18q14 -29 44 -46.5t67 -17.5q80 0 137 64z" />
    <glyph glyph-name="uni1EAF" unicode="&#x1eaf;" 
d="M258 495q44 0 78.5 -24.5t52.5 -68.5l17 81h30l-107 -483h-30l16 72q-55 -84 -136 -84q-63 0 -100.5 44.5t-37.5 121.5q0 73 25 150t76.5 134t115.5 57zM257 468q-53 0 -97 -54t-65 -125t-21 -134q0 -68 29 -104t81 -36q40 0 79 29.5t63 72.5l55 251q-11 42 -45 71
t-79 29zM433 756l-167 -144h-29l151 144h45zM440 600q-70 -73 -161 -73t-130 73l23 18q14 -29 44 -46.5t67 -17.5q80 0 137 64z" />
    <glyph glyph-name="uni1EB0" unicode="&#x1eb0;" horiz-adv-x="474" 
d="M404 0h-34l-14 179h-265l-92 -179h-37l349 667h38zM355 209l-32 416l-216 -416h248zM390 738h-27l-103 108h43zM490 759q-70 -73 -161 -73t-130 73l23 18q14 -29 44 -46.5t67 -17.5q80 0 137 64z" />
    <glyph glyph-name="uni1EB1" unicode="&#x1eb1;" 
d="M258 495q44 0 78.5 -24.5t52.5 -68.5l17 81h30l-107 -483h-30l16 72q-55 -84 -136 -84q-63 0 -100.5 44.5t-37.5 121.5q0 73 25 150t76.5 134t115.5 57zM257 468q-53 0 -97 -54t-65 -125t-21 -134q0 -68 29 -104t81 -36q40 0 79 29.5t63 72.5l55 251q-11 42 -45 71
t-79 29zM356 612h-27l-103 144h43zM441 602q-70 -73 -161 -73t-130 73l23 18q14 -29 44 -46.5t67 -17.5q80 0 137 64z" />
    <glyph glyph-name="uni1EB2" unicode="&#x1eb2;" horiz-adv-x="474" 
d="M404 0h-34l-14 179h-265l-92 -179h-37l349 667h38zM355 209l-32 416l-216 -416h248zM321 793l-19 8q21 31 61 31q23 0 37.5 -10t14.5 -27q0 -30 -37 -55h-28q41 27 41 54q0 22 -29 22q-25 0 -41 -23zM490 759q-70 -73 -161 -73t-130 73l23 18q14 -29 44 -46.5t67 -17.5
q80 0 137 64z" />
    <glyph glyph-name="uni1EB3" unicode="&#x1eb3;" 
d="M258 495q44 0 78.5 -24.5t52.5 -68.5l17 81h30l-107 -483h-30l16 72q-55 -84 -136 -84q-63 0 -100.5 44.5t-37.5 121.5q0 73 25 150t76.5 134t115.5 57zM257 468q-53 0 -97 -54t-65 -125t-21 -134q0 -68 29 -104t81 -36q40 0 79 29.5t63 72.5l55 251q-11 42 -45 71
t-79 29zM281 678l-19 10q21 42 61 42q23 0 37.5 -13.5t14.5 -36.5q0 -39 -37 -73h-28q41 35 41 72q0 13 -8.5 21t-20.5 8q-25 0 -41 -30zM441 602q-70 -73 -161 -73t-130 73l23 18q14 -29 44 -46.5t67 -17.5q80 0 137 64z" />
    <glyph glyph-name="uni1EB4" unicode="&#x1eb4;" horiz-adv-x="474" 
d="M404 0h-34l-14 179h-265l-92 -179h-37l349 667h38zM355 209l-32 416l-216 -416h248zM487 738q-70 -52 -161 -52t-130 52l23 12q32 -45 111 -45t137 45zM400 760q-24 0 -36 9t-14.5 19t-11.5 19t-26 9q-43 0 -67 -53h-25q30 67 99 67q23 0 35 -9t14.5 -19.5t11.5 -19.5
t26 -9q44 0 68 54h25q-28 -67 -99 -67z" />
    <glyph glyph-name="uni1EB5" unicode="&#x1eb5;" 
d="M258 495q44 0 78.5 -24.5t52.5 -68.5l17 81h30l-107 -483h-30l16 72q-55 -84 -136 -84q-63 0 -100.5 44.5t-37.5 121.5q0 73 25 150t76.5 134t115.5 57zM257 468q-53 0 -97 -54t-65 -125t-21 -134q0 -68 29 -104t81 -36q40 0 79 29.5t63 72.5l55 251q-11 42 -45 71
t-79 29zM443 607q-70 -73 -161 -73t-130 73l23 18q14 -29 44 -46.5t67 -17.5q80 0 137 64zM369 657q-24 0 -36 17.5t-14.5 39t-11.5 39t-26 17.5q-43 0 -67 -107h-25q30 134 99 134q23 0 35 -17.5t14.5 -39t11.5 -39t26 -17.5q44 0 68 107h25q-28 -134 -99 -134z" />
    <glyph glyph-name="uni1EB6" unicode="&#x1eb6;" horiz-adv-x="474" 
d="M404 0h-34l-14 179h-265l-92 -179h-37l349 667h38zM355 209l-32 416l-216 -416h248zM182 -141q0 -13 -9.5 -22.5t-22.5 -9.5q-11 0 -18.5 7.5t-7.5 18.5q0 13 9.5 22.5t22.5 9.5q11 0 18.5 -7.5t7.5 -18.5zM498 792q-70 -73 -161 -73t-130 73l23 18q14 -29 44 -46.5
t67 -17.5q80 0 137 64z" />
    <glyph glyph-name="uni1EB7" unicode="&#x1eb7;" 
d="M258 495q44 0 78.5 -24.5t52.5 -68.5l17 81h30l-107 -483h-30l16 72q-55 -84 -136 -84q-63 0 -100.5 44.5t-37.5 121.5q0 73 25 150t76.5 134t115.5 57zM257 468q-53 0 -97 -54t-65 -125t-21 -134q0 -68 29 -104t81 -36q40 0 79 29.5t63 72.5l55 251q-11 42 -45 71
t-79 29zM165 -141q0 -13 -9.5 -22.5t-22.5 -9.5q-11 0 -18.5 7.5t-7.5 18.5q0 13 9.5 22.5t22.5 9.5q11 0 18.5 -7.5t7.5 -18.5zM446 625q-70 -73 -161 -73t-130 73l23 18q14 -29 44 -46.5t67 -17.5q80 0 137 64z" />
    <glyph glyph-name="uni1EB8" unicode="&#x1eb8;" horiz-adv-x="444" 
d="M335 0h-309l147 667h309l-6 -30h-277l-62 -279h270l-7 -30h-270l-66 -298h277zM177 -141q0 -13 -9.5 -22.5t-22.5 -9.5q-11 0 -18.5 7.5t-7.5 18.5q0 13 9.5 22.5t22.5 9.5q11 0 18.5 -7.5t7.5 -18.5z" />
    <glyph glyph-name="uni1EB9" unicode="&#x1eb9;" 
d="M212 -12q-80 0 -125.5 48.5t-45.5 133.5q0 65 25 137.5t79 130t123 57.5q70 0 110.5 -45.5t40.5 -125.5q0 -44 -13 -92h-325q-6 -28 -6 -61q0 -71 35.5 -113.5t101.5 -42.5q65 0 121 61l19 -21q-64 -67 -140 -67zM85 259h296q7 35 7 61q0 66 -32.5 107t-91.5 41
q-64 0 -114.5 -64.5t-64.5 -144.5zM177 -141q0 -13 -9.5 -22.5t-22.5 -9.5q-11 0 -18.5 7.5t-7.5 18.5q0 13 9.5 22.5t22.5 9.5q11 0 18.5 -7.5t7.5 -18.5z" />
    <glyph glyph-name="uni1EBA" unicode="&#x1eba;" horiz-adv-x="444" 
d="M335 0h-309l147 667h309l-6 -30h-277l-62 -279h270l-7 -30h-270l-66 -298h277zM311 768l-19 10q21 42 61 42q23 0 37.5 -13.5t14.5 -36.5q0 -39 -37 -73h-28q41 35 41 72q0 13 -8.5 21t-20.5 8q-25 0 -41 -30z" />
    <glyph glyph-name="uni1EBB" unicode="&#x1ebb;" 
d="M212 -12q-80 0 -125.5 48.5t-45.5 133.5q0 65 25 137.5t79 130t123 57.5q70 0 110.5 -45.5t40.5 -125.5q0 -44 -13 -92h-325q-6 -28 -6 -61q0 -71 35.5 -113.5t101.5 -42.5q65 0 121 61l19 -21q-64 -67 -140 -67zM85 259h296q7 35 7 61q0 66 -32.5 107t-91.5 41
q-64 0 -114.5 -64.5t-64.5 -144.5zM273 598l-19 10q21 42 61 42q23 0 37.5 -13.5t14.5 -36.5q0 -39 -37 -73h-28q41 35 41 72q0 13 -8.5 21t-20.5 8q-25 0 -41 -30z" />
    <glyph glyph-name="uni1EBC" unicode="&#x1ebc;" horiz-adv-x="444" 
d="M335 0h-309l147 667h309l-6 -30h-277l-62 -279h270l-7 -30h-270l-66 -298h277zM396 721q-24 0 -36 17.5t-14.5 39t-11.5 39t-26 17.5q-43 0 -67 -107h-25q30 134 99 134q23 0 35 -17.5t14.5 -39t11.5 -39t26 -17.5q44 0 68 107h25q-28 -134 -99 -134z" />
    <glyph glyph-name="uni1EBD" unicode="&#x1ebd;" 
d="M212 -12q-80 0 -125.5 48.5t-45.5 133.5q0 65 25 137.5t79 130t123 57.5q70 0 110.5 -45.5t40.5 -125.5q0 -44 -13 -92h-325q-6 -28 -6 -61q0 -71 35.5 -113.5t101.5 -42.5q65 0 121 61l19 -21q-64 -67 -140 -67zM85 259h296q7 35 7 61q0 66 -32.5 107t-91.5 41
q-64 0 -114.5 -64.5t-64.5 -144.5zM359 554q-24 0 -36 17.5t-14.5 39t-11.5 39t-26 17.5q-43 0 -67 -107h-25q30 134 99 134q23 0 35 -17.5t14.5 -39t11.5 -39t26 -17.5q44 0 68 107h25q-28 -134 -99 -134z" />
    <glyph glyph-name="uni1EBE" unicode="&#x1ebe;" horiz-adv-x="444" 
d="M427 682h-23l-53 88l-101 -88h-28l115 108h36zM602 844l-167 -108h-29l151 108h45zM335 0h-309l147 667h309l-6 -30h-277l-62 -279h270l-7 -30h-270l-66 -298h277z" />
    <glyph glyph-name="uni1EBF" unicode="&#x1ebf;" 
d="M404 556h-23l-53 118l-101 -118h-28l115 144h36zM581 771l-167 -144h-29l151 144h45zM212 -12q-80 0 -125.5 48.5t-45.5 133.5q0 65 25 137.5t79 130t123 57.5q70 0 110.5 -45.5t40.5 -125.5q0 -44 -13 -92h-325q-6 -28 -6 -61q0 -71 35.5 -113.5t101.5 -42.5
q65 0 121 61l19 -21q-64 -67 -140 -67zM85 259h296q7 35 7 61q0 66 -32.5 107t-91.5 41q-64 0 -114.5 -64.5t-64.5 -144.5z" />
    <glyph glyph-name="uni1EC0" unicode="&#x1ec0;" horiz-adv-x="444" 
d="M427 682h-23l-53 88l-101 -88h-28l115 108h36zM335 0h-309l147 667h309l-6 -30h-277l-62 -279h270l-7 -30h-270l-66 -298h277zM268 736h-27l-103 108h43z" />
    <glyph glyph-name="uni1EC1" unicode="&#x1ec1;" 
d="M405 556h-23l-53 118l-101 -118h-28l115 144h36zM212 -12q-80 0 -125.5 48.5t-45.5 133.5q0 65 25 137.5t79 130t123 57.5q70 0 110.5 -45.5t40.5 -125.5q0 -44 -13 -92h-325q-6 -28 -6 -61q0 -71 35.5 -113.5t101.5 -42.5q65 0 121 61l19 -21q-64 -67 -140 -67zM85 259
h296q7 35 7 61q0 66 -32.5 107t-91.5 41q-64 0 -114.5 -64.5t-64.5 -144.5zM247 627h-27l-103 144h43z" />
    <glyph glyph-name="uni1EC2" unicode="&#x1ec2;" horiz-adv-x="444" 
d="M427 682h-23l-53 88l-101 -88h-28l115 108h36zM335 0h-309l147 667h309l-6 -30h-277l-62 -279h270l-7 -30h-270l-66 -298h277zM379 809l-19 8q21 31 61 31q23 0 37.5 -10t14.5 -27q0 -30 -37 -55h-28q41 27 41 54q0 22 -29 22q-25 0 -41 -23z" />
    <glyph glyph-name="uni1EC3" unicode="&#x1ec3;" 
d="M405 556h-23l-53 118l-101 -118h-28l115 144h36zM212 -12q-80 0 -125.5 48.5t-45.5 133.5q0 65 25 137.5t79 130t123 57.5q70 0 110.5 -45.5t40.5 -125.5q0 -44 -13 -92h-325q-6 -28 -6 -61q0 -71 35.5 -113.5t101.5 -42.5q65 0 121 61l19 -21q-64 -67 -140 -67zM85 259
h296q7 35 7 61q0 66 -32.5 107t-91.5 41q-64 0 -114.5 -64.5t-64.5 -144.5zM352 738l-19 10q21 42 61 42q23 0 37.5 -13.5t14.5 -36.5q0 -39 -37 -73h-28q41 35 41 72q0 13 -8.5 21t-20.5 8q-25 0 -41 -30z" />
    <glyph glyph-name="uni1EC4" unicode="&#x1ec4;" horiz-adv-x="444" 
d="M425 678h-23l-53 59l-101 -59h-28l115 72h36zM335 0h-309l147 667h309l-6 -30h-277l-62 -279h270l-7 -30h-270l-66 -298h277zM396 757q-24 0 -36 8.5t-14.5 19.5t-11.5 19.5t-26 8.5q-43 0 -67 -53h-25q30 67 99 67q23 0 35 -9t14.5 -19.5t11.5 -19.5t26 -9q44 0 68 54
h25q-28 -67 -99 -67z" />
    <glyph glyph-name="uni1EC5" unicode="&#x1ec5;" 
d="M397 523h-23l-53 118l-101 -118h-28l115 144h36zM212 -12q-80 0 -125.5 48.5t-45.5 133.5q0 65 25 137.5t79 130t123 57.5q70 0 110.5 -45.5t40.5 -125.5q0 -44 -13 -92h-325q-6 -28 -6 -61q0 -71 35.5 -113.5t101.5 -42.5q65 0 121 61l19 -21q-64 -67 -140 -67zM85 259
h296q7 35 7 61q0 66 -32.5 107t-91.5 41q-64 0 -114.5 -64.5t-64.5 -144.5zM387 682q-24 0 -36 17.5t-14.5 39t-11.5 39t-26 17.5q-43 0 -67 -107h-25q30 134 99 134q23 0 35 -17.5t14.5 -39t11.5 -39t26 -17.5q44 0 68 107h25q-28 -134 -99 -134z" />
    <glyph glyph-name="uni1EC6" unicode="&#x1ec6;" horiz-adv-x="444" 
d="M442 723h-23l-53 118l-101 -118h-28l115 144h36zM335 0h-309l147 667h309l-6 -30h-277l-62 -279h270l-7 -30h-270l-66 -298h277zM177 -141q0 -13 -9.5 -22.5t-22.5 -9.5q-11 0 -18.5 7.5t-7.5 18.5q0 13 9.5 22.5t22.5 9.5q11 0 18.5 -7.5t7.5 -18.5z" />
    <glyph glyph-name="uni1EC7" unicode="&#x1ec7;" 
d="M404 556h-23l-53 118l-101 -118h-28l115 144h36zM212 -12q-80 0 -125.5 48.5t-45.5 133.5q0 65 25 137.5t79 130t123 57.5q70 0 110.5 -45.5t40.5 -125.5q0 -44 -13 -92h-325q-6 -28 -6 -61q0 -71 35.5 -113.5t101.5 -42.5q65 0 121 61l19 -21q-64 -67 -140 -67zM85 259
h296q7 35 7 61q0 66 -32.5 107t-91.5 41q-64 0 -114.5 -64.5t-64.5 -144.5zM177 -141q0 -13 -9.5 -22.5t-22.5 -9.5q-11 0 -18.5 7.5t-7.5 18.5q0 13 9.5 22.5t22.5 9.5q11 0 18.5 -7.5t7.5 -18.5z" />
    <glyph glyph-name="uni1EC8" unicode="&#x1ec8;" horiz-adv-x="192" 
d="M58 0h-32l147 667h32zM173 768l-19 10q21 42 61 42q23 0 37.5 -13.5t14.5 -36.5q0 -39 -37 -73h-28q41 35 41 72q0 13 -8.5 21t-20.5 8q-25 0 -41 -30z" />
    <glyph glyph-name="uni1EC9" unicode="&#x1ec9;" horiz-adv-x="181" 
d="M52 0h-30l107 483h30zM130 598l-19 10q21 42 61 42q23 0 37.5 -13.5t14.5 -36.5q0 -39 -37 -73h-28q41 35 41 72q0 13 -8.5 21t-20.5 8q-25 0 -41 -30z" />
    <glyph glyph-name="uni1ECA" unicode="&#x1eca;" horiz-adv-x="192" 
d="M58 0h-32l147 667h32zM40 -141q0 -13 -9.5 -22.5t-22.5 -9.5q-11 0 -18.5 7.5t-7.5 18.5q0 13 9.5 22.5t22.5 9.5q11 0 18.5 -7.5t7.5 -18.5z" />
    <glyph glyph-name="uni1ECB" unicode="&#x1ecb;" horiz-adv-x="181" 
d="M165 566q-11 0 -19 7.5t-8 18.5q0 14 10.5 23t22.5 9q11 0 19 -7.5t8 -18.5q0 -14 -10.5 -23t-22.5 -9zM52 0h-30l107 483h30zM34 -141q0 -13 -9.5 -22.5t-22.5 -9.5q-11 0 -18.5 7.5t-7.5 18.5q0 13 9.5 22.5t22.5 9.5q11 0 18.5 -7.5t7.5 -18.5z" />
    <glyph glyph-name="uni1ECC" unicode="&#x1ecc;" horiz-adv-x="580" 
d="M258 -12q-89 0 -143 62t-54 166q0 76 21.5 157t59 149t95.5 112t123 44q89 0 143.5 -62.5t54.5 -165.5q0 -104 -36 -208.5t-107 -179t-157 -74.5zM261 18q71 0 132.5 66.5t95.5 165.5t34 201q0 93 -46 145t-121 52q-71 0 -132 -66.5t-94.5 -166t-33.5 -201.5
q0 -93 45.5 -144.5t119.5 -51.5zM234 -141q0 -13 -9.5 -22.5t-22.5 -9.5q-11 0 -18.5 7.5t-7.5 18.5q0 13 9.5 22.5t22.5 9.5q11 0 18.5 -7.5t7.5 -18.5z" />
    <glyph glyph-name="uni1ECD" unicode="&#x1ecd;" horiz-adv-x="461" 
d="M193 -12q-70 0 -111 45t-41 130q0 75 26.5 150t80 128.5t119.5 53.5q70 0 111 -45t41 -130q0 -75 -26.5 -150t-80 -128.5t-119.5 -53.5zM194 15q54 0 100 51t69 120.5t23 133.5q0 72 -31.5 110t-88.5 38q-54 0 -100 -51t-69 -120.5t-23 -133.5q0 -72 31.5 -110t88.5 -38z
M175 -141q0 -13 -9.5 -22.5t-22.5 -9.5q-11 0 -18.5 7.5t-7.5 18.5q0 13 9.5 22.5t22.5 9.5q11 0 18.5 -7.5t7.5 -18.5z" />
    <glyph glyph-name="uni1ECE" unicode="&#x1ece;" horiz-adv-x="580" 
d="M258 -12q-89 0 -143 62t-54 166q0 76 21.5 157t59 149t95.5 112t123 44q89 0 143.5 -62.5t54.5 -165.5q0 -104 -36 -208.5t-107 -179t-157 -74.5zM261 18q71 0 132.5 66.5t95.5 165.5t34 201q0 93 -46 145t-121 52q-71 0 -132 -66.5t-94.5 -166t-33.5 -201.5
q0 -93 45.5 -144.5t119.5 -51.5zM368 768l-19 10q21 42 61 42q23 0 37.5 -13.5t14.5 -36.5q0 -39 -37 -73h-28q41 35 41 72q0 13 -8.5 21t-20.5 8q-25 0 -41 -30z" />
    <glyph glyph-name="uni1ECF" unicode="&#x1ecf;" horiz-adv-x="461" 
d="M193 -12q-70 0 -111 45t-41 130q0 75 26.5 150t80 128.5t119.5 53.5q70 0 111 -45t41 -130q0 -75 -26.5 -150t-80 -128.5t-119.5 -53.5zM194 15q54 0 100 51t69 120.5t23 133.5q0 72 -31.5 110t-88.5 38q-54 0 -100 -51t-69 -120.5t-23 -133.5q0 -72 31.5 -110t88.5 -38z
M271 598l-19 10q21 42 61 42q23 0 37.5 -13.5t14.5 -36.5q0 -39 -37 -73h-28q41 35 41 72q0 13 -8.5 21t-20.5 8q-25 0 -41 -30z" />
    <glyph glyph-name="uni1ED0" unicode="&#x1ed0;" horiz-adv-x="580" 
d="M484 682h-23l-53 88l-101 -88h-28l115 108h36zM659 844l-167 -108h-29l151 108h45zM258 -12q-89 0 -143 62t-54 166q0 76 21.5 157t59 149t95.5 112t123 44q89 0 143.5 -62.5t54.5 -165.5q0 -104 -36 -208.5t-107 -179t-157 -74.5zM261 18q71 0 132.5 66.5t95.5 165.5
t34 201q0 93 -46 145t-121 52q-71 0 -132 -66.5t-94.5 -166t-33.5 -201.5q0 -93 45.5 -144.5t119.5 -51.5z" />
    <glyph glyph-name="uni1ED1" unicode="&#x1ed1;" horiz-adv-x="461" 
d="M402 556h-23l-53 118l-101 -118h-28l115 144h36zM579 771l-167 -144h-29l151 144h45zM193 -12q-70 0 -111 45t-41 130q0 75 26.5 150t80 128.5t119.5 53.5q70 0 111 -45t41 -130q0 -75 -26.5 -150t-80 -128.5t-119.5 -53.5zM194 15q54 0 100 51t69 120.5t23 133.5
q0 72 -31.5 110t-88.5 38q-54 0 -100 -51t-69 -120.5t-23 -133.5q0 -72 31.5 -110t88.5 -38z" />
    <glyph glyph-name="uni1ED2" unicode="&#x1ed2;" horiz-adv-x="580" 
d="M483 682h-23l-53 88l-101 -88h-28l115 108h36zM258 -12q-89 0 -143 62t-54 166q0 76 21.5 157t59 149t95.5 112t123 44q89 0 143.5 -62.5t54.5 -165.5q0 -104 -36 -208.5t-107 -179t-157 -74.5zM261 18q71 0 132.5 66.5t95.5 165.5t34 201q0 93 -46 145t-121 52
q-71 0 -132 -66.5t-94.5 -166t-33.5 -201.5q0 -93 45.5 -144.5t119.5 -51.5zM324 736h-27l-103 108h43z" />
    <glyph glyph-name="uni1ED3" unicode="&#x1ed3;" horiz-adv-x="461" 
d="M402 556h-23l-53 118l-101 -118h-28l115 144h36zM193 -12q-70 0 -111 45t-41 130q0 75 26.5 150t80 128.5t119.5 53.5q70 0 111 -45t41 -130q0 -75 -26.5 -150t-80 -128.5t-119.5 -53.5zM194 15q54 0 100 51t69 120.5t23 133.5q0 72 -31.5 110t-88.5 38q-54 0 -100 -51
t-69 -120.5t-23 -133.5q0 -72 31.5 -110t88.5 -38zM244 627h-27l-103 144h43z" />
    <glyph glyph-name="uni1ED4" unicode="&#x1ed4;" horiz-adv-x="580" 
d="M484 682h-23l-53 88l-101 -88h-28l115 108h36zM258 -12q-89 0 -143 62t-54 166q0 76 21.5 157t59 149t95.5 112t123 44q89 0 143.5 -62.5t54.5 -165.5q0 -104 -36 -208.5t-107 -179t-157 -74.5zM261 18q71 0 132.5 66.5t95.5 165.5t34 201q0 93 -46 145t-121 52
q-71 0 -132 -66.5t-94.5 -166t-33.5 -201.5q0 -93 45.5 -144.5t119.5 -51.5zM436 809l-19 8q21 31 61 31q23 0 37.5 -10t14.5 -27q0 -30 -37 -55h-28q41 27 41 54q0 22 -29 22q-25 0 -41 -23z" />
    <glyph glyph-name="uni1ED5" unicode="&#x1ed5;" horiz-adv-x="461" 
d="M402 556h-23l-53 118l-101 -118h-28l115 144h36zM193 -12q-70 0 -111 45t-41 130q0 75 26.5 150t80 128.5t119.5 53.5q70 0 111 -45t41 -130q0 -75 -26.5 -150t-80 -128.5t-119.5 -53.5zM194 15q54 0 100 51t69 120.5t23 133.5q0 72 -31.5 110t-88.5 38q-54 0 -100 -51
t-69 -120.5t-23 -133.5q0 -72 31.5 -110t88.5 -38zM349 738l-19 10q21 42 61 42q23 0 37.5 -13.5t14.5 -36.5q0 -39 -37 -73h-28q41 35 41 72q0 13 -8.5 21t-20.5 8q-25 0 -41 -30z" />
    <glyph glyph-name="uni1ED6" unicode="&#x1ed6;" horiz-adv-x="580" 
d="M479 678h-23l-53 59l-101 -59h-28l115 72h36zM258 -12q-89 0 -143 62t-54 166q0 76 21.5 157t59 149t95.5 112t123 44q89 0 143.5 -62.5t54.5 -165.5q0 -104 -36 -208.5t-107 -179t-157 -74.5zM261 18q71 0 132.5 66.5t95.5 165.5t34 201q0 93 -46 145t-121 52
q-71 0 -132 -66.5t-94.5 -166t-33.5 -201.5q0 -93 45.5 -144.5t119.5 -51.5zM452 757q-24 0 -36 8.5t-14.5 19.5t-11.5 19.5t-26 8.5q-43 0 -67 -53h-25q30 67 99 67q23 0 35 -9t14.5 -19.5t11.5 -19.5t26 -9q44 0 68 54h25q-28 -67 -99 -67z" />
    <glyph glyph-name="uni1ED7" unicode="&#x1ed7;" horiz-adv-x="461" 
d="M394 523h-23l-53 118l-101 -118h-28l115 144h36zM193 -12q-70 0 -111 45t-41 130q0 75 26.5 150t80 128.5t119.5 53.5q70 0 111 -45t41 -130q0 -75 -26.5 -150t-80 -128.5t-119.5 -53.5zM194 15q54 0 100 51t69 120.5t23 133.5q0 72 -31.5 110t-88.5 38q-54 0 -100 -51
t-69 -120.5t-23 -133.5q0 -72 31.5 -110t88.5 -38zM385 682q-24 0 -36 17.5t-14.5 39t-11.5 39t-26 17.5q-43 0 -67 -107h-25q30 134 99 134q23 0 35 -17.5t14.5 -39t11.5 -39t26 -17.5q44 0 68 107h25q-28 -134 -99 -134z" />
    <glyph glyph-name="uni1ED8" unicode="&#x1ed8;" horiz-adv-x="580" 
d="M499 723h-23l-53 118l-101 -118h-28l115 144h36zM258 -12q-89 0 -143 62t-54 166q0 76 21.5 157t59 149t95.5 112t123 44q89 0 143.5 -62.5t54.5 -165.5q0 -104 -36 -208.5t-107 -179t-157 -74.5zM261 18q71 0 132.5 66.5t95.5 165.5t34 201q0 93 -46 145t-121 52
q-71 0 -132 -66.5t-94.5 -166t-33.5 -201.5q0 -93 45.5 -144.5t119.5 -51.5zM234 -141q0 -13 -9.5 -22.5t-22.5 -9.5q-11 0 -18.5 7.5t-7.5 18.5q0 13 9.5 22.5t22.5 9.5q11 0 18.5 -7.5t7.5 -18.5z" />
    <glyph glyph-name="uni1ED9" unicode="&#x1ed9;" horiz-adv-x="461" 
d="M403 556h-23l-53 118l-101 -118h-28l115 144h36zM193 -12q-70 0 -111 45t-41 130q0 75 26.5 150t80 128.5t119.5 53.5q70 0 111 -45t41 -130q0 -75 -26.5 -150t-80 -128.5t-119.5 -53.5zM194 15q54 0 100 51t69 120.5t23 133.5q0 72 -31.5 110t-88.5 38q-54 0 -100 -51
t-69 -120.5t-23 -133.5q0 -72 31.5 -110t88.5 -38zM175 -141q0 -13 -9.5 -22.5t-22.5 -9.5q-11 0 -18.5 7.5t-7.5 18.5q0 13 9.5 22.5t22.5 9.5q11 0 18.5 -7.5t7.5 -18.5z" />
    <glyph glyph-name="uni1EDA" unicode="&#x1eda;" horiz-adv-x="580" 
d="M549 867l-167 -144h-29l151 144h45zM258 -12q-89 0 -143 62t-54 166q0 76 21.5 157t59 149t95.5 112t123 44q118 0 170 -103q50 34 60 77h-6q-10 0 -18 8.5t-8 19.5q0 15 10.5 25.5t24.5 10.5q32 0 32 -38q0 -35 -25 -71t-59 -56q17 -46 17 -101q0 -104 -36 -208.5
t-107 -179t-157 -74.5zM261 18q71 0 132.5 66.5t95.5 165.5t34 201q0 93 -46 145t-121 52q-71 0 -132 -66.5t-94.5 -166t-33.5 -201.5q0 -93 45.5 -144.5t119.5 -51.5z" />
    <glyph glyph-name="uni1EDB" unicode="&#x1edb;" horiz-adv-x="461" 
d="M453 700l-167 -144h-29l151 144h45zM473 544q0 -33 -22.5 -66.5t-53.5 -55.5q22 -42 22 -102q0 -75 -26.5 -150t-80 -128.5t-119.5 -53.5q-70 0 -111 45t-41 130q0 75 26.5 150t80 128.5t119.5 53.5q75 0 115 -51q46 32 56 74h-6q-10 0 -18 8.5t-8 19.5q0 15 10.5 25.5
t24.5 10.5q32 0 32 -38zM194 15q54 0 100 51t69 120.5t23 133.5q0 72 -31.5 110t-88.5 38q-54 0 -100 -51t-69 -120.5t-23 -133.5q0 -72 31.5 -110t88.5 -38z" />
    <glyph glyph-name="uni1EDC" unicode="&#x1edc;" horiz-adv-x="580" 
d="M258 -12q-89 0 -143 62t-54 166q0 76 21.5 157t59 149t95.5 112t123 44q118 0 170 -103q50 34 60 77h-6q-10 0 -18 8.5t-8 19.5q0 15 10.5 25.5t24.5 10.5q32 0 32 -38q0 -35 -25 -71t-59 -56q17 -46 17 -101q0 -104 -36 -208.5t-107 -179t-157 -74.5zM261 18
q71 0 132.5 66.5t95.5 165.5t34 201q0 93 -46 145t-121 52q-71 0 -132 -66.5t-94.5 -166t-33.5 -201.5q0 -93 45.5 -144.5t119.5 -51.5zM436 723h-27l-103 144h43z" />
    <glyph glyph-name="uni1EDD" unicode="&#x1edd;" horiz-adv-x="461" 
d="M473 544q0 -33 -22.5 -66.5t-53.5 -55.5q22 -42 22 -102q0 -75 -26.5 -150t-80 -128.5t-119.5 -53.5q-70 0 -111 45t-41 130q0 75 26.5 150t80 128.5t119.5 53.5q75 0 115 -51q46 32 56 74h-6q-10 0 -18 8.5t-8 19.5q0 15 10.5 25.5t24.5 10.5q32 0 32 -38zM194 15
q54 0 100 51t69 120.5t23 133.5q0 72 -31.5 110t-88.5 38q-54 0 -100 -51t-69 -120.5t-23 -133.5q0 -72 31.5 -110t88.5 -38zM342 556h-27l-103 144h43z" />
    <glyph glyph-name="uni1EDE" unicode="&#x1ede;" horiz-adv-x="580" 
d="M258 -12q-89 0 -143 62t-54 166q0 76 21.5 157t59 149t95.5 112t123 44q118 0 170 -103q50 34 60 77h-6q-10 0 -18 8.5t-8 19.5q0 15 10.5 25.5t24.5 10.5q32 0 32 -38q0 -35 -25 -71t-59 -56q17 -46 17 -101q0 -104 -36 -208.5t-107 -179t-157 -74.5zM261 18
q71 0 132.5 66.5t95.5 165.5t34 201q0 93 -46 145t-121 52q-71 0 -132 -66.5t-94.5 -166t-33.5 -201.5q0 -93 45.5 -144.5t119.5 -51.5zM367 768l-19 10q21 42 61 42q23 0 37.5 -13.5t14.5 -36.5q0 -39 -37 -73h-28q41 35 41 72q0 13 -8.5 21t-20.5 8q-25 0 -41 -30z" />
    <glyph glyph-name="uni1EDF" unicode="&#x1edf;" horiz-adv-x="461" 
d="M473 544q0 -33 -22.5 -66.5t-53.5 -55.5q22 -42 22 -102q0 -75 -26.5 -150t-80 -128.5t-119.5 -53.5q-70 0 -111 45t-41 130q0 75 26.5 150t80 128.5t119.5 53.5q75 0 115 -51q46 32 56 74h-6q-10 0 -18 8.5t-8 19.5q0 15 10.5 25.5t24.5 10.5q32 0 32 -38zM194 15
q54 0 100 51t69 120.5t23 133.5q0 72 -31.5 110t-88.5 38q-54 0 -100 -51t-69 -120.5t-23 -133.5q0 -72 31.5 -110t88.5 -38zM271 598l-19 10q21 42 61 42q23 0 37.5 -13.5t14.5 -36.5q0 -39 -37 -73h-28q41 35 41 72q0 13 -8.5 21t-20.5 8q-25 0 -41 -30z" />
    <glyph glyph-name="uni1EE0" unicode="&#x1ee0;" horiz-adv-x="580" 
d="M258 -12q-89 0 -143 62t-54 166q0 76 21.5 157t59 149t95.5 112t123 44q118 0 170 -103q50 34 60 77h-6q-10 0 -18 8.5t-8 19.5q0 15 10.5 25.5t24.5 10.5q32 0 32 -38q0 -35 -25 -71t-59 -56q17 -46 17 -101q0 -104 -36 -208.5t-107 -179t-157 -74.5zM261 18
q71 0 132.5 66.5t95.5 165.5t34 201q0 93 -46 145t-121 52q-71 0 -132 -66.5t-94.5 -166t-33.5 -201.5q0 -93 45.5 -144.5t119.5 -51.5zM453 721q-24 0 -36 17.5t-14.5 39t-11.5 39t-26 17.5q-43 0 -67 -107h-25q30 134 99 134q23 0 35 -17.5t14.5 -39t11.5 -39t26 -17.5
q44 0 68 107h25q-28 -134 -99 -134z" />
    <glyph glyph-name="uni1EE1" unicode="&#x1ee1;" horiz-adv-x="461" 
d="M473 544q0 -33 -22.5 -66.5t-53.5 -55.5q22 -42 22 -102q0 -75 -26.5 -150t-80 -128.5t-119.5 -53.5q-70 0 -111 45t-41 130q0 75 26.5 150t80 128.5t119.5 53.5q75 0 115 -51q46 32 56 74h-6q-10 0 -18 8.5t-8 19.5q0 15 10.5 25.5t24.5 10.5q32 0 32 -38zM194 15
q54 0 100 51t69 120.5t23 133.5q0 72 -31.5 110t-88.5 38q-54 0 -100 -51t-69 -120.5t-23 -133.5q0 -72 31.5 -110t88.5 -38zM348 554q-24 0 -36 17.5t-14.5 39t-11.5 39t-26 17.5q-43 0 -67 -107h-25q30 134 99 134q23 0 35 -17.5t14.5 -39t11.5 -39t26 -17.5q44 0 68 107
h25q-28 -134 -99 -134z" />
    <glyph glyph-name="uni1EE2" unicode="&#x1ee2;" horiz-adv-x="580" 
d="M258 -12q-89 0 -143 62t-54 166q0 76 21.5 157t59 149t95.5 112t123 44q118 0 170 -103q50 34 60 77h-6q-10 0 -18 8.5t-8 19.5q0 15 10.5 25.5t24.5 10.5q32 0 32 -38q0 -35 -25 -71t-59 -56q17 -46 17 -101q0 -104 -36 -208.5t-107 -179t-157 -74.5zM261 18
q71 0 132.5 66.5t95.5 165.5t34 201q0 93 -46 145t-121 52q-71 0 -132 -66.5t-94.5 -166t-33.5 -201.5q0 -93 45.5 -144.5t119.5 -51.5zM234 -141q0 -13 -9.5 -22.5t-22.5 -9.5q-11 0 -18.5 7.5t-7.5 18.5q0 13 9.5 22.5t22.5 9.5q11 0 18.5 -7.5t7.5 -18.5z" />
    <glyph glyph-name="uni1EE3" unicode="&#x1ee3;" horiz-adv-x="461" 
d="M473 544q0 -33 -22.5 -66.5t-53.5 -55.5q22 -42 22 -102q0 -75 -26.5 -150t-80 -128.5t-119.5 -53.5q-70 0 -111 45t-41 130q0 75 26.5 150t80 128.5t119.5 53.5q75 0 115 -51q46 32 56 74h-6q-10 0 -18 8.5t-8 19.5q0 15 10.5 25.5t24.5 10.5q32 0 32 -38zM194 15
q54 0 100 51t69 120.5t23 133.5q0 72 -31.5 110t-88.5 38q-54 0 -100 -51t-69 -120.5t-23 -133.5q0 -72 31.5 -110t88.5 -38zM175 -141q0 -13 -9.5 -22.5t-22.5 -9.5q-11 0 -18.5 7.5t-7.5 18.5q0 13 9.5 22.5t22.5 9.5q11 0 18.5 -7.5t7.5 -18.5z" />
    <glyph glyph-name="uni1EE4" unicode="&#x1ee4;" horiz-adv-x="534" 
d="M239 -12q-79 0 -126 44t-47 121q0 28 5 51l102 463h32l-102 -463q-5 -20 -5 -46q0 -65 38.5 -102.5t103.5 -37.5q72 0 112 45t61 141l102 463h32l-102 -463q-24 -110 -71.5 -163t-134.5 -53zM211 -141q0 -13 -9.5 -22.5t-22.5 -9.5q-11 0 -18.5 7.5t-7.5 18.5
q0 13 9.5 22.5t22.5 9.5q11 0 18.5 -7.5t7.5 -18.5z" />
    <glyph glyph-name="uni1EE5" unicode="&#x1ee5;" horiz-adv-x="435" 
d="M129 483h30l-81 -366q-5 -23 -5 -33q0 -69 79 -69q38 0 77.5 26.5t69.5 65.5l84 376h30l-107 -483h-30l16 72q-73 -84 -146 -84q-47 0 -75 23.5t-28 68.5q0 13 5 38zM161 -141q0 -13 -9.5 -22.5t-22.5 -9.5q-11 0 -18.5 7.5t-7.5 18.5q0 13 9.5 22.5t22.5 9.5
q11 0 18.5 -7.5t7.5 -18.5z" />
    <glyph glyph-name="uni1EE6" unicode="&#x1ee6;" horiz-adv-x="534" 
d="M239 -12q-79 0 -126 44t-47 121q0 28 5 51l102 463h32l-102 -463q-5 -20 -5 -46q0 -65 38.5 -102.5t103.5 -37.5q72 0 112 45t61 141l102 463h32l-102 -463q-24 -110 -71.5 -163t-134.5 -53zM345 768l-19 10q21 42 61 42q23 0 37.5 -13.5t14.5 -36.5q0 -39 -37 -73h-28
q41 35 41 72q0 13 -8.5 21t-20.5 8q-25 0 -41 -30z" />
    <glyph glyph-name="uni1EE7" unicode="&#x1ee7;" horiz-adv-x="435" 
d="M129 483h30l-81 -366q-5 -23 -5 -33q0 -69 79 -69q38 0 77.5 26.5t69.5 65.5l84 376h30l-107 -483h-30l16 72q-73 -84 -146 -84q-47 0 -75 23.5t-28 68.5q0 13 5 38zM258 598l-19 10q21 42 61 42q23 0 37.5 -13.5t14.5 -36.5q0 -39 -37 -73h-28q41 35 41 72q0 13 -8.5 21
t-20.5 8q-25 0 -41 -30z" />
    <glyph glyph-name="uni1EE8" unicode="&#x1ee8;" horiz-adv-x="534" 
d="M527 867l-167 -144h-29l151 144h45zM657 745q0 -43 -37 -84.5t-89 -63.5l-86 -393q-24 -110 -71.5 -163t-134.5 -53q-79 0 -126 44t-47 121q0 21 5 51l102 463h32l-102 -463q-5 -20 -5 -46q0 -65 38.5 -102.5t103.5 -37.5q72 0 112 45t61 141l102 463h32l-9 -38
q73 39 84 90h-6q-10 0 -18 8.5t-8 19.5q0 15 10.5 25.5t24.5 10.5q32 0 32 -38z" />
    <glyph glyph-name="uni1EE9" unicode="&#x1ee9;" horiz-adv-x="435" 
d="M440 700l-167 -144h-29l151 144h45zM516 544q0 -44 -35.5 -84.5t-86.5 -62.5l-88 -397h-30l16 72q-73 -84 -146 -84q-47 0 -75 23.5t-28 68.5q0 13 5 38l81 365h30l-81 -366q-5 -23 -5 -33q0 -69 79 -69q38 0 77.5 26.5t69.5 65.5l84 376h30l-12 -54q69 37 80 89h-6
q-10 0 -18 8.5t-8 19.5q0 15 10.5 25.5t24.5 10.5q32 0 32 -38z" />
    <glyph glyph-name="uni1EEA" unicode="&#x1eea;" horiz-adv-x="534" 
d="M413 723h-27l-103 144h43zM657 745q0 -43 -37 -84.5t-89 -63.5l-86 -393q-24 -110 -71.5 -163t-134.5 -53q-79 0 -126 44t-47 121q0 21 5 51l102 463h32l-102 -463q-5 -20 -5 -46q0 -65 38.5 -102.5t103.5 -37.5q72 0 112 45t61 141l102 463h32l-9 -38q73 39 84 90h-6
q-10 0 -18 8.5t-8 19.5q0 15 10.5 25.5t24.5 10.5q32 0 32 -38z" />
    <glyph glyph-name="uni1EEB" unicode="&#x1eeb;" horiz-adv-x="435" 
d="M328 556h-27l-103 144h43zM516 544q0 -44 -35.5 -84.5t-86.5 -62.5l-88 -397h-30l16 72q-73 -84 -146 -84q-47 0 -75 23.5t-28 68.5q0 13 5 38l81 365h30l-81 -366q-5 -23 -5 -33q0 -69 79 -69q38 0 77.5 26.5t69.5 65.5l84 376h30l-12 -54q69 37 80 89h-6q-10 0 -18 8.5
t-8 19.5q0 15 10.5 25.5t24.5 10.5q32 0 32 -38z" />
    <glyph glyph-name="uni1EEC" unicode="&#x1eec;" horiz-adv-x="534" 
d="M345 768l-19 10q21 42 61 42q23 0 37.5 -13.5t14.5 -36.5q0 -39 -37 -73h-28q41 35 41 72q0 13 -8.5 21t-20.5 8q-25 0 -41 -30zM657 745q0 -43 -37 -84.5t-89 -63.5l-86 -393q-24 -110 -71.5 -163t-134.5 -53q-79 0 -126 44t-47 121q0 21 5 51l102 463h32l-102 -463
q-5 -20 -5 -46q0 -65 38.5 -102.5t103.5 -37.5q72 0 112 45t61 141l102 463h32l-9 -38q73 39 84 90h-6q-10 0 -18 8.5t-8 19.5q0 15 10.5 25.5t24.5 10.5q32 0 32 -38z" />
    <glyph glyph-name="uni1EED" unicode="&#x1eed;" horiz-adv-x="435" 
d="M258 598l-19 10q21 42 61 42q23 0 37.5 -13.5t14.5 -36.5q0 -39 -37 -73h-28q41 35 41 72q0 13 -8.5 21t-20.5 8q-25 0 -41 -30zM516 544q0 -44 -35.5 -84.5t-86.5 -62.5l-88 -397h-30l16 72q-73 -84 -146 -84q-47 0 -75 23.5t-28 68.5q0 13 5 38l81 365h30l-81 -366
q-5 -23 -5 -33q0 -69 79 -69q38 0 77.5 26.5t69.5 65.5l84 376h30l-12 -54q69 37 80 89h-6q-10 0 -18 8.5t-8 19.5q0 15 10.5 25.5t24.5 10.5q32 0 32 -38z" />
    <glyph glyph-name="uni1EEE" unicode="&#x1eee;" horiz-adv-x="534" 
d="M657 745q0 -43 -37 -84.5t-89 -63.5l-86 -393q-24 -110 -71.5 -163t-134.5 -53q-79 0 -126 44t-47 121q0 21 5 51l102 463h32l-102 -463q-5 -20 -5 -46q0 -65 38.5 -102.5t103.5 -37.5q72 0 112 45t61 141l102 463h32l-9 -38q73 39 84 90h-6q-10 0 -18 8.5t-8 19.5
q0 15 10.5 25.5t24.5 10.5q32 0 32 -38zM430 721q-24 0 -36 17.5t-14.5 39t-11.5 39t-26 17.5q-43 0 -67 -107h-25q30 134 99 134q23 0 35 -17.5t14.5 -39t11.5 -39t26 -17.5q44 0 68 107h25q-28 -134 -99 -134z" />
    <glyph glyph-name="uni1EEF" unicode="&#x1eef;" horiz-adv-x="435" 
d="M516 544q0 -44 -35.5 -84.5t-86.5 -62.5l-88 -397h-30l16 72q-73 -84 -146 -84q-47 0 -75 23.5t-28 68.5q0 13 5 38l81 365h30l-81 -366q-5 -23 -5 -33q0 -69 79 -69q38 0 77.5 26.5t69.5 65.5l84 376h30l-12 -54q69 37 80 89h-6q-10 0 -18 8.5t-8 19.5q0 15 10.5 25.5
t24.5 10.5q32 0 32 -38zM343 554q-24 0 -36 17.5t-14.5 39t-11.5 39t-26 17.5q-43 0 -67 -107h-25q30 134 99 134q23 0 35 -17.5t14.5 -39t11.5 -39t26 -17.5q44 0 68 107h25q-28 -134 -99 -134z" />
    <glyph glyph-name="uni1EF0" unicode="&#x1ef0;" horiz-adv-x="534" 
d="M211 -141q0 -13 -9.5 -22.5t-22.5 -9.5q-11 0 -18.5 7.5t-7.5 18.5q0 13 9.5 22.5t22.5 9.5q11 0 18.5 -7.5t7.5 -18.5zM657 745q0 -43 -37 -84.5t-89 -63.5l-86 -393q-24 -110 -71.5 -163t-134.5 -53q-79 0 -126 44t-47 121q0 21 5 51l102 463h32l-102 -463
q-5 -20 -5 -46q0 -65 38.5 -102.5t103.5 -37.5q72 0 112 45t61 141l102 463h32l-9 -38q73 39 84 90h-6q-10 0 -18 8.5t-8 19.5q0 15 10.5 25.5t24.5 10.5q32 0 32 -38z" />
    <glyph glyph-name="uni1EF1" unicode="&#x1ef1;" horiz-adv-x="435" 
d="M161 -141q0 -13 -9.5 -22.5t-22.5 -9.5q-11 0 -18.5 7.5t-7.5 18.5q0 13 9.5 22.5t22.5 9.5q11 0 18.5 -7.5t7.5 -18.5zM516 544q0 -44 -35.5 -84.5t-86.5 -62.5l-88 -397h-30l16 72q-73 -84 -146 -84q-47 0 -75 23.5t-28 68.5q0 13 5 38l81 365h30l-81 -366
q-5 -23 -5 -33q0 -69 79 -69q38 0 77.5 26.5t69.5 65.5l84 376h30l-12 -54q69 37 80 89h-6q-10 0 -18 8.5t-8 19.5q0 15 10.5 25.5t24.5 10.5q32 0 32 -38z" />
    <glyph glyph-name="Ygrave" unicode="&#x1ef2;" horiz-adv-x="466" 
d="M195 0h-32l64 289l-122 378h35l108 -342l259 342h41l-289 -378zM380 723h-27l-103 144h43z" />
    <glyph glyph-name="ygrave" unicode="&#x1ef3;" horiz-adv-x="375" 
d="M-56 -187l12 28q11 -8 35 -8q19 0 33.5 12.5t33.5 45.5l56 98l-47 494h32l41 -445l239 445h36l-331 -602q-42 -77 -100 -77q-24 0 -40 9zM295 556h-27l-103 144h43z" />
    <glyph glyph-name="thinspace" unicode="&#x2009;" horiz-adv-x="44" 
 />
    <glyph glyph-name="endash" unicode="&#x2013;" horiz-adv-x="527" 
d="M493 227h-467l6 30h467z" />
    <glyph glyph-name="emdash" unicode="&#x2014;" horiz-adv-x="737" 
d="M703 227h-677l6 30h677z" />
    <glyph glyph-name="afii00208" unicode="&#x2015;" horiz-adv-x="527" 
d="M493 227h-467l6 30h467z" />
    <glyph glyph-name="quoteleft" unicode="&#x2018;" horiz-adv-x="208" 
d="M131 547q0 36 27 73.5t62 56.5l18 -20q-27 -15 -47 -38t-25 -46h6q10 0 18 -8.5t8 -19.5q0 -15 -10.5 -25.5t-24.5 -10.5q-32 0 -32 38z" />
    <glyph glyph-name="quoteright" unicode="&#x2019;" horiz-adv-x="208" 
d="M227 639q0 -36 -27 -73.5t-62 -56.5l-18 20q27 15 47 38t25 46h-6q-10 0 -18 8.5t-8 19.5q0 15 10.5 25.5t24.5 10.5q32 0 32 -38z" />
    <glyph glyph-name="quotesinglbase" unicode="&#x201a;" horiz-adv-x="208" 
d="M89 18q0 -36 -27 -73.5t-62 -56.5l-18 20q27 15 47 38t25 46h-6q-10 0 -18 8.5t-8 19.5q0 15 10.5 25.5t24.5 10.5q32 0 32 -38z" />
    <glyph glyph-name="quotereversed" unicode="&#x201b;" horiz-adv-x="208" 
d="M152 602q0 37 15 56t33 19q15 0 23 -8t8 -19q0 -15 -11 -25.5t-25 -10.5q-7 0 -16 3q-5 -23 4 -51t28 -47l-21 -15q-38 38 -38 98z" />
    <glyph glyph-name="quotedblleft" unicode="&#x201c;" horiz-adv-x="331" 
d="M259 547q0 36 27 73.5t62 56.5l18 -20q-27 -15 -47 -38t-25 -46h6q10 0 18 -8.5t8 -19.5q0 -15 -10.5 -25.5t-24.5 -10.5q-32 0 -32 38zM137 547q0 36 27 73.5t62 56.5l18 -20q-27 -15 -47 -38t-25 -46h6q10 0 18 -8.5t8 -19.5q0 -15 -10.5 -25.5t-24.5 -10.5
q-32 0 -32 38z" />
    <glyph glyph-name="quotedblright" unicode="&#x201d;" horiz-adv-x="331" 
d="M227 639q0 -36 -27 -73.5t-62 -56.5l-18 20q27 15 47 38t25 46h-6q-10 0 -18 8.5t-8 19.5q0 15 10.5 25.5t24.5 10.5q32 0 32 -38zM349 639q0 -36 -27 -73.5t-62 -56.5l-18 20q27 15 47 38t25 46h-6q-10 0 -18 8.5t-8 19.5q0 15 10.5 25.5t24.5 10.5q32 0 32 -38z" />
    <glyph glyph-name="quotedblbase" unicode="&#x201e;" horiz-adv-x="331" 
d="M89 18q0 -36 -27 -73.5t-62 -56.5l-18 20q27 15 47 38t25 46h-6q-10 0 -18 8.5t-8 19.5q0 15 10.5 25.5t24.5 10.5q32 0 32 -38zM211 18q0 -36 -27 -73.5t-62 -56.5l-18 20q27 15 47 38t25 46h-6q-10 0 -18 8.5t-8 19.5q0 15 10.5 25.5t24.5 10.5q32 0 32 -38z" />
    <glyph glyph-name="dagger" unicode="&#x2020;" horiz-adv-x="251" 
d="M291 539l-88 4l-44 -216h-31l52 216l-90 -4l6 27l88 -3l22 114h31l-30 -114l90 3z" />
    <glyph glyph-name="daggerdbl" unicode="&#x2021;" horiz-adv-x="251" 
d="M297 566l-6 -27l-88 4l-51 -229l90 4l-6 -27l-88 3l-22 -114h-31l30 114l-90 -3l6 27l88 -4l51 229l-90 -4l6 27l88 -3l22 114h31l-30 -114z" />
    <glyph glyph-name="bullet" unicode="&#x2022;" horiz-adv-x="358" 
d="M278 252q0 -43 -33 -75t-77 -32q-38 0 -63 25.5t-25 62.5q0 43 33 75t77 32q38 0 63 -25t25 -63z" />
    <glyph glyph-name="ellipsis" unicode="&#x2026;" horiz-adv-x="624" 
d="M52 -9q-13 0 -21.5 8.5t-8.5 21.5q0 15 10.5 25t25.5 10q13 0 21.5 -8.5t8.5 -21.5q0 -15 -10.5 -25t-25.5 -10zM260 -9q-13 0 -21.5 8.5t-8.5 21.5q0 15 10.5 25t25.5 10q13 0 21.5 -8.5t8.5 -21.5q0 -15 -10.5 -25t-25.5 -10zM468 -9q-13 0 -21.5 8.5t-8.5 21.5
q0 15 10.5 25t25.5 10q13 0 21.5 -8.5t8.5 -21.5q0 -15 -10.5 -25t-25.5 -10z" />
    <glyph glyph-name="perthousand" unicode="&#x2030;" horiz-adv-x="934" 
d="M107 0h-34l495 667h35zM423 -12q-54 0 -86 36t-32 89q0 85 48 143t109 58q54 0 85.5 -35.5t31.5 -89.5q0 -85 -47.5 -143t-108.5 -58zM423 15q48 0 85.5 50t37.5 122q0 47 -23.5 73.5t-61.5 26.5q-48 0 -85.5 -50t-37.5 -121q0 -47 23.5 -74t61.5 -27zM209 351
q-54 0 -85.5 35.5t-31.5 89.5q0 85 47.5 143t108.5 58q54 0 86 -36t32 -89q0 -85 -48 -143t-109 -58zM210 378q48 0 85.5 50t37.5 122q0 47 -23.5 73.5t-61.5 26.5q-48 0 -85.5 -50t-37.5 -121q0 -47 23.5 -74t61.5 -27zM725 -12q-54 0 -86 36t-32 89q0 85 48 143t109 58
q54 0 85.5 -35.5t31.5 -89.5q0 -85 -47.5 -143t-108.5 -58zM725 15q48 0 85.5 50t37.5 122q0 47 -23.5 73.5t-61.5 26.5q-48 0 -85.5 -50t-37.5 -121q0 -47 23.5 -74t61.5 -27z" />
    <glyph glyph-name="guilsinglleft" unicode="&#x2039;" horiz-adv-x="221" 
d="M147 63h-33l-85 180l165 177h39l-168 -181z" />
    <glyph glyph-name="guilsinglright" unicode="&#x203a;" horiz-adv-x="221" 
d="M75 420h33l85 -180l-165 -177h-39l169 182z" />
    <glyph glyph-name="uni203E" unicode="&#x203e;" horiz-adv-x="302" 
d="M375 581h-300l6 27h300z" />
    <glyph glyph-name="fraction" unicode="&#x2044;" horiz-adv-x="111" 
d="M340 667l-496 -667h-34l495 667h35z" />
    <glyph glyph-name="zerosuperior" unicode="&#x2070;" horiz-adv-x="310" 
d="M365 692q0 -37 -10 -82t-28.5 -90.5t-53 -75.5t-76.5 -30q-103 0 -103 135q0 38 10 83t28.5 90t53 75t76.5 30q103 0 103 -135zM335 696q0 105 -75 105q-34 0 -61.5 -29t-43 -71t-23.5 -83t-8 -73q0 -105 74 -105q34 0 62 29t43.5 71.5t23.5 83.5t8 72z" />
    <glyph glyph-name="foursuperior" unicode="&#x2074;" horiz-adv-x="310" 
d="M333 534h-50l-25 -113h-29l25 113h-165l5 27l214 260h38l-58 -261h50zM259 560l50 223l-185 -223h135z" />
    <glyph glyph-name="fivesuperior" unicode="&#x2075;" horiz-adv-x="310" 
d="M330 572q0 -63 -38.5 -110.5t-96.5 -47.5q-84 0 -109 71l25 14q22 -59 87 -59q44 0 73 39.5t29 90.5q0 36 -21 55t-53 19q-45 0 -82 -41l-21 11l46 207h197l-6 -26h-168l-34 -159q31 33 76 33q40 0 68 -25.5t28 -71.5z" />
    <glyph glyph-name="sixsuperior" unicode="&#x2076;" horiz-adv-x="310" 
d="M334 572q0 -57 -35 -107.5t-97 -50.5q-52 0 -78 33t-26 91q0 59 18.5 124t59.5 115t93 50q34 0 60.5 -14.5t36.5 -39.5l-23 -18q-16 46 -74 46q-30 0 -55 -20t-40 -51.5t-24.5 -59.5t-13.5 -55q0 -2 -0.5 -5.5t-0.5 -4.5q45 63 103 63q42 0 69 -24.5t27 -71.5zM303 570
q0 36 -20 54t-55 18q-51 0 -98 -72q-4 -13 -4 -37q0 -41 20.5 -67t57.5 -26q44 0 71.5 41.5t27.5 88.5z" />
    <glyph glyph-name="sevensuperior" unicode="&#x2077;" horiz-adv-x="284" 
d="M364 801l-227 -380h-32l224 374h-188l6 26h221z" />
    <glyph glyph-name="eightsuperior" unicode="&#x2078;" horiz-adv-x="310" 
d="M324 532q0 -50 -36 -84t-88 -34q-50 0 -81 25t-31 68q0 46 33.5 80t80.5 43q-62 30 -62 83q0 51 35.5 82.5t81.5 31.5q44 0 75.5 -22.5t31.5 -65.5q0 -41 -28 -72.5t-78 -42.5q27 -12 46.5 -36.5t19.5 -55.5zM334 736q0 33 -21.5 49t-55.5 16q-37 0 -62.5 -26t-25.5 -62
q0 -29 22.5 -49t42.5 -26q40 8 70 32.5t30 65.5zM294 532q0 29 -19.5 51.5t-46.5 31.5q-46 -4 -78 -34.5t-32 -73.5q0 -30 23.5 -49t57.5 -19q37 0 66 27t29 66z" />
    <glyph glyph-name="ninesuperior" unicode="&#x2079;" horiz-adv-x="310" 
d="M126 671q0 57 34.5 107t96.5 50q52 0 78 -32.5t26 -90.5q0 -60 -18.5 -124.5t-59 -115t-92.5 -50.5q-35 0 -61.5 15t-36.5 40l23 18q18 -47 75 -47q39 0 69.5 36t43.5 75t19 76q2 6 2 10q-44 -64 -103 -64q-42 0 -69 25t-27 72zM156 673q0 -36 20 -54.5t55 -18.5
q52 0 99 72q4 20 4 37q0 41 -21 67t-58 26q-45 0 -72 -41.5t-27 -87.5z" />
    <glyph glyph-name="parenleftsuperior" unicode="&#x207d;" horiz-adv-x="122" 
d="M138 363l-17 -7q-25 65 -25 151q0 198 143 379l13 -7q-130 -202 -130 -382q0 -77 16 -134z" />
    <glyph glyph-name="parenrightsuperior" unicode="&#x207e;" horiz-adv-x="122" 
d="M158 879l16 7q25 -65 25 -151q0 -199 -142 -379l-13 7q130 202 130 382q0 77 -16 134z" />
    <glyph glyph-name="nsuperior" unicode="&#x207f;" horiz-adv-x="327" 
d="M285 326h-28l50 230q3 12 3 22q0 23 -14 35t-38 12q-48 0 -99 -62l-52 -237h-28l69 314h28l-10 -47q44 55 99 55q74 0 74 -63q0 -11 -4 -31z" />
    <glyph glyph-name="zeroinferior" unicode="&#x2080;" horiz-adv-x="310" 
d="M249 125q0 -37 -10 -82t-28.5 -90.5t-53 -75.5t-76.5 -30q-103 0 -103 135q0 38 10 83t28.5 90t53 75t76.5 30q103 0 103 -135zM219 129q0 105 -75 105q-34 0 -61.5 -29t-43 -71t-23.5 -83t-8 -73q0 -105 74 -105q34 0 62 29t43.5 71.5t23.5 83.5t8 72z" />
    <glyph glyph-name="oneinferior" unicode="&#x2081;" horiz-adv-x="191" 
d="M45 -146h-30l78 356l-74 -65l-16 21l103 88h27z" />
    <glyph glyph-name="twoinferior" unicode="&#x2082;" horiz-adv-x="310" 
d="M182 -146h-224l5 26q19 17 50 43.5t46.5 40t39.5 35t36 33.5t28.5 29.5t24.5 29t16.5 26t11.5 26.5t3 25q0 32 -22 49t-53 17q-56 0 -94 -50l-19 19q47 57 113 57q41 0 73 -23t32 -69q0 -18 -5 -35t-20 -38t-26 -35.5t-39.5 -41t-43.5 -40t-54.5 -48t-57.5 -50.5h184z
" />
    <glyph glyph-name="threeinferior" unicode="&#x2083;" horiz-adv-x="310" 
d="M209 -26q0 -47 -33.5 -87t-89.5 -40q-88 0 -117 72l25 14q26 -60 92 -60q43 0 68 33t25 76q0 31 -22.5 48.5t-56.5 17.5q-20 0 -26 -1l6 27q10 -1 42 -1q40 0 67.5 26t27.5 68q0 30 -22 48.5t-56 18.5q-49 0 -93 -49l-18 19q48 56 112 56q47 0 76.5 -23.5t29.5 -67.5
q0 -42 -27 -73.5t-70 -38.5q25 -6 42.5 -28.5t17.5 -54.5z" />
    <glyph glyph-name="fourinferior" unicode="&#x2084;" horiz-adv-x="310" 
d="M217 -33h-50l-25 -113h-29l25 113h-165l5 27l214 260h38l-58 -261h50zM143 -7l50 223l-185 -223h135z" />
    <glyph glyph-name="fiveinferior" unicode="&#x2085;" horiz-adv-x="310" 
d="M214 5q0 -63 -38.5 -110.5t-96.5 -47.5q-84 0 -109 71l25 14q22 -59 87 -59q44 0 73 39.5t29 90.5q0 36 -21 55t-53 19q-45 0 -82 -41l-21 11l46 207h197l-6 -26h-168l-34 -159q31 33 76 33q40 0 68 -25.5t28 -71.5z" />
    <glyph glyph-name="sixinferior" unicode="&#x2086;" horiz-adv-x="310" 
d="M218 5q0 -57 -35 -107.5t-97 -50.5q-52 0 -78 33t-26 91q0 59 18.5 124t59.5 115t93 50q34 0 60.5 -14.5t36.5 -39.5l-23 -18q-16 46 -74 46q-30 0 -55 -20t-40 -51.5t-24.5 -59.5t-13.5 -55q0 -2 -0.5 -5.5t-0.5 -4.5q45 63 103 63q42 0 69 -24.5t27 -71.5zM187 3
q0 36 -20 54t-55 18q-51 0 -98 -72q-4 -13 -4 -37q0 -41 20.5 -67t57.5 -26q44 0 71.5 41.5t27.5 88.5z" />
    <glyph glyph-name="seveninferior" unicode="&#x2087;" horiz-adv-x="284" 
d="M248 234l-227 -380h-32l224 374h-188l6 26h221z" />
    <glyph glyph-name="eightinferior" unicode="&#x2088;" horiz-adv-x="310" 
d="M208 -35q0 -50 -36 -84t-88 -34q-50 0 -81 25t-31 68q0 46 33.5 80t80.5 43q-62 30 -62 83q0 51 35.5 82.5t81.5 31.5q44 0 75.5 -22.5t31.5 -65.5q0 -41 -28 -72.5t-78 -42.5q27 -12 46.5 -36.5t19.5 -55.5zM218 169q0 33 -21.5 49t-55.5 16q-37 0 -62.5 -26t-25.5 -62
q0 -29 22.5 -49t42.5 -26q40 8 70 32.5t30 65.5zM178 -35q0 29 -19.5 51.5t-46.5 31.5q-46 -4 -78 -34.5t-32 -73.5q0 -30 23.5 -49t57.5 -19q37 0 66 27t29 66z" />
    <glyph glyph-name="nineinferior" unicode="&#x2089;" horiz-adv-x="310" 
d="M10 104q0 57 34.5 107t96.5 50q52 0 78 -32.5t26 -90.5q0 -60 -18.5 -124.5t-59 -115t-92.5 -50.5q-35 0 -61.5 15t-36.5 40l23 18q18 -47 75 -47q39 0 69.5 36t43.5 75t19 76q2 6 2 10q-44 -64 -103 -64q-42 0 -69 25t-27 72zM40 106q0 -36 20 -54.5t55 -18.5
q52 0 99 72q4 20 4 37q0 41 -21 67t-58 26q-45 0 -72 -41.5t-27 -87.5z" />
    <glyph glyph-name="parenleftinferior" unicode="&#x208d;" horiz-adv-x="122" 
d="M13 -204l-17 -7q-25 65 -25 151q0 198 143 379l13 -7q-130 -202 -130 -382q0 -77 16 -134z" />
    <glyph glyph-name="parenrightinferior" unicode="&#x208e;" horiz-adv-x="122" 
d="M33 312l16 7q25 -65 25 -151q0 -199 -142 -379l-13 7q130 202 130 382q0 77 -16 134z" />
    <glyph glyph-name="colonmonetary" unicode="&#x20a1;" horiz-adv-x="495" 
d="M254 -12q-25 0 -55 7l-47 -95h-32l51 104q-31 14 -54 37l-69 -141h-32l81 165q-40 57 -40 151q0 108 38 213.5t108 177t153 71.5q25 0 42 -4l47 94h33l-51 -103q31 -12 54 -34l68 137h33l-80 -160q20 -26 31 -56l-30 -12q-8 19 -17 34l-274 -552q19 -4 45 -4q76 0 150 82
l23 -19q-79 -93 -176 -93zM92 214q0 -68 23 -114l269 545q-15 3 -32 3q-69 0 -130 -67t-95.5 -167t-34.5 -200zM133 72q20 -26 52 -40l281 569q-22 25 -53 36z" />
    <glyph glyph-name="frenchfranc" unicode="&#x20a3;" horiz-adv-x="448" 
d="M74 0h-32l35 161h-77l6 27h77l106 479h309l-6 -30h-277l-62 -279h270l-7 -30h-270l-31 -140h180l-6 -27h-180z" />
    <glyph glyph-name="lira" unicode="&#x20a4;" horiz-adv-x="417" 
d="M41 323l7 30h77q-26 50 -26 96q0 90 57.5 159t137.5 69q53 0 94.5 -29t49.5 -75l-29 -14q-8 39 -38.5 63.5t-76.5 24.5q-63 0 -112 -55t-49 -141q0 -44 27 -98h152l-7 -30h-129q20 -44 20 -79v-6h90l-6 -30h-88q-10 -48 -43.5 -90t-71.5 -68q24 9 42 9q30 0 73.5 -21
t66.5 -21q47 0 84 41l13 -26q-47 -45 -100 -45q-39 0 -79.5 22t-74.5 22q-38 0 -96 -38l-10 31q58 27 105 78.5t59 105.5h-144l6 30h142v3q0 34 -23 82h-100z" />
    <glyph glyph-name="uni20A6" unicode="&#x20a6;" horiz-adv-x="575" 
d="M425 0h-32l-78 251h-186l-55 -251h-32l55 251h-77l6 27h77l26 119h-76l5 27h77l54 243h32l77 -243h187l55 243h32l-54 -243h75l-5 -27h-76l-26 -119h75l-6 -27h-75zM306 397l38 -119h109l26 119h-173zM162 397l-27 -119h172l-37 119h-108zM352 251l56 -176l39 176h-95z
M207 599l-39 -175h93z" />
    <glyph glyph-name="peseta" unicode="&#x20a7;" horiz-adv-x="505" 
d="M74 0h-32l102 463h-77l7 30h76l39 174h155q59 0 97.5 -42.5t38.5 -106.5q0 -17 -1 -25h72l-7 -30h-70q-16 -75 -68 -124.5t-137 -49.5h-131zM277 319q65 1 106.5 41.5t55.5 102.5h-263l-32 -144h133zM215 637l-32 -144h261q1 8 1 25q0 53 -30.5 86t-76.5 33h-123z" />
    <glyph glyph-name="rupee" unicode="&#x20a8;" horiz-adv-x="789" 
d="M567 -12q-102 0 -143 74l26 19q36 -66 118 -66q52 0 86 33.5t34 78.5q0 30 -19.5 54.5t-48 42.5t-56.5 36t-47.5 44.5t-19.5 58.5q0 56 39.5 94t105.5 38q44 0 78.5 -18.5t50.5 -47.5l-25 -19q-12 26 -42.5 42t-65.5 16q-49 0 -79.5 -27.5t-30.5 -69.5q0 -28 19.5 -51.5
t48 -41t56.5 -36.5t47.5 -46t19.5 -61q0 -61 -42 -104t-110 -43zM365 0h-35l-88 289h-120l-64 -289h-32l147 667h150q59 0 101 -41t42 -106q0 -93 -53 -157.5t-139 -71.5zM128 319h132q80 0 125 60t45 141q0 54 -31 85.5t-76 31.5h-124z" />
    <glyph glyph-name="uni20A9" unicode="&#x20a9;" horiz-adv-x="684" 
d="M455 0h-38l1 251h-148l-109 -251h-38l1 251h-94l6 27h88v119h-61l5 27h56l1 243h34l-3 -243h156l106 243h34l-3 -243h157l105 243h36l-107 -243h53l-5 -27h-60l-52 -119h85l-6 -27h-91zM449 397l-1 -119h95l51 119h-145zM156 397l-1 -119h94l51 119h-144zM334 397
l-52 -119h136l1 119h-85zM531 251h-83l-1 -195zM237 251h-82l-2 -195zM421 597l-76 -173h74z" />
    <glyph glyph-name="afii57636" unicode="&#x20aa;" horiz-adv-x="622" 
d="M359 0h-192l88 399h32l-82 -370h152q58 0 91.5 35t50.5 112l83 374h32l-82 -366q-21 -92 -60.5 -138t-112.5 -46zM143 550h145q66 0 106 -31.5t40 -95.5q0 -25 -9 -68l-44 -205h-32l48 217q6 30 6 50q0 52 -32 78t-84 26h-118l-115 -521h-32z" />
    <glyph glyph-name="dong" unicode="&#x20ab;" horiz-adv-x="468" 
d="M302 -119h-300l6 27h300zM258 495q44 0 78.5 -24.5t52.5 -68.5l30 139h-158l5 27h159l22 99h30l-22 -99h51l-4 -27h-53l-120 -541h-30l16 72q-55 -84 -136 -84q-63 0 -100.5 44.5t-37.5 121.5q0 73 25 150t76.5 134t115.5 57zM257 468q-53 0 -97 -54t-65 -125t-21 -134
q0 -68 29 -104t81 -36q40 0 79 29.5t63 72.5l55 251q-11 42 -45 71t-79 29z" />
    <glyph glyph-name="Euro" unicode="&#x20ac;" horiz-adv-x="525" 
d="M274 -12q-89 0 -143 60t-54 168q0 20 1 31h-49l7 30h44q6 57 23 114h-42l7 30h44q39 112 109 184.5t155 72.5q129 0 177 -126l-30 -12q-42 108 -151 108q-68 0 -127.5 -63.5t-95.5 -163.5h248l-7 -30h-251q-17 -57 -23 -114h249l-7 -30h-245q-1 -11 -1 -33
q0 -94 43.5 -145t121.5 -51q76 0 150 82l23 -19q-79 -93 -176 -93z" />
    <glyph glyph-name="afii61289" unicode="&#x2113;" horiz-adv-x="380" 
d="M176 532l-41 -183l154 104q55 38 80 64.5t25 57.5q0 32 -27.5 54t-64.5 22q-99 0 -126 -119zM301 430l-175 -121l-51 -228q-3 -15 -3 -27q0 -39 41 -39q25 0 45 20l15 -22q-26 -25 -62 -25q-31 0 -50 15.5t-19 45.5q0 14 3 32l101 452q15 68 54 106t102 38q48 0 85 -26.5
t37 -71.5q0 -39 -29 -70.5t-94 -78.5z" />
    <glyph glyph-name="afii61352" unicode="&#x2116;" horiz-adv-x="881" 
d="M743 350q-52 0 -81 32.5t-29 89.5q0 73 43.5 140.5t110.5 67.5q52 0 81 -32.5t29 -89.5q0 -72 -43.5 -140t-110.5 -68zM743 376q55 0 90 60t35 122q0 44 -22 69.5t-60 25.5q-55 0 -89 -59.5t-34 -121.5q0 -44 21.5 -70t58.5 -26zM409 0h-32l-186 599l-133 -599h-32
l147 667h32l187 -592l132 592h32z" />
    <glyph glyph-name="published" unicode="&#x2117;" horiz-adv-x="778" 
d="M754 334q0 -142 -101.5 -243.5t-244.5 -101.5q-142 0 -243 101t-101 244t101 244t243 101q143 0 244.5 -101.5t101.5 -243.5zM728 334q0 131 -94.5 225t-225.5 94t-224.5 -94t-93.5 -225t93.5 -225t224.5 -94t225.5 94t94.5 225zM587 436q0 -56 -40 -91t-101 -35h-124
l-39 -179h-29l89 405h125q53 0 86 -27.5t33 -72.5zM558 433q0 35 -26 54.5t-68 19.5h-98l-37 -168h122q49 0 78 26t29 68z" />
    </font>
</defs>
</svg>
