<?xml version="1.0" standalone="no"?>
<!DOCTYPE svg PUBLIC "-//W3C//DTD SVG 1.1//EN" "http://www.w3.org/Graphics/SVG/1.1/DTD/svg11.dtd" >
<svg xmlns="http://www.w3.org/2000/svg" xmlns:xlink="http://www.w3.org/1999/xlink" version="1.1">
<metadata>
Created by FontForge 20170731 at Tue Nov 30 17:19:27 2010
 By ,,,
Copyright (c) Mark Simonson, 2005. All rights reserved.
</metadata>
<defs>
<font id="ProximaNovaExCn-BlackIt" horiz-adv-x="462" >
  <font-face 
    font-family="Proxima Nova ExCn Bl"
    font-weight="900"
    font-style="italic"
    font-stretch="normal"
    units-per-em="1000"
    panose-1="2 0 5 6 3 0 0 2 0 4"
    ascent="790"
    descent="-210"
    x-height="483"
    cap-height="667"
    bbox="-151 -291 933 887"
    underline-thickness="20"
    underline-position="-173"
    unicode-range="U+000D-FB04"
  />
<missing-glyph horiz-adv-x="434" 
d="M412 -90h-351v842h351v-842zM380 -60v782h-288v-782h288z" />
    <glyph glyph-name="f_f_j" unicode="ffj" horiz-adv-x="778" 
d="M431 0h-157l76 346h-42l31 137h41l4 19q20 90 62 132.5t111 42.5q51 0 92 -17l-48 -121q-6 5 -17 5q-35 0 -43 -42l-4 -19h57l-31 -137h-56zM497 -196q-56 0 -83 22l51 118q6 -7 22 -7q30 0 41 50l110 496h158l-111 -496q-20 -93 -61.5 -138t-126.5 -45zM735 525
q-35 0 -58.5 22.5t-23.5 54.5q0 47 32.5 75.5t70.5 28.5q35 0 58 -22.5t23 -54.5q0 -47 -32 -75.5t-70 -28.5zM156 0h-157l76 346h-42l31 137h41l4 19q17 81 56.5 128t116.5 47q79 0 114 -31l-57 -115q-13 13 -28 13q-36 0 -45 -42l-4 -19h57l-31 -137h-56z" />
    <glyph glyph-name="f_j" unicode="fj" horiz-adv-x="503" 
d="M156 0h-157l76 346h-42l31 137h41l4 19q20 90 62 132.5t111 42.5q51 0 92 -17l-48 -121q-6 5 -17 5q-35 0 -43 -42l-4 -19h57l-31 -137h-56zM222 -196q-56 0 -83 22l51 118q6 -7 22 -7q30 0 41 50l110 496h158l-111 -496q-20 -93 -61.5 -138t-126.5 -45zM460 525
q-35 0 -58.5 22.5t-23.5 54.5q0 47 32.5 75.5t70.5 28.5q35 0 58 -22.5t23 -54.5q0 -47 -32 -75.5t-70 -28.5z" />
    <glyph glyph-name="f_f" unicode="ff" horiz-adv-x="550" 
d="M156 0h-157l76 346h-42l31 137h41l4 19q17 81 56.5 128t116.5 47q79 0 114 -31l-57 -115q-13 13 -28 13q-36 0 -45 -42l-4 -19h57l-31 -137h-56zM431 0h-157l76 346h-42l31 137h41l4 19q17 81 56.5 128t116.5 47q79 0 114 -31l-57 -115q-13 13 -28 13q-36 0 -45 -42
l-4 -19h57l-31 -137h-56z" />
    <glyph glyph-name="fi" unicode="fi" horiz-adv-x="503" 
d="M156 0h-157l76 346h-42l31 137h41l4 19q20 90 62 132.5t111 42.5q51 0 92 -17l-48 -121q-6 5 -17 5q-35 0 -43 -42l-4 -19h57l-31 -137h-56zM460 525q-35 0 -58.5 22.5t-23.5 54.5q0 47 32.5 75.5t70.5 28.5q35 0 58 -22.5t23 -54.5q0 -47 -32 -75.5t-70 -28.5zM414 0
h-158l107 483h158z" />
    <glyph glyph-name="fl" unicode="fl" horiz-adv-x="503" 
d="M156 0h-157l76 346h-42l31 137h41l4 19q20 90 62 132.5t111 42.5q51 0 92 -17l-48 -121q-6 5 -17 5q-35 0 -43 -42l-4 -19h57l-31 -137h-56zM414 0h-158l147 667h158z" />
    <glyph glyph-name="f_f_i" unicode="ffi" horiz-adv-x="778" 
d="M431 0h-157l76 346h-42l31 137h41l4 19q20 90 62 132.5t111 42.5q51 0 92 -17l-48 -121q-6 5 -17 5q-35 0 -43 -42l-4 -19h57l-31 -137h-56zM735 525q-35 0 -58.5 22.5t-23.5 54.5q0 47 32.5 75.5t70.5 28.5q35 0 58 -22.5t23 -54.5q0 -47 -32 -75.5t-70 -28.5zM689 0
h-158l107 483h158zM156 0h-157l76 346h-42l31 137h41l4 19q17 81 56.5 128t116.5 47q79 0 114 -31l-57 -115q-13 13 -28 13q-36 0 -45 -42l-4 -19h57l-31 -137h-56z" />
    <glyph glyph-name="f_f_l" unicode="ffl" horiz-adv-x="778" 
d="M431 0h-157l76 346h-42l31 137h41l4 19q20 90 62 132.5t111 42.5q51 0 92 -17l-48 -121q-6 5 -17 5q-35 0 -43 -42l-4 -19h57l-31 -137h-56zM689 0h-158l147 667h158zM156 0h-157l76 346h-42l31 137h41l4 19q17 81 56.5 128t116.5 47q79 0 114 -31l-57 -115
q-13 13 -28 13q-36 0 -45 -42l-4 -19h57l-31 -137h-56z" />
    <glyph glyph-name="f_b" unicode="fb" horiz-adv-x="737" 
d="M156 0h-157l76 346h-42l31 137h41l4 19q20 90 62 132.5t111 42.5q51 0 92 -17l-48 -121q-6 5 -17 5q-35 0 -43 -42l-4 -19h57l-31 -137h-56zM529 -12q-82 0 -104 67l-11 -55h-157l146 667h158l-53 -237q46 65 105 65q116 0 116 -165q0 -52 -12.5 -109.5t-36 -110.5
t-63.5 -87.5t-88 -34.5zM488 127q20 0 36 20.5t25 50t13.5 58t4.5 50.5q0 50 -40 50q-25 0 -42 -33l-36 -162q7 -34 39 -34z" />
    <glyph glyph-name="f_h" unicode="fh" horiz-adv-x="737" 
d="M156 0h-157l76 346h-42l31 137h41l4 19q20 90 62 132.5t111 42.5q51 0 92 -17l-48 -121q-6 5 -17 5q-35 0 -43 -42l-4 -19h57l-31 -137h-56zM648 0h-158l70 316l1 6q1 7 1 9q0 25 -23 25q-29 0 -57 -47l-68 -309h-158l147 667h158l-54 -241q22 28 56.5 48.5t70.5 20.5
q46 0 73 -25t27 -64q0 -11 -3 -26z" />
    <glyph glyph-name="f_k" unicode="fk" horiz-adv-x="720" 
d="M156 0h-157l76 346h-42l31 137h41l4 19q20 90 62 132.5t111 42.5q51 0 92 -17l-48 -121q-6 5 -17 5q-35 0 -43 -42l-4 -19h57l-31 -137h-56zM671 0h-171l-16 169l-48 -67l-22 -102h-158l147 667h158l-78 -355l109 171h177l-155 -213z" />
    <glyph glyph-name=".notdef" horiz-adv-x="434" 
d="M412 -90h-351v842h351v-842zM380 -60v782h-288v-782h288z" />
    <glyph glyph-name=".null" horiz-adv-x="0" 
 />
    <glyph glyph-name=".null" horiz-adv-x="0" 
 />
    <glyph glyph-name="nonmarkingreturn" horiz-adv-x="333" 
 />
    <glyph glyph-name="CR" unicode="&#xd;" horiz-adv-x="0" 
 />
    <glyph glyph-name="space" unicode=" " horiz-adv-x="154" 
 />
    <glyph glyph-name="exclam" unicode="!" horiz-adv-x="270" 
d="M204 235h-141l71 432h190zM90 -12q-37 0 -62 25.5t-25 61.5q0 43 31 74t73 31q37 0 62 -26t25 -63q0 -42 -31 -72.5t-73 -30.5z" />
    <glyph glyph-name="quotedbl" unicode="&#x22;" horiz-adv-x="442" 
d="M177 355h-66q2 207 2 227q1 40 28.5 67.5t66.5 27.5q30 0 51 -21t21 -53q0 -18 -8 -34zM379 355h-65q2 207 2 227q0 40 28 67.5t67 27.5q29 0 50.5 -21t21.5 -53q0 -10 -8 -34z" />
    <glyph glyph-name="numbersign" unicode="#" horiz-adv-x="487" 
d="M251 0h-113l75 163h-55l-73 -163h-113l74 163h-50l44 97h51l65 146h-51l42 96h53l74 165h113l-74 -165h54l73 165h113l-74 -165h51l-42 -96h-53l-66 -146h55l-45 -97h-55zM257 260l65 146h-54l-65 -146h54z" />
    <glyph glyph-name="dollar" unicode="$" horiz-adv-x="435" 
d="M89 -100l21 95q-94 19 -138 77l97 130q19 -26 49 -42t60 -16q22 0 36 14t14 36q0 20 -25.5 44.5t-56 47t-56 63.5t-25.5 91q0 88 55 154.5t141 80.5l21 93h114l-22 -100q70 -18 112 -63l-91 -131q-37 48 -95 48q-23 0 -35 -13.5t-12 -32.5q0 -18 16.5 -37t40 -38
t47 -41.5t40 -56.5t16.5 -75q0 -87 -52 -154t-138 -82l-20 -92h-114z" />
    <glyph glyph-name="percent" unicode="%" horiz-adv-x="604" 
d="M136 0h-60l431 667h61zM414 -12q-57 0 -90 36t-33 92q0 86 48.5 146t113.5 60q57 0 90 -36t33 -92q0 -86 -48.5 -146t-113.5 -60zM421 82q19 0 37.5 31.5t18.5 71.5q0 43 -32 43q-19 0 -37 -31.5t-18 -70.5q0 -44 31 -44zM189 342q-56 0 -89.5 36.5t-33.5 92.5
q0 86 48.5 146t114.5 60q56 0 89.5 -36t33.5 -92q0 -86 -49 -146.5t-114 -60.5zM197 437q19 0 37 31.5t18 70.5q0 44 -31 44q-19 0 -37 -31.5t-18 -71.5q0 -43 31 -43z" />
    <glyph glyph-name="ampersand" unicode="&#x26;" horiz-adv-x="495" 
d="M444 0h-154l-9 19q-57 -31 -119 -31q-75 0 -120.5 43t-45.5 120q0 87 42.5 139.5t116.5 93.5q-11 52 -11 90q0 86 54.5 144.5t130.5 58.5q65 0 104 -38t39 -105q0 -37 -13 -67t-41 -54.5t-50 -39t-62 -35.5q3 -9 14 -41l18 -49q18 32 47 93l109 -68q-49 -97 -103 -159
q18 -41 53 -114zM203 110q17 0 34 11q-20 50 -28 75q-1 4 -9 27t-12 35q-33 -35 -33 -80q0 -27 13 -47.5t35 -20.5zM278 475q0 -17 1 -26q59 37 59 82q0 35 -21 35q-15 0 -27 -27.5t-12 -63.5z" />
    <glyph glyph-name="quotesingle" unicode="'" horiz-adv-x="241" 
d="M177 355h-66q2 207 2 227q1 40 28.5 67.5t66.5 27.5q30 0 51 -21t21 -53q0 -18 -8 -34z" />
    <glyph glyph-name="parenleft" unicode="(" horiz-adv-x="306" 
d="M197 -157l-126 -42q-46 122 -46 262q0 340 241 622l105 -64q-85 -140 -134 -307t-49 -324q0 -70 9 -147z" />
    <glyph glyph-name="parenright" unicode=")" horiz-adv-x="306" 
d="M109 643l126 42q46 -122 46 -262q0 -340 -241 -622l-105 64q85 140 134 306.5t49 324.5q0 82 -9 147z" />
    <glyph glyph-name="asterisk" unicode="*" horiz-adv-x="338" 
d="M230 353h-75l29 111l-103 -46l-21 66l105 38l-84 58l51 58l76 -65l19 104h75l-31 -112l103 48l22 -67l-103 -38l82 -58l-51 -58l-77 65z" />
    <glyph glyph-name="plus" unicode="+" horiz-adv-x="388" 
d="M369 291h-113l-31 -138h-104l31 138h-113l21 93h113l29 130h103l-29 -130h113z" />
    <glyph glyph-name="comma" unicode="," horiz-adv-x="270" 
d="M200 85q0 -63 -46 -125t-118 -97l-54 56q81 35 106 84q-3 -1 -12 -1q-31 0 -52 20t-21 57q0 41 32.5 71t73.5 30q38 0 64.5 -25t26.5 -70z" />
    <glyph glyph-name="hyphen" unicode="-" horiz-adv-x="247" 
d="M202 176h-187l29 132h187z" />
    <glyph glyph-name="period" unicode="." horiz-adv-x="270" 
d="M90 -12q-36 0 -61.5 25.5t-25.5 61.5q0 43 31.5 74t73.5 31q37 0 62 -26t25 -63q0 -42 -31 -72.5t-74 -30.5z" />
    <glyph glyph-name="slash" unicode="/" horiz-adv-x="254" 
d="M50 -20h-110l303 707h111z" />
    <glyph glyph-name="zero" unicode="0" horiz-adv-x="495" 
d="M214 -12q-86 0 -138.5 63.5t-52.5 176.5q0 112 38.5 215t108 168.5t150.5 65.5q86 0 138 -63t52 -176t-38.5 -216t-107.5 -168.5t-150 -65.5zM230 144q30 0 56.5 68.5t39 142t12.5 113.5q0 53 -35 53q-30 0 -56.5 -68t-39 -141.5t-12.5 -113.5q0 -54 35 -54z" />
    <glyph glyph-name="one" unicode="1" horiz-adv-x="405" 
d="M310 0h-177l97 442l-104 -87l-77 104l256 208h152z" />
    <glyph glyph-name="two" unicode="2" horiz-adv-x="491" 
d="M414 0h-437l40 175q26 19 63 47t58 44t49.5 38t44.5 35t35.5 30.5t29.5 29t20 25t14 24.5t4 22q0 51 -59 51q-64 0 -114 -53l-82 117q90 92 215 92q100 0 162 -49t62 -137q0 -31 -7 -58.5t-26 -56t-36.5 -50t-55.5 -54.5t-64 -54t-81 -64h199z" />
    <glyph glyph-name="three" unicode="3" horiz-adv-x="490" 
d="M222 -12q-82 0 -151.5 36.5t-91.5 98.5l137 92q14 -33 42.5 -52t63.5 -19t52.5 21.5t17.5 48.5q0 22 -18.5 33.5t-45.5 11.5q-31 0 -43 -1l35 157q7 -1 57 -1q33 0 50 18t17 44q0 45 -72 45q-55 0 -92 -40l-89 106q93 90 211 90q98 0 159.5 -42.5t61.5 -119.5
q0 -71 -48.5 -119.5t-109.5 -57.5q50 -16 74 -53t24 -80q0 -92 -70 -154.5t-171 -62.5z" />
    <glyph glyph-name="four" unicode="4" horiz-adv-x="495" 
d="M377 0h-177l26 120h-237l38 169l284 378h213l-87 -393h47l-34 -154h-47zM260 274l43 193l-138 -193h95z" />
    <glyph glyph-name="five" unicode="5" horiz-adv-x="498" 
d="M221 -12q-88 0 -148.5 35t-88.5 99l133 93q15 -33 43 -52t58 -19q35 0 57.5 27t22.5 65q0 25 -15 40.5t-43 15.5q-42 0 -76 -40l-120 41l83 374h409l-34 -154h-232l-27 -122q36 43 100 43t102.5 -45t38.5 -126q0 -114 -72.5 -194.5t-190.5 -80.5z" />
    <glyph glyph-name="six" unicode="6" horiz-adv-x="491" 
d="M230 -12q-99 0 -154.5 62t-55.5 179q0 57 12.5 117.5t39 120t64.5 106t93.5 75.5t120.5 29q117 0 177 -78l-112 -121q-20 43 -74 43q-36 0 -68 -34.5t-49 -87.5q-4 -9 -8 -30q22 33 55.5 51t68.5 18q60 0 99 -43.5t39 -115.5q0 -115 -69 -203t-179 -88zM232 144
q28 0 45.5 33t17.5 65q0 24 -11.5 39.5t-32.5 15.5q-31 0 -56 -43q-5 -17 -5 -47q0 -63 42 -63z" />
    <glyph glyph-name="seven" unicode="7" horiz-adv-x="451" 
d="M205 0h-194l285 513h-223l34 154h423l-27 -122z" />
    <glyph glyph-name="eight" unicode="8" horiz-adv-x="491" 
d="M225 -12q-114 0 -172 39.5t-58 125.5q0 64 42 122t121 81q-35 16 -57.5 50t-22.5 77q0 87 69.5 140.5t160.5 53.5q57 0 104 -14.5t81 -52.5t34 -95q0 -66 -43 -118t-110 -64q88 -44 88 -141q0 -89 -65 -146.5t-172 -57.5zM279 397q67 25 67 84q0 40 -41 40
q-27 0 -43 -20.5t-16 -50.5q0 -32 33 -53zM224 144q27 0 46 23.5t19 59.5q0 23 -12 37.5t-24 18.5q-30 -7 -52.5 -30.5t-22.5 -62.5q0 -46 46 -46z" />
    <glyph glyph-name="nine" unicode="9" horiz-adv-x="491" 
d="M300 678q99 0 154.5 -62t55.5 -179q0 -57 -12.5 -117.5t-39 -120t-64.5 -106t-93.5 -75.5t-120.5 -29q-117 0 -177 78l112 121q20 -43 74 -43q36 0 68 34.5t49 86.5q4 10 8 31q-22 -33 -55.5 -51t-68.5 -18q-60 0 -99 43.5t-39 115.5q0 115 69 203t179 88zM298 522
q-27 0 -44.5 -32.5t-17.5 -65.5q0 -24 11 -39.5t32 -15.5q31 0 56 42q5 18 5 48q0 63 -42 63z" />
    <glyph glyph-name="colon" unicode=":" horiz-adv-x="270" 
d="M90 -12q-36 0 -61.5 25.5t-25.5 61.5q0 43 31 74t74 31q36 0 61.5 -26t25.5 -63q0 -42 -31 -72.5t-74 -30.5zM158 297q-36 0 -61.5 26t-25.5 62q0 43 31 74t74 31q36 0 61.5 -26t25.5 -63q0 -42 -31 -73t-74 -31z" />
    <glyph glyph-name="semicolon" unicode=";" horiz-adv-x="270" 
d="M200 85q0 -63 -46 -125t-118 -97l-54 56q81 35 106 84q-3 -1 -12 -1q-31 0 -52 20t-21 57q0 41 32.5 71t73.5 30q38 0 64.5 -25t26.5 -70zM159 297q-36 0 -61.5 26t-25.5 62q0 43 31 74t74 31q36 0 61.5 -26t25.5 -63q0 -42 -31 -73t-74 -31z" />
    <glyph glyph-name="less" unicode="&#x3c;" horiz-adv-x="388" 
d="M337 150l-301 128l25 114l358 128l-25 -116l-240 -75l207 -72z" />
    <glyph glyph-name="equal" unicode="=" horiz-adv-x="388" 
d="M388 380h-330l21 93h330zM347 194h-329l20 94h330z" />
    <glyph glyph-name="greater" unicode="&#x3e;" horiz-adv-x="388" 
d="M365 278l-357 -128l26 116l239 73l-207 74l23 107l302 -128z" />
    <glyph glyph-name="question" unicode="?" horiz-adv-x="338" 
d="M237 259l-141 -43q-8 22 -8 59q0 39 13 71t31 53t36.5 38t31.5 33.5t13 32.5q0 27 -28 27q-27 0 -46 -20l-47 112q68 55 152 55q65 0 109 -35t44 -91q0 -38 -17 -71.5t-41 -58t-48 -46t-41 -44.5t-17 -45q0 -13 4 -27zM126 -12q-37 0 -62 25.5t-25 61.5q0 43 31 74t74 31
q36 0 61.5 -26t25.5 -63q0 -42 -31.5 -72.5t-73.5 -30.5z" />
    <glyph glyph-name="at" unicode="@" horiz-adv-x="670" 
d="M299 -70q-120 0 -182 75.5t-62 208.5q0 109 49 206.5t135 157.5t185 60q101 0 166 -65t65 -173q0 -126 -53.5 -220.5t-132.5 -94.5q-36 0 -62.5 17t-33.5 47l-2 10q-50 -74 -119 -74q-42 0 -70 31t-28 102q0 107 56 193t141 86q56 0 73 -58l10 46h138l-48 -229
q-3 -15 -3 -27q0 -40 27 -40q12 0 25.5 25t24 75t10.5 109q0 93 -50 145.5t-137 52.5t-162.5 -55.5t-118 -143t-42.5 -180.5q0 -108 49.5 -177t156.5 -69q77 0 158 54l23 -32q-93 -63 -186 -63zM330 194q12 0 23.5 8.5t16 15.5t12.5 21l23 114q-8 35 -31 35
q-35 0 -55.5 -47.5t-20.5 -96.5q0 -50 32 -50z" />
    <glyph glyph-name="A" unicode="A" horiz-adv-x="484" 
d="M436 0h-177l7 93h-107l-34 -93h-185l293 667h203v-667zM280 247l17 228l-83 -228h66z" />
    <glyph glyph-name="B" unicode="B" horiz-adv-x="502" 
d="M274 0h-287l147 667h215q86 0 133 -44t47 -109q0 -67 -41 -122t-105 -61q42 -12 64.5 -46.5t22.5 -79.5q0 -80 -50 -142.5t-146 -62.5zM256 415h30q24 0 40 17.5t16 42.5q0 38 -48 38h-17zM232 154q27 0 44.5 18.5t17.5 48.5q0 40 -43 40h-30l-23 -107h34z" />
    <glyph glyph-name="C" unicode="C" horiz-adv-x="467" 
d="M231 -12q-102 0 -156 63.5t-54 171.5q0 51 10 109t34 120.5t58.5 112t88 81.5t118.5 32q53 0 92.5 -20.5t60.5 -54.5t31 -72t10 -80l-163 -32q-2 103 -41 103q-26 0 -49.5 -35t-38.5 -84.5t-23.5 -99.5t-8.5 -84q0 -75 39 -75t73 78l142 -56q-76 -178 -223 -178z" />
    <glyph glyph-name="D" unicode="D" horiz-adv-x="524" 
d="M194 0h-207l147 667h201q82 0 140.5 -63t58.5 -171q0 -52 -9.5 -106.5t-34.5 -114t-62 -106t-98 -76.5t-136 -30zM198 154h27q32 0 58.5 31.5t41.5 77.5t22.5 90t7.5 77q0 41 -14.5 62t-37.5 21h-26z" />
    <glyph glyph-name="E" unicode="E" horiz-adv-x="405" 
d="M323 0h-336l147 667h336l-34 -154h-159l-21 -98h152l-34 -154h-153l-23 -107h159z" />
    <glyph glyph-name="F" unicode="F" horiz-adv-x="400" 
d="M164 0h-177l147 667h336l-34 -154h-159l-21 -98h152l-34 -154h-153z" />
    <glyph glyph-name="G" unicode="G" horiz-adv-x="495" 
d="M231 -12q-103 0 -156.5 64t-53.5 171q0 56 11 116.5t36 121.5t60 109t87.5 78t114.5 30q95 0 139.5 -56.5t45.5 -146.5l-148 -37q0 36 -11.5 60t-34.5 24q-33 0 -62.5 -56.5t-44 -125.5t-14.5 -121q0 -40 9.5 -57.5t30.5 -17.5q29 0 56 32l12 55h-61l35 154h214l-61 -274
q-81 -123 -204 -123z" />
    <glyph glyph-name="H" unicode="H" horiz-adv-x="532" 
d="M436 0h-176l58 266h-96l-58 -266h-177l147 667h177l-55 -247h97l54 247h176z" />
    <glyph glyph-name="I" unicode="I" horiz-adv-x="259" 
d="M164 0h-177l147 667h177z" />
    <glyph glyph-name="J" unicode="J" horiz-adv-x="375" 
d="M98 -12q-88 0 -136 36l65 143q20 -23 54 -23q56 0 68 57l103 466h177l-105 -475q-24 -107 -77.5 -155.5t-148.5 -48.5z" />
    <glyph glyph-name="K" unicode="K" horiz-adv-x="524" 
d="M475 0h-185l-37 223l-59 -86l-30 -137h-177l147 667h177l-54 -248l153 248h201l-225 -311z" />
    <glyph glyph-name="L" unicode="L" horiz-adv-x="396" 
d="M323 0h-336l147 667h177l-113 -513h159z" />
    <glyph glyph-name="M" unicode="M" horiz-adv-x="675" 
d="M579 0h-174l71 321l-165 -321h-55l-22 321l-70 -321h-177l147 667h215l18 -268l141 268h218z" />
    <glyph glyph-name="N" unicode="N" horiz-adv-x="532" 
d="M436 0h-164l-47 278l-61 -278h-177l147 667h177l39 -261l57 261h176z" />
    <glyph glyph-name="O" unicode="O" horiz-adv-x="522" 
d="M231 -12q-103 0 -156.5 65t-53.5 170q0 52 10.5 110.5t34.5 120.5t58.5 111.5t88 81t117.5 31.5q102 0 156 -66t54 -170q0 -52 -10.5 -110.5t-34.5 -120.5t-59 -111t-88 -80.5t-117 -31.5zM239 144q34 0 63.5 59t43.5 127.5t14 114.5q0 77 -40 77q-26 0 -49.5 -35
t-38.5 -85t-23.5 -100t-8.5 -83q0 -75 39 -75z" />
    <glyph glyph-name="P" unicode="P" horiz-adv-x="496" 
d="M164 0h-177l147 667h207q84 0 135.5 -53.5t51.5 -133.5q0 -108 -70.5 -183t-199.5 -75h-45zM247 376h26q32 0 52 25.5t20 59.5q0 24 -12.5 38t-32.5 14h-23z" />
    <glyph glyph-name="Q" unicode="Q" horiz-adv-x="523" 
d="M231 -12q-103 0 -156.5 65t-53.5 170q0 52 10.5 110.5t34.5 120.5t58.5 111.5t88 81t117.5 31.5q102 0 156 -66t54 -170q0 -101 -39 -214.5t-112 -178.5l10 -61l-127 -24l-5 27q-17 -3 -36 -3zM239 144h3l-14 86l93 17q39 106 39 198q0 77 -40 77q-26 0 -49.5 -35
t-38.5 -85t-23.5 -100t-8.5 -83q0 -75 39 -75z" />
    <glyph glyph-name="R" unicode="R" horiz-adv-x="510" 
d="M433 0h-184l-9 222h-27l-49 -222h-177l147 667h209q79 0 131.5 -54.5t52.5 -134.5q0 -73 -38 -138t-82 -85zM247 376h26q31 0 51 24.5t20 59.5q0 27 -12.5 40t-32.5 13h-22z" />
    <glyph glyph-name="S" unicode="S" horiz-adv-x="437" 
d="M178 -12q-65 0 -120.5 23t-85.5 61l97 130q19 -26 49 -42t60 -16q22 0 36 14t14 36q0 20 -25.5 44.5t-56 47t-56 63.5t-25.5 91q0 99 68 168.5t169 69.5q52 0 102 -19t82 -54l-91 -131q-37 48 -95 48q-23 0 -35 -13.5t-12 -32.5q0 -18 16.5 -37t40 -38t47 -41.5t40 -56.5
t16.5 -75q0 -99 -65.5 -169.5t-169.5 -70.5z" />
    <glyph glyph-name="T" unicode="T" horiz-adv-x="406" 
d="M238 0h-177l113 513h-97l34 154h370l-34 -154h-96z" />
    <glyph glyph-name="U" unicode="U" horiz-adv-x="532" 
d="M236 -12q-87 0 -145.5 53.5t-58.5 139.5q0 21 4 40l98 446h177l-102 -463q-3 -18 -3 -21q0 -19 12 -30t31 -11q42 0 56 62l102 463h177l-101 -453q-24 -113 -91.5 -169.5t-155.5 -56.5z" />
    <glyph glyph-name="V" unicode="V" horiz-adv-x="484" 
d="M289 0h-203l1 667h177l-31 -443l164 443h186z" />
    <glyph glyph-name="W" unicode="W" horiz-adv-x="684" 
d="M504 0h-176l36 346l-117 -346h-175l25 667h176l-40 -362l132 362h134l-26 -362l119 362h181z" />
    <glyph glyph-name="X" unicode="X" horiz-adv-x="509" 
d="M461 0h-185l-31 182l-103 -182h-202l238 350l-83 317h186l23 -171l92 171h203l-227 -334z" />
    <glyph glyph-name="Y" unicode="Y" horiz-adv-x="489" 
d="M279 0h-177l59 269l-75 398h179l14 -232l117 232h193l-252 -398z" />
    <glyph glyph-name="Z" unicode="Z" horiz-adv-x="412" 
d="M332 0h-360l32 147l225 366h-144l34 154h353l-31 -141l-230 -372h155z" />
    <glyph glyph-name="bracketleft" unicode="[" horiz-adv-x="227" 
d="M113 -190h-173l192 868h174l-23 -101h-63l-147 -666h63z" />
    <glyph glyph-name="backslash" unicode="\" horiz-adv-x="254" 
d="M88 -20v707h107v-707h-107z" />
    <glyph glyph-name="bracketright" unicode="]" horiz-adv-x="227" 
d="M95 -190h-173l22 101h63l148 666h-63l22 101h174z" />
    <glyph glyph-name="asciicircum" unicode="^" horiz-adv-x="344" 
d="M344 333h-105l2 210l-91 -210h-112l171 334h113z" />
    <glyph glyph-name="underscore" unicode="_" horiz-adv-x="279" 
d="M196 -141h-284l23 101h284z" />
    <glyph glyph-name="grave" unicode="`" horiz-adv-x="209" 
d="M278 556h-97l-80 144h129z" />
    <glyph glyph-name="a" unicode="a" horiz-adv-x="461" 
d="M207 495q81 0 103 -67l13 55h156l-107 -483h-157l12 53q-44 -65 -104 -65q-117 0 -117 165q0 72 20.5 147.5t68.5 135t112 59.5zM247 356q-20 0 -36 -20.5t-25 -50.5t-13.5 -58.5t-4.5 -49.5q0 -50 40 -50q26 0 43 33l36 162q-8 34 -40 34z" />
    <glyph glyph-name="b" unicode="b" horiz-adv-x="461" 
d="M254 -12q-82 0 -104 67l-11 -55h-157l146 667h158l-53 -237q46 65 105 65q116 0 116 -165q0 -52 -12.5 -109.5t-36 -110.5t-63.5 -87.5t-88 -34.5zM213 127q20 0 36 20.5t25 50t13.5 58t4.5 50.5q0 50 -40 50q-25 0 -42 -33l-36 -162q7 -34 39 -34z" />
    <glyph glyph-name="c" unicode="c" horiz-adv-x="371" 
d="M200 -12q-89 0 -140 51t-51 144q0 124 69.5 218t179.5 94q92 0 144 -50l-70 -118q-19 29 -59 29q-43 0 -73 -46.5t-30 -105.5q0 -38 19 -57.5t52 -19.5q30 0 55 22l19 -125q-45 -36 -115 -36z" />
    <glyph glyph-name="d" unicode="d" horiz-adv-x="461" 
d="M207 495q81 0 103 -67l53 239h156l-147 -667h-157l12 53q-44 -65 -104 -65q-117 0 -117 165q0 72 20.5 147.5t68.5 135t112 59.5zM247 356q-20 0 -36 -20.5t-25 -50.5t-13.5 -58.5t-4.5 -49.5q0 -50 40 -50q26 0 43 33l36 162q-8 34 -40 34z" />
    <glyph glyph-name="e" unicode="e" horiz-adv-x="435" 
d="M200 -12q-90 0 -140.5 52.5t-50.5 145.5q0 73 28 142t85.5 118t131.5 49q89 0 131 -49t42 -131q0 -46 -20 -126h-254q-1 -4 -1 -15q0 -20 18 -40t63 -20q38 0 80 31l48 -98q-30 -27 -74 -43t-87 -16zM175 297h110q2 16 2 24q0 22 -13 35t-33 13q-29 0 -45 -21.5
t-21 -50.5z" />
    <glyph glyph-name="f" unicode="f" horiz-adv-x="275" 
d="M156 0h-157l76 346h-42l31 137h41l4 19q17 81 56.5 128t116.5 47q79 0 114 -31l-57 -115q-13 13 -28 13q-36 0 -45 -42l-4 -19h57l-31 -137h-56z" />
    <glyph glyph-name="g" unicode="g" horiz-adv-x="461" 
d="M140 -196q-122 0 -180 66l76 115q37 -48 99 -48q65 0 87 95l11 48q-42 -66 -104 -66q-120 0 -120 154q0 50 11 103.5t32.5 105.5t62 85t91.5 33q33 0 64.5 -17t38.5 -50l13 55h157l-101 -451q-28 -127 -89 -177.5t-149 -50.5zM212 154q24 0 44 33l30 135q-11 34 -41 34
q-37 0 -55.5 -52t-18.5 -100q0 -50 41 -50z" />
    <glyph glyph-name="h" unicode="h" 
d="M373 0h-158l70 316l1 6q1 7 1 9q0 25 -23 25q-29 0 -57 -47l-68 -309h-158l147 667h158l-54 -241q22 28 56.5 48.5t70.5 20.5q46 0 73 -25t27 -64q0 -11 -3 -26z" />
    <glyph glyph-name="i" unicode="i" horiz-adv-x="228" 
d="M185 525q-35 0 -58.5 22.5t-23.5 54.5q0 47 32.5 75.5t70.5 28.5q35 0 58 -22.5t23 -54.5q0 -47 -32 -75.5t-70 -28.5zM139 0h-158l107 483h158z" />
    <glyph glyph-name="j" unicode="j" horiz-adv-x="228" 
d="M-53 -196q-56 0 -83 22l51 118q6 -7 22 -7q30 0 41 50l110 496h158l-111 -496q-20 -93 -61.5 -138t-126.5 -45zM185 525q-35 0 -58.5 22.5t-23.5 54.5q0 47 32.5 75.5t70.5 28.5q35 0 58 -22.5t23 -54.5q0 -47 -32 -75.5t-70 -28.5z" />
    <glyph glyph-name="k" unicode="k" horiz-adv-x="445" 
d="M396 0h-171l-16 169l-48 -67l-22 -102h-158l147 667h158l-78 -355l109 171h177l-155 -213z" />
    <glyph glyph-name="l" unicode="l" horiz-adv-x="228" 
d="M139 0h-158l147 667h158z" />
    <glyph glyph-name="m" unicode="m" horiz-adv-x="696" 
d="M606 0h-157l70 316l1 6q1 6 1 9q0 25 -23 25q-31 0 -57 -47l-68 -309h-158l70 316l1 6q1 6 1 9q0 25 -23 25q-30 0 -57 -47l-68 -309h-158l107 483h158l-14 -57q21 29 56.5 49t70.5 20q43 0 71.5 -23t28.5 -53q0 -1 -1 -4q22 34 59.5 57t75.5 23q44 0 72 -24t28 -65
q0 -11 -3 -26z" />
    <glyph glyph-name="n" unicode="n" 
d="M373 0h-158l70 316q0 1 1 7t1 8q0 25 -23 25q-29 0 -57 -47l-68 -309h-158l107 483h158l-14 -57q22 28 56.5 48.5t70.5 20.5q46 0 73 -24.5t27 -64.5q0 -8 -3 -26z" />
    <glyph glyph-name="o" unicode="o" horiz-adv-x="451" 
d="M196 -12q-92 0 -139.5 53t-47.5 144q0 73 27.5 142.5t85 118.5t131.5 49q92 0 140 -53t48 -144q0 -53 -17 -107.5t-47 -100t-77.5 -74t-103.5 -28.5zM205 127q35 0 56 63.5t21 111.5q0 54 -38 54q-34 0 -55 -64t-21 -111q0 -54 37 -54z" />
    <glyph glyph-name="p" unicode="p" horiz-adv-x="461" 
d="M254 -12q-82 0 -104 67l-52 -239h-157l147 667h158l-13 -53q46 65 105 65q116 0 116 -165q0 -52 -12.5 -109.5t-36 -110.5t-63.5 -87.5t-88 -34.5zM213 127q20 0 36 20.5t25 50t13.5 58t4.5 50.5q0 50 -40 50q-25 0 -42 -33l-36 -162q7 -34 39 -34z" />
    <glyph glyph-name="q" unicode="q" horiz-adv-x="461" 
d="M207 495q81 0 103 -67l12 55h156l-147 -667h-157l53 237q-44 -65 -104 -65q-117 0 -117 165q0 72 20.5 147.5t68.5 135t112 59.5zM247 356q-20 0 -36 -20.5t-25 -50.5t-13.5 -58.5t-4.5 -49.5q0 -50 40 -50q26 0 43 33l36 162q-8 34 -40 34z" />
    <glyph glyph-name="r" unicode="r" horiz-adv-x="309" 
d="M139 0h-158l107 483h158l-13 -56q18 30 51.5 49.5t69.5 19.5l-35 -154q-12 6 -30 6q-47 0 -84 -46z" />
    <glyph glyph-name="s" unicode="s" horiz-adv-x="382" 
d="M156 -12q-61 0 -113.5 23.5t-73.5 52.5l82 101q42 -54 103 -54q21 0 33 8.5t12 21.5q0 11 -16.5 21.5t-40 22t-47 27t-40 43t-16.5 62.5q0 74 49.5 126t138.5 52q49 0 96 -19t79 -53l-78 -100q-12 16 -40.5 32.5t-56.5 16.5q-38 0 -38 -27q0 -11 26 -25t57 -28t57 -46.5
t26 -76.5q0 -74 -54.5 -127.5t-144.5 -53.5z" />
    <glyph glyph-name="t" unicode="t" horiz-adv-x="282" 
d="M164 -12q-142 0 -142 102q0 24 6 49l47 207h-42l31 137h41l29 132h158l-29 -132h56l-31 -137h-56l-39 -176q-2 -12 -2 -19q0 -24 23 -24q10 0 18 6l-5 -133q-21 -12 -63 -12z" />
    <glyph glyph-name="u" unicode="u" 
d="M88 483h158l-69 -312q-4 -18 -4 -22q0 -9 6.5 -15.5t17.5 -6.5q31 0 56 46l69 310h158l-107 -483h-158l13 57q-22 -28 -56 -48.5t-70 -20.5q-47 0 -74 24.5t-27 64.5q0 2 4 26z" />
    <glyph glyph-name="v" unicode="v" horiz-adv-x="435" 
d="M247 0h-167l-33 483h162l-7 -285l122 285h170z" />
    <glyph glyph-name="w" unicode="w" horiz-adv-x="674" 
d="M506 0h-166l2 269l-116 -269h-166l-10 483h158l-11 -273l110 273h147l-3 -273l112 273h167z" />
    <glyph glyph-name="x" unicode="x" horiz-adv-x="418" 
d="M369 0h-163l-18 129l-77 -129h-171l169 242l-57 241h161l16 -127l72 127h170l-165 -241z" />
    <glyph glyph-name="y" unicode="y" horiz-adv-x="435" 
d="M-47 -181l50 129q8 -5 23 -5q22 0 36 24l17 30l-32 486h162l-7 -284l122 284h170l-280 -547q-41 -77 -78 -104.5t-94 -27.5t-89 15z" />
    <glyph glyph-name="z" unicode="z" horiz-adv-x="368" 
d="M295 0h-330l25 116l182 230h-131l31 137h326l-25 -111l-185 -235h136z" />
    <glyph glyph-name="braceleft" unicode="{" horiz-adv-x="237" 
d="M123 -190h-16q-47 0 -84.5 30.5t-38.5 75.5q0 2 3 26l43 195q3 15 3 17q0 21 -11 34.5t-29 13.5l19 84q51 0 66 65l43 195q30 132 169 132h26l-22 -101h-26q-29 0 -36 -31l-49 -223q-8 -38 -22.5 -59t-42.5 -32q29 -14 29 -56q0 -18 -4 -34l-42 -190q-3 -15 -3 -18
q0 -10 6 -16.5t15 -6.5h26z" />
    <glyph glyph-name="bar" unicode="|" horiz-adv-x="184" 
d="M163 -20h-102v707h102v-707z" />
    <glyph glyph-name="braceright" unicode="}" horiz-adv-x="237" 
d="M113 678h16q47 0 85 -30.5t38 -75.5q0 -14 -3 -26l-43 -195q-3 -15 -3 -17q0 -21 11 -34.5t29 -13.5l-19 -84q-51 0 -66 -65l-43 -195q-30 -132 -169 -132h-26l22 101h26q29 0 36 31l49 223q15 72 65 91q-29 14 -29 56q0 18 4 34l43 190q2 10 2 18q0 10 -6 16.5t-15 6.5
h-26z" />
    <glyph glyph-name="asciitilde" unicode="~" horiz-adv-x="437" 
d="M402 667l101 -8q-5 -33 -12.5 -64t-22 -67t-32.5 -61.5t-46 -43t-62 -17.5q-35 0 -54.5 17.5t-24 42t-5 49t-2 42t-10.5 17.5q-33 0 -67 -169l-103 8q8 44 19.5 82.5t31.5 80.5t52.5 66.5t73.5 24.5q35 0 54.5 -17.5t24 -42.5t5 -49.5t2 -42t10.5 -17.5q33 0 67 169z" />
    <glyph glyph-name="nbspace" unicode="&#xa0;" horiz-adv-x="154" 
 />
    <glyph glyph-name="exclamdown" unicode="&#xa1;" horiz-adv-x="270" 
d="M67 248h140l-71 -432h-189zM181 495q37 0 62 -25.5t25 -61.5q0 -43 -31 -74t-74 -31q-36 0 -61.5 26t-25.5 63q0 42 31.5 72.5t73.5 30.5z" />
    <glyph glyph-name="cent" unicode="&#xa2;" horiz-adv-x="371" 
d="M78 -100l24 108q-93 47 -93 175q0 108 55 196.5t145 109.5l17 76h112l-18 -78q52 -14 82 -42l-70 -118q-19 29 -59 29q-43 0 -73 -46.5t-30 -105.5q0 -38 19 -57.5t52 -19.5q30 0 55 22l19 -125q-40 -33 -105 -36l-20 -88h-112z" />
    <glyph glyph-name="sterling" unicode="&#xa3;" horiz-adv-x="469" 
d="M38 281l21 97h35q-6 26 -6 60q0 105 76.5 172t168.5 67q79 0 132 -42.5t54 -122.5l-151 -41q-2 64 -33 64q-25 0 -42 -37.5t-17 -86.5q0 -13 2 -33h67l-21 -97h-47q-18 -88 -73 -124q21 7 35 7q23 0 51.5 -10t47.5 -10q39 0 67 25l10 -143q-43 -38 -110 -38q-45 0 -99 21
t-81 21q-39 0 -90 -37l-21 117q46 26 72.5 69t26.5 92v10h-75z" />
    <glyph glyph-name="currency" unicode="&#xa4;" horiz-adv-x="491" 
d="M240 98q-52 0 -91 18l-84 -68l-79 101l75 60q-13 33 -13 78q0 114 66 196l-51 67l104 83l57 -76q28 9 62 9q50 0 90 -16l88 70l80 -101l-77 -63q14 -37 14 -80q0 -111 -66 -193l50 -66l-103 -83l-57 74q-29 -10 -65 -10zM198 296q0 -65 50 -65q32 0 57.5 39t25.5 98
q0 30 -13 48.5t-37 18.5q-32 0 -57.5 -39.5t-25.5 -99.5z" />
    <glyph glyph-name="yen" unicode="&#xa5;" horiz-adv-x="489" 
d="M278 0h-177l24 110h-128l21 94h127l15 65h-128l22 93h88l-57 305h179l14 -232l117 232h193l-193 -305h90l-22 -93h-127l-14 -65h127l-21 -94h-127z" />
    <glyph glyph-name="brokenbar" unicode="&#xa6;" horiz-adv-x="184" 
d="M163 -20h-102v316h102v-316zM163 371h-102v316h102v-316z" />
    <glyph glyph-name="section" unicode="&#xa7;" horiz-adv-x="384" 
d="M391 347q0 -104 -102 -155q47 -33 47 -92q0 -76 -56 -128.5t-139 -52.5q-65 0 -117.5 18t-76.5 51l83 100q34 -54 100 -54q24 0 38.5 13.5t14.5 31.5q0 17 -16 30.5t-39.5 25t-46.5 26.5t-39 42t-16 63q0 49 29 88t78 57q-23 14 -37.5 41t-14.5 56q0 72 53.5 120.5
t129.5 48.5q123 0 186 -71l-80 -86q-38 48 -94 48q-21 0 -33.5 -12.5t-12.5 -28.5q0 -18 25 -36t55.5 -32t55.5 -43.5t25 -68.5zM246 307q0 34 -27 51q-48 -13 -48 -61q0 -37 38 -52q37 19 37 62z" />
    <glyph glyph-name="dieresis" unicode="&#xa8;" horiz-adv-x="291" 
d="M401 624q0 -35 -28 -62t-63 -27q-30 0 -50 20.5t-20 50.5q0 35 27.5 62t62.5 27q30 0 50.5 -20.5t20.5 -50.5zM216 624q0 -35 -27.5 -62t-62.5 -27q-31 0 -51 20.5t-20 50.5q0 35 27.5 62t62.5 27q30 0 50.5 -20.5t20.5 -50.5z" />
    <glyph glyph-name="copyright" unicode="&#xa9;" horiz-adv-x="778" 
d="M754 334q0 -142 -101.5 -243.5t-244.5 -101.5q-142 0 -243 101t-101 244t101 244t243 101q143 0 244.5 -101.5t101.5 -243.5zM714 334q0 125 -90.5 215t-215.5 90t-214.5 -90t-89.5 -215t89.5 -215t214.5 -90t215.5 90t90.5 215zM507 217l28 -38q-64 -55 -141 -55
q-86 0 -138.5 51.5t-52.5 131.5q0 100 69.5 168.5t162.5 68.5q110 0 161 -81l-42 -30q-37 67 -122 67q-68 0 -123 -55.5t-55 -135.5q0 -59 38 -100t103 -41q63 0 112 49z" />
    <glyph glyph-name="ordfeminine" unicode="&#xaa;" horiz-adv-x="334" 
d="M231 560q-23 0 -39 -38.5t-16 -78.5q0 -36 27 -36q16 0 31 24l24 108q-8 21 -27 21zM280 640h112l-69 -314h-112l7 34q-31 -42 -73 -42q-37 0 -60.5 28t-23.5 86q0 77 39 146.5t99 69.5q52 0 74 -42z" />
    <glyph glyph-name="guillemotleft" unicode="&#xab;" horiz-adv-x="446" 
d="M194 63h-115l-50 180l130 177h119l-133 -181zM373 63h-116l-50 180l130 177h120l-133 -181z" />
    <glyph glyph-name="logicalnot" unicode="&#xac;" horiz-adv-x="388" 
d="M409 473l-62 -279h-96l40 186h-233l21 93h330z" />
    <glyph glyph-name="uni00AD" unicode="&#xad;" horiz-adv-x="247" 
d="M202 176h-187l29 132h187z" />
    <glyph glyph-name="registered" unicode="&#xae;" horiz-adv-x="494" 
d="M508 465q0 -88 -62.5 -150t-150.5 -62t-149.5 62t-61.5 150t62 150t150 62t150 -61.5t62 -150.5zM474 465q0 75 -52 126.5t-127 51.5q-74 0 -125.5 -51.5t-51.5 -126.5q0 -74 51.5 -126t125.5 -52t126.5 52t52.5 126zM370 343h-42l-42 96h-42l-21 -96h-36l53 243h94
q32 0 52 -18t20 -46q0 -36 -25 -59t-55 -23zM368 519q0 37 -42 37h-56l-19 -86h63q22 0 38 14t16 35z" />
    <glyph glyph-name="macron" unicode="&#xaf;" horiz-adv-x="268" 
d="M337 555h-267l18 87h268z" />
    <glyph glyph-name="degree" unicode="&#xb0;" horiz-adv-x="322" 
d="M368 534q0 -59 -42 -101t-101 -42t-100.5 42t-41.5 101t41.5 101t100.5 42t101 -42t42 -101zM287 534q0 25 -18.5 43.5t-43.5 18.5t-43 -18.5t-18 -43.5q0 -26 17.5 -43.5t42.5 -17.5q26 0 44.5 18t18.5 43z" />
    <glyph glyph-name="plusminus" unicode="&#xb1;" horiz-adv-x="388" 
d="M369 291h-113l-31 -138h-104l31 138h-113l21 93h113l29 130h103l-29 -130h113zM307 9h-330l20 94h330z" />
    <glyph glyph-name="twosuperior" unicode="&#xb2;" horiz-adv-x="322" 
d="M350 421h-286l20 91q134 94 172 128t38 62q0 33 -42 33q-41 0 -79 -41l-52 75q61 58 142 58q64 0 106.5 -30t42.5 -83q0 -52 -40 -92t-143 -109h142z" />
    <glyph glyph-name="threesuperior" unicode="&#xb3;" horiz-adv-x="322" 
d="M374 538q0 -50 -42 -87t-107 -37q-52 0 -94 18t-63 51l83 68q23 -45 67 -45q20 0 32 13t12 29q0 30 -41 30q-24 0 -31 -1l20 91q5 -1 34 -1q49 0 49 38q0 30 -43 30q-42 0 -71 -33l-56 66q59 59 138 59q66 0 107 -27.5t41 -75.5q0 -37 -26.5 -68.5t-72.5 -35.5
q64 -18 64 -82z" />
    <glyph glyph-name="acute" unicode="&#xb4;" horiz-adv-x="209" 
d="M310 700l-144 -144h-99l112 144h131z" />
    <glyph glyph-name="mu" unicode="&#xb5;" horiz-adv-x="477" 
d="M138 -3l-39 -181h-158l147 667h158l-71 -319q-7 -37 21 -37q30 0 57 45l69 311h158l-73 -329q-5 -27 15 -27q9 0 15 2l-17 -131q-32 -10 -73 -10q-54 0 -74.5 20.5t-21.5 67.5q-12 -42 -35.5 -65t-45.5 -23q-17 0 -32 9z" />
    <glyph glyph-name="paragraph" unicode="&#xb6;" horiz-adv-x="449" 
d="M339 -100h-72l155 694h-73l-155 -694h-72l94 423q-57 0 -97 44.5t-40 111.5q0 73 56.5 130.5t137.5 57.5h236z" />
    <glyph glyph-name="periodcentered" unicode="&#xb7;" horiz-adv-x="270" 
d="M126 148q-36 0 -61.5 26t-25.5 62q0 43 31 74t74 31q36 0 61 -26t25 -63q0 -42 -31 -73t-73 -31z" />
    <glyph glyph-name="cedilla" unicode="&#xb8;" horiz-adv-x="199" 
d="M14 -198q-63 0 -102 41l37 54q26 -33 64 -33q15 0 24.5 8.5t9.5 21.5q0 18 -18 18q-12 0 -21 -12l-47 30l48 81h73l-39 -60q10 9 23 9q24 0 39.5 -16.5t15.5 -45.5q0 -42 -30 -69t-77 -27z" />
    <glyph glyph-name="onesuperior" unicode="&#xb9;" horiz-adv-x="273" 
d="M278 421h-117l54 248l-62 -50l-52 69l165 133h100z" />
    <glyph glyph-name="ordmasculine" unicode="&#xba;" horiz-adv-x="327" 
d="M198 318q-63 0 -98.5 36.5t-35.5 93.5q0 79 47.5 139.5t123.5 60.5q63 0 98.5 -36.5t35.5 -93.5q0 -79 -47.5 -139.5t-123.5 -60.5zM203 407q24 0 38.5 43.5t14.5 73.5q0 34 -27 34q-24 0 -38 -43.5t-14 -73.5q0 -34 26 -34z" />
    <glyph glyph-name="guillemotright" unicode="&#xbb;" horiz-adv-x="446" 
d="M73 420h115l50 -180l-130 -177h-119l133 181zM251 420h116l50 -180l-130 -177h-120l133 181z" />
    <glyph glyph-name="onequarter" unicode="&#xbc;" horiz-adv-x="720" 
d="M244 267h-117l54 248l-62 -50l-52 69l165 133h100zM673 77h-32l-16 -77h-117l17 77h-155l20 88l183 235h140l-51 -232h31zM545 168l24 105l-81 -105h57zM627 667l-432 -667h-60l431 667h61z" />
    <glyph glyph-name="onehalf" unicode="&#xbd;" horiz-adv-x="758" 
d="M244 267h-117l54 248l-62 -50l-52 69l165 133h100zM694 0h-286l20 91q134 94 172 128t38 62q0 33 -42 33q-41 0 -79 -41l-52 75q61 58 142 58q64 0 106.5 -30t42.5 -83q0 -52 -40 -92t-143 -109h142zM627 667l-432 -667h-60l431 667h61z" />
    <glyph glyph-name="threequarters" unicode="&#xbe;" horiz-adv-x="756" 
d="M709 77h-32l-16 -77h-117l17 77h-155l20 88l183 235h140l-51 -232h31zM581 168l24 105l-81 -105h57zM663 667l-432 -667h-60l431 667h61zM340 384q0 -50 -42 -87t-107 -37q-52 0 -94 18t-63 51l83 68q23 -45 67 -45q20 0 32 13t12 29q0 30 -41 30q-24 0 -31 -1l20 91
q5 -1 34 -1q49 0 49 38q0 30 -43 30q-42 0 -71 -33l-56 66q59 59 138 59q66 0 107 -27.5t41 -75.5q0 -37 -26.5 -68.5t-72.5 -35.5q64 -18 64 -82z" />
    <glyph glyph-name="questiondown" unicode="&#xbf;" horiz-adv-x="304" 
d="M99 223l141 43q8 -22 8 -59q0 -47 -19.5 -85.5t-43 -58.5t-43 -42.5t-19.5 -40.5q0 -28 29 -28q26 0 45 20l47 -112q-68 -55 -152 -55q-64 0 -108.5 35t-44.5 91q0 38 17 71.5t41 58t48.5 46t41.5 44.5t17 45q0 17 -5 27zM211 495q36 0 61.5 -26t25.5 -62
q0 -43 -31.5 -74t-73.5 -31q-37 0 -62 26t-25 63q0 42 31 73t74 31z" />
    <glyph glyph-name="Agrave" unicode="&#xc0;" horiz-adv-x="484" 
d="M436 0h-177l7 93h-107l-34 -93h-185l293 667h203v-667zM280 247l17 228l-83 -228h66zM398 723h-97l-80 144h129z" />
    <glyph glyph-name="Aacute" unicode="&#xc1;" horiz-adv-x="484" 
d="M436 0h-177l7 93h-107l-34 -93h-185l293 667h203v-667zM280 247l17 228l-83 -228h66zM535 867l-144 -144h-99l112 144h131z" />
    <glyph glyph-name="Acircumflex" unicode="&#xc2;" horiz-adv-x="484" 
d="M477 723h-82l-30 79l-62 -79h-86l91 144h138zM436 0h-177l7 93h-107l-34 -93h-185l293 667h203v-667zM280 247l17 228l-83 -228h66z" />
    <glyph glyph-name="Atilde" unicode="&#xc3;" horiz-adv-x="484" 
d="M436 0h-177l7 93h-107l-34 -93h-185l293 667h203v-667zM280 247l17 228l-83 -228h66zM403 721q-20 0 -33.5 8.5t-19 18t-14 18t-19.5 8.5q-21 0 -31 -47h-80q30 134 116 134q20 0 33.5 -8.5t19 -18.5t14.5 -18.5t20 -8.5q19 0 31 48h80q-14 -62 -43.5 -98t-73.5 -36z" />
    <glyph glyph-name="Adieresis" unicode="&#xc4;" horiz-adv-x="484" 
d="M533 791q0 -35 -28 -62t-63 -27q-30 0 -50 20.5t-20 50.5q0 35 27.5 62t62.5 27q30 0 50.5 -20.5t20.5 -50.5zM348 791q0 -35 -27.5 -62t-62.5 -27q-31 0 -51 20.5t-20 50.5q0 35 27.5 62t62.5 27q30 0 50.5 -20.5t20.5 -50.5zM436 0h-177l7 93h-107l-34 -93h-185
l293 667h203v-667zM280 247l17 228l-83 -228h66z" />
    <glyph glyph-name="Aring" unicode="&#xc5;" horiz-adv-x="484" 
d="M436 0h-177l7 93h-107l-34 -93h-185l293 667h203v-667zM280 247l17 228l-83 -228h66zM351 687q-37 0 -60.5 24t-23.5 61q0 43 31.5 75t74.5 32q37 0 60.5 -24t23.5 -61q0 -43 -31.5 -75t-74.5 -32zM360 751q14 0 24.5 11t10.5 25q0 13 -7.5 21t-20.5 8q-14 0 -24.5 -11
t-10.5 -25q0 -13 7.5 -21t20.5 -8z" />
    <glyph glyph-name="AE" unicode="&#xc6;" horiz-adv-x="659" 
d="M586 0h-335l20 93h-98l-47 -93h-184l379 667h412l-34 -154h-159l-21 -98h152l-34 -154h-152l-24 -107h159zM305 247l47 212l-104 -212h57z" />
    <glyph glyph-name="Ccedilla" unicode="&#xc7;" horiz-adv-x="467" 
d="M177 -198q-63 0 -102 41l37 54q26 -33 64 -33q15 0 24.5 8.5t9.5 21.5q0 18 -18 18q-12 0 -21 -12l-47 30l39 67q-69 19 -105.5 78.5t-36.5 147.5q0 51 10 109t34 120.5t58.5 112t88 81.5t118.5 32q53 0 92.5 -20.5t60.5 -54.5t31 -72t10 -80l-163 -32q-2 103 -41 103
q-26 0 -49.5 -35t-38.5 -84.5t-23.5 -99.5t-8.5 -84q0 -75 39 -75t73 78l142 -56q-76 -178 -223 -178h-1l-24 -37q10 9 23 9q24 0 39.5 -16.5t15.5 -45.5q0 -42 -30 -69t-77 -27z" />
    <glyph glyph-name="Egrave" unicode="&#xc8;" horiz-adv-x="405" 
d="M323 0h-336l147 667h336l-34 -154h-159l-21 -98h152l-34 -154h-153l-23 -107h159zM366 723h-97l-80 144h129z" />
    <glyph glyph-name="Eacute" unicode="&#xc9;" horiz-adv-x="405" 
d="M505 867l-144 -144h-99l112 144h131zM323 0h-336l147 667h336l-34 -154h-159l-21 -98h152l-34 -154h-153l-23 -107h159z" />
    <glyph glyph-name="Ecircumflex" unicode="&#xca;" horiz-adv-x="405" 
d="M445 723h-82l-30 79l-62 -79h-86l91 144h138zM323 0h-336l147 667h336l-34 -154h-159l-21 -98h152l-34 -154h-153l-23 -107h159z" />
    <glyph glyph-name="Edieresis" unicode="&#xcb;" horiz-adv-x="405" 
d="M500 791q0 -35 -28 -62t-63 -27q-30 0 -50 20.5t-20 50.5q0 35 27.5 62t62.5 27q30 0 50.5 -20.5t20.5 -50.5zM315 791q0 -35 -27.5 -62t-62.5 -27q-31 0 -51 20.5t-20 50.5q0 35 27.5 62t62.5 27q30 0 50.5 -20.5t20.5 -50.5zM323 0h-336l147 667h336l-34 -154h-159
l-21 -98h152l-34 -154h-153l-23 -107h159z" />
    <glyph glyph-name="Igrave" unicode="&#xcc;" horiz-adv-x="259" 
d="M164 0h-177l147 667h177zM286 723h-97l-80 144h129z" />
    <glyph glyph-name="Iacute" unicode="&#xcd;" horiz-adv-x="259" 
d="M164 0h-177l147 667h177zM425 867l-144 -144h-99l112 144h131z" />
    <glyph glyph-name="Icircumflex" unicode="&#xce;" horiz-adv-x="259" 
d="M365 723h-82l-30 79l-62 -79h-86l91 144h138zM164 0h-177l147 667h177z" />
    <glyph glyph-name="Idieresis" unicode="&#xcf;" horiz-adv-x="259" 
d="M422 791q0 -35 -28 -62t-63 -27q-30 0 -50 20.5t-20 50.5q0 35 27.5 62t62.5 27q30 0 50.5 -20.5t20.5 -50.5zM237 791q0 -35 -27.5 -62t-62.5 -27q-31 0 -51 20.5t-20 50.5q0 35 27.5 62t62.5 27q30 0 50.5 -20.5t20.5 -50.5zM164 0h-177l147 667h177z" />
    <glyph glyph-name="Eth" unicode="&#xd0;" horiz-adv-x="550" 
d="M220 0h-207l58 264h-56l31 139h55l59 264h201q82 0 140.5 -63t58.5 -171q0 -52 -9.5 -106.5t-34.5 -114t-62 -106t-98 -76.5t-136 -30zM304 264h-56l-24 -110h27q32 0 58.5 31.5t41.5 77.5t22.5 90t7.5 77q0 41 -14.5 62t-37.5 21h-26l-25 -110h56z" />
    <glyph glyph-name="Ntilde" unicode="&#xd1;" horiz-adv-x="532" 
d="M428 721q-20 0 -33.5 8.5t-19 18t-14 18t-19.5 8.5q-21 0 -31 -47h-80q30 134 116 134q20 0 33.5 -8.5t19 -18.5t14.5 -18.5t20 -8.5q19 0 31 48h80q-14 -62 -43.5 -98t-73.5 -36zM436 0h-164l-47 278l-61 -278h-177l147 667h177l39 -261l57 261h176z" />
    <glyph glyph-name="Ograve" unicode="&#xd2;" horiz-adv-x="522" 
d="M418 723h-97l-80 144h129zM231 -12q-103 0 -156.5 65t-53.5 170q0 52 10.5 110.5t34.5 120.5t58.5 111.5t88 81t117.5 31.5q102 0 156 -66t54 -170q0 -52 -10.5 -110.5t-34.5 -120.5t-59 -111t-88 -80.5t-117 -31.5zM239 144q34 0 63.5 59t43.5 127.5t14 114.5
q0 77 -40 77q-26 0 -49.5 -35t-38.5 -85t-23.5 -100t-8.5 -83q0 -75 39 -75z" />
    <glyph glyph-name="Oacute" unicode="&#xd3;" horiz-adv-x="522" 
d="M556 867l-144 -144h-99l112 144h131zM231 -12q-103 0 -156.5 65t-53.5 170q0 52 10.5 110.5t34.5 120.5t58.5 111.5t88 81t117.5 31.5q102 0 156 -66t54 -170q0 -52 -10.5 -110.5t-34.5 -120.5t-59 -111t-88 -80.5t-117 -31.5zM239 144q34 0 63.5 59t43.5 127.5t14 114.5
q0 77 -40 77q-26 0 -49.5 -35t-38.5 -85t-23.5 -100t-8.5 -83q0 -75 39 -75z" />
    <glyph glyph-name="Ocircumflex" unicode="&#xd4;" horiz-adv-x="522" 
d="M498 723h-82l-30 79l-62 -79h-86l91 144h138zM231 -12q-103 0 -156.5 65t-53.5 170q0 52 10.5 110.5t34.5 120.5t58.5 111.5t88 81t117.5 31.5q102 0 156 -66t54 -170q0 -52 -10.5 -110.5t-34.5 -120.5t-59 -111t-88 -80.5t-117 -31.5zM239 144q34 0 63.5 59t43.5 127.5
t14 114.5q0 77 -40 77q-26 0 -49.5 -35t-38.5 -85t-23.5 -100t-8.5 -83q0 -75 39 -75z" />
    <glyph glyph-name="Otilde" unicode="&#xd5;" horiz-adv-x="522" 
d="M231 -12q-103 0 -156.5 65t-53.5 170q0 52 10.5 110.5t34.5 120.5t58.5 111.5t88 81t117.5 31.5q102 0 156 -66t54 -170q0 -52 -10.5 -110.5t-34.5 -120.5t-59 -111t-88 -80.5t-117 -31.5zM239 144q34 0 63.5 59t43.5 127.5t14 114.5q0 77 -40 77q-26 0 -49.5 -35
t-38.5 -85t-23.5 -100t-8.5 -83q0 -75 39 -75zM422 721q-20 0 -33.5 8.5t-19 18t-14 18t-19.5 8.5q-21 0 -31 -47h-80q30 134 116 134q20 0 33.5 -8.5t19 -18.5t14.5 -18.5t20 -8.5q19 0 31 48h80q-14 -62 -43.5 -98t-73.5 -36z" />
    <glyph glyph-name="Odieresis" unicode="&#xd6;" horiz-adv-x="522" 
d="M553 791q0 -35 -28 -62t-63 -27q-30 0 -50 20.5t-20 50.5q0 35 27.5 62t62.5 27q30 0 50.5 -20.5t20.5 -50.5zM368 791q0 -35 -27.5 -62t-62.5 -27q-31 0 -51 20.5t-20 50.5q0 35 27.5 62t62.5 27q30 0 50.5 -20.5t20.5 -50.5zM231 -12q-103 0 -156.5 65t-53.5 170
q0 52 10.5 110.5t34.5 120.5t58.5 111.5t88 81t117.5 31.5q102 0 156 -66t54 -170q0 -52 -10.5 -110.5t-34.5 -120.5t-59 -111t-88 -80.5t-117 -31.5zM239 144q34 0 63.5 59t43.5 127.5t14 114.5q0 77 -40 77q-26 0 -49.5 -35t-38.5 -85t-23.5 -100t-8.5 -83q0 -75 39 -75z
" />
    <glyph glyph-name="multiply" unicode="&#xd7;" horiz-adv-x="388" 
d="M276 176l-71 91l-119 -97l-57 73l120 97l-71 91l73 61l71 -91l119 97l57 -73l-118 -97l70 -91z" />
    <glyph glyph-name="Oslash" unicode="&#xd8;" horiz-adv-x="522" 
d="M231 -12q-81 0 -134 43l-24 -31h-95l70 92q-27 56 -27 131q0 52 10.5 110.5t34.5 120.5t58.5 111.5t88 81t117.5 31.5q79 0 134 -44l25 33h95l-72 -94q28 -56 28 -131q0 -52 -10.5 -110.5t-34.5 -120.5t-59 -111t-88 -80.5t-117 -31.5zM320 522q-38 0 -68 -67.5
t-44 -154.5l146 191q-10 31 -34 31zM239 144q38 0 68 67t44 153l-146 -191q10 -29 34 -29z" />
    <glyph glyph-name="Ugrave" unicode="&#xd9;" horiz-adv-x="532" 
d="M236 -12q-87 0 -145.5 53.5t-58.5 139.5q0 21 4 40l98 446h177l-102 -463q-3 -18 -3 -21q0 -19 12 -30t31 -11q42 0 56 62l102 463h177l-101 -453q-24 -113 -91.5 -169.5t-155.5 -56.5zM424 723h-97l-80 144h129z" />
    <glyph glyph-name="Uacute" unicode="&#xda;" horiz-adv-x="532" 
d="M561 867l-144 -144h-99l112 144h131zM236 -12q-87 0 -145.5 53.5t-58.5 139.5q0 21 4 40l98 446h177l-102 -463q-3 -18 -3 -21q0 -19 12 -30t31 -11q42 0 56 62l102 463h177l-101 -453q-24 -113 -91.5 -169.5t-155.5 -56.5z" />
    <glyph glyph-name="Ucircumflex" unicode="&#xdb;" horiz-adv-x="532" 
d="M504 723h-82l-30 79l-62 -79h-86l91 144h138zM236 -12q-87 0 -145.5 53.5t-58.5 139.5q0 21 4 40l98 446h177l-102 -463q-3 -18 -3 -21q0 -19 12 -30t31 -11q42 0 56 62l102 463h177l-101 -453q-24 -113 -91.5 -169.5t-155.5 -56.5z" />
    <glyph glyph-name="Udieresis" unicode="&#xdc;" horiz-adv-x="532" 
d="M558 791q0 -35 -28 -62t-63 -27q-30 0 -50 20.5t-20 50.5q0 35 27.5 62t62.5 27q30 0 50.5 -20.5t20.5 -50.5zM373 791q0 -35 -27.5 -62t-62.5 -27q-31 0 -51 20.5t-20 50.5q0 35 27.5 62t62.5 27q30 0 50.5 -20.5t20.5 -50.5zM236 -12q-87 0 -145.5 53.5t-58.5 139.5
q0 21 4 40l98 446h177l-102 -463q-3 -18 -3 -21q0 -19 12 -30t31 -11q42 0 56 62l102 463h177l-101 -453q-24 -113 -91.5 -169.5t-155.5 -56.5z" />
    <glyph glyph-name="Yacute" unicode="&#xdd;" horiz-adv-x="489" 
d="M279 0h-177l59 269l-75 398h179l14 -232l117 232h193l-252 -398zM539 867l-144 -144h-99l112 144h131z" />
    <glyph glyph-name="Thorn" unicode="&#xde;" horiz-adv-x="496" 
d="M164 0h-177l147 667h177l-22 -101h30q81 0 134 -52.5t53 -134.5q0 -105 -69 -181.5t-201 -76.5h-46zM248 275q32 0 53.5 24.5t21.5 60.5q0 25 -13 38.5t-32 13.5h-23l-30 -137h23z" />
    <glyph glyph-name="germandbls" unicode="&#xdf;" horiz-adv-x="581" 
d="M553 171q0 -69 -52.5 -126t-136.5 -57q-119 0 -178 72l74 102q36 -49 84 -49q15 0 26 9t11 22q0 14 -20 28.5t-43.5 27t-43.5 40t-20 63.5t13.5 63.5t32 42.5t37.5 27.5t32.5 27t13.5 32.5q0 19 -17.5 30.5t-44.5 11.5q-31 0 -50.5 -18t-28.5 -59l-101 -461h-158l101 461
q21 95 84.5 155.5t164.5 60.5q87 0 151 -47t64 -116q0 -34 -14 -61.5t-33.5 -44.5t-39 -30t-33.5 -24.5t-14 -21.5q0 -13 21.5 -26t48 -24.5t48 -40.5t21.5 -70z" />
    <glyph glyph-name="agrave" unicode="&#xe0;" horiz-adv-x="461" 
d="M207 495q81 0 103 -67l13 55h156l-107 -483h-157l12 53q-44 -65 -104 -65q-117 0 -117 165q0 72 20.5 147.5t68.5 135t112 59.5zM247 356q-20 0 -36 -20.5t-25 -50.5t-13.5 -58.5t-4.5 -49.5q0 -50 40 -50q26 0 43 33l36 162q-8 34 -40 34zM347 556h-97l-80 144h129z" />
    <glyph glyph-name="aacute" unicode="&#xe1;" horiz-adv-x="461" 
d="M207 495q81 0 103 -67l13 55h156l-107 -483h-157l12 53q-44 -65 -104 -65q-117 0 -117 165q0 72 20.5 147.5t68.5 135t112 59.5zM247 356q-20 0 -36 -20.5t-25 -50.5t-13.5 -58.5t-4.5 -49.5q0 -50 40 -50q26 0 43 33l36 162q-8 34 -40 34zM486 700l-144 -144h-99
l112 144h131z" />
    <glyph glyph-name="acircumflex" unicode="&#xe2;" horiz-adv-x="461" 
d="M207 495q81 0 103 -67l13 55h156l-107 -483h-157l12 53q-44 -65 -104 -65q-117 0 -117 165q0 72 20.5 147.5t68.5 135t112 59.5zM247 356q-20 0 -36 -20.5t-25 -50.5t-13.5 -58.5t-4.5 -49.5q0 -50 40 -50q26 0 43 33l36 162q-8 34 -40 34zM426 556h-82l-30 79l-62 -79
h-86l91 144h138z" />
    <glyph glyph-name="atilde" unicode="&#xe3;" horiz-adv-x="461" 
d="M207 495q81 0 103 -67l13 55h156l-107 -483h-157l12 53q-44 -65 -104 -65q-117 0 -117 165q0 72 20.5 147.5t68.5 135t112 59.5zM247 356q-20 0 -36 -20.5t-25 -50.5t-13.5 -58.5t-4.5 -49.5q0 -50 40 -50q26 0 43 33l36 162q-8 34 -40 34zM351 554q-20 0 -33.5 8.5
t-19 18t-14 18t-19.5 8.5q-21 0 -31 -47h-80q30 134 116 134q20 0 33.5 -8.5t19 -18.5t14.5 -18.5t20 -8.5q19 0 31 48h80q-14 -62 -43.5 -98t-73.5 -36z" />
    <glyph glyph-name="adieresis" unicode="&#xe4;" horiz-adv-x="461" 
d="M207 495q81 0 103 -67l13 55h156l-107 -483h-157l12 53q-44 -65 -104 -65q-117 0 -117 165q0 72 20.5 147.5t68.5 135t112 59.5zM247 356q-20 0 -36 -20.5t-25 -50.5t-13.5 -58.5t-4.5 -49.5q0 -50 40 -50q26 0 43 33l36 162q-8 34 -40 34zM483 624q0 -35 -28 -62
t-63 -27q-30 0 -50 20.5t-20 50.5q0 35 27.5 62t62.5 27q30 0 50.5 -20.5t20.5 -50.5zM298 624q0 -35 -27.5 -62t-62.5 -27q-31 0 -51 20.5t-20 50.5q0 35 27.5 62t62.5 27q30 0 50.5 -20.5t20.5 -50.5z" />
    <glyph glyph-name="aring" unicode="&#xe5;" horiz-adv-x="461" 
d="M207 495q81 0 103 -67l13 55h156l-107 -483h-157l12 53q-44 -65 -104 -65q-117 0 -117 165q0 72 20.5 147.5t68.5 135t112 59.5zM247 356q-20 0 -36 -20.5t-25 -50.5t-13.5 -58.5t-4.5 -49.5q0 -50 40 -50q26 0 43 33l36 162q-8 34 -40 34zM299 520q-37 0 -60.5 24
t-23.5 61q0 43 31.5 75t74.5 32q37 0 60.5 -24t23.5 -61q0 -43 -31.5 -75t-74.5 -32zM308 584q14 0 24.5 11t10.5 25q0 13 -7.5 21t-20.5 8q-14 0 -24.5 -11t-10.5 -25q0 -13 7.5 -21t20.5 -8z" />
    <glyph glyph-name="ae" unicode="&#xe6;" horiz-adv-x="698" 
d="M247 356q-20 0 -36 -20.5t-25 -50.5t-13.5 -58.5t-4.5 -49.5q0 -50 40 -50q26 0 43 33l36 162q-8 34 -40 34zM386 63l-14 -63h-157l12 53q-44 -65 -104 -65q-117 0 -117 165q0 72 20.5 147.5t68.5 135t112 59.5q81 0 103 -67l13 55h156l-8 -41q45 54 101 53
q61 -1 89.5 -42t28.5 -125q0 -70 -20 -139h-253q-2 -8 -2 -14q0 -19 19.5 -38t62.5 -19q41 0 79 31l48 -110q-52 -51 -125 -51q-87 0 -113 75zM439 297h109q2 18 2 25q0 22 -13 34.5t-32 12.5q-29 0 -45 -21.5t-21 -50.5z" />
    <glyph glyph-name="ccedilla" unicode="&#xe7;" horiz-adv-x="371" 
d="M145 -198q-63 0 -102 41l37 54q26 -33 64 -33q15 0 24.5 8.5t9.5 21.5q0 18 -18 18q-12 0 -21 -12l-47 30l40 68q-59 17 -91 64.5t-32 120.5q0 124 69.5 218t179.5 94q92 0 144 -50l-70 -118q-19 29 -59 29q-43 0 -73 -46.5t-30 -105.5q0 -38 19 -57.5t52 -19.5
q30 0 55 22l19 -125q-45 -36 -115 -36h-2l-24 -37q10 9 23 9q24 0 39.5 -16.5t15.5 -45.5q0 -42 -30 -69t-77 -27z" />
    <glyph glyph-name="egrave" unicode="&#xe8;" horiz-adv-x="435" 
d="M200 -12q-90 0 -140.5 52.5t-50.5 145.5q0 73 28 142t85.5 118t131.5 49q89 0 131 -49t42 -131q0 -46 -20 -126h-254q-1 -4 -1 -15q0 -20 18 -40t63 -20q38 0 80 31l48 -98q-30 -27 -74 -43t-87 -16zM175 297h110q2 16 2 24q0 22 -13 35t-33 13q-29 0 -45 -21.5
t-21 -50.5zM350 556h-97l-80 144h129z" />
    <glyph glyph-name="eacute" unicode="&#xe9;" horiz-adv-x="435" 
d="M488 700l-144 -144h-99l112 144h131zM200 -12q-90 0 -140.5 52.5t-50.5 145.5q0 73 28 142t85.5 118t131.5 49q89 0 131 -49t42 -131q0 -46 -20 -126h-254q-1 -4 -1 -15q0 -20 18 -40t63 -20q38 0 80 31l48 -98q-30 -27 -74 -43t-87 -16zM175 297h110q2 16 2 24
q0 22 -13 35t-33 13q-29 0 -45 -21.5t-21 -50.5z" />
    <glyph glyph-name="ecircumflex" unicode="&#xea;" horiz-adv-x="435" 
d="M426 556h-82l-30 79l-62 -79h-86l91 144h138zM200 -12q-90 0 -140.5 52.5t-50.5 145.5q0 73 28 142t85.5 118t131.5 49q89 0 131 -49t42 -131q0 -46 -20 -126h-254q-1 -4 -1 -15q0 -20 18 -40t63 -20q38 0 80 31l48 -98q-30 -27 -74 -43t-87 -16zM175 297h110q2 16 2 24
q0 22 -13 35t-33 13q-29 0 -45 -21.5t-21 -50.5z" />
    <glyph glyph-name="edieresis" unicode="&#xeb;" horiz-adv-x="435" 
d="M484 624q0 -35 -28 -62t-63 -27q-30 0 -50 20.5t-20 50.5q0 35 27.5 62t62.5 27q30 0 50.5 -20.5t20.5 -50.5zM299 624q0 -35 -27.5 -62t-62.5 -27q-31 0 -51 20.5t-20 50.5q0 35 27.5 62t62.5 27q30 0 50.5 -20.5t20.5 -50.5zM200 -12q-90 0 -140.5 52.5t-50.5 145.5
q0 73 28 142t85.5 118t131.5 49q89 0 131 -49t42 -131q0 -46 -20 -126h-254q-1 -4 -1 -15q0 -20 18 -40t63 -20q38 0 80 31l48 -98q-30 -27 -74 -43t-87 -16zM175 297h110q2 16 2 24q0 22 -13 35t-33 13q-29 0 -45 -21.5t-21 -50.5z" />
    <glyph glyph-name="igrave" unicode="&#xec;" horiz-adv-x="228" 
d="M139 0h-158l107 483h158zM235 556h-97l-80 144h129z" />
    <glyph glyph-name="iacute" unicode="&#xed;" horiz-adv-x="228" 
d="M374 700l-144 -144h-99l112 144h131zM139 0h-158l107 483h158z" />
    <glyph glyph-name="icircumflex" unicode="&#xee;" horiz-adv-x="228" 
d="M313 556h-82l-30 79l-62 -79h-86l91 144h138zM139 0h-158l107 483h158z" />
    <glyph glyph-name="idieresis" unicode="&#xef;" horiz-adv-x="228" 
d="M370 624q0 -35 -28 -62t-63 -27q-30 0 -50 20.5t-20 50.5q0 35 27.5 62t62.5 27q30 0 50.5 -20.5t20.5 -50.5zM185 624q0 -35 -27.5 -62t-62.5 -27q-31 0 -51 20.5t-20 50.5q0 35 27.5 62t62.5 27q30 0 50.5 -20.5t20.5 -50.5zM139 0h-158l107 483h158z" />
    <glyph glyph-name="eth" unicode="&#xf0;" horiz-adv-x="451" 
d="M207 484l-17 71l100 29q-7 46 -22 84l152 47q18 -55 25 -85l62 18l15 -70l-65 -20q6 -54 6 -116q0 -78 -14 -153.5t-43.5 -145t-83 -112.5t-123.5 -43q-94 0 -143 51t-49 134q0 62 22.5 124t70.5 107.5t108 45.5q43 0 67.5 -24t32.5 -62q-2 98 -8 148zM204 127
q31 0 50.5 42.5t19.5 88.5q0 53 -40 53q-31 0 -49.5 -45.5t-18.5 -87.5q0 -51 38 -51z" />
    <glyph glyph-name="ntilde" unicode="&#xf1;" 
d="M373 0h-158l70 316q0 1 1 7t1 8q0 25 -23 25q-29 0 -57 -47l-68 -309h-158l107 483h158l-14 -57q22 28 56.5 48.5t70.5 20.5q46 0 73 -24.5t27 -64.5q0 -8 -3 -26zM356 554q-20 0 -33.5 8.5t-19 18t-14 18t-19.5 8.5q-21 0 -31 -47h-80q30 134 116 134q20 0 33.5 -8.5
t19 -18.5t14.5 -18.5t20 -8.5q19 0 31 48h80q-14 -62 -43.5 -98t-73.5 -36z" />
    <glyph glyph-name="ograve" unicode="&#xf2;" horiz-adv-x="451" 
d="M196 -12q-92 0 -139.5 53t-47.5 144q0 73 27.5 142.5t85 118.5t131.5 49q92 0 140 -53t48 -144q0 -53 -17 -107.5t-47 -100t-77.5 -74t-103.5 -28.5zM205 127q35 0 56 63.5t21 111.5q0 54 -38 54q-34 0 -55 -64t-21 -111q0 -54 37 -54zM346 556h-97l-80 144h129z" />
    <glyph glyph-name="oacute" unicode="&#xf3;" horiz-adv-x="451" 
d="M484 700l-144 -144h-99l112 144h131zM196 -12q-92 0 -139.5 53t-47.5 144q0 73 27.5 142.5t85 118.5t131.5 49q92 0 140 -53t48 -144q0 -53 -17 -107.5t-47 -100t-77.5 -74t-103.5 -28.5zM205 127q35 0 56 63.5t21 111.5q0 54 -38 54q-34 0 -55 -64t-21 -111
q0 -54 37 -54z" />
    <glyph glyph-name="ocircumflex" unicode="&#xf4;" horiz-adv-x="451" 
d="M425 556h-82l-30 79l-62 -79h-86l91 144h138zM196 -12q-92 0 -139.5 53t-47.5 144q0 73 27.5 142.5t85 118.5t131.5 49q92 0 140 -53t48 -144q0 -53 -17 -107.5t-47 -100t-77.5 -74t-103.5 -28.5zM205 127q35 0 56 63.5t21 111.5q0 54 -38 54q-34 0 -55 -64t-21 -111
q0 -54 37 -54z" />
    <glyph glyph-name="otilde" unicode="&#xf5;" horiz-adv-x="451" 
d="M196 -12q-92 0 -139.5 53t-47.5 144q0 73 27.5 142.5t85 118.5t131.5 49q92 0 140 -53t48 -144q0 -53 -17 -107.5t-47 -100t-77.5 -74t-103.5 -28.5zM205 127q35 0 56 63.5t21 111.5q0 54 -38 54q-34 0 -55 -64t-21 -111q0 -54 37 -54zM350 554q-20 0 -33.5 8.5t-19 18
t-14 18t-19.5 8.5q-21 0 -31 -47h-80q30 134 116 134q20 0 33.5 -8.5t19 -18.5t14.5 -18.5t20 -8.5q19 0 31 48h80q-14 -62 -43.5 -98t-73.5 -36z" />
    <glyph glyph-name="odieresis" unicode="&#xf6;" horiz-adv-x="451" 
d="M481 624q0 -35 -28 -62t-63 -27q-30 0 -50 20.5t-20 50.5q0 35 27.5 62t62.5 27q30 0 50.5 -20.5t20.5 -50.5zM296 624q0 -35 -27.5 -62t-62.5 -27q-31 0 -51 20.5t-20 50.5q0 35 27.5 62t62.5 27q30 0 50.5 -20.5t20.5 -50.5zM196 -12q-92 0 -139.5 53t-47.5 144
q0 73 27.5 142.5t85 118.5t131.5 49q92 0 140 -53t48 -144q0 -53 -17 -107.5t-47 -100t-77.5 -74t-103.5 -28.5zM205 127q35 0 56 63.5t21 111.5q0 54 -38 54q-34 0 -55 -64t-21 -111q0 -54 37 -54z" />
    <glyph glyph-name="divide" unicode="&#xf7;" horiz-adv-x="374" 
d="M355 291h-316l21 93h316zM168 120q-26 0 -44.5 18.5t-18.5 44.5q0 31 22.5 53.5t53.5 22.5q26 0 44.5 -19t18.5 -45q0 -30 -23 -52.5t-53 -22.5zM234 415q-26 0 -45 18.5t-19 44.5q0 31 22.5 53.5t53.5 22.5q26 0 45 -19t19 -45q0 -30 -23 -52.5t-53 -22.5z" />
    <glyph glyph-name="oslash" unicode="&#xf8;" horiz-adv-x="451" 
d="M51 0h-86l68 75q-24 45 -24 110q0 73 27.5 142.5t85 118.5t131.5 49q75 0 123 -38l24 26h85l-68 -76q24 -45 24 -109q0 -53 -17 -107.5t-47 -100t-77.5 -74t-103.5 -28.5q-77 0 -123 37zM244 356q-26 0 -44 -37.5t-27 -87.5l100 111q-8 14 -29 14zM205 127q48 0 71 124
l-100 -112q8 -12 29 -12z" />
    <glyph glyph-name="ugrave" unicode="&#xf9;" 
d="M88 483h158l-69 -312q-4 -18 -4 -22q0 -9 6.5 -15.5t17.5 -6.5q31 0 56 46l69 310h158l-107 -483h-158l13 57q-22 -28 -56 -48.5t-70 -20.5q-47 0 -74 24.5t-27 64.5q0 2 4 26zM352 556h-97l-80 144h129z" />
    <glyph glyph-name="uacute" unicode="&#xfa;" 
d="M489 700l-144 -144h-99l112 144h131zM88 483h158l-69 -312q-4 -18 -4 -22q0 -9 6.5 -15.5t17.5 -6.5q31 0 56 46l69 310h158l-107 -483h-158l13 57q-22 -28 -56 -48.5t-70 -20.5q-47 0 -74 24.5t-27 64.5q0 2 4 26z" />
    <glyph glyph-name="ucircumflex" unicode="&#xfb;" 
d="M429 556h-82l-30 79l-62 -79h-86l91 144h138zM88 483h158l-69 -312q-4 -18 -4 -22q0 -9 6.5 -15.5t17.5 -6.5q31 0 56 46l69 310h158l-107 -483h-158l13 57q-22 -28 -56 -48.5t-70 -20.5q-47 0 -74 24.5t-27 64.5q0 2 4 26z" />
    <glyph glyph-name="udieresis" unicode="&#xfc;" 
d="M486 624q0 -35 -28 -62t-63 -27q-30 0 -50 20.5t-20 50.5q0 35 27.5 62t62.5 27q30 0 50.5 -20.5t20.5 -50.5zM301 624q0 -35 -27.5 -62t-62.5 -27q-31 0 -51 20.5t-20 50.5q0 35 27.5 62t62.5 27q30 0 50.5 -20.5t20.5 -50.5zM88 483h158l-69 -312q-4 -18 -4 -22
q0 -9 6.5 -15.5t17.5 -6.5q31 0 56 46l69 310h158l-107 -483h-158l13 57q-22 -28 -56 -48.5t-70 -20.5q-47 0 -74 24.5t-27 64.5q0 2 4 26z" />
    <glyph glyph-name="yacute" unicode="&#xfd;" horiz-adv-x="435" 
d="M-47 -181l50 129q8 -5 23 -5q22 0 36 24l17 30l-32 486h162l-7 -284l122 284h170l-280 -547q-41 -77 -78 -104.5t-94 -27.5t-89 15zM472 700l-144 -144h-99l112 144h131z" />
    <glyph glyph-name="thorn" unicode="&#xfe;" horiz-adv-x="461" 
d="M254 -12q-82 0 -104 67l-52 -239h-157l187 851h158l-53 -237q46 65 105 65q116 0 116 -165q0 -52 -12.5 -109.5t-36 -110.5t-63.5 -87.5t-88 -34.5zM213 127q20 0 36 20.5t25 50t13.5 58t4.5 50.5q0 50 -40 50q-25 0 -42 -33l-36 -162q7 -34 39 -34z" />
    <glyph glyph-name="ydieresis" unicode="&#xff;" horiz-adv-x="435" 
d="M-47 -181l50 129q8 -5 23 -5q22 0 36 24l17 30l-32 486h162l-7 -284l122 284h170l-280 -547q-41 -77 -78 -104.5t-94 -27.5t-89 15zM469 624q0 -35 -28 -62t-63 -27q-30 0 -50 20.5t-20 50.5q0 35 27.5 62t62.5 27q30 0 50.5 -20.5t20.5 -50.5zM284 624q0 -35 -27.5 -62
t-62.5 -27q-31 0 -51 20.5t-20 50.5q0 35 27.5 62t62.5 27q30 0 50.5 -20.5t20.5 -50.5z" />
    <glyph glyph-name="Amacron" unicode="&#x100;" horiz-adv-x="484" 
d="M436 0h-177l7 93h-107l-34 -93h-185l293 667h203v-667zM280 247l17 228l-83 -228h66zM481 722h-267l18 87h268z" />
    <glyph glyph-name="amacron" unicode="&#x101;" horiz-adv-x="461" 
d="M207 495q81 0 103 -67l13 55h156l-107 -483h-157l12 53q-44 -65 -104 -65q-117 0 -117 165q0 72 20.5 147.5t68.5 135t112 59.5zM247 356q-20 0 -36 -20.5t-25 -50.5t-13.5 -58.5t-4.5 -49.5q0 -50 40 -50q26 0 43 33l36 162q-8 34 -40 34zM429 555h-267l18 87h268z" />
    <glyph glyph-name="Abreve" unicode="&#x102;" horiz-adv-x="484" 
d="M436 0h-177l7 93h-107l-34 -93h-185l293 667h203v-667zM280 247l17 228l-83 -228h66zM485 770q-60 -65 -143 -65q-82 0 -115 65l78 52q15 -31 52 -31q38 0 66 31z" />
    <glyph glyph-name="abreve" unicode="&#x103;" horiz-adv-x="461" 
d="M207 495q81 0 103 -67l13 55h156l-107 -483h-157l12 53q-44 -65 -104 -65q-117 0 -117 165q0 72 20.5 147.5t68.5 135t112 59.5zM247 356q-20 0 -36 -20.5t-25 -50.5t-13.5 -58.5t-4.5 -49.5q0 -50 40 -50q26 0 43 33l36 162q-8 34 -40 34zM435 603q-60 -65 -143 -65
q-82 0 -115 65l78 52q15 -31 52 -31q38 0 66 31z" />
    <glyph glyph-name="Aogonek" unicode="&#x104;" horiz-adv-x="484" 
d="M405 -102l51 -37q-33 -47 -81 -47q-37 0 -61 18t-24 53q0 60 57 115h-88l7 93h-107l-34 -93h-185l293 667h203v-667q-73 -49 -73 -107q0 -17 17 -17q16 0 25 22zM280 247l17 228l-83 -228h66z" />
    <glyph glyph-name="aogonek" unicode="&#x105;" horiz-adv-x="461" 
d="M341 -102l51 -37q-33 -47 -81 -47q-37 0 -61 18t-24 53q0 60 57 115h-68l12 53q-44 -65 -104 -65q-117 0 -117 165q0 72 20.5 147.5t68.5 135t112 59.5q81 0 103 -67l13 55h156l-107 -483q-73 -49 -73 -107q0 -17 17 -17q16 0 25 22zM247 356q-20 0 -36 -20.5t-25 -50.5
t-13.5 -58.5t-4.5 -49.5q0 -50 40 -50q26 0 43 33l36 162q-8 34 -40 34z" />
    <glyph glyph-name="Cacute" unicode="&#x106;" horiz-adv-x="467" 
d="M560 872l-144 -144h-99l112 144h131zM231 -12q-102 0 -156 63.5t-54 171.5q0 51 10 109t34 120.5t58.5 112t88 81.5t118.5 32q53 0 92.5 -20.5t60.5 -54.5t31 -72t10 -80l-163 -32q-2 103 -41 103q-26 0 -49.5 -35t-38.5 -84.5t-23.5 -99.5t-8.5 -84q0 -75 39 -75t73 78
l142 -56q-76 -178 -223 -178z" />
    <glyph glyph-name="cacute" unicode="&#x107;" horiz-adv-x="371" 
d="M493 700l-144 -144h-99l112 144h131zM200 -12q-89 0 -140 51t-51 144q0 124 69.5 218t179.5 94q92 0 144 -50l-70 -118q-19 29 -59 29q-43 0 -73 -46.5t-30 -105.5q0 -38 19 -57.5t52 -19.5q30 0 55 22l19 -125q-45 -36 -115 -36z" />
    <glyph glyph-name="Ccircumflex" unicode="&#x108;" horiz-adv-x="467" 
d="M498 723h-82l-30 79l-62 -79h-86l91 144h138zM231 -12q-102 0 -156 63.5t-54 171.5q0 51 10 109t34 120.5t58.5 112t88 81.5t118.5 32q53 0 92.5 -20.5t60.5 -54.5t31 -72t10 -80l-163 -32q-2 103 -41 103q-26 0 -49.5 -35t-38.5 -84.5t-23.5 -99.5t-8.5 -84
q0 -75 39 -75t73 78l142 -56q-76 -178 -223 -178z" />
    <glyph glyph-name="ccircumflex" unicode="&#x109;" horiz-adv-x="371" 
d="M433 556h-82l-30 79l-62 -79h-86l91 144h138zM200 -12q-89 0 -140 51t-51 144q0 124 69.5 218t179.5 94q92 0 144 -50l-70 -118q-19 29 -59 29q-43 0 -73 -46.5t-30 -105.5q0 -38 19 -57.5t52 -19.5q30 0 55 22l19 -125q-45 -36 -115 -36z" />
    <glyph glyph-name="Cdotaccent" unicode="&#x10a;" horiz-adv-x="467" 
d="M231 -12q-102 0 -156 63.5t-54 171.5q0 51 10 109t34 120.5t58.5 112t88 81.5t118.5 32q53 0 92.5 -20.5t60.5 -54.5t31 -72t10 -80l-163 -32q-2 103 -41 103q-26 0 -49.5 -35t-38.5 -84.5t-23.5 -99.5t-8.5 -84q0 -75 39 -75t73 78l142 -56q-76 -178 -223 -178zM464 792
q0 -35 -28 -62t-63 -27q-31 0 -51 20.5t-20 50.5q0 35 28 62t63 27q30 0 50.5 -20t20.5 -51z" />
    <glyph glyph-name="cdotaccent" unicode="&#x10b;" horiz-adv-x="371" 
d="M200 -12q-89 0 -140 51t-51 144q0 124 69.5 218t179.5 94q92 0 144 -50l-70 -118q-19 29 -59 29q-43 0 -73 -46.5t-30 -105.5q0 -38 19 -57.5t52 -19.5q30 0 55 22l19 -125q-45 -36 -115 -36zM398 625q0 -35 -28 -62t-63 -27q-31 0 -51 20.5t-20 50.5q0 35 28 62t63 27
q30 0 50.5 -20t20.5 -51z" />
    <glyph glyph-name="Ccaron" unicode="&#x10c;" horiz-adv-x="467" 
d="M438 723h-138l-30 144h82l30 -79l62 79h86zM231 -12q-102 0 -156 63.5t-54 171.5q0 51 10 109t34 120.5t58.5 112t88 81.5t118.5 32q53 0 92.5 -20.5t60.5 -54.5t31 -72t10 -80l-163 -32q-2 103 -41 103q-26 0 -49.5 -35t-38.5 -84.5t-23.5 -99.5t-8.5 -84q0 -75 39 -75
t73 78l142 -56q-76 -178 -223 -178z" />
    <glyph glyph-name="ccaron" unicode="&#x10d;" horiz-adv-x="371" 
d="M373 556h-138l-30 144h82l30 -79l62 79h86zM200 -12q-89 0 -140 51t-51 144q0 124 69.5 218t179.5 94q92 0 144 -50l-70 -118q-19 29 -59 29q-43 0 -73 -46.5t-30 -105.5q0 -38 19 -57.5t52 -19.5q30 0 55 22l19 -125q-45 -36 -115 -36z" />
    <glyph glyph-name="Dcaron" unicode="&#x10e;" horiz-adv-x="524" 
d="M446 723h-138l-30 144h82l30 -79l62 79h86zM194 0h-207l147 667h201q82 0 140.5 -63t58.5 -171q0 -52 -9.5 -106.5t-34.5 -114t-62 -106t-98 -76.5t-136 -30zM198 154h27q32 0 58.5 31.5t41.5 77.5t22.5 90t7.5 77q0 41 -14.5 62t-37.5 21h-26z" />
    <glyph glyph-name="dcaron" unicode="&#x10f;" horiz-adv-x="605" 
d="M689 607q0 -48 -36 -96.5t-90 -74.5l-41 42q61 27 82 66q-2 -1 -10 -1q-23 0 -39 15.5t-16 43.5q0 31 25 54.5t56 23.5q29 0 49 -19.5t20 -53.5zM207 495q81 0 103 -67l53 239h156l-147 -667h-157l12 53q-44 -65 -104 -65q-117 0 -117 165q0 72 20.5 147.5t68.5 135
t112 59.5zM247 356q-20 0 -36 -20.5t-25 -50.5t-13.5 -58.5t-4.5 -49.5q0 -50 40 -50q26 0 43 33l36 162q-8 34 -40 34z" />
    <glyph glyph-name="Dcroat" unicode="&#x110;" horiz-adv-x="550" 
d="M220 0h-207l58 264h-56l31 139h55l59 264h201q82 0 140.5 -63t58.5 -171q0 -52 -9.5 -106.5t-34.5 -114t-62 -106t-98 -76.5t-136 -30zM304 264h-56l-24 -110h27q32 0 58.5 31.5t41.5 77.5t22.5 90t7.5 77q0 41 -14.5 62t-37.5 21h-26l-25 -110h56z" />
    <glyph glyph-name="dcroat" unicode="&#x111;" horiz-adv-x="470" 
d="M207 495q81 0 103 -67l21 98h-108l21 87h107l12 54h156l-12 -54h45l-22 -87h-42l-116 -526h-157l12 53q-44 -65 -104 -65q-117 0 -117 165q0 72 20.5 147.5t68.5 135t112 59.5zM247 356q-20 0 -36 -20.5t-25 -50.5t-13.5 -58.5t-4.5 -49.5q0 -50 40 -50q26 0 43 33
l36 162q-8 34 -40 34z" />
    <glyph glyph-name="Emacron" unicode="&#x112;" horiz-adv-x="405" 
d="M323 0h-336l147 667h336l-34 -154h-159l-21 -98h152l-34 -154h-153l-23 -107h159zM448 722h-267l18 87h268z" />
    <glyph glyph-name="emacron" unicode="&#x113;" horiz-adv-x="435" 
d="M200 -12q-90 0 -140.5 52.5t-50.5 145.5q0 73 28 142t85.5 118t131.5 49q89 0 131 -49t42 -131q0 -46 -20 -126h-254q-1 -4 -1 -15q0 -20 18 -40t63 -20q38 0 80 31l48 -98q-30 -27 -74 -43t-87 -16zM175 297h110q2 16 2 24q0 22 -13 35t-33 13q-29 0 -45 -21.5
t-21 -50.5zM431 555h-267l18 87h268z" />
    <glyph glyph-name="Ebreve" unicode="&#x114;" horiz-adv-x="405" 
d="M323 0h-336l147 667h336l-34 -154h-159l-21 -98h152l-34 -154h-153l-23 -107h159zM453 770q-60 -65 -143 -65q-82 0 -115 65l78 52q15 -31 52 -31q38 0 66 31z" />
    <glyph glyph-name="ebreve" unicode="&#x115;" horiz-adv-x="435" 
d="M200 -12q-90 0 -140.5 52.5t-50.5 145.5q0 73 28 142t85.5 118t131.5 49q89 0 131 -49t42 -131q0 -46 -20 -126h-254q-1 -4 -1 -15q0 -20 18 -40t63 -20q38 0 80 31l48 -98q-30 -27 -74 -43t-87 -16zM175 297h110q2 16 2 24q0 22 -13 35t-33 13q-29 0 -45 -21.5
t-21 -50.5zM436 603q-60 -65 -143 -65q-82 0 -115 65l78 52q15 -31 52 -31q38 0 66 31z" />
    <glyph glyph-name="Edotaccent" unicode="&#x116;" horiz-adv-x="405" 
d="M323 0h-336l147 667h336l-34 -154h-159l-21 -98h152l-34 -154h-153l-23 -107h159zM411 799q0 -35 -28 -62t-63 -27q-31 0 -51 20.5t-20 50.5q0 35 28 62t63 27q30 0 50.5 -20t20.5 -51z" />
    <glyph glyph-name="edotaccent" unicode="&#x117;" horiz-adv-x="435" 
d="M200 -12q-90 0 -140.5 52.5t-50.5 145.5q0 73 28 142t85.5 118t131.5 49q89 0 131 -49t42 -131q0 -46 -20 -126h-254q-1 -4 -1 -15q0 -20 18 -40t63 -20q38 0 80 31l48 -98q-30 -27 -74 -43t-87 -16zM175 297h110q2 16 2 24q0 22 -13 35t-33 13q-29 0 -45 -21.5
t-21 -50.5zM392 625q0 -35 -28 -62t-63 -27q-31 0 -51 20.5t-20 50.5q0 35 28 62t63 27q30 0 50.5 -20t20.5 -51z" />
    <glyph glyph-name="Eogonek" unicode="&#x118;" horiz-adv-x="405" 
d="M323 0q-73 -49 -73 -107q0 -17 17 -17q16 0 25 22l51 -37q-33 -47 -81 -47q-37 0 -61 18t-24 53q0 60 57 115h-247l147 667h336l-34 -154h-159l-21 -98h152l-34 -154h-153l-23 -107h159z" />
    <glyph glyph-name="eogonek" unicode="&#x119;" horiz-adv-x="435" 
d="M244 -102l51 -37q-33 -47 -81 -47q-37 0 -61 18t-24 53q0 55 47 104q-80 7 -123.5 59t-43.5 138q0 73 28 142t85.5 118t131.5 49q89 0 131 -49t42 -131q0 -46 -20 -126h-254q-1 -4 -1 -15q0 -20 18 -40t63 -20q38 0 80 31l48 -98q-33 -32 -88 -48q-71 -48 -71 -106
q0 -17 17 -17q16 0 25 22zM175 297h110q2 16 2 24q0 22 -13 35t-33 13q-29 0 -45 -21.5t-21 -50.5z" />
    <glyph glyph-name="Ecaron" unicode="&#x11a;" horiz-adv-x="405" 
d="M386 723h-138l-30 144h82l30 -79l62 79h86zM323 0h-336l147 667h336l-34 -154h-159l-21 -98h152l-34 -154h-153l-23 -107h159z" />
    <glyph glyph-name="ecaron" unicode="&#x11b;" horiz-adv-x="435" 
d="M367 556h-138l-30 144h82l30 -79l62 79h86zM200 -12q-90 0 -140.5 52.5t-50.5 145.5q0 73 28 142t85.5 118t131.5 49q89 0 131 -49t42 -131q0 -46 -20 -126h-254q-1 -4 -1 -15q0 -20 18 -40t63 -20q38 0 80 31l48 -98q-30 -27 -74 -43t-87 -16zM175 297h110q2 16 2 24
q0 22 -13 35t-33 13q-29 0 -45 -21.5t-21 -50.5z" />
    <glyph glyph-name="Gcircumflex" unicode="&#x11c;" horiz-adv-x="495" 
d="M499 723h-82l-30 79l-62 -79h-86l91 144h138zM231 -12q-103 0 -156.5 64t-53.5 171q0 56 11 116.5t36 121.5t60 109t87.5 78t114.5 30q95 0 139.5 -56.5t45.5 -146.5l-148 -37q0 36 -11.5 60t-34.5 24q-33 0 -62.5 -56.5t-44 -125.5t-14.5 -121q0 -40 9.5 -57.5
t30.5 -17.5q29 0 56 32l12 55h-61l35 154h214l-61 -274q-81 -123 -204 -123z" />
    <glyph glyph-name="gcircumflex" unicode="&#x11d;" horiz-adv-x="461" 
d="M423 547h-82l-30 79l-62 -79h-86l91 144h138zM140 -196q-122 0 -180 66l76 115q37 -48 99 -48q65 0 87 95l11 48q-42 -66 -104 -66q-120 0 -120 154q0 50 11 103.5t32.5 105.5t62 85t91.5 33q33 0 64.5 -17t38.5 -50l13 55h157l-101 -451q-28 -127 -89 -177.5t-149 -50.5
zM212 154q24 0 44 33l30 135q-11 34 -41 34q-37 0 -55.5 -52t-18.5 -100q0 -50 41 -50z" />
    <glyph glyph-name="Gbreve" unicode="&#x11e;" horiz-adv-x="495" 
d="M231 -12q-103 0 -156.5 64t-53.5 171q0 56 11 116.5t36 121.5t60 109t87.5 78t114.5 30q95 0 139.5 -56.5t45.5 -146.5l-148 -37q0 36 -11.5 60t-34.5 24q-33 0 -62.5 -56.5t-44 -125.5t-14.5 -121q0 -40 9.5 -57.5t30.5 -17.5q29 0 56 32l12 55h-61l35 154h214l-61 -274
q-81 -123 -204 -123zM506 770q-60 -65 -143 -65q-82 0 -115 65l78 52q15 -31 52 -31q38 0 66 31z" />
    <glyph glyph-name="gbreve" unicode="&#x11f;" horiz-adv-x="461" 
d="M140 -196q-122 0 -180 66l76 115q37 -48 99 -48q65 0 87 95l11 48q-42 -66 -104 -66q-120 0 -120 154q0 50 11 103.5t32.5 105.5t62 85t91.5 33q33 0 64.5 -17t38.5 -50l13 55h157l-101 -451q-28 -127 -89 -177.5t-149 -50.5zM212 154q24 0 44 33l30 135q-11 34 -41 34
q-37 0 -55.5 -52t-18.5 -100q0 -50 41 -50zM435 603q-60 -65 -143 -65q-82 0 -115 65l78 52q15 -31 52 -31q38 0 66 31z" />
    <glyph glyph-name="Gdotaccent" unicode="&#x120;" horiz-adv-x="495" 
d="M231 -12q-103 0 -156.5 64t-53.5 171q0 56 11 116.5t36 121.5t60 109t87.5 78t114.5 30q95 0 139.5 -56.5t45.5 -146.5l-148 -37q0 36 -11.5 60t-34.5 24q-33 0 -62.5 -56.5t-44 -125.5t-14.5 -121q0 -40 9.5 -57.5t30.5 -17.5q29 0 56 32l12 55h-61l35 154h214l-61 -274
q-81 -123 -204 -123zM464 793q0 -35 -28 -62t-63 -27q-31 0 -51 20.5t-20 50.5q0 35 28 62t63 27q30 0 50.5 -20t20.5 -51z" />
    <glyph glyph-name="gdotaccent" unicode="&#x121;" horiz-adv-x="461" 
d="M140 -196q-122 0 -180 66l76 115q37 -48 99 -48q65 0 87 95l11 48q-42 -66 -104 -66q-120 0 -120 154q0 50 11 103.5t32.5 105.5t62 85t91.5 33q33 0 64.5 -17t38.5 -50l13 55h157l-101 -451q-28 -127 -89 -177.5t-149 -50.5zM212 154q24 0 44 33l30 135q-11 34 -41 34
q-37 0 -55.5 -52t-18.5 -100q0 -50 41 -50zM391 625q0 -35 -28 -62t-63 -27q-31 0 -51 20.5t-20 50.5q0 35 28 62t63 27q30 0 50.5 -20t20.5 -51z" />
    <glyph glyph-name="Gcommaaccent" unicode="&#x122;" horiz-adv-x="495" 
d="M256 -120q0 -48 -36 -96.5t-90 -74.5l-41 42q61 27 82 66q-2 -1 -10 -1q-23 0 -39 15.5t-16 43.5q0 31 25 54.5t56 23.5q29 0 49 -19.5t20 -53.5zM231 -12q-103 0 -156.5 64t-53.5 171q0 56 11 116.5t36 121.5t60 109t87.5 78t114.5 30q95 0 139.5 -56.5t45.5 -146.5
l-148 -37q0 36 -11.5 60t-34.5 24q-33 0 -62.5 -56.5t-44 -125.5t-14.5 -121q0 -40 9.5 -57.5t30.5 -17.5q29 0 56 32l12 55h-61l35 154h214l-61 -274q-81 -123 -204 -123z" />
    <glyph glyph-name="gcommaaccent" unicode="&#x123;" horiz-adv-x="461" 
d="M230 611q0 48 36.5 97t92.5 76l41 -43q-62 -27 -83 -67h9q25 0 41 -15t16 -43q0 -32 -25.5 -55.5t-56.5 -23.5q-30 0 -50.5 19.5t-20.5 54.5zM140 -196q-122 0 -180 66l76 115q37 -48 99 -48q65 0 87 95l11 48q-42 -66 -104 -66q-120 0 -120 154q0 50 11 103.5
t32.5 105.5t62 85t91.5 33q33 0 64.5 -17t38.5 -50l13 55h157l-101 -451q-28 -127 -89 -177.5t-149 -50.5zM212 154q24 0 44 33l30 135q-11 34 -41 34q-37 0 -55.5 -52t-18.5 -100q0 -50 41 -50z" />
    <glyph glyph-name="Hcircumflex" unicode="&#x124;" horiz-adv-x="532" 
d="M502 723h-82l-30 79l-62 -79h-86l91 144h138zM436 0h-176l58 266h-96l-58 -266h-177l147 667h177l-55 -247h97l54 247h176z" />
    <glyph glyph-name="hcircumflex" unicode="&#x125;" 
d="M469 723h-82l-30 79l-62 -79h-86l91 144h138zM373 0h-158l70 316l1 6q1 7 1 9q0 25 -23 25q-29 0 -57 -47l-68 -309h-158l147 667h158l-54 -241q22 28 56.5 48.5t70.5 20.5q46 0 73 -25t27 -64q0 -11 -3 -26z" />
    <glyph glyph-name="Hbar" unicode="&#x126;" horiz-adv-x="532" 
d="M436 0h-176l58 266h-96l-58 -266h-177l110 501h-40l18 86h41l18 80h177l-18 -80h96l18 80h176l-18 -80h38l-18 -86h-39zM256 420h97l17 81h-96z" />
    <glyph glyph-name="hbar" unicode="&#x127;" horiz-adv-x="471" 
d="M382 0h-158l70 316l1 6q1 7 1 9q0 25 -23 25q-29 0 -57 -47l-68 -309h-158l116 526h-33l19 87h33l12 54h158l-12 -54h117l-20 -87h-117l-22 -100q22 28 56.5 48.5t70.5 20.5q46 0 73 -25t27 -64q0 -11 -3 -26z" />
    <glyph glyph-name="Itilde" unicode="&#x128;" horiz-adv-x="259" 
d="M164 0h-177l147 667h177zM291 721q-20 0 -33.5 8.5t-19 18t-14 18t-19.5 8.5q-21 0 -31 -47h-80q30 134 116 134q20 0 33.5 -8.5t19 -18.5t14.5 -18.5t20 -8.5q19 0 31 48h80q-14 -62 -43.5 -98t-73.5 -36z" />
    <glyph glyph-name="itilde" unicode="&#x129;" horiz-adv-x="228" 
d="M139 0h-158l107 483h158zM240 554q-20 0 -33.5 8.5t-19 18t-14 18t-19.5 8.5q-21 0 -31 -47h-80q30 134 116 134q20 0 33.5 -8.5t19 -18.5t14.5 -18.5t20 -8.5q19 0 31 48h80q-14 -62 -43.5 -98t-73.5 -36z" />
    <glyph glyph-name="Imacron" unicode="&#x12a;" horiz-adv-x="259" 
d="M164 0h-177l147 667h177zM370 722h-267l18 87h268z" />
    <glyph glyph-name="imacron" unicode="&#x12b;" horiz-adv-x="228" 
d="M139 0h-158l107 483h158zM318 555h-267l18 87h268z" />
    <glyph glyph-name="Ibreve" unicode="&#x12c;" horiz-adv-x="259" 
d="M164 0h-177l147 667h177zM373 770q-60 -65 -143 -65q-82 0 -115 65l78 52q15 -31 52 -31q38 0 66 31z" />
    <glyph glyph-name="ibreve" unicode="&#x12d;" horiz-adv-x="228" 
d="M139 0h-158l107 483h158zM323 603q-60 -65 -143 -65q-82 0 -115 65l78 52q15 -31 52 -31q38 0 66 31z" />
    <glyph glyph-name="Iogonek" unicode="&#x12e;" horiz-adv-x="259" 
d="M133 -102l51 -37q-33 -47 -81 -47q-37 0 -61 18t-24 53q0 60 57 115h-88l147 667h177l-147 -667q-73 -49 -73 -107q0 -17 17 -17q16 0 25 22z" />
    <glyph glyph-name="iogonek" unicode="&#x12f;" horiz-adv-x="228" 
d="M108 -102l51 -37q-33 -47 -81 -47q-37 0 -61 18t-24 53q0 60 57 115h-69l107 483h158l-107 -483q-73 -49 -73 -107q0 -17 17 -17q16 0 25 22zM185 525q-35 0 -58.5 22.5t-23.5 54.5q0 47 32.5 75.5t70.5 28.5q35 0 58 -22.5t23 -54.5q0 -47 -32 -75.5t-70 -28.5z" />
    <glyph glyph-name="Idotaccent" unicode="&#x130;" horiz-adv-x="259" 
d="M164 0h-177l147 667h177zM331 792q0 -35 -28 -62t-63 -27q-31 0 -51 20.5t-20 50.5q0 35 28 62t63 27q30 0 50.5 -20t20.5 -51z" />
    <glyph glyph-name="dotlessi" unicode="&#x131;" horiz-adv-x="228" 
d="M139 0h-158l107 483h158z" />
    <glyph glyph-name="IJ" unicode="&#x132;" horiz-adv-x="635" 
d="M164 0h-177l147 667h177zM357 -12q-88 0 -136 36l65 143q20 -23 54 -23q56 0 68 57l103 466h177l-105 -475q-24 -107 -77.5 -155.5t-148.5 -48.5z" />
    <glyph glyph-name="ij" unicode="&#x133;" horiz-adv-x="456" 
d="M185 525q-35 0 -58.5 22.5t-23.5 54.5q0 47 32.5 75.5t70.5 28.5q35 0 58 -22.5t23 -54.5q0 -47 -32 -75.5t-70 -28.5zM139 0h-158l107 483h158zM175 -196q-56 0 -83 22l51 118q6 -7 22 -7q30 0 41 50l110 496h158l-111 -496q-20 -93 -61.5 -138t-126.5 -45zM413 525
q-35 0 -58.5 22.5t-23.5 54.5q0 47 32.5 75.5t70.5 28.5q35 0 58 -22.5t23 -54.5q0 -47 -32 -75.5t-70 -28.5z" />
    <glyph glyph-name="Jcircumflex" unicode="&#x134;" horiz-adv-x="375" 
d="M483 723h-82l-30 79l-62 -79h-86l91 144h138zM98 -12q-88 0 -136 36l65 143q20 -23 54 -23q56 0 68 57l103 466h177l-105 -475q-24 -107 -77.5 -155.5t-148.5 -48.5z" />
    <glyph glyph-name="jcircumflex" unicode="&#x135;" horiz-adv-x="228" 
d="M313 556h-82l-30 79l-62 -79h-86l91 144h138zM-53 -196q-56 0 -83 22l51 118q6 -7 22 -7q30 0 41 50l110 496h158l-111 -496q-20 -93 -61.5 -138t-126.5 -45z" />
    <glyph glyph-name="Kcommaaccent" unicode="&#x136;" horiz-adv-x="524" 
d="M273 -120q0 -48 -36 -96.5t-90 -74.5l-41 42q61 27 82 66q-2 -1 -10 -1q-23 0 -39 15.5t-16 43.5q0 31 25 54.5t56 23.5q29 0 49 -19.5t20 -53.5zM475 0h-185l-37 223l-59 -86l-30 -137h-177l147 667h177l-54 -248l153 248h201l-225 -311z" />
    <glyph glyph-name="kcommaaccent" unicode="&#x137;" horiz-adv-x="445" 
d="M225 -120q0 -48 -36 -96.5t-90 -74.5l-41 42q61 27 82 66q-2 -1 -10 -1q-23 0 -39 15.5t-16 43.5q0 31 25 54.5t56 23.5q29 0 49 -19.5t20 -53.5zM396 0h-171l-16 169l-48 -67l-22 -102h-158l147 667h158l-78 -355l109 171h177l-155 -213z" />
    <glyph glyph-name="kgreenlandic" unicode="&#x138;" horiz-adv-x="445" 
d="M396 0h-171l-16 169l-48 -67l-22 -102h-158l107 483h158l-38 -171l109 171h177l-155 -213z" />
    <glyph glyph-name="Lacute" unicode="&#x139;" horiz-adv-x="396" 
d="M504 867l-144 -144h-99l112 144h131zM323 0h-336l147 667h177l-113 -513h159z" />
    <glyph glyph-name="lacute" unicode="&#x13a;" horiz-adv-x="228" 
d="M410 867l-144 -144h-99l112 144h131zM139 0h-158l147 667h158z" />
    <glyph glyph-name="Lcommaaccent" unicode="&#x13b;" horiz-adv-x="396" 
d="M202 -120q0 -48 -36 -96.5t-90 -74.5l-41 42q61 27 82 66q-2 -1 -10 -1q-23 0 -39 15.5t-16 43.5q0 31 25 54.5t56 23.5q29 0 49 -19.5t20 -53.5zM323 0h-336l147 667h177l-113 -513h159z" />
    <glyph glyph-name="lcommaaccent" unicode="&#x13c;" horiz-adv-x="228" 
d="M107 -120q0 -48 -36 -96.5t-90 -74.5l-41 42q61 27 82 66q-2 -1 -10 -1q-23 0 -39 15.5t-16 43.5q0 31 25 54.5t56 23.5q29 0 49 -19.5t20 -53.5zM139 0h-158l147 667h158z" />
    <glyph glyph-name="Lcaron" unicode="&#x13d;" horiz-adv-x="396" 
d="M486 609q0 -48 -36 -96.5t-90 -74.5l-41 42q61 27 82 66q-2 -1 -10 -1q-23 0 -39 15.5t-16 43.5q0 31 25 54.5t56 23.5q29 0 49 -19.5t20 -53.5zM323 0h-336l147 667h177l-113 -513h159z" />
    <glyph glyph-name="lcaron" unicode="&#x13e;" horiz-adv-x="371" 
d="M465 608q0 -48 -36 -96.5t-90 -74.5l-41 42q61 27 82 66q-2 -1 -10 -1q-23 0 -39 15.5t-16 43.5q0 31 25 54.5t56 23.5q29 0 49 -19.5t20 -53.5zM139 0h-158l147 667h158z" />
    <glyph glyph-name="Ldot" unicode="&#x13f;" horiz-adv-x="495" 
d="M323 0h-336l147 667h177l-113 -513h159zM391 246q-36 0 -61.5 26t-25.5 62q0 43 31 74t74 31q36 0 61 -26t25 -63q0 -42 -31 -73t-73 -31z" />
    <glyph glyph-name="ldot" unicode="&#x140;" horiz-adv-x="426" 
d="M139 0h-158l147 667h158zM318 148q-36 0 -61.5 26t-25.5 62q0 43 31 74t74 31q36 0 61 -26t25 -63q0 -42 -31 -73t-73 -31z" />
    <glyph glyph-name="Lslash" unicode="&#x141;" horiz-adv-x="402" 
d="M-1 190l31 141l40 21l70 315h177l-47 -212l64 33l-31 -142l-64 -33l-35 -159h159l-34 -154h-336l46 211z" />
    <glyph glyph-name="lslash" unicode="&#x142;" horiz-adv-x="260" 
d="M2 207l25 112l45 23l72 325h158l-52 -235l47 24l-25 -112l-47 -24l-70 -320h-158l50 230z" />
    <glyph glyph-name="Nacute" unicode="&#x143;" horiz-adv-x="532" 
d="M562 867l-144 -144h-99l112 144h131zM436 0h-164l-47 278l-61 -278h-177l147 667h177l39 -261l57 261h176z" />
    <glyph glyph-name="nacute" unicode="&#x144;" 
d="M491 700l-144 -144h-99l112 144h131zM373 0h-158l70 316q0 1 1 7t1 8q0 25 -23 25q-29 0 -57 -47l-68 -309h-158l107 483h158l-14 -57q22 28 56.5 48.5t70.5 20.5q46 0 73 -24.5t27 -64.5q0 -8 -3 -26z" />
    <glyph glyph-name="Ncommaaccent" unicode="&#x145;" horiz-adv-x="532" 
d="M259 -120q0 -48 -36 -96.5t-90 -74.5l-41 42q61 27 82 66q-2 -1 -10 -1q-23 0 -39 15.5t-16 43.5q0 31 25 54.5t56 23.5q29 0 49 -19.5t20 -53.5zM436 0h-164l-47 278l-61 -278h-177l147 667h177l39 -261l57 261h176z" />
    <glyph glyph-name="ncommaaccent" unicode="&#x146;" 
d="M224 -120q0 -48 -36 -96.5t-90 -74.5l-41 42q61 27 82 66q-2 -1 -10 -1q-23 0 -39 15.5t-16 43.5q0 31 25 54.5t56 23.5q29 0 49 -19.5t20 -53.5zM373 0h-158l70 316q0 1 1 7t1 8q0 25 -23 25q-29 0 -57 -47l-68 -309h-158l107 483h158l-14 -57q22 28 56.5 48.5
t70.5 20.5q46 0 73 -24.5t27 -64.5q0 -8 -3 -26z" />
    <glyph glyph-name="Ncaron" unicode="&#x147;" horiz-adv-x="532" 
d="M442 723h-138l-30 144h82l30 -79l62 79h86zM436 0h-164l-47 278l-61 -278h-177l147 667h177l39 -261l57 261h176z" />
    <glyph glyph-name="ncaron" unicode="&#x148;" 
d="M370 556h-138l-30 144h82l30 -79l62 79h86zM373 0h-158l70 316q0 1 1 7t1 8q0 25 -23 25q-29 0 -57 -47l-68 -309h-158l107 483h158l-14 -57q22 28 56.5 48.5t70.5 20.5q46 0 73 -24.5t27 -64.5q0 -8 -3 -26z" />
    <glyph glyph-name="napostrophe" unicode="&#x149;" 
d="M262 704q0 -48 -36 -96.5t-90 -74.5l-41 42q61 27 82 66q-2 -1 -10 -1q-23 0 -39 15.5t-16 43.5q0 31 25 54.5t56 23.5q29 0 49 -19.5t20 -53.5zM373 0h-158l70 316q0 1 1 7t1 8q0 25 -23 25q-29 0 -57 -47l-68 -309h-158l107 483h158l-14 -57q22 28 56.5 48.5t70.5 20.5
q46 0 73 -24.5t27 -64.5q0 -8 -3 -26z" />
    <glyph glyph-name="Eng" unicode="&#x14a;" horiz-adv-x="532" 
d="M212 -196q-86 0 -136 36l61 134q21 -18 57 -18q26 0 44 15t24 42l4 18l-41 247l-61 -278h-177l147 667h177l39 -261l57 261h176l-145 -659q-24 -107 -77.5 -155.5t-148.5 -48.5z" />
    <glyph glyph-name="eng" unicode="&#x14b;" 
d="M456 380l-86 -391q-23 -100 -66.5 -142.5t-122.5 -42.5q-51 0 -83 22l52 124q6 -7 21 -7q31 0 42 46l72 327q2 10 2 14q0 26 -23 26q-30 0 -57 -47l-68 -309h-158l107 483h158l-14 -58q21 29 55.5 49.5t71.5 20.5q45 0 72.5 -24.5t27.5 -63.5q0 -13 -3 -27z" />
    <glyph glyph-name="Omacron" unicode="&#x14c;" horiz-adv-x="522" 
d="M500 722h-267l18 87h268zM231 -12q-103 0 -156.5 65t-53.5 170q0 52 10.5 110.5t34.5 120.5t58.5 111.5t88 81t117.5 31.5q102 0 156 -66t54 -170q0 -52 -10.5 -110.5t-34.5 -120.5t-59 -111t-88 -80.5t-117 -31.5zM239 144q34 0 63.5 59t43.5 127.5t14 114.5
q0 77 -40 77q-26 0 -49.5 -35t-38.5 -85t-23.5 -100t-8.5 -83q0 -75 39 -75z" />
    <glyph glyph-name="omacron" unicode="&#x14d;" horiz-adv-x="451" 
d="M428 555h-267l18 87h268zM196 -12q-92 0 -139.5 53t-47.5 144q0 73 27.5 142.5t85 118.5t131.5 49q92 0 140 -53t48 -144q0 -53 -17 -107.5t-47 -100t-77.5 -74t-103.5 -28.5zM205 127q35 0 56 63.5t21 111.5q0 54 -38 54q-34 0 -55 -64t-21 -111q0 -54 37 -54z" />
    <glyph glyph-name="Obreve" unicode="&#x14e;" horiz-adv-x="522" 
d="M231 -12q-103 0 -156.5 65t-53.5 170q0 52 10.5 110.5t34.5 120.5t58.5 111.5t88 81t117.5 31.5q102 0 156 -66t54 -170q0 -52 -10.5 -110.5t-34.5 -120.5t-59 -111t-88 -80.5t-117 -31.5zM239 144q34 0 63.5 59t43.5 127.5t14 114.5q0 77 -40 77q-26 0 -49.5 -35
t-38.5 -85t-23.5 -100t-8.5 -83q0 -75 39 -75zM505 770q-60 -65 -143 -65q-82 0 -115 65l78 52q15 -31 52 -31q38 0 66 31z" />
    <glyph glyph-name="obreve" unicode="&#x14f;" horiz-adv-x="451" 
d="M196 -12q-92 0 -139.5 53t-47.5 144q0 73 27.5 142.5t85 118.5t131.5 49q92 0 140 -53t48 -144q0 -53 -17 -107.5t-47 -100t-77.5 -74t-103.5 -28.5zM205 127q35 0 56 63.5t21 111.5q0 54 -38 54q-34 0 -55 -64t-21 -111q0 -54 37 -54zM433 603q-60 -65 -143 -65
q-82 0 -115 65l78 52q15 -31 52 -31q38 0 66 31z" />
    <glyph glyph-name="Ohungarumlaut" unicode="&#x150;" horiz-adv-x="522" 
d="M423 867l-116 -144h-81l83 144h114zM563 867l-116 -144h-81l83 144h114zM231 -12q-103 0 -156.5 65t-53.5 170q0 52 10.5 110.5t34.5 120.5t58.5 111.5t88 81t117.5 31.5q102 0 156 -66t54 -170q0 -52 -10.5 -110.5t-34.5 -120.5t-59 -111t-88 -80.5t-117 -31.5zM239 144
q34 0 63.5 59t43.5 127.5t14 114.5q0 77 -40 77q-26 0 -49.5 -35t-38.5 -85t-23.5 -100t-8.5 -83q0 -75 39 -75z" />
    <glyph glyph-name="ohungarumlaut" unicode="&#x151;" horiz-adv-x="451" 
d="M352 700l-116 -144h-81l83 144h114zM492 700l-116 -144h-81l83 144h114zM196 -12q-92 0 -139.5 53t-47.5 144q0 73 27.5 142.5t85 118.5t131.5 49q92 0 140 -53t48 -144q0 -53 -17 -107.5t-47 -100t-77.5 -74t-103.5 -28.5zM205 127q35 0 56 63.5t21 111.5q0 54 -38 54
q-34 0 -55 -64t-21 -111q0 -54 37 -54z" />
    <glyph glyph-name="OE" unicode="&#x152;" horiz-adv-x="671" 
d="M598 0h-335l6 34q-18 -24 -45 -35t-50 -11q-69 0 -112 61.5t-43 173.5q0 71 20 148.5t56 146.5t94.5 114t127.5 45q27 0 52 -12t34 -32l7 34h335l-34 -154h-159l-21 -98h152l-34 -154h-152l-24 -107h160zM307 204l58 259q-4 58 -43 58q-37 0 -67 -59t-43.5 -126.5
t-13.5 -116.5q0 -75 41 -75q40 0 68 60z" />
    <glyph glyph-name="oe" unicode="&#x153;" horiz-adv-x="693" 
d="M666 189h-250q-1 -2 -1 -14q0 -23 17.5 -41.5t59.5 -18.5q43 0 80 31l48 -99q-65 -59 -159 -59t-131 67q-61 -67 -136 -67q-92 0 -138.5 53.5t-46.5 143.5q0 76 28 145.5t84.5 117t129.5 47.5q87 0 131 -66q52 66 133 66q80 0 125.5 -44t45.5 -136q0 -42 -20 -126z
M438 297h105q3 9 3 24q0 47 -43 47q-54 0 -65 -71zM278 302q0 54 -37 54q-34 0 -53.5 -60.5t-19.5 -114.5t37 -54q34 0 53.5 62.5t19.5 112.5z" />
    <glyph glyph-name="Racute" unicode="&#x154;" horiz-adv-x="510" 
d="M551 867l-144 -144h-99l112 144h131zM433 0h-184l-9 222h-27l-49 -222h-177l147 667h209q79 0 131.5 -54.5t52.5 -134.5q0 -73 -38 -138t-82 -85zM247 376h26q31 0 51 24.5t20 59.5q0 27 -12.5 40t-32.5 13h-22z" />
    <glyph glyph-name="racute" unicode="&#x155;" horiz-adv-x="309" 
d="M445 700l-144 -144h-99l112 144h131zM139 0h-158l107 483h158l-13 -56q18 30 51.5 49.5t69.5 19.5l-35 -154q-12 6 -30 6q-47 0 -84 -46z" />
    <glyph glyph-name="Rcommaaccent" unicode="&#x156;" horiz-adv-x="510" 
d="M249 -120q0 -48 -36 -96.5t-90 -74.5l-41 42q61 27 82 66q-2 -1 -10 -1q-23 0 -39 15.5t-16 43.5q0 31 25 54.5t56 23.5q29 0 49 -19.5t20 -53.5zM433 0h-184l-9 222h-27l-49 -222h-177l147 667h209q79 0 131.5 -54.5t52.5 -134.5q0 -73 -38 -138t-82 -85zM247 376h26
q31 0 51 24.5t20 59.5q0 27 -12.5 40t-32.5 13h-22z" />
    <glyph glyph-name="rcommaaccent" unicode="&#x157;" horiz-adv-x="309" 
d="M165 -120q0 -48 -36 -96.5t-90 -74.5l-41 42q61 27 82 66q-2 -1 -10 -1q-23 0 -39 15.5t-16 43.5q0 31 25 54.5t56 23.5q29 0 49 -19.5t20 -53.5zM139 0h-158l107 483h158l-13 -56q18 30 51.5 49.5t69.5 19.5l-35 -154q-12 6 -30 6q-47 0 -84 -46z" />
    <glyph glyph-name="Rcaron" unicode="&#x158;" horiz-adv-x="510" 
d="M432 723h-138l-30 144h82l30 -79l62 79h86zM433 0h-184l-9 222h-27l-49 -222h-177l147 667h209q79 0 131.5 -54.5t52.5 -134.5q0 -73 -38 -138t-82 -85zM247 376h26q31 0 51 24.5t20 59.5q0 27 -12.5 40t-32.5 13h-22z" />
    <glyph glyph-name="rcaron" unicode="&#x159;" horiz-adv-x="309" 
d="M316 556h-138l-30 144h82l30 -79l62 79h86zM139 0h-158l107 483h158l-13 -56q18 30 51.5 49.5t69.5 19.5l-35 -154q-12 6 -30 6q-47 0 -84 -46z" />
    <glyph glyph-name="Sacute" unicode="&#x15a;" horiz-adv-x="437" 
d="M518 867l-144 -144h-99l112 144h131zM178 -12q-65 0 -120.5 23t-85.5 61l97 130q19 -26 49 -42t60 -16q22 0 36 14t14 36q0 20 -25.5 44.5t-56 47t-56 63.5t-25.5 91q0 99 68 168.5t169 69.5q52 0 102 -19t82 -54l-91 -131q-37 48 -95 48q-23 0 -35 -13.5t-12 -32.5
q0 -18 16.5 -37t40 -38t47 -41.5t40 -56.5t16.5 -75q0 -99 -65.5 -169.5t-169.5 -70.5z" />
    <glyph glyph-name="sacute" unicode="&#x15b;" horiz-adv-x="382" 
d="M454 700l-144 -144h-99l112 144h131zM156 -12q-61 0 -113.5 23.5t-73.5 52.5l82 101q42 -54 103 -54q21 0 33 8.5t12 21.5q0 11 -16.5 21.5t-40 22t-47 27t-40 43t-16.5 62.5q0 74 49.5 126t138.5 52q49 0 96 -19t79 -53l-78 -100q-12 16 -40.5 32.5t-56.5 16.5
q-38 0 -38 -27q0 -11 26 -25t57 -28t57 -46.5t26 -76.5q0 -74 -54.5 -127.5t-144.5 -53.5z" />
    <glyph glyph-name="Scircumflex" unicode="&#x15c;" horiz-adv-x="437" 
d="M457 723h-82l-30 79l-62 -79h-86l91 144h138zM178 -12q-65 0 -120.5 23t-85.5 61l97 130q19 -26 49 -42t60 -16q22 0 36 14t14 36q0 20 -25.5 44.5t-56 47t-56 63.5t-25.5 91q0 99 68 168.5t169 69.5q52 0 102 -19t82 -54l-91 -131q-37 48 -95 48q-23 0 -35 -13.5
t-12 -32.5q0 -18 16.5 -37t40 -38t47 -41.5t40 -56.5t16.5 -75q0 -99 -65.5 -169.5t-169.5 -70.5z" />
    <glyph glyph-name="scircumflex" unicode="&#x15d;" horiz-adv-x="382" 
d="M393 556h-82l-30 79l-62 -79h-86l91 144h138zM156 -12q-61 0 -113.5 23.5t-73.5 52.5l82 101q42 -54 103 -54q21 0 33 8.5t12 21.5q0 11 -16.5 21.5t-40 22t-47 27t-40 43t-16.5 62.5q0 74 49.5 126t138.5 52q49 0 96 -19t79 -53l-78 -100q-12 16 -40.5 32.5t-56.5 16.5
q-38 0 -38 -27q0 -11 26 -25t57 -28t57 -46.5t26 -76.5q0 -74 -54.5 -127.5t-144.5 -53.5z" />
    <glyph glyph-name="Scedilla" unicode="&#x15e;" horiz-adv-x="437" 
d="M126 -198q-63 0 -102 41l37 54q26 -33 64 -33q15 0 24.5 8.5t9.5 21.5q0 18 -18 18q-12 0 -21 -12l-47 30l38 65q-92 17 -139 77l97 130q19 -26 49 -42t60 -16q22 0 36 14t14 36q0 20 -25.5 44.5t-56 47t-56 63.5t-25.5 91q0 99 68 168.5t169 69.5q52 0 102 -19t82 -54
l-91 -131q-37 48 -95 48q-23 0 -35 -13.5t-12 -32.5q0 -18 16.5 -37t40 -38t47 -41.5t40 -56.5t16.5 -75q0 -98 -65 -168.5t-169 -71.5l-24 -37q10 9 23 9q24 0 39.5 -16.5t15.5 -45.5q0 -42 -30 -69t-77 -27z" />
    <glyph glyph-name="scedilla" unicode="&#x15f;" horiz-adv-x="382" 
d="M100 -198q-63 0 -102 41l37 54q26 -33 64 -33q15 0 24.5 8.5t9.5 21.5q0 18 -18 18q-12 0 -21 -12l-47 30l39 67q-82 19 -117 67l82 101q42 -54 103 -54q21 0 33 8.5t12 21.5q0 11 -16.5 21.5t-40 22t-47 27t-40 43t-16.5 62.5q0 74 49.5 126t138.5 52q49 0 96 -19
t79 -53l-78 -100q-12 16 -40.5 32.5t-56.5 16.5q-38 0 -38 -27q0 -11 26 -25t57 -28t57 -46.5t26 -76.5q0 -74 -54.5 -127.5t-144.5 -53.5h-3l-24 -37q10 9 23 9q24 0 39.5 -16.5t15.5 -45.5q0 -42 -30 -69t-77 -27z" />
    <glyph glyph-name="Scaron" unicode="&#x160;" horiz-adv-x="437" 
d="M398 723h-138l-30 144h82l30 -79l62 79h86zM178 -12q-65 0 -120.5 23t-85.5 61l97 130q19 -26 49 -42t60 -16q22 0 36 14t14 36q0 20 -25.5 44.5t-56 47t-56 63.5t-25.5 91q0 99 68 168.5t169 69.5q52 0 102 -19t82 -54l-91 -131q-37 48 -95 48q-23 0 -35 -13.5
t-12 -32.5q0 -18 16.5 -37t40 -38t47 -41.5t40 -56.5t16.5 -75q0 -99 -65.5 -169.5t-169.5 -70.5z" />
    <glyph glyph-name="scaron" unicode="&#x161;" horiz-adv-x="382" 
d="M333 556h-138l-30 144h82l30 -79l62 79h86zM156 -12q-61 0 -113.5 23.5t-73.5 52.5l82 101q42 -54 103 -54q21 0 33 8.5t12 21.5q0 11 -16.5 21.5t-40 22t-47 27t-40 43t-16.5 62.5q0 74 49.5 126t138.5 52q49 0 96 -19t79 -53l-78 -100q-12 16 -40.5 32.5t-56.5 16.5
q-38 0 -38 -27q0 -11 26 -25t57 -28t57 -46.5t26 -76.5q0 -74 -54.5 -127.5t-144.5 -53.5z" />
    <glyph glyph-name="Tcommaaccent" unicode="&#x162;" horiz-adv-x="406" 
d="M199 -120q0 -48 -36 -96.5t-90 -74.5l-41 42q61 27 82 66q-2 -1 -10 -1q-23 0 -39 15.5t-16 43.5q0 31 25 54.5t56 23.5q29 0 49 -19.5t20 -53.5zM238 0h-177l113 513h-97l34 154h370l-34 -154h-96z" />
    <glyph glyph-name="tcommaaccent" unicode="&#x163;" horiz-adv-x="282" 
d="M136 -120q0 -48 -36 -96.5t-90 -74.5l-41 42q61 27 82 66q-2 -1 -10 -1q-23 0 -39 15.5t-16 43.5q0 31 25 54.5t56 23.5q29 0 49 -19.5t20 -53.5zM164 -12q-142 0 -142 102q0 24 6 49l47 207h-42l31 137h41l29 132h158l-29 -132h56l-31 -137h-56l-39 -176q-2 -12 -2 -19
q0 -24 23 -24q10 0 18 6l-5 -133q-21 -12 -63 -12z" />
    <glyph glyph-name="Tcaron" unicode="&#x164;" horiz-adv-x="406" 
d="M375 723h-138l-30 144h82l30 -79l62 79h86zM238 0h-177l113 513h-97l34 154h370l-34 -154h-96z" />
    <glyph glyph-name="tcaron" unicode="&#x165;" horiz-adv-x="356" 
d="M478 704q0 -48 -36 -96.5t-90 -74.5l-41 42q61 27 82 66q-2 -1 -10 -1q-23 0 -39 15.5t-16 43.5q0 31 25 54.5t56 23.5q29 0 49 -19.5t20 -53.5zM164 -12q-142 0 -142 102q0 24 6 49l47 207h-42l31 137h41l29 132h158l-29 -132h56l-31 -137h-56l-39 -176q-2 -12 -2 -19
q0 -24 23 -24q10 0 18 6l-5 -133q-21 -12 -63 -12z" />
    <glyph glyph-name="Tbar" unicode="&#x166;" horiz-adv-x="406" 
d="M238 0h-177l53 244h-64l19 87h64l41 182h-97l34 154h370l-34 -154h-96l-41 -182h65l-19 -87h-65z" />
    <glyph glyph-name="tbar" unicode="&#x167;" horiz-adv-x="282" 
d="M164 -12q-142 0 -142 102q0 24 6 49l13 60h-41l19 86h42l14 61h-42l31 137h41l29 132h158l-29 -132h56l-31 -137h-56l-14 -61h34l-19 -86h-34l-6 -29q-2 -12 -2 -19q0 -24 23 -24q10 0 18 6l-5 -133q-21 -12 -63 -12z" />
    <glyph glyph-name="Utilde" unicode="&#x168;" horiz-adv-x="532" 
d="M236 -12q-87 0 -145.5 53.5t-58.5 139.5q0 21 4 40l98 446h177l-102 -463q-3 -18 -3 -21q0 -19 12 -30t31 -11q42 0 56 62l102 463h177l-101 -453q-24 -113 -91.5 -169.5t-155.5 -56.5zM428 721q-20 0 -33.5 8.5t-19 18t-14 18t-19.5 8.5q-21 0 -31 -47h-80
q30 134 116 134q20 0 33.5 -8.5t19 -18.5t14.5 -18.5t20 -8.5q19 0 31 48h80q-14 -62 -43.5 -98t-73.5 -36z" />
    <glyph glyph-name="utilde" unicode="&#x169;" 
d="M88 483h158l-69 -312q-4 -18 -4 -22q0 -9 6.5 -15.5t17.5 -6.5q31 0 56 46l69 310h158l-107 -483h-158l13 57q-22 -28 -56 -48.5t-70 -20.5q-47 0 -74 24.5t-27 64.5q0 2 4 26zM354 554q-20 0 -33.5 8.5t-19 18t-14 18t-19.5 8.5q-21 0 -31 -47h-80q30 134 116 134
q20 0 33.5 -8.5t19 -18.5t14.5 -18.5t20 -8.5q19 0 31 48h80q-14 -62 -43.5 -98t-73.5 -36z" />
    <glyph glyph-name="Umacron" unicode="&#x16a;" horiz-adv-x="532" 
d="M236 -12q-87 0 -145.5 53.5t-58.5 139.5q0 21 4 40l98 446h177l-102 -463q-3 -18 -3 -21q0 -19 12 -30t31 -11q42 0 56 62l102 463h177l-101 -453q-24 -113 -91.5 -169.5t-155.5 -56.5zM506 722h-267l18 87h268z" />
    <glyph glyph-name="umacron" unicode="&#x16b;" 
d="M88 483h158l-69 -312q-4 -18 -4 -22q0 -9 6.5 -15.5t17.5 -6.5q31 0 56 46l69 310h158l-107 -483h-158l13 57q-22 -28 -56 -48.5t-70 -20.5q-47 0 -74 24.5t-27 64.5q0 2 4 26zM434 555h-267l18 87h268z" />
    <glyph glyph-name="Ubreve" unicode="&#x16c;" horiz-adv-x="532" 
d="M236 -12q-87 0 -145.5 53.5t-58.5 139.5q0 21 4 40l98 446h177l-102 -463q-3 -18 -3 -21q0 -19 12 -30t31 -11q42 0 56 62l102 463h177l-101 -453q-24 -113 -91.5 -169.5t-155.5 -56.5zM510 770q-60 -65 -143 -65q-82 0 -115 65l78 52q15 -31 52 -31q38 0 66 31z" />
    <glyph glyph-name="ubreve" unicode="&#x16d;" 
d="M88 483h158l-69 -312q-4 -18 -4 -22q0 -9 6.5 -15.5t17.5 -6.5q31 0 56 46l69 310h158l-107 -483h-158l13 57q-22 -28 -56 -48.5t-70 -20.5q-47 0 -74 24.5t-27 64.5q0 2 4 26zM438 603q-60 -65 -143 -65q-82 0 -115 65l78 52q15 -31 52 -31q38 0 66 31z" />
    <glyph glyph-name="Uring" unicode="&#x16e;" horiz-adv-x="532" 
d="M375 687q-37 0 -60.5 24t-23.5 61q0 43 31.5 75t74.5 32q37 0 60.5 -24t23.5 -61q0 -43 -31.5 -75t-74.5 -32zM384 751q14 0 24.5 11t10.5 25q0 13 -7.5 21t-20.5 8q-14 0 -24.5 -11t-10.5 -25q0 -13 7.5 -21t20.5 -8zM236 -12q-87 0 -145.5 53.5t-58.5 139.5q0 21 4 40
l98 446h177l-102 -463q-3 -18 -3 -21q0 -19 12 -30t31 -11q42 0 56 62l102 463h177l-101 -453q-24 -113 -91.5 -169.5t-155.5 -56.5z" />
    <glyph glyph-name="uring" unicode="&#x16f;" 
d="M303 527q-37 0 -60.5 24t-23.5 61q0 43 31.5 75t74.5 32q37 0 60.5 -24t23.5 -61q0 -43 -31.5 -75t-74.5 -32zM312 591q14 0 24.5 11t10.5 25q0 13 -7.5 21t-20.5 8q-14 0 -24.5 -11t-10.5 -25q0 -13 7.5 -21t20.5 -8zM88 483h158l-69 -312q-4 -18 -4 -22q0 -9 6.5 -15.5
t17.5 -6.5q31 0 56 46l69 310h158l-107 -483h-158l13 57q-22 -28 -56 -48.5t-70 -20.5q-47 0 -74 24.5t-27 64.5q0 2 4 26z" />
    <glyph glyph-name="Uhungarumlaut" unicode="&#x170;" horiz-adv-x="532" 
d="M236 -12q-87 0 -145.5 53.5t-58.5 139.5q0 21 4 40l98 446h177l-102 -463q-3 -18 -3 -21q0 -19 12 -30t31 -11q42 0 56 62l102 463h177l-101 -453q-24 -113 -91.5 -169.5t-155.5 -56.5zM430 867l-116 -144h-81l83 144h114zM570 867l-116 -144h-81l83 144h114z" />
    <glyph glyph-name="uhungarumlaut" unicode="&#x171;" 
d="M88 483h158l-69 -312q-4 -18 -4 -22q0 -9 6.5 -15.5t17.5 -6.5q31 0 56 46l69 310h158l-107 -483h-158l13 57q-22 -28 -56 -48.5t-70 -20.5q-47 0 -74 24.5t-27 64.5q0 2 4 26zM357 700l-116 -144h-81l83 144h114zM497 700l-116 -144h-81l83 144h114z" />
    <glyph glyph-name="Uogonek" unicode="&#x172;" horiz-adv-x="532" 
d="M282 -102l51 -37q-33 -47 -81 -47q-37 0 -61 18t-24 53q0 55 47 104q-79 7 -130.5 59t-51.5 133q0 21 4 40l98 446h177l-102 -463q-3 -18 -3 -21q0 -19 12 -30t31 -11q42 0 56 62l102 463h177l-101 -453q-19 -86 -63.5 -139.5t-106.5 -74.5q-73 -49 -73 -107
q0 -17 17 -17q16 0 25 22z" />
    <glyph glyph-name="uogonek" unicode="&#x173;" 
d="M88 483h158l-69 -312q-4 -18 -4 -22q0 -9 6.5 -15.5t17.5 -6.5q31 0 56 46l69 310h158l-107 -483q-73 -49 -73 -107q0 -17 17 -17q16 0 25 22l51 -37q-33 -47 -81 -47q-37 0 -61 18t-24 53q0 60 57 115h-69l13 57q-22 -28 -56 -48.5t-70 -20.5q-47 0 -74 24.5t-27 64.5
q0 2 4 26z" />
    <glyph glyph-name="Wcircumflex" unicode="&#x174;" horiz-adv-x="684" 
d="M575 723h-82l-30 79l-62 -79h-86l91 144h138zM504 0h-176l36 346l-117 -346h-175l25 667h176l-40 -362l132 362h134l-26 -362l119 362h181z" />
    <glyph glyph-name="wcircumflex" unicode="&#x175;" horiz-adv-x="674" 
d="M526 556h-82l-30 79l-62 -79h-86l91 144h138zM506 0h-166l2 269l-116 -269h-166l-10 483h158l-11 -273l110 273h147l-3 -273l112 273h167z" />
    <glyph glyph-name="Ycircumflex" unicode="&#x176;" horiz-adv-x="489" 
d="M480 723h-82l-30 79l-62 -79h-86l91 144h138zM279 0h-177l59 269l-75 398h179l14 -232l117 232h193l-252 -398z" />
    <glyph glyph-name="ycircumflex" unicode="&#x177;" horiz-adv-x="435" 
d="M-47 -181l50 129q8 -5 23 -5q22 0 36 24l17 30l-32 486h162l-7 -284l122 284h170l-280 -547q-41 -77 -78 -104.5t-94 -27.5t-89 15zM412 556h-82l-30 79l-62 -79h-86l91 144h138z" />
    <glyph glyph-name="Ydieresis" unicode="&#x178;" horiz-adv-x="489" 
d="M536 791q0 -35 -28 -62t-63 -27q-30 0 -50 20.5t-20 50.5q0 35 27.5 62t62.5 27q30 0 50.5 -20.5t20.5 -50.5zM351 791q0 -35 -27.5 -62t-62.5 -27q-31 0 -51 20.5t-20 50.5q0 35 27.5 62t62.5 27q30 0 50.5 -20.5t20.5 -50.5zM279 0h-177l59 269l-75 398h179l14 -232
l117 232h193l-252 -398z" />
    <glyph glyph-name="Zacute" unicode="&#x179;" horiz-adv-x="412" 
d="M497 867l-144 -144h-99l112 144h131zM332 0h-360l32 147l225 366h-144l34 154h353l-31 -141l-230 -372h155z" />
    <glyph glyph-name="zacute" unicode="&#x17a;" horiz-adv-x="368" 
d="M440 700l-144 -144h-99l112 144h131zM295 0h-330l25 116l182 230h-131l31 137h326l-25 -111l-185 -235h136z" />
    <glyph glyph-name="Zdotaccent" unicode="&#x17b;" horiz-adv-x="412" 
d="M332 0h-360l32 147l225 366h-144l34 154h353l-31 -141l-230 -372h155zM403 792q0 -35 -28 -62t-63 -27q-31 0 -51 20.5t-20 50.5q0 35 28 62t63 27q30 0 50.5 -20t20.5 -51z" />
    <glyph glyph-name="zdotaccent" unicode="&#x17c;" horiz-adv-x="368" 
d="M295 0h-330l25 116l182 230h-131l31 137h326l-25 -111l-185 -235h136zM344 625q0 -35 -28 -62t-63 -27q-31 0 -51 20.5t-20 50.5q0 35 28 62t63 27q30 0 50.5 -20t20.5 -51z" />
    <glyph glyph-name="Zcaron" unicode="&#x17d;" horiz-adv-x="412" 
d="M379 723h-138l-30 144h82l30 -79l62 79h86zM332 0h-360l32 147l225 366h-144l34 154h353l-31 -141l-230 -372h155z" />
    <glyph glyph-name="zcaron" unicode="&#x17e;" horiz-adv-x="368" 
d="M320 556h-138l-30 144h82l30 -79l62 79h86zM295 0h-330l25 116l182 230h-131l31 137h326l-25 -111l-185 -235h136z" />
    <glyph glyph-name="longs" unicode="&#x17f;" horiz-adv-x="275" 
d="M156 0h-157l76 346h-42l31 137h41l4 19q17 81 56.5 128t116.5 47q79 0 114 -31l-57 -115q-13 13 -28 13q-36 0 -45 -42z" />
    <glyph glyph-name="florin" unicode="&#x192;" horiz-adv-x="431" 
d="M130 -161h-180l86 391h-37v137h68l34 158q16 71 60.5 111.5t112.5 40.5q73 0 113 -25l-42 -139q-11 10 -30 10q-33 0 -43 -46l-24 -110h67v-137h-98z" />
    <glyph glyph-name="Ohorn" unicode="&#x1a0;" horiz-adv-x="522" 
d="M231 -12q-103 0 -156.5 65t-53.5 170q0 52 10.5 110.5t34.5 120.5t58.5 111.5t88 81t117.5 31.5q121 0 175 -94q32 21 44 44q-2 -1 -8 -1q-20 0 -34 14t-14 38q0 28 21 48t49 20q26 0 44 -17t18 -47q0 -40 -27.5 -80t-71.5 -65q14 -45 14 -96q0 -52 -10.5 -110.5
t-34.5 -120.5t-59 -111t-88 -80.5t-117 -31.5zM239 144q34 0 63.5 59t43.5 127.5t14 114.5q0 77 -40 77q-26 0 -49.5 -35t-38.5 -85t-23.5 -100t-8.5 -83q0 -75 39 -75z" />
    <glyph glyph-name="ohorn" unicode="&#x1a1;" horiz-adv-x="451" 
d="M508 549q0 -38 -25.5 -76.5t-66.5 -64.5q25 -44 25 -110q0 -53 -17 -107.5t-47 -100t-77.5 -74t-103.5 -28.5q-92 0 -139.5 53t-47.5 144q0 73 27.5 142.5t85 118.5t131.5 49q84 0 133 -47q35 22 47 46q-2 -1 -8 -1q-21 0 -35 14t-14 38q0 28 21.5 48t49.5 20
q25 0 43 -17t18 -47zM205 127q35 0 56 63.5t21 111.5q0 54 -38 54q-34 0 -55 -64t-21 -111q0 -54 37 -54z" />
    <glyph glyph-name="Uhorn" unicode="&#x1af;" horiz-adv-x="532" 
d="M696 742q0 -45 -36 -92t-95 -69l-82 -367q-24 -113 -91.5 -169.5t-155.5 -56.5q-87 0 -145.5 53.5t-58.5 139.5q0 21 4 40l98 446h177l-102 -463q-3 -18 -3 -21q0 -19 12 -30t31 -11q42 0 56 62l102 463h177l-5 -23q30 21 41 43q-1 -1 -7 -1q-21 0 -35 13.5t-14 38.5
q0 27 21.5 47.5t48.5 20.5q26 0 44 -17t18 -47z" />
    <glyph glyph-name="uhorn" unicode="&#x1b0;" 
d="M545 566q0 -32 -20 -67.5t-56 -62.5l-96 -436h-158l13 57q-22 -28 -56 -48.5t-70 -20.5q-47 0 -74 24.5t-27 64.5q0 2 4 26l83 380h158l-70 -316q0 -2 -0.5 -4l-1 -4l-1 -4t-0.5 -3q0 -25 24 -25q31 0 56 46l69 310h124q15 12 23 28q-2 -1 -8 -1q-21 0 -35 14t-14 38
q0 28 21.5 48t49.5 20q26 0 44 -17t18 -47z" />
    <glyph glyph-name="AEacute" unicode="&#x1fc;" horiz-adv-x="659" 
d="M687 867l-144 -144h-99l112 144h131zM586 0h-335l20 93h-98l-47 -93h-184l379 667h412l-34 -154h-159l-21 -98h152l-34 -154h-152l-24 -107h159zM305 247l47 212l-104 -212h57z" />
    <glyph glyph-name="aeacute" unicode="&#x1fd;" horiz-adv-x="698" 
d="M605 700l-144 -144h-99l112 144h131zM247 356q-20 0 -36 -20.5t-25 -50.5t-13.5 -58.5t-4.5 -49.5q0 -50 40 -50q26 0 43 33l36 162q-8 34 -40 34zM386 63l-14 -63h-157l12 53q-44 -65 -104 -65q-117 0 -117 165q0 72 20.5 147.5t68.5 135t112 59.5q81 0 103 -67l13 55
h156l-8 -41q45 54 101 53q61 -1 89.5 -42t28.5 -125q0 -70 -20 -139h-253q-2 -8 -2 -14q0 -19 19.5 -38t62.5 -19q41 0 79 31l48 -110q-52 -51 -125 -51q-87 0 -113 75zM439 297h109q2 18 2 25q0 22 -13 34.5t-32 12.5q-29 0 -45 -21.5t-21 -50.5z" />
    <glyph glyph-name="Oslashacute" unicode="&#x1fe;" horiz-adv-x="522" 
d="M556 867l-144 -144h-99l112 144h131zM231 -12q-81 0 -134 43l-24 -31h-95l70 92q-27 56 -27 131q0 52 10.5 110.5t34.5 120.5t58.5 111.5t88 81t117.5 31.5q79 0 134 -44l25 33h95l-72 -94q28 -56 28 -131q0 -52 -10.5 -110.5t-34.5 -120.5t-59 -111t-88 -80.5
t-117 -31.5zM320 522q-38 0 -68 -67.5t-44 -154.5l146 191q-10 31 -34 31zM239 144q38 0 68 67t44 153l-146 -191q10 -29 34 -29z" />
    <glyph glyph-name="oslashacute" unicode="&#x1ff;" horiz-adv-x="451" 
d="M486 700l-144 -144h-99l112 144h131zM51 0h-86l68 75q-24 45 -24 110q0 73 27.5 142.5t85 118.5t131.5 49q75 0 123 -38l24 26h85l-68 -76q24 -45 24 -109q0 -53 -17 -107.5t-47 -100t-77.5 -74t-103.5 -28.5q-77 0 -123 37zM244 356q-26 0 -44 -37.5t-27 -87.5l100 111
q-8 14 -29 14zM205 127q48 0 71 124l-100 -112q8 -12 29 -12z" />
    <glyph glyph-name="Scommaaccent" unicode="&#x218;" horiz-adv-x="437" 
d="M214 -120q0 -48 -36 -96.5t-90 -74.5l-41 42q61 27 82 66q-2 -1 -10 -1q-23 0 -39 15.5t-16 43.5q0 31 25 54.5t56 23.5q29 0 49 -19.5t20 -53.5zM178 -12q-65 0 -120.5 23t-85.5 61l97 130q19 -26 49 -42t60 -16q22 0 36 14t14 36q0 20 -25.5 44.5t-56 47t-56 63.5
t-25.5 91q0 99 68 168.5t169 69.5q52 0 102 -19t82 -54l-91 -131q-37 48 -95 48q-23 0 -35 -13.5t-12 -32.5q0 -18 16.5 -37t40 -38t47 -41.5t40 -56.5t16.5 -75q0 -99 -65.5 -169.5t-169.5 -70.5z" />
    <glyph glyph-name="scommaaccent" unicode="&#x219;" horiz-adv-x="382" 
d="M187 -120q0 -48 -36 -96.5t-90 -74.5l-41 42q61 27 82 66q-2 -1 -10 -1q-23 0 -39 15.5t-16 43.5q0 31 25 54.5t56 23.5q29 0 49 -19.5t20 -53.5zM156 -12q-61 0 -113.5 23.5t-73.5 52.5l82 101q42 -54 103 -54q21 0 33 8.5t12 21.5q0 11 -16.5 21.5t-40 22t-47 27
t-40 43t-16.5 62.5q0 74 49.5 126t138.5 52q49 0 96 -19t79 -53l-78 -100q-12 16 -40.5 32.5t-56.5 16.5q-38 0 -38 -27q0 -11 26 -25t57 -28t57 -46.5t26 -76.5q0 -74 -54.5 -127.5t-144.5 -53.5z" />
    <glyph glyph-name="uni021A" unicode="&#x21a;" horiz-adv-x="406" 
d="M199 -120q0 -48 -36 -96.5t-90 -74.5l-41 42q61 27 82 66q-2 -1 -10 -1q-23 0 -39 15.5t-16 43.5q0 31 25 54.5t56 23.5q29 0 49 -19.5t20 -53.5zM238 0h-177l113 513h-97l34 154h370l-34 -154h-96z" />
    <glyph glyph-name="uni021B" unicode="&#x21b;" horiz-adv-x="282" 
d="M136 -120q0 -48 -36 -96.5t-90 -74.5l-41 42q61 27 82 66q-2 -1 -10 -1q-23 0 -39 15.5t-16 43.5q0 31 25 54.5t56 23.5q29 0 49 -19.5t20 -53.5zM164 -12q-142 0 -142 102q0 24 6 49l47 207h-42l31 137h41l29 132h158l-29 -132h56l-31 -137h-56l-39 -176q-2 -12 -2 -19
q0 -24 23 -24q10 0 18 6l-5 -133q-21 -12 -63 -12z" />
    <glyph glyph-name="uni0237" unicode="&#x237;" horiz-adv-x="228" 
d="M-53 -196q-56 0 -83 22l51 118q6 -7 22 -7q30 0 41 50l110 496h158l-111 -496q-20 -93 -61.5 -138t-126.5 -45z" />
    <glyph glyph-name="hsuperior" unicode="&#x2b0;" horiz-adv-x="333" 
d="M323 326h-111l44 198q2 8 2 14q0 16 -19 16q-15 0 -36 -31l-44 -197h-112l95 434h112l-33 -156q13 18 36 31t47 13q34 0 54.5 -17t20.5 -45q0 -3 -3 -18z" />
    <glyph glyph-name="uni02BC" unicode="&#x2bc;" horiz-adv-x="273" 
d="M310 582q0 -63 -46.5 -125.5t-117.5 -96.5l-54 56q81 35 106 84q-3 -1 -12 -1q-31 0 -52 20t-21 57q0 40 32.5 70.5t73.5 30.5q38 0 64.5 -25.5t26.5 -69.5z" />
    <glyph glyph-name="circumflex" unicode="&#x2c6;" horiz-adv-x="260" 
d="M329 556h-82l-30 79l-62 -79h-86l91 144h138z" />
    <glyph glyph-name="caron" unicode="&#x2c7;" horiz-adv-x="260" 
d="M269 556h-138l-30 144h82l30 -79l62 79h86z" />
    <glyph glyph-name="uni02C9" unicode="&#x2c9;" horiz-adv-x="268" 
d="M344 591h-267l19 86h267z" />
    <glyph glyph-name="uni02CB" unicode="&#x2cb;" horiz-adv-x="209" 
d="M278 556h-97l-80 144h129z" />
    <glyph glyph-name="breve" unicode="&#x2d8;" horiz-adv-x="258" 
d="M337 603q-60 -65 -143 -65q-82 0 -115 65l78 52q15 -31 52 -31q38 0 66 31z" />
    <glyph glyph-name="dotaccent" unicode="&#x2d9;" horiz-adv-x="210" 
d="M269 625q0 -35 -28 -62t-63 -27q-31 0 -51 20.5t-20 50.5q0 35 28 62t63 27q30 0 50.5 -20t20.5 -51z" />
    <glyph glyph-name="ring" unicode="&#x2da;" horiz-adv-x="188" 
d="M166 527q-37 0 -60.5 24t-23.5 61q0 43 31.5 75t74.5 32q37 0 60.5 -24t23.5 -61q0 -43 -31.5 -75t-74.5 -32zM175 591q14 0 24.5 11t10.5 25q0 13 -7.5 21t-20.5 8q-14 0 -24.5 -11t-10.5 -25q0 -13 7.5 -21t20.5 -8z" />
    <glyph glyph-name="ogonek" unicode="&#x2db;" horiz-adv-x="172" 
d="M37 -102l51 -37q-33 -47 -81 -47q-37 0 -61 18t-24 53q0 79 99 149l47 -34q-73 -49 -73 -107q0 -17 17 -17q16 0 25 22z" />
    <glyph glyph-name="tilde" unicode="&#x2dc;" horiz-adv-x="286" 
d="M267 554q-20 0 -33.5 8.5t-19 18t-14 18t-19.5 8.5q-21 0 -31 -47h-80q30 134 116 134q20 0 33.5 -8.5t19 -18.5t14.5 -18.5t20 -8.5q19 0 31 48h80q-14 -62 -43.5 -98t-73.5 -36z" />
    <glyph glyph-name="hungarumlaut" unicode="&#x2dd;" horiz-adv-x="303" 
d="M264 700l-116 -144h-81l83 144h114zM404 700l-116 -144h-81l83 144h114z" />
    <glyph glyph-name="hookabovecomb" unicode="&#x309;" horiz-adv-x="172" 
d="M233 724l-50 13q22 53 72 53q64 0 64 -58q0 -34 -24 -65h-58q20 25 25 50q5 24 -12 24q-11 0 -17 -17z" />
    <glyph glyph-name="uni037E" unicode="&#x37e;" horiz-adv-x="270" 
d="M200 85q0 -63 -46 -125t-118 -97l-54 56q81 35 106 84q-3 -1 -12 -1q-31 0 -52 20t-21 57q0 41 32.5 71t73.5 30q38 0 64.5 -25t26.5 -70zM159 297q-36 0 -61.5 26t-25.5 62q0 43 31 74t74 31q36 0 61.5 -26t25.5 -63q0 -42 -31 -73t-74 -31z" />
    <glyph glyph-name="tonos" unicode="&#x384;" 
d="M247 546h-66l71 219h121z" />
    <glyph glyph-name="dieresistonos" unicode="&#x385;" 
d="M314 546h-66l71 219h122zM553 624q0 -35 -27.5 -62t-62.5 -27q-31 0 -51 20.5t-20 50.5q0 35 27.5 62t62.5 27q31 0 51 -20.5t20 -50.5zM241 624q0 -35 -27.5 -62t-62.5 -27q-30 0 -50.5 20.5t-20.5 50.5q0 35 28 62t63 27q30 0 50 -20.5t20 -50.5z" />
    <glyph glyph-name="Alphatonos" unicode="&#x386;" horiz-adv-x="484" 
d="M140 546h-66l71 219h121zM436 0h-177l7 93h-107l-34 -93h-185l293 667h203v-667zM280 247l17 228l-83 -228h66z" />
    <glyph glyph-name="Epsilontonos" unicode="&#x388;" horiz-adv-x="483" 
d="M134 546h-66l71 219h121zM401 0h-336l147 667h336l-34 -154h-159l-21 -98h152l-34 -154h-153l-23 -107h159z" />
    <glyph glyph-name="Etatonos" unicode="&#x389;" horiz-adv-x="610" 
d="M134 546h-66l71 219h121zM514 0h-176l58 266h-96l-58 -266h-177l147 667h177l-55 -247h97l54 247h176z" />
    <glyph glyph-name="Iotatonos" unicode="&#x38a;" horiz-adv-x="337" 
d="M134 546h-66l71 219h121zM242 0h-177l147 667h177z" />
    <glyph glyph-name="Omicrontonos" unicode="&#x38c;" horiz-adv-x="557" 
d="M138 546h-66l71 219h121zM267 -12q-103 0 -156.5 65t-53.5 170q0 52 10.5 110.5t34.5 120.5t58.5 111.5t88 81t117.5 31.5q102 0 156 -66t54 -170q0 -52 -10.5 -110.5t-34.5 -120.5t-59 -111t-88 -80.5t-117 -31.5zM275 144q34 0 63.5 59t43.5 127.5t14 114.5
q0 77 -40 77q-26 0 -49.5 -35t-38.5 -85t-23.5 -100t-8.5 -83q0 -75 39 -75z" />
    <glyph glyph-name="Upsilontonos" unicode="&#x38e;" horiz-adv-x="612" 
d="M133 546h-66l71 219h121zM402 0h-177l59 269l-75 398h179l14 -232l117 232h193l-252 -398z" />
    <glyph glyph-name="Omegatonos" unicode="&#x38f;" horiz-adv-x="562" 
d="M138 546h-66l71 219h121zM51 154h94q-65 67 -65 170q0 82 34 162.5t100.5 136t146.5 55.5q97 0 161 -54.5t64 -160.5q0 -97 -40.5 -176.5t-111.5 -132.5h80l-34 -154h-208l35 154q39 32 66 135.5t27 154.5q0 38 -9 57.5t-33 19.5q-45 0 -80 -102t-35 -197q0 -50 15 -68
l-34 -154h-207z" />
    <glyph glyph-name="iotadieresistonos" unicode="&#x390;" horiz-adv-x="243" 
d="M205 546h-66l71 219h122zM444 624q0 -35 -27.5 -62t-62.5 -27q-31 0 -51 20.5t-20 50.5q0 35 27.5 62t62.5 27q31 0 51 -20.5t20 -50.5zM132 624q0 -35 -27.5 -62t-62.5 -27q-30 0 -50.5 20.5t-20.5 50.5q0 35 28 62t63 27q30 0 50 -20.5t20 -50.5zM113 -12
q-72 0 -95.5 34.5t-7.5 107.5l77 353h158l-72 -329q-5 -27 15 -27q9 0 15 2l-17 -131q-32 -10 -73 -10z" />
    <glyph glyph-name="Alpha" unicode="&#x391;" horiz-adv-x="484" 
d="M436 0h-177l7 93h-107l-34 -93h-185l293 667h203v-667zM280 247l17 228l-83 -228h66z" />
    <glyph glyph-name="Beta" unicode="&#x392;" horiz-adv-x="502" 
d="M274 0h-287l147 667h215q86 0 133 -44t47 -109q0 -67 -41 -122t-105 -61q42 -12 64.5 -46.5t22.5 -79.5q0 -80 -50 -142.5t-146 -62.5zM256 415h30q24 0 40 17.5t16 42.5q0 38 -48 38h-17zM232 154q27 0 44.5 18.5t17.5 48.5q0 40 -43 40h-30l-23 -107h34z" />
    <glyph glyph-name="Gamma" unicode="&#x393;" horiz-adv-x="400" 
d="M164 0h-177l147 667h336l-34 -154h-159z" />
    <glyph glyph-name="uni0394" unicode="&#x394;" horiz-adv-x="484" 
d="M436 0h-496l293 667h203v-667zM274 154l22 321l-117 -321h95z" />
    <glyph glyph-name="Epsilon" unicode="&#x395;" horiz-adv-x="405" 
d="M323 0h-336l147 667h336l-34 -154h-159l-21 -98h152l-34 -154h-153l-23 -107h159z" />
    <glyph glyph-name="Zeta" unicode="&#x396;" horiz-adv-x="412" 
d="M332 0h-360l32 147l225 366h-144l34 154h353l-31 -141l-230 -372h155z" />
    <glyph glyph-name="Eta" unicode="&#x397;" horiz-adv-x="532" 
d="M436 0h-176l58 266h-96l-58 -266h-177l147 667h177l-55 -247h97l54 247h176z" />
    <glyph glyph-name="Theta" unicode="&#x398;" horiz-adv-x="522" 
d="M309 261h-89l34 154h89zM231 -12q-103 0 -156.5 65t-53.5 170q0 52 10.5 110.5t34.5 120.5t58.5 111.5t88 81t117.5 31.5q102 0 156 -66t54 -170q0 -52 -10.5 -110.5t-34.5 -120.5t-59 -111t-88 -80.5t-117 -31.5zM239 144q34 0 63.5 59t43.5 127.5t14 114.5q0 77 -40 77
q-26 0 -49.5 -35t-38.5 -85t-23.5 -100t-8.5 -83q0 -75 39 -75z" />
    <glyph glyph-name="Iota" unicode="&#x399;" horiz-adv-x="259" 
d="M164 0h-177l147 667h177z" />
    <glyph glyph-name="Kappa" unicode="&#x39a;" horiz-adv-x="524" 
d="M475 0h-185l-37 223l-59 -86l-30 -137h-177l147 667h177l-54 -248l153 248h201l-225 -311z" />
    <glyph glyph-name="Lambda" unicode="&#x39b;" horiz-adv-x="484" 
d="M436 0h-177l38 475l-172 -475h-185l293 667h203v-667z" />
    <glyph glyph-name="Mu" unicode="&#x39c;" horiz-adv-x="675" 
d="M579 0h-174l71 321l-165 -321h-55l-22 321l-70 -321h-177l147 667h215l18 -268l141 268h218z" />
    <glyph glyph-name="Nu" unicode="&#x39d;" horiz-adv-x="532" 
d="M436 0h-164l-47 278l-61 -278h-177l147 667h177l39 -261l57 261h176z" />
    <glyph glyph-name="Xi" unicode="&#x39e;" horiz-adv-x="425" 
d="M456 513h-370l34 154h370zM344 0h-370l34 154h370zM393 261h-355l34 154h355z" />
    <glyph glyph-name="Omicron" unicode="&#x39f;" horiz-adv-x="522" 
d="M231 -12q-103 0 -156.5 65t-53.5 170q0 52 10.5 110.5t34.5 120.5t58.5 111.5t88 81t117.5 31.5q102 0 156 -66t54 -170q0 -52 -10.5 -110.5t-34.5 -120.5t-59 -111t-88 -80.5t-117 -31.5zM239 144q34 0 63.5 59t43.5 127.5t14 114.5q0 77 -40 77q-26 0 -49.5 -35
t-38.5 -85t-23.5 -100t-8.5 -83q0 -75 39 -75z" />
    <glyph glyph-name="Pi" unicode="&#x3a0;" horiz-adv-x="532" 
d="M436 0h-176l113 513h-96l-113 -513h-177l147 667h449z" />
    <glyph glyph-name="Rho" unicode="&#x3a1;" horiz-adv-x="496" 
d="M164 0h-177l147 667h207q84 0 135.5 -53.5t51.5 -133.5q0 -108 -70.5 -183t-199.5 -75h-45zM247 376h26q32 0 52 25.5t20 59.5q0 24 -12.5 38t-32.5 14h-23z" />
    <glyph glyph-name="Sigma" unicode="&#x3a3;" horiz-adv-x="398" 
d="M276 513l70 -177l-151 -182h156l-34 -154h-336l39 181l150 182l-71 170l30 134h335l-34 -154h-154z" />
    <glyph glyph-name="Tau" unicode="&#x3a4;" horiz-adv-x="406" 
d="M238 0h-177l113 513h-97l34 154h370l-34 -154h-96z" />
    <glyph glyph-name="Upsilon" unicode="&#x3a5;" horiz-adv-x="489" 
d="M279 0h-177l59 269l-75 398h179l14 -232l117 232h193l-252 -398z" />
    <glyph glyph-name="Phi" unicode="&#x3a6;" horiz-adv-x="726" 
d="M397 0h-176l17 74q-207 38 -207 233q0 107 87.5 192.5t238.5 99.5l16 68h176l-17 -75q107 -20 156.5 -78t49.5 -155q0 -107 -87.5 -193t-238.5 -100zM215 307q0 -55 59 -76l46 204q-105 -28 -105 -128zM554 359q0 55 -58 75l-47 -204q105 29 105 129z" />
    <glyph glyph-name="Chi" unicode="&#x3a7;" horiz-adv-x="509" 
d="M461 0h-185l-31 182l-103 -182h-202l238 350l-83 317h186l23 -171l92 171h203l-227 -334z" />
    <glyph glyph-name="Psi" unicode="&#x3a8;" horiz-adv-x="766" 
d="M417 0h-176l30 134q-93 17 -147 65t-54 130q0 30 7 65l62 273h179l-68 -297q-3 -14 -3 -24q1 -43 59 -59l87 380h176l-87 -379q80 21 93 82l69 297h179l-76 -328q-21 -91 -105 -146t-196 -66z" />
    <glyph glyph-name="uni03A9" unicode="&#x3a9;" horiz-adv-x="519" 
d="M8 154h94q-65 67 -65 170q0 82 34 162.5t100.5 136t146.5 55.5q97 0 161 -54.5t64 -160.5q0 -97 -40.5 -176.5t-111.5 -132.5h80l-34 -154h-208l35 154q39 32 66 135.5t27 154.5q0 38 -9 57.5t-33 19.5q-45 0 -80 -102t-35 -197q0 -50 15 -68l-34 -154h-207z" />
    <glyph glyph-name="Iotadieresis" unicode="&#x3aa;" horiz-adv-x="259" 
d="M164 0h-177l147 667h177zM425 808q0 -35 -28 -62t-63 -27q-30 0 -50 20.5t-20 50.5q0 35 27.5 62t62.5 27q30 0 50.5 -20.5t20.5 -50.5zM240 808q0 -35 -27.5 -62t-62.5 -27q-31 0 -51 20.5t-20 50.5q0 35 27.5 62t62.5 27q30 0 50.5 -20.5t20.5 -50.5z" />
    <glyph glyph-name="Upsilondieresis" unicode="&#x3ab;" horiz-adv-x="489" 
d="M279 0h-177l59 269l-75 398h179l14 -232l117 232h193l-252 -398zM541 808q0 -35 -28 -62t-63 -27q-30 0 -50 20.5t-20 50.5q0 35 27.5 62t62.5 27q30 0 50.5 -20.5t20.5 -50.5zM356 808q0 -35 -27.5 -62t-62.5 -27q-31 0 -51 20.5t-20 50.5q0 35 27.5 62t62.5 27
q30 0 50.5 -20.5t20.5 -50.5z" />
    <glyph glyph-name="alphatonos" unicode="&#x3ac;" horiz-adv-x="477" 
d="M323 546h-66l71 219h121zM437 129l-17 -131q-32 -10 -74 -10q-60 0 -82.5 20.5t-26.5 59.5q-50 -80 -114 -80q-56 0 -86.5 43.5t-30.5 121.5q0 72 20.5 147.5t68.5 135t112 59.5q81 0 102 -67l14 55h156l-73 -329q-5 -27 16 -27q7 0 15 2zM208 127q26 0 43 33l36 162
q-8 34 -40 34q-20 0 -36 -20.5t-25 -50.5t-13.5 -58.5t-4.5 -49.5q0 -50 40 -50z" />
    <glyph glyph-name="epsilontonos" unicode="&#x3ad;" horiz-adv-x="405" 
d="M302 546h-66l71 219h121zM152 -12q-75 0 -120 33t-45 89q0 52 39 91.5t98 47.5q-35 5 -57 32.5t-22 61.5q0 70 61.5 111t155.5 41q51 0 99 -19t75 -51l-87 -90q-35 34 -89 34q-70 0 -70 -39q0 -24 50 -24h83l-27 -125h-90q-26 0 -45 -9.5t-19 -29.5q0 -28 45 -28
q76 0 125 42l53 -101q-90 -67 -213 -67z" />
    <glyph glyph-name="etatonos" unicode="&#x3ae;" 
d="M328 546h-66l71 219h121zM333 -184h-158l110 500q0 1 1 7t1 8q0 25 -23 25q-29 0 -57 -47l-68 -309h-158l107 483h158l-14 -57q22 28 56.5 48.5t70.5 20.5q46 0 73 -24.5t27 -64.5q0 -8 -3 -26z" />
    <glyph glyph-name="iotatonos" unicode="&#x3af;" horiz-adv-x="243" 
d="M214 546h-66l71 219h121zM113 -12q-72 0 -95.5 34.5t-7.5 107.5l77 353h158l-72 -329q-5 -27 15 -27q9 0 15 2l-17 -131q-32 -10 -73 -10z" />
    <glyph glyph-name="upsilondieresistonos" unicode="&#x3b0;" horiz-adv-x="457" 
d="M325 546h-66l71 219h122zM564 624q0 -35 -27.5 -62t-62.5 -27q-31 0 -51 20.5t-20 50.5q0 35 27.5 62t62.5 27q31 0 51 -20.5t20 -50.5zM252 624q0 -35 -27.5 -62t-62.5 -27q-30 0 -50.5 20.5t-20.5 50.5q0 35 28 62t63 27q30 0 50 -20.5t20 -50.5zM185 -12
q-80 0 -132.5 49.5t-32.5 139.5l67 306h158l-67 -304q-11 -52 27 -52q34 0 61.5 71t27.5 147q0 64 -8 100l160 50q15 -57 15 -132q0 -99 -29 -182t-93.5 -138t-153.5 -55z" />
    <glyph glyph-name="alpha" unicode="&#x3b1;" horiz-adv-x="477" 
d="M437 129l-17 -131q-32 -10 -74 -10q-60 0 -82.5 20.5t-26.5 59.5q-50 -80 -114 -80q-56 0 -86.5 43.5t-30.5 121.5q0 72 20.5 147.5t68.5 135t112 59.5q81 0 102 -67l14 55h156l-73 -329q-5 -27 16 -27q7 0 15 2zM208 127q26 0 43 33l36 162q-8 34 -40 34
q-20 0 -36 -20.5t-25 -50.5t-13.5 -58.5t-4.5 -49.5q0 -50 40 -50z" />
    <glyph glyph-name="beta" unicode="&#x3b2;" horiz-adv-x="461" 
d="M256 -12q-76 0 -106 64l-51 -236h-158l141 642q17 77 57 128t86 71t99 20q80 0 124 -37t44 -108q0 -62 -33 -116.5t-98 -71.5q75 -36 75 -128q0 -88 -53 -158t-127 -70zM239 457l-65 -296q8 -34 34 -34q30 0 48 30t18 64q0 45 -29 45h-15l30 140h8q27 0 41 30t14 63
q0 38 -24 38q-42 0 -60 -80z" />
    <glyph glyph-name="gamma" unicode="&#x3b3;" horiz-adv-x="435" 
d="M202 -184h-158l20 93q35 172 26 316.5t-54 257.5h171q11 -50 16.5 -83t7.5 -87t-7 -100q61 119 93 270h158q-26 -114 -91 -242.5t-140 -225.5z" />
    <glyph glyph-name="delta" unicode="&#x3b4;" horiz-adv-x="451" 
d="M187 -12q-93 0 -138 54t-45 137q0 135 136 241q-29 38 -29 89q0 71 56 120.5t151 49.5q106 0 166 -60l-84 -106q-12 16 -37.5 29.5t-55.5 13.5q-19 0 -32.5 -8.5t-13.5 -21.5q0 -11 18 -24.5t44 -32t52 -44t44 -70t18 -100.5q0 -57 -27.5 -117t-87 -105t-135.5 -45z
M288 242q0 55 -47 95q-73 -66 -73 -147q0 -63 47 -63q31 0 52 37t21 78z" />
    <glyph glyph-name="epsilon" unicode="&#x3b5;" horiz-adv-x="405" 
d="M152 -12q-75 0 -120 33t-45 89q0 52 39 91.5t98 47.5q-35 5 -57 32.5t-22 61.5q0 70 61.5 111t155.5 41q51 0 99 -19t75 -51l-87 -90q-35 34 -89 34q-70 0 -70 -39q0 -24 50 -24h83l-27 -125h-90q-26 0 -45 -9.5t-19 -29.5q0 -28 45 -28q76 0 125 42l53 -101
q-90 -67 -213 -67z" />
    <glyph glyph-name="zeta" unicode="&#x3b6;" horiz-adv-x="371" 
d="M164 -28q0 16 -18 16q-64 0 -106 45.5t-42 116.5q0 95 64 193.5t193 186.5h-172l31 137h328l-25 -111q-102 -75 -175.5 -179t-73.5 -182q0 -68 65 -68q79 0 79 -78q0 -74 -85 -206h-137q74 88 74 129z" />
    <glyph glyph-name="eta" unicode="&#x3b7;" 
d="M333 -184h-158l110 500q0 1 1 7t1 8q0 25 -23 25q-29 0 -57 -47l-68 -309h-158l107 483h158l-14 -57q22 28 56.5 48.5t70.5 20.5q46 0 73 -24.5t27 -64.5q0 -8 -3 -26z" />
    <glyph glyph-name="theta" unicode="&#x3b8;" horiz-adv-x="451" 
d="M196 -11q-81 0 -130 63.5t-49 176.5q0 112 36.5 215t101.5 168.5t141 65.5q81 0 129.5 -63t48.5 -176t-36 -216t-101 -168.5t-141 -65.5zM205 127q37 0 76 140h-100q-9 -56 -9 -85q0 -55 33 -55zM286 540q-37 0 -76 -137h100q9 54 9 83q0 54 -33 54z" />
    <glyph glyph-name="iota" unicode="&#x3b9;" horiz-adv-x="243" 
d="M113 -12q-72 0 -95.5 34.5t-7.5 107.5l77 353h158l-72 -329q-5 -27 15 -27q9 0 15 2l-17 -131q-32 -10 -73 -10z" />
    <glyph glyph-name="kappa" unicode="&#x3ba;" horiz-adv-x="445" 
d="M396 0h-171l-16 169l-48 -67l-22 -102h-158l107 483h158l-38 -171l109 171h177l-155 -213z" />
    <glyph glyph-name="lambda" unicode="&#x3bb;" horiz-adv-x="435" 
d="M133 534l8 137q24 8 68 8q70 0 102.5 -27.5t38.5 -104.5l37 -547h-162l7 284l-121 -284h-171l251 492l-3 24q-3 24 -33 24q-13 0 -22 -6z" />
    <glyph glyph-name="uni03BC" unicode="&#x3bc;" horiz-adv-x="477" 
d="M138 -3l-39 -181h-158l147 667h158l-71 -319q-7 -37 21 -37q30 0 57 45l69 311h158l-73 -329q-5 -27 15 -27q9 0 15 2l-17 -131q-32 -10 -73 -10q-54 0 -74.5 20.5t-21.5 67.5q-12 -42 -35.5 -65t-45.5 -23q-17 0 -32 9z" />
    <glyph glyph-name="nu" unicode="&#x3bd;" horiz-adv-x="435" 
d="M234 0h-154l-34 483h166l-7 -306q76 134 112 306h158q-26 -118 -95 -251.5t-146 -231.5z" />
    <glyph glyph-name="xi" unicode="&#x3be;" horiz-adv-x="371" 
d="M147 -12q-68 0 -111 38t-43 106q0 60 36.5 105.5t103.5 71.5q-73 12 -73 91q0 35 29 72.5t77 57.5h-68l30 137h311l-31 -137h-134q-21 -10 -35 -30.5t-14 -41.5q0 -53 58 -53h91l-30 -137h-91q-33 0 -61.5 -22t-28.5 -63q0 -56 70 -56q79 0 79 -78q0 -74 -85 -206h-132
q69 101 69 129q0 16 -17 16z" />
    <glyph glyph-name="omicron" unicode="&#x3bf;" horiz-adv-x="451" 
d="M196 -12q-92 0 -139.5 53t-47.5 144q0 73 27.5 142.5t85 118.5t131.5 49q92 0 140 -53t48 -144q0 -53 -17 -107.5t-47 -100t-77.5 -74t-103.5 -28.5zM205 127q35 0 56 63.5t21 111.5q0 54 -38 54q-34 0 -55 -64t-21 -111q0 -54 37 -54z" />
    <glyph glyph-name="pi" unicode="&#x3c0;" horiz-adv-x="496" 
d="M390 0h-158l77 346h-77l-76 -346h-157l76 346h-42l30 137h475l-30 -137h-42z" />
    <glyph glyph-name="rho" unicode="&#x3c1;" horiz-adv-x="461" 
d="M254 -12q-82 0 -104 67l-51 -239h-158l93 426q25 116 91 184.5t159 68.5q81 0 125.5 -46.5t44.5 -134.5q0 -46 -12.5 -100t-36 -106t-63.5 -86t-88 -34zM213 127q20 0 36 20.5t25 50t13.5 58t4.5 50.5q0 23 -8.5 36.5t-22.5 13.5q-44 0 -69 -114l-18 -81q6 -34 39 -34z
" />
    <glyph glyph-name="sigma1" unicode="&#x3c2;" horiz-adv-x="370" 
d="M148 -12q-53 0 -96 53.5t-43 141.5q0 124 69.5 218t179.5 94q92 0 144 -50l-70 -118q-19 29 -59 29q-43 0 -73 -46.5t-30 -105.5q0 -37 18 -57t44 -20q79 0 79 -78q0 -74 -85 -206h-136q74 87 74 129q0 16 -16 16z" />
    <glyph glyph-name="sigma" unicode="&#x3c3;" horiz-adv-x="451" 
d="M426 254q0 -41 -14.5 -86t-41.5 -86t-72.5 -67.5t-101.5 -26.5q-92 0 -139.5 53t-47.5 144q0 75 30 142t91.5 111.5t141.5 44.5h216l-30 -139h-55q23 -35 23 -90zM281 295q0 36 -7 49h-19q-38 0 -62.5 -52t-24.5 -111q0 -54 37 -54q19 0 34.5 20.5t24 50t13 55.5t4.5 42z
" />
    <glyph glyph-name="tau" unicode="&#x3c4;" horiz-adv-x="342" 
d="M170 -12q-71 0 -95 34.5t-7 107.5l47 216h-78l30 137h312l-29 -137h-78l-40 -182q-8 -37 14 -37q16 0 26 8l-4 -126q-37 -21 -98 -21z" />
    <glyph glyph-name="upsilon" unicode="&#x3c5;" horiz-adv-x="457" 
d="M185 -12q-80 0 -132.5 49.5t-32.5 139.5l67 306h158l-67 -304q-11 -52 27 -52q34 0 61.5 71t27.5 147q0 64 -8 100l160 50q15 -57 15 -132q0 -99 -29 -182t-93.5 -138t-153.5 -55z" />
    <glyph glyph-name="phi" unicode="&#x3c6;" horiz-adv-x="687" 
d="M678 280q0 -101 -85 -186.5t-226 -101.5l-38 -176h-158l39 180q-102 18 -151.5 74t-49.5 138q0 88 55.5 163t167.5 124l45 -123q-104 -53 -104 -147q0 -70 68 -90l79 360h77q138 0 209.5 -60t71.5 -155zM446 348l-47 -211q58 16 86 51t28 74q0 71 -67 86z" />
    <glyph glyph-name="chi" unicode="&#x3c7;" horiz-adv-x="418" 
d="M329 -184h-162l-8 178l-88 -178h-171l189 335l-38 332h161l6 -177l83 177h169l-184 -332z" />
    <glyph glyph-name="psi" unicode="&#x3c8;" horiz-adv-x="688" 
d="M329 -184h-158l40 182q-84 16 -133.5 61.5t-49.5 122.5q0 30 7 63l52 238h157l-56 -254q-3 -15 -3 -31q0 -46 56 -63l117 532h158l-117 -530q76 22 92 92l56 254h157l-60 -275q-21 -93 -98.5 -149t-178.5 -67z" />
    <glyph glyph-name="omega" unicode="&#x3c9;" horiz-adv-x="696" 
d="M691 318q0 -81 -27.5 -155.5t-83 -124.5t-126.5 -50q-57 0 -96 32t-39 90q-24 -60 -67 -91t-96 -31q-68 0 -110 51.5t-42 129.5q0 98 46.5 186.5t117.5 139.5l103 -82q-44 -33 -74 -101t-30 -128q0 -57 30 -57q46 0 71 115l27 121h158l-27 -121q-25 -115 21 -115
q28 0 53 61t25 113q0 81 -25 112l139 82q52 -55 52 -177z" />
    <glyph glyph-name="iotadieresis" unicode="&#x3ca;" horiz-adv-x="243" 
d="M372 624q0 -35 -28 -62t-63 -27q-30 0 -50 20.5t-20 50.5q0 35 27.5 62t62.5 27q30 0 50.5 -20.5t20.5 -50.5zM187 624q0 -35 -27.5 -62t-62.5 -27q-31 0 -51 20.5t-20 50.5q0 35 27.5 62t62.5 27q30 0 50.5 -20.5t20.5 -50.5zM113 -12q-72 0 -95.5 34.5t-7.5 107.5
l77 353h158l-72 -329q-5 -27 15 -27q9 0 15 2l-17 -131q-32 -10 -73 -10z" />
    <glyph glyph-name="upsilondieresis" unicode="&#x3cb;" horiz-adv-x="457" 
d="M493 624q0 -35 -28 -62t-63 -27q-30 0 -50 20.5t-20 50.5q0 35 27.5 62t62.5 27q30 0 50.5 -20.5t20.5 -50.5zM308 624q0 -35 -27.5 -62t-62.5 -27q-31 0 -51 20.5t-20 50.5q0 35 27.5 62t62.5 27q30 0 50.5 -20.5t20.5 -50.5zM185 -12q-80 0 -132.5 49.5t-32.5 139.5
l67 306h158l-67 -304q-11 -52 27 -52q34 0 61.5 71t27.5 147q0 64 -8 100l160 50q15 -57 15 -132q0 -99 -29 -182t-93.5 -138t-153.5 -55z" />
    <glyph glyph-name="omicrontonos" unicode="&#x3cc;" horiz-adv-x="451" 
d="M324 546h-66l71 219h121zM196 -12q-92 0 -139.5 53t-47.5 144q0 73 27.5 142.5t85 118.5t131.5 49q92 0 140 -53t48 -144q0 -53 -17 -107.5t-47 -100t-77.5 -74t-103.5 -28.5zM205 127q35 0 56 63.5t21 111.5q0 54 -38 54q-34 0 -55 -64t-21 -111q0 -54 37 -54z" />
    <glyph glyph-name="upsilontonos" unicode="&#x3cd;" horiz-adv-x="457" 
d="M332 546h-66l71 219h121zM185 -12q-80 0 -132.5 49.5t-32.5 139.5l67 306h158l-67 -304q-11 -52 27 -52q34 0 61.5 71t27.5 147q0 64 -8 100l160 50q15 -57 15 -132q0 -99 -29 -182t-93.5 -138t-153.5 -55z" />
    <glyph glyph-name="omegatonos" unicode="&#x3ce;" horiz-adv-x="696" 
d="M446 546h-66l71 219h121zM691 318q0 -81 -27.5 -155.5t-83 -124.5t-126.5 -50q-57 0 -96 32t-39 90q-24 -60 -67 -91t-96 -31q-68 0 -110 51.5t-42 129.5q0 98 46.5 186.5t117.5 139.5l103 -82q-44 -33 -74 -101t-30 -128q0 -57 30 -57q46 0 71 115l27 121h158l-27 -121
q-25 -115 21 -115q28 0 53 61t25 113q0 81 -25 112l139 82q52 -55 52 -177z" />
    <glyph glyph-name="afii10023" unicode="&#x401;" horiz-adv-x="405" 
d="M501 791q0 -35 -28 -62t-63 -27q-30 0 -50 20.5t-20 50.5q0 35 27.5 62t62.5 27q30 0 50.5 -20.5t20.5 -50.5zM316 791q0 -35 -27.5 -62t-62.5 -27q-31 0 -51 20.5t-20 50.5q0 35 27.5 62t62.5 27q30 0 50.5 -20.5t20.5 -50.5zM323 0h-336l147 667h336l-34 -154h-159
l-21 -98h152l-34 -154h-153l-23 -107h159z" />
    <glyph glyph-name="afii10051" unicode="&#x402;" horiz-adv-x="520" 
d="M208 -12l34 156q25 0 39.5 15t22.5 50l3 13q7 32 -4.5 50.5t-38.5 18.5q-16 0 -38 -5l-62 -286h-177l112 513h-97l34 154h370l-34 -154h-96l-17 -78q32 10 73 10q95 0 134 -64.5t19 -157.5l-4 -14q-25 -114 -98 -167.5t-175 -53.5z" />
    <glyph glyph-name="afii10052" unicode="&#x403;" horiz-adv-x="400" 
d="M510 867l-144 -144h-99l112 144h131zM164 0h-177l147 667h336l-34 -154h-159z" />
    <glyph glyph-name="afii10053" unicode="&#x404;" horiz-adv-x="467" 
d="M231 -12q-102 0 -156 63.5t-54 171.5q0 51 10 109t34 120.5t58.5 112t88 81.5t118.5 32q53 0 91.5 -19t58.5 -50t29.5 -59.5t11.5 -58.5l-160 -50q-3 81 -41 81q-46 0 -84 -107h172l-34 -154h-172q-2 -32 -2 -42q0 -75 39 -75t73 78l142 -56q-76 -178 -223 -178z" />
    <glyph glyph-name="afii10054" unicode="&#x405;" horiz-adv-x="437" 
d="M178 -12q-65 0 -120.5 23t-85.5 61l97 130q19 -26 49 -42t60 -16q22 0 36 14t14 36q0 20 -25.5 44.5t-56 47t-56 63.5t-25.5 91q0 99 68 168.5t169 69.5q52 0 102 -19t82 -54l-91 -131q-37 48 -95 48q-23 0 -35 -13.5t-12 -32.5q0 -18 16.5 -37t40 -38t47 -41.5t40 -56.5
t16.5 -75q0 -99 -65.5 -169.5t-169.5 -70.5z" />
    <glyph glyph-name="afii10055" unicode="&#x406;" horiz-adv-x="259" 
d="M164 0h-177l147 667h177z" />
    <glyph glyph-name="afii10056" unicode="&#x407;" horiz-adv-x="259" 
d="M420 791q0 -35 -28 -62t-63 -27q-30 0 -50 20.5t-20 50.5q0 35 27.5 62t62.5 27q30 0 50.5 -20.5t20.5 -50.5zM235 791q0 -35 -27.5 -62t-62.5 -27q-31 0 -51 20.5t-20 50.5q0 35 27.5 62t62.5 27q30 0 50.5 -20.5t20.5 -50.5zM164 0h-177l147 667h177z" />
    <glyph glyph-name="afii10057" unicode="&#x408;" horiz-adv-x="375" 
d="M98 -12q-88 0 -136 36l65 143q20 -23 54 -23q56 0 68 57l103 466h177l-105 -475q-24 -107 -77.5 -155.5t-148.5 -48.5z" />
    <glyph glyph-name="afii10058" unicode="&#x409;" horiz-adv-x="768" 
d="M-46 -12l34 156q29 0 51 29.5t51 129.5l105 364h387l-49 -222h30q84 0 135.5 -53.5t51.5 -133.5q0 -108 -70 -183t-198 -75h-223l112 513h-48l-57 -210q-21 -79 -48.5 -136.5t-56 -91.5t-64.5 -54t-68.5 -26.5t-74.5 -6.5zM525 291h-26l-30 -137h24q34 0 54 25.5t20 59.5
q0 24 -12 38t-30 14z" />
    <glyph glyph-name="afii10059" unicode="&#x40a;" horiz-adv-x="768" 
d="M482 0h-223l58 266h-95l-58 -266h-177l146 667h177l-54 -247h95l54 247h177l-54 -247h30q85 0 137 -49t52 -125q0 -105 -68.5 -175.5t-196.5 -70.5zM520 266h-26l-25 -112h24q34 0 53 20.5t19 49.5q0 42 -45 42z" />
    <glyph glyph-name="afii10060" unicode="&#x40b;" horiz-adv-x="520" 
d="M259 0l48 222q7 32 -4.5 50.5t-38.5 18.5q-16 0 -38 -5l-62 -286h-177l112 513h-97l34 154h370l-34 -154h-96l-17 -78q32 10 73 10q95 0 134 -64.5t19 -157.5l-49 -223h-177z" />
    <glyph glyph-name="afii10061" unicode="&#x40c;" horiz-adv-x="524" 
d="M567 867l-144 -144h-99l112 144h131zM475 0h-185l-37 223l-59 -86l-30 -137h-177l147 667h177l-54 -248l153 248h201l-225 -311z" />
    <glyph glyph-name="afii10062" unicode="&#x40e;" horiz-adv-x="489" 
d="M48 -12q-70 0 -105 27l71 145q15 -16 42 -16q34 0 67 54l25 44l-63 425h181l15 -233l114 234l193 -1l-280 -475q-67 -113 -119 -158.5t-141 -45.5zM482 770q-60 -65 -143 -65q-82 0 -115 65l78 52q15 -31 52 -31q38 0 66 31z" />
    <glyph glyph-name="afii10145" unicode="&#x40f;" horiz-adv-x="532" 
d="M94 -128l28 128h-135l146 667h177l-113 -513h95l113 513h177l-146 -667h-137l-28 -128h-177z" />
    <glyph glyph-name="afii10017" unicode="&#x410;" horiz-adv-x="484" 
d="M436 0h-177l7 93h-107l-34 -93h-185l293 667h203v-667zM280 247l17 228l-83 -228h66z" />
    <glyph glyph-name="afii10018" unicode="&#x411;" horiz-adv-x="496" 
d="M133 667h401l-34 -154h-224l-15 -68h30q84 0 135.5 -53.5t51.5 -133.5q0 -108 -70 -183t-198 -75h-223zM250 291h-23l-30 -137h24q34 0 54 25.5t20 59.5q0 24 -12.5 38t-32.5 14z" />
    <glyph glyph-name="afii10019" unicode="&#x412;" horiz-adv-x="502" 
d="M274 0h-287l147 667h215q86 0 133 -44t47 -109q0 -67 -41 -122t-105 -61q42 -12 64.5 -46.5t22.5 -79.5q0 -80 -50 -142.5t-146 -62.5zM256 415h30q24 0 40 17.5t16 42.5q0 38 -48 38h-17zM232 154q27 0 44.5 18.5t17.5 48.5q0 40 -43 40h-30l-23 -107h34z" />
    <glyph glyph-name="afii10020" unicode="&#x413;" horiz-adv-x="400" 
d="M164 0h-177l147 667h336l-34 -154h-159z" />
    <glyph glyph-name="afii10021" unicode="&#x414;" horiz-adv-x="543" 
d="M-70 -123l58 267q14 4 20 6.5t18 12t20 25t20 44.5t24 71l105 364h387l-113 -513h42l-61 -277h-177l27 123h-167l-27 -123h-176zM323 513l-46 -169q-35 -126 -94 -190h109l79 359h-48z" />
    <glyph glyph-name="afii10022" unicode="&#x415;" horiz-adv-x="405" 
d="M323 0h-336l147 667h336l-34 -154h-159l-21 -98h152l-34 -154h-153l-23 -107h159z" />
    <glyph glyph-name="afii10024" unicode="&#x416;" horiz-adv-x="735" 
d="M144 0h-203l245 356l-88 311h187l39 -215l47 215h177l-42 -190l118 190h197l-224 -311l89 -356h-193l-28 227l-20 -29l-43 -198h-177l43 197l-4 17z" />
    <glyph glyph-name="afii10025" unicode="&#x417;" horiz-adv-x="490" 
d="M222 -12q-82 0 -151.5 36.5t-91.5 98.5l137 92q14 -33 42.5 -52t63.5 -19q34 0 52 20t18 40q0 55 -77 55h-74l34 155h96q35 0 54 17.5t19 38.5q0 51 -72 51q-55 0 -92 -40l-89 106q93 90 211 90q98 0 159.5 -42.5t61.5 -119.5q0 -71 -48.5 -119.5t-109.5 -57.5
q50 -16 74 -53t24 -80q0 -92 -70 -154.5t-171 -62.5z" />
    <glyph glyph-name="afii10026" unicode="&#x418;" horiz-adv-x="532" 
d="M151 0h-164l147 667h176l-58 -261l154 261h177l-147 -667h-177l61 278z" />
    <glyph glyph-name="afii10027" unicode="&#x419;" horiz-adv-x="532" 
d="M151 0h-164l147 667h176l-58 -261l154 261h177l-147 -667h-177l61 278zM509 770q-60 -65 -143 -65q-82 0 -115 65l78 52q15 -31 52 -31q38 0 66 31z" />
    <glyph glyph-name="afii10028" unicode="&#x41a;" horiz-adv-x="524" 
d="M475 0h-185l-37 223l-59 -86l-30 -137h-177l147 667h177l-54 -248l153 248h201l-225 -311z" />
    <glyph glyph-name="afii10029" unicode="&#x41b;" horiz-adv-x="532" 
d="M-45 -12l34 156q29 0 50.5 30t50.5 129l105 364h387l-146 -667h-177l112 513h-48l-57 -210q-26 -98 -60.5 -162.5t-76 -96.5t-82 -44t-92.5 -12z" />
    <glyph glyph-name="afii10030" unicode="&#x41c;" horiz-adv-x="675" 
d="M579 0h-174l71 321l-165 -321h-55l-22 321l-70 -321h-177l147 667h215l18 -268l141 268h218z" />
    <glyph glyph-name="afii10031" unicode="&#x41d;" horiz-adv-x="532" 
d="M436 0h-176l58 266h-96l-58 -266h-177l147 667h177l-55 -247h97l54 247h176z" />
    <glyph glyph-name="afii10032" unicode="&#x41e;" horiz-adv-x="522" 
d="M231 -12q-103 0 -156.5 65t-53.5 170q0 52 10.5 110.5t34.5 120.5t58.5 111.5t88 81t117.5 31.5q102 0 156 -66t54 -170q0 -52 -10.5 -110.5t-34.5 -120.5t-59 -111t-88 -80.5t-117 -31.5zM239 144q34 0 63.5 59t43.5 127.5t14 114.5q0 77 -40 77q-26 0 -49.5 -35
t-38.5 -85t-23.5 -100t-8.5 -83q0 -75 39 -75z" />
    <glyph glyph-name="afii10033" unicode="&#x41f;" horiz-adv-x="532" 
d="M436 0h-176l113 513h-96l-113 -513h-177l147 667h449z" />
    <glyph glyph-name="afii10034" unicode="&#x420;" horiz-adv-x="496" 
d="M164 0h-177l147 667h207q84 0 135.5 -53.5t51.5 -133.5q0 -108 -70.5 -183t-199.5 -75h-45zM247 376h26q32 0 52 25.5t20 59.5q0 24 -12.5 38t-32.5 14h-23z" />
    <glyph glyph-name="afii10035" unicode="&#x421;" horiz-adv-x="467" 
d="M231 -12q-102 0 -156 63.5t-54 171.5q0 51 10 109t34 120.5t58.5 112t88 81.5t118.5 32q53 0 92.5 -20.5t60.5 -54.5t31 -72t10 -80l-163 -32q-2 103 -41 103q-26 0 -49.5 -35t-38.5 -84.5t-23.5 -99.5t-8.5 -84q0 -75 39 -75t73 78l142 -56q-76 -178 -223 -178z" />
    <glyph glyph-name="afii10036" unicode="&#x422;" horiz-adv-x="406" 
d="M238 0h-177l113 513h-97l34 154h370l-34 -154h-96z" />
    <glyph glyph-name="afii10037" unicode="&#x423;" horiz-adv-x="489" 
d="M48 -12q-70 0 -105 27l71 145q15 -16 42 -16q34 0 67 54l25 44l-63 425h181l15 -233l114 234l193 -1l-280 -475q-67 -113 -119 -158.5t-141 -45.5z" />
    <glyph glyph-name="afii10038" unicode="&#x424;" horiz-adv-x="726" 
d="M397 0h-176l17 74q-207 38 -207 233q0 107 87.5 192.5t238.5 99.5l16 68h176l-17 -75q107 -20 156.5 -78t49.5 -155q0 -107 -87.5 -193t-238.5 -100zM215 307q0 -55 59 -76l46 204q-105 -28 -105 -128zM554 359q0 55 -58 75l-47 -204q105 29 105 129z" />
    <glyph glyph-name="afii10039" unicode="&#x425;" horiz-adv-x="509" 
d="M461 0h-185l-31 182l-103 -182h-202l238 350l-83 317h186l23 -171l92 171h203l-227 -334z" />
    <glyph glyph-name="afii10040" unicode="&#x426;" horiz-adv-x="543" 
d="M273 -123l27 123h-313l146 667h177l-113 -513h95l113 513h177l-113 -513h42l-61 -277h-177z" />
    <glyph glyph-name="afii10041" unicode="&#x427;" horiz-adv-x="520" 
d="M299 667l-49 -222q-7 -33 4.5 -51t38.5 -18q18 0 38 5l63 286h177l-146 -667h-177l51 232q-33 -10 -74 -10q-95 0 -134 64.5t-18 157.5l49 223h177z" />
    <glyph glyph-name="afii10042" unicode="&#x428;" horiz-adv-x="775" 
d="M648 667h177l-146 -667h-691l146 667h177l-113 -513h80l113 513h177l-113 -513h80z" />
    <glyph glyph-name="afii10043" unicode="&#x429;" horiz-adv-x="785" 
d="M648 667h177l-113 -513h41l-61 -277h-177l27 123h-554l146 667h177l-113 -513h80l113 513h177l-113 -513h80z" />
    <glyph glyph-name="afii10044" unicode="&#x42a;" horiz-adv-x="570" 
d="M284 0h-223l112 513h-97l34 154h274l-49 -222h30q84 0 135.5 -53.5t51.5 -133.5q0 -108 -70 -183t-198 -75zM327 291h-26l-30 -137h24q34 0 54 25.5t20 59.5q0 24 -12 38t-30 14z" />
    <glyph glyph-name="afii10045" unicode="&#x42b;" horiz-adv-x="730" 
d="M635 0h-177l146 667h177zM133 667h177l-49 -222h30q84 0 135.5 -53.5t51.5 -133.5q0 -108 -70 -183t-198 -75h-223zM253 291h-26l-30 -137h24q34 0 54 25.5t20 59.5q0 24 -12 38t-30 14z" />
    <glyph glyph-name="afii10046" unicode="&#x42c;" horiz-adv-x="496" 
d="M133 667h177l-49 -222h30q84 0 135.5 -53.5t51.5 -133.5q0 -108 -70 -183t-198 -75h-223zM253 291h-26l-30 -137h24q34 0 54 25.5t20 59.5q0 24 -12 38t-30 14z" />
    <glyph glyph-name="afii10047" unicode="&#x42d;" horiz-adv-x="467" 
d="M275 678q102 0 156 -63.5t54 -171.5q0 -51 -10 -109t-34 -120.5t-58.5 -112t-88 -81.5t-118.5 -32q-53 0 -91.5 19t-58.5 50t-29.5 59.5t-11.5 58.5l160 50q3 -81 41 -81q49 0 87 117h-173l34 154h170q2 24 2 32q0 75 -39 75t-73 -78l-142 56q76 178 223 178z" />
    <glyph glyph-name="afii10048" unicode="&#x42e;" horiz-adv-x="779" 
d="M487 -12q-103 0 -156.5 65t-53.5 170q0 13 2 43h-56l-58 -266h-178l146 667h178l-54 -247h52q36 112 105.5 185t171.5 73t156 -66t54 -170q0 -52 -10.5 -110.5t-34.5 -120.5t-59 -111t-88 -80.5t-117 -31.5zM495 144q34 0 63.5 59t43.5 127.5t14 114.5q0 77 -40 77
q-26 0 -49.5 -35t-38.5 -85t-23.5 -100t-8.5 -83q0 -75 39 -75z" />
    <glyph glyph-name="afii10049" unicode="&#x42f;" horiz-adv-x="510" 
d="M165 0h-197l151 277q-50 52 -50 132q0 108 70.5 183t199.5 75h222l-147 -667h-177l49 222h-14zM297 376h23l30 137h-24q-34 0 -54 -25.5t-20 -59.5q0 -24 12.5 -38t32.5 -14z" />
    <glyph glyph-name="afii10065" unicode="&#x430;" horiz-adv-x="461" 
d="M207 495q81 0 103 -67l13 55h156l-107 -483h-157l12 53q-44 -65 -104 -65q-117 0 -117 165q0 72 20.5 147.5t68.5 135t112 59.5zM247 356q-20 0 -36 -20.5t-25 -50.5t-13.5 -58.5t-4.5 -49.5q0 -50 40 -50q26 0 43 33l36 162q-8 34 -40 34z" />
    <glyph glyph-name="afii10066" unicode="&#x431;" horiz-adv-x="450" 
d="M205 127q35 0 56 63.5t21 111.5q0 54 -38 54q-34 0 -55 -64t-21 -111q0 -54 37 -54zM196 -12q-92 0 -139.5 53t-47.5 144q0 94 45 208q77 195 253 243q47 13 51 31h154q-23 -105 -177 -135q-67 -14 -99 -31.5t-48 -52.5q44 47 109 47q62 0 103 -55t41 -142
q0 -53 -17 -107.5t-47 -100t-77.5 -74t-103.5 -28.5z" />
    <glyph glyph-name="afii10067" unicode="&#x432;" horiz-adv-x="454" 
d="M243 0h-262l106 483h245q55 0 90 -29.5t35 -74.5q0 -47 -29.5 -86t-84.5 -47q70 -23 70 -92q0 -61 -42.5 -107.5t-127.5 -46.5zM166 124h56q13 0 22 11.5t9 24.5q0 23 -23 23h-51zM206 307h52q29 0 29 31q0 21 -25 21h-45z" />
    <glyph glyph-name="afii10068" unicode="&#x433;" horiz-adv-x="338" 
d="M379 483l-30 -137h-134l-76 -346h-158l106 483h292z" />
    <glyph glyph-name="afii10069" unicode="&#x434;" horiz-adv-x="478" 
d="M-66 -123l52 244q13 3 22.5 10t25.5 35.5t31 77.5l72 239h342l-76 -346h42l-57 -260h-158l27 123h-140l-26 -123h-157zM254 346l-35 -118q-15 -51 -54 -91h80l46 209h-37z" />
    <glyph glyph-name="afii10070" unicode="&#x435;" horiz-adv-x="435" 
d="M200 -12q-90 0 -140.5 52.5t-50.5 145.5q0 73 28 142t85.5 118t131.5 49q89 0 131 -49t42 -131q0 -46 -20 -126h-254q-1 -4 -1 -15q0 -20 18 -40t63 -20q38 0 80 31l48 -98q-30 -27 -74 -43t-87 -16zM175 297h110q2 16 2 24q0 22 -13 35t-33 13q-29 0 -45 -21.5
t-21 -50.5z" />
    <glyph glyph-name="afii10072" unicode="&#x436;" horiz-adv-x="612" 
d="M119 0h-178l176 270l-61 213h169l25 -130l29 130h158l-24 -106l68 106h179l-155 -213l58 -270h-168l-16 171l-15 -21l-33 -150h-158l33 150l-3 10z" />
    <glyph glyph-name="afii10073" unicode="&#x437;" horiz-adv-x="405" 
d="M248 495q75 0 120 -33t45 -89q0 -52 -36 -89t-94 -45q35 -5 59.5 -35t24.5 -64q0 -70 -61.5 -111t-155.5 -41q-52 0 -102 19t-77 51l87 90q35 -34 94 -34q70 0 70 39q0 28 -49 28h-88l27 125h83q63 0 63 35q0 28 -45 28q-69 0 -118 -42l-53 101q90 67 206 67z" />
    <glyph glyph-name="afii10074" unicode="&#x438;" 
d="M131 0h-150l106 483h158l-40 -182l112 182h161l-106 -483h-158l43 198z" />
    <glyph glyph-name="afii10075" unicode="&#x439;" 
d="M131 0h-150l106 483h158l-40 -182l112 182h161l-106 -483h-158l43 198zM439 603q-60 -65 -143 -65q-82 0 -115 65l78 52q15 -31 52 -31q38 0 66 31z" />
    <glyph glyph-name="afii10076" unicode="&#x43a;" horiz-adv-x="445" 
d="M396 0h-171l-16 169l-48 -67l-22 -102h-158l107 483h158l-38 -171l109 171h177l-155 -213z" />
    <glyph glyph-name="afii10077" unicode="&#x43b;" 
d="M-43 -12l29 133q12 0 22 6.5t26 35.5t31 81l72 239h342l-106 -483h-158l76 346h-37l-35 -118q-41 -138 -98 -189t-164 -51z" />
    <glyph glyph-name="afii10078" unicode="&#x43c;" horiz-adv-x="581" 
d="M492 0h-155l48 219l-120 -219h-56l-22 219l-48 -219h-158l106 483h191l20 -203l114 203h186z" />
    <glyph glyph-name="afii10079" unicode="&#x43d;" 
d="M139 0h-158l107 483h158l-36 -162h75l36 162h158l-107 -483h-158l41 184h-75z" />
    <glyph glyph-name="afii10080" unicode="&#x43e;" horiz-adv-x="451" 
d="M196 -12q-92 0 -139.5 53t-47.5 144q0 73 27.5 142.5t85 118.5t131.5 49q92 0 140 -53t48 -144q0 -53 -17 -107.5t-47 -100t-77.5 -74t-103.5 -28.5zM205 127q35 0 56 63.5t21 111.5q0 54 -38 54q-34 0 -55 -64t-21 -111q0 -54 37 -54z" />
    <glyph glyph-name="afii10081" unicode="&#x43f;" 
d="M372 0h-158l77 346h-77l-76 -346h-157l106 483h391z" />
    <glyph glyph-name="afii10082" unicode="&#x440;" horiz-adv-x="461" 
d="M254 -12q-82 0 -104 67l-52 -239h-157l147 667h158l-13 -53q46 65 105 65q116 0 116 -165q0 -52 -12.5 -109.5t-36 -110.5t-63.5 -87.5t-88 -34.5zM213 127q20 0 36 20.5t25 50t13.5 58t4.5 50.5q0 50 -40 50q-25 0 -42 -33l-36 -162q7 -34 39 -34z" />
    <glyph glyph-name="afii10083" unicode="&#x441;" horiz-adv-x="371" 
d="M200 -12q-89 0 -140 51t-51 144q0 124 69.5 218t179.5 94q92 0 144 -50l-70 -118q-19 29 -59 29q-43 0 -73 -46.5t-30 -105.5q0 -38 19 -57.5t52 -19.5q30 0 55 22l19 -125q-45 -36 -115 -36z" />
    <glyph glyph-name="afii10084" unicode="&#x442;" horiz-adv-x="329" 
d="M190 0h-158l76 346h-75l30 137h307l-30 -137h-74z" />
    <glyph glyph-name="afii10085" unicode="&#x443;" horiz-adv-x="435" 
d="M-47 -181l50 129q8 -5 23 -5q22 0 36 24l17 30l-32 486h162l-7 -284l122 284h170l-280 -547q-41 -77 -78 -104.5t-94 -27.5t-89 15z" />
    <glyph glyph-name="afii10086" unicode="&#x444;" horiz-adv-x="672" 
d="M202 495q30 0 57.5 -16.5t37.5 -49.5l52 238h158l-52 -238q44 66 102 66q54 0 82.5 -44t28.5 -113q0 -47 -13 -105t-36.5 -114t-64 -93.5t-87.5 -37.5q-30 0 -57.5 16.5t-37.5 49.5l-52 -238h-158l52 238q-44 -66 -102 -66q-54 0 -82.5 44t-28.5 113q0 47 13 105
t36.5 114t64 93.5t87.5 37.5zM244 356q-35 0 -58 -60.5t-23 -119.5q0 -49 34 -49q21 0 41 33l35 162q-5 34 -29 34zM425 127q35 0 58 60.5t23 119.5q0 49 -34 49q-22 0 -40 -33l-36 -162q5 -34 29 -34z" />
    <glyph glyph-name="afii10087" unicode="&#x445;" horiz-adv-x="418" 
d="M369 0h-163l-18 129l-77 -129h-171l169 242l-57 241h161l16 -127l72 127h170l-165 -241z" />
    <glyph glyph-name="afii10088" unicode="&#x446;" horiz-adv-x="478" 
d="M230 -123l27 123h-276l106 483h158l-76 -346h76l76 346h158l-76 -346h42l-57 -260h-158z" />
    <glyph glyph-name="afii10089" unicode="&#x447;" 
d="M87 483h158l-40 -180q-8 -35 21 -35q28 0 50 12l45 203h158l-106 -483h-158l34 159q-42 -30 -113 -30q-126 0 -102 115z" />
    <glyph glyph-name="afii10090" unicode="&#x448;" horiz-adv-x="676" 
d="M535 483h158l-106 -483h-606l106 483h158l-76 -346h66l76 346h158l-76 -346h66z" />
    <glyph glyph-name="afii10091" unicode="&#x449;" horiz-adv-x="692" 
d="M535 483h158l-76 -346h42l-57 -260h-158l27 123h-490l106 483h158l-76 -346h66l76 346h158l-76 -346h66z" />
    <glyph glyph-name="afii10092" unicode="&#x44a;" horiz-adv-x="505" 
d="M270 0h-238l76 346h-75l30 137h233l-34 -153h39q78 0 125 -39t47 -102q0 -75 -54 -132t-149 -57zM276 206h-41l-18 -82h49q21 0 32 14.5t11 35.5q0 14 -9 23t-24 9z" />
    <glyph glyph-name="afii10093" unicode="&#x44b;" horiz-adv-x="674" 
d="M585 0h-158l106 483h158zM87 483h158l-34 -153h39q78 0 125 -39t47 -102q0 -75 -54 -132t-149 -57h-238zM225 206h-41l-18 -82h49q21 0 32 14.5t11 35.5q0 14 -9 23t-24 9z" />
    <glyph glyph-name="afii10094" unicode="&#x44c;" horiz-adv-x="454" 
d="M87 483h158l-34 -153h39q78 0 125 -39t47 -102q0 -75 -54 -132t-149 -57h-238zM225 206h-41l-18 -82h49q21 0 32 14.5t11 35.5q0 14 -9 23t-24 9z" />
    <glyph glyph-name="afii10095" unicode="&#x44d;" horiz-adv-x="371" 
d="M170 495q89 0 140 -51t51 -144q0 -124 -69.5 -218t-179.5 -94q-92 0 -144 50l64 104q23 -27 60 -27q69 0 95 74h-124l24 108h111q-5 32 -24 51.5t-47 19.5q-30 0 -55 -18l-18 116q47 29 116 29z" />
    <glyph glyph-name="afii10096" unicode="&#x44e;" horiz-adv-x="665" 
d="M410 -12q-92 0 -139.5 52.5t-47.5 143.5h-44l-40 -184h-158l106 483h158l-36 -162h40q30 76 86 125t132 49q92 0 140 -53t48 -144q0 -53 -17 -107.5t-47 -100t-77.5 -74t-103.5 -28.5zM419 127q35 0 56 63.5t21 111.5q0 54 -38 54q-34 0 -55 -64t-21 -111q0 -54 37 -54z
" />
    <glyph glyph-name="afii10097" unicode="&#x44f;" 
d="M134 0h-172l117 195q-43 39 -43 99q0 75 54 132t149 57h240l-106 -483h-158l33 154h-39zM235 278h41l17 81h-50q-21 0 -32 -14.5t-11 -35.5q0 -31 35 -31z" />
    <glyph glyph-name="afii10071" unicode="&#x451;" horiz-adv-x="435" 
d="M482 624q0 -35 -28 -62t-63 -27q-30 0 -50 20.5t-20 50.5q0 35 27.5 62t62.5 27q30 0 50.5 -20.5t20.5 -50.5zM297 624q0 -35 -27.5 -62t-62.5 -27q-31 0 -51 20.5t-20 50.5q0 35 27.5 62t62.5 27q30 0 50.5 -20.5t20.5 -50.5zM200 -12q-90 0 -140.5 52.5t-50.5 145.5
q0 73 28 142t85.5 118t131.5 49q89 0 131 -49t42 -131q0 -46 -20 -126h-254q-1 -4 -1 -15q0 -20 18 -40t63 -20q38 0 80 31l48 -98q-30 -27 -74 -43t-87 -16zM175 297h110q2 16 2 24q0 22 -13 35t-33 13q-29 0 -45 -21.5t-21 -50.5z" />
    <glyph glyph-name="afii10099" unicode="&#x452;" horiz-adv-x="471" 
d="M380 524h-117l-22 -99q20 27 60.5 48.5t74.5 21.5q59 0 80 -30.5t9 -82.5l-86 -395q-41 -183 -205 -183q-42 0 -70 16l53 124q7 -7 22 -7q31 0 42 50l73 332q7 37 -21 37q-30 0 -58 -47l-67 -309h-158l115 524h-33l19 87h33l12 56h158l-12 -56h117z" />
    <glyph glyph-name="afii10100" unicode="&#x453;" horiz-adv-x="338" 
d="M448 700l-144 -144h-99l112 144h131zM379 483l-30 -137h-134l-76 -346h-158l106 483h292z" />
    <glyph glyph-name="afii10101" unicode="&#x454;" horiz-adv-x="371" 
d="M200 -12q-89 0 -140 51t-51 144q0 124 69.5 218t179.5 94q92 0 144 -50l-64 -104q-23 27 -60 27q-68 0 -94 -71h124l-24 -108h-113q4 -33 24 -53.5t48 -20.5q30 0 55 18l18 -116q-47 -29 -116 -29z" />
    <glyph glyph-name="afii10102" unicode="&#x455;" horiz-adv-x="382" 
d="M156 -12q-61 0 -113.5 23.5t-73.5 52.5l82 101q42 -54 103 -54q21 0 33 8.5t12 21.5q0 11 -16.5 21.5t-40 22t-47 27t-40 43t-16.5 62.5q0 74 49.5 126t138.5 52q49 0 96 -19t79 -53l-78 -100q-12 16 -40.5 32.5t-56.5 16.5q-38 0 -38 -27q0 -11 26 -25t57 -28t57 -46.5
t26 -76.5q0 -74 -54.5 -127.5t-144.5 -53.5z" />
    <glyph glyph-name="afii10103" unicode="&#x456;" horiz-adv-x="228" 
d="M185 525q-35 0 -58.5 22.5t-23.5 54.5q0 47 32.5 75.5t70.5 28.5q35 0 58 -22.5t23 -54.5q0 -47 -32 -75.5t-70 -28.5zM139 0h-158l107 483h158z" />
    <glyph glyph-name="afii10104" unicode="&#x457;" horiz-adv-x="228" 
d="M368 624q0 -35 -28 -62t-63 -27q-30 0 -50 20.5t-20 50.5q0 35 27.5 62t62.5 27q30 0 50.5 -20.5t20.5 -50.5zM183 624q0 -35 -27.5 -62t-62.5 -27q-31 0 -51 20.5t-20 50.5q0 35 27.5 62t62.5 27q30 0 50.5 -20.5t20.5 -50.5zM139 0h-158l107 483h158z" />
    <glyph glyph-name="afii10105" unicode="&#x458;" horiz-adv-x="228" 
d="M-53 -196q-56 0 -83 22l51 118q6 -7 22 -7q30 0 41 50l110 496h158l-111 -496q-20 -93 -61.5 -138t-126.5 -45zM185 525q-35 0 -58.5 22.5t-23.5 54.5q0 47 32.5 75.5t70.5 28.5q35 0 58 -22.5t23 -54.5q0 -47 -32 -75.5t-70 -28.5z" />
    <glyph glyph-name="afii10106" unicode="&#x459;" horiz-adv-x="688" 
d="M-43 -12l29 133q12 0 22 6.5t26 35.5t31 81l72 239h342l-34 -153h55q94 0 132.5 -46.5t22.5 -118.5q-16 -71 -75 -118t-152 -47h-213l76 346h-37l-35 -118q-41 -138 -98 -189t-164 -51zM459 206h-41l-18 -82h41q21 0 35.5 11.5t18.5 29.5q4 17 -5.5 29t-30.5 12z" />
    <glyph glyph-name="afii10107" unicode="&#x45a;" horiz-adv-x="665" 
d="M139 0h-158l106 483h158l-36 -162h76l36 162h158l-36 -162h55q94 0 132.5 -45.5t23.5 -115.5q-15 -69 -74 -114.5t-152 -45.5h-213l40 184h-76zM465 184h-52l-13 -60h52q16 0 27 8.5t13 21.5q3 13 -4 21.5t-23 8.5z" />
    <glyph glyph-name="afii10108" unicode="&#x45b;" horiz-adv-x="471" 
d="M382 0h-158l70 316l1 6q1 7 1 9q0 25 -23 25q-29 0 -57 -47l-68 -309h-158l116 526h-33l19 87h33l12 54h158l-12 -54h117l-20 -87h-117l-22 -100q22 28 56.5 48.5t70.5 20.5q46 0 73 -25t27 -64q0 -11 -3 -26z" />
    <glyph glyph-name="afii10109" unicode="&#x45c;" horiz-adv-x="445" 
d="M491 700l-144 -144h-99l112 144h131zM396 0h-171l-16 169l-48 -67l-22 -102h-158l107 483h158l-38 -171l109 171h177l-155 -213z" />
    <glyph glyph-name="afii10110" unicode="&#x45e;" horiz-adv-x="435" 
d="M-47 -181l50 129q8 -5 23 -5q22 0 36 24l17 30l-32 486h162l-7 -284l122 284h170l-280 -547q-41 -77 -78 -104.5t-94 -27.5t-89 15zM421 603q-60 -65 -143 -65q-82 0 -115 65l78 52q15 -31 52 -31q38 0 66 31z" />
    <glyph glyph-name="afii10193" unicode="&#x45f;" 
d="M71 -122l27 122h-117l106 483h158l-76 -346h76l76 346h158l-106 -483h-117l-27 -122h-158z" />
    <glyph glyph-name="afii10050" unicode="&#x490;" horiz-adv-x="400" 
d="M164 0h-177l146 667h159l27 123h177l-61 -277h-159z" />
    <glyph glyph-name="afii10098" unicode="&#x491;" horiz-adv-x="338" 
d="M215 346l-76 -346h-158l106 483h134l27 122h158l-57 -259h-134z" />
    <glyph glyph-name="uni1E02" unicode="&#x1e02;" horiz-adv-x="502" 
d="M274 0h-287l147 667h215q86 0 133 -44t47 -109q0 -67 -41 -122t-105 -61q42 -12 64.5 -46.5t22.5 -79.5q0 -80 -50 -142.5t-146 -62.5zM256 415h30q24 0 40 17.5t16 42.5q0 38 -48 38h-17zM232 154q27 0 44.5 18.5t17.5 48.5q0 40 -43 40h-30l-23 -107h34zM458 792
q0 -35 -28 -62t-63 -27q-31 0 -51 20.5t-20 50.5q0 35 28 62t63 27q30 0 50.5 -20t20.5 -51z" />
    <glyph glyph-name="uni1E03" unicode="&#x1e03;" horiz-adv-x="461" 
d="M254 -12q-82 0 -104 67l-11 -55h-157l146 667h158l-53 -237q46 65 105 65q116 0 116 -165q0 -52 -12.5 -109.5t-36 -110.5t-63.5 -87.5t-88 -34.5zM213 127q20 0 36 20.5t25 50t13.5 58t4.5 50.5q0 50 -40 50q-25 0 -42 -33l-36 -162q7 -34 39 -34zM438 792
q0 -35 -28 -62t-63 -27q-31 0 -51 20.5t-20 50.5q0 35 28 62t63 27q30 0 50.5 -20t20.5 -51z" />
    <glyph glyph-name="uni1E0A" unicode="&#x1e0a;" horiz-adv-x="524" 
d="M194 0h-207l147 667h201q82 0 140.5 -63t58.5 -171q0 -52 -9.5 -106.5t-34.5 -114t-62 -106t-98 -76.5t-136 -30zM198 154h27q32 0 58.5 31.5t41.5 77.5t22.5 90t7.5 77q0 41 -14.5 62t-37.5 21h-26zM471 792q0 -35 -28 -62t-63 -27q-31 0 -51 20.5t-20 50.5q0 35 28 62
t63 27q30 0 50.5 -20t20.5 -51z" />
    <glyph glyph-name="uni1E0B" unicode="&#x1e0b;" horiz-adv-x="461" 
d="M207 495q81 0 103 -67l53 239h156l-147 -667h-157l12 53q-44 -65 -104 -65q-117 0 -117 165q0 72 20.5 147.5t68.5 135t112 59.5zM247 356q-20 0 -36 -20.5t-25 -50.5t-13.5 -58.5t-4.5 -49.5q0 -50 40 -50q26 0 43 33l36 162q-8 34 -40 34zM428 792q0 -35 -28 -62
t-63 -27q-31 0 -51 20.5t-20 50.5q0 35 28 62t63 27q30 0 50.5 -20t20.5 -51z" />
    <glyph glyph-name="uni1E1E" unicode="&#x1e1e;" horiz-adv-x="400" 
d="M409 792q0 -35 -28 -62t-63 -27q-31 0 -51 20.5t-20 50.5q0 35 28 62t63 27q30 0 50.5 -20t20.5 -51zM164 0h-177l147 667h336l-34 -154h-159l-21 -98h152l-34 -154h-153z" />
    <glyph glyph-name="uni1E1F" unicode="&#x1e1f;" horiz-adv-x="275" 
d="M387 792q0 -35 -28 -62t-63 -27q-31 0 -51 20.5t-20 50.5q0 35 28 62t63 27q30 0 50.5 -20t20.5 -51zM156 0h-157l76 346h-42l31 137h41l4 19q17 81 56.5 128t116.5 47q79 0 114 -31l-57 -115q-13 13 -28 13q-36 0 -45 -42l-4 -19h57l-31 -137h-56z" />
    <glyph glyph-name="uni1E22" unicode="&#x1e22;" horiz-adv-x="532" 
d="M436 0h-176l58 266h-96l-58 -266h-177l147 667h177l-55 -247h97l54 247h176zM468 792q0 -35 -28 -62t-63 -27q-31 0 -51 20.5t-20 50.5q0 35 28 62t63 27q30 0 50.5 -20t20.5 -51z" />
    <glyph glyph-name="uni1E23" unicode="&#x1e23;" 
d="M373 0h-158l70 316l1 6q1 7 1 9q0 25 -23 25q-29 0 -57 -47l-68 -309h-158l147 667h158l-54 -241q22 28 56.5 48.5t70.5 20.5q46 0 73 -25t27 -64q0 -11 -3 -26zM434 792q0 -35 -28 -62t-63 -27q-31 0 -51 20.5t-20 50.5q0 35 28 62t63 27q30 0 50.5 -20t20.5 -51z" />
    <glyph glyph-name="uni1E56" unicode="&#x1e56;" horiz-adv-x="496" 
d="M164 0h-177l147 667h207q84 0 135.5 -53.5t51.5 -133.5q0 -108 -70.5 -183t-199.5 -75h-45zM247 376h26q32 0 52 25.5t20 59.5q0 24 -12.5 38t-32.5 14h-23zM457 792q0 -35 -28 -62t-63 -27q-31 0 -51 20.5t-20 50.5q0 35 28 62t63 27q30 0 50.5 -20t20.5 -51z" />
    <glyph glyph-name="uni1E57" unicode="&#x1e57;" horiz-adv-x="461" 
d="M254 -12q-82 0 -104 67l-52 -239h-157l147 667h158l-13 -53q46 65 105 65q116 0 116 -165q0 -52 -12.5 -109.5t-36 -110.5t-63.5 -87.5t-88 -34.5zM213 127q20 0 36 20.5t25 50t13.5 58t4.5 50.5q0 50 -40 50q-25 0 -42 -33l-36 -162q7 -34 39 -34zM403 625
q0 -35 -28 -62t-63 -27q-31 0 -51 20.5t-20 50.5q0 35 28 62t63 27q30 0 50.5 -20t20.5 -51z" />
    <glyph glyph-name="uni1E60" unicode="&#x1e60;" horiz-adv-x="437" 
d="M178 -12q-65 0 -120.5 23t-85.5 61l97 130q19 -26 49 -42t60 -16q22 0 36 14t14 36q0 20 -25.5 44.5t-56 47t-56 63.5t-25.5 91q0 99 68 168.5t169 69.5q52 0 102 -19t82 -54l-91 -131q-37 48 -95 48q-23 0 -35 -13.5t-12 -32.5q0 -18 16.5 -37t40 -38t47 -41.5t40 -56.5
t16.5 -75q0 -99 -65.5 -169.5t-169.5 -70.5zM421 792q0 -35 -28 -62t-63 -27q-31 0 -51 20.5t-20 50.5q0 35 28 62t63 27q30 0 50.5 -20t20.5 -51z" />
    <glyph glyph-name="uni1E61" unicode="&#x1e61;" horiz-adv-x="382" 
d="M156 -12q-61 0 -113.5 23.5t-73.5 52.5l82 101q42 -54 103 -54q21 0 33 8.5t12 21.5q0 11 -16.5 21.5t-40 22t-47 27t-40 43t-16.5 62.5q0 74 49.5 126t138.5 52q49 0 96 -19t79 -53l-78 -100q-12 16 -40.5 32.5t-56.5 16.5q-38 0 -38 -27q0 -11 26 -25t57 -28t57 -46.5
t26 -76.5q0 -74 -54.5 -127.5t-144.5 -53.5zM358 625q0 -35 -28 -62t-63 -27q-31 0 -51 20.5t-20 50.5q0 35 28 62t63 27q30 0 50.5 -20t20.5 -51z" />
    <glyph glyph-name="uni1E6A" unicode="&#x1e6a;" horiz-adv-x="406" 
d="M238 0h-177l113 513h-97l34 154h370l-34 -154h-96zM403 792q0 -35 -28 -62t-63 -27q-31 0 -51 20.5t-20 50.5q0 35 28 62t63 27q30 0 50.5 -20t20.5 -51z" />
    <glyph glyph-name="uni1E6B" unicode="&#x1e6b;" horiz-adv-x="282" 
d="M164 -12q-142 0 -142 102q0 24 6 49l47 207h-42l31 137h41l29 132h158l-29 -132h56l-31 -137h-56l-39 -176q-2 -12 -2 -19q0 -24 23 -24q10 0 18 6l-5 -133q-21 -12 -63 -12zM331 792q0 -35 -28 -62t-63 -27q-31 0 -51 20.5t-20 50.5q0 35 28 62t63 27q30 0 50.5 -20
t20.5 -51z" />
    <glyph glyph-name="Wgrave" unicode="&#x1e80;" horiz-adv-x="684" 
d="M504 0h-176l36 346l-117 -346h-175l25 667h176l-40 -362l132 362h134l-26 -362l119 362h181zM496 723h-97l-80 144h129z" />
    <glyph glyph-name="wgrave" unicode="&#x1e81;" horiz-adv-x="674" 
d="M506 0h-166l2 269l-116 -269h-166l-10 483h158l-11 -273l110 273h147l-3 -273l112 273h167zM446 556h-97l-80 144h129z" />
    <glyph glyph-name="Wacute" unicode="&#x1e82;" horiz-adv-x="684" 
d="M633 867l-144 -144h-99l112 144h131zM504 0h-176l36 346l-117 -346h-175l25 667h176l-40 -362l132 362h134l-26 -362l119 362h181z" />
    <glyph glyph-name="wacute" unicode="&#x1e83;" horiz-adv-x="674" 
d="M584 700l-144 -144h-99l112 144h131zM506 0h-166l2 269l-116 -269h-166l-10 483h158l-11 -273l110 273h147l-3 -273l112 273h167z" />
    <glyph glyph-name="Wdieresis" unicode="&#x1e84;" horiz-adv-x="684" 
d="M630 791q0 -35 -28 -62t-63 -27q-30 0 -50 20.5t-20 50.5q0 35 27.5 62t62.5 27q30 0 50.5 -20.5t20.5 -50.5zM445 791q0 -35 -27.5 -62t-62.5 -27q-31 0 -51 20.5t-20 50.5q0 35 27.5 62t62.5 27q30 0 50.5 -20.5t20.5 -50.5zM504 0h-176l36 346l-117 -346h-175l25 667
h176l-40 -362l132 362h134l-26 -362l119 362h181z" />
    <glyph glyph-name="wdieresis" unicode="&#x1e85;" horiz-adv-x="674" 
d="M582 624q0 -35 -28 -62t-63 -27q-30 0 -50 20.5t-20 50.5q0 35 27.5 62t62.5 27q30 0 50.5 -20.5t20.5 -50.5zM397 624q0 -35 -27.5 -62t-62.5 -27q-31 0 -51 20.5t-20 50.5q0 35 27.5 62t62.5 27q30 0 50.5 -20.5t20.5 -50.5zM506 0h-166l2 269l-116 -269h-166l-10 483
h158l-11 -273l110 273h147l-3 -273l112 273h167z" />
    <glyph glyph-name="uni1EA0" unicode="&#x1ea0;" horiz-adv-x="484" 
d="M436 0h-177l7 93h-107l-34 -93h-185l293 667h203v-667zM280 247l17 228l-83 -228h66zM243 -114q0 -35 -28 -62t-63 -27q-31 0 -51 20.5t-20 50.5q0 35 28 62t63 27q30 0 50.5 -20t20.5 -51z" />
    <glyph glyph-name="uni1EA1" unicode="&#x1ea1;" horiz-adv-x="461" 
d="M207 495q81 0 103 -67l13 55h156l-107 -483h-157l12 53q-44 -65 -104 -65q-117 0 -117 165q0 72 20.5 147.5t68.5 135t112 59.5zM247 356q-20 0 -36 -20.5t-25 -50.5t-13.5 -58.5t-4.5 -49.5q0 -50 40 -50q26 0 43 33l36 162q-8 34 -40 34zM228 -114q0 -35 -28 -62
t-63 -27q-31 0 -51 20.5t-20 50.5q0 35 28 62t63 27q30 0 50.5 -20t20.5 -51z" />
    <glyph glyph-name="uni1EA2" unicode="&#x1ea2;" horiz-adv-x="484" 
d="M436 0h-177l7 93h-107l-34 -93h-185l293 667h203v-667zM280 247l17 228l-83 -228h66zM338 754l-50 13q22 53 72 53q64 0 64 -58q0 -34 -24 -65h-58q20 25 25 50q5 24 -12 24q-11 0 -17 -17z" />
    <glyph glyph-name="uni1EA3" unicode="&#x1ea3;" horiz-adv-x="461" 
d="M207 495q81 0 103 -67l13 55h156l-107 -483h-157l12 53q-44 -65 -104 -65q-117 0 -117 165q0 72 20.5 147.5t68.5 135t112 59.5zM247 356q-20 0 -36 -20.5t-25 -50.5t-13.5 -58.5t-4.5 -49.5q0 -50 40 -50q26 0 43 33l36 162q-8 34 -40 34zM288 584l-50 13q22 53 72 53
q64 0 64 -58q0 -34 -24 -65h-58q20 25 25 50q5 24 -12 24q-11 0 -17 -17z" />
    <glyph glyph-name="uni1EA4" unicode="&#x1ea4;" horiz-adv-x="484" 
d="M463 682h-82l-30 59l-62 -59h-86l91 108h138zM436 0h-177l7 93h-107l-34 -93h-185l293 667h203v-667zM280 247l17 228l-83 -228h66zM695 843l-144 -108h-99l112 108h131z" />
    <glyph glyph-name="uni1EA5" unicode="&#x1ea5;" horiz-adv-x="461" 
d="M207 495q81 0 103 -67l13 55h156l-107 -483h-157l12 53q-44 -65 -104 -65q-117 0 -117 165q0 72 20.5 147.5t68.5 135t112 59.5zM247 356q-20 0 -36 -20.5t-25 -50.5t-13.5 -58.5t-4.5 -49.5q0 -50 40 -50q26 0 43 33l36 162q-8 34 -40 34zM426 556h-82l-30 79l-62 -79
h-86l91 144h138zM659 770l-144 -144h-99l112 144h131z" />
    <glyph glyph-name="uni1EA6" unicode="&#x1ea6;" horiz-adv-x="484" 
d="M463 682h-82l-30 59l-62 -59h-86l91 108h138zM436 0h-177l7 93h-107l-34 -93h-185l293 667h203v-667zM280 247l17 228l-83 -228h66zM242 735h-97l-80 108h129z" />
    <glyph glyph-name="uni1EA7" unicode="&#x1ea7;" horiz-adv-x="461" 
d="M207 495q81 0 103 -67l13 55h156l-107 -483h-157l12 53q-44 -65 -104 -65q-117 0 -117 165q0 72 20.5 147.5t68.5 135t112 59.5zM247 356q-20 0 -36 -20.5t-25 -50.5t-13.5 -58.5t-4.5 -49.5q0 -50 40 -50q26 0 43 33l36 162q-8 34 -40 34zM426 556h-82l-30 79l-62 -79
h-86l91 144h138zM204 626h-97l-80 144h129z" />
    <glyph glyph-name="uni1EA8" unicode="&#x1ea8;" horiz-adv-x="484" 
d="M463 682h-82l-30 59l-62 -59h-86l91 108h138zM436 0h-177l7 93h-107l-34 -93h-185l293 667h203v-667zM280 247l17 228l-83 -228h66zM451 799l-50 10q21 39 72 39q64 0 64 -43q0 -25 -24 -49h-58q20 19 25 38q5 18 -12 18q-10 0 -17 -13z" />
    <glyph glyph-name="uni1EA9" unicode="&#x1ea9;" horiz-adv-x="461" 
d="M207 495q81 0 103 -67l13 55h156l-107 -483h-157l12 53q-44 -65 -104 -65q-117 0 -117 165q0 72 20.5 147.5t68.5 135t112 59.5zM247 356q-20 0 -36 -20.5t-25 -50.5t-13.5 -58.5t-4.5 -49.5q0 -50 40 -50q26 0 43 33l36 162q-8 34 -40 34zM426 556h-82l-30 79l-62 -79
h-86l91 144h138zM412 724l-50 13q22 53 72 53q64 0 64 -58q0 -34 -24 -65h-58q20 25 25 50q5 24 -12 24q-11 0 -17 -17z" />
    <glyph glyph-name="uni1EAA" unicode="&#x1eaa;" horiz-adv-x="484" 
d="M458 679h-82l-30 39l-62 -39h-86l91 72h138zM436 0h-177l7 93h-107l-34 -93h-185l293 667h203v-667zM280 247l17 228l-83 -228h66zM403 758q-33 0 -52.5 13t-33.5 13q-21 0 -31 -23h-80q30 67 116 67q32 0 52 -13.5t35 -13.5q20 0 31 24h80q-30 -67 -117 -67z" />
    <glyph glyph-name="uni1EAB" unicode="&#x1eab;" horiz-adv-x="461" 
d="M207 495q81 0 103 -67l13 55h156l-107 -483h-157l12 53q-44 -65 -104 -65q-117 0 -117 165q0 72 20.5 147.5t68.5 135t112 59.5zM247 356q-20 0 -36 -20.5t-25 -50.5t-13.5 -58.5t-4.5 -49.5q0 -50 40 -50q26 0 43 33l36 162q-8 34 -40 34zM419 523h-82l-30 79l-62 -79
h-86l91 144h138zM380 682q-20 0 -33.5 8.5t-19 18t-14 18t-19.5 8.5q-21 0 -31 -47h-80q30 134 116 134q20 0 33.5 -8.5t19 -18.5t14.5 -18.5t20 -8.5q19 0 31 48h80q-14 -62 -43.5 -98t-73.5 -36z" />
    <glyph glyph-name="uni1EAC" unicode="&#x1eac;" horiz-adv-x="484" 
d="M436 0h-177l7 93h-107l-34 -93h-185l293 667h203v-667zM280 247l17 228l-83 -228h66zM476 723h-82l-30 79l-62 -79h-86l91 144h138zM243 -114q0 -35 -28 -62t-63 -27q-31 0 -51 20.5t-20 50.5q0 35 28 62t63 27q30 0 50.5 -20t20.5 -51z" />
    <glyph glyph-name="uni1EAD" unicode="&#x1ead;" horiz-adv-x="461" 
d="M207 495q81 0 103 -67l13 55h156l-107 -483h-157l12 53q-44 -65 -104 -65q-117 0 -117 165q0 72 20.5 147.5t68.5 135t112 59.5zM247 356q-20 0 -36 -20.5t-25 -50.5t-13.5 -58.5t-4.5 -49.5q0 -50 40 -50q26 0 43 33l36 162q-8 34 -40 34zM426 556h-82l-30 79l-62 -79
h-86l91 144h138zM228 -114q0 -35 -28 -62t-63 -27q-31 0 -51 20.5t-20 50.5q0 35 28 62t63 27q30 0 50.5 -20t20.5 -51z" />
    <glyph glyph-name="uni1EAE" unicode="&#x1eae;" horiz-adv-x="484" 
d="M436 0h-177l7 93h-107l-34 -93h-185l293 667h203v-667zM280 247l17 228l-83 -228h66zM534 828l-144 -77h-99l112 77h131zM475 716q-60 -38 -143 -38q-82 0 -115 38l78 30q15 -18 52 -18q38 0 66 18z" />
    <glyph glyph-name="uni1EAF" unicode="&#x1eaf;" horiz-adv-x="461" 
d="M207 495q81 0 103 -67l13 55h156l-107 -483h-157l12 53q-44 -65 -104 -65q-117 0 -117 165q0 72 20.5 147.5t68.5 135t112 59.5zM247 356q-20 0 -36 -20.5t-25 -50.5t-13.5 -58.5t-4.5 -49.5q0 -50 40 -50q26 0 43 33l36 162q-8 34 -40 34zM500 787l-144 -144h-99
l112 144h131zM429 576q-60 -65 -143 -65q-82 0 -115 65l78 52q15 -31 52 -31q38 0 66 31z" />
    <glyph glyph-name="uni1EB0" unicode="&#x1eb0;" horiz-adv-x="484" 
d="M436 0h-177l7 93h-107l-34 -93h-185l293 667h203v-667zM280 247l17 228l-83 -228h66zM405 751h-97l-80 77h129zM473 716q-60 -38 -143 -38q-82 0 -115 38l78 30q15 -18 52 -18q38 0 66 18z" />
    <glyph glyph-name="uni1EB1" unicode="&#x1eb1;" horiz-adv-x="461" 
d="M207 495q81 0 103 -67l13 55h156l-107 -483h-157l12 53q-44 -65 -104 -65q-117 0 -117 165q0 72 20.5 147.5t68.5 135t112 59.5zM247 356q-20 0 -36 -20.5t-25 -50.5t-13.5 -58.5t-4.5 -49.5q0 -50 40 -50q26 0 43 33l36 162q-8 34 -40 34zM368 643h-97l-80 144h129z
M429 576q-60 -65 -143 -65q-82 0 -115 65l78 52q15 -31 52 -31q38 0 66 31z" />
    <glyph glyph-name="uni1EB2" unicode="&#x1eb2;" horiz-adv-x="484" 
d="M436 0h-177l7 93h-107l-34 -93h-185l293 667h203v-667zM280 247l17 228l-83 -228h66zM344 781l-50 7q22 29 72 29q64 0 64 -32q0 -17 -24 -34h-58q20 12 25 26q5 13 -12 13q-11 0 -17 -9zM473 716q-60 -38 -143 -38q-82 0 -115 38l78 30q15 -18 52 -18q38 0 66 18z" />
    <glyph glyph-name="uni1EB3" unicode="&#x1eb3;" horiz-adv-x="461" 
d="M207 495q81 0 103 -67l13 55h156l-107 -483h-157l12 53q-44 -65 -104 -65q-117 0 -117 165q0 72 20.5 147.5t68.5 135t112 59.5zM247 356q-20 0 -36 -20.5t-25 -50.5t-13.5 -58.5t-4.5 -49.5q0 -50 40 -50q26 0 43 33l36 162q-8 34 -40 34zM312 703l-50 13q22 53 72 53
q64 0 64 -58q0 -34 -24 -65h-58q20 25 25 50q5 24 -12 24q-11 0 -17 -17zM429 576q-60 -65 -143 -65q-82 0 -115 65l78 52q15 -31 52 -31q38 0 66 31z" />
    <glyph glyph-name="uni1EB4" unicode="&#x1eb4;" horiz-adv-x="484" 
d="M436 0h-177l7 93h-107l-34 -93h-185l293 667h203v-667zM280 247l17 228l-83 -228h66zM473 714q-60 -35 -143 -35q-82 0 -115 35l78 28q15 -17 52 -17t66 17zM403 757q-33 0 -52.5 13t-33.5 13q-21 0 -31 -23h-80q30 67 116 67q32 0 52 -13.5t35 -13.5q20 0 31 24h80
q-30 -67 -117 -67z" />
    <glyph glyph-name="uni1EB5" unicode="&#x1eb5;" horiz-adv-x="461" 
d="M207 495q81 0 103 -67l13 55h156l-107 -483h-157l12 53q-44 -65 -104 -65q-117 0 -117 165q0 72 20.5 147.5t68.5 135t112 59.5zM247 356q-20 0 -36 -20.5t-25 -50.5t-13.5 -58.5t-4.5 -49.5q0 -50 40 -50q26 0 43 33l36 162q-8 34 -40 34zM429 576q-60 -65 -143 -65
q-82 0 -115 65l78 52q15 -31 52 -31q38 0 66 31zM372 647q-20 0 -33.5 8.5t-19 18t-14 18t-19.5 8.5q-21 0 -31 -47h-80q30 134 116 134q20 0 33.5 -8.5t19 -18.5t14.5 -18.5t20 -8.5q19 0 31 48h80q-14 -62 -43.5 -98t-73.5 -36z" />
    <glyph glyph-name="uni1EB6" unicode="&#x1eb6;" horiz-adv-x="484" 
d="M436 0h-177l7 93h-107l-34 -93h-185l293 667h203v-667zM280 247l17 228l-83 -228h66zM243 -114q0 -35 -28 -62t-63 -27q-31 0 -51 20.5t-20 50.5q0 35 28 62t63 27q30 0 50.5 -20t20.5 -51zM485 770q-60 -65 -143 -65q-82 0 -115 65l78 52q15 -31 52 -31q38 0 66 31z" />
    <glyph glyph-name="uni1EB7" unicode="&#x1eb7;" horiz-adv-x="461" 
d="M207 495q81 0 103 -67l13 55h156l-107 -483h-157l12 53q-44 -65 -104 -65q-117 0 -117 165q0 72 20.5 147.5t68.5 135t112 59.5zM247 356q-20 0 -36 -20.5t-25 -50.5t-13.5 -58.5t-4.5 -49.5q0 -50 40 -50q26 0 43 33l36 162q-8 34 -40 34zM226 -114q0 -35 -28 -62
t-63 -27q-31 0 -51 20.5t-20 50.5q0 35 28 62t63 27q30 0 50.5 -20t20.5 -51zM433 603q-60 -65 -143 -65q-82 0 -115 65l78 52q15 -31 52 -31q38 0 66 31z" />
    <glyph glyph-name="uni1EB8" unicode="&#x1eb8;" horiz-adv-x="405" 
d="M323 0h-336l147 667h336l-34 -154h-159l-21 -98h152l-34 -154h-153l-23 -107h159zM210 -114q0 -35 -28 -62t-63 -27q-31 0 -51 20.5t-20 50.5q0 35 28 62t63 27q30 0 50.5 -20t20.5 -51z" />
    <glyph glyph-name="uni1EB9" unicode="&#x1eb9;" horiz-adv-x="435" 
d="M200 -12q-90 0 -140.5 52.5t-50.5 145.5q0 73 28 142t85.5 118t131.5 49q89 0 131 -49t42 -131q0 -46 -20 -126h-254q-1 -4 -1 -15q0 -20 18 -40t63 -20q38 0 80 31l48 -98q-30 -27 -74 -43t-87 -16zM175 297h110q2 16 2 24q0 22 -13 35t-33 13q-29 0 -45 -21.5
t-21 -50.5zM229 -114q0 -35 -28 -62t-63 -27q-31 0 -51 20.5t-20 50.5q0 35 28 62t63 27q30 0 50.5 -20t20.5 -51z" />
    <glyph glyph-name="uni1EBA" unicode="&#x1eba;" horiz-adv-x="405" 
d="M323 0h-336l147 667h336l-34 -154h-159l-21 -98h152l-34 -154h-153l-23 -107h159zM305 754l-50 13q22 53 72 53q64 0 64 -58q0 -34 -24 -65h-58q20 25 25 50q5 24 -12 24q-11 0 -17 -17z" />
    <glyph glyph-name="uni1EBB" unicode="&#x1ebb;" horiz-adv-x="435" 
d="M200 -12q-90 0 -140.5 52.5t-50.5 145.5q0 73 28 142t85.5 118t131.5 49q89 0 131 -49t42 -131q0 -46 -20 -126h-254q-1 -4 -1 -15q0 -20 18 -40t63 -20q38 0 80 31l48 -98q-30 -27 -74 -43t-87 -16zM175 297h110q2 16 2 24q0 22 -13 35t-33 13q-29 0 -45 -21.5
t-21 -50.5zM287 584l-50 13q22 53 72 53q64 0 64 -58q0 -34 -24 -65h-58q20 25 25 50q5 24 -12 24q-11 0 -17 -17z" />
    <glyph glyph-name="uni1EBC" unicode="&#x1ebc;" horiz-adv-x="405" 
d="M323 0h-336l147 667h336l-34 -154h-159l-21 -98h152l-34 -154h-153l-23 -107h159zM370 721q-20 0 -33.5 8.5t-19 18t-14 18t-19.5 8.5q-21 0 -31 -47h-80q30 134 116 134q20 0 33.5 -8.5t19 -18.5t14.5 -18.5t20 -8.5q19 0 31 48h80q-14 -62 -43.5 -98t-73.5 -36z" />
    <glyph glyph-name="uni1EBD" unicode="&#x1ebd;" horiz-adv-x="435" 
d="M200 -12q-90 0 -140.5 52.5t-50.5 145.5q0 73 28 142t85.5 118t131.5 49q89 0 131 -49t42 -131q0 -46 -20 -126h-254q-1 -4 -1 -15q0 -20 18 -40t63 -20q38 0 80 31l48 -98q-30 -27 -74 -43t-87 -16zM175 297h110q2 16 2 24q0 22 -13 35t-33 13q-29 0 -45 -21.5
t-21 -50.5zM352 554q-20 0 -33.5 8.5t-19 18t-14 18t-19.5 8.5q-21 0 -31 -47h-80q30 134 116 134q20 0 33.5 -8.5t19 -18.5t14.5 -18.5t20 -8.5q19 0 31 48h80q-14 -62 -43.5 -98t-73.5 -36z" />
    <glyph glyph-name="uni1EBE" unicode="&#x1ebe;" horiz-adv-x="405" 
d="M432 682h-82l-30 59l-62 -59h-86l91 108h138zM667 843l-144 -108h-99l112 108h131zM323 0h-336l147 667h336l-34 -154h-159l-21 -98h152l-34 -154h-153l-23 -107h159z" />
    <glyph glyph-name="uni1EBF" unicode="&#x1ebf;" horiz-adv-x="435" 
d="M426 556h-82l-30 79l-62 -79h-86l91 144h138zM658 770l-144 -144h-99l112 144h131zM200 -12q-90 0 -140.5 52.5t-50.5 145.5q0 73 28 142t85.5 118t131.5 49q89 0 131 -49t42 -131q0 -46 -20 -126h-254q-1 -4 -1 -15q0 -20 18 -40t63 -20q38 0 80 31l48 -98
q-30 -27 -74 -43t-87 -16zM175 297h110q2 16 2 24q0 22 -13 35t-33 13q-29 0 -45 -21.5t-21 -50.5z" />
    <glyph glyph-name="uni1EC0" unicode="&#x1ec0;" horiz-adv-x="405" 
d="M432 682h-82l-30 59l-62 -59h-86l91 108h138zM323 0h-336l147 667h336l-34 -154h-159l-21 -98h152l-34 -154h-153l-23 -107h159zM211 735h-97l-80 108h129z" />
    <glyph glyph-name="uni1EC1" unicode="&#x1ec1;" horiz-adv-x="435" 
d="M427 556h-82l-30 79l-62 -79h-86l91 144h138zM200 -12q-90 0 -140.5 52.5t-50.5 145.5q0 73 28 142t85.5 118t131.5 49q89 0 131 -49t42 -131q0 -46 -20 -126h-254q-1 -4 -1 -15q0 -20 18 -40t63 -20q38 0 80 31l48 -98q-30 -27 -74 -43t-87 -16zM175 297h110q2 16 2 24
q0 22 -13 35t-33 13q-29 0 -45 -21.5t-21 -50.5zM205 626h-97l-80 144h129z" />
    <glyph glyph-name="uni1EC2" unicode="&#x1ec2;" horiz-adv-x="405" 
d="M431 682h-82l-30 59l-62 -59h-86l91 108h138zM323 0h-336l147 667h336l-34 -154h-159l-21 -98h152l-34 -154h-153l-23 -107h159zM419 799l-50 10q21 39 72 39q64 0 64 -43q0 -25 -24 -49h-58q20 19 25 38q5 18 -12 18q-10 0 -17 -13z" />
    <glyph glyph-name="uni1EC3" unicode="&#x1ec3;" horiz-adv-x="435" 
d="M428 556h-82l-30 79l-62 -79h-86l91 144h138zM200 -12q-90 0 -140.5 52.5t-50.5 145.5q0 73 28 142t85.5 118t131.5 49q89 0 131 -49t42 -131q0 -46 -20 -126h-254q-1 -4 -1 -15q0 -20 18 -40t63 -20q38 0 80 31l48 -98q-30 -27 -74 -43t-87 -16zM175 297h110q2 16 2 24
q0 22 -13 35t-33 13q-29 0 -45 -21.5t-21 -50.5zM414 724l-50 13q22 53 72 53q64 0 64 -58q0 -34 -24 -65h-58q20 25 25 50q5 24 -12 24q-11 0 -17 -17z" />
    <glyph glyph-name="uni1EC4" unicode="&#x1ec4;" horiz-adv-x="405" 
d="M427 678h-82l-30 39l-62 -39h-86l91 72h138zM323 0h-336l147 667h336l-34 -154h-159l-21 -98h152l-34 -154h-153l-23 -107h159zM372 757q-33 0 -52.5 13t-33.5 13q-21 0 -31 -23h-80q30 67 116 67q33 0 53 -13.5t34 -13.5q20 0 31 24h80q-30 -67 -117 -67z" />
    <glyph glyph-name="uni1EC5" unicode="&#x1ec5;" horiz-adv-x="435" 
d="M421 523h-82l-30 79l-62 -79h-86l91 144h138zM200 -12q-90 0 -140.5 52.5t-50.5 145.5q0 73 28 142t85.5 118t131.5 49q89 0 131 -49t42 -131q0 -46 -20 -126h-254q-1 -4 -1 -15q0 -20 18 -40t63 -20q38 0 80 31l48 -98q-30 -27 -74 -43t-87 -16zM175 297h110q2 16 2 24
q0 22 -13 35t-33 13q-29 0 -45 -21.5t-21 -50.5zM381 682q-20 0 -33.5 8.5t-19 18t-14 18t-19.5 8.5q-21 0 -31 -47h-80q30 134 116 134q20 0 33.5 -8.5t19 -18.5t14.5 -18.5t20 -8.5q19 0 31 48h80q-14 -62 -43.5 -98t-73.5 -36z" />
    <glyph glyph-name="uni1EC6" unicode="&#x1ec6;" horiz-adv-x="405" 
d="M445 723h-82l-30 79l-62 -79h-86l91 144h138zM323 0h-336l147 667h336l-34 -154h-159l-21 -98h152l-34 -154h-153l-23 -107h159zM214 -114q0 -35 -28 -62t-63 -27q-31 0 -51 20.5t-20 50.5q0 35 28 62t63 27q30 0 50.5 -20t20.5 -51z" />
    <glyph glyph-name="uni1EC7" unicode="&#x1ec7;" horiz-adv-x="435" 
d="M428 556h-82l-30 79l-62 -79h-86l91 144h138zM200 -12q-90 0 -140.5 52.5t-50.5 145.5q0 73 28 142t85.5 118t131.5 49q89 0 131 -49t42 -131q0 -46 -20 -126h-254q-1 -4 -1 -15q0 -20 18 -40t63 -20q38 0 80 31l48 -98q-30 -27 -74 -43t-87 -16zM175 297h110q2 16 2 24
q0 22 -13 35t-33 13q-29 0 -45 -21.5t-21 -50.5zM229 -114q0 -35 -28 -62t-63 -27q-31 0 -51 20.5t-20 50.5q0 35 28 62t63 27q30 0 50.5 -20t20.5 -51z" />
    <glyph glyph-name="uni1EC8" unicode="&#x1ec8;" horiz-adv-x="259" 
d="M164 0h-177l147 667h177zM226 754l-50 13q22 53 72 53q64 0 64 -58q0 -34 -24 -65h-58q20 25 25 50q5 24 -12 24q-11 0 -17 -17z" />
    <glyph glyph-name="uni1EC9" unicode="&#x1ec9;" horiz-adv-x="228" 
d="M139 0h-158l107 483h158zM173 584l-50 13q22 53 72 53q64 0 64 -58q0 -34 -24 -65h-58q20 25 25 50q5 24 -12 24q-11 0 -17 -17z" />
    <glyph glyph-name="uni1ECA" unicode="&#x1eca;" horiz-adv-x="259" 
d="M164 0h-177l147 667h177zM130 -114q0 -35 -28 -62t-63 -27q-31 0 -51 20.5t-20 50.5q0 35 28 62t63 27q30 0 50.5 -20t20.5 -51z" />
    <glyph glyph-name="uni1ECB" unicode="&#x1ecb;" horiz-adv-x="228" 
d="M185 525q-35 0 -58.5 22.5t-23.5 54.5q0 47 32.5 75.5t70.5 28.5q35 0 58 -22.5t23 -54.5q0 -47 -32 -75.5t-70 -28.5zM139 0h-158l107 483h158zM116 -114q0 -35 -28 -62t-63 -27q-31 0 -51 20.5t-20 50.5q0 35 28 62t63 27q30 0 50.5 -20t20.5 -51z" />
    <glyph glyph-name="uni1ECC" unicode="&#x1ecc;" horiz-adv-x="522" 
d="M231 -12q-103 0 -156.5 65t-53.5 170q0 52 10.5 110.5t34.5 120.5t58.5 111.5t88 81t117.5 31.5q102 0 156 -66t54 -170q0 -52 -10.5 -110.5t-34.5 -120.5t-59 -111t-88 -80.5t-117 -31.5zM239 144q34 0 63.5 59t43.5 127.5t14 114.5q0 77 -40 77q-26 0 -49.5 -35
t-38.5 -85t-23.5 -100t-8.5 -83q0 -75 39 -75zM260 -114q0 -35 -28 -62t-63 -27q-31 0 -51 20.5t-20 50.5q0 35 28 62t63 27q30 0 50.5 -20t20.5 -51z" />
    <glyph glyph-name="uni1ECD" unicode="&#x1ecd;" horiz-adv-x="451" 
d="M196 -12q-92 0 -139.5 53t-47.5 144q0 73 27.5 142.5t85 118.5t131.5 49q92 0 140 -53t48 -144q0 -53 -17 -107.5t-47 -100t-77.5 -74t-103.5 -28.5zM205 127q35 0 56 63.5t21 111.5q0 54 -38 54q-34 0 -55 -64t-21 -111q0 -54 37 -54zM226 -114q0 -35 -28 -62t-63 -27
q-31 0 -51 20.5t-20 50.5q0 35 28 62t63 27q30 0 50.5 -20t20.5 -51z" />
    <glyph glyph-name="uni1ECE" unicode="&#x1ece;" horiz-adv-x="522" 
d="M231 -12q-103 0 -156.5 65t-53.5 170q0 52 10.5 110.5t34.5 120.5t58.5 111.5t88 81t117.5 31.5q102 0 156 -66t54 -170q0 -52 -10.5 -110.5t-34.5 -120.5t-59 -111t-88 -80.5t-117 -31.5zM239 144q34 0 63.5 59t43.5 127.5t14 114.5q0 77 -40 77q-26 0 -49.5 -35
t-38.5 -85t-23.5 -100t-8.5 -83q0 -75 39 -75zM357 754l-50 13q22 53 72 53q64 0 64 -58q0 -34 -24 -65h-58q20 25 25 50q5 24 -12 24q-11 0 -17 -17z" />
    <glyph glyph-name="uni1ECF" unicode="&#x1ecf;" horiz-adv-x="451" 
d="M196 -12q-92 0 -139.5 53t-47.5 144q0 73 27.5 142.5t85 118.5t131.5 49q92 0 140 -53t48 -144q0 -53 -17 -107.5t-47 -100t-77.5 -74t-103.5 -28.5zM205 127q35 0 56 63.5t21 111.5q0 54 -38 54q-34 0 -55 -64t-21 -111q0 -54 37 -54zM284 584l-50 13q22 53 72 53
q64 0 64 -58q0 -34 -24 -65h-58q20 25 25 50q5 24 -12 24q-11 0 -17 -17z" />
    <glyph glyph-name="uni1ED0" unicode="&#x1ed0;" horiz-adv-x="522" 
d="M482 682h-82l-30 59l-62 -59h-86l91 108h138zM714 843l-144 -108h-99l112 108h131zM231 -12q-103 0 -156.5 65t-53.5 170q0 52 10.5 110.5t34.5 120.5t58.5 111.5t88 81t117.5 31.5q102 0 156 -66t54 -170q0 -52 -10.5 -110.5t-34.5 -120.5t-59 -111t-88 -80.5
t-117 -31.5zM239 144q34 0 63.5 59t43.5 127.5t14 114.5q0 77 -40 77q-26 0 -49.5 -35t-38.5 -85t-23.5 -100t-8.5 -83q0 -75 39 -75z" />
    <glyph glyph-name="uni1ED1" unicode="&#x1ed1;" horiz-adv-x="451" 
d="M424 556h-82l-30 79l-62 -79h-86l91 144h138zM656 770l-144 -144h-99l112 144h131zM196 -12q-92 0 -139.5 53t-47.5 144q0 73 27.5 142.5t85 118.5t131.5 49q92 0 140 -53t48 -144q0 -53 -17 -107.5t-47 -100t-77.5 -74t-103.5 -28.5zM205 127q35 0 56 63.5t21 111.5
q0 54 -38 54q-34 0 -55 -64t-21 -111q0 -54 37 -54z" />
    <glyph glyph-name="uni1ED2" unicode="&#x1ed2;" horiz-adv-x="522" 
d="M482 682h-82l-30 59l-62 -59h-86l91 108h138zM231 -12q-103 0 -156.5 65t-53.5 170q0 52 10.5 110.5t34.5 120.5t58.5 111.5t88 81t117.5 31.5q102 0 156 -66t54 -170q0 -52 -10.5 -110.5t-34.5 -120.5t-59 -111t-88 -80.5t-117 -31.5zM239 144q34 0 63.5 59t43.5 127.5
t14 114.5q0 77 -40 77q-26 0 -49.5 -35t-38.5 -85t-23.5 -100t-8.5 -83q0 -75 39 -75zM261 735h-97l-80 108h129z" />
    <glyph glyph-name="uni1ED3" unicode="&#x1ed3;" horiz-adv-x="451" 
d="M423 556h-82l-30 79l-62 -79h-86l91 144h138zM196 -12q-92 0 -139.5 53t-47.5 144q0 73 27.5 142.5t85 118.5t131.5 49q92 0 140 -53t48 -144q0 -53 -17 -107.5t-47 -100t-77.5 -74t-103.5 -28.5zM205 127q35 0 56 63.5t21 111.5q0 54 -38 54q-34 0 -55 -64t-21 -111
q0 -54 37 -54zM201 626h-97l-80 144h129z" />
    <glyph glyph-name="uni1ED4" unicode="&#x1ed4;" horiz-adv-x="522" 
d="M482 682h-82l-30 59l-62 -59h-86l91 108h138zM231 -12q-103 0 -156.5 65t-53.5 170q0 52 10.5 110.5t34.5 120.5t58.5 111.5t88 81t117.5 31.5q102 0 156 -66t54 -170q0 -52 -10.5 -110.5t-34.5 -120.5t-59 -111t-88 -80.5t-117 -31.5zM239 144q34 0 63.5 59t43.5 127.5
t14 114.5q0 77 -40 77q-26 0 -49.5 -35t-38.5 -85t-23.5 -100t-8.5 -83q0 -75 39 -75zM471 799l-50 10q21 39 72 39q64 0 64 -43q0 -25 -24 -49h-58q20 19 25 38q5 18 -12 18q-10 0 -17 -13z" />
    <glyph glyph-name="uni1ED5" unicode="&#x1ed5;" horiz-adv-x="451" 
d="M424 556h-82l-30 79l-62 -79h-86l91 144h138zM196 -12q-92 0 -139.5 53t-47.5 144q0 73 27.5 142.5t85 118.5t131.5 49q92 0 140 -53t48 -144q0 -53 -17 -107.5t-47 -100t-77.5 -74t-103.5 -28.5zM205 127q35 0 56 63.5t21 111.5q0 54 -38 54q-34 0 -55 -64t-21 -111
q0 -54 37 -54zM410 724l-50 13q22 53 72 53q64 0 64 -58q0 -34 -24 -65h-58q20 25 25 50q5 24 -12 24q-11 0 -17 -17z" />
    <glyph glyph-name="uni1ED6" unicode="&#x1ed6;" horiz-adv-x="522" 
d="M477 678h-82l-30 39l-62 -39h-86l91 72h138zM231 -12q-103 0 -156.5 65t-53.5 170q0 52 10.5 110.5t34.5 120.5t58.5 111.5t88 81t117.5 31.5q102 0 156 -66t54 -170q0 -52 -10.5 -110.5t-34.5 -120.5t-59 -111t-88 -80.5t-117 -31.5zM239 144q34 0 63.5 59t43.5 127.5
t14 114.5q0 77 -40 77q-26 0 -49.5 -35t-38.5 -85t-23.5 -100t-8.5 -83q0 -75 39 -75zM422 757q-33 0 -52.5 13t-33.5 13q-21 0 -31 -23h-80q30 67 116 67q33 0 53 -13.5t34 -13.5q20 0 31 24h80q-30 -67 -117 -67z" />
    <glyph glyph-name="uni1ED7" unicode="&#x1ed7;" horiz-adv-x="451" 
d="M417 523h-82l-30 79l-62 -79h-86l91 144h138zM196 -12q-92 0 -139.5 53t-47.5 144q0 73 27.5 142.5t85 118.5t131.5 49q92 0 140 -53t48 -144q0 -53 -17 -107.5t-47 -100t-77.5 -74t-103.5 -28.5zM205 127q35 0 56 63.5t21 111.5q0 54 -38 54q-34 0 -55 -64t-21 -111
q0 -54 37 -54zM379 682q-20 0 -33.5 8.5t-19 18t-14 18t-19.5 8.5q-21 0 -31 -47h-80q30 134 116 134q20 0 33.5 -8.5t19 -18.5t14.5 -18.5t20 -8.5q19 0 31 48h80q-14 -62 -43.5 -98t-73.5 -36z" />
    <glyph glyph-name="uni1ED8" unicode="&#x1ed8;" horiz-adv-x="522" 
d="M496 723h-82l-30 79l-62 -79h-86l91 144h138zM231 -12q-103 0 -156.5 65t-53.5 170q0 52 10.5 110.5t34.5 120.5t58.5 111.5t88 81t117.5 31.5q102 0 156 -66t54 -170q0 -52 -10.5 -110.5t-34.5 -120.5t-59 -111t-88 -80.5t-117 -31.5zM239 144q34 0 63.5 59t43.5 127.5
t14 114.5q0 77 -40 77q-26 0 -49.5 -35t-38.5 -85t-23.5 -100t-8.5 -83q0 -75 39 -75zM261 -114q0 -35 -28 -62t-63 -27q-31 0 -51 20.5t-20 50.5q0 35 28 62t63 27q30 0 50.5 -20t20.5 -51z" />
    <glyph glyph-name="uni1ED9" unicode="&#x1ed9;" horiz-adv-x="451" 
d="M424 556h-82l-30 79l-62 -79h-86l91 144h138zM196 -12q-92 0 -139.5 53t-47.5 144q0 73 27.5 142.5t85 118.5t131.5 49q92 0 140 -53t48 -144q0 -53 -17 -107.5t-47 -100t-77.5 -74t-103.5 -28.5zM205 127q35 0 56 63.5t21 111.5q0 54 -38 54q-34 0 -55 -64t-21 -111
q0 -54 37 -54zM226 -114q0 -35 -28 -62t-63 -27q-31 0 -51 20.5t-20 50.5q0 35 28 62t63 27q30 0 50.5 -20t20.5 -51z" />
    <glyph glyph-name="uni1EDA" unicode="&#x1eda;" horiz-adv-x="522" 
d="M556 867l-144 -144h-99l112 144h131zM231 -12q-103 0 -156.5 65t-53.5 170q0 52 10.5 110.5t34.5 120.5t58.5 111.5t88 81t117.5 31.5q121 0 175 -94q32 21 44 44q-2 -1 -8 -1q-20 0 -34 14t-14 38q0 28 21 48t49 20q26 0 44 -17t18 -47q0 -40 -27.5 -80t-71.5 -65
q14 -45 14 -96q0 -52 -10.5 -110.5t-34.5 -120.5t-59 -111t-88 -80.5t-117 -31.5zM239 144q34 0 63.5 59t43.5 127.5t14 114.5q0 77 -40 77q-26 0 -49.5 -35t-38.5 -85t-23.5 -100t-8.5 -83q0 -75 39 -75z" />
    <glyph glyph-name="uni1EDB" unicode="&#x1edb;" horiz-adv-x="451" 
d="M484 700l-144 -144h-99l112 144h131zM508 549q0 -38 -25.5 -76.5t-66.5 -64.5q25 -44 25 -110q0 -53 -17 -107.5t-47 -100t-77.5 -74t-103.5 -28.5q-92 0 -139.5 53t-47.5 144q0 73 27.5 142.5t85 118.5t131.5 49q84 0 133 -47q35 22 47 46q-2 -1 -8 -1q-21 0 -35 14
t-14 38q0 28 21.5 48t49.5 20q25 0 43 -17t18 -47zM205 127q35 0 56 63.5t21 111.5q0 54 -38 54q-34 0 -55 -64t-21 -111q0 -54 37 -54z" />
    <glyph glyph-name="uni1EDC" unicode="&#x1edc;" horiz-adv-x="522" 
d="M231 -12q-103 0 -156.5 65t-53.5 170q0 52 10.5 110.5t34.5 120.5t58.5 111.5t88 81t117.5 31.5q121 0 175 -94q32 21 44 44q-2 -1 -8 -1q-20 0 -34 14t-14 38q0 28 21 48t49 20q26 0 44 -17t18 -47q0 -40 -27.5 -80t-71.5 -65q14 -45 14 -96q0 -52 -10.5 -110.5
t-34.5 -120.5t-59 -111t-88 -80.5t-117 -31.5zM239 144q34 0 63.5 59t43.5 127.5t14 114.5q0 77 -40 77q-26 0 -49.5 -35t-38.5 -85t-23.5 -100t-8.5 -83q0 -75 39 -75zM418 723h-97l-80 144h129z" />
    <glyph glyph-name="uni1EDD" unicode="&#x1edd;" horiz-adv-x="451" 
d="M508 549q0 -38 -25.5 -76.5t-66.5 -64.5q25 -44 25 -110q0 -53 -17 -107.5t-47 -100t-77.5 -74t-103.5 -28.5q-92 0 -139.5 53t-47.5 144q0 73 27.5 142.5t85 118.5t131.5 49q84 0 133 -47q35 22 47 46q-2 -1 -8 -1q-21 0 -35 14t-14 38q0 28 21.5 48t49.5 20
q25 0 43 -17t18 -47zM205 127q35 0 56 63.5t21 111.5q0 54 -38 54q-34 0 -55 -64t-21 -111q0 -54 37 -54zM346 556h-97l-80 144h129z" />
    <glyph glyph-name="uni1EDE" unicode="&#x1ede;" horiz-adv-x="522" 
d="M231 -12q-103 0 -156.5 65t-53.5 170q0 52 10.5 110.5t34.5 120.5t58.5 111.5t88 81t117.5 31.5q121 0 175 -94q32 21 44 44q-2 -1 -8 -1q-20 0 -34 14t-14 38q0 28 21 48t49 20q26 0 44 -17t18 -47q0 -40 -27.5 -80t-71.5 -65q14 -45 14 -96q0 -52 -10.5 -110.5
t-34.5 -120.5t-59 -111t-88 -80.5t-117 -31.5zM239 144q34 0 63.5 59t43.5 127.5t14 114.5q0 77 -40 77q-26 0 -49.5 -35t-38.5 -85t-23.5 -100t-8.5 -83q0 -75 39 -75zM356 754l-50 13q22 53 72 53q64 0 64 -58q0 -34 -24 -65h-58q20 25 25 50q5 24 -12 24q-11 0 -17 -17z
" />
    <glyph glyph-name="uni1EDF" unicode="&#x1edf;" horiz-adv-x="451" 
d="M508 549q0 -38 -25.5 -76.5t-66.5 -64.5q25 -44 25 -110q0 -53 -17 -107.5t-47 -100t-77.5 -74t-103.5 -28.5q-92 0 -139.5 53t-47.5 144q0 73 27.5 142.5t85 118.5t131.5 49q84 0 133 -47q35 22 47 46q-2 -1 -8 -1q-21 0 -35 14t-14 38q0 28 21.5 48t49.5 20
q25 0 43 -17t18 -47zM205 127q35 0 56 63.5t21 111.5q0 54 -38 54q-34 0 -55 -64t-21 -111q0 -54 37 -54zM283 584l-50 13q22 53 72 53q64 0 64 -58q0 -34 -24 -65h-58q20 25 25 50q5 24 -12 24q-11 0 -17 -17z" />
    <glyph glyph-name="uni1EE0" unicode="&#x1ee0;" horiz-adv-x="522" 
d="M231 -12q-103 0 -156.5 65t-53.5 170q0 52 10.5 110.5t34.5 120.5t58.5 111.5t88 81t117.5 31.5q121 0 175 -94q32 21 44 44q-2 -1 -8 -1q-20 0 -34 14t-14 38q0 28 21 48t49 20q26 0 44 -17t18 -47q0 -40 -27.5 -80t-71.5 -65q14 -45 14 -96q0 -52 -10.5 -110.5
t-34.5 -120.5t-59 -111t-88 -80.5t-117 -31.5zM239 144q34 0 63.5 59t43.5 127.5t14 114.5q0 77 -40 77q-26 0 -49.5 -35t-38.5 -85t-23.5 -100t-8.5 -83q0 -75 39 -75zM422 721q-20 0 -33.5 8.5t-19 18t-14 18t-19.5 8.5q-21 0 -31 -47h-80q30 134 116 134q20 0 33.5 -8.5
t19 -18.5t14.5 -18.5t20 -8.5q19 0 31 48h80q-14 -62 -43.5 -98t-73.5 -36z" />
    <glyph glyph-name="uni1EE1" unicode="&#x1ee1;" horiz-adv-x="451" 
d="M508 549q0 -38 -25.5 -76.5t-66.5 -64.5q25 -44 25 -110q0 -53 -17 -107.5t-47 -100t-77.5 -74t-103.5 -28.5q-92 0 -139.5 53t-47.5 144q0 73 27.5 142.5t85 118.5t131.5 49q84 0 133 -47q35 22 47 46q-2 -1 -8 -1q-21 0 -35 14t-14 38q0 28 21.5 48t49.5 20
q25 0 43 -17t18 -47zM205 127q35 0 56 63.5t21 111.5q0 54 -38 54q-34 0 -55 -64t-21 -111q0 -54 37 -54zM302 554q-20 0 -33.5 8.5t-19 18t-14 18t-19.5 8.5q-21 0 -31 -47h-80q30 134 116 134q20 0 33.5 -8.5t19 -18.5t14.5 -18.5t20 -8.5q19 0 31 48h80
q-14 -62 -43.5 -98t-73.5 -36z" />
    <glyph glyph-name="uni1EE2" unicode="&#x1ee2;" horiz-adv-x="522" 
d="M231 -12q-103 0 -156.5 65t-53.5 170q0 52 10.5 110.5t34.5 120.5t58.5 111.5t88 81t117.5 31.5q121 0 175 -94q32 21 44 44q-2 -1 -8 -1q-20 0 -34 14t-14 38q0 28 21 48t49 20q26 0 44 -17t18 -47q0 -40 -27.5 -80t-71.5 -65q14 -45 14 -96q0 -52 -10.5 -110.5
t-34.5 -120.5t-59 -111t-88 -80.5t-117 -31.5zM239 144q34 0 63.5 59t43.5 127.5t14 114.5q0 77 -40 77q-26 0 -49.5 -35t-38.5 -85t-23.5 -100t-8.5 -83q0 -75 39 -75zM260 -114q0 -35 -28 -62t-63 -27q-31 0 -51 20.5t-20 50.5q0 35 28 62t63 27q30 0 50.5 -20t20.5 -51z
" />
    <glyph glyph-name="uni1EE3" unicode="&#x1ee3;" horiz-adv-x="451" 
d="M508 549q0 -38 -25.5 -76.5t-66.5 -64.5q25 -44 25 -110q0 -53 -17 -107.5t-47 -100t-77.5 -74t-103.5 -28.5q-92 0 -139.5 53t-47.5 144q0 73 27.5 142.5t85 118.5t131.5 49q84 0 133 -47q35 22 47 46q-2 -1 -8 -1q-21 0 -35 14t-14 38q0 28 21.5 48t49.5 20
q25 0 43 -17t18 -47zM205 127q35 0 56 63.5t21 111.5q0 54 -38 54q-34 0 -55 -64t-21 -111q0 -54 37 -54zM226 -114q0 -35 -28 -62t-63 -27q-31 0 -51 20.5t-20 50.5q0 35 28 62t63 27q30 0 50.5 -20t20.5 -51z" />
    <glyph glyph-name="uni1EE4" unicode="&#x1ee4;" horiz-adv-x="532" 
d="M236 -12q-87 0 -145.5 53.5t-58.5 139.5q0 21 4 40l98 446h177l-102 -463q-3 -18 -3 -21q0 -19 12 -30t31 -11q42 0 56 62l102 463h177l-101 -453q-24 -113 -91.5 -169.5t-155.5 -56.5zM266 -114q0 -35 -28 -62t-63 -27q-31 0 -51 20.5t-20 50.5q0 35 28 62t63 27
q30 0 50.5 -20t20.5 -51z" />
    <glyph glyph-name="uni1EE5" unicode="&#x1ee5;" 
d="M88 483h158l-69 -312q-4 -18 -4 -22q0 -9 6.5 -15.5t17.5 -6.5q31 0 56 46l69 310h158l-107 -483h-158l13 57q-22 -28 -56 -48.5t-70 -20.5q-47 0 -74 24.5t-27 64.5q0 2 4 26zM230 -114q0 -35 -28 -62t-63 -27q-31 0 -51 20.5t-20 50.5q0 35 28 62t63 27q30 0 50.5 -20
t20.5 -51z" />
    <glyph glyph-name="uni1EE6" unicode="&#x1ee6;" horiz-adv-x="532" 
d="M236 -12q-87 0 -145.5 53.5t-58.5 139.5q0 21 4 40l98 446h177l-102 -463q-3 -18 -3 -21q0 -19 12 -30t31 -11q42 0 56 62l102 463h177l-101 -453q-24 -113 -91.5 -169.5t-155.5 -56.5zM362 754l-50 13q22 53 72 53q64 0 64 -58q0 -34 -24 -65h-58q20 25 25 50
q5 24 -12 24q-11 0 -17 -17z" />
    <glyph glyph-name="uni1EE7" unicode="&#x1ee7;" 
d="M88 483h158l-69 -312q-4 -18 -4 -22q0 -9 6.5 -15.5t17.5 -6.5q31 0 56 46l69 310h158l-107 -483h-158l13 57q-22 -28 -56 -48.5t-70 -20.5q-47 0 -74 24.5t-27 64.5q0 2 4 26zM289 584l-50 13q22 53 72 53q64 0 64 -58q0 -34 -24 -65h-58q20 25 25 50q5 24 -12 24
q-11 0 -17 -17z" />
    <glyph glyph-name="uni1EE8" unicode="&#x1ee8;" horiz-adv-x="532" 
d="M561 867l-144 -144h-99l112 144h131zM696 742q0 -45 -36 -92t-95 -69l-82 -367q-24 -113 -91.5 -169.5t-155.5 -56.5q-87 0 -145.5 53.5t-58.5 139.5q0 21 4 40l98 446h177l-102 -463q-3 -18 -3 -21q0 -19 12 -30t31 -11q42 0 56 62l102 463h177l-5 -23q30 21 41 43
q-1 -1 -7 -1q-21 0 -35 13.5t-14 38.5q0 27 21.5 47.5t48.5 20.5q26 0 44 -17t18 -47z" />
    <glyph glyph-name="uni1EE9" unicode="&#x1ee9;" 
d="M489 700l-144 -144h-99l112 144h131zM545 566q0 -32 -20 -67.5t-56 -62.5l-96 -436h-158l13 57q-22 -28 -56 -48.5t-70 -20.5q-47 0 -74 24.5t-27 64.5q0 2 4 26l83 380h158l-70 -316q0 -2 -0.5 -4l-1 -4l-1 -4t-0.5 -3q0 -25 24 -25q31 0 56 46l69 310h124q15 12 23 28
q-2 -1 -8 -1q-21 0 -35 14t-14 38q0 28 21.5 48t49.5 20q26 0 44 -17t18 -47z" />
    <glyph glyph-name="uni1EEA" unicode="&#x1eea;" horiz-adv-x="532" 
d="M424 723h-97l-80 144h129zM696 742q0 -45 -36 -92t-95 -69l-82 -367q-24 -113 -91.5 -169.5t-155.5 -56.5q-87 0 -145.5 53.5t-58.5 139.5q0 21 4 40l98 446h177l-102 -463q-3 -18 -3 -21q0 -19 12 -30t31 -11q42 0 56 62l102 463h177l-5 -23q30 21 41 43q-1 -1 -7 -1
q-21 0 -35 13.5t-14 38.5q0 27 21.5 47.5t48.5 20.5q26 0 44 -17t18 -47z" />
    <glyph glyph-name="uni1EEB" unicode="&#x1eeb;" 
d="M352 556h-97l-80 144h129zM545 566q0 -32 -20 -67.5t-56 -62.5l-96 -436h-158l13 57q-22 -28 -56 -48.5t-70 -20.5q-47 0 -74 24.5t-27 64.5q0 2 4 26l83 380h158l-70 -316q0 -2 -0.5 -4l-1 -4l-1 -4t-0.5 -3q0 -25 24 -25q31 0 56 46l69 310h124q15 12 23 28
q-2 -1 -8 -1q-21 0 -35 14t-14 38q0 28 21.5 48t49.5 20q26 0 44 -17t18 -47z" />
    <glyph glyph-name="uni1EEC" unicode="&#x1eec;" horiz-adv-x="532" 
d="M362 754l-50 13q22 53 72 53q64 0 64 -58q0 -34 -24 -65h-58q20 25 25 50q5 24 -12 24q-11 0 -17 -17zM696 742q0 -45 -36 -92t-95 -69l-82 -367q-24 -113 -91.5 -169.5t-155.5 -56.5q-87 0 -145.5 53.5t-58.5 139.5q0 21 4 40l98 446h177l-102 -463q-3 -18 -3 -21
q0 -19 12 -30t31 -11q42 0 56 62l102 463h177l-5 -23q30 21 41 43q-1 -1 -7 -1q-21 0 -35 13.5t-14 38.5q0 27 21.5 47.5t48.5 20.5q26 0 44 -17t18 -47z" />
    <glyph glyph-name="uni1EED" unicode="&#x1eed;" 
d="M289 584l-50 13q22 53 72 53q64 0 64 -58q0 -34 -24 -65h-58q20 25 25 50q5 24 -12 24q-11 0 -17 -17zM545 566q0 -32 -20 -67.5t-56 -62.5l-96 -436h-158l13 57q-22 -28 -56 -48.5t-70 -20.5q-47 0 -74 24.5t-27 64.5q0 2 4 26l83 380h158l-70 -316q0 -2 -0.5 -4l-1 -4
l-1 -4t-0.5 -3q0 -25 24 -25q31 0 56 46l69 310h124q15 12 23 28q-2 -1 -8 -1q-21 0 -35 14t-14 38q0 28 21.5 48t49.5 20q26 0 44 -17t18 -47z" />
    <glyph glyph-name="uni1EEE" unicode="&#x1eee;" horiz-adv-x="532" 
d="M696 742q0 -45 -36 -92t-95 -69l-82 -367q-24 -113 -91.5 -169.5t-155.5 -56.5q-87 0 -145.5 53.5t-58.5 139.5q0 21 4 40l98 446h177l-102 -463q-3 -18 -3 -21q0 -19 12 -30t31 -11q42 0 56 62l102 463h177l-5 -23q30 21 41 43q-1 -1 -7 -1q-21 0 -35 13.5t-14 38.5
q0 27 21.5 47.5t48.5 20.5q26 0 44 -17t18 -47zM428 721q-20 0 -33.5 8.5t-19 18t-14 18t-19.5 8.5q-21 0 -31 -47h-80q30 134 116 134q20 0 33.5 -8.5t19 -18.5t14.5 -18.5t20 -8.5q19 0 31 48h80q-14 -62 -43.5 -98t-73.5 -36z" />
    <glyph glyph-name="uni1EEF" unicode="&#x1eef;" 
d="M545 566q0 -32 -20 -67.5t-56 -62.5l-96 -436h-158l13 57q-22 -28 -56 -48.5t-70 -20.5q-47 0 -74 24.5t-27 64.5q0 2 4 26l83 380h158l-70 -316q0 -2 -0.5 -4l-1 -4l-1 -4t-0.5 -3q0 -25 24 -25q31 0 56 46l69 310h124q15 12 23 28q-2 -1 -8 -1q-21 0 -35 14t-14 38
q0 28 21.5 48t49.5 20q26 0 44 -17t18 -47zM315 554q-20 0 -33.5 8.5t-19 18t-14 18t-19.5 8.5q-21 0 -31 -47h-80q30 134 116 134q20 0 33.5 -8.5t19 -18.5t14.5 -18.5t20 -8.5q19 0 31 48h80q-14 -62 -43.5 -98t-73.5 -36z" />
    <glyph glyph-name="uni1EF0" unicode="&#x1ef0;" horiz-adv-x="532" 
d="M266 -114q0 -35 -28 -62t-63 -27q-31 0 -51 20.5t-20 50.5q0 35 28 62t63 27q30 0 50.5 -20t20.5 -51zM696 742q0 -45 -36 -92t-95 -69l-82 -367q-24 -113 -91.5 -169.5t-155.5 -56.5q-87 0 -145.5 53.5t-58.5 139.5q0 21 4 40l98 446h177l-102 -463q-3 -18 -3 -21
q0 -19 12 -30t31 -11q42 0 56 62l102 463h177l-5 -23q30 21 41 43q-1 -1 -7 -1q-21 0 -35 13.5t-14 38.5q0 27 21.5 47.5t48.5 20.5q26 0 44 -17t18 -47z" />
    <glyph glyph-name="uni1EF1" unicode="&#x1ef1;" 
d="M230 -114q0 -35 -28 -62t-63 -27q-31 0 -51 20.5t-20 50.5q0 35 28 62t63 27q30 0 50.5 -20t20.5 -51zM545 566q0 -32 -20 -67.5t-56 -62.5l-96 -436h-158l13 57q-22 -28 -56 -48.5t-70 -20.5q-47 0 -74 24.5t-27 64.5q0 2 4 26l83 380h158l-70 -316q0 -2 -0.5 -4l-1 -4
l-1 -4t-0.5 -3q0 -25 24 -25q31 0 56 46l69 310h124q15 12 23 28q-2 -1 -8 -1q-21 0 -35 14t-14 38q0 28 21.5 48t49.5 20q26 0 44 -17t18 -47z" />
    <glyph glyph-name="Ygrave" unicode="&#x1ef2;" horiz-adv-x="489" 
d="M279 0h-177l59 269l-75 398h179l14 -232l117 232h193l-252 -398zM402 723h-97l-80 144h129z" />
    <glyph glyph-name="ygrave" unicode="&#x1ef3;" horiz-adv-x="435" 
d="M-47 -181l50 129q8 -5 23 -5q22 0 36 24l17 30l-32 486h162l-7 -284l122 284h170l-280 -547q-41 -77 -78 -104.5t-94 -27.5t-89 15zM334 556h-97l-80 144h129z" />
    <glyph glyph-name="thinspace" unicode="&#x2009;" horiz-adv-x="31" 
 />
    <glyph glyph-name="endash" unicode="&#x2013;" horiz-adv-x="460" 
d="M415 176h-400l29 132h400z" />
    <glyph glyph-name="emdash" unicode="&#x2014;" horiz-adv-x="640" 
d="M595 176h-580l29 132h580z" />
    <glyph glyph-name="afii00208" unicode="&#x2015;" horiz-adv-x="460" 
d="M415 176h-400l29 132h400z" />
    <glyph glyph-name="quoteleft" unicode="&#x2018;" horiz-adv-x="273" 
d="M80 456q0 63 47 125.5t118 96.5l54 -56q-32 -13 -63 -36t-43 -48q3 1 11 1q31 0 52 -20t21 -56q0 -41 -32 -71.5t-73 -30.5q-38 0 -65 25.5t-27 69.5z" />
    <glyph glyph-name="quoteright" unicode="&#x2019;" horiz-adv-x="273" 
d="M310 582q0 -63 -46.5 -125.5t-117.5 -96.5l-54 56q81 35 106 84q-3 -1 -12 -1q-31 0 -52 20t-21 57q0 40 32.5 70.5t73.5 30.5q38 0 64.5 -25.5t26.5 -69.5z" />
    <glyph glyph-name="quotesinglbase" unicode="&#x201a;" horiz-adv-x="273" 
d="M200 85q0 -63 -46 -125t-118 -97l-54 56q81 35 106 84q-3 -1 -12 -1q-31 0 -52 20t-21 57q0 41 32.5 71t73.5 30q38 0 64.5 -25t26.5 -70z" />
    <glyph glyph-name="quotereversed" unicode="&#x201b;" horiz-adv-x="273" 
d="M100 526q0 70 38.5 110.5t84.5 40.5q40 0 63.5 -25t23.5 -57q0 -43 -27.5 -69.5t-71.5 -26.5q-20 0 -32 6q5 -58 62 -109l-66 -39q-75 78 -75 169z" />
    <glyph glyph-name="quotedblleft" unicode="&#x201c;" horiz-adv-x="502" 
d="M312 456q0 63 46.5 125.5t117.5 96.5l54 -56q-81 -35 -106 -84q3 1 12 1q31 0 52 -20t21 -56q0 -41 -32.5 -71.5t-73.5 -30.5q-38 0 -64.5 25.5t-26.5 69.5zM84 456q0 63 46.5 125.5t117.5 96.5l54 -56q-81 -35 -106 -84q3 1 12 1q31 0 52 -20t21 -56q0 -41 -32.5 -71.5
t-73.5 -30.5q-38 0 -64.5 25.5t-26.5 69.5z" />
    <glyph glyph-name="quotedblright" unicode="&#x201d;" horiz-adv-x="502" 
d="M310 582q0 -63 -46.5 -125.5t-117.5 -96.5l-54 56q81 35 106 84q-3 -1 -12 -1q-31 0 -52 20t-21 57q0 40 32.5 70.5t73.5 30.5q38 0 64.5 -25.5t26.5 -69.5zM538 582q0 -63 -46.5 -125.5t-117.5 -96.5l-54 56q81 35 106 84q-3 -1 -12 -1q-31 0 -52 20t-21 57
q0 40 32.5 70.5t73.5 30.5q38 0 64.5 -25.5t26.5 -69.5z" />
    <glyph glyph-name="quotedblbase" unicode="&#x201e;" horiz-adv-x="501" 
d="M200 85q0 -63 -46 -125t-118 -97l-54 56q81 35 106 84q-3 -1 -12 -1q-31 0 -52 20t-21 57q0 41 32.5 71t73.5 30q38 0 64.5 -25t26.5 -70zM428 85q0 -63 -46 -125t-118 -97l-54 56q81 35 106 84q-2 -1 -12 -1q-31 0 -52 20t-21 57q0 41 32.5 71t73.5 30q38 0 64.5 -25
t26.5 -70z" />
    <glyph glyph-name="dagger" unicode="&#x2020;" horiz-adv-x="285" 
d="M327 517l-88 4l-39 -194h-80l48 194l-90 -4l16 73l89 -3l15 90h80l-24 -90l89 3z" />
    <glyph glyph-name="daggerdbl" unicode="&#x2021;" horiz-adv-x="285" 
d="M343 590l-16 -73l-88 4l-41 -183l90 4l-16 -73l-88 3l-17 -92h-80l25 92l-89 -3l16 73l87 -4l41 183l-89 -4l16 73l88 -3l16 90h80l-24 -90z" />
    <glyph glyph-name="bullet" unicode="&#x2022;" horiz-adv-x="358" 
d="M305 255q0 -56 -41.5 -96.5t-98.5 -40.5q-48 0 -80 32t-32 80q0 56 41.5 96.5t98.5 40.5q48 0 80 -32t32 -80z" />
    <glyph glyph-name="ellipsis" unicode="&#x2026;" horiz-adv-x="810" 
d="M90 -12q-36 0 -61.5 25.5t-25.5 61.5q0 43 31.5 74t73.5 31q37 0 62 -26t25 -63q0 -42 -31 -72.5t-74 -30.5zM360 -12q-36 0 -61.5 25.5t-25.5 61.5q0 43 31.5 74t73.5 31q37 0 62 -26t25 -63q0 -42 -31 -72.5t-74 -30.5zM630 -12q-36 0 -61.5 25.5t-25.5 61.5
q0 43 31.5 74t73.5 31q37 0 62 -26t25 -63q0 -42 -31 -72.5t-74 -30.5z" />
    <glyph glyph-name="perthousand" unicode="&#x2030;" horiz-adv-x="893" 
d="M136 0h-60l431 667h61zM414 -12q-57 0 -90 36t-33 92q0 86 48.5 146t113.5 60q57 0 90 -36t33 -92q0 -86 -48.5 -146t-113.5 -60zM421 82q19 0 37.5 31.5t18.5 71.5q0 43 -32 43q-19 0 -37 -31.5t-18 -70.5q0 -44 31 -44zM189 342q-56 0 -89.5 36.5t-33.5 92.5
q0 86 48.5 146t114.5 60q56 0 89.5 -36t33.5 -92q0 -86 -49 -146.5t-114 -60.5zM197 437q19 0 37 31.5t18 70.5q0 44 -31 44q-19 0 -37 -31.5t-18 -71.5q0 -43 31 -43zM703 -12q-57 0 -90 36t-33 92q0 86 48.5 146t113.5 60q57 0 90 -36t33 -92q0 -86 -48.5 -146t-113.5 -60
zM711 82q19 0 37 31.5t18 71.5q0 43 -31 43q-19 0 -37.5 -31.5t-18.5 -70.5q0 -44 32 -44z" />
    <glyph glyph-name="guilsinglleft" unicode="&#x2039;" horiz-adv-x="267" 
d="M194 63h-115l-50 180l130 177h119l-133 -181z" />
    <glyph glyph-name="guilsinglright" unicode="&#x203a;" horiz-adv-x="267" 
d="M73 420h115l50 -180l-130 -177h-119l133 181z" />
    <glyph glyph-name="uni203E" unicode="&#x203e;" horiz-adv-x="268" 
d="M337 555h-267l18 87h268z" />
    <glyph glyph-name="fraction" unicode="&#x2044;" horiz-adv-x="151" 
d="M341 667l-432 -667h-60l431 667h61z" />
    <glyph glyph-name="zerosuperior" unicode="&#x2070;" horiz-adv-x="322" 
d="M394 679q0 -39 -11.5 -83t-33 -85.5t-59 -69t-83.5 -27.5q-60 0 -96 37.5t-36 110.5q0 39 11.5 83t33 85.5t59 69t83.5 27.5q60 0 96 -37.5t36 -110.5zM281 698q0 37 -24 37q-27 0 -48 -71.5t-21 -120.5q0 -37 24 -37q26 0 47.5 71.5t21.5 120.5z" />
    <glyph glyph-name="foursuperior" unicode="&#x2074;" horiz-adv-x="322" 
d="M359 498h-32l-16 -77h-117l17 77h-155l20 88l183 235h140l-51 -232h31zM231 589l24 105l-81 -105h57z" />
    <glyph glyph-name="fivesuperior" unicode="&#x2075;" horiz-adv-x="322" 
d="M372 582q0 -71 -45 -119.5t-118 -48.5q-110 0 -157 71l83 64q22 -43 67 -43q22 0 35.5 18t13.5 40q0 36 -34 36q-31 0 -52 -30l-79 24l50 227h268l-20 -92h-152l-16 -72q26 26 62 26q39 0 66.5 -25.5t27.5 -75.5z" />
    <glyph glyph-name="sixsuperior" unicode="&#x2076;" horiz-adv-x="322" 
d="M374 585q0 -71 -44.5 -121t-112.5 -50q-65 0 -103 37t-38 107q0 106 56 187.5t151 81.5q75 0 118 -46l-71 -72q-16 26 -51 26q-51 0 -74 -84l-2 -6q29 47 80 47q38 0 64.5 -26.5t26.5 -80.5zM255 567q0 35 -30 35q-20 0 -35 -24q-3 -21 -3 -35q0 -16 7.5 -26.5
t19.5 -10.5q18 0 29.5 20.5t11.5 40.5z" />
    <glyph glyph-name="sevensuperior" unicode="&#x2077;" horiz-adv-x="298" 
d="M389 741l-186 -320h-112l186 308h-170l21 92h278z" />
    <glyph glyph-name="eightsuperior" unicode="&#x2078;" horiz-adv-x="322" 
d="M364 535q0 -54 -38.5 -87.5t-105.5 -33.5q-72 0 -116 27t-44 79q0 40 29 72.5t72 42.5q-52 22 -52 76q0 56 42.5 86t100.5 30q60 0 105 -25t45 -76q0 -40 -25.5 -70t-67.5 -37q23 -11 39 -34.5t16 -49.5zM284 711q0 28 -30 28q-14 0 -24.5 -12.5t-10.5 -29.5
q0 -24 25 -35q40 11 40 49zM252 545q0 16 -8.5 27t-16.5 14q-19 -2 -33.5 -18t-14.5 -36q0 -30 34 -30q17 0 28 12t11 31z" />
    <glyph glyph-name="ninesuperior" unicode="&#x2079;" horiz-adv-x="322" 
d="M96 657q0 71 44.5 121t112.5 50q65 0 103 -37t38 -107q0 -106 -56 -187.5t-151 -81.5q-75 0 -118 46l70 72q18 -26 51 -26q52 0 75 84l2 6q-31 -47 -80 -47q-38 0 -64.5 26.5t-26.5 80.5zM215 675q0 -35 30 -35q18 0 35 24q3 20 3 35q0 16 -7.5 26.5t-19.5 10.5
q-18 0 -29.5 -20.5t-11.5 -40.5z" />
    <glyph glyph-name="parenleftsuperior" unicode="&#x207d;" horiz-adv-x="189" 
d="M201 385l-70 -29q-34 80 -34 170q0 189 151 360l58 -28q-56 -80 -87.5 -179t-31.5 -188q0 -64 14 -106z" />
    <glyph glyph-name="parenrightsuperior" unicode="&#x207e;" horiz-adv-x="190" 
d="M152 858l70 29q34 -80 34 -170q0 -191 -151 -360l-57 28q55 81 86.5 179.5t31.5 187.5q0 67 -14 106z" />
    <glyph glyph-name="nsuperior" unicode="&#x207f;" horiz-adv-x="335" 
d="M323 326h-111l44 198q2 8 2 14q0 16 -19 16q-15 0 -36 -31l-44 -197h-112l69 314h112l-7 -36q13 18 36 31t47 13q34 0 54.5 -16.5t20.5 -45.5q0 -3 -3 -18z" />
    <glyph glyph-name="zeroinferior" unicode="&#x2080;" horiz-adv-x="322" 
d="M278 112q0 -39 -11.5 -83t-33 -85.5t-59 -69t-83.5 -27.5q-60 0 -96 37.5t-36 110.5q0 39 11.5 83t33 85.5t59 69t83.5 27.5q60 0 96 -37.5t36 -110.5zM165 131q0 37 -24 37q-27 0 -48 -71.5t-21 -120.5q0 -37 24 -37q26 0 47.5 71.5t21.5 120.5z" />
    <glyph glyph-name="oneinferior" unicode="&#x2081;" horiz-adv-x="273" 
d="M153 -146h-117l54 248l-62 -50l-52 69l165 133h100z" />
    <glyph glyph-name="twoinferior" unicode="&#x2082;" horiz-adv-x="322" 
d="M225 -146h-286l20 91q134 94 172 128t38 62q0 33 -42 33q-41 0 -79 -41l-52 75q61 58 142 58q64 0 106.5 -30t42.5 -83q0 -52 -40 -92t-143 -109h142z" />
    <glyph glyph-name="threeinferior" unicode="&#x2083;" horiz-adv-x="322" 
d="M249 -29q0 -50 -42 -87t-107 -37q-52 0 -94 18t-63 51l83 68q23 -45 67 -45q20 0 32 13t12 29q0 30 -41 30q-24 0 -31 -1l20 91q5 -1 34 -1q49 0 49 38q0 30 -43 30q-42 0 -71 -33l-56 66q59 59 138 59q66 0 107 -27.5t41 -75.5q0 -37 -26.5 -68.5t-72.5 -35.5
q64 -18 64 -82z" />
    <glyph glyph-name="fourinferior" unicode="&#x2084;" horiz-adv-x="322" 
d="M243 -69h-32l-16 -77h-117l17 77h-155l20 88l183 235h140l-51 -232h31zM115 22l24 105l-81 -105h57z" />
    <glyph glyph-name="fiveinferior" unicode="&#x2085;" horiz-adv-x="322" 
d="M256 15q0 -71 -45 -119.5t-118 -48.5q-110 0 -157 71l83 64q22 -43 67 -43q22 0 35.5 18t13.5 40q0 36 -34 36q-31 0 -52 -30l-79 24l50 227h268l-20 -92h-152l-16 -72q26 26 62 26q39 0 66.5 -25.5t27.5 -75.5z" />
    <glyph glyph-name="sixinferior" unicode="&#x2086;" horiz-adv-x="322" 
d="M258 18q0 -71 -44.5 -121t-112.5 -50q-65 0 -103 37t-38 107q0 106 56 187.5t151 81.5q75 0 118 -46l-71 -72q-16 26 -51 26q-51 0 -74 -84l-2 -6q29 47 80 47q38 0 64.5 -26.5t26.5 -80.5zM139 0q0 35 -30 35q-20 0 -35 -24q-3 -21 -3 -35q0 -16 7.5 -26.5t19.5 -10.5
q18 0 29.5 20.5t11.5 40.5z" />
    <glyph glyph-name="seveninferior" unicode="&#x2087;" horiz-adv-x="298" 
d="M273 174l-186 -320h-112l186 308h-170l21 92h278z" />
    <glyph glyph-name="eightinferior" unicode="&#x2088;" horiz-adv-x="322" 
d="M248 -32q0 -54 -38.5 -87.5t-105.5 -33.5q-72 0 -116 27t-44 79q0 40 29 72.5t72 42.5q-52 22 -52 76q0 56 42.5 86t100.5 30q60 0 105 -25t45 -76q0 -40 -25.5 -70t-67.5 -37q23 -11 39 -34.5t16 -49.5zM168 144q0 28 -30 28q-14 0 -24.5 -12.5t-10.5 -29.5
q0 -24 25 -35q40 11 40 49zM136 -22q0 16 -8.5 27t-16.5 14q-19 -2 -33.5 -18t-14.5 -36q0 -30 34 -30q17 0 28 12t11 31z" />
    <glyph glyph-name="nineinferior" unicode="&#x2089;" horiz-adv-x="322" 
d="M-20 90q0 71 44.5 121t112.5 50q65 0 103 -37t38 -107q0 -106 -56 -187.5t-151 -81.5q-75 0 -118 46l70 72q18 -26 51 -26q52 0 75 84l2 6q-31 -47 -80 -47q-38 0 -64.5 26.5t-26.5 80.5zM99 108q0 -35 30 -35q18 0 35 24q3 20 3 35q0 16 -7.5 26.5t-19.5 10.5
q-18 0 -29.5 -20.5t-11.5 -40.5z" />
    <glyph glyph-name="parenleftinferior" unicode="&#x208d;" horiz-adv-x="189" 
d="M76 -182l-70 -29q-34 80 -34 170q0 189 151 360l58 -28q-56 -80 -87.5 -179t-31.5 -188q0 -64 14 -106z" />
    <glyph glyph-name="parenrightinferior" unicode="&#x208e;" horiz-adv-x="190" 
d="M27 291l70 29q34 -80 34 -170q0 -191 -151 -360l-57 28q55 81 86.5 179.5t31.5 187.5q0 67 -14 106z" />
    <glyph glyph-name="colonmonetary" unicode="&#x20a1;" 
d="M230 -12h-1l-37 -88h-85l42 100l-27 12l-47 -112h-84l70 167q-41 61 -41 156q0 65 17 138t50.5 145.5t94.5 121t139 50.5l38 90h85l-43 -102q6 -2 26 -12l49 114h85l-74 -174q34 -55 36 -143l-163 -32q-2 103 -41 103q-26 0 -49.5 -35t-38.5 -84.5t-23.5 -99.5t-8.5 -84
q0 -75 39 -75t73 78l142 -56q-76 -178 -223 -178z" />
    <glyph glyph-name="frenchfranc" unicode="&#x20a3;" horiz-adv-x="409" 
d="M174 0h-177l20 93h-41l20 86h40l108 488h336l-34 -154h-159l-21 -98h152l-34 -154h-153l-18 -82h69l-19 -86h-69z" />
    <glyph glyph-name="lira" unicode="&#x20a4;" horiz-adv-x="469" 
d="M50 337l17 75h22q-1 8 -1 26q0 105 76.5 172t168.5 67q79 0 132 -42.5t54 -122.5l-151 -41q-2 64 -33 64q-25 0 -42 -37.5t-17 -85.5h77l-16 -75h-54q-2 -28 -4 -43h48l-17 -76h-54q-20 -41 -52 -61q21 7 35 7q23 0 51.5 -10t47.5 -10q39 0 67 25l10 -143
q-43 -38 -110 -38q-45 0 -99 21t-81 21q-39 0 -90 -37l-21 117q69 39 90 108h-80l17 76h70q-1 15 -7 43h-54z" />
    <glyph glyph-name="uni20A6" unicode="&#x20a6;" horiz-adv-x="551" 
d="M446 0h-164l-47 278l-61 -278h-177l49 225h-40l19 86h40l11 50h-40l20 87h39l49 219h177l39 -261l57 261h176l-49 -219h40l-20 -87h-39l-11 -50h39l-19 -86h-39z" />
    <glyph glyph-name="peseta" unicode="&#x20a7;" horiz-adv-x="534" 
d="M174 0h-177l86 391h-40l19 87h40l42 189h207q80 0 131 -55t54 -134h43l-19 -87h-35q-23 -83 -90 -136t-171 -53h-45zM277 356q35 0 58 35h-75l-7 -35h24zM287 513l-8 -35h70q-12 35 -39 35h-23z" />
    <glyph glyph-name="rupee" unicode="&#x20a8;" horiz-adv-x="861" 
d="M635 -12q-61 0 -113.5 23.5t-73.5 52.5l82 101q42 -54 103 -54q21 0 33 8.5t12 21.5q0 11 -16.5 21.5t-40 22t-47 27t-40 43t-16.5 62.5q0 74 49.5 126t138.5 52q49 0 96 -19t79 -53l-78 -100q-12 16 -40.5 32.5t-56.5 16.5q-38 0 -38 -27q0 -11 26 -25t57 -28t57 -46.5
t26 -76.5q0 -74 -54.5 -127.5t-144.5 -53.5zM433 0h-184l-9 222h-27l-49 -222h-177l147 667h209q79 0 131.5 -54.5t52.5 -134.5q0 -73 -38 -138t-82 -85zM247 376h26q31 0 51 24.5t20 59.5q0 27 -12.5 40t-32.5 13h-22z" />
    <glyph glyph-name="uni20A9" unicode="&#x20a9;" horiz-adv-x="722" 
d="M523 0h-176l36 346l-117 -346h-175l8 225h-79l20 86h62l2 50h-54l20 87h38l8 219h176l-40 -362l132 362h134l-26 -362l119 362h181l-89 -219h36l-20 -87h-51l-20 -50h61l-20 -86h-76z" />
    <glyph glyph-name="afii57636" unicode="&#x20aa;" horiz-adv-x="622" 
d="M362 0h-235l86 390h112l-62 -281h104q42 0 63.5 17.5t29.5 55.5l81 368h113l-88 -391q-17 -79 -72 -119t-132 -40zM102 550h190q30 0 59.5 -8t57.5 -24.5t45 -46.5t17 -68q0 -17 -5 -49l-44 -196h-113l46 206q3 10 3 20q0 28 -21.5 42.5t-56.5 14.5h-90l-97 -441h-112z
" />
    <glyph glyph-name="dong" unicode="&#x20ab;" horiz-adv-x="470" 
d="M284 -188h-267l18 87h268zM207 495q81 0 103 -67l21 98h-108l21 87h107l12 54h156l-12 -54h45l-22 -87h-42l-116 -526h-157l12 53q-44 -65 -104 -65q-117 0 -117 165q0 72 20.5 147.5t68.5 135t112 59.5zM247 356q-20 0 -36 -20.5t-25 -50.5t-13.5 -58.5t-4.5 -49.5
q0 -50 40 -50q26 0 43 33l36 162q-8 34 -40 34z" />
    <glyph glyph-name="Euro" unicode="&#x20ac;" horiz-adv-x="488" 
d="M251 -12q-101 0 -155 62t-55 168h-34l21 94h20q1 8 8 45h-19l22 94h25q38 100 104.5 163.5t161.5 63.5q53 0 92.5 -20.5t60.5 -54.5t31 -72t10 -80l-163 -32q-2 103 -41 103q-37 0 -70 -71h80l-22 -94h-89l-9 -45h89l-21 -94h-78q0 -74 39 -74t73 78l142 -56
q-76 -178 -223 -178z" />
    <glyph glyph-name="afii61289" unicode="&#x2113;" horiz-adv-x="486" 
d="M245 475l-25 -115l103 75q21 17 30 24t21 23.5t12 31.5q0 21 -15 34t-40 13q-66 0 -86 -86zM422 367l-239 -175l-9 -42q0 -2 -1.5 -7.5t-1.5 -8.5q0 -21 25 -21q10 0 18 6l-2 -119q-15 -12 -64 -12q-65 0 -103 24.5t-38 73.5q0 28 6 53l75 336q45 202 262 202
q84 0 136.5 -39.5t52.5 -103.5q0 -47 -26 -83.5t-91 -83.5z" />
    <glyph glyph-name="afii61352" unicode="&#x2116;" horiz-adv-x="859" 
d="M732 350q-63 0 -98.5 36.5t-35.5 93.5q0 79 47.5 139.5t123.5 60.5q63 0 98.5 -36.5t35.5 -93.5q0 -79 -47.5 -139.5t-123.5 -60.5zM737 439q24 0 38.5 43.5t14.5 73.5q0 34 -27 34q-24 0 -38 -43.5t-14 -73.5q0 -34 26 -34zM436 0h-164l-47 278l-61 -278h-177l147 667
h177l39 -261l57 261h176z" />
    <glyph glyph-name="published" unicode="&#x2117;" horiz-adv-x="778" 
d="M755 334q0 -142 -102 -243.5t-245 -101.5q-142 0 -243 101t-101 244t101 244t243 101q143 0 245 -101.5t102 -243.5zM714 334q0 125 -90.5 215t-215.5 90t-214 -90t-89 -215t89 -215t214 -90t215.5 90t90.5 215zM598 427q0 -57 -43 -94.5t-106 -37.5h-120l-36 -164h-50
l89 405h140q52 0 89 -29t37 -80zM544 424q0 30 -20.5 48.5t-57.5 18.5h-93l-34 -151h117q38 0 63 25t25 59z" />
    <glyph glyph-name="servicemark" unicode="&#x2120;" horiz-adv-x="374" 
d="M382 447h-28l40 182l-95 -182h-8l-15 182l-40 -182h-28l48 220h42l10 -157l78 157h44zM181 513q0 -29 -19.5 -50.5t-47.5 -21.5q-33 0 -50 24l18 22q12 -19 33 -19q12 0 24 13t12 28q0 18 -25 44.5t-25 48.5q0 29 17.5 50t44.5 21q29 0 45 -18l-18 -24q-10 15 -29 15
q-11 0 -20.5 -10.5t-9.5 -26.5q0 -13 25 -42.5t25 -53.5z" />
    <glyph glyph-name="trademark" unicode="&#x2122;" horiz-adv-x="374" 
d="M384 447h-28l40 182l-95 -182h-8l-15 182l-40 -182h-28l48 220h43l10 -157l78 157h43zM217 641h-42l-43 -194h-28l43 194h-42l5 26h112z" />
    <glyph glyph-name="Omega" unicode="&#x2126;" horiz-adv-x="519" 
d="M8 154h94q-65 67 -65 170q0 82 34 162.5t100.5 136t146.5 55.5q97 0 161 -54.5t64 -160.5q0 -97 -40.5 -176.5t-111.5 -132.5h80l-34 -154h-208l35 154q39 32 66 135.5t27 154.5q0 38 -9 57.5t-33 19.5q-45 0 -80 -102t-35 -197q0 -50 15 -68l-34 -154h-207z" />
    <glyph glyph-name="estimated" unicode="&#x212e;" horiz-adv-x="842" 
d="M829 324h-632q-4 0 -4 -5v-190q0 -15 9 -23q98 -103 240 -103q151 0 250 115h57q-54 -63 -135 -99.5t-174 -36.5q-161 0 -275.5 103t-114.5 248t114.5 248t275.5 103t275.5 -103t114.5 -248zM687 349v191q0 14 -10 24q-97 99 -236 99t-238 -102q-10 -10 -10 -24v-188
q0 -6 5 -6h485q4 0 4 6z" />
    <glyph glyph-name="onethird" unicode="&#x2153;" horiz-adv-x="758" 
d="M243 267h-117l54 248l-62 -50l-52 69l165 133h100zM627 667l-432 -667h-60l431 667h61zM718 117q0 -50 -42 -87t-107 -37q-52 0 -94 18t-63 51l83 68q23 -45 67 -45q20 0 32 13t12 29q0 30 -41 30q-24 0 -31 -1l20 91q5 -1 34 -1q49 0 49 38q0 30 -43 30q-42 0 -71 -33
l-56 66q59 59 138 59q66 0 107 -27.5t41 -75.5q0 -37 -26.5 -68.5t-72.5 -35.5q64 -18 64 -82z" />
    <glyph glyph-name="twothirds" unicode="&#x2154;" horiz-adv-x="794" 
d="M316 267h-286l20 91q134 94 172 128t38 62q0 33 -42 33q-41 0 -79 -41l-52 75q61 58 142 58q64 0 106.5 -30t42.5 -83q0 -52 -40 -92t-143 -109h142zM663 667l-432 -667h-60l431 667h61zM754 117q0 -50 -42 -87t-107 -37q-52 0 -94 18t-63 51l83 68q23 -45 67 -45
q20 0 32 13t12 29q0 30 -41 30q-24 0 -31 -1l20 91q5 -1 34 -1q49 0 49 38q0 30 -43 30q-42 0 -71 -33l-56 66q59 59 138 59q66 0 107 -27.5t41 -75.5q0 -37 -26.5 -68.5t-72.5 -35.5q64 -18 64 -82z" />
    <glyph glyph-name="oneeighth" unicode="&#x215b;" horiz-adv-x="758" 
d="M244 267h-117l54 248l-62 -50l-52 69l165 133h100zM717 114q0 -54 -38.5 -87.5t-105.5 -33.5q-72 0 -116 27t-44 79q0 40 29 72.5t72 42.5q-52 22 -52 76q0 56 42.5 86t100.5 30q60 0 105 -25t45 -76q0 -40 -25.5 -70t-67.5 -37q23 -11 39 -34.5t16 -49.5zM637 290
q0 28 -30 28q-14 0 -24.5 -12.5t-10.5 -29.5q0 -24 25 -35q40 11 40 49zM605 124q0 16 -8.5 27t-16.5 14q-19 -2 -33.5 -18t-14.5 -36q0 -30 34 -30q17 0 28 12t11 31zM627 667l-432 -667h-60l431 667h61z" />
    <glyph glyph-name="threeeighths" unicode="&#x215c;" horiz-adv-x="794" 
d="M753 114q0 -54 -38.5 -87.5t-105.5 -33.5q-72 0 -116 27t-44 79q0 40 29 72.5t72 42.5q-52 22 -52 76q0 56 42.5 86t100.5 30q60 0 105 -25t45 -76q0 -40 -25.5 -70t-67.5 -37q23 -11 39 -34.5t16 -49.5zM673 290q0 28 -30 28q-14 0 -24.5 -12.5t-10.5 -29.5
q0 -24 25 -35q40 11 40 49zM641 124q0 16 -8.5 27t-16.5 14q-19 -2 -33.5 -18t-14.5 -36q0 -30 34 -30q17 0 28 12t11 31zM663 667l-432 -667h-60l431 667h61zM340 384q0 -50 -42 -87t-107 -37q-52 0 -94 18t-63 51l83 68q23 -45 67 -45q20 0 32 13t12 29q0 30 -41 30
q-24 0 -31 -1l20 91q5 -1 34 -1q49 0 49 38q0 30 -43 30q-42 0 -71 -33l-56 66q59 59 138 59q66 0 107 -27.5t41 -75.5q0 -37 -26.5 -68.5t-72.5 -35.5q64 -18 64 -82z" />
    <glyph glyph-name="fiveeighths" unicode="&#x215d;" horiz-adv-x="786" 
d="M744 114q0 -54 -38.5 -87.5t-105.5 -33.5q-72 0 -116 27t-44 79q0 40 29 72.5t72 42.5q-52 22 -52 76q0 56 42.5 86t100.5 30q60 0 105 -25t45 -76q0 -40 -25.5 -70t-67.5 -37q23 -11 39 -34.5t16 -49.5zM664 290q0 28 -30 28q-14 0 -24.5 -12.5t-10.5 -29.5
q0 -24 25 -35q40 11 40 49zM632 124q0 16 -8.5 27t-16.5 14q-19 -2 -33.5 -18t-14.5 -36q0 -30 34 -30q17 0 28 12t11 31zM347 428q0 -71 -45 -119.5t-118 -48.5q-110 0 -157 71l83 64q22 -43 67 -43q22 0 35.5 18t13.5 40q0 36 -34 36q-31 0 -52 -30l-79 24l50 227h268
l-20 -92h-152l-16 -72q26 26 62 26q39 0 66.5 -25.5t27.5 -75.5zM654 667l-432 -667h-60l431 667h61z" />
    </font>
</defs>
</svg>
