<?xml version="1.0" standalone="no"?>
<!DOCTYPE svg PUBLIC "-//W3C//DTD SVG 1.1//EN" "http://www.w3.org/Graphics/SVG/1.1/DTD/svg11.dtd" >
<svg xmlns="http://www.w3.org/2000/svg" xmlns:xlink="http://www.w3.org/1999/xlink" version="1.1">
<metadata>
Created by FontForge 20170731 at Tue Nov 30 17:19:38 2010
 By ,,,
Copyright (c) Mark Simonson, 2005. All rights reserved.
</metadata>
<defs>
<font id="ProximaNovaExCn-Bold" horiz-adv-x="420" >
  <font-face 
    font-family="Proxima Nova ExCn Rg"
    font-weight="700"
    font-stretch="normal"
    units-per-em="1000"
    panose-1="2 0 5 6 3 0 0 2 0 4"
    ascent="790"
    descent="-210"
    x-height="483"
    cap-height="667"
    bbox="-98 -284 846 886"
    underline-thickness="20"
    underline-position="-173"
    unicode-range="U+000D-FB04"
  />
<missing-glyph horiz-adv-x="455" 
d="M403 -90h-351v842h351v-842zM371 -60v782h-288v-782h288z" />
    <glyph glyph-name="f_f_j" unicode="ffj" horiz-adv-x="703" 
d="M424 0h-113v385h-44v98h44v50q0 68 32 106t87 38q40 0 69 -14l-19 -90q-6 6 -19 6q-37 0 -37 -46v-50h61v-98h-61v-385zM601 540q-28 0 -48.5 20t-20.5 48t20.5 48.5t48.5 20.5q29 0 49 -20.5t20 -48.5t-20 -48t-49 -20zM525 -196q-41 0 -64 24l26 87q8 -13 25 -13
q33 0 33 56v525h113v-525q0 -78 -32.5 -116t-100.5 -38zM174 0h-113v385h-44v98h44v50q0 69 33.5 106.5t96.5 37.5q54 0 84 -27l-29 -87q-15 16 -33 16q-39 0 -39 -46v-50h61v-98h-61v-385z" />
    <glyph glyph-name="f_j" unicode="fj" horiz-adv-x="454" 
d="M174 0h-113v385h-44v98h44v50q0 68 32 106t87 38q40 0 69 -14l-19 -90q-6 6 -19 6q-37 0 -37 -46v-50h61v-98h-61v-385zM352 540q-28 0 -48.5 20t-20.5 48t20.5 48.5t48.5 20.5t48.5 -20.5t20.5 -48.5t-20 -48t-49 -20zM276 -196q-42 0 -64 24l26 87q8 -13 25 -13
q33 0 33 56v525h113v-525q0 -78 -32.5 -116t-100.5 -38z" />
    <glyph glyph-name="f_f" unicode="ff" horiz-adv-x="499" 
d="M174 0h-113v385h-44v98h44v50q0 69 33.5 106.5t96.5 37.5q54 0 84 -27l-29 -87q-15 16 -33 16q-39 0 -39 -46v-50h61v-98h-61v-385zM424 0h-113v385h-44v98h44v50q0 69 33.5 106.5t96.5 37.5q54 0 84 -27l-29 -87q-15 16 -33 16q-39 0 -39 -46v-50h61v-98h-61v-385z" />
    <glyph glyph-name="fi" unicode="fi" horiz-adv-x="454" 
d="M174 0h-113v385h-44v98h44v50q0 68 32 106t87 38q40 0 69 -14l-19 -90q-6 6 -19 6q-37 0 -37 -46v-50h61v-98h-61v-385zM352 540q-28 0 -48.5 20t-20.5 48t20.5 48.5t48.5 20.5t48.5 -20.5t20.5 -48.5t-20 -48t-49 -20zM409 0h-113v483h113v-483z" />
    <glyph glyph-name="fl" unicode="fl" horiz-adv-x="454" 
d="M174 0h-113v385h-44v98h44v50q0 68 32 106t87 38q40 0 69 -14l-19 -90q-6 6 -19 6q-37 0 -37 -46v-50h61v-98h-61v-385zM409 0h-113v667h113v-667z" />
    <glyph glyph-name="f_f_i" unicode="ffi" horiz-adv-x="703" 
d="M424 0h-113v385h-44v98h44v50q0 68 32 106t87 38q40 0 69 -14l-19 -90q-6 6 -19 6q-37 0 -37 -46v-50h61v-98h-61v-385zM601 540q-28 0 -48.5 20t-20.5 48t20.5 48.5t48.5 20.5q29 0 49 -20.5t20 -48.5t-20 -48t-49 -20zM658 0h-113v483h113v-483zM174 0h-113v385h-44v98
h44v50q0 69 33.5 106.5t96.5 37.5q54 0 84 -27l-29 -87q-15 16 -33 16q-39 0 -39 -46v-50h61v-98h-61v-385z" />
    <glyph glyph-name="f_f_l" unicode="ffl" horiz-adv-x="703" 
d="M424 0h-113v385h-44v98h44v50q0 68 32 106t87 38q40 0 69 -14l-19 -90q-6 6 -19 6q-37 0 -37 -46v-50h61v-98h-61v-385zM658 0h-113v667h113v-667zM174 0h-113v385h-44v98h44v50q0 69 33.5 106.5t96.5 37.5q54 0 84 -27l-29 -87q-15 16 -33 16q-39 0 -39 -46v-50h61v-98
h-61v-385z" />
    <glyph glyph-name="f_b" unicode="fb" horiz-adv-x="673" 
d="M174 0h-113v385h-44v98h44v50q0 68 32 106t87 38q40 0 69 -14l-19 -90q-6 6 -19 6q-37 0 -37 -46v-50h61v-98h-61v-385zM409 146q8 -25 23.5 -41.5t33.5 -16.5q64 0 64 153q0 154 -64 154q-18 0 -33.5 -17t-23.5 -42v-190zM409 0h-113v667h113v-244q14 35 40 53.5
t54 18.5q70 0 106.5 -68.5t36.5 -185.5q0 -119 -36.5 -186t-106.5 -67q-27 0 -53 19t-41 53v-60z" />
    <glyph glyph-name="f_h" unicode="fh" horiz-adv-x="669" 
d="M174 0h-113v385h-44v98h44v50q0 68 32 106t87 38q40 0 69 -14l-19 -90q-6 6 -19 6q-37 0 -37 -46v-50h61v-98h-61v-385zM625 0h-114v346q0 49 -37 49q-20 0 -38 -19t-27 -44v-332h-113v667h113v-247q15 30 48 52.5t65 22.5q103 0 103 -109v-386z" />
    <glyph glyph-name="f_k" unicode="fk" horiz-adv-x="652" 
d="M174 0h-113v385h-44v98h44v50q0 68 32 106t87 38q40 0 69 -14l-19 -90q-6 6 -19 6q-37 0 -37 -46v-50h61v-98h-61v-385zM648 0h-124l-71 193l-44 -80v-113h-113v667h113v-407l111 223h123l-115 -214z" />
    <glyph glyph-name=".notdef" horiz-adv-x="455" 
d="M403 -90h-351v842h351v-842zM371 -60v782h-288v-782h288z" />
    <glyph glyph-name=".null" horiz-adv-x="0" 
 />
    <glyph glyph-name=".null" horiz-adv-x="0" 
 />
    <glyph glyph-name="nonmarkingreturn" horiz-adv-x="333" 
 />
    <glyph glyph-name="CR" unicode="&#xd;" horiz-adv-x="0" 
 />
    <glyph glyph-name="space" unicode=" " horiz-adv-x="163" 
 />
    <glyph glyph-name="exclam" unicode="!" horiz-adv-x="248" 
d="M174 209h-98l-21 458h138zM124 -11q-30 0 -52 22t-22 52t22 52t52 22q31 0 52.5 -22t21.5 -52t-21.5 -52t-52.5 -22z" />
    <glyph glyph-name="quotedbl" unicode="&#x22;" horiz-adv-x="389" 
d="M134 386h-50q-38 211 -38 229q0 25 18.5 43.5t44.5 18.5q25 0 43.5 -18.5t18.5 -43.5zM305 386h-50q-37 211 -37 229q0 25 18 43.5t44 18.5t44 -18t18 -44z" />
    <glyph glyph-name="numbersign" unicode="#" horiz-adv-x="455" 
d="M265 0h-85l42 173h-63l-40 -173h-85l41 173h-60l17 73h60l40 175h-60l15 72h62l40 174h85l-40 -174h62l40 174h84l-40 -174h59l-15 -72h-61l-41 -175h63l-17 -73h-63zM238 246l41 175h-63l-39 -175h61z" />
    <glyph glyph-name="dollar" unicode="$" horiz-adv-x="389" 
d="M160 -100v89q-89 6 -148 65l55 99q41 -53 109 -53q30 0 48.5 20.5t18.5 52.5t-22 58.5t-53 48t-62 46.5t-53 67.5t-22 98.5q0 63 34 112t95 66v98h86v-92q69 -8 116 -52l-49 -97q-38 39 -92 39q-27 0 -44.5 -18.5t-17.5 -48.5q0 -28 22 -53t53 -47t62 -48.5t53 -70.5
t22 -99q0 -68 -33.5 -117t-91.5 -67v-97h-86z" />
    <glyph glyph-name="percent" unicode="%" horiz-adv-x="587" 
d="M150 346q-58 0 -94 46.5t-36 117.5q0 72 36 119.5t94 47.5q59 0 94.5 -47.5t35.5 -119.5q0 -71 -35.5 -117.5t-94.5 -46.5zM180 0h-51l279 667h51zM437 -12q-58 0 -94 47t-36 118q0 72 36 119t94 47q59 0 94.5 -47t35.5 -119q0 -71 -35.5 -118t-94.5 -47zM150 416
q25 0 39.5 25.5t14.5 68.5q0 45 -14.5 70.5t-39.5 25.5t-39.5 -26t-14.5 -70q0 -42 14.5 -68t39.5 -26zM437 59q25 0 39.5 25.5t14.5 68.5q0 44 -14.5 70t-39.5 26t-39.5 -26t-14.5 -70q0 -43 14.5 -68.5t39.5 -25.5z" />
    <glyph glyph-name="ampersand" unicode="&#x26;" horiz-adv-x="447" 
d="M450 0h-119l-27 43q-55 -55 -127 -55q-66 0 -108 49.5t-42 136.5q0 67 27 112t74 85q-36 91 -36 141q0 73 37.5 119t96.5 46q54 0 91 -41t37 -101q0 -44 -19 -81.5t-37 -55.5t-57 -50q24 -48 35 -67l31 -57q12 37 31 114l90 -41q-26 -102 -62 -169q23 -38 84 -128z
M201 78q30 0 58 39q-32 53 -50 90q-23 40 -38 72q-32 -43 -32 -99q0 -44 18 -73t44 -29zM191 512q0 -31 15 -78q52 47 52 98q0 30 -9 46.5t-23 16.5q-35 0 -35 -83z" />
    <glyph glyph-name="quotesingle" unicode="'" horiz-adv-x="218" 
d="M134 386h-50q-38 211 -38 229q0 25 18.5 43.5t44.5 18.5q25 0 43.5 -18.5t18.5 -43.5z" />
    <glyph glyph-name="parenleft" unicode="(" horiz-adv-x="258" 
d="M237 -162l-83 -37q-107 208 -107 442t107 442l83 -36q-67 -201 -67 -406q0 -206 67 -405z" />
    <glyph glyph-name="parenright" unicode=")" horiz-adv-x="258" 
d="M103 -199l-82 37q66 196 66 405q0 208 -66 406l82 36q108 -207 108 -442t-108 -442z" />
    <glyph glyph-name="asterisk" unicode="*" horiz-adv-x="321" 
d="M189 373h-58l5 111l-93 -60l-29 50l98 51l-98 50l29 51l93 -60l-5 111h58l-5 -111l93 60l30 -51l-99 -50l99 -51l-30 -50l-93 60z" />
    <glyph glyph-name="plus" unicode="+" horiz-adv-x="383" 
d="M354 302h-124v-146h-77v146h-124v71h124v139h77v-139h124v-71z" />
    <glyph glyph-name="comma" unicode="," horiz-adv-x="248" 
d="M203 41q0 -106 -97 -175l-50 40q25 15 47 42.5t27 52.5q-6 -3 -17 -3q-26 0 -44.5 19t-18.5 47q0 30 21 51.5t51 21.5q34 0 57.5 -26t23.5 -70z" />
    <glyph glyph-name="hyphen" unicode="-" horiz-adv-x="241" 
d="M211 194h-181v96h181v-96z" />
    <glyph glyph-name="period" unicode="." horiz-adv-x="248" 
d="M124 -11q-30 0 -52 22t-22 52t22 52t52 22t52 -22t22 -52t-22 -52t-52 -22z" />
    <glyph glyph-name="slash" unicode="/" horiz-adv-x="227" 
d="M80 -20h-80l147 707h80z" />
    <glyph glyph-name="zero" unicode="0" horiz-adv-x="454" 
d="M227 -12q-67 0 -113 52t-64.5 127t-18.5 166q0 67 11 126.5t33.5 109.5t61.5 79t90 29t90 -29t61.5 -79t33.5 -109.5t11 -126.5t-11 -126.5t-33.5 -109.5t-61.5 -79.5t-90 -29.5zM227 100q41 0 54 58t13 175q0 118 -13 175t-54 57t-54 -57.5t-13 -174.5t13 -175t54 -58z
" />
    <glyph glyph-name="one" unicode="1" horiz-adv-x="348" 
d="M296 0h-126v504l-92 -96l-72 76l181 183h109v-667z" />
    <glyph glyph-name="two" unicode="2" horiz-adv-x="441" 
d="M408 0h-366v105q159 202 197.5 264.5t38.5 114.5q0 34 -19 57.5t-50 23.5q-65 0 -105 -74l-80 75q71 111 191 111q86 0 138 -52.5t52 -138.5q0 -65 -39 -139t-158 -236h200v-111z" />
    <glyph glyph-name="three" unicode="3" horiz-adv-x="440" 
d="M214 -12q-64 0 -114.5 30.5t-79.5 78.5l86 74q40 -71 103 -71q76 0 76 93q0 49 -24 70t-57 21q-31 0 -41 -1v113q8 -1 36 -1q37 0 58 21.5t21 62.5q0 86 -70 86q-64 0 -98 -64l-82 67q63 109 186 109q85 0 136 -45.5t51 -134.5q0 -53 -29.5 -97t-76.5 -55
q50 -11 82.5 -56t32.5 -106q0 -88 -53 -141.5t-143 -53.5z" />
    <glyph glyph-name="four" unicode="4" horiz-adv-x="431" 
d="M365 0h-126v147h-223v111l202 409h147v-410h50v-110h-50v-147zM239 257v263l-121 -263h121z" />
    <glyph glyph-name="five" unicode="5" horiz-adv-x="446" 
d="M218 -12q-126 0 -190 109l82 74q38 -71 100 -71q36 0 57 32.5t21 78.5q0 111 -69 111q-47 0 -81 -55l-93 24v376h340v-111h-215v-179q14 24 40.5 39t56.5 15q68 0 109 -57t41 -160q0 -98 -54 -162t-145 -64z" />
    <glyph glyph-name="six" unicode="6" horiz-adv-x="442" 
d="M234 -12q-72 0 -119 49.5t-65.5 124t-18.5 171.5q0 153 58 248.5t165 95.5q94 0 145 -75l-66 -90q-27 53 -76 53q-46 0 -72.5 -61.5t-26.5 -147.5v-9q15 37 44.5 60t67.5 23q63 0 104.5 -57t41.5 -159q0 -98 -50.5 -162t-131.5 -64zM227 100q31 0 46 31.5t15 77.5
q0 60 -17.5 86.5t-44.5 26.5q-42 0 -68 -73q5 -149 69 -149z" />
    <glyph glyph-name="seven" unicode="7" horiz-adv-x="390" 
d="M207 0h-134l161 556h-216v111h355v-87z" />
    <glyph glyph-name="eight" unicode="8" horiz-adv-x="441" 
d="M221 -12q-94 0 -143.5 47t-49.5 132q0 58 33.5 108t78.5 69q-43 17 -73 60.5t-30 101.5q0 84 53 127.5t131 43.5q77 0 130.5 -43.5t53.5 -127.5q0 -58 -31 -101.5t-74 -60.5q45 -19 79 -69t34 -107q0 -85 -50 -132.5t-142 -47.5zM221 385q10 5 20.5 13.5t24.5 32t14 51.5
q0 39 -15.5 61t-43.5 22q-61 0 -61 -83q0 -28 14 -51.5t25.5 -32.5t21.5 -13zM221 100q29 0 47.5 22t18.5 64q0 46 -24.5 77.5t-41.5 35.5q-17 -3 -41.5 -35t-24.5 -78q0 -42 18 -64t48 -22z" />
    <glyph glyph-name="nine" unicode="9" horiz-adv-x="442" 
d="M188 -11q-94 0 -145 75l66 90q28 -53 76 -53q44 0 71.5 60.5t27.5 147.5v10q-15 -37 -44.5 -60t-67.5 -23q-63 0 -104.5 57t-41.5 159q0 98 50.5 162t131.5 64q72 0 119 -49.5t65.5 -124t18.5 -171.5q0 -153 -58 -248.5t-165 -95.5zM215 344q43 0 68 73q-2 149 -67 149
q-31 0 -47 -32t-16 -77q0 -59 18 -86t44 -27z" />
    <glyph glyph-name="colon" unicode=":" horiz-adv-x="248" 
d="M124 343q-30 0 -52 21.5t-22 51.5q0 31 22 52.5t52 21.5t52 -21.5t22 -52.5q0 -30 -22 -51.5t-52 -21.5zM124 -11q-30 0 -52 22t-22 52t22 52t52 22t52 -22t22 -52t-22 -52t-52 -22z" />
    <glyph glyph-name="semicolon" unicode=";" horiz-adv-x="248" 
d="M124 343q-30 0 -52 22t-22 52t22 51.5t52 21.5t52 -21.5t22 -51.5t-22 -52t-52 -22zM203 43q0 -106 -97 -176l-50 42q25 14 47 41.5t27 52.5q-3 -3 -17 -3q-27 0 -45 18.5t-18 47.5q0 30 21 51.5t51 21.5q34 0 57.5 -26.5t23.5 -69.5z" />
    <glyph glyph-name="less" unicode="&#x3c;" horiz-adv-x="383" 
d="M354 156l-325 138v81l325 139v-85l-241 -95l241 -93v-85z" />
    <glyph glyph-name="equal" unicode="=" horiz-adv-x="383" 
d="M354 393h-325v72h325v-72zM354 203h-325v72h325v-72z" />
    <glyph glyph-name="greater" unicode="&#x3e;" horiz-adv-x="383" 
d="M354 294l-325 -138v85l241 93l-241 95v85l325 -139v-81z" />
    <glyph glyph-name="question" unicode="?" horiz-adv-x="325" 
d="M118 199q-24 34 -24 88q0 37 14.5 69t31.5 51.5t31.5 46t14.5 54.5q0 24 -15 42.5t-39 18.5q-30 0 -55 -31l-51 79q56 61 136 61q67 0 107.5 -41t40.5 -103q0 -40 -17.5 -77t-38 -60.5t-38 -55t-17.5 -61.5q0 -24 15 -45zM165 -11q-30 0 -52 22t-22 52t22 52t52 22
t52 -22t22 -52t-22 -52t-52 -22z" />
    <glyph glyph-name="at" unicode="@" horiz-adv-x="635" 
d="M271 -70q-112 0 -174 76.5t-62 208.5q0 108 47 205.5t128 158t174 60.5q96 0 156 -65.5t60 -176.5q0 -127 -50 -219.5t-118 -92.5q-34 0 -57 18t-28 49l-1 8q-48 -75 -113 -75q-40 0 -67.5 30t-27.5 98q0 69 23 133.5t67.5 108t99.5 43.5q56 0 73 -65l10 51h100l-53 -253
q-3 -15 -3 -25q0 -24 6 -34t22 -10q14 0 31 26.5t31 83t14 124.5q0 98 -47.5 151.5t-129.5 53.5t-154 -56.5t-112.5 -145t-40.5 -183.5q0 -112 51 -180.5t150 -68.5q74 0 147 55l20 -29q-85 -63 -172 -63zM283 165q17 0 32 11t22.5 22t18.5 30l30 138q-12 51 -42 51
q-45 0 -73 -61.5t-28 -125.5q0 -65 40 -65z" />
    <glyph glyph-name="A" unicode="A" horiz-adv-x="424" 
d="M424 0h-130l-20 123h-124l-20 -123h-130l139 667h145zM260 234l-48 292l-48 -292h96z" />
    <glyph glyph-name="B" unicode="B" horiz-adv-x="452" 
d="M260 0h-208v667h201q79 0 119.5 -48t40.5 -122q0 -61 -26.5 -100.5t-71.5 -52.5q47 -7 77 -54.5t30 -109.5q0 -81 -40 -130.5t-122 -49.5zM220 395q64 0 64 80q0 81 -64 81h-42v-161h42zM224 111q69 0 69 87q0 39 -17.5 62.5t-51.5 23.5h-46v-173h46z" />
    <glyph glyph-name="C" unicode="C" horiz-adv-x="429" 
d="M240 -12q-105 0 -157 94t-52 251t52 251t157 94q38 0 68 -13.5t49 -39t30 -49.5t20 -55l-100 -37q-12 42 -26.5 62t-40.5 20q-80 0 -80 -233t80 -233q52 0 68 97l101 -37q-43 -172 -169 -172z" />
    <glyph glyph-name="D" unicode="D" horiz-adv-x="476" 
d="M219 0h-167v667h166q115 0 171 -91t56 -243q0 -153 -55.5 -243t-170.5 -90zM218 111q98 0 98 222q0 223 -98 223h-40v-445h40z" />
    <glyph glyph-name="E" unicode="E" horiz-adv-x="378" 
d="M344 0h-292v667h292v-111h-166v-161h159v-111h-159v-173h166v-111z" />
    <glyph glyph-name="F" unicode="F" horiz-adv-x="376" 
d="M178 0h-126v667h292v-111h-166v-161h159v-111h-159v-284z" />
    <glyph glyph-name="G" unicode="G" horiz-adv-x="453" 
d="M240 -12q-104 0 -156.5 93t-52.5 252q0 160 52.5 252.5t156.5 92.5q66 0 107.5 -43.5t59.5 -113.5l-100 -37q-20 82 -67 82q-80 0 -80 -233t80 -233q39 0 60 30v121h-75v111h186v-286q-69 -88 -171 -88z" />
    <glyph glyph-name="H" unicode="H" horiz-adv-x="484" 
d="M432 0h-126v288h-128v-288h-126v667h126v-269h128v269h126v-667z" />
    <glyph glyph-name="I" unicode="I" horiz-adv-x="230" 
d="M178 0h-126v667h126v-667z" />
    <glyph glyph-name="J" unicode="J" horiz-adv-x="348" 
d="M117 -12q-66 0 -109 36l34 103q24 -27 61 -27q69 0 69 73v494h126v-500q0 -90 -48.5 -134.5t-132.5 -44.5z" />
    <glyph glyph-name="K" unicode="K" horiz-adv-x="471" 
d="M468 0h-143l-105 254l-42 -84v-170h-126v667h126v-308l140 308h138l-163 -314z" />
    <glyph glyph-name="L" unicode="L" horiz-adv-x="365" 
d="M344 0h-292v667h126v-556h166v-111z" />
    <glyph glyph-name="M" unicode="M" horiz-adv-x="616" 
d="M564 0h-124v394l-111 -394h-42l-109 394v-394h-126v667h160l96 -341l99 341h157v-667z" />
    <glyph glyph-name="N" unicode="N" horiz-adv-x="484" 
d="M432 0h-119l-135 353v-353h-126v667h126l128 -340v340h126v-667z" />
    <glyph glyph-name="O" unicode="O" horiz-adv-x="478" 
d="M239 -12q-105 0 -156.5 94.5t-51.5 250.5t51.5 250.5t156.5 94.5t156.5 -94.5t51.5 -250.5t-51.5 -250.5t-156.5 -94.5zM239 100q79 0 79 233t-79 233t-79 -233t79 -233z" />
    <glyph glyph-name="P" unicode="P" horiz-adv-x="441" 
d="M178 0h-126v667h180q92 0 140 -60.5t48 -150.5t-48 -150.5t-140 -60.5h-54v-245zM219 356q35 0 54 27t19 73t-19 73t-54 27h-41v-200h41z" />
    <glyph glyph-name="Q" unicode="Q" horiz-adv-x="478" 
d="M239 -12q-105 0 -156.5 94.5t-51.5 250.5t51.5 250.5t156.5 94.5t156.5 -94.5t51.5 -250.5q0 -210 -87 -297l15 -37l-88 -34l-11 27q-16 -4 -37 -4zM189 220l88 34l27 -72q14 57 14 151q0 233 -79 233t-79 -233q0 -228 75 -233z" />
    <glyph glyph-name="R" unicode="R" horiz-adv-x="460" 
d="M426 0h-135l-72 245h-41v-245h-126v667h186q80 0 131 -58t51 -149q0 -139 -86 -184zM219 356q35 0 54 27t19 73t-19 73t-54 27h-41v-200h41z" />
    <glyph glyph-name="S" unicode="S" horiz-adv-x="396" 
d="M184 -12q-106 0 -172 66l55 99q41 -53 109 -53q30 0 48.5 20.5t18.5 52.5t-22 58.5t-53 48t-62 46.5t-53 67.5t-22 98.5q0 78 50.5 132t135.5 54q88 0 145 -54l-49 -97q-38 39 -92 39q-27 0 -44.5 -18.5t-17.5 -48.5q0 -28 22 -53t53 -47t62 -48.5t53 -70.5t22 -99
q0 -85 -51 -139t-136 -54z" />
    <glyph glyph-name="T" unicode="T" horiz-adv-x="364" 
d="M245 0h-126v556h-101v111h328v-111h-101v-556z" />
    <glyph glyph-name="U" unicode="U" horiz-adv-x="484" 
d="M242 -12q-81 0 -135.5 52t-54.5 153v474h126v-480q0 -88 64 -88t64 88v480h126v-474q0 -101 -54.5 -153t-135.5 -52z" />
    <glyph glyph-name="V" unicode="V" horiz-adv-x="424" 
d="M284 0h-145l-139 667h130l82 -505l82 505h130z" />
    <glyph glyph-name="W" unicode="W" horiz-adv-x="616" 
d="M491 0h-128l-55 430l-55 -430h-128l-114 667h128l56 -447l63 447h100l64 -447l55 447h128z" />
    <glyph glyph-name="X" unicode="X" horiz-adv-x="438" 
d="M440 0h-139l-82 230l-81 -230h-139l147 340l-139 327h139l73 -218l73 218h140l-140 -326z" />
    <glyph glyph-name="Y" unicode="Y" horiz-adv-x="430" 
d="M278 0h-125v276l-157 391h134l85 -269l87 269h132l-156 -391v-276z" />
    <glyph glyph-name="Z" unicode="Z" horiz-adv-x="376" 
d="M347 0h-317v106l168 450h-168v111h310v-102l-172 -454h179v-111z" />
    <glyph glyph-name="bracketleft" unicode="[" horiz-adv-x="205" 
d="M187 -190h-152v868h152v-76h-70v-716h70v-76z" />
    <glyph glyph-name="backslash" unicode="\" horiz-adv-x="227" 
d="M148 -20l-147 707h79l147 -707h-79z" />
    <glyph glyph-name="bracketright" unicode="]" horiz-adv-x="205" 
d="M170 -190h-153v76h70v716h-70v76h153v-868z" />
    <glyph glyph-name="asciicircum" unicode="^" horiz-adv-x="337" 
d="M318 333h-82l-68 243l-68 -243h-81l108 334h83z" />
    <glyph glyph-name="underscore" unicode="_" horiz-adv-x="279" 
d="M282 -117h-285v77h285v-77z" />
    <glyph glyph-name="grave" unicode="`" horiz-adv-x="178" 
d="M178 556h-72l-106 144h98z" />
    <glyph glyph-name="a" unicode="a" horiz-adv-x="415" 
d="M369 0h-113v46q-15 -27 -44 -42.5t-57 -15.5q-58 0 -94.5 44t-36.5 117q0 72 36.5 114.5t94.5 42.5q29 0 58 -14.5t43 -39.5v59q0 88 -73 88q-51 0 -98 -48l-42 80q31 33 75.5 48.5t87.5 15.5q77 0 120 -39.5t43 -118.5v-337zM195 64q19 0 35.5 13.5t25.5 36.5v65
q-9 23 -25.5 36.5t-35.5 13.5q-28 0 -43 -23t-15 -59t15 -59.5t43 -23.5z" />
    <glyph glyph-name="b" unicode="b" horiz-adv-x="423" 
d="M159 146q8 -25 23.5 -41.5t33.5 -16.5q64 0 64 153q0 154 -64 154q-18 0 -33.5 -17t-23.5 -42v-190zM159 0h-113v667h113v-244q14 35 40 53.5t54 18.5q70 0 106.5 -68.5t36.5 -185.5q0 -119 -36.5 -186t-106.5 -67q-27 0 -53 19t-41 53v-60z" />
    <glyph glyph-name="c" unicode="c" horiz-adv-x="344" 
d="M211 -12q-85 0 -134.5 70.5t-49.5 183.5t49.5 183t134.5 70q74 0 117 -43l-36 -88q-30 31 -61 31q-42 0 -65 -43.5t-23 -109.5q0 -67 23 -110.5t65 -43.5q31 0 61 31l36 -88q-40 -43 -117 -43z" />
    <glyph glyph-name="d" unicode="d" horiz-adv-x="423" 
d="M377 0h-113v60q-15 -34 -41 -53t-53 -19q-70 0 -106.5 67t-36.5 186q0 117 36.5 185.5t106.5 68.5q28 0 54 -18.5t40 -53.5v244h113v-667zM207 88q18 0 33.5 16.5t23.5 41.5v191q-8 25 -23.5 41.5t-33.5 16.5q-64 0 -64 -154q0 -153 64 -153z" />
    <glyph glyph-name="e" unicode="e" horiz-adv-x="404" 
d="M219 -12q-92 0 -142 70t-50 184q0 110 47 181.5t134 71.5t130 -69t43 -182v-39h-245q1 -56 25 -90.5t70 -34.5q45 0 80 48l55 -63q-60 -77 -147 -77zM272 284q0 119 -67 119q-37 0 -53 -36t-16 -83h136z" />
    <glyph glyph-name="f" unicode="f" horiz-adv-x="250" 
d="M174 0h-113v385h-44v98h44v50q0 69 33.5 106.5t96.5 37.5q54 0 84 -27l-29 -87q-15 16 -33 16q-39 0 -39 -46v-50h61v-98h-61v-385z" />
    <glyph glyph-name="g" unicode="g" horiz-adv-x="423" 
d="M194 -196q-94 0 -149 52l38 92q46 -46 99 -46q82 0 82 106v70q-15 -35 -41 -54.5t-53 -19.5q-70 0 -106.5 63.5t-36.5 181.5q0 116 36.5 181t106.5 65q28 0 54 -18.5t40 -53.5v60h113v-467q0 -115 -51 -163.5t-132 -48.5zM207 104q18 0 33.5 16.5t23.5 41.5v175
q-8 25 -23.5 41.5t-33.5 16.5q-64 0 -64 -146q0 -145 64 -145z" />
    <glyph glyph-name="h" unicode="h" 
d="M375 0h-114v346q0 49 -37 49q-20 0 -38 -19t-27 -44v-332h-113v667h113v-247q15 30 48 52.5t65 22.5q103 0 103 -109v-386z" />
    <glyph glyph-name="i" unicode="i" horiz-adv-x="204" 
d="M102 540q-28 0 -48.5 20t-20.5 48t20.5 48.5t48.5 20.5t48.5 -20.5t20.5 -48.5t-20 -48t-49 -20zM159 0h-113v483h113v-483z" />
    <glyph glyph-name="j" unicode="j" horiz-adv-x="204" 
d="M102 540q-28 0 -48.5 20t-20.5 48t20.5 48.5t48.5 20.5t48.5 -20.5t20.5 -48.5t-20 -48t-49 -20zM26 -196q-41 0 -64 24l26 87q8 -13 25 -13q33 0 33 56v525h113v-525q0 -78 -32.5 -116t-100.5 -38z" />
    <glyph glyph-name="k" unicode="k" horiz-adv-x="403" 
d="M398 0h-124l-71 193l-44 -80v-113h-113v667h113v-407l111 223h123l-115 -214z" />
    <glyph glyph-name="l" unicode="l" horiz-adv-x="204" 
d="M159 0h-113v667h113v-667z" />
    <glyph glyph-name="m" unicode="m" horiz-adv-x="636" 
d="M590 0h-113v344q0 51 -37 51q-21 0 -38.5 -19t-26.5 -44v-332h-114v344q0 51 -37 51q-21 0 -39 -19t-26 -44v-332h-113v483h113v-63q13 29 46.5 52t66.5 23q87 0 99 -80q14 31 48 55.5t69 24.5q102 0 102 -110v-385z" />
    <glyph glyph-name="n" unicode="n" 
d="M375 0h-114v344q0 51 -37 51q-20 0 -38 -19t-27 -44v-332h-113v483h113v-63q15 30 48 52.5t65 22.5q103 0 103 -110v-385z" />
    <glyph glyph-name="o" unicode="o" horiz-adv-x="417" 
d="M208 -12q-89 0 -135 72.5t-46 181.5t46 181t135 72q90 0 136 -72t46 -181t-46 -181.5t-136 -72.5zM208 88q65 0 65 154q0 153 -65 153q-64 0 -64 -153q0 -154 64 -154z" />
    <glyph glyph-name="p" unicode="p" horiz-adv-x="423" 
d="M253 -12q-28 0 -54 18.5t-40 53.5v-244h-113v667h113v-60q15 34 41 53t53 19q70 0 106.5 -67t36.5 -186q0 -117 -36.5 -185.5t-106.5 -68.5zM216 88q64 0 64 154q0 153 -64 153q-18 0 -33.5 -16t-23.5 -41v-192q8 -25 23.5 -41.5t33.5 -16.5z" />
    <glyph glyph-name="q" unicode="q" horiz-adv-x="423" 
d="M207 88q18 0 33.5 16.5t23.5 41.5v192q-8 25 -23.5 41t-33.5 16q-64 0 -64 -153q0 -154 64 -154zM170 -12q-70 0 -106.5 68.5t-36.5 185.5q0 119 36.5 186t106.5 67q27 0 53 -19t41 -53v60h113v-667h-113v244q-14 -35 -40 -53.5t-54 -18.5z" />
    <glyph glyph-name="r" unicode="r" horiz-adv-x="280" 
d="M159 0h-113v483h113v-67q14 33 45.5 56t62.5 23v-111q-11 3 -22 3q-24 0 -47.5 -17.5t-38.5 -44.5v-325z" />
    <glyph glyph-name="s" unicode="s" horiz-adv-x="346" 
d="M169 -12q-104 0 -157 63l47 78q47 -52 100 -52q27 0 44 14t17 38q0 18 -14 32.5t-35.5 24.5t-46 24.5t-46 31t-35.5 47t-14 69.5q0 58 41 97.5t113 39.5q83 0 142 -57l-46 -76q-36 44 -93 44q-23 0 -37.5 -13t-14.5 -32q0 -20 20 -35t48 -29t56.5 -32t48.5 -52t20 -81
q0 -64 -44.5 -104t-113.5 -40z" />
    <glyph glyph-name="t" unicode="t" horiz-adv-x="258" 
d="M172 -12q-58 0 -84.5 30t-26.5 93v274h-45v98h45v132h113v-132h61v-98h-61v-252q0 -45 27 -45q17 0 27 13l23 -88q-28 -25 -79 -25z" />
    <glyph glyph-name="u" unicode="u" 
d="M375 0h-114v61q-15 -30 -47 -51.5t-66 -21.5q-102 0 -102 109v386h113v-346q0 -49 37 -49q21 0 38.5 18t26.5 43v334h114v-483z" />
    <glyph glyph-name="v" unicode="v" horiz-adv-x="380" 
d="M251 0h-122l-127 483h120l68 -342l70 342h119z" />
    <glyph glyph-name="w" unicode="w" horiz-adv-x="608" 
d="M491 0h-118l-69 329l-69 -329h-119l-111 483h117l61 -330l63 330h109l68 -330l62 330h118z" />
    <glyph glyph-name="x" unicode="x" horiz-adv-x="372" 
d="M368 0h-120l-62 160l-63 -160h-120l113 243l-108 240h120l58 -156l58 156h119l-107 -240z" />
    <glyph glyph-name="y" unicode="y" horiz-adv-x="380" 
d="M40 -189l16 98q12 -5 23 -5q30 0 40 34l14 50l-131 495h120l68 -340l70 340h119l-152 -568q-17 -64 -47.5 -87.5t-85.5 -23.5q-35 0 -54 7z" />
    <glyph glyph-name="z" unicode="z" horiz-adv-x="335" 
d="M308 0h-281v85l142 300h-142v98h277v-82l-143 -302h147v-99z" />
    <glyph glyph-name="braceleft" unicode="{" horiz-adv-x="220" 
d="M203 -190h-29q-47 0 -82.5 33.5t-35.5 84.5v216q0 29 -13.5 48t-38.5 19v66q25 0 38.5 19t13.5 48v215q0 51 35.5 85t82.5 34h29v-76h-29q-15 0 -25.5 -12.5t-10.5 -30.5v-226q0 -70 -45 -89q45 -19 45 -89v-227q0 -18 10.5 -30t25.5 -12h29v-76z" />
    <glyph glyph-name="bar" unicode="|" horiz-adv-x="181" 
d="M128 -20h-76v707h76v-707z" />
    <glyph glyph-name="braceright" unicode="}" horiz-adv-x="220" 
d="M17 -190v76h28q15 0 25.5 12t10.5 30v227q0 70 45 89q-45 19 -45 89v226q0 19 -10.5 31t-25.5 12h-28v76h28q47 0 82.5 -34t35.5 -85v-215q0 -29 13.5 -48t38.5 -19v-66q-25 0 -38.5 -19t-13.5 -48v-216q0 -51 -35.5 -84.5t-82.5 -33.5h-28z" />
    <glyph glyph-name="asciitilde" unicode="~" horiz-adv-x="416" 
d="M312 667l78 -7q-2 -37 -4.5 -64t-10.5 -64t-20 -60t-34.5 -40t-51.5 -17q-36 0 -57 28t-26.5 62t-14.5 62t-23 28q-20 0 -28 -37t-15 -144l-79 7q2 47 7 81.5t17 76t37 64.5t61 23t57 -28.5t26.5 -62t14.5 -62t23 -28.5q19 0 27.5 37.5t15.5 144.5z" />
    <glyph glyph-name="nbspace" unicode="&#xa0;" horiz-adv-x="163" 
 />
    <glyph glyph-name="exclamdown" unicode="&#xa1;" horiz-adv-x="248" 
d="M55 -184l20 458h99l19 -458h-138zM50 420q0 30 22 52t53 22q30 0 52 -22t22 -52t-22 -52t-52 -22q-31 0 -53 22t-22 52z" />
    <glyph glyph-name="cent" unicode="&#xa2;" horiz-adv-x="344" 
d="M169 -100v93q-67 17 -104.5 84t-37.5 165q0 97 37.5 164t104.5 84v75h83v-74q47 -10 76 -39l-36 -88q-30 31 -61 31q-42 0 -65 -43.5t-23 -109.5q0 -67 23 -110.5t65 -43.5q31 0 61 31l36 -88q-29 -30 -76 -39v-92h-83z" />
    <glyph glyph-name="sterling" unicode="&#xa3;" horiz-adv-x="424" 
d="M30 276v73h47q-31 64 -31 129q0 83 56.5 141t132.5 58q64 0 108 -34t56 -97l-100 -43q-8 35 -21 53t-37 18q-25 0 -42 -26.5t-17 -71.5q0 -12 1 -23t3 -22t3.5 -18t5.5 -17.5t6 -15.5t7 -16t6 -15h72v-73h-52q2 -20 2 -31q0 -33 -16 -70t-40 -58q18 9 36 9q23 0 51 -13
t46 -13q44 0 67 30l34 -100q-14 -17 -46 -29.5t-66 -12.5q-38 0 -77 20.5t-59 20.5q-36 0 -85 -36l-37 86q36 23 57.5 59.5t21.5 73.5q0 30 -12 64h-81z" />
    <glyph glyph-name="currency" unicode="&#xa4;" horiz-adv-x="441" 
d="M221 97q-50 0 -88 22l-64 -64l-67 67l68 67q-31 59 -31 144t31 144l-68 69l67 68l66 -67q39 21 86 21q46 0 85 -21l67 67l67 -68l-69 -69q31 -61 31 -144q0 -85 -31 -144l69 -70l-67 -67l-67 66q-39 -21 -85 -21zM221 195q37 0 55 39t18 99t-18 98.5t-55 38.5
t-55.5 -38.5t-18.5 -98.5t18.5 -99t55.5 -39z" />
    <glyph glyph-name="yen" unicode="&#xa5;" horiz-adv-x="430" 
d="M278 0h-125v117h-129v72h129v87h-129v71h100l-128 320h134l85 -269l87 269h132l-128 -320h97v-71h-125v-87h125v-72h-125v-117z" />
    <glyph glyph-name="brokenbar" unicode="&#xa6;" horiz-adv-x="181" 
d="M128 -20h-76v316h76v-316zM128 371h-76v316h76v-316z" />
    <glyph glyph-name="section" unicode="&#xa7;" horiz-adv-x="347" 
d="M327 314q0 -36 -18 -69t-53 -52q71 -50 71 -130q0 -61 -45 -102.5t-113 -41.5q-100 0 -157 63l47 75q16 -20 43.5 -37t56.5 -17t45 17t16 41q0 25 -19.5 43.5t-48 33t-56.5 32t-47.5 49.5t-19.5 76q0 40 22 71.5t58 44.5q-80 52 -80 135q0 58 42 94.5t104 36.5
q92 0 148 -59l-45 -68q-43 47 -91 47q-24 0 -38.5 -14t-14.5 -37q0 -22 20 -40t48 -32.5t56.5 -32.5t48.5 -50.5t20 -76.5zM228 288q0 57 -48 87q-52 -13 -52 -60q0 -54 61 -88q39 22 39 61z" />
    <glyph glyph-name="dieresis" unicode="&#xa8;" horiz-adv-x="278" 
d="M283 609q0 -25 -18.5 -43t-44.5 -18t-43.5 18t-17.5 43q0 26 18 44t43 18q26 0 44.5 -18.5t18.5 -43.5zM119 609q0 -26 -18 -43.5t-44 -17.5q-25 0 -43.5 18t-18.5 43t18.5 43.5t43.5 18.5q26 0 44 -18t18 -44z" />
    <glyph glyph-name="copyright" unicode="&#xa9;" horiz-adv-x="778" 
d="M734 334q0 -142 -101 -243.5t-244 -101.5t-244 101.5t-101 243.5t101 243.5t244 101.5t244 -101.5t101 -243.5zM699 334q0 128 -91.5 219t-218.5 91t-218.5 -91t-91.5 -219t91.5 -219t218.5 -91t218.5 91t91.5 219zM512 219l30 -29q-57 -67 -148 -67q-88 0 -148.5 60.5
t-60.5 150.5q0 92 60.5 152t148.5 60q91 0 147 -66l-30 -30q-43 58 -117 58q-68 0 -116.5 -49t-48.5 -125q0 -74 48.5 -124t116.5 -50q74 0 118 59z" />
    <glyph glyph-name="ordfeminine" unicode="&#xaa;" horiz-adv-x="301" 
d="M264 326h-83v31q-24 -39 -71 -39q-39 0 -65 27.5t-26 75.5t26 75t65 27q49 0 71 -36v40q0 58 -51 58q-36 0 -67 -36l-31 54q44 45 116 45q54 0 85 -28t31 -85v-209zM140 373q29 0 41 29v43q-12 30 -41 30q-18 0 -28.5 -14.5t-10.5 -37.5t10.5 -36.5t28.5 -13.5z" />
    <glyph glyph-name="guillemotleft" unicode="&#xab;" horiz-adv-x="385" 
d="M355 63h-88l-90 180l90 177h88l-90 -177zM208 63h-88l-90 180l90 177h88l-90 -177z" />
    <glyph glyph-name="logicalnot" unicode="&#xac;" horiz-adv-x="383" 
d="M354 465v-262h-74v190h-251v72h325z" />
    <glyph glyph-name="uni00AD" unicode="&#xad;" horiz-adv-x="241" 
d="M211 194h-181v96h181v-96z" />
    <glyph glyph-name="registered" unicode="&#xae;" horiz-adv-x="494" 
d="M459 465q0 -88 -62 -150t-150 -62t-150 62t-62 150t62 150t150 62q89 0 150.5 -61.5t61.5 -150.5zM428 465q0 76 -53 128.5t-128 52.5t-128 -52.5t-53 -128.5q0 -74 53 -127.5t128 -53.5t128 53.5t53 127.5zM347 343h-42l-63 96h-42v-96h-34v243h99q32 0 55.5 -20.5
t23.5 -53.5q0 -35 -22.5 -53.5t-39.5 -18.5zM309 512q0 19 -13.5 32t-30.5 13h-65v-88h65q17 0 30.5 12.5t13.5 30.5z" />
    <glyph glyph-name="macron" unicode="&#xaf;" horiz-adv-x="258" 
d="M258 564h-258v66h258v-66z" />
    <glyph glyph-name="degree" unicode="&#xb0;" horiz-adv-x="305" 
d="M284 545q0 -54 -39 -92.5t-93 -38.5q-55 0 -93 38.5t-38 92.5q0 55 38 93.5t93 38.5q54 0 93 -38.5t39 -93.5zM221 545q0 28 -20.5 48.5t-48.5 20.5t-47.5 -20.5t-19.5 -48.5t19.5 -47.5t47.5 -19.5t48.5 19.5t20.5 47.5z" />
    <glyph glyph-name="plusminus" unicode="&#xb1;" horiz-adv-x="383" 
d="M354 302h-124v-146h-77v146h-124v71h124v139h77v-139h124v-71zM354 27h-325v71h325v-71z" />
    <glyph glyph-name="twosuperior" unicode="&#xb2;" horiz-adv-x="293" 
d="M276 421h-248v63q103 111 132 151.5t29 73.5q0 22 -13 35.5t-35 13.5q-43 0 -72 -48l-52 51q47 66 129 66q58 0 93 -30.5t35 -85.5q0 -41 -29 -85.5t-110 -135.5h141v-69z" />
    <glyph glyph-name="threesuperior" unicode="&#xb3;" horiz-adv-x="293" 
d="M276 532q0 -53 -36 -85.5t-95 -32.5q-88 0 -130 64l55 52q27 -47 71 -47q51 0 51 54t-55 54q-23 0 -29 -1v69q5 -1 25 -1q54 0 54 49q0 51 -47 51q-43 0 -68 -42l-53 46q42 65 126 65q57 0 91 -28t34 -81q0 -32 -20 -58.5t-50 -31.5q32 -5 54 -32.5t22 -63.5z" />
    <glyph glyph-name="acute" unicode="&#xb4;" horiz-adv-x="178" 
d="M178 700l-106 -144h-72l79 144h99z" />
    <glyph glyph-name="mu" unicode="&#xb5;" horiz-adv-x="432" 
d="M159 1v-185h-113v667h113v-346q0 -50 39 -50q20 0 37 18t26 44v334h114v-356q0 -39 26 -39q4 0 14 2l8 -95q-26 -7 -52 -7q-47 0 -72.5 21t-33.5 65q-11 -38 -31 -62t-44 -24q-20 0 -31 13z" />
    <glyph glyph-name="paragraph" unicode="&#xb6;" horiz-adv-x="449" 
d="M396 -100h-58v709h-82v-709h-57v423q-71 0 -121.5 50.5t-50.5 121.5t50.5 121.5t121.5 50.5h197v-767z" />
    <glyph glyph-name="periodcentered" unicode="&#xb7;" horiz-adv-x="248" 
d="M198 245q0 -30 -22 -52.5t-52 -22.5t-52 22.5t-22 52.5q0 29 22 51.5t52 22.5t52 -22t22 -52z" />
    <glyph glyph-name="cedilla" unicode="&#xb8;" horiz-adv-x="182" 
d="M86 -195q-46 0 -86 32l22 46q32 -27 61 -27q18 0 29.5 9.5t11.5 25.5q0 12 -6.5 19.5t-16.5 7.5q-15 0 -26 -13l-42 24l31 82h57l-26 -64q14 10 29 10q25 0 41.5 -19t16.5 -49q0 -38 -27 -61t-69 -23z" />
    <glyph glyph-name="onesuperior" unicode="&#xb9;" horiz-adv-x="244" 
d="M201 421h-87v290l-56 -58l-49 50l117 118h75v-400z" />
    <glyph glyph-name="ordmasculine" unicode="&#xba;" horiz-adv-x="308" 
d="M154 318q-62 0 -96 47.5t-34 117.5t34 117.5t96 47.5q63 0 96.5 -47.5t33.5 -117.5t-33.5 -117.5t-96.5 -47.5zM154 385q45 0 45 98q0 97 -45 97t-45 -97q0 -98 45 -98z" />
    <glyph glyph-name="guillemotright" unicode="&#xbb;" horiz-adv-x="385" 
d="M208 243l-90 -180h-88l90 180l-90 177h88zM355 243l-90 -180h-88l90 180l-90 177h88z" />
    <glyph glyph-name="onequarter" unicode="&#xbc;" horiz-adv-x="648" 
d="M201 267h-87v290l-56 -58l-49 50l117 118h75v-400zM636 90h-34v-90h-86v90h-147v67l129 243h104v-242h34v-68zM516 158v148l-75 -148h75zM488 667l-279 -667h-50l278 667h51z" />
    <glyph glyph-name="onehalf" unicode="&#xbd;" horiz-adv-x="683" 
d="M201 267h-87v290l-56 -58l-49 50l117 118h75v-400zM666 0h-248v63q103 111 132 151.5t29 73.5q0 22 -13 35.5t-35 13.5q-43 0 -72 -48l-52 51q47 66 129 66q58 0 93 -30.5t35 -85.5q0 -41 -29 -85.5t-110 -135.5h141v-69zM488 667l-279 -667h-50l278 667h51z" />
    <glyph glyph-name="threequarters" unicode="&#xbe;" horiz-adv-x="684" 
d="M672 90h-34v-90h-86v90h-147v67l129 243h104v-242h34v-68zM552 158v148l-75 -148h75zM524 667l-279 -667h-50l278 667h51zM276 378q0 -53 -36 -85.5t-95 -32.5q-88 0 -130 64l55 52q27 -47 71 -47q51 0 51 54t-55 54q-23 0 -29 -1v69q5 -1 25 -1q54 0 54 49q0 51 -47 51
q-43 0 -68 -42l-53 46q42 65 126 65q57 0 91 -28t34 -81q0 -32 -20 -58.5t-50 -31.5q32 -5 54 -32.5t22 -63.5z" />
    <glyph glyph-name="questiondown" unicode="&#xbf;" horiz-adv-x="287" 
d="M206 282q25 -32 25 -87q0 -37 -14.5 -69t-31.5 -51.5t-31.5 -46.5t-14.5 -55q0 -24 15 -42t39 -18q32 0 55 30l52 -78q-57 -61 -137 -61q-68 0 -108 40.5t-40 102.5q0 40 17.5 77.5t38.5 61t38.5 55t17.5 60.5q0 26 -16 46zM160 494q30 0 52 -22t22 -52t-22 -52t-52 -22
t-52 22t-22 52t22 52t52 22z" />
    <glyph glyph-name="Agrave" unicode="&#xc0;" horiz-adv-x="424" 
d="M424 0h-130l-20 123h-124l-20 -123h-130l139 667h145zM260 234l-48 292l-48 -292h96zM257 723h-72l-106 144h98z" />
    <glyph glyph-name="Aacute" unicode="&#xc1;" horiz-adv-x="424" 
d="M424 0h-130l-20 123h-124l-20 -123h-130l139 667h145zM260 234l-48 292l-48 -292h96zM346 867l-106 -144h-72l79 144h99z" />
    <glyph glyph-name="Acircumflex" unicode="&#xc2;" horiz-adv-x="424" 
d="M328 723h-62l-55 92l-50 -92h-63l63 144h102zM424 0h-130l-20 123h-124l-20 -123h-130l139 667h145zM260 234l-48 292l-48 -292h96z" />
    <glyph glyph-name="Atilde" unicode="&#xc3;" horiz-adv-x="424" 
d="M424 0h-130l-20 123h-124l-20 -123h-130l139 667h145zM260 234l-48 292l-48 -292h96zM256 721q-22 0 -38.5 18.5t-28 37t-21.5 18.5q-26 0 -26 -68h-57q0 60 22.5 97t62.5 37q18 0 32.5 -11.5t22 -25.5t16.5 -25.5t17 -11.5q26 0 26 68h57q0 -60 -22 -97t-63 -37z" />
    <glyph glyph-name="Adieresis" unicode="&#xc4;" horiz-adv-x="424" 
d="M356 776q0 -25 -18.5 -43t-44.5 -18q-25 0 -43 17.5t-18 43.5t18 44t43 18q26 0 44.5 -18.5t18.5 -43.5zM192 776q0 -26 -18 -43.5t-44 -17.5q-25 0 -43.5 18t-18.5 43t18.5 43.5t43.5 18.5q26 0 44 -18t18 -44zM424 0h-130l-20 123h-124l-20 -123h-130l139 667h145z
M260 234l-48 292l-48 -292h96z" />
    <glyph glyph-name="Aring" unicode="&#xc5;" horiz-adv-x="424" 
d="M424 0h-130l-20 123h-124l-20 -123h-130l139 667h145zM260 234l-48 292l-48 -292h96zM213 691q-37 0 -63 26.5t-26 63.5q0 36 26 62t63 26t62.5 -26t25.5 -62q0 -38 -25.5 -64t-62.5 -26zM213 741q16 0 27.5 11.5t11.5 28.5q0 16 -11.5 27.5t-27.5 11.5t-27.5 -11.5
t-11.5 -27.5t11.5 -28t27.5 -12z" />
    <glyph glyph-name="AE" unicode="&#xc6;" horiz-adv-x="607" 
d="M576 0h-292v123h-114l-37 -123h-128l224 667h347v-111h-166v-161h159v-111h-159v-173h166v-111zM284 234v292l-84 -292h84z" />
    <glyph glyph-name="Ccedilla" unicode="&#xc7;" horiz-adv-x="429" 
d="M235 -191q-46 0 -86 32l22 46q32 -27 61 -27q18 0 29.5 9.5t11.5 25.5q0 12 -6.5 19.5t-16.5 7.5q-15 0 -26 -13l-42 24l22 59q-87 16 -130 107t-43 234q0 157 52 251t157 94q38 0 68 -13.5t49 -39t30 -49.5t20 -55l-100 -37q-12 42 -26.5 62t-40.5 20q-80 0 -80 -233
t80 -233q52 0 68 97l101 -37q-40 -158 -150 -171l-15 -38q14 10 29 10q25 0 41.5 -19t16.5 -49q0 -38 -27 -61t-69 -23z" />
    <glyph glyph-name="Egrave" unicode="&#xc8;" horiz-adv-x="378" 
d="M344 0h-292v667h292v-111h-166v-161h159v-111h-159v-173h166v-111zM243 723h-72l-106 144h98z" />
    <glyph glyph-name="Eacute" unicode="&#xc9;" horiz-adv-x="378" 
d="M332 867l-106 -144h-72l79 144h99zM344 0h-292v667h292v-111h-166v-161h159v-111h-159v-173h166v-111z" />
    <glyph glyph-name="Ecircumflex" unicode="&#xca;" horiz-adv-x="378" 
d="M314 723h-62l-55 92l-50 -92h-63l63 144h102zM344 0h-292v667h292v-111h-166v-161h159v-111h-159v-173h166v-111z" />
    <glyph glyph-name="Edieresis" unicode="&#xcb;" horiz-adv-x="378" 
d="M344 776q0 -25 -18.5 -43t-44.5 -18q-25 0 -43 17.5t-18 43.5t18 44t43 18q26 0 44.5 -18.5t18.5 -43.5zM180 776q0 -26 -18 -43.5t-44 -17.5q-25 0 -43.5 18t-18.5 43t18.5 43.5t43.5 18.5q26 0 44 -18t18 -44zM344 0h-292v667h292v-111h-166v-161h159v-111h-159v-173
h166v-111z" />
    <glyph glyph-name="Igrave" unicode="&#xcc;" horiz-adv-x="230" 
d="M178 0h-126v667h126v-667zM160 723h-72l-106 144h98z" />
    <glyph glyph-name="Iacute" unicode="&#xcd;" horiz-adv-x="230" 
d="M178 0h-126v667h126v-667zM249 867l-106 -144h-72l79 144h99z" />
    <glyph glyph-name="Icircumflex" unicode="&#xce;" horiz-adv-x="230" 
d="M230 723h-62l-55 92l-50 -92h-63l63 144h102zM178 0h-126v667h126v-667z" />
    <glyph glyph-name="Idieresis" unicode="&#xcf;" horiz-adv-x="230" 
d="M261 776q0 -25 -18.5 -43t-44.5 -18t-43.5 17.5t-17.5 43.5t18 44t43 18q26 0 44.5 -18.5t18.5 -43.5zM97 776q0 -26 -18 -43.5t-44 -17.5q-25 0 -43.5 18t-18.5 43t18.5 43.5t43.5 18.5q26 0 44 -18t18 -44zM178 0h-126v667h126v-667z" />
    <glyph glyph-name="Eth" unicode="&#xd0;" horiz-adv-x="498" 
d="M242 0h-167v282h-59v93h59v292h166q115 0 171 -91t56 -243q0 -153 -55.5 -243t-170.5 -90zM241 111q98 0 98 222q0 223 -98 223h-40v-181h68v-93h-68v-171h40z" />
    <glyph glyph-name="Ntilde" unicode="&#xd1;" horiz-adv-x="484" 
d="M284 721q-22 0 -38.5 18.5t-28 37t-21.5 18.5q-26 0 -26 -68h-57q0 60 22.5 97t62.5 37q18 0 32.5 -11.5t22 -25.5t16.5 -25.5t17 -11.5q26 0 26 68h57q0 -60 -22 -97t-63 -37zM432 0h-119l-135 353v-353h-126v667h126l128 -340v340h126v-667z" />
    <glyph glyph-name="Ograve" unicode="&#xd2;" horiz-adv-x="478" 
d="M283 723h-72l-106 144h98zM239 -12q-105 0 -156.5 94.5t-51.5 250.5t51.5 250.5t156.5 94.5t156.5 -94.5t51.5 -250.5t-51.5 -250.5t-156.5 -94.5zM239 100q79 0 79 233t-79 233t-79 -233t79 -233z" />
    <glyph glyph-name="Oacute" unicode="&#xd3;" horiz-adv-x="478" 
d="M372 867l-106 -144h-72l79 144h99zM239 -12q-105 0 -156.5 94.5t-51.5 250.5t51.5 250.5t156.5 94.5t156.5 -94.5t51.5 -250.5t-51.5 -250.5t-156.5 -94.5zM239 100q79 0 79 233t-79 233t-79 -233t79 -233z" />
    <glyph glyph-name="Ocircumflex" unicode="&#xd4;" horiz-adv-x="478" 
d="M355 723h-62l-55 92l-50 -92h-63l63 144h102zM239 -12q-105 0 -156.5 94.5t-51.5 250.5t51.5 250.5t156.5 94.5t156.5 -94.5t51.5 -250.5t-51.5 -250.5t-156.5 -94.5zM239 100q79 0 79 233t-79 233t-79 -233t79 -233z" />
    <glyph glyph-name="Otilde" unicode="&#xd5;" horiz-adv-x="478" 
d="M239 -12q-105 0 -156.5 94.5t-51.5 250.5t51.5 250.5t156.5 94.5t156.5 -94.5t51.5 -250.5t-51.5 -250.5t-156.5 -94.5zM239 100q79 0 79 233t-79 233t-79 -233t79 -233zM283 721q-22 0 -38.5 18.5t-28 37t-21.5 18.5q-26 0 -26 -68h-57q0 60 22.5 97t62.5 37
q18 0 32.5 -11.5t22 -25.5t16.5 -25.5t17 -11.5q26 0 26 68h57q0 -60 -22 -97t-63 -37z" />
    <glyph glyph-name="Odieresis" unicode="&#xd6;" horiz-adv-x="478" 
d="M384 776q0 -25 -18.5 -43t-44.5 -18q-25 0 -43 17.5t-18 43.5t18 44t43 18q26 0 44.5 -18.5t18.5 -43.5zM220 776q0 -26 -18 -43.5t-44 -17.5q-25 0 -43.5 18t-18.5 43t18.5 43.5t43.5 18.5q26 0 44 -18t18 -44zM239 -12q-105 0 -156.5 94.5t-51.5 250.5t51.5 250.5
t156.5 94.5t156.5 -94.5t51.5 -250.5t-51.5 -250.5t-156.5 -94.5zM239 100q79 0 79 233t-79 233t-79 -233t79 -233z" />
    <glyph glyph-name="multiply" unicode="&#xd7;" horiz-adv-x="383" 
d="M293 183l-102 100l-100 -100l-51 51l101 100l-101 100l51 51l100 -100l102 100l50 -51l-101 -100l101 -100z" />
    <glyph glyph-name="Oslash" unicode="&#xd8;" horiz-adv-x="478" 
d="M239 -12q-65 0 -111 38l-12 -26h-73l39 82q-51 90 -51 251q0 156 51.5 250.5t156.5 94.5q64 0 111 -39l13 28h73l-41 -84q52 -90 52 -250q0 -156 -51.5 -250.5t-156.5 -94.5zM160 333q0 -44 3 -83l130 271q-21 45 -54 45q-79 0 -79 -233zM239 100q79 0 79 233q0 43 -3 81
l-130 -270q20 -44 54 -44z" />
    <glyph glyph-name="Ugrave" unicode="&#xd9;" horiz-adv-x="484" 
d="M242 -12q-81 0 -135.5 52t-54.5 153v474h126v-480q0 -88 64 -88t64 88v480h126v-474q0 -101 -54.5 -153t-135.5 -52zM287 723h-72l-106 144h98z" />
    <glyph glyph-name="Uacute" unicode="&#xda;" horiz-adv-x="484" 
d="M376 867l-106 -144h-72l79 144h99zM242 -12q-81 0 -135.5 52t-54.5 153v474h126v-480q0 -88 64 -88t64 88v480h126v-474q0 -101 -54.5 -153t-135.5 -52z" />
    <glyph glyph-name="Ucircumflex" unicode="&#xdb;" horiz-adv-x="484" 
d="M358 723h-62l-55 92l-50 -92h-63l63 144h102zM242 -12q-81 0 -135.5 52t-54.5 153v474h126v-480q0 -88 64 -88t64 88v480h126v-474q0 -101 -54.5 -153t-135.5 -52z" />
    <glyph glyph-name="Udieresis" unicode="&#xdc;" horiz-adv-x="484" 
d="M386 776q0 -25 -18.5 -43t-44.5 -18q-25 0 -43 17.5t-18 43.5t18 44t43 18q26 0 44.5 -18.5t18.5 -43.5zM222 776q0 -26 -18 -43.5t-44 -17.5q-25 0 -43.5 18t-18.5 43t18.5 43.5t43.5 18.5q26 0 44 -18t18 -44zM242 -12q-81 0 -135.5 52t-54.5 153v474h126v-480
q0 -88 64 -88t64 88v480h126v-474q0 -101 -54.5 -153t-135.5 -52z" />
    <glyph glyph-name="Yacute" unicode="&#xdd;" horiz-adv-x="430" 
d="M278 0h-125v276l-157 391h134l85 -269l87 269h132l-156 -391v-276zM349 867l-106 -144h-72l79 144h99z" />
    <glyph glyph-name="Thorn" unicode="&#xde;" horiz-adv-x="441" 
d="M178 0h-126v667h126v-111h54q92 0 140 -60.5t48 -151.5q0 -90 -48 -150t-140 -60h-54v-134zM219 245q35 0 54 26.5t19 72.5q0 47 -19 74.5t-54 27.5h-41v-201h41z" />
    <glyph glyph-name="germandbls" unicode="&#xdf;" horiz-adv-x="517" 
d="M504 132q0 -57 -43 -100.5t-109 -43.5q-89 0 -147 63l40 79q41 -51 85 -51q23 0 38.5 14t15.5 37q0 21 -17.5 38.5t-42 32t-49 32t-42 48t-17.5 70.5q0 31 14.5 56.5t32 39.5t32 33.5t14.5 40.5q0 24 -19 40t-49 16q-35 0 -56 -21.5t-21 -65.5v-490h-112v490
q0 80 51.5 133.5t137.5 53.5q74 0 128 -42t54 -102q0 -36 -15 -64t-33.5 -42.5t-33.5 -32t-15 -34.5q0 -20 18.5 -35t44.5 -29t52 -31.5t44.5 -51.5t18.5 -81z" />
    <glyph glyph-name="agrave" unicode="&#xe0;" horiz-adv-x="415" 
d="M369 0h-113v46q-15 -27 -44 -42.5t-57 -15.5q-58 0 -94.5 44t-36.5 117q0 72 36.5 114.5t94.5 42.5q29 0 58 -14.5t43 -39.5v59q0 88 -73 88q-51 0 -98 -48l-42 80q31 33 75.5 48.5t87.5 15.5q77 0 120 -39.5t43 -118.5v-337zM195 64q19 0 35.5 13.5t25.5 36.5v65
q-9 23 -25.5 36.5t-35.5 13.5q-28 0 -43 -23t-15 -59t15 -59.5t43 -23.5zM251 556h-72l-106 144h98z" />
    <glyph glyph-name="aacute" unicode="&#xe1;" horiz-adv-x="415" 
d="M369 0h-113v46q-15 -27 -44 -42.5t-57 -15.5q-58 0 -94.5 44t-36.5 117q0 72 36.5 114.5t94.5 42.5q29 0 58 -14.5t43 -39.5v59q0 88 -73 88q-51 0 -98 -48l-42 80q31 33 75.5 48.5t87.5 15.5q77 0 120 -39.5t43 -118.5v-337zM195 64q19 0 35.5 13.5t25.5 36.5v65
q-9 23 -25.5 36.5t-35.5 13.5q-28 0 -43 -23t-15 -59t15 -59.5t43 -23.5zM340 700l-106 -144h-72l79 144h99z" />
    <glyph glyph-name="acircumflex" unicode="&#xe2;" horiz-adv-x="415" 
d="M369 0h-113v46q-15 -27 -44 -42.5t-57 -15.5q-58 0 -94.5 44t-36.5 117q0 72 36.5 114.5t94.5 42.5q29 0 58 -14.5t43 -39.5v59q0 88 -73 88q-51 0 -98 -48l-42 80q31 33 75.5 48.5t87.5 15.5q77 0 120 -39.5t43 -118.5v-337zM195 64q19 0 35.5 13.5t25.5 36.5v65
q-9 23 -25.5 36.5t-35.5 13.5q-28 0 -43 -23t-15 -59t15 -59.5t43 -23.5zM325 556h-62l-55 92l-50 -92h-63l63 144h102z" />
    <glyph glyph-name="atilde" unicode="&#xe3;" horiz-adv-x="415" 
d="M369 0h-113v46q-15 -27 -44 -42.5t-57 -15.5q-58 0 -94.5 44t-36.5 117q0 72 36.5 114.5t94.5 42.5q29 0 58 -14.5t43 -39.5v59q0 88 -73 88q-51 0 -98 -48l-42 80q31 33 75.5 48.5t87.5 15.5q77 0 120 -39.5t43 -118.5v-337zM195 64q19 0 35.5 13.5t25.5 36.5v65
q-9 23 -25.5 36.5t-35.5 13.5q-28 0 -43 -23t-15 -59t15 -59.5t43 -23.5zM251 554q-22 0 -38.5 18.5t-28 37t-21.5 18.5q-26 0 -26 -68h-57q0 60 22.5 97t62.5 37q18 0 32.5 -11.5t22 -25.5t16.5 -25.5t17 -11.5q26 0 26 68h57q0 -60 -22 -97t-63 -37z" />
    <glyph glyph-name="adieresis" unicode="&#xe4;" horiz-adv-x="415" 
d="M369 0h-113v46q-15 -27 -44 -42.5t-57 -15.5q-58 0 -94.5 44t-36.5 117q0 72 36.5 114.5t94.5 42.5q29 0 58 -14.5t43 -39.5v59q0 88 -73 88q-51 0 -98 -48l-42 80q31 33 75.5 48.5t87.5 15.5q77 0 120 -39.5t43 -118.5v-337zM195 64q19 0 35.5 13.5t25.5 36.5v65
q-9 23 -25.5 36.5t-35.5 13.5q-28 0 -43 -23t-15 -59t15 -59.5t43 -23.5zM353 609q0 -25 -18.5 -43t-44.5 -18t-43.5 18t-17.5 43q0 26 18 44t43 18q26 0 44.5 -18.5t18.5 -43.5zM189 609q0 -26 -18 -43.5t-44 -17.5q-25 0 -43.5 18t-18.5 43t18.5 43.5t43.5 18.5
q26 0 44 -18t18 -44z" />
    <glyph glyph-name="aring" unicode="&#xe5;" horiz-adv-x="415" 
d="M369 0h-113v46q-15 -27 -44 -42.5t-57 -15.5q-58 0 -94.5 44t-36.5 117q0 72 36.5 114.5t94.5 42.5q29 0 58 -14.5t43 -39.5v59q0 88 -73 88q-51 0 -98 -48l-42 80q31 33 75.5 48.5t87.5 15.5q77 0 120 -39.5t43 -118.5v-337zM195 64q19 0 35.5 13.5t25.5 36.5v65
q-9 23 -25.5 36.5t-35.5 13.5q-28 0 -43 -23t-15 -59t15 -59.5t43 -23.5zM208 536q-37 0 -63 26.5t-26 63.5q0 36 26 62t63 26t62.5 -26t25.5 -62q0 -38 -25.5 -64t-62.5 -26zM208 586q16 0 27.5 11.5t11.5 28.5q0 16 -11.5 27.5t-27.5 11.5t-27.5 -11.5t-11.5 -27.5
t11.5 -28t27.5 -12z" />
    <glyph glyph-name="ae" unicode="&#xe6;" horiz-adv-x="632" 
d="M609 204h-241q1 -57 24 -90.5t68 -33.5q44 0 79 48l55 -63q-60 -77 -147 -77q-48 0 -77 18.5t-54 56.5q-54 -75 -143 -75q-69 0 -109 42t-40 116q0 73 37 116.5t96 43.5q28 0 57.5 -14t45.5 -40v59q0 88 -75 88q-52 0 -100 -48l-42 80q30 32 74 48t82 16q87 0 118 -70
q44 70 123 70q84 0 126.5 -70t42.5 -183v-38zM368 284h132q0 119 -65 119q-37 0 -52 -35.5t-15 -83.5zM260 158v21q-23 50 -64 50q-28 0 -44.5 -21.5t-16.5 -55.5q0 -37 16.5 -57t44.5 -20q27 0 45.5 24.5t18.5 58.5z" />
    <glyph glyph-name="ccedilla" unicode="&#xe7;" horiz-adv-x="344" 
d="M210 -193q-46 0 -86 32l22 46q32 -27 61 -27q18 0 29.5 9.5t11.5 25.5q0 12 -6.5 19.5t-16.5 7.5q-15 0 -26 -13l-42 24l22 60q-72 13 -112 81t-40 170q0 113 49.5 183t134.5 70q74 0 117 -43l-36 -88q-30 31 -61 31q-42 0 -65 -43.5t-23 -109.5q0 -67 23 -110.5
t65 -43.5q31 0 61 31l36 -88q-33 -35 -93 -42l-16 -40q14 10 29 10q25 0 41.5 -19t16.5 -49q0 -38 -27 -61t-69 -23z" />
    <glyph glyph-name="egrave" unicode="&#xe8;" horiz-adv-x="404" 
d="M219 -12q-92 0 -142 70t-50 184q0 110 47 181.5t134 71.5t130 -69t43 -182v-39h-245q1 -56 25 -90.5t70 -34.5q45 0 80 48l55 -63q-60 -77 -147 -77zM272 284q0 119 -67 119q-37 0 -53 -36t-16 -83h136zM253 556h-72l-106 144h98z" />
    <glyph glyph-name="eacute" unicode="&#xe9;" horiz-adv-x="404" 
d="M342 700l-106 -144h-72l79 144h99zM219 -12q-92 0 -142 70t-50 184q0 110 47 181.5t134 71.5t130 -69t43 -182v-39h-245q1 -56 25 -90.5t70 -34.5q45 0 80 48l55 -63q-60 -77 -147 -77zM272 284q0 119 -67 119q-37 0 -53 -36t-16 -83h136z" />
    <glyph glyph-name="ecircumflex" unicode="&#xea;" horiz-adv-x="404" 
d="M323 556h-62l-55 92l-50 -92h-63l63 144h102zM219 -12q-92 0 -142 70t-50 184q0 110 47 181.5t134 71.5t130 -69t43 -182v-39h-245q1 -56 25 -90.5t70 -34.5q45 0 80 48l55 -63q-60 -77 -147 -77zM272 284q0 119 -67 119q-37 0 -53 -36t-16 -83h136z" />
    <glyph glyph-name="edieresis" unicode="&#xeb;" horiz-adv-x="404" 
d="M351 609q0 -25 -18.5 -43t-44.5 -18t-43.5 18t-17.5 43q0 26 18 44t43 18q26 0 44.5 -18.5t18.5 -43.5zM187 609q0 -26 -18 -43.5t-44 -17.5q-25 0 -43.5 18t-18.5 43t18.5 43.5t43.5 18.5q26 0 44 -18t18 -44zM219 -12q-92 0 -142 70t-50 184q0 110 47 181.5t134 71.5
t130 -69t43 -182v-39h-245q1 -56 25 -90.5t70 -34.5q45 0 80 48l55 -63q-60 -77 -147 -77zM272 284q0 119 -67 119q-37 0 -53 -36t-16 -83h136z" />
    <glyph glyph-name="igrave" unicode="&#xec;" horiz-adv-x="204" 
d="M159 0h-113v483h113v-483zM147 556h-72l-106 144h98z" />
    <glyph glyph-name="iacute" unicode="&#xed;" horiz-adv-x="204" 
d="M236 700l-106 -144h-72l79 144h99zM159 0h-113v483h113v-483z" />
    <glyph glyph-name="icircumflex" unicode="&#xee;" horiz-adv-x="204" 
d="M218 556h-62l-55 92l-50 -92h-63l63 144h102zM159 0h-113v483h113v-483z" />
    <glyph glyph-name="idieresis" unicode="&#xef;" horiz-adv-x="204" 
d="M246 609q0 -25 -18.5 -43t-44.5 -18q-25 0 -43 18t-18 43q0 26 18 44t43 18q26 0 44.5 -18.5t18.5 -43.5zM82 609q0 -26 -18 -43.5t-44 -17.5q-25 0 -43.5 18t-18.5 43t18.5 43.5t43.5 18.5q26 0 44 -18t18 -44zM159 0h-113v483h113v-483z" />
    <glyph glyph-name="eth" unicode="&#xf0;" horiz-adv-x="417" 
d="M136 498l-24 53l94 41q-14 30 -34 64l99 46q21 -37 35 -66l64 29l23 -52l-64 -29q61 -153 61 -314q0 -132 -45 -207t-137 -75q-89 0 -135 69t-46 171q0 101 39 169t110 68q65 0 93 -68q-13 71 -40 142zM208 88q65 0 65 139t-65 139q-64 0 -64 -139t64 -139z" />
    <glyph glyph-name="ntilde" unicode="&#xf1;" 
d="M375 0h-114v344q0 51 -37 51q-20 0 -38 -19t-27 -44v-332h-113v483h113v-63q15 30 48 52.5t65 22.5q103 0 103 -110v-385zM254 554q-22 0 -38.5 18.5t-28 37t-21.5 18.5q-26 0 -26 -68h-57q0 60 22.5 97t62.5 37q18 0 32.5 -11.5t22 -25.5t16.5 -25.5t17 -11.5
q26 0 26 68h57q0 -60 -22 -97t-63 -37z" />
    <glyph glyph-name="ograve" unicode="&#xf2;" horiz-adv-x="417" 
d="M208 -12q-89 0 -135 72.5t-46 181.5t46 181t135 72q90 0 136 -72t46 -181t-46 -181.5t-136 -72.5zM208 88q65 0 65 154q0 153 -65 153q-64 0 -64 -153q0 -154 64 -154zM253 556h-72l-106 144h98z" />
    <glyph glyph-name="oacute" unicode="&#xf3;" horiz-adv-x="417" 
d="M342 700l-106 -144h-72l79 144h99zM208 -12q-89 0 -135 72.5t-46 181.5t46 181t135 72q90 0 136 -72t46 -181t-46 -181.5t-136 -72.5zM208 88q65 0 65 154q0 153 -65 153q-64 0 -64 -153q0 -154 64 -154z" />
    <glyph glyph-name="ocircumflex" unicode="&#xf4;" horiz-adv-x="417" 
d="M324 556h-62l-55 92l-50 -92h-63l63 144h102zM208 -12q-89 0 -135 72.5t-46 181.5t46 181t135 72q90 0 136 -72t46 -181t-46 -181.5t-136 -72.5zM208 88q65 0 65 154q0 153 -65 153q-64 0 -64 -153q0 -154 64 -154z" />
    <glyph glyph-name="otilde" unicode="&#xf5;" horiz-adv-x="417" 
d="M208 -12q-89 0 -135 72.5t-46 181.5t46 181t135 72q90 0 136 -72t46 -181t-46 -181.5t-136 -72.5zM208 88q65 0 65 154q0 153 -65 153q-64 0 -64 -153q0 -154 64 -154zM252 554q-22 0 -38.5 18.5t-28 37t-21.5 18.5q-26 0 -26 -68h-57q0 60 22.5 97t62.5 37
q18 0 32.5 -11.5t22 -25.5t16.5 -25.5t17 -11.5q26 0 26 68h57q0 -60 -22 -97t-63 -37z" />
    <glyph glyph-name="odieresis" unicode="&#xf6;" horiz-adv-x="417" 
d="M353 609q0 -25 -18.5 -43t-44.5 -18t-43.5 18t-17.5 43q0 26 18 44t43 18q26 0 44.5 -18.5t18.5 -43.5zM189 609q0 -26 -18 -43.5t-44 -17.5q-25 0 -43.5 18t-18.5 43t18.5 43.5t43.5 18.5q26 0 44 -18t18 -44zM208 -12q-89 0 -135 72.5t-46 181.5t46 181t135 72
q90 0 136 -72t46 -181t-46 -181.5t-136 -72.5zM208 88q65 0 65 154q0 153 -65 153q-64 0 -64 -153q0 -154 64 -154z" />
    <glyph glyph-name="divide" unicode="&#xf7;" horiz-adv-x="374" 
d="M244 482q0 -23 -16.5 -40.5t-39.5 -17.5t-40 17.5t-17 40.5t17 39.5t40 16.5t39.5 -16.5t16.5 -39.5zM345 302h-316v71h316v-71zM244 191q0 -24 -16.5 -40.5t-39.5 -16.5t-40 16.5t-17 40.5q0 23 17 40t40 17t39.5 -17t16.5 -40z" />
    <glyph glyph-name="oslash" unicode="&#xf8;" horiz-adv-x="417" 
d="M97 0h-63l37 63q-44 69 -44 179q0 109 46 181t135 72q58 0 99 -33l13 21h63l-38 -63q45 -71 45 -178q0 -109 -46 -181.5t-136 -72.5q-57 0 -99 32zM144 242q0 -20 2 -52l105 177q-16 28 -43 28q-64 0 -64 -153zM208 88q65 0 65 154q0 27 -3 51l-105 -178q16 -27 43 -27z
" />
    <glyph glyph-name="ugrave" unicode="&#xf9;" 
d="M375 0h-114v61q-15 -30 -47 -51.5t-66 -21.5q-102 0 -102 109v386h113v-346q0 -49 37 -49q21 0 38.5 18t26.5 43v334h114v-483zM255 556h-72l-106 144h98z" />
    <glyph glyph-name="uacute" unicode="&#xfa;" 
d="M344 700l-106 -144h-72l79 144h99zM375 0h-114v61q-15 -30 -47 -51.5t-66 -21.5q-102 0 -102 109v386h113v-346q0 -49 37 -49q21 0 38.5 18t26.5 43v334h114v-483z" />
    <glyph glyph-name="ucircumflex" unicode="&#xfb;" 
d="M326 556h-62l-55 92l-50 -92h-63l63 144h102zM375 0h-114v61q-15 -30 -47 -51.5t-66 -21.5q-102 0 -102 109v386h113v-346q0 -49 37 -49q21 0 38.5 18t26.5 43v334h114v-483z" />
    <glyph glyph-name="udieresis" unicode="&#xfc;" 
d="M355 609q0 -25 -18.5 -43t-44.5 -18t-43.5 18t-17.5 43q0 26 18 44t43 18q26 0 44.5 -18.5t18.5 -43.5zM191 609q0 -26 -18 -43.5t-44 -17.5q-25 0 -43.5 18t-18.5 43t18.5 43.5t43.5 18.5q26 0 44 -18t18 -44zM375 0h-114v61q-15 -30 -47 -51.5t-66 -21.5
q-102 0 -102 109v386h113v-346q0 -49 37 -49q21 0 38.5 18t26.5 43v334h114v-483z" />
    <glyph glyph-name="yacute" unicode="&#xfd;" horiz-adv-x="380" 
d="M40 -189l16 98q12 -5 23 -5q30 0 40 34l14 50l-131 495h120l68 -340l70 340h119l-152 -568q-17 -64 -47.5 -87.5t-85.5 -23.5q-35 0 -54 7zM323 700l-106 -144h-72l79 144h99z" />
    <glyph glyph-name="thorn" unicode="&#xfe;" horiz-adv-x="423" 
d="M253 -12q-29 0 -54.5 17t-39.5 53v-242h-113v851h113v-241q31 69 94 69q70 0 106.5 -67t36.5 -186q0 -117 -36.5 -185.5t-106.5 -68.5zM216 88q64 0 64 154q0 153 -64 153q-18 0 -33.5 -16t-23.5 -41v-192q8 -25 23.5 -41.5t33.5 -16.5z" />
    <glyph glyph-name="ydieresis" unicode="&#xff;" horiz-adv-x="380" 
d="M40 -189l16 98q12 -5 23 -5q30 0 40 34l14 50l-131 495h120l68 -340l70 340h119l-152 -568q-17 -64 -47.5 -87.5t-85.5 -23.5q-35 0 -54 7zM338 609q0 -25 -18.5 -43t-44.5 -18q-25 0 -43 18t-18 43q0 26 18 44t43 18q26 0 44.5 -18.5t18.5 -43.5zM174 609
q0 -26 -18 -43.5t-44 -17.5q-25 0 -43.5 18t-18.5 43t18.5 43.5t43.5 18.5q26 0 44 -18t18 -44z" />
    <glyph glyph-name="Amacron" unicode="&#x100;" horiz-adv-x="424" 
d="M424 0h-130l-20 123h-124l-20 -123h-130l139 667h145zM260 234l-48 292l-48 -292h96zM341 731h-258v66h258v-66z" />
    <glyph glyph-name="amacron" unicode="&#x101;" horiz-adv-x="415" 
d="M369 0h-113v46q-15 -27 -44 -42.5t-57 -15.5q-58 0 -94.5 44t-36.5 117q0 72 36.5 114.5t94.5 42.5q29 0 58 -14.5t43 -39.5v59q0 88 -73 88q-51 0 -98 -48l-42 80q31 33 75.5 48.5t87.5 15.5q77 0 120 -39.5t43 -118.5v-337zM195 64q19 0 35.5 13.5t25.5 36.5v65
q-9 23 -25.5 36.5t-35.5 13.5q-28 0 -43 -23t-15 -59t15 -59.5t43 -23.5zM336 564h-258v66h258v-66z" />
    <glyph glyph-name="Abreve" unicode="&#x102;" horiz-adv-x="424" 
d="M424 0h-130l-20 123h-124l-20 -123h-130l139 667h145zM260 234l-48 292l-48 -292h96zM336 775q-45 -63 -124 -63q-77 0 -124 63l53 40q24 -37 71 -37t71 37z" />
    <glyph glyph-name="abreve" unicode="&#x103;" horiz-adv-x="415" 
d="M369 0h-113v46q-15 -27 -44 -42.5t-57 -15.5q-58 0 -94.5 44t-36.5 117q0 72 36.5 114.5t94.5 42.5q29 0 58 -14.5t43 -39.5v59q0 88 -73 88q-51 0 -98 -48l-42 80q31 33 75.5 48.5t87.5 15.5q77 0 120 -39.5t43 -118.5v-337zM195 64q19 0 35.5 13.5t25.5 36.5v65
q-9 23 -25.5 36.5t-35.5 13.5q-28 0 -43 -23t-15 -59t15 -59.5t43 -23.5zM331 608q-45 -63 -124 -63q-77 0 -124 63l53 40q24 -37 71 -37t71 37z" />
    <glyph glyph-name="Aogonek" unicode="&#x104;" horiz-adv-x="424" 
d="M417 -108l47 -25q-21 -53 -74 -53q-37 0 -59 21t-22 61q0 57 43 104h-58l-20 123h-124l-20 -123h-130l139 667h145l140 -667q-57 -41 -57 -100q0 -37 24 -37q20 0 26 29zM260 234l-48 292l-48 -292h96z" />
    <glyph glyph-name="aogonek" unicode="&#x105;" horiz-adv-x="415" 
d="M362 -108l47 -25q-21 -53 -74 -53q-37 0 -59 21t-22 61q0 57 43 104h-41v46q-15 -27 -44 -42.5t-57 -15.5q-58 0 -94.5 44t-36.5 117q0 72 36.5 114.5t94.5 42.5q29 0 58 -14.5t43 -39.5v59q0 88 -73 88q-51 0 -98 -48l-42 80q31 33 75.5 48.5t87.5 15.5q77 0 120 -39.5
t43 -118.5v-337q-57 -41 -57 -100q0 -37 24 -37q20 0 26 29zM195 64q19 0 35.5 13.5t25.5 36.5v65q-9 23 -25.5 36.5t-35.5 13.5q-28 0 -43 -23t-15 -59t15 -59.5t43 -23.5z" />
    <glyph glyph-name="Cacute" unicode="&#x106;" horiz-adv-x="429" 
d="M373 867l-106 -144h-72l79 144h99zM240 -12q-105 0 -157 94t-52 251t52 251t157 94q38 0 68 -13.5t49 -39t30 -49.5t20 -55l-100 -37q-12 42 -26.5 62t-40.5 20q-80 0 -80 -233t80 -233q52 0 68 97l101 -37q-43 -172 -169 -172z" />
    <glyph glyph-name="cacute" unicode="&#x107;" horiz-adv-x="344" 
d="M345 700l-106 -144h-72l79 144h99zM211 -12q-85 0 -134.5 70.5t-49.5 183.5t49.5 183t134.5 70q74 0 117 -43l-36 -88q-30 31 -61 31q-42 0 -65 -43.5t-23 -109.5q0 -67 23 -110.5t65 -43.5q31 0 61 31l36 -88q-40 -43 -117 -43z" />
    <glyph glyph-name="Ccircumflex" unicode="&#x108;" horiz-adv-x="429" 
d="M355 723h-62l-55 92l-50 -92h-63l63 144h102zM240 -12q-105 0 -157 94t-52 251t52 251t157 94q38 0 68 -13.5t49 -39t30 -49.5t20 -55l-100 -37q-12 42 -26.5 62t-40.5 20q-80 0 -80 -233t80 -233q52 0 68 97l101 -37q-43 -172 -169 -172z" />
    <glyph glyph-name="ccircumflex" unicode="&#x109;" horiz-adv-x="344" 
d="M328 556h-62l-55 92l-50 -92h-63l63 144h102zM211 -12q-85 0 -134.5 70.5t-49.5 183.5t49.5 183t134.5 70q74 0 117 -43l-36 -88q-30 31 -61 31q-42 0 -65 -43.5t-23 -109.5q0 -67 23 -110.5t65 -43.5q31 0 61 31l36 -88q-40 -43 -117 -43z" />
    <glyph glyph-name="Cdotaccent" unicode="&#x10a;" horiz-adv-x="429" 
d="M240 -12q-105 0 -157 94t-52 251t52 251t157 94q38 0 68 -13.5t49 -39t30 -49.5t20 -55l-100 -37q-12 42 -26.5 62t-40.5 20q-80 0 -80 -233t80 -233q52 0 68 97l101 -37q-43 -172 -169 -172zM238 714q-25 0 -43 18t-18 43t18 43.5t43 18.5q26 0 44 -18t18 -44t-18 -43.5
t-44 -17.5z" />
    <glyph glyph-name="cdotaccent" unicode="&#x10b;" horiz-adv-x="344" 
d="M211 -12q-85 0 -134.5 70.5t-49.5 183.5t49.5 183t134.5 70q74 0 117 -43l-36 -88q-30 31 -61 31q-42 0 -65 -43.5t-23 -109.5q0 -67 23 -110.5t65 -43.5q31 0 61 31l36 -88q-40 -43 -117 -43zM212 547q-25 0 -43 18t-18 43t18 43.5t43 18.5q26 0 44 -18t18 -44
t-18 -43.5t-44 -17.5z" />
    <glyph glyph-name="Ccaron" unicode="&#x10c;" horiz-adv-x="429" 
d="M293 723h-102l-66 144h63l53 -92l52 92h62zM240 -12q-105 0 -157 94t-52 251t52 251t157 94q38 0 68 -13.5t49 -39t30 -49.5t20 -55l-100 -37q-12 42 -26.5 62t-40.5 20q-80 0 -80 -233t80 -233q52 0 68 97l101 -37q-43 -172 -169 -172z" />
    <glyph glyph-name="ccaron" unicode="&#x10d;" horiz-adv-x="344" 
d="M266 556h-102l-66 144h63l53 -92l52 92h62zM211 -12q-85 0 -134.5 70.5t-49.5 183.5t49.5 183t134.5 70q74 0 117 -43l-36 -88q-30 31 -61 31q-42 0 -65 -43.5t-23 -109.5q0 -67 23 -110.5t65 -43.5q31 0 61 31l36 -88q-40 -43 -117 -43z" />
    <glyph glyph-name="Dcaron" unicode="&#x10e;" horiz-adv-x="476" 
d="M288 723h-102l-66 144h63l53 -92l52 92h62zM219 0h-167v667h166q115 0 171 -91t56 -243q0 -153 -55.5 -243t-170.5 -90zM218 111q98 0 98 222q0 223 -98 223h-40v-445h40z" />
    <glyph glyph-name="dcaron" unicode="&#x10f;" horiz-adv-x="536" 
d="M541 602q0 -43 -21.5 -81.5t-57.5 -64.5l-41 33q21 13 39.5 36.5t22.5 44.5q-1 0 -6 -0.5t-8 -0.5q-21 0 -35.5 14.5t-14.5 37.5q0 24 17 41t40 17q27 0 46 -21t19 -56zM377 0h-113v60q-15 -34 -41 -53t-53 -19q-70 0 -106.5 67t-36.5 186q0 117 36.5 185.5t106.5 68.5
q28 0 54 -18.5t40 -53.5v244h113v-667zM207 88q18 0 33.5 16.5t23.5 41.5v191q-8 25 -23.5 41.5t-33.5 16.5q-64 0 -64 -154q0 -153 64 -153z" />
    <glyph glyph-name="Dcroat" unicode="&#x110;" horiz-adv-x="498" 
d="M242 0h-167v282h-59v93h59v292h166q115 0 171 -91t56 -243q0 -153 -55.5 -243t-170.5 -90zM241 111q98 0 98 222q0 223 -98 223h-40v-181h68v-93h-68v-171h40z" />
    <glyph glyph-name="dcroat" unicode="&#x111;" horiz-adv-x="431" 
d="M377 0h-113v60q-15 -34 -41 -53t-53 -19q-70 0 -106.5 67t-36.5 186q0 117 36.5 185.5t106.5 68.5q28 0 54 -18.5t40 -53.5v107h-119v66h119v71h113v-71h37v-66h-37v-530zM207 88q18 0 33.5 16.5t23.5 41.5v191q-8 25 -23.5 41.5t-33.5 16.5q-64 0 -64 -154
q0 -153 64 -153z" />
    <glyph glyph-name="Emacron" unicode="&#x112;" horiz-adv-x="378" 
d="M344 0h-292v667h292v-111h-166v-161h159v-111h-159v-173h166v-111zM327 731h-258v66h258v-66z" />
    <glyph glyph-name="emacron" unicode="&#x113;" horiz-adv-x="404" 
d="M219 -12q-92 0 -142 70t-50 184q0 110 47 181.5t134 71.5t130 -69t43 -182v-39h-245q1 -56 25 -90.5t70 -34.5q45 0 80 48l55 -63q-60 -77 -147 -77zM272 284q0 119 -67 119q-37 0 -53 -36t-16 -83h136zM335 564h-258v66h258v-66z" />
    <glyph glyph-name="Ebreve" unicode="&#x114;" horiz-adv-x="378" 
d="M344 0h-292v667h292v-111h-166v-161h159v-111h-159v-173h166v-111zM322 775q-45 -63 -124 -63q-77 0 -124 63l53 40q24 -37 71 -37t71 37z" />
    <glyph glyph-name="ebreve" unicode="&#x115;" horiz-adv-x="404" 
d="M219 -12q-92 0 -142 70t-50 184q0 110 47 181.5t134 71.5t130 -69t43 -182v-39h-245q1 -56 25 -90.5t70 -34.5q45 0 80 48l55 -63q-60 -77 -147 -77zM272 284q0 119 -67 119q-37 0 -53 -36t-16 -83h136zM332 608q-45 -63 -124 -63q-77 0 -124 63l53 40q24 -37 71 -37
t71 37z" />
    <glyph glyph-name="Edotaccent" unicode="&#x116;" horiz-adv-x="378" 
d="M344 0h-292v667h292v-111h-166v-161h159v-111h-159v-173h166v-111zM203 714q-25 0 -43 18t-18 43t18 43.5t43 18.5q26 0 44 -18t18 -44t-18 -43.5t-44 -17.5z" />
    <glyph glyph-name="edotaccent" unicode="&#x117;" horiz-adv-x="404" 
d="M219 -12q-92 0 -142 70t-50 184q0 110 47 181.5t134 71.5t130 -69t43 -182v-39h-245q1 -56 25 -90.5t70 -34.5q45 0 80 48l55 -63q-60 -77 -147 -77zM272 284q0 119 -67 119q-37 0 -53 -36t-16 -83h136zM208 547q-25 0 -43 18t-18 43t18 43.5t43 18.5q26 0 44 -18t18 -44
t-18 -43.5t-44 -17.5z" />
    <glyph glyph-name="Eogonek" unicode="&#x118;" horiz-adv-x="378" 
d="M344 0q-57 -41 -57 -100q0 -37 24 -37q20 0 26 29l47 -25q-21 -53 -74 -53q-37 0 -59 21t-22 61q0 57 43 104h-220v667h292v-111h-166v-161h159v-111h-159v-173h166v-111z" />
    <glyph glyph-name="eogonek" unicode="&#x119;" horiz-adv-x="404" 
d="M274 -108l47 -25q-21 -53 -74 -53q-37 0 -59 21t-22 61q0 50 34 93q-83 7 -128 75.5t-45 177.5q0 110 47 181.5t134 71.5t130 -69t43 -182v-39h-245q1 -56 25 -90.5t70 -34.5q45 0 80 48l55 -63q-38 -47 -85 -65q-57 -41 -57 -100q0 -37 24 -37q20 0 26 29zM272 284
q0 119 -67 119q-37 0 -53 -36t-16 -83h136z" />
    <glyph glyph-name="Ecaron" unicode="&#x11a;" horiz-adv-x="378" 
d="M249 723h-102l-66 144h63l53 -92l52 92h62zM344 0h-292v667h292v-111h-166v-161h159v-111h-159v-173h166v-111z" />
    <glyph glyph-name="ecaron" unicode="&#x11b;" horiz-adv-x="404" 
d="M262 556h-102l-66 144h63l53 -92l52 92h62zM219 -12q-92 0 -142 70t-50 184q0 110 47 181.5t134 71.5t130 -69t43 -182v-39h-245q1 -56 25 -90.5t70 -34.5q45 0 80 48l55 -63q-60 -77 -147 -77zM272 284q0 119 -67 119q-37 0 -53 -36t-16 -83h136z" />
    <glyph glyph-name="Gcircumflex" unicode="&#x11c;" horiz-adv-x="453" 
d="M355 723h-62l-55 92l-50 -92h-63l63 144h102zM240 -12q-104 0 -156.5 93t-52.5 252q0 160 52.5 252.5t156.5 92.5q66 0 107.5 -43.5t59.5 -113.5l-100 -37q-20 82 -67 82q-80 0 -80 -233t80 -233q39 0 60 30v121h-75v111h186v-286q-69 -88 -171 -88z" />
    <glyph glyph-name="gcircumflex" unicode="&#x11d;" horiz-adv-x="423" 
d="M327 556h-62l-55 92l-50 -92h-63l63 144h102zM194 -196q-94 0 -149 52l38 92q46 -46 99 -46q82 0 82 106v70q-15 -35 -41 -54.5t-53 -19.5q-70 0 -106.5 63.5t-36.5 181.5q0 116 36.5 181t106.5 65q28 0 54 -18.5t40 -53.5v60h113v-467q0 -115 -51 -163.5t-132 -48.5z
M207 104q18 0 33.5 16.5t23.5 41.5v175q-8 25 -23.5 41.5t-33.5 16.5q-64 0 -64 -146q0 -145 64 -145z" />
    <glyph glyph-name="Gbreve" unicode="&#x11e;" horiz-adv-x="453" 
d="M240 -12q-104 0 -156.5 93t-52.5 252q0 160 52.5 252.5t156.5 92.5q66 0 107.5 -43.5t59.5 -113.5l-100 -37q-20 82 -67 82q-80 0 -80 -233t80 -233q39 0 60 30v121h-75v111h186v-286q-69 -88 -171 -88zM365 775q-45 -63 -124 -63q-77 0 -124 63l53 40q24 -37 71 -37
t71 37z" />
    <glyph glyph-name="gbreve" unicode="&#x11f;" horiz-adv-x="423" 
d="M194 -196q-94 0 -149 52l38 92q46 -46 99 -46q82 0 82 106v70q-15 -35 -41 -54.5t-53 -19.5q-70 0 -106.5 63.5t-36.5 181.5q0 116 36.5 181t106.5 65q28 0 54 -18.5t40 -53.5v60h113v-467q0 -115 -51 -163.5t-132 -48.5zM207 104q18 0 33.5 16.5t23.5 41.5v175
q-8 25 -23.5 41.5t-33.5 16.5q-64 0 -64 -146q0 -145 64 -145zM334 608q-45 -63 -124 -63q-77 0 -124 63l53 40q24 -37 71 -37t71 37z" />
    <glyph glyph-name="Gdotaccent" unicode="&#x120;" horiz-adv-x="453" 
d="M240 -12q-104 0 -156.5 93t-52.5 252q0 160 52.5 252.5t156.5 92.5q66 0 107.5 -43.5t59.5 -113.5l-100 -37q-20 82 -67 82q-80 0 -80 -233t80 -233q39 0 60 30v121h-75v111h186v-286q-69 -88 -171 -88zM240 714q-25 0 -43 18t-18 43t18 43.5t43 18.5q26 0 44 -18t18 -44
t-18 -43.5t-44 -17.5z" />
    <glyph glyph-name="gdotaccent" unicode="&#x121;" horiz-adv-x="423" 
d="M194 -196q-94 0 -149 52l38 92q46 -46 99 -46q82 0 82 106v70q-15 -35 -41 -54.5t-53 -19.5q-70 0 -106.5 63.5t-36.5 181.5q0 116 36.5 181t106.5 65q28 0 54 -18.5t40 -53.5v60h113v-467q0 -115 -51 -163.5t-132 -48.5zM207 104q18 0 33.5 16.5t23.5 41.5v175
q-8 25 -23.5 41.5t-33.5 16.5q-64 0 -64 -146q0 -145 64 -145zM213 547q-25 0 -43 18t-18 43t18 43.5t43 18.5q26 0 44 -18t18 -44t-18 -43.5t-44 -17.5z" />
    <glyph glyph-name="Gcommaaccent" unicode="&#x122;" horiz-adv-x="453" 
d="M296 -138q0 -43 -21.5 -81.5t-57.5 -64.5l-41 33q21 13 39.5 36.5t22.5 44.5q-1 0 -6 -0.5t-8 -0.5q-21 0 -35.5 14.5t-14.5 37.5q0 24 17 41t40 17q27 0 46 -21t19 -56zM240 -12q-104 0 -156.5 93t-52.5 252q0 160 52.5 252.5t156.5 92.5q66 0 107.5 -43.5t59.5 -113.5
l-100 -37q-20 82 -67 82q-80 0 -80 -233t80 -233q39 0 60 30v121h-75v111h186v-286q-69 -88 -171 -88z" />
    <glyph glyph-name="gcommaaccent" unicode="&#x123;" horiz-adv-x="423" 
d="M150 611q0 47 20.5 87t56.5 65l41 -33q-20 -11 -39 -34t-22 -43q3 1 6 1q22 0 39 -16.5t17 -39.5q0 -24 -17 -41t-42 -17q-23 0 -41.5 17t-18.5 54zM194 -196q-94 0 -149 52l38 92q46 -46 99 -46q82 0 82 106v70q-15 -35 -41 -54.5t-53 -19.5q-70 0 -106.5 63.5
t-36.5 181.5q0 116 36.5 181t106.5 65q28 0 54 -18.5t40 -53.5v60h113v-467q0 -115 -51 -163.5t-132 -48.5zM207 104q18 0 33.5 16.5t23.5 41.5v175q-8 25 -23.5 41.5t-33.5 16.5q-64 0 -64 -146q0 -145 64 -145z" />
    <glyph glyph-name="Hcircumflex" unicode="&#x124;" horiz-adv-x="484" 
d="M357 723h-62l-55 92l-50 -92h-63l63 144h102zM432 0h-126v288h-128v-288h-126v667h126v-269h128v269h126v-667z" />
    <glyph glyph-name="hcircumflex" unicode="&#x125;" 
d="M325 723h-62l-55 92l-50 -92h-63l63 144h102zM375 0h-114v346q0 49 -37 49q-20 0 -38 -19t-27 -44v-332h-113v667h113v-247q15 30 48 52.5t65 22.5q103 0 103 -109v-386z" />
    <glyph glyph-name="Hbar" unicode="&#x126;" horiz-adv-x="515" 
d="M448 0h-126v288h-128v-288h-126v501h-52v66h52v100h126v-100h128v100h126v-100h47v-66h-47v-501zM194 398h128v103h-128v-103z" />
    <glyph glyph-name="hbar" unicode="&#x127;" horiz-adv-x="432" 
d="M285 530h-114v-110q15 30 48 52.5t65 22.5q103 0 103 -109v-386h-114v346q0 49 -37 49q-20 0 -38 -19t-27 -44v-332h-113v530h-42v66h42v71h113v-71h114v-66z" />
    <glyph glyph-name="Itilde" unicode="&#x128;" horiz-adv-x="230" 
d="M178 0h-126v667h126v-667zM160 721q-22 0 -38.5 18.5t-28 37t-21.5 18.5q-26 0 -26 -68h-57q0 60 22.5 97t62.5 37q18 0 32.5 -11.5t22 -25.5t16.5 -25.5t17 -11.5q26 0 26 68h57q0 -60 -22 -97t-63 -37z" />
    <glyph glyph-name="itilde" unicode="&#x129;" horiz-adv-x="204" 
d="M159 0h-113v483h113v-483zM146 554q-22 0 -38.5 18.5t-28 37t-21.5 18.5q-26 0 -26 -68h-57q0 60 22.5 97t62.5 37q18 0 32.5 -11.5t22 -25.5t16.5 -25.5t17 -11.5q26 0 26 68h57q0 -60 -22 -97t-63 -37z" />
    <glyph glyph-name="Imacron" unicode="&#x12a;" horiz-adv-x="230" 
d="M178 0h-126v667h126v-667zM244 731h-258v66h258v-66z" />
    <glyph glyph-name="imacron" unicode="&#x12b;" horiz-adv-x="204" 
d="M159 0h-113v483h113v-483zM231 564h-258v66h258v-66z" />
    <glyph glyph-name="Ibreve" unicode="&#x12c;" horiz-adv-x="230" 
d="M178 0h-126v667h126v-667zM239 775q-45 -63 -124 -63q-77 0 -124 63l53 40q24 -37 71 -37t71 37z" />
    <glyph glyph-name="ibreve" unicode="&#x12d;" horiz-adv-x="204" 
d="M159 0h-113v483h113v-483zM226 608q-45 -63 -124 -63q-77 0 -124 63l53 40q24 -37 71 -37t71 37z" />
    <glyph glyph-name="Iogonek" unicode="&#x12e;" horiz-adv-x="230" 
d="M171 -108l47 -25q-21 -53 -74 -53q-37 0 -59 21t-22 61q0 57 43 104h-54v667h126v-667q-57 -41 -57 -100q0 -37 24 -37q20 0 26 29z" />
    <glyph glyph-name="iogonek" unicode="&#x12f;" horiz-adv-x="204" 
d="M152 -108l47 -25q-21 -53 -74 -53q-37 0 -59 21t-22 61q0 57 43 104h-41v483h113v-483q-57 -41 -57 -100q0 -37 24 -37q20 0 26 29zM102 540q-28 0 -48.5 20t-20.5 48t20.5 48.5t48.5 20.5t48.5 -20.5t20.5 -48.5t-20 -48t-49 -20z" />
    <glyph glyph-name="Idotaccent" unicode="&#x130;" horiz-adv-x="230" 
d="M178 0h-126v667h126v-667zM115 714q-25 0 -43 18t-18 43t18 43.5t43 18.5q26 0 44 -18t18 -44t-18 -43.5t-44 -17.5z" />
    <glyph glyph-name="dotlessi" unicode="&#x131;" horiz-adv-x="204" 
d="M159 0h-113v483h113v-483z" />
    <glyph glyph-name="IJ" unicode="&#x132;" horiz-adv-x="578" 
d="M178 0h-126v667h126v-667zM347 -12q-66 0 -109 36l34 103q24 -27 61 -27q69 0 69 73v494h126v-500q0 -90 -48.5 -134.5t-132.5 -44.5z" />
    <glyph glyph-name="ij" unicode="&#x133;" horiz-adv-x="408" 
d="M102 540q-28 0 -48.5 20t-20.5 48t20.5 48.5t48.5 20.5t48.5 -20.5t20.5 -48.5t-20 -48t-49 -20zM159 0h-113v483h113v-483zM306 540q-28 0 -48.5 20t-20.5 48t20.5 48.5t48.5 20.5t48.5 -20.5t20.5 -48.5t-20 -48t-49 -20zM230 -196q-42 0 -64 24l26 87q8 -13 25 -13
q33 0 33 56v525h113v-525q0 -78 -32.5 -116t-100.5 -38z" />
    <glyph glyph-name="Jcircumflex" unicode="&#x134;" horiz-adv-x="348" 
d="M350 723h-62l-55 92l-50 -92h-63l63 144h102zM117 -12q-66 0 -109 36l34 103q24 -27 61 -27q69 0 69 73v494h126v-500q0 -90 -48.5 -134.5t-132.5 -44.5z" />
    <glyph glyph-name="jcircumflex" unicode="&#x135;" horiz-adv-x="204" 
d="M219 556h-62l-55 92l-50 -92h-63l63 144h102zM22 -196q-39 0 -60 24l26 89q8 -13 25 -13q33 0 33 54v525h113v-525q0 -78 -32.5 -116t-104.5 -38z" />
    <glyph glyph-name="Kcommaaccent" unicode="&#x136;" horiz-adv-x="471" 
d="M303 -138q0 -43 -21.5 -81.5t-57.5 -64.5l-41 33q21 13 39.5 36.5t22.5 44.5q-1 0 -6 -0.5t-8 -0.5q-21 0 -35.5 14.5t-14.5 37.5q0 24 17 41t40 17q27 0 46 -21t19 -56zM468 0h-143l-105 254l-42 -84v-170h-126v667h126v-308l140 308h138l-163 -314z" />
    <glyph glyph-name="kcommaaccent" unicode="&#x137;" horiz-adv-x="403" 
d="M269 -138q0 -43 -21.5 -81.5t-57.5 -64.5l-41 33q21 13 39.5 36.5t22.5 44.5q-1 0 -6 -0.5t-8 -0.5q-21 0 -35.5 14.5t-14.5 37.5q0 24 17 41t40 17q27 0 46 -21t19 -56zM398 0h-124l-71 193l-44 -80v-113h-113v667h113v-407l111 223h123l-115 -214z" />
    <glyph glyph-name="kgreenlandic" unicode="&#x138;" horiz-adv-x="403" 
d="M398 0h-124l-71 193l-44 -80v-113h-113v483h113v-223l111 223h123l-115 -214z" />
    <glyph glyph-name="Lacute" unicode="&#x139;" horiz-adv-x="365" 
d="M332 867l-106 -144h-72l79 144h99zM344 0h-292v667h126v-556h166v-111z" />
    <glyph glyph-name="lacute" unicode="&#x13a;" horiz-adv-x="204" 
d="M236 867l-106 -144h-72l79 144h99zM159 0h-113v667h113v-667z" />
    <glyph glyph-name="Lcommaaccent" unicode="&#x13b;" horiz-adv-x="365" 
d="M249 -138q0 -43 -21.5 -81.5t-57.5 -64.5l-41 33q21 13 39.5 36.5t22.5 44.5q-1 0 -6 -0.5t-8 -0.5q-21 0 -35.5 14.5t-14.5 37.5q0 24 17 41t40 17q27 0 46 -21t19 -56zM344 0h-292v667h126v-556h166v-111z" />
    <glyph glyph-name="lcommaaccent" unicode="&#x13c;" horiz-adv-x="204" 
d="M169 -138q0 -43 -21.5 -81.5t-57.5 -64.5l-41 33q21 13 39.5 36.5t22.5 44.5q-1 0 -6 -0.5t-8 -0.5q-21 0 -35.5 14.5t-14.5 37.5q0 24 17 41t40 17q27 0 46 -21t19 -56zM159 0h-113v667h113v-667z" />
    <glyph glyph-name="Lcaron" unicode="&#x13d;" horiz-adv-x="365" 
d="M348 603q0 -43 -21.5 -81.5t-57.5 -64.5l-41 33q21 13 39.5 36.5t22.5 44.5q-1 0 -6 -0.5t-8 -0.5q-21 0 -35.5 14.5t-14.5 37.5q0 24 17 41t40 17q27 0 46 -21t19 -56zM344 0h-292v667h126v-556h166v-111z" />
    <glyph glyph-name="lcaron" unicode="&#x13e;" horiz-adv-x="316" 
d="M335 603q0 -43 -21.5 -81.5t-57.5 -64.5l-41 33q21 13 39.5 36.5t22.5 44.5q-1 0 -6 -0.5t-8 -0.5q-21 0 -35.5 14.5t-14.5 37.5q0 24 17 41t40 17q27 0 46 -21t19 -56zM159 0h-113v667h113v-667z" />
    <glyph glyph-name="Ldot" unicode="&#x13f;" horiz-adv-x="429" 
d="M344 0h-292v667h126v-556h166v-111zM404 342q0 -30 -22 -52.5t-52 -22.5t-52 22.5t-22 52.5q0 29 22 51.5t52 22.5t52 -22t22 -52z" />
    <glyph glyph-name="ldot" unicode="&#x140;" horiz-adv-x="357" 
d="M159 0h-113v667h113v-667zM354 245q0 -30 -22 -52.5t-52 -22.5t-52 22.5t-22 52.5q0 29 22 51.5t52 22.5t52 -22t22 -52z" />
    <glyph glyph-name="Lslash" unicode="&#x141;" horiz-adv-x="374" 
d="M16 219v104l46 26v318h126v-245l58 34v-104l-58 -34v-207h166v-111h-292v245z" />
    <glyph glyph-name="lslash" unicode="&#x142;" horiz-adv-x="241" 
d="M16 234v84l49 28v321h113v-257l48 28v-83l-48 -28v-327h-113v262z" />
    <glyph glyph-name="Nacute" unicode="&#x143;" horiz-adv-x="484" 
d="M376 867l-106 -144h-72l79 144h99zM432 0h-119l-135 353v-353h-126v667h126l128 -340v340h126v-667z" />
    <glyph glyph-name="nacute" unicode="&#x144;" 
d="M344 700l-106 -144h-72l79 144h99zM375 0h-114v344q0 51 -37 51q-20 0 -38 -19t-27 -44v-332h-113v483h113v-63q15 30 48 52.5t65 22.5q103 0 103 -110v-385z" />
    <glyph glyph-name="Ncommaaccent" unicode="&#x145;" horiz-adv-x="484" 
d="M309 -138q0 -43 -21.5 -81.5t-57.5 -64.5l-41 33q21 13 39.5 36.5t22.5 44.5q-1 0 -6 -0.5t-8 -0.5q-21 0 -35.5 14.5t-14.5 37.5q0 24 17 41t40 17q27 0 46 -21t19 -56zM432 0h-119l-135 353v-353h-126v667h126l128 -340v340h126v-667z" />
    <glyph glyph-name="ncommaaccent" unicode="&#x146;" 
d="M277 -138q0 -43 -21.5 -81.5t-57.5 -64.5l-41 33q21 13 39.5 36.5t22.5 44.5q-1 0 -6 -0.5t-8 -0.5q-21 0 -35.5 14.5t-14.5 37.5q0 24 17 41t40 17q27 0 46 -21t19 -56zM375 0h-114v344q0 51 -37 51q-20 0 -38 -19t-27 -44v-332h-113v483h113v-63q15 30 48 52.5t65 22.5
q103 0 103 -110v-385z" />
    <glyph glyph-name="Ncaron" unicode="&#x147;" horiz-adv-x="484" 
d="M295 723h-102l-66 144h63l53 -92l52 92h62zM432 0h-119l-135 353v-353h-126v667h126l128 -340v340h126v-667z" />
    <glyph glyph-name="ncaron" unicode="&#x148;" 
d="M263 556h-102l-66 144h63l53 -92l52 92h62zM375 0h-114v344q0 51 -37 51q-20 0 -38 -19t-27 -44v-332h-113v483h113v-63q15 30 48 52.5t65 22.5q103 0 103 -110v-385z" />
    <glyph glyph-name="napostrophe" unicode="&#x149;" 
d="M156 681q0 -43 -21.5 -81.5t-57.5 -64.5l-41 33q21 13 39.5 36.5t22.5 44.5q-1 0 -6 -0.5t-8 -0.5q-21 0 -35.5 14.5t-14.5 37.5q0 24 17 41t40 17q27 0 46 -21t19 -56zM375 0h-114v344q0 51 -37 51q-20 0 -38 -19t-27 -44v-332h-113v483h113v-63q15 30 48 52.5t65 22.5
q103 0 103 -110v-385z" />
    <glyph glyph-name="Eng" unicode="&#x14a;" horiz-adv-x="484" 
d="M252 -196q-67 0 -110 36l34 101q25 -28 61 -28q32 0 50.5 18.5t18.5 54.5v34l-128 361v-381h-126v667h126l128 -368v368h126v-684q0 -90 -48 -134.5t-132 -44.5z" />
    <glyph glyph-name="eng" unicode="&#x14b;" 
d="M375 385v-427q0 -78 -33 -116t-105 -38q-38 0 -59 24l26 89q8 -13 25 -13q32 0 32 54v386q0 51 -37 51q-20 0 -38 -19t-27 -44v-332h-113v483h113v-63q15 30 48 52.5t65 22.5q103 0 103 -110z" />
    <glyph glyph-name="Omacron" unicode="&#x14c;" horiz-adv-x="478" 
d="M367 731h-258v66h258v-66zM239 -12q-105 0 -156.5 94.5t-51.5 250.5t51.5 250.5t156.5 94.5t156.5 -94.5t51.5 -250.5t-51.5 -250.5t-156.5 -94.5zM239 100q79 0 79 233t-79 233t-79 -233t79 -233z" />
    <glyph glyph-name="omacron" unicode="&#x14d;" horiz-adv-x="417" 
d="M337 564h-258v66h258v-66zM208 -12q-89 0 -135 72.5t-46 181.5t46 181t135 72q90 0 136 -72t46 -181t-46 -181.5t-136 -72.5zM208 88q65 0 65 154q0 153 -65 153q-64 0 -64 -153q0 -154 64 -154z" />
    <glyph glyph-name="Obreve" unicode="&#x14e;" horiz-adv-x="478" 
d="M239 -12q-105 0 -156.5 94.5t-51.5 250.5t51.5 250.5t156.5 94.5t156.5 -94.5t51.5 -250.5t-51.5 -250.5t-156.5 -94.5zM239 100q79 0 79 233t-79 233t-79 -233t79 -233zM364 775q-45 -63 -124 -63q-77 0 -124 63l53 40q24 -37 71 -37t71 37z" />
    <glyph glyph-name="obreve" unicode="&#x14f;" horiz-adv-x="417" 
d="M208 -12q-89 0 -135 72.5t-46 181.5t46 181t135 72q90 0 136 -72t46 -181t-46 -181.5t-136 -72.5zM208 88q65 0 65 154q0 153 -65 153q-64 0 -64 -153q0 -154 64 -154zM332 608q-45 -63 -124 -63q-77 0 -124 63l53 40q24 -37 71 -37t71 37z" />
    <glyph glyph-name="Ohungarumlaut" unicode="&#x150;" horiz-adv-x="478" 
d="M274 867l-80 -144h-59l54 144h85zM402 867l-80 -144h-59l54 144h85zM239 -12q-105 0 -156.5 94.5t-51.5 250.5t51.5 250.5t156.5 94.5t156.5 -94.5t51.5 -250.5t-51.5 -250.5t-156.5 -94.5zM239 100q79 0 79 233t-79 233t-79 -233t79 -233z" />
    <glyph glyph-name="ohungarumlaut" unicode="&#x151;" horiz-adv-x="417" 
d="M244 700l-80 -144h-59l54 144h85zM372 700l-80 -144h-59l54 144h85zM208 -12q-89 0 -135 72.5t-46 181.5t46 181t135 72q90 0 136 -72t46 -181t-46 -181.5t-136 -72.5zM208 88q65 0 65 154q0 153 -65 153q-64 0 -64 -153q0 -154 64 -154z" />
    <glyph glyph-name="OE" unicode="&#x152;" horiz-adv-x="633" 
d="M602 0h-292v50q-15 -31 -42 -46.5t-54 -15.5q-63 0 -105 46.5t-60 121.5t-18 177t18 177t60 121t105 46q27 0 54 -14.5t42 -45.5v50h292v-111h-166v-161h159v-111h-159v-173h166v-111zM310 191v285q-10 43 -28.5 66t-41.5 23q-80 0 -80 -232q0 -233 80 -233q23 0 41.5 24
t28.5 67z" />
    <glyph glyph-name="oe" unicode="&#x153;" horiz-adv-x="650" 
d="M628 204h-245q1 -56 24.5 -90t69.5 -34q45 0 80 48l55 -63q-58 -77 -146 -77q-89 0 -133 89q-42 -89 -125 -89q-89 0 -135 72.5t-46 181.5t46 181t135 72q83 0 124 -86q41 86 122 86q88 0 131 -69.5t43 -183.5v-38zM383 284h136q0 119 -68 119q-36 0 -52 -36t-16 -83z
M273 242q0 153 -65 153q-64 0 -64 -153q0 -154 64 -154q65 0 65 154z" />
    <glyph glyph-name="Racute" unicode="&#x154;" horiz-adv-x="460" 
d="M370 867l-106 -144h-72l79 144h99zM426 0h-135l-72 245h-41v-245h-126v667h186q80 0 131 -58t51 -149q0 -139 -86 -184zM219 356q35 0 54 27t19 73t-19 73t-54 27h-41v-200h41z" />
    <glyph glyph-name="racute" unicode="&#x155;" horiz-adv-x="280" 
d="M290 700l-106 -144h-72l79 144h99zM159 0h-113v483h113v-67q14 33 45.5 56t62.5 23v-111q-11 3 -22 3q-24 0 -47.5 -17.5t-38.5 -44.5v-325z" />
    <glyph glyph-name="Rcommaaccent" unicode="&#x156;" horiz-adv-x="460" 
d="M295 -138q0 -43 -21.5 -81.5t-57.5 -64.5l-41 33q21 13 39.5 36.5t22.5 44.5q-1 0 -6 -0.5t-8 -0.5q-21 0 -35.5 14.5t-14.5 37.5q0 24 17 41t40 17q27 0 46 -21t19 -56zM426 0h-135l-72 245h-41v-245h-126v667h186q80 0 131 -58t51 -149q0 -139 -86 -184zM219 356
q35 0 54 27t19 73t-19 73t-54 27h-41v-200h41z" />
    <glyph glyph-name="rcommaaccent" unicode="&#x157;" horiz-adv-x="280" 
d="M207 -138q0 -43 -21.5 -81.5t-57.5 -64.5l-41 33q21 13 39.5 36.5t22.5 44.5q-1 0 -6 -0.5t-8 -0.5q-21 0 -35.5 14.5t-14.5 37.5q0 24 17 41t40 17q27 0 46 -21t19 -56zM159 0h-113v483h113v-67q14 33 45.5 56t62.5 23v-111q-11 3 -22 3q-24 0 -47.5 -17.5t-38.5 -44.5
v-325z" />
    <glyph glyph-name="Rcaron" unicode="&#x158;" horiz-adv-x="460" 
d="M282 723h-102l-66 144h63l53 -92l52 92h62zM426 0h-135l-72 245h-41v-245h-126v667h186q80 0 131 -58t51 -149q0 -139 -86 -184zM219 356q35 0 54 27t19 73t-19 73t-54 27h-41v-200h41z" />
    <glyph glyph-name="rcaron" unicode="&#x159;" horiz-adv-x="280" 
d="M208 556h-102l-66 144h63l53 -92l52 92h62zM159 0h-113v483h113v-67q14 33 45.5 56t62.5 23v-111q-11 3 -22 3q-24 0 -47.5 -17.5t-38.5 -44.5v-325z" />
    <glyph glyph-name="Sacute" unicode="&#x15a;" horiz-adv-x="396" 
d="M334 867l-106 -144h-72l79 144h99zM184 -12q-106 0 -172 66l55 99q41 -53 109 -53q30 0 48.5 20.5t18.5 52.5t-22 58.5t-53 48t-62 46.5t-53 67.5t-22 98.5q0 78 50.5 132t135.5 54q88 0 145 -54l-49 -97q-38 39 -92 39q-27 0 -44.5 -18.5t-17.5 -48.5q0 -28 22 -53
t53 -47t62 -48.5t53 -70.5t22 -99q0 -85 -51 -139t-136 -54z" />
    <glyph glyph-name="sacute" unicode="&#x15b;" horiz-adv-x="346" 
d="M310 700l-106 -144h-72l79 144h99zM169 -12q-104 0 -157 63l47 78q47 -52 100 -52q27 0 44 14t17 38q0 18 -14 32.5t-35.5 24.5t-46 24.5t-46 31t-35.5 47t-14 69.5q0 58 41 97.5t113 39.5q83 0 142 -57l-46 -76q-36 44 -93 44q-23 0 -37.5 -13t-14.5 -32q0 -20 20 -35
t48 -29t56.5 -32t48.5 -52t20 -81q0 -64 -44.5 -104t-113.5 -40z" />
    <glyph glyph-name="Scircumflex" unicode="&#x15c;" horiz-adv-x="396" 
d="M332 723h-62l-55 92l-50 -92h-63l63 144h102zM184 -12q-106 0 -172 66l55 99q41 -53 109 -53q30 0 48.5 20.5t18.5 52.5t-22 58.5t-53 48t-62 46.5t-53 67.5t-22 98.5q0 78 50.5 132t135.5 54q88 0 145 -54l-49 -97q-38 39 -92 39q-27 0 -44.5 -18.5t-17.5 -48.5
q0 -28 22 -53t53 -47t62 -48.5t53 -70.5t22 -99q0 -85 -51 -139t-136 -54z" />
    <glyph glyph-name="scircumflex" unicode="&#x15d;" horiz-adv-x="346" 
d="M292 556h-62l-55 92l-50 -92h-63l63 144h102zM169 -12q-104 0 -157 63l47 78q47 -52 100 -52q27 0 44 14t17 38q0 18 -14 32.5t-35.5 24.5t-46 24.5t-46 31t-35.5 47t-14 69.5q0 58 41 97.5t113 39.5q83 0 142 -57l-46 -76q-36 44 -93 44q-23 0 -37.5 -13t-14.5 -32
q0 -20 20 -35t48 -29t56.5 -32t48.5 -52t20 -81q0 -64 -44.5 -104t-113.5 -40z" />
    <glyph glyph-name="Scedilla" unicode="&#x15e;" horiz-adv-x="396" 
d="M180 -195q-46 0 -86 32l22 46q32 -27 61 -27q18 0 29.5 9.5t11.5 25.5q0 12 -6.5 19.5t-16.5 7.5q-15 0 -26 -13l-42 24l23 61q-83 9 -138 64l55 99q41 -53 109 -53q30 0 48.5 20.5t18.5 52.5t-22 58.5t-53 48t-62 46.5t-53 67.5t-22 98.5q0 78 50.5 132t135.5 54
q88 0 145 -54l-49 -97q-38 39 -92 39q-27 0 -44.5 -18.5t-17.5 -48.5q0 -28 22 -53t53 -47t62 -48.5t53 -70.5t22 -99q0 -79 -45 -132t-120 -60l-17 -42q14 10 29 10q25 0 41.5 -19t16.5 -49q0 -38 -27 -61t-69 -23z" />
    <glyph glyph-name="scedilla" unicode="&#x15f;" horiz-adv-x="346" 
d="M163 -195q-46 0 -86 32l22 46q32 -27 61 -27q18 0 29.5 9.5t11.5 25.5q0 12 -6.5 19.5t-16.5 7.5q-15 0 -26 -13l-42 24l23 61q-80 10 -121 61l47 78q47 -52 100 -52q27 0 44 14t17 38q0 18 -14 32.5t-35.5 24.5t-46 24.5t-46 31t-35.5 47t-14 69.5q0 58 41 97.5
t113 39.5q83 0 142 -57l-46 -76q-36 44 -93 44q-23 0 -37.5 -13t-14.5 -32q0 -20 20 -35t48 -29t56.5 -32t48.5 -52t20 -81q0 -59 -38.5 -98t-99.5 -45l-17 -42q14 10 29 10q25 0 41.5 -19t16.5 -49q0 -38 -27 -61t-69 -23z" />
    <glyph glyph-name="Scaron" unicode="&#x160;" horiz-adv-x="396" 
d="M270 723h-102l-66 144h63l53 -92l52 92h62zM184 -12q-106 0 -172 66l55 99q41 -53 109 -53q30 0 48.5 20.5t18.5 52.5t-22 58.5t-53 48t-62 46.5t-53 67.5t-22 98.5q0 78 50.5 132t135.5 54q88 0 145 -54l-49 -97q-38 39 -92 39q-27 0 -44.5 -18.5t-17.5 -48.5
q0 -28 22 -53t53 -47t62 -48.5t53 -70.5t22 -99q0 -85 -51 -139t-136 -54z" />
    <glyph glyph-name="scaron" unicode="&#x161;" horiz-adv-x="346" 
d="M230 556h-102l-66 144h63l53 -92l52 92h62zM169 -12q-104 0 -157 63l47 78q47 -52 100 -52q27 0 44 14t17 38q0 18 -14 32.5t-35.5 24.5t-46 24.5t-46 31t-35.5 47t-14 69.5q0 58 41 97.5t113 39.5q83 0 142 -57l-46 -76q-36 44 -93 44q-23 0 -37.5 -13t-14.5 -32
q0 -20 20 -35t48 -29t56.5 -32t48.5 -52t20 -81q0 -64 -44.5 -104t-113.5 -40z" />
    <glyph glyph-name="Tcommaaccent" unicode="&#x162;" horiz-adv-x="364" 
d="M249 -138q0 -43 -21.5 -81.5t-57.5 -64.5l-41 33q21 13 39.5 36.5t22.5 44.5q-1 0 -6 -0.5t-8 -0.5q-21 0 -35.5 14.5t-14.5 37.5q0 24 17 41t40 17q27 0 46 -21t19 -56zM245 0h-126v556h-101v111h328v-111h-101v-556z" />
    <glyph glyph-name="tcommaaccent" unicode="&#x163;" horiz-adv-x="258" 
d="M195 -138q0 -43 -21.5 -81.5t-57.5 -64.5l-41 33q21 13 39.5 36.5t22.5 44.5q-1 0 -6 -0.5t-8 -0.5q-21 0 -35.5 14.5t-14.5 37.5q0 24 17 41t40 17q27 0 46 -21t19 -56zM172 -12q-58 0 -84.5 30t-26.5 93v274h-45v98h45v132h113v-132h61v-98h-61v-252q0 -45 27 -45
q17 0 27 13l23 -88q-28 -25 -79 -25z" />
    <glyph glyph-name="Tcaron" unicode="&#x164;" horiz-adv-x="364" 
d="M235 723h-102l-66 144h63l53 -92l52 92h62zM245 0h-126v556h-101v111h328v-111h-101v-556z" />
    <glyph glyph-name="tcaron" unicode="&#x165;" horiz-adv-x="258" 
d="M333 681q0 -43 -21.5 -81.5t-57.5 -64.5l-41 33q21 13 39.5 36.5t22.5 44.5q-1 0 -6 -0.5t-8 -0.5q-21 0 -35.5 14.5t-14.5 37.5q0 24 17 41t40 17q27 0 46 -21t19 -56zM172 -12q-58 0 -84.5 30t-26.5 93v274h-45v98h45v132h113v-132h61v-98h-61v-252q0 -45 27 -45
q17 0 27 13l23 -88q-28 -25 -79 -25z" />
    <glyph glyph-name="Tbar" unicode="&#x166;" horiz-adv-x="364" 
d="M245 0h-126v271h-70v66h70v219h-101v111h328v-111h-101v-219h67v-66h-67v-271z" />
    <glyph glyph-name="tbar" unicode="&#x167;" horiz-adv-x="258" 
d="M172 -12q-58 0 -84.5 30t-26.5 93v103h-45v66h45v105h-45v98h45v132h113v-132h61v-98h-61v-105h32v-66h-32v-81q0 -45 27 -45q17 0 27 13l23 -88q-28 -25 -79 -25z" />
    <glyph glyph-name="Utilde" unicode="&#x168;" horiz-adv-x="484" 
d="M242 -12q-81 0 -135.5 52t-54.5 153v474h126v-480q0 -88 64 -88t64 88v480h126v-474q0 -101 -54.5 -153t-135.5 -52zM287 721q-22 0 -38.5 18.5t-28 37t-21.5 18.5q-26 0 -26 -68h-57q0 60 22.5 97t62.5 37q18 0 32.5 -11.5t22 -25.5t16.5 -25.5t17 -11.5q26 0 26 68h57
q0 -60 -22 -97t-63 -37z" />
    <glyph glyph-name="utilde" unicode="&#x169;" 
d="M375 0h-114v61q-15 -30 -47 -51.5t-66 -21.5q-102 0 -102 109v386h113v-346q0 -49 37 -49q21 0 38.5 18t26.5 43v334h114v-483zM253 554q-22 0 -38.5 18.5t-28 37t-21.5 18.5q-26 0 -26 -68h-57q0 60 22.5 97t62.5 37q18 0 32.5 -11.5t22 -25.5t16.5 -25.5t17 -11.5
q26 0 26 68h57q0 -60 -22 -97t-63 -37z" />
    <glyph glyph-name="Umacron" unicode="&#x16a;" horiz-adv-x="484" 
d="M242 -12q-81 0 -135.5 52t-54.5 153v474h126v-480q0 -88 64 -88t64 88v480h126v-474q0 -101 -54.5 -153t-135.5 -52zM371 731h-258v66h258v-66z" />
    <glyph glyph-name="umacron" unicode="&#x16b;" 
d="M375 0h-114v61q-15 -30 -47 -51.5t-66 -21.5q-102 0 -102 109v386h113v-346q0 -49 37 -49q21 0 38.5 18t26.5 43v334h114v-483zM339 564h-258v66h258v-66z" />
    <glyph glyph-name="Ubreve" unicode="&#x16c;" horiz-adv-x="484" 
d="M242 -12q-81 0 -135.5 52t-54.5 153v474h126v-480q0 -88 64 -88t64 88v480h126v-474q0 -101 -54.5 -153t-135.5 -52zM367 775q-45 -63 -124 -63q-77 0 -124 63l53 40q24 -37 71 -37t71 37z" />
    <glyph glyph-name="ubreve" unicode="&#x16d;" 
d="M375 0h-114v61q-15 -30 -47 -51.5t-66 -21.5q-102 0 -102 109v386h113v-346q0 -49 37 -49q21 0 38.5 18t26.5 43v334h114v-483zM334 608q-45 -63 -124 -63q-77 0 -124 63l53 40q24 -37 71 -37t71 37z" />
    <glyph glyph-name="Uring" unicode="&#x16e;" horiz-adv-x="484" 
d="M243 691q-37 0 -63 26.5t-26 63.5q0 36 26 62t63 26t62.5 -26t25.5 -62q0 -38 -25.5 -64t-62.5 -26zM243 741q16 0 27.5 11.5t11.5 28.5q0 16 -11.5 27.5t-27.5 11.5t-27.5 -11.5t-11.5 -27.5t11.5 -28t27.5 -12zM242 -12q-81 0 -135.5 52t-54.5 153v474h126v-480
q0 -88 64 -88t64 88v480h126v-474q0 -101 -54.5 -153t-135.5 -52z" />
    <glyph glyph-name="uring" unicode="&#x16f;" 
d="M210 536q-37 0 -63 26.5t-26 63.5q0 36 26 62t63 26t62.5 -26t25.5 -62q0 -38 -25.5 -64t-62.5 -26zM210 586q16 0 27.5 11.5t11.5 28.5q0 16 -11.5 27.5t-27.5 11.5t-27.5 -11.5t-11.5 -27.5t11.5 -28t27.5 -12zM375 0h-114v61q-15 -30 -47 -51.5t-66 -21.5
q-102 0 -102 109v386h113v-346q0 -49 37 -49q21 0 38.5 18t26.5 43v334h114v-483z" />
    <glyph glyph-name="Uhungarumlaut" unicode="&#x170;" horiz-adv-x="484" 
d="M242 -12q-81 0 -135.5 52t-54.5 153v474h126v-480q0 -88 64 -88t64 88v480h126v-474q0 -101 -54.5 -153t-135.5 -52zM277 867l-80 -144h-59l54 144h85zM405 867l-80 -144h-59l54 144h85z" />
    <glyph glyph-name="uhungarumlaut" unicode="&#x171;" 
d="M375 0h-114v61q-15 -30 -47 -51.5t-66 -21.5q-102 0 -102 109v386h113v-346q0 -49 37 -49q21 0 38.5 18t26.5 43v334h114v-483zM245 700l-80 -144h-59l54 144h85zM373 700l-80 -144h-59l54 144h85z" />
    <glyph glyph-name="Uogonek" unicode="&#x172;" horiz-adv-x="484" 
d="M307 -108l47 -25q-21 -53 -74 -53q-37 0 -59 21t-22 61q0 50 33 92q-77 3 -128.5 55t-51.5 150v474h126v-480q0 -88 64 -88t64 88v480h126v-474q0 -77 -32.5 -125.5t-85.5 -67.5q-57 -41 -57 -100q0 -37 24 -37q20 0 26 29z" />
    <glyph glyph-name="uogonek" unicode="&#x173;" 
d="M375 0q-57 -41 -57 -100q0 -37 24 -37q20 0 26 29l47 -25q-21 -53 -74 -53q-37 0 -59 21t-22 61q0 57 43 104h-42v61q-15 -30 -47 -51.5t-66 -21.5q-102 0 -102 109v386h113v-346q0 -49 37 -49q21 0 38.5 18t26.5 43v334h114v-483z" />
    <glyph glyph-name="Wcircumflex" unicode="&#x174;" horiz-adv-x="616" 
d="M423 723h-62l-55 92l-50 -92h-63l63 144h102zM491 0h-128l-55 430l-55 -430h-128l-114 667h128l56 -447l63 447h100l64 -447l55 447h128z" />
    <glyph glyph-name="wcircumflex" unicode="&#x175;" horiz-adv-x="608" 
d="M420 556h-62l-55 92l-50 -92h-63l63 144h102zM491 0h-118l-69 329l-69 -329h-119l-111 483h117l61 -330l63 330h109l68 -330l62 330h118z" />
    <glyph glyph-name="Ycircumflex" unicode="&#x176;" horiz-adv-x="430" 
d="M330 723h-62l-55 92l-50 -92h-63l63 144h102zM278 0h-125v276l-157 391h134l85 -269l87 269h132l-156 -391v-276z" />
    <glyph glyph-name="ycircumflex" unicode="&#x177;" horiz-adv-x="380" 
d="M40 -189l16 98q12 -5 23 -5q30 0 40 34l14 50l-131 495h120l68 -340l70 340h119l-152 -568q-17 -64 -47.5 -87.5t-85.5 -23.5q-35 0 -54 7zM309 556h-62l-55 92l-50 -92h-63l63 144h102z" />
    <glyph glyph-name="Ydieresis" unicode="&#x178;" horiz-adv-x="430" 
d="M361 776q0 -25 -18.5 -43t-44.5 -18t-43.5 17.5t-17.5 43.5t18 44t43 18q26 0 44.5 -18.5t18.5 -43.5zM197 776q0 -26 -18 -43.5t-44 -17.5q-25 0 -43.5 18t-18.5 43t18.5 43.5t43.5 18.5q26 0 44 -18t18 -44zM278 0h-125v276l-157 391h134l85 -269l87 269h132l-156 -391
v-276z" />
    <glyph glyph-name="Zacute" unicode="&#x179;" horiz-adv-x="376" 
d="M322 867l-106 -144h-72l79 144h99zM347 0h-317v106l168 450h-168v111h310v-102l-172 -454h179v-111z" />
    <glyph glyph-name="zacute" unicode="&#x17a;" horiz-adv-x="335" 
d="M301 700l-106 -144h-72l79 144h99zM308 0h-281v85l142 300h-142v98h277v-82l-143 -302h147v-99z" />
    <glyph glyph-name="Zdotaccent" unicode="&#x17b;" horiz-adv-x="376" 
d="M347 0h-317v106l168 450h-168v111h310v-102l-172 -454h179v-111zM186 714q-25 0 -43 18t-18 43t18 43.5t43 18.5q26 0 44 -18t18 -44t-18 -43.5t-44 -17.5z" />
    <glyph glyph-name="zdotaccent" unicode="&#x17c;" horiz-adv-x="335" 
d="M308 0h-281v85l142 300h-142v98h277v-82l-143 -302h147v-99zM166 547q-25 0 -43 18t-18 43t18 43.5t43 18.5q26 0 44 -18t18 -44t-18 -43.5t-44 -17.5z" />
    <glyph glyph-name="Zcaron" unicode="&#x17d;" horiz-adv-x="376" 
d="M241 723h-102l-66 144h63l53 -92l52 92h62zM347 0h-317v106l168 450h-168v111h310v-102l-172 -454h179v-111z" />
    <glyph glyph-name="zcaron" unicode="&#x17e;" horiz-adv-x="335" 
d="M218 556h-102l-66 144h63l53 -92l52 92h62zM308 0h-281v85l142 300h-142v98h277v-82l-143 -302h147v-99z" />
    <glyph glyph-name="longs" unicode="&#x17f;" horiz-adv-x="250" 
d="M174 0h-113v385h-44v98h44v50q0 69 33.5 106.5t96.5 37.5q54 0 84 -27l-29 -87q-15 16 -33 16q-39 0 -39 -46v-533z" />
    <glyph glyph-name="florin" unicode="&#x192;" horiz-adv-x="397" 
d="M141 -161h-128l89 404h-42v100h65l45 204q13 58 57.5 94t99.5 36q53 0 80 -23l-35 -100q-11 12 -30 12q-40 0 -50 -50l-38 -173h78v-100h-101z" />
    <glyph glyph-name="Ohorn" unicode="&#x1a0;" horiz-adv-x="478" 
d="M239 -12q-105 0 -156.5 94.5t-51.5 250.5t51.5 250.5t156.5 94.5q103 0 158 -98q27 29 33 58q-2 -3 -12 -3q-20 0 -33 14t-13 35q0 22 15 37.5t37 15.5q25 0 42 -19.5t17 -51.5q0 -77 -67 -129q31 -84 31 -204q0 -156 -51.5 -250.5t-156.5 -94.5zM239 100q79 0 79 233
t-79 233t-79 -233t79 -233z" />
    <glyph glyph-name="ohorn" unicode="&#x1a1;" horiz-adv-x="417" 
d="M408 532q0 -71 -57 -121q39 -66 39 -169q0 -109 -46 -181.5t-136 -72.5q-89 0 -135 72.5t-46 181.5t46 181t135 72q70 0 115 -47q26 26 32 56q-1 -3 -12 -3q-20 0 -33 14t-13 35q0 22 15 37.5t37 15.5q25 0 42 -19.5t17 -51.5zM208 88q65 0 65 154q0 153 -65 153
q-64 0 -64 -153q0 -154 64 -154z" />
    <glyph glyph-name="Uhorn" unicode="&#x1af;" horiz-adv-x="484" 
d="M527 727q0 -42 -24.5 -82t-70.5 -66v-386q0 -101 -54.5 -153t-135.5 -52t-135.5 52t-54.5 153v474h126v-480q0 -88 64 -88t64 88v480h126v-35q37 33 43 67q-4 -2 -13 -2q-20 0 -32.5 13.5t-12.5 35.5q0 21 15 36.5t36 15.5q24 0 41.5 -19.5t17.5 -51.5z" />
    <glyph glyph-name="uhorn" unicode="&#x1b0;" 
d="M375 0h-114v61q-15 -30 -47 -51.5t-66 -21.5q-102 0 -102 109v386h113v-346q0 -49 37 -49q21 0 38.5 18t26.5 43v334h113q11 18 14 31h-5q-5 -1 -7 -1q-20 0 -33 13.5t-13 34.5t15 36.5t37 15.5q25 0 42 -19t17 -51q0 -73 -66 -129v-414z" />
    <glyph glyph-name="AEacute" unicode="&#x1fc;" horiz-adv-x="607" 
d="M482 867l-106 -144h-72l79 144h99zM576 0h-292v123h-114l-37 -123h-128l224 667h347v-111h-166v-161h159v-111h-159v-173h166v-111zM284 234v292l-84 -292h84z" />
    <glyph glyph-name="aeacute" unicode="&#x1fd;" horiz-adv-x="632" 
d="M444 700l-106 -144h-72l79 144h99zM609 204h-241q1 -57 24 -90.5t68 -33.5q44 0 79 48l55 -63q-60 -77 -147 -77q-48 0 -77 18.5t-54 56.5q-54 -75 -143 -75q-69 0 -109 42t-40 116q0 73 37 116.5t96 43.5q28 0 57.5 -14t45.5 -40v59q0 88 -75 88q-52 0 -100 -48l-42 80
q30 32 74 48t82 16q87 0 118 -70q44 70 123 70q84 0 126.5 -70t42.5 -183v-38zM368 284h132q0 119 -65 119q-37 0 -52 -35.5t-15 -83.5zM260 158v21q-23 50 -64 50q-28 0 -44.5 -21.5t-16.5 -55.5q0 -37 16.5 -57t44.5 -20q27 0 45.5 24.5t18.5 58.5z" />
    <glyph glyph-name="Oslashacute" unicode="&#x1fe;" horiz-adv-x="478" 
d="M372 867l-106 -144h-72l79 144h99zM239 -12q-65 0 -111 38l-12 -26h-73l39 82q-51 90 -51 251q0 156 51.5 250.5t156.5 94.5q64 0 111 -39l13 28h73l-41 -84q52 -90 52 -250q0 -156 -51.5 -250.5t-156.5 -94.5zM160 333q0 -44 3 -83l130 271q-21 45 -54 45
q-79 0 -79 -233zM239 100q79 0 79 233q0 43 -3 81l-130 -270q20 -44 54 -44z" />
    <glyph glyph-name="oslashacute" unicode="&#x1ff;" horiz-adv-x="417" 
d="M342 700l-106 -144h-72l79 144h99zM97 0h-63l37 63q-44 69 -44 179q0 109 46 181t135 72q58 0 99 -33l13 21h63l-38 -63q45 -71 45 -178q0 -109 -46 -181.5t-136 -72.5q-57 0 -99 32zM144 242q0 -20 2 -52l105 177q-16 28 -43 28q-64 0 -64 -153zM208 88q65 0 65 154
q0 27 -3 51l-105 -178q16 -27 43 -27z" />
    <glyph glyph-name="Scommaaccent" unicode="&#x218;" horiz-adv-x="396" 
d="M261 -138q0 -43 -21.5 -81.5t-57.5 -64.5l-41 33q21 13 39.5 36.5t22.5 44.5q-1 0 -6 -0.5t-8 -0.5q-21 0 -35.5 14.5t-14.5 37.5q0 24 17 41t40 17q27 0 46 -21t19 -56zM184 -12q-106 0 -172 66l55 99q41 -53 109 -53q30 0 48.5 20.5t18.5 52.5t-22 58.5t-53 48
t-62 46.5t-53 67.5t-22 98.5q0 78 50.5 132t135.5 54q88 0 145 -54l-49 -97q-38 39 -92 39q-27 0 -44.5 -18.5t-17.5 -48.5q0 -28 22 -53t53 -47t62 -48.5t53 -70.5t22 -99q0 -85 -51 -139t-136 -54z" />
    <glyph glyph-name="scommaaccent" unicode="&#x219;" horiz-adv-x="346" 
d="M241 -138q0 -43 -21.5 -81.5t-57.5 -64.5l-41 33q21 13 39.5 36.5t22.5 44.5q-1 0 -6 -0.5t-8 -0.5q-21 0 -35.5 14.5t-14.5 37.5q0 24 17 41t40 17q27 0 46 -21t19 -56zM169 -12q-104 0 -157 63l47 78q47 -52 100 -52q27 0 44 14t17 38q0 18 -14 32.5t-35.5 24.5
t-46 24.5t-46 31t-35.5 47t-14 69.5q0 58 41 97.5t113 39.5q83 0 142 -57l-46 -76q-36 44 -93 44q-23 0 -37.5 -13t-14.5 -32q0 -20 20 -35t48 -29t56.5 -32t48.5 -52t20 -81q0 -64 -44.5 -104t-113.5 -40z" />
    <glyph glyph-name="uni021A" unicode="&#x21a;" horiz-adv-x="364" 
d="M249 -138q0 -43 -21.5 -81.5t-57.5 -64.5l-41 33q21 13 39.5 36.5t22.5 44.5q-1 0 -6 -0.5t-8 -0.5q-21 0 -35.5 14.5t-14.5 37.5q0 24 17 41t40 17q27 0 46 -21t19 -56zM245 0h-126v556h-101v111h328v-111h-101v-556z" />
    <glyph glyph-name="uni021B" unicode="&#x21b;" horiz-adv-x="258" 
d="M195 -138q0 -43 -21.5 -81.5t-57.5 -64.5l-41 33q21 13 39.5 36.5t22.5 44.5q-1 0 -6 -0.5t-8 -0.5q-21 0 -35.5 14.5t-14.5 37.5q0 24 17 41t40 17q27 0 46 -21t19 -56zM172 -12q-58 0 -84.5 30t-26.5 93v274h-45v98h45v132h113v-132h61v-98h-61v-252q0 -45 27 -45
q17 0 27 13l23 -88q-28 -25 -79 -25z" />
    <glyph glyph-name="uni0237" unicode="&#x237;" horiz-adv-x="204" 
d="M22 -196q-39 0 -60 24l26 89q8 -13 25 -13q33 0 33 54v525h113v-525q0 -78 -32.5 -116t-104.5 -38z" />
    <glyph glyph-name="hsuperior" unicode="&#x2b0;" horiz-adv-x="310" 
d="M273 326h-82v217q0 34 -28 34q-27 0 -44 -38v-213h-82v434h82v-159q11 18 34 32.5t47 14.5q73 0 73 -76v-246z" />
    <glyph glyph-name="uni02BC" unicode="&#x2bc;" horiz-adv-x="251" 
d="M203 581q0 -52 -26 -97.5t-71 -76.5l-49 40q25 15 46.5 42t27.5 52q-9 -3 -18 -3q-26 0 -44 19t-18 48t21 50.5t51 21.5q34 0 57 -26t23 -70z" />
    <glyph glyph-name="circumflex" unicode="&#x2c6;" horiz-adv-x="230" 
d="M230 556h-62l-55 92l-50 -92h-63l63 144h102z" />
    <glyph glyph-name="caron" unicode="&#x2c7;" horiz-adv-x="230" 
d="M168 556h-102l-66 144h63l53 -92l52 92h62z" />
    <glyph glyph-name="uni02C9" unicode="&#x2c9;" horiz-adv-x="258" 
d="M258 591h-258v66h258v-66z" />
    <glyph glyph-name="uni02CB" unicode="&#x2cb;" horiz-adv-x="178" 
d="M178 556h-72l-106 144h98z" />
    <glyph glyph-name="breve" unicode="&#x2d8;" horiz-adv-x="248" 
d="M248 608q-45 -63 -124 -63q-77 0 -124 63l53 40q24 -37 71 -37t71 37z" />
    <glyph glyph-name="dotaccent" unicode="&#x2d9;" horiz-adv-x="157" 
d="M78 547q-25 0 -43 18t-18 43t18 43.5t43 18.5q26 0 44 -18t18 -44t-18 -43.5t-44 -17.5z" />
    <glyph glyph-name="ring" unicode="&#x2da;" horiz-adv-x="177" 
d="M89 536q-37 0 -63 26.5t-26 63.5q0 36 26 62t63 26t62.5 -26t25.5 -62q0 -38 -25.5 -64t-62.5 -26zM89 586q16 0 27.5 11.5t11.5 28.5q0 16 -11.5 27.5t-27.5 11.5t-27.5 -11.5t-11.5 -27.5t11.5 -28t27.5 -12z" />
    <glyph glyph-name="ogonek" unicode="&#x2db;" horiz-adv-x="155" 
d="M108 -108l47 -25q-21 -53 -74 -53q-37 0 -59 21t-22 61q0 74 73 132l42 -28q-57 -41 -57 -100q0 -37 24 -37q20 0 26 29z" />
    <glyph glyph-name="tilde" unicode="&#x2dc;" horiz-adv-x="256" 
d="M171 554q-22 0 -38.5 18.5t-28 37t-21.5 18.5q-26 0 -26 -68h-57q0 60 22.5 97t62.5 37q18 0 32.5 -11.5t22 -25.5t16.5 -25.5t17 -11.5q26 0 26 68h57q0 -60 -22 -97t-63 -37z" />
    <glyph glyph-name="hungarumlaut" unicode="&#x2dd;" horiz-adv-x="267" 
d="M139 700l-80 -144h-59l54 144h85zM267 700l-80 -144h-59l54 144h85z" />
    <glyph glyph-name="hookabovecomb" unicode="&#x309;" horiz-adv-x="155" 
d="M56 729l-43 8q13 53 66 53q27 0 43.5 -16.5t16.5 -49.5q0 -31 -16 -57h-45q19 26 19 54q0 29 -20 29q-15 0 -21 -21z" />
    <glyph glyph-name="uni037E" unicode="&#x37e;" horiz-adv-x="248" 
d="M124 343q-30 0 -52 22t-22 52t22 51.5t52 21.5t52 -21.5t22 -51.5t-22 -52t-52 -22zM203 43q0 -106 -97 -176l-50 42q25 14 47 41.5t27 52.5q-3 -3 -17 -3q-27 0 -45 18.5t-18 47.5q0 30 21 51.5t51 21.5q34 0 57.5 -26.5t23.5 -69.5z" />
    <glyph glyph-name="tonos" unicode="&#x384;" horiz-adv-x="218" 
d="M157 557h-51l20 208h97z" />
    <glyph glyph-name="dieresistonos" unicode="&#x385;" 
d="M221 557h-50l19 208h98zM408 609q0 -25 -18.5 -43t-44.5 -18q-25 0 -43 18t-18 43q0 26 18 44t43 18q26 0 44.5 -18t18.5 -44zM136 609q0 -25 -18 -43t-43 -18q-26 0 -44 18t-18 43t18.5 43.5t43.5 18.5t43 -18t18 -44z" />
    <glyph glyph-name="Alphatonos" unicode="&#x386;" horiz-adv-x="424" 
d="M71 557h-51l20 208h97zM424 0h-130l-20 123h-124l-20 -123h-130l139 667h145zM260 234l-48 292l-48 -292h96z" />
    <glyph glyph-name="Epsilontonos" unicode="&#x388;" horiz-adv-x="429" 
d="M46 557h-51l20 208h97zM395 0h-292v667h292v-111h-166v-161h159v-111h-159v-173h166v-111z" />
    <glyph glyph-name="Etatonos" unicode="&#x389;" horiz-adv-x="535" 
d="M46 557h-51l20 208h97zM483 0h-126v288h-128v-288h-126v667h126v-269h128v269h126v-667z" />
    <glyph glyph-name="Iotatonos" unicode="&#x38a;" horiz-adv-x="281" 
d="M46 557h-51l20 208h97zM229 0h-126v667h126v-667z" />
    <glyph glyph-name="Omicrontonos" unicode="&#x38c;" horiz-adv-x="501" 
d="M58 557h-51l20 208h97zM262 -12q-105 0 -156.5 94.5t-51.5 250.5t51.5 250.5t156.5 94.5t156.5 -94.5t51.5 -250.5t-51.5 -250.5t-156.5 -94.5zM262 100q79 0 79 233t-79 233t-79 -233t79 -233z" />
    <glyph glyph-name="Upsilontonos" unicode="&#x38e;" horiz-adv-x="524" 
d="M42 557h-51l20 208h97zM372 0h-125v276l-157 391h134l85 -269l87 269h132l-156 -391v-276z" />
    <glyph glyph-name="Omegatonos" unicode="&#x38f;" horiz-adv-x="497" 
d="M58 557h-51l20 208h97zM64 111h77q-87 85 -87 249q0 147 52.5 232.5t156.5 85.5q103 0 155.5 -85.5t52.5 -232.5q0 -162 -89 -249h78v-111h-169v111q21 21 36 83.5t15 138.5q0 232 -79 232q-80 0 -80 -232q0 -76 15 -138.5t36 -83.5v-111h-170v111z" />
    <glyph glyph-name="iotadieresistonos" unicode="&#x390;" horiz-adv-x="216" 
d="M120 557h-50l19 208h98zM307 609q0 -25 -18.5 -43t-44.5 -18t-43.5 18t-17.5 43q0 26 18 44t43 18q26 0 44.5 -18t18.5 -44zM35 609q0 -25 -17.5 -43t-43.5 -18t-44 18t-18 43t18 43.5t44 18.5q25 0 43 -18t18 -44zM155 -12q-58 0 -83.5 30t-25.5 93v372h113v-356
q0 -39 26 -39q4 0 14 2l8 -95q-26 -7 -52 -7z" />
    <glyph glyph-name="Alpha" unicode="&#x391;" horiz-adv-x="424" 
d="M424 0h-130l-20 123h-124l-20 -123h-130l139 667h145zM260 234l-48 292l-48 -292h96z" />
    <glyph glyph-name="Beta" unicode="&#x392;" horiz-adv-x="452" 
d="M260 0h-208v667h201q79 0 119.5 -48t40.5 -122q0 -61 -26.5 -100.5t-71.5 -52.5q47 -7 77 -54.5t30 -109.5q0 -81 -40 -130.5t-122 -49.5zM220 395q64 0 64 80q0 81 -64 81h-42v-161h42zM224 111q69 0 69 87q0 39 -17.5 62.5t-51.5 23.5h-46v-173h46z" />
    <glyph glyph-name="Gamma" unicode="&#x393;" horiz-adv-x="376" 
d="M178 0h-126v667h292v-111h-166v-556z" />
    <glyph glyph-name="uni0394" unicode="&#x394;" horiz-adv-x="442" 
d="M441 0h-441l148 667h146zM296 111l-75 415l-75 -415h150z" />
    <glyph glyph-name="Epsilon" unicode="&#x395;" horiz-adv-x="378" 
d="M344 0h-292v667h292v-111h-166v-161h159v-111h-159v-173h166v-111z" />
    <glyph glyph-name="Zeta" unicode="&#x396;" horiz-adv-x="376" 
d="M347 0h-317v106l168 450h-168v111h310v-102l-172 -454h179v-111z" />
    <glyph glyph-name="Eta" unicode="&#x397;" horiz-adv-x="484" 
d="M432 0h-126v288h-128v-288h-126v667h126v-269h128v269h126v-667z" />
    <glyph glyph-name="Theta" unicode="&#x398;" horiz-adv-x="478" 
d="M296 284h-114v111h114v-111zM239 -12q-105 0 -156.5 94.5t-51.5 250.5t51.5 250.5t156.5 94.5t156.5 -94.5t51.5 -250.5t-51.5 -250.5t-156.5 -94.5zM239 100q79 0 79 233t-79 233t-79 -233t79 -233z" />
    <glyph glyph-name="Iota" unicode="&#x399;" horiz-adv-x="230" 
d="M178 0h-126v667h126v-667z" />
    <glyph glyph-name="Kappa" unicode="&#x39a;" horiz-adv-x="471" 
d="M468 0h-143l-105 254l-42 -84v-170h-126v667h126v-308l140 308h138l-163 -314z" />
    <glyph glyph-name="Lambda" unicode="&#x39b;" horiz-adv-x="424" 
d="M424 0h-130l-82 526l-82 -526h-130l139 667h145z" />
    <glyph glyph-name="Mu" unicode="&#x39c;" horiz-adv-x="616" 
d="M564 0h-124v394l-111 -394h-42l-109 394v-394h-126v667h160l96 -341l99 341h157v-667z" />
    <glyph glyph-name="Nu" unicode="&#x39d;" horiz-adv-x="484" 
d="M432 0h-119l-135 353v-353h-126v667h126l128 -340v340h126v-667z" />
    <glyph glyph-name="Xi" unicode="&#x39e;" horiz-adv-x="399" 
d="M364 556h-329v111h329v-111zM364 0h-329v111h329v-111zM357 284h-315v111h315v-111z" />
    <glyph glyph-name="Omicron" unicode="&#x39f;" horiz-adv-x="478" 
d="M239 -12q-105 0 -156.5 94.5t-51.5 250.5t51.5 250.5t156.5 94.5t156.5 -94.5t51.5 -250.5t-51.5 -250.5t-156.5 -94.5zM239 100q79 0 79 233t-79 233t-79 -233t79 -233z" />
    <glyph glyph-name="Pi" unicode="&#x3a0;" horiz-adv-x="484" 
d="M432 0h-126v556h-128v-556h-126v667h380v-667z" />
    <glyph glyph-name="Rho" unicode="&#x3a1;" horiz-adv-x="441" 
d="M178 0h-126v667h180q92 0 140 -60.5t48 -150.5t-48 -150.5t-140 -60.5h-54v-245zM219 356q35 0 54 27t19 73t-19 73t-54 27h-41v-200h41z" />
    <glyph glyph-name="Sigma" unicode="&#x3a3;" horiz-adv-x="363" 
d="M166 556l111 -214l-115 -231h171v-111h-298v116l113 228l-113 212v111h298v-111h-167z" />
    <glyph glyph-name="Tau" unicode="&#x3a4;" horiz-adv-x="364" 
d="M245 0h-126v556h-101v111h328v-111h-101v-556z" />
    <glyph glyph-name="Upsilon" unicode="&#x3a5;" horiz-adv-x="430" 
d="M278 0h-125v276l-157 391h134l85 -269l87 269h132l-156 -391v-276z" />
    <glyph glyph-name="Phi" unicode="&#x3a6;" horiz-adv-x="655" 
d="M391 0h-126v68q-118 16 -176 87.5t-58 177.5t58 177.5t176 87.5v69h126v-69q118 -16 176 -87.5t58 -177.5t-58 -177.5t-176 -87.5v-68zM160 333q0 -123 105 -150v300q-105 -27 -105 -150zM496 333q0 122 -105 149v-299q105 27 105 150z" />
    <glyph glyph-name="Chi" unicode="&#x3a7;" horiz-adv-x="438" 
d="M440 0h-139l-82 230l-81 -230h-139l147 340l-139 327h139l73 -218l73 218h140l-140 -326z" />
    <glyph glyph-name="Psi" unicode="&#x3a8;" horiz-adv-x="679" 
d="M402 0h-125v128q-100 15 -162.5 72t-62.5 155v312h127v-310q0 -96 98 -117v427h125v-426q98 21 98 116v310h127v-311q0 -99 -63 -156t-162 -72v-128z" />
    <glyph glyph-name="uni03A9" unicode="&#x3a9;" horiz-adv-x="469" 
d="M36 111h77q-87 85 -87 249q0 147 52.5 232.5t156.5 85.5q103 0 155.5 -85.5t52.5 -232.5q0 -162 -89 -249h78v-111h-169v111q21 21 36 83.5t15 138.5q0 232 -79 232q-80 0 -80 -232q0 -76 15 -138.5t36 -83.5v-111h-170v111z" />
    <glyph glyph-name="Iotadieresis" unicode="&#x3aa;" horiz-adv-x="230" 
d="M178 0h-126v667h126v-667zM259 793q0 -25 -18.5 -43t-44.5 -18t-43.5 18t-17.5 43q0 26 18 44t43 18q26 0 44.5 -18.5t18.5 -43.5zM95 793q0 -26 -18 -43.5t-44 -17.5q-25 0 -43.5 18t-18.5 43t18.5 43.5t43.5 18.5q26 0 44 -18t18 -44z" />
    <glyph glyph-name="Upsilondieresis" unicode="&#x3ab;" horiz-adv-x="430" 
d="M278 0h-125v276l-157 391h134l85 -269l87 269h132l-156 -391v-276zM359 793q0 -25 -18.5 -43t-44.5 -18t-43.5 18t-17.5 43q0 26 18 44t43 18q26 0 44.5 -18.5t18.5 -43.5zM195 793q0 -26 -18 -43.5t-44 -17.5q-25 0 -43.5 18t-18.5 43t18.5 43.5t43.5 18.5q26 0 44 -18
t18 -44z" />
    <glyph glyph-name="alphatonos" unicode="&#x3ac;" horiz-adv-x="435" 
d="M232 557h-51l20 208h97zM417 90l9 -95q-26 -7 -52 -7q-50 0 -73.5 20.5t-31.5 60.5q-14 -36 -41 -58.5t-58 -22.5q-70 0 -106.5 67t-36.5 186q0 117 36.5 185.5t106.5 68.5q28 0 54 -18.5t40 -53.5v60h113v-356q0 -39 26 -39q6 0 14 2zM207 88q18 0 33.5 16.5t23.5 41.5
v190q-8 25 -23.5 41.5t-33.5 16.5q-64 0 -64 -153t64 -153z" />
    <glyph glyph-name="epsilontonos" unicode="&#x3ad;" horiz-adv-x="378" 
d="M204 557h-51l20 208h97zM197 -12q-77 0 -124 40.5t-47 102.5q0 45 28 77t73 40q-41 7 -67.5 41t-26.5 74q0 62 48.5 97t129.5 35q91 0 150 -73l-55 -67q-36 49 -95 49q-32 0 -51 -14.5t-19 -42.5t18 -43t50 -15h77v-90h-81q-70 0 -70 -57q0 -29 18 -46t49 -17
q72 0 109 52l55 -66q-58 -77 -169 -77z" />
    <glyph glyph-name="etatonos" unicode="&#x3ae;" 
d="M224 557h-51l20 208h97zM375 -184h-114v528q0 51 -37 51q-20 0 -38 -19t-27 -44v-332h-113v483h113v-63q15 30 48 52.5t65 22.5q103 0 103 -110v-569z" />
    <glyph glyph-name="iotatonos" unicode="&#x3af;" horiz-adv-x="216" 
d="M123 557h-51l20 208h97zM155 -12q-58 0 -83.5 30t-25.5 93v372h113v-356q0 -39 26 -39q4 0 14 2l8 -95q-26 -7 -52 -7z" />
    <glyph glyph-name="upsilondieresistonos" unicode="&#x3b0;" horiz-adv-x="419" 
d="M220 557h-50l19 208h98zM407 609q0 -25 -18.5 -43t-44.5 -18t-43.5 18t-17.5 43q0 26 18 44t43 18q26 0 44.5 -18t18.5 -44zM135 609q0 -25 -17.5 -43t-43.5 -18t-44 18t-18 43t18 43.5t44 18.5q25 0 43 -18t18 -44zM210 -12q-72 0 -118 47t-46 131v317h113v-317
q0 -78 51 -78q65 0 65 169q0 105 -45 201l106 37q56 -111 56 -238q0 -119 -45.5 -194t-136.5 -75z" />
    <glyph glyph-name="alpha" unicode="&#x3b1;" horiz-adv-x="435" 
d="M417 90l9 -95q-26 -7 -52 -7q-50 0 -73.5 20.5t-31.5 60.5q-14 -36 -41 -58.5t-58 -22.5q-70 0 -106.5 67t-36.5 186q0 117 36.5 185.5t106.5 68.5q28 0 54 -18.5t40 -53.5v60h113v-356q0 -39 26 -39q6 0 14 2zM207 88q18 0 33.5 16.5t23.5 41.5v190q-8 25 -23.5 41.5
t-33.5 16.5q-64 0 -64 -153t64 -153z" />
    <glyph glyph-name="beta" unicode="&#x3b2;" horiz-adv-x="423" 
d="M159 458v-312q8 -25 24 -41.5t35 -16.5q30 0 45 29.5t15 69.5q0 51 -18 76.5t-44 25.5h-16v100h11q26 0 40.5 25t14.5 69q0 93 -48 93q-59 0 -59 -118zM159 60v-244h-113v642q0 115 49 167t125 52q75 0 119 -46t44 -134q0 -56 -21.5 -97.5t-66.5 -54.5q46 -12 73.5 -59
t27.5 -119q0 -74 -37.5 -126.5t-102.5 -52.5q-29 0 -55.5 18.5t-41.5 53.5z" />
    <glyph glyph-name="gamma" unicode="&#x3b3;" horiz-adv-x="380" 
d="M246 -184h-113v120q0 310 -141 547h123q80 -172 87 -325q48 133 48 325h114q0 -116 -33.5 -243.5t-84.5 -229.5v-194z" />
    <glyph glyph-name="delta" unicode="&#x3b4;" horiz-adv-x="417" 
d="M213 -12q-92 0 -139 62.5t-47 155.5q0 125 89 216q-54 52 -54 120q0 58 41 97.5t113 39.5q82 0 141 -57l-46 -76q-14 18 -39.5 31t-53.5 13q-23 0 -37.5 -13t-14.5 -32q0 -20 23 -41t56 -44.5t66 -55t56 -85t23 -121.5q0 -88 -43.5 -149t-133.5 -61zM285 197q0 55 -23 92
t-64 69q-54 -61 -54 -151q0 -119 70 -119q37 0 54 31.5t17 77.5z" />
    <glyph glyph-name="epsilon" unicode="&#x3b5;" horiz-adv-x="378" 
d="M197 -12q-77 0 -124 40.5t-47 102.5q0 45 28 77t73 40q-41 7 -67.5 41t-26.5 74q0 62 48.5 97t129.5 35q91 0 150 -73l-55 -67q-36 49 -95 49q-32 0 -51 -14.5t-19 -42.5t18 -43t50 -15h77v-90h-81q-70 0 -70 -57q0 -29 18 -46t49 -17q72 0 109 52l55 -66
q-58 -77 -169 -77z" />
    <glyph glyph-name="zeta" unicode="&#x3b6;" horiz-adv-x="344" 
d="M225 -41q0 16 -6 22.5t-22 6.5q-74 0 -122 58.5t-48 140.5q0 220 179 382h-173v98h285v-82q-84 -83 -129.5 -182t-45.5 -194q0 -53 22.5 -87t68.5 -34q89 0 89 -95q0 -61 -42 -150h-98q42 82 42 116z" />
    <glyph glyph-name="eta" unicode="&#x3b7;" 
d="M375 -184h-114v528q0 51 -37 51q-20 0 -38 -19t-27 -44v-332h-113v483h113v-63q15 30 48 52.5t65 22.5q103 0 103 -110v-569z" />
    <glyph glyph-name="theta" unicode="&#x3b8;" horiz-adv-x="417" 
d="M208 -12q-62 0 -103.5 46.5t-59.5 122t-18 177.5q0 157 44.5 251t136.5 94t137 -93.5t45 -251.5q0 -157 -45 -251.5t-137 -94.5zM208 88q34 0 48 46.5t16 151.5h-128q2 -105 16.5 -151.5t47.5 -46.5zM208 579q-33 0 -47.5 -46t-16.5 -149h128q-2 103 -16.5 149t-47.5 46z
" />
    <glyph glyph-name="iota" unicode="&#x3b9;" horiz-adv-x="216" 
d="M155 -12q-58 0 -83.5 30t-25.5 93v372h113v-356q0 -39 26 -39q4 0 14 2l8 -95q-26 -7 -52 -7z" />
    <glyph glyph-name="kappa" unicode="&#x3ba;" horiz-adv-x="403" 
d="M398 0h-124l-71 193l-44 -80v-113h-113v483h113v-223l111 223h123l-115 -214z" />
    <glyph glyph-name="lambda" unicode="&#x3bb;" horiz-adv-x="380" 
d="M56 573l-16 99q19 7 54 7q55 0 85.5 -23.5t47.5 -87.5l152 -568h-119l-70 340l-68 -340h-120l131 495l-14 50q-10 34 -40 34q-13 0 -23 -6z" />
    <glyph glyph-name="uni03BC" unicode="&#x3bc;" horiz-adv-x="432" 
d="M159 1v-185h-113v667h113v-346q0 -50 39 -50q20 0 37 18t26 44v334h114v-356q0 -39 26 -39q4 0 14 2l8 -95q-26 -7 -52 -7q-47 0 -72.5 21t-33.5 65q-11 -38 -31 -62t-44 -24q-20 0 -31 13z" />
    <glyph glyph-name="nu" unicode="&#x3bd;" horiz-adv-x="380" 
d="M241 0h-112l-127 483h120l71 -356q57 156 57 356h114q0 -118 -35 -249.5t-88 -233.5z" />
    <glyph glyph-name="xi" unicode="&#x3be;" horiz-adv-x="344" 
d="M197 -12q-75 0 -122.5 51t-47.5 129q0 55 27 96t71 58q-45 10 -67.5 45t-22.5 79q0 36 19.5 69.5t55.5 53.5h-68v98h269v-98h-122q-43 -28 -43 -86q0 -46 21.5 -70t56.5 -24h80v-99h-80q-34 0 -57.5 -25t-23.5 -76q0 -40 22 -70.5t69 -30.5q89 0 89 -95q0 -61 -42 -150
h-98q42 82 42 116q0 16 -6 22.5t-22 6.5z" />
    <glyph glyph-name="omicron" unicode="&#x3bf;" horiz-adv-x="417" 
d="M208 -12q-89 0 -135 72.5t-46 181.5t46 181t135 72q90 0 136 -72t46 -181t-46 -181.5t-136 -72.5zM208 88q65 0 65 154q0 153 -65 153q-64 0 -64 -153q0 -154 64 -154z" />
    <glyph glyph-name="pi" unicode="&#x3c0;" horiz-adv-x="451" 
d="M390 0h-113v385h-103v-385h-113v385h-45v98h420v-98h-46v-385z" />
    <glyph glyph-name="rho" unicode="&#x3c1;" horiz-adv-x="423" 
d="M253 -12q-28 0 -54 18.5t-40 53.5v-244h-113v426q0 109 44 181t130 72t131 -71.5t45 -181.5q0 -117 -36.5 -185.5t-106.5 -68.5zM216 88q64 0 64 154q0 153 -61 153q-60 0 -60 -153v-96q8 -25 23.5 -41.5t33.5 -16.5z" />
    <glyph glyph-name="sigma1" unicode="&#x3c2;" horiz-adv-x="340" 
d="M197 -12q-72 0 -121 72t-49 182q0 113 49.5 183t134.5 70q74 0 117 -43l-36 -88q-30 31 -61 31q-42 0 -65 -43.5t-23 -109.5q0 -67 23 -110.5t65 -43.5q90 0 90 -95q0 -64 -42 -150h-96q42 77 42 116q0 16 -6 22.5t-22 6.5z" />
    <glyph glyph-name="sigma" unicode="&#x3c3;" horiz-adv-x="417" 
d="M384 217q0 -93 -44 -161t-132 -68q-86 0 -133.5 71.5t-47.5 182.5q0 103 48.5 172t146.5 69h180v-100h-71q53 -64 53 -166zM273 228q0 112 -40 155h-10q-79 0 -79 -141q0 -154 64 -154q65 0 65 140z" />
    <glyph glyph-name="tau" unicode="&#x3c4;" horiz-adv-x="306" 
d="M206 -12q-58 0 -83.5 30t-25.5 93v274h-82v98h276v-98h-82v-252q0 -45 27 -45q17 0 27 13l23 -88q-28 -25 -80 -25z" />
    <glyph glyph-name="upsilon" unicode="&#x3c5;" horiz-adv-x="419" 
d="M210 -12q-72 0 -118 47t-46 131v317h113v-317q0 -78 51 -78q65 0 65 169q0 105 -45 201l106 37q56 -111 56 -238q0 -119 -45.5 -194t-136.5 -75z" />
    <glyph glyph-name="phi" unicode="&#x3c6;" horiz-adv-x="609" 
d="M582 242q0 -96 -56 -166t-165 -84v-176h-113v176q-110 15 -165.5 85t-55.5 169q0 173 145 249l52 -88q-80 -45 -80 -161q0 -128 104 -153v402h56q138 0 208 -72t70 -181zM466 242q0 61 -26.5 101t-78.5 47v-296q105 25 105 148z" />
    <glyph glyph-name="chi" unicode="&#x3c7;" horiz-adv-x="372" 
d="M368 -184h-119l-63 223l-64 -223h-119l113 336l-108 331h118l60 -218l59 218h118l-107 -331z" />
    <glyph glyph-name="psi" unicode="&#x3c8;" horiz-adv-x="610" 
d="M361 -184h-113v176q-92 14 -147 71.5t-55 159.5v260h112v-260q0 -109 90 -130v574h113v-574q90 22 90 130v260h113v-260q0 -102 -55.5 -159.5t-147.5 -71.5v-176z" />
    <glyph glyph-name="omega" unicode="&#x3c9;" horiz-adv-x="636" 
d="M610 242q0 -110 -41.5 -182t-118.5 -72q-50 0 -85.5 31t-46.5 88q-11 -57 -46.5 -88t-85.5 -31q-76 0 -117.5 72t-41.5 182q0 79 27.5 149.5t75.5 103.5l84 -62q-36 -25 -53 -81t-17 -112q0 -152 58 -152q59 0 59 154v122h114v-122q0 -154 59 -154q58 0 58 154
q0 55 -17 110.5t-53 80.5l84 62q48 -33 76 -104t28 -149z" />
    <glyph glyph-name="iotadieresis" unicode="&#x3ca;" horiz-adv-x="216" 
d="M253 609q0 -25 -18.5 -43t-44.5 -18t-43.5 18t-17.5 43q0 26 18 44t43 18q26 0 44.5 -18.5t18.5 -43.5zM89 609q0 -26 -18 -43.5t-44 -17.5q-25 0 -43.5 18t-18.5 43t18.5 43.5t43.5 18.5q26 0 44 -18t18 -44zM155 -12q-58 0 -83.5 30t-25.5 93v372h113v-356
q0 -39 26 -39q4 0 14 2l8 -95q-26 -7 -52 -7z" />
    <glyph glyph-name="upsilondieresis" unicode="&#x3cb;" horiz-adv-x="419" 
d="M353 609q0 -25 -18.5 -43t-44.5 -18t-43.5 18t-17.5 43q0 26 18 44t43 18q26 0 44.5 -18.5t18.5 -43.5zM189 609q0 -26 -18 -43.5t-44 -17.5q-25 0 -43.5 18t-18.5 43t18.5 43.5t43.5 18.5q26 0 44 -18t18 -44zM210 -12q-72 0 -118 47t-46 131v317h113v-317q0 -78 51 -78
q65 0 65 169q0 105 -45 201l106 37q56 -111 56 -238q0 -119 -45.5 -194t-136.5 -75z" />
    <glyph glyph-name="omicrontonos" unicode="&#x3cc;" horiz-adv-x="417" 
d="M223 557h-51l20 208h97zM208 -12q-89 0 -135 72.5t-46 181.5t46 181t135 72q90 0 136 -72t46 -181t-46 -181.5t-136 -72.5zM208 88q65 0 65 154q0 153 -65 153q-64 0 -64 -153q0 -154 64 -154z" />
    <glyph glyph-name="upsilontonos" unicode="&#x3cd;" horiz-adv-x="419" 
d="M224 557h-51l20 208h97zM210 -12q-72 0 -118 47t-46 131v317h113v-317q0 -78 51 -78q65 0 65 169q0 105 -45 201l106 37q56 -111 56 -238q0 -119 -45.5 -194t-136.5 -75z" />
    <glyph glyph-name="omegatonos" unicode="&#x3ce;" horiz-adv-x="636" 
d="M333 557h-51l20 208h97zM610 242q0 -110 -41.5 -182t-118.5 -72q-50 0 -85.5 31t-46.5 88q-11 -57 -46.5 -88t-85.5 -31q-76 0 -117.5 72t-41.5 182q0 79 27.5 149.5t75.5 103.5l84 -62q-36 -25 -53 -81t-17 -112q0 -152 58 -152q59 0 59 154v122h114v-122
q0 -154 59 -154q58 0 58 154q0 55 -17 110.5t-53 80.5l84 62q48 -33 76 -104t28 -149z" />
    <glyph glyph-name="afii10023" unicode="&#x401;" horiz-adv-x="378" 
d="M342 776q0 -25 -18.5 -43t-44.5 -18q-25 0 -43 17.5t-18 43.5t18 44t43 18q26 0 44.5 -18.5t18.5 -43.5zM178 776q0 -26 -18 -43.5t-44 -17.5q-25 0 -43.5 18t-18.5 43t18.5 43.5t43.5 18.5q26 0 44 -18t18 -44zM344 0h-292v667h292v-111h-166v-161h159v-111h-159v-173
h166v-111z" />
    <glyph glyph-name="afii10051" unicode="&#x402;" horiz-adv-x="517" 
d="M285 -12v112q74 0 74 92v19q0 45 -23.5 72.5t-63.5 27.5q-30 0 -49 -5l1 -306h-127v556h-101v111h328v-111h-101v-141q37 7 70 7q90 0 141 -61t51 -150v-19q0 -106 -55.5 -155t-144.5 -49z" />
    <glyph glyph-name="afii10052" unicode="&#x403;" horiz-adv-x="376" 
d="M332 867l-106 -144h-72l79 144h99zM178 0h-126v667h292v-111h-166v-556z" />
    <glyph glyph-name="afii10053" unicode="&#x404;" horiz-adv-x="429" 
d="M240 -12q-105 0 -157 94t-52 251t52 251t157 94q38 0 68 -13.5t49 -39t30 -49.5t20 -55l-100 -37q-12 42 -26.5 62t-40.5 20q-69 0 -79 -171h176v-111h-176q7 -184 79 -184q52 0 68 97l101 -37q-43 -172 -169 -172z" />
    <glyph glyph-name="afii10054" unicode="&#x405;" horiz-adv-x="396" 
d="M184 -12q-106 0 -172 66l55 99q41 -53 109 -53q30 0 48.5 20.5t18.5 52.5t-22 58.5t-53 48t-62 46.5t-53 67.5t-22 98.5q0 78 50.5 132t135.5 54q88 0 145 -54l-49 -97q-38 39 -92 39q-27 0 -44.5 -18.5t-17.5 -48.5q0 -28 22 -53t53 -47t62 -48.5t53 -70.5t22 -99
q0 -85 -51 -139t-136 -54z" />
    <glyph glyph-name="afii10055" unicode="&#x406;" horiz-adv-x="230" 
d="M178 0h-126v667h126v-667z" />
    <glyph glyph-name="afii10056" unicode="&#x407;" horiz-adv-x="230" 
d="M178 0h-126v667h126v-667zM259 776q0 -25 -18.5 -43t-44.5 -18t-43.5 17.5t-17.5 43.5t18 44t43 18q26 0 44.5 -18.5t18.5 -43.5zM95 776q0 -26 -18 -43.5t-44 -17.5q-25 0 -43.5 18t-18.5 43t18.5 43.5t43.5 18.5q26 0 44 -18t18 -44z" />
    <glyph glyph-name="afii10057" unicode="&#x408;" horiz-adv-x="348" 
d="M117 -12q-66 0 -109 36l34 103q24 -27 61 -27q69 0 69 73v494h126v-500q0 -90 -48.5 -134.5t-132.5 -44.5z" />
    <glyph glyph-name="afii10058" unicode="&#x409;" horiz-adv-x="695" 
d="M17 -12v112q24 0 37 11.5t24.5 58t17.5 137.5l24 360h312v-245h54q92 0 140 -60.5t48 -150.5t-48 -150.5t-140 -60.5h-180v556h-70l-16 -254q-6 -99 -22.5 -163.5t-45 -96t-59.5 -43t-76 -11.5zM473 311h-41v-200h41q35 0 53.5 26.5t18.5 73.5q0 46 -18.5 73t-53.5 27z
" />
    <glyph glyph-name="afii10059" unicode="&#x40a;" horiz-adv-x="695" 
d="M52 0v667h126v-269h128v269h126v-269h54q92 0 140 -56.5t48 -142.5q0 -85 -48 -142t-140 -57h-180v288h-128v-288h-126zM432 111h41q35 0 53.5 23.5t18.5 65.5q0 40 -19 64t-53 24h-41v-177z" />
    <glyph glyph-name="afii10060" unicode="&#x40b;" horiz-adv-x="517" 
d="M351 0v211q0 46 -20 73t-59 27q-30 0 -49 -5l1 -306h-127v556h-101v111h328v-111h-101v-141q37 7 70 7q90 0 137 -60.5t47 -150.5v-211h-126z" />
    <glyph glyph-name="afii10061" unicode="&#x40c;" horiz-adv-x="471" 
d="M371 867l-106 -144h-72l79 144h99zM468 0h-143l-105 254l-42 -84v-170h-126v667h126v-308l140 308h138l-163 -314z" />
    <glyph glyph-name="afii10062" unicode="&#x40e;" horiz-adv-x="430" 
d="M94 -12q-56 0 -100 28l29 104q22 -19 54 -19q37 0 51 45l21 62l-153 459h134l86 -288l85 288h133l-182 -546q-25 -73 -61 -103t-97 -30zM339 775q-45 -63 -124 -63q-77 0 -124 63l53 40q24 -37 71 -37t71 37z" />
    <glyph glyph-name="afii10145" unicode="&#x40f;" horiz-adv-x="484" 
d="M52 0v667h126v-556h128v556h126v-667h-127v-128h-126v128h-127z" />
    <glyph glyph-name="afii10017" unicode="&#x410;" horiz-adv-x="424" 
d="M424 0h-130l-20 123h-124l-20 -123h-130l139 667h145zM260 234l-48 292l-48 -292h96z" />
    <glyph glyph-name="afii10018" unicode="&#x411;" horiz-adv-x="441" 
d="M52 667h333v-111h-207v-134h54q92 0 140 -60.5t48 -150.5t-48 -150.5t-140 -60.5h-180v667zM219 311h-41v-200h41q35 0 54 27t19 73t-19 73t-54 27z" />
    <glyph glyph-name="afii10019" unicode="&#x412;" horiz-adv-x="452" 
d="M260 0h-208v667h201q79 0 119.5 -48t40.5 -122q0 -61 -26.5 -100.5t-71.5 -52.5q47 -7 77 -54.5t30 -109.5q0 -81 -40 -130.5t-122 -49.5zM220 395q64 0 64 80q0 81 -64 81h-42v-161h42zM224 111q69 0 69 87q0 39 -17.5 62.5t-51.5 23.5h-46v-173h46z" />
    <glyph glyph-name="afii10020" unicode="&#x413;" horiz-adv-x="376" 
d="M178 0h-126v667h292v-111h-166v-556z" />
    <glyph glyph-name="afii10021" unicode="&#x414;" horiz-adv-x="496" 
d="M15 -123v223q25 5 37.5 16t25 59.5t18.5 145.5l24 346h312v-556h52v-234h-126v123h-217v-123h-126zM222 328q-10 -149 -59 -217h143v445h-70z" />
    <glyph glyph-name="afii10022" unicode="&#x415;" horiz-adv-x="378" 
d="M344 0h-292v667h292v-111h-166v-161h159v-111h-159v-173h166v-111z" />
    <glyph glyph-name="afii10024" unicode="&#x416;" horiz-adv-x="653" 
d="M145 0h-142l174 353l-162 314h138l111 -244v244h126v-242l110 242h138l-162 -314l174 -353h-142l-106 254l-12 -24v-230h-126v228l-13 26z" />
    <glyph glyph-name="afii10025" unicode="&#x417;" horiz-adv-x="440" 
d="M214 -12q-64 0 -114.5 30.5t-79.5 78.5l86 74q40 -71 101 -71q75 0 75 93q0 45 -24 68t-59 23h-76v110h67q39 0 61 22t22 63q0 86 -72 86q-57 0 -91 -64l-82 67q63 109 186 109q85 0 136.5 -45.5t51.5 -134.5q0 -54 -31.5 -97.5t-85.5 -55.5q59 -10 92.5 -54t33.5 -107
q0 -88 -53.5 -141.5t-143.5 -53.5z" />
    <glyph glyph-name="afii10026" unicode="&#x418;" horiz-adv-x="484" 
d="M171 0h-119v667h127v-361l127 361h126v-667h-126v374z" />
    <glyph glyph-name="afii10027" unicode="&#x419;" horiz-adv-x="484" 
d="M171 0h-119v667h127v-361l127 361h126v-667h-126v374zM365 775q-45 -63 -124 -63q-77 0 -124 63l53 40q24 -37 71 -37t71 37z" />
    <glyph glyph-name="afii10028" unicode="&#x41a;" horiz-adv-x="471" 
d="M468 0h-143l-105 254l-42 -84v-170h-126v667h126v-308l140 308h138l-163 -314z" />
    <glyph glyph-name="afii10029" unicode="&#x41b;" horiz-adv-x="484" 
d="M17 -12v112q24 0 37 11.5t24.5 58t17.5 137.5l24 360h312v-667h-127v556h-69l-16 -254q-6 -99 -22.5 -163.5t-45 -96t-59.5 -43t-76 -11.5z" />
    <glyph glyph-name="afii10030" unicode="&#x41c;" horiz-adv-x="616" 
d="M564 0h-124v394l-111 -394h-42l-109 394v-394h-126v667h160l96 -341l99 341h157v-667z" />
    <glyph glyph-name="afii10031" unicode="&#x41d;" horiz-adv-x="484" 
d="M432 0h-126v288h-128v-288h-126v667h126v-269h128v269h126v-667z" />
    <glyph glyph-name="afii10032" unicode="&#x41e;" horiz-adv-x="478" 
d="M239 -12q-105 0 -156.5 94.5t-51.5 250.5t51.5 250.5t156.5 94.5t156.5 -94.5t51.5 -250.5t-51.5 -250.5t-156.5 -94.5zM239 100q79 0 79 233t-79 233t-79 -233t79 -233z" />
    <glyph glyph-name="afii10033" unicode="&#x41f;" horiz-adv-x="484" 
d="M432 0h-126v556h-128v-556h-126v667h380v-667z" />
    <glyph glyph-name="afii10034" unicode="&#x420;" horiz-adv-x="441" 
d="M178 0h-126v667h180q92 0 140 -60.5t48 -150.5t-48 -150.5t-140 -60.5h-54v-245zM219 356q35 0 54 27t19 73t-19 73t-54 27h-41v-200h41z" />
    <glyph glyph-name="afii10035" unicode="&#x421;" horiz-adv-x="429" 
d="M240 -12q-105 0 -157 94t-52 251t52 251t157 94q38 0 68 -13.5t49 -39t30 -49.5t20 -55l-100 -37q-12 42 -26.5 62t-40.5 20q-80 0 -80 -233t80 -233q52 0 68 97l101 -37q-43 -172 -169 -172z" />
    <glyph glyph-name="afii10036" unicode="&#x422;" horiz-adv-x="364" 
d="M245 0h-126v556h-101v111h328v-111h-101v-556z" />
    <glyph glyph-name="afii10037" unicode="&#x423;" horiz-adv-x="430" 
d="M94 -12q-56 0 -100 28l29 104q22 -19 54 -19q37 0 51 45l21 62l-153 459h134l86 -288l85 288h133l-182 -546q-25 -73 -61 -103t-97 -30z" />
    <glyph glyph-name="afii10038" unicode="&#x424;" horiz-adv-x="655" 
d="M391 0h-126v68q-118 16 -176 87.5t-58 177.5t58 177.5t176 87.5v69h126v-69q118 -16 176 -87.5t58 -177.5t-58 -177.5t-176 -87.5v-68zM160 333q0 -123 105 -150v300q-105 -27 -105 -150zM496 333q0 122 -105 149v-299q105 27 105 150z" />
    <glyph glyph-name="afii10039" unicode="&#x425;" horiz-adv-x="438" 
d="M440 0h-139l-82 230l-81 -230h-139l147 340l-139 327h139l73 -218l73 218h140l-140 -326z" />
    <glyph glyph-name="afii10040" unicode="&#x426;" horiz-adv-x="496" 
d="M358 -123v123h-306v667h126v-556h128v556h126v-556h52v-234h-126z" />
    <glyph glyph-name="afii10041" unicode="&#x427;" horiz-adv-x="471" 
d="M166 667v-211q0 -46 20 -73t59 -27q29 0 48 5v306h127v-667h-127v252q-38 -7 -70 -7q-89 0 -136 60.5t-47 150.5v211h126z" />
    <glyph glyph-name="afii10042" unicode="&#x428;" horiz-adv-x="693" 
d="M515 667h126v-667h-589v667h126v-556h106v556h126v-556h105v556z" />
    <glyph glyph-name="afii10043" unicode="&#x429;" horiz-adv-x="705" 
d="M515 667h126v-556h52v-234h-126v123h-515v667h126v-556h106v556h126v-556h105v556z" />
    <glyph glyph-name="afii10044" unicode="&#x42a;" horiz-adv-x="508" 
d="M299 0h-180v556h-101v111h227v-245h54q92 0 140 -60.5t48 -150.5t-48 -150.5t-140 -60.5zM286 311h-41v-200h41q35 0 54 27t19 73t-19 73t-54 27z" />
    <glyph glyph-name="afii10045" unicode="&#x42b;" horiz-adv-x="647" 
d="M52 667h126v-245h54q92 0 140 -60.5t48 -150.5t-48 -150.5t-140 -60.5h-180v667zM219 311h-41v-200h41q35 0 54 27t19 73t-19 73t-54 27zM595 0h-126v667h126v-667z" />
    <glyph glyph-name="afii10046" unicode="&#x42c;" horiz-adv-x="441" 
d="M52 667h126v-245h54q92 0 140 -60.5t48 -150.5t-48 -150.5t-140 -60.5h-180v667zM219 311h-41v-200h41q35 0 54 27t19 73t-19 73t-54 27z" />
    <glyph glyph-name="afii10047" unicode="&#x42d;" horiz-adv-x="429" 
d="M189 -12q-128 0 -169 172l101 37q16 -97 68 -97q71 0 79 184h-177v111h176q-10 171 -78 171q-27 0 -41.5 -20t-25.5 -62l-101 37q10 32 21 55.5t30 49t49 39t68 13.5q105 0 157 -94t52 -251t-52 -251t-157 -94z" />
    <glyph glyph-name="afii10048" unicode="&#x42e;" horiz-adv-x="697" 
d="M458 -12q-98 0 -149 81t-58 219h-73v-288h-126v667h126v-269h74q10 129 61 204.5t145 75.5q105 0 157 -94.5t52 -250.5t-52 -250.5t-157 -94.5zM458 100q80 0 80 233t-80 233q-79 0 -79 -233t79 -233z" />
    <glyph glyph-name="afii10049" unicode="&#x42f;" horiz-adv-x="460" 
d="M169 0h-135l92 276q-86 45 -86 184q0 91 51 149t131 58h185v-667h-125v245h-41zM241 356h41v200h-41q-35 0 -54 -27t-19 -73t19 -73t54 -27z" />
    <glyph glyph-name="afii10065" unicode="&#x430;" horiz-adv-x="415" 
d="M369 0h-113v46q-15 -27 -44 -42.5t-57 -15.5q-58 0 -94.5 44t-36.5 117q0 72 36.5 114.5t94.5 42.5q29 0 58 -14.5t43 -39.5v59q0 88 -73 88q-51 0 -98 -48l-42 80q31 33 75.5 48.5t87.5 15.5q77 0 120 -39.5t43 -118.5v-337zM195 64q19 0 35.5 13.5t25.5 36.5v65
q-9 23 -25.5 36.5t-35.5 13.5q-28 0 -43 -23t-15 -59t15 -59.5t43 -23.5z" />
    <glyph glyph-name="afii10066" unicode="&#x431;" horiz-adv-x="416" 
d="M207 88q65 0 65 155q0 152 -65 152q-64 0 -64 -152q0 -155 64 -155zM208 -12q-93 0 -137.5 74.5t-44.5 201.5q0 100 7 160t28.5 103t56 63.5t93.5 33.5q52 12 52 43h112q0 -33 -12.5 -58t-35.5 -39t-42 -21t-45 -13q-61 -14 -89 -36.5t-34 -66.5q35 62 111 62
q81 0 121.5 -72t40.5 -180q0 -109 -46 -182t-136 -73z" />
    <glyph glyph-name="afii10067" unicode="&#x432;" horiz-adv-x="418" 
d="M235 0h-189v483h182q76 0 113 -34.5t37 -88.5q0 -42 -23 -70.5t-62 -39.5q42 -9 68 -42t26 -77q0 -59 -37 -95t-115 -36zM209 90q62 0 62 55q0 25 -15.5 41t-46.5 16h-50v-112h50zM204 292q58 0 58 51q0 50 -58 50h-45v-101h45z" />
    <glyph glyph-name="afii10068" unicode="&#x433;" horiz-adv-x="312" 
d="M296 483v-98h-137v-385h-113v483h250z" />
    <glyph glyph-name="afii10069" unicode="&#x434;" horiz-adv-x="434" 
d="M16 -123v209q29 4 44 29.5t20 106.5l16 261h279v-384h47v-222h-113v123h-180v-123h-113zM203 385l-9 -163q-6 -84 -41 -123h108v286h-58z" />
    <glyph glyph-name="afii10070" unicode="&#x435;" horiz-adv-x="404" 
d="M219 -12q-92 0 -142 70t-50 184q0 110 47 181.5t134 71.5t130 -69t43 -182v-39h-245q1 -56 25 -90.5t70 -34.5q45 0 80 48l55 -63q-60 -77 -147 -77zM272 284q0 119 -67 119q-37 0 -53 -36t-16 -83h136z" />
    <glyph glyph-name="afii10072" unicode="&#x436;" horiz-adv-x="539" 
d="M129 0h-123l119 269l-115 214h123l80 -161v161h113v-161l80 161h124l-115 -214l119 -269h-124l-71 193l-13 -24v-169h-113v169l-13 24z" />
    <glyph glyph-name="afii10073" unicode="&#x437;" horiz-adv-x="378" 
d="M181 -12q-111 0 -169 77l55 66q37 -52 109 -52q31 0 49 17t18 46q0 57 -70 57h-81v90h77q32 0 50 15t18 43t-19 42.5t-51 14.5q-59 0 -95 -49l-55 67q57 73 150 73q81 0 129.5 -35t48.5 -97q0 -40 -26.5 -74t-67.5 -41q45 -8 73 -40t28 -77q0 -62 -47 -102.5t-124 -40.5z
" />
    <glyph glyph-name="afii10074" unicode="&#x438;" 
d="M156 0h-110v483h113v-252l98 252h117v-483h-113v264z" />
    <glyph glyph-name="afii10075" unicode="&#x439;" 
d="M156 0h-110v483h113v-252l98 252h117v-483h-113v264zM334 608q-45 -63 -124 -63q-77 0 -124 63l53 40q24 -37 71 -37t71 37z" />
    <glyph glyph-name="afii10076" unicode="&#x43a;" horiz-adv-x="403" 
d="M398 0h-124l-71 193l-44 -80v-113h-113v483h113v-223l111 223h123l-115 -214z" />
    <glyph glyph-name="afii10077" unicode="&#x43b;" 
d="M16 -12v98q29 0 43.5 25.5t20.5 110.5l16 261h279v-483h-114v385h-58l-10 -172q-8 -131 -50 -178t-127 -47z" />
    <glyph glyph-name="afii10078" unicode="&#x43c;" horiz-adv-x="531" 
d="M485 0h-111v272l-86 -272h-45l-84 272v-272h-113v483h139l81 -251l82 251h137v-483z" />
    <glyph glyph-name="afii10079" unicode="&#x43d;" 
d="M159 0h-113v483h113v-182h102v182h114v-483h-114v203h-102v-203z" />
    <glyph glyph-name="afii10080" unicode="&#x43e;" horiz-adv-x="417" 
d="M208 -12q-89 0 -135 72.5t-46 181.5t46 181t135 72q90 0 136 -72t46 -181t-46 -181.5t-136 -72.5zM208 88q65 0 65 154q0 153 -65 153q-64 0 -64 -153q0 -154 64 -154z" />
    <glyph glyph-name="afii10081" unicode="&#x43f;" 
d="M375 0h-114v385h-102v-385h-113v483h329v-483z" />
    <glyph glyph-name="afii10082" unicode="&#x440;" horiz-adv-x="423" 
d="M253 -12q-28 0 -54 18.5t-40 53.5v-244h-113v667h113v-60q15 34 41 53t53 19q70 0 106.5 -67t36.5 -186q0 -117 -36.5 -185.5t-106.5 -68.5zM216 88q64 0 64 154q0 153 -64 153q-18 0 -33.5 -16t-23.5 -41v-192q8 -25 23.5 -41.5t33.5 -16.5z" />
    <glyph glyph-name="afii10083" unicode="&#x441;" horiz-adv-x="344" 
d="M211 -12q-85 0 -134.5 70.5t-49.5 183.5t49.5 183t134.5 70q74 0 117 -43l-36 -88q-30 31 -61 31q-42 0 -65 -43.5t-23 -109.5q0 -67 23 -110.5t65 -43.5q31 0 61 31l36 -88q-40 -43 -117 -43z" />
    <glyph glyph-name="afii10084" unicode="&#x442;" horiz-adv-x="302" 
d="M208 0h-114v385h-78v98h270v-98h-78v-385z" />
    <glyph glyph-name="afii10085" unicode="&#x443;" horiz-adv-x="380" 
d="M40 -189l16 98q12 -5 23 -5q30 0 40 34l14 50l-131 495h120l68 -340l70 340h119l-152 -568q-17 -64 -47.5 -87.5t-85.5 -23.5q-35 0 -54 7z" />
    <glyph glyph-name="afii10086" unicode="&#x444;" horiz-adv-x="629" 
d="M168 495q26 0 51 -18.5t39 -53.5v244h113v-244q14 35 39 53.5t51 18.5q66 0 100.5 -67.5t34.5 -185.5q0 -117 -35 -185.5t-100 -68.5q-27 0 -52 18.5t-38 53.5v-244h-113v244q-14 -36 -38.5 -54t-51.5 -18q-66 0 -100.5 68t-34.5 186t34.5 185.5t100.5 67.5zM207 395
q-58 0 -58 -153q0 -154 60 -154q14 0 27.5 16.5t21.5 40.5v193q-8 25 -22 41t-29 16zM420 88q60 0 60 154q0 153 -58 153q-16 0 -30 -16t-21 -41v-192q7 -25 20.5 -41.5t28.5 -16.5z" />
    <glyph glyph-name="afii10087" unicode="&#x445;" horiz-adv-x="372" 
d="M368 0h-120l-62 160l-63 -160h-120l113 243l-108 240h120l58 -156l58 156h119l-107 -240z" />
    <glyph glyph-name="afii10088" unicode="&#x446;" horiz-adv-x="434" 
d="M309 -123v123h-263v483h113v-384h102v384h114v-384h47v-222h-113z" />
    <glyph glyph-name="afii10089" unicode="&#x447;" horiz-adv-x="412" 
d="M37 483h113v-162q0 -49 49 -49q30 0 54 14v197h113v-483h-113v200q-35 -28 -93 -28q-67 0 -95 27.5t-28 82.5v201z" />
    <glyph glyph-name="afii10090" unicode="&#x448;" horiz-adv-x="612" 
d="M453 483h113v-483h-520v483h113v-384h90v384h113v-384h91v384z" />
    <glyph glyph-name="afii10091" unicode="&#x449;" horiz-adv-x="626" 
d="M453 483h113v-384h48v-222h-113v123h-455v483h113v-384h90v384h113v-384h91v384z" />
    <glyph glyph-name="afii10092" unicode="&#x44a;" horiz-adv-x="449" 
d="M254 0h-160v385h-78v98h192v-172h46q85 0 129 -44t44 -112q0 -67 -44 -111t-129 -44zM242 221h-34v-131h34q33 0 51 18t18 47t-18 47.5t-51 18.5z" />
    <glyph glyph-name="afii10093" unicode="&#x44b;" horiz-adv-x="584" 
d="M46 483h113v-172h46q85 0 129 -44t44 -112q0 -67 -44 -111t-129 -44h-159v483zM193 221h-34v-131h34q33 0 51 18t18 47t-18 47.5t-51 18.5zM539 0h-113v483h113v-483z" />
    <glyph glyph-name="afii10094" unicode="&#x44c;" horiz-adv-x="400" 
d="M46 483h113v-172h46q85 0 129 -44t44 -112q0 -67 -44 -111t-129 -44h-159v483zM193 221h-34v-131h34q33 0 51 18t18 47t-18 47.5t-51 18.5z" />
    <glyph glyph-name="afii10095" unicode="&#x44d;" horiz-adv-x="344" 
d="M133 -12q-77 0 -117 43l37 79q29 -30 61 -30q37 0 59.5 32.5t28.5 86.5h-137v90h137q-7 52 -29.5 83t-58.5 31q-33 0 -61 -31l-37 80q43 43 117 43q86 0 135.5 -70.5t49.5 -182.5t-50 -183t-135 -71z" />
    <glyph glyph-name="afii10096" unicode="&#x44e;" horiz-adv-x="610" 
d="M402 -12q-82 0 -127.5 60t-53.5 155h-62v-203h-113v483h113v-182h64q12 87 57 140.5t122 53.5q90 0 136 -72t46 -181t-46 -181.5t-136 -72.5zM402 88q65 0 65 154q0 153 -65 153t-65 -153q0 -154 65 -154z" />
    <glyph glyph-name="afii10097" unicode="&#x44f;" 
d="M152 0h-125l82 195q-31 14 -53 48t-22 86q0 68 45.5 111t126.5 43h169v-483h-114v172h-47zM218 262h43v131h-43q-33 0 -51 -17.5t-18 -46.5q0 -30 18 -48.5t51 -18.5z" />
    <glyph glyph-name="afii10071" unicode="&#x451;" horiz-adv-x="404" 
d="M352 609q0 -25 -18.5 -43t-44.5 -18q-25 0 -43 18t-18 43q0 26 18 44t43 18q26 0 44.5 -18.5t18.5 -43.5zM188 609q0 -26 -18 -43.5t-44 -17.5q-25 0 -43.5 18t-18.5 43t18.5 43.5t43.5 18.5q26 0 44 -18t18 -44zM219 -12q-92 0 -142 70t-50 184q0 110 47 181.5t134 71.5
t130 -69t43 -182v-39h-245q1 -56 25 -90.5t70 -34.5q45 0 80 48l55 -63q-60 -77 -147 -77zM272 284q0 119 -67 119q-37 0 -53 -36t-16 -83h136z" />
    <glyph glyph-name="afii10099" unicode="&#x452;" horiz-adv-x="432" 
d="M286 530h-115v-110q15 30 47.5 52.5t65.5 22.5q102 0 102 -109v-428q0 -78 -32 -116t-101 -38q-41 0 -63 24l26 87q8 -13 25 -13q32 0 32 56v387q0 50 -37 50q-20 0 -38 -19t-27 -44v-332h-114v530h-41v66h41v71h114v-71h115v-66z" />
    <glyph glyph-name="afii10100" unicode="&#x453;" horiz-adv-x="312" 
d="M304 700l-106 -144h-72l79 144h99zM296 483v-98h-137v-385h-113v483h250z" />
    <glyph glyph-name="afii10101" unicode="&#x454;" horiz-adv-x="344" 
d="M211 -12q-85 0 -134.5 70.5t-49.5 183.5t49.5 183t134.5 70q74 0 117 -43l-36 -80q-28 31 -62 31q-36 0 -58 -31t-29 -83h137v-90h-138q7 -54 29.5 -86.5t58.5 -32.5q34 0 62 30l36 -79q-40 -43 -117 -43z" />
    <glyph glyph-name="afii10102" unicode="&#x455;" horiz-adv-x="346" 
d="M169 -12q-104 0 -157 63l47 78q47 -52 100 -52q27 0 44 14t17 38q0 18 -14 32.5t-35.5 24.5t-46 24.5t-46 31t-35.5 47t-14 69.5q0 58 41 97.5t113 39.5q83 0 142 -57l-46 -76q-36 44 -93 44q-23 0 -37.5 -13t-14.5 -32q0 -20 20 -35t48 -29t56.5 -32t48.5 -52t20 -81
q0 -64 -44.5 -104t-113.5 -40z" />
    <glyph glyph-name="afii10103" unicode="&#x456;" horiz-adv-x="204" 
d="M102 540q-28 0 -48.5 20t-20.5 48t20.5 48.5t48.5 20.5t48.5 -20.5t20.5 -48.5t-20 -48t-49 -20zM159 0h-113v483h113v-483z" />
    <glyph glyph-name="afii10104" unicode="&#x457;" horiz-adv-x="204" 
d="M246 609q0 -25 -18.5 -43t-44.5 -18q-25 0 -43 18t-18 43q0 26 18 44t43 18q26 0 44.5 -18.5t18.5 -43.5zM82 609q0 -26 -18 -43.5t-44 -17.5q-25 0 -43.5 18t-18.5 43t18.5 43.5t43.5 18.5q26 0 44 -18t18 -44zM159 0h-113v483h113v-483z" />
    <glyph glyph-name="afii10105" unicode="&#x458;" horiz-adv-x="204" 
d="M102 540q-28 0 -48.5 20t-20.5 48t20.5 48.5t48.5 20.5t48.5 -20.5t20.5 -48.5t-20 -48t-49 -20zM26 -196q-41 0 -64 24l26 87q8 -13 25 -13q33 0 33 56v525h113v-525q0 -78 -32.5 -116t-100.5 -38z" />
    <glyph glyph-name="afii10106" unicode="&#x459;" horiz-adv-x="617" 
d="M16 -12v98q29 0 43.5 25.5t20.5 110.5l16 261h279v-172h46q85 0 129 -44t44 -112q0 -67 -44 -111t-129 -44h-160v385h-58l-10 -172q-8 -131 -50 -178t-127 -47zM409 221h-34v-131h34q33 0 51 18t18 47t-18 47.5t-51 18.5z" />
    <glyph glyph-name="afii10107" unicode="&#x45a;" horiz-adv-x="610" 
d="M159 0h-113v483h113v-182h102v182h114v-182h46q85 0 129 -42t44 -109q0 -66 -44 -108t-129 -42h-160v203h-102v-203zM413 208h-38v-118h38q32 0 48.5 15.5t16.5 42.5t-17 43.5t-48 16.5z" />
    <glyph glyph-name="afii10108" unicode="&#x45b;" horiz-adv-x="432" 
d="M285 530h-114v-110q15 30 48 52.5t65 22.5q103 0 103 -109v-386h-114v346q0 49 -37 49q-20 0 -38 -19t-27 -44v-332h-113v530h-42v66h42v71h113v-71h114v-66z" />
    <glyph glyph-name="afii10109" unicode="&#x45c;" horiz-adv-x="403" 
d="M336 700l-106 -144h-72l79 144h99zM398 0h-124l-71 193l-44 -80v-113h-113v483h113v-223l111 223h123l-115 -214z" />
    <glyph glyph-name="afii10110" unicode="&#x45e;" horiz-adv-x="380" 
d="M40 -189l16 98q12 -5 23 -5q30 0 40 34l14 50l-131 495h120l68 -340l70 340h119l-152 -568q-17 -64 -47.5 -87.5t-85.5 -23.5q-35 0 -54 7zM314 608q-45 -63 -124 -63q-77 0 -124 63l53 40q24 -37 71 -37t71 37z" />
    <glyph glyph-name="afii10193" unicode="&#x45f;" 
d="M153 -126v126h-107v483h113v-384h102v384h114v-483h-108v-126h-114z" />
    <glyph glyph-name="afii10050" unicode="&#x490;" horiz-adv-x="376" 
d="M178 556v-556h-126v667h166v123h126v-234h-166z" />
    <glyph glyph-name="afii10098" unicode="&#x491;" horiz-adv-x="312" 
d="M159 385v-385h-113v483h137v126h113v-224h-137z" />
    <glyph glyph-name="uni1E02" unicode="&#x1e02;" horiz-adv-x="452" 
d="M260 0h-208v667h201q79 0 119.5 -48t40.5 -122q0 -61 -26.5 -100.5t-71.5 -52.5q47 -7 77 -54.5t30 -109.5q0 -81 -40 -130.5t-122 -49.5zM220 395q64 0 64 80q0 81 -64 81h-42v-161h42zM224 111q69 0 69 87q0 39 -17.5 62.5t-51.5 23.5h-46v-173h46zM225 714
q-25 0 -43 18t-18 43t18 43.5t43 18.5q26 0 44 -18t18 -44t-18 -43.5t-44 -17.5z" />
    <glyph glyph-name="uni1E03" unicode="&#x1e03;" horiz-adv-x="423" 
d="M159 146q8 -25 23.5 -41.5t33.5 -16.5q64 0 64 153q0 154 -64 154q-18 0 -33.5 -17t-23.5 -42v-190zM159 0h-113v667h113v-244q14 35 40 53.5t54 18.5q70 0 106.5 -68.5t36.5 -185.5q0 -119 -36.5 -186t-106.5 -67q-27 0 -53 19t-41 53v-60zM217 714q-25 0 -43 18t-18 43
t18 43.5t43 18.5q26 0 44 -18t18 -44t-18 -43.5t-44 -17.5z" />
    <glyph glyph-name="uni1E0A" unicode="&#x1e0a;" horiz-adv-x="476" 
d="M219 0h-167v667h166q115 0 171 -91t56 -243q0 -153 -55.5 -243t-170.5 -90zM218 111q98 0 98 222q0 223 -98 223h-40v-445h40zM237 714q-25 0 -43 18t-18 43t18 43.5t43 18.5q26 0 44 -18t18 -44t-18 -43.5t-44 -17.5z" />
    <glyph glyph-name="uni1E0B" unicode="&#x1e0b;" horiz-adv-x="423" 
d="M377 0h-113v60q-15 -34 -41 -53t-53 -19q-70 0 -106.5 67t-36.5 186q0 117 36.5 185.5t106.5 68.5q28 0 54 -18.5t40 -53.5v244h113v-667zM207 88q18 0 33.5 16.5t23.5 41.5v191q-8 25 -23.5 41.5t-33.5 16.5q-64 0 -64 -154q0 -153 64 -153zM207 714q-25 0 -43 18
t-18 43t18 43.5t43 18.5q26 0 44 -18t18 -44t-18 -43.5t-44 -17.5z" />
    <glyph glyph-name="uni1E1E" unicode="&#x1e1e;" horiz-adv-x="376" 
d="M200 714q-25 0 -43 18t-18 43t18 43.5t43 18.5q26 0 44 -18t18 -44t-18 -43.5t-44 -17.5zM178 0h-126v667h292v-111h-166v-161h159v-111h-159v-284z" />
    <glyph glyph-name="uni1E1F" unicode="&#x1e1f;" horiz-adv-x="250" 
d="M188 714q-25 0 -43 18t-18 43t18 43.5t43 18.5q26 0 44 -18t18 -44t-18 -43.5t-44 -17.5zM174 0h-113v385h-44v98h44v50q0 69 33.5 106.5t96.5 37.5q54 0 84 -27l-29 -87q-15 16 -33 16q-39 0 -39 -46v-50h61v-98h-61v-385z" />
    <glyph glyph-name="uni1E22" unicode="&#x1e22;" horiz-adv-x="484" 
d="M432 0h-126v288h-128v-288h-126v667h126v-269h128v269h126v-667zM241 714q-25 0 -43 18t-18 43t18 43.5t43 18.5q26 0 44 -18t18 -44t-18 -43.5t-44 -17.5z" />
    <glyph glyph-name="uni1E23" unicode="&#x1e23;" 
d="M375 0h-114v346q0 49 -37 49q-20 0 -38 -19t-27 -44v-332h-113v667h113v-247q15 30 48 52.5t65 22.5q103 0 103 -109v-386zM210 714q-25 0 -43 18t-18 43t18 43.5t43 18.5q26 0 44 -18t18 -44t-18 -43.5t-44 -17.5z" />
    <glyph glyph-name="uni1E56" unicode="&#x1e56;" horiz-adv-x="441" 
d="M178 0h-126v667h180q92 0 140 -60.5t48 -150.5t-48 -150.5t-140 -60.5h-54v-245zM219 356q35 0 54 27t19 73t-19 73t-54 27h-41v-200h41zM220 714q-25 0 -43 18t-18 43t18 43.5t43 18.5q26 0 44 -18t18 -44t-18 -43.5t-44 -17.5z" />
    <glyph glyph-name="uni1E57" unicode="&#x1e57;" horiz-adv-x="423" 
d="M253 -12q-28 0 -54 18.5t-40 53.5v-244h-113v667h113v-60q15 34 41 53t53 19q70 0 106.5 -67t36.5 -186q0 -117 -36.5 -185.5t-106.5 -68.5zM216 88q64 0 64 154q0 153 -64 153q-18 0 -33.5 -16t-23.5 -41v-192q8 -25 23.5 -41.5t33.5 -16.5zM218 547q-25 0 -43 18
t-18 43t18 43.5t43 18.5q26 0 44 -18t18 -44t-18 -43.5t-44 -17.5z" />
    <glyph glyph-name="uni1E60" unicode="&#x1e60;" horiz-adv-x="396" 
d="M184 -12q-106 0 -172 66l55 99q41 -53 109 -53q30 0 48.5 20.5t18.5 52.5t-22 58.5t-53 48t-62 46.5t-53 67.5t-22 98.5q0 78 50.5 132t135.5 54q88 0 145 -54l-49 -97q-38 39 -92 39q-27 0 -44.5 -18.5t-17.5 -48.5q0 -28 22 -53t53 -47t62 -48.5t53 -70.5t22 -99
q0 -85 -51 -139t-136 -54zM197 714q-25 0 -43 18t-18 43t18 43.5t43 18.5q26 0 44 -18t18 -44t-18 -43.5t-44 -17.5z" />
    <glyph glyph-name="uni1E61" unicode="&#x1e61;" horiz-adv-x="346" 
d="M169 -12q-104 0 -157 63l47 78q47 -52 100 -52q27 0 44 14t17 38q0 18 -14 32.5t-35.5 24.5t-46 24.5t-46 31t-35.5 47t-14 69.5q0 58 41 97.5t113 39.5q83 0 142 -57l-46 -76q-36 44 -93 44q-23 0 -37.5 -13t-14.5 -32q0 -20 20 -35t48 -29t56.5 -32t48.5 -52t20 -81
q0 -64 -44.5 -104t-113.5 -40zM172 547q-25 0 -43 18t-18 43t18 43.5t43 18.5q26 0 44 -18t18 -44t-18 -43.5t-44 -17.5z" />
    <glyph glyph-name="uni1E6A" unicode="&#x1e6a;" horiz-adv-x="364" 
d="M245 0h-126v556h-101v111h328v-111h-101v-556zM182 714q-25 0 -43 18t-18 43t18 43.5t43 18.5q26 0 44 -18t18 -44t-18 -43.5t-44 -17.5z" />
    <glyph glyph-name="uni1E6B" unicode="&#x1e6b;" horiz-adv-x="258" 
d="M172 -12q-58 0 -84.5 30t-26.5 93v274h-45v98h45v132h113v-132h61v-98h-61v-252q0 -45 27 -45q17 0 27 13l23 -88q-28 -25 -79 -25zM120 714q-25 0 -43 18t-18 43t18 43.5t43 18.5q26 0 44 -18t18 -44t-18 -43.5t-44 -17.5z" />
    <glyph glyph-name="Wgrave" unicode="&#x1e80;" horiz-adv-x="616" 
d="M491 0h-128l-55 430l-55 -430h-128l-114 667h128l56 -447l63 447h100l64 -447l55 447h128zM353 723h-72l-106 144h98z" />
    <glyph glyph-name="wgrave" unicode="&#x1e81;" horiz-adv-x="608" 
d="M491 0h-118l-69 329l-69 -329h-119l-111 483h117l61 -330l63 330h109l68 -330l62 330h118zM349 556h-72l-106 144h98z" />
    <glyph glyph-name="Wacute" unicode="&#x1e82;" horiz-adv-x="616" 
d="M441 867l-106 -144h-72l79 144h99zM491 0h-128l-55 430l-55 -430h-128l-114 667h128l56 -447l63 447h100l64 -447l55 447h128z" />
    <glyph glyph-name="wacute" unicode="&#x1e83;" horiz-adv-x="608" 
d="M438 700l-106 -144h-72l79 144h99zM491 0h-118l-69 329l-69 -329h-119l-111 483h117l61 -330l63 330h109l68 -330l62 330h118z" />
    <glyph glyph-name="Wdieresis" unicode="&#x1e84;" horiz-adv-x="616" 
d="M451 776q0 -25 -18.5 -43t-44.5 -18t-43.5 17.5t-17.5 43.5t18 44t43 18q26 0 44.5 -18.5t18.5 -43.5zM287 776q0 -26 -18 -43.5t-44 -17.5q-25 0 -43.5 18t-18.5 43t18.5 43.5t43.5 18.5q26 0 44 -18t18 -44zM491 0h-128l-55 430l-55 -430h-128l-114 667h128l56 -447
l63 447h100l64 -447l55 447h128z" />
    <glyph glyph-name="wdieresis" unicode="&#x1e85;" horiz-adv-x="608" 
d="M448 609q0 -25 -18.5 -43t-44.5 -18q-25 0 -43 18t-18 43q0 26 18 44t43 18q26 0 44.5 -18.5t18.5 -43.5zM284 609q0 -26 -18 -43.5t-44 -17.5q-25 0 -43.5 18t-18.5 43t18.5 43.5t43.5 18.5q26 0 44 -18t18 -44zM491 0h-118l-69 329l-69 -329h-119l-111 483h117l61 -330
l63 330h109l68 -330l62 330h118z" />
    <glyph glyph-name="uni1EA0" unicode="&#x1ea0;" horiz-adv-x="424" 
d="M424 0h-130l-20 123h-124l-20 -123h-130l139 667h145zM260 234l-48 292l-48 -292h96zM213 -192q-25 0 -43 18t-18 43t18 43.5t43 18.5q26 0 44 -18t18 -44t-18 -43.5t-44 -17.5z" />
    <glyph glyph-name="uni1EA1" unicode="&#x1ea1;" horiz-adv-x="415" 
d="M369 0h-113v46q-15 -27 -44 -42.5t-57 -15.5q-58 0 -94.5 44t-36.5 117q0 72 36.5 114.5t94.5 42.5q29 0 58 -14.5t43 -39.5v59q0 88 -73 88q-51 0 -98 -48l-42 80q31 33 75.5 48.5t87.5 15.5q77 0 120 -39.5t43 -118.5v-337zM195 64q19 0 35.5 13.5t25.5 36.5v65
q-9 23 -25.5 36.5t-35.5 13.5q-28 0 -43 -23t-15 -59t15 -59.5t43 -23.5zM209 -192q-25 0 -43 18t-18 43t18 43.5t43 18.5q26 0 44 -18t18 -44t-18 -43.5t-44 -17.5z" />
    <glyph glyph-name="uni1EA2" unicode="&#x1ea2;" horiz-adv-x="424" 
d="M424 0h-130l-20 123h-124l-20 -123h-130l139 667h145zM260 234l-48 292l-48 -292h96zM191 759l-43 8q13 53 66 53q27 0 43.5 -16.5t16.5 -49.5q0 -31 -16 -57h-45q19 26 19 54q0 29 -20 29q-15 0 -21 -21z" />
    <glyph glyph-name="uni1EA3" unicode="&#x1ea3;" horiz-adv-x="415" 
d="M369 0h-113v46q-15 -27 -44 -42.5t-57 -15.5q-58 0 -94.5 44t-36.5 117q0 72 36.5 114.5t94.5 42.5q29 0 58 -14.5t43 -39.5v59q0 88 -73 88q-51 0 -98 -48l-42 80q31 33 75.5 48.5t87.5 15.5q77 0 120 -39.5t43 -118.5v-337zM195 64q19 0 35.5 13.5t25.5 36.5v65
q-9 23 -25.5 36.5t-35.5 13.5q-28 0 -43 -23t-15 -59t15 -59.5t43 -23.5zM186 589l-43 8q13 53 66 53q27 0 43.5 -16.5t16.5 -49.5q0 -31 -16 -57h-45q19 26 19 54q0 29 -20 29q-15 0 -21 -21z" />
    <glyph glyph-name="uni1EA4" unicode="&#x1ea4;" horiz-adv-x="424" 
d="M328 682h-62l-55 69l-50 -69h-63l63 108h102zM424 0h-130l-20 123h-124l-20 -123h-130l139 667h145zM260 234l-48 292l-48 -292h96zM482 843l-106 -108h-72l79 108h99z" />
    <glyph glyph-name="uni1EA5" unicode="&#x1ea5;" horiz-adv-x="415" 
d="M369 0h-113v46q-15 -27 -44 -42.5t-57 -15.5q-58 0 -94.5 44t-36.5 117q0 72 36.5 114.5t94.5 42.5q29 0 58 -14.5t43 -39.5v59q0 88 -73 88q-51 0 -98 -48l-42 80q31 33 75.5 48.5t87.5 15.5q77 0 120 -39.5t43 -118.5v-337zM195 64q19 0 35.5 13.5t25.5 36.5v65
q-9 23 -25.5 36.5t-35.5 13.5q-28 0 -43 -23t-15 -59t15 -59.5t43 -23.5zM325 556h-62l-55 92l-50 -92h-63l63 144h102zM477 771l-106 -144h-72l79 144h99z" />
    <glyph glyph-name="uni1EA6" unicode="&#x1ea6;" horiz-adv-x="424" 
d="M328 682h-62l-55 69l-50 -69h-63l63 108h102zM424 0h-130l-20 123h-124l-20 -123h-130l139 667h145zM260 234l-48 292l-48 -292h96zM121 735h-72l-106 108h98z" />
    <glyph glyph-name="uni1EA7" unicode="&#x1ea7;" horiz-adv-x="415" 
d="M369 0h-113v46q-15 -27 -44 -42.5t-57 -15.5q-58 0 -94.5 44t-36.5 117q0 72 36.5 114.5t94.5 42.5q29 0 58 -14.5t43 -39.5v59q0 88 -73 88q-51 0 -98 -48l-42 80q31 33 75.5 48.5t87.5 15.5q77 0 120 -39.5t43 -118.5v-337zM195 64q19 0 35.5 13.5t25.5 36.5v65
q-9 23 -25.5 36.5t-35.5 13.5q-28 0 -43 -23t-15 -59t15 -59.5t43 -23.5zM325 556h-62l-55 92l-50 -92h-63l63 144h102zM117 627h-72l-106 144h98z" />
    <glyph glyph-name="uni1EA8" unicode="&#x1ea8;" horiz-adv-x="424" 
d="M328 682h-62l-55 69l-50 -69h-63l63 108h102zM424 0h-130l-20 123h-124l-20 -123h-130l139 667h145zM260 234l-48 292l-48 -292h96zM321 791l-43 6q13 39 66 39q60 0 60 -49q0 -24 -16 -43h-45q19 20 19 41t-20 21q-14 0 -21 -15z" />
    <glyph glyph-name="uni1EA9" unicode="&#x1ea9;" horiz-adv-x="415" 
d="M369 0h-113v46q-15 -27 -44 -42.5t-57 -15.5q-58 0 -94.5 44t-36.5 117q0 72 36.5 114.5t94.5 42.5q29 0 58 -14.5t43 -39.5v59q0 88 -73 88q-51 0 -98 -48l-42 80q31 33 75.5 48.5t87.5 15.5q77 0 120 -39.5t43 -118.5v-337zM195 64q19 0 35.5 13.5t25.5 36.5v65
q-9 23 -25.5 36.5t-35.5 13.5q-28 0 -43 -23t-15 -59t15 -59.5t43 -23.5zM325 556h-62l-55 92l-50 -92h-63l63 144h102zM275 729l-43 8q13 53 66 53q27 0 43.5 -16.5t16.5 -49.5q0 -31 -16 -57h-45q19 26 19 54q0 29 -20 29q-15 0 -21 -21z" />
    <glyph glyph-name="uni1EAA" unicode="&#x1eaa;" horiz-adv-x="424" 
d="M328 678h-62l-55 46l-50 -46h-63l63 72h102zM424 0h-130l-20 123h-124l-20 -123h-130l139 667h145zM260 234l-48 292l-48 -292h96zM254 757q-29 0 -53.5 18.5t-34.5 18.5q-26 0 -26 -34h-57q0 29 22.5 48t62.5 19q30 0 54 -18.5t34 -18.5q26 0 26 34h57q0 -30 -22 -48.5
t-63 -18.5z" />
    <glyph glyph-name="uni1EAB" unicode="&#x1eab;" horiz-adv-x="415" 
d="M369 0h-113v46q-15 -27 -44 -42.5t-57 -15.5q-58 0 -94.5 44t-36.5 117q0 72 36.5 114.5t94.5 42.5q29 0 58 -14.5t43 -39.5v59q0 88 -73 88q-51 0 -98 -48l-42 80q31 33 75.5 48.5t87.5 15.5q77 0 120 -39.5t43 -118.5v-337zM195 64q19 0 35.5 13.5t25.5 36.5v65
q-9 23 -25.5 36.5t-35.5 13.5q-28 0 -43 -23t-15 -59t15 -59.5t43 -23.5zM325 523h-62l-55 92l-50 -92h-63l63 144h102zM250 682q-22 0 -38.5 18.5t-28 37t-21.5 18.5q-26 0 -26 -68h-57q0 60 22.5 97t62.5 37q18 0 32.5 -11.5t22 -25.5t16.5 -25.5t17 -11.5q26 0 26 68h57
q0 -60 -22 -97t-63 -37z" />
    <glyph glyph-name="uni1EAC" unicode="&#x1eac;" horiz-adv-x="424" 
d="M424 0h-130l-20 123h-124l-20 -123h-130l139 667h145zM260 234l-48 292l-48 -292h96zM327 723h-62l-55 92l-50 -92h-63l63 144h102zM213 -192q-25 0 -43 18t-18 43t18 43.5t43 18.5q26 0 44 -18t18 -44t-18 -43.5t-44 -17.5z" />
    <glyph glyph-name="uni1EAD" unicode="&#x1ead;" horiz-adv-x="415" 
d="M369 0h-113v46q-15 -27 -44 -42.5t-57 -15.5q-58 0 -94.5 44t-36.5 117q0 72 36.5 114.5t94.5 42.5q29 0 58 -14.5t43 -39.5v59q0 88 -73 88q-51 0 -98 -48l-42 80q31 33 75.5 48.5t87.5 15.5q77 0 120 -39.5t43 -118.5v-337zM195 64q19 0 35.5 13.5t25.5 36.5v65
q-9 23 -25.5 36.5t-35.5 13.5q-28 0 -43 -23t-15 -59t15 -59.5t43 -23.5zM322 556h-62l-55 92l-50 -92h-63l63 144h102zM209 -192q-25 0 -43 18t-18 43t18 43.5t43 18.5q26 0 44 -18t18 -44t-18 -43.5t-44 -17.5z" />
    <glyph glyph-name="uni1EAE" unicode="&#x1eae;" horiz-adv-x="424" 
d="M424 0h-130l-20 123h-124l-20 -123h-130l139 667h145zM260 234l-48 292l-48 -292h96zM344 833l-106 -88h-72l79 88h99zM336 727q-46 -46 -124 -46q-76 0 -124 46l53 29q24 -27 71 -27t71 27z" />
    <glyph glyph-name="uni1EAF" unicode="&#x1eaf;" horiz-adv-x="415" 
d="M369 0h-113v46q-15 -27 -44 -42.5t-57 -15.5q-58 0 -94.5 44t-36.5 117q0 72 36.5 114.5t94.5 42.5q29 0 58 -14.5t43 -39.5v59q0 88 -73 88q-51 0 -98 -48l-42 80q31 33 75.5 48.5t87.5 15.5q77 0 120 -39.5t43 -118.5v-337zM195 64q19 0 35.5 13.5t25.5 36.5v65
q-9 23 -25.5 36.5t-35.5 13.5q-28 0 -43 -23t-15 -59t15 -59.5t43 -23.5zM340 776l-106 -144h-72l79 144h99zM331 583q-45 -63 -124 -63q-77 0 -124 63l53 40q24 -37 71 -37t71 37z" />
    <glyph glyph-name="uni1EB0" unicode="&#x1eb0;" horiz-adv-x="424" 
d="M424 0h-130l-20 123h-124l-20 -123h-130l139 667h145zM260 234l-48 292l-48 -292h96zM260 745h-72l-106 88h98zM336 727q-46 -46 -124 -46q-76 0 -124 46l53 29q24 -27 71 -27t71 27z" />
    <glyph glyph-name="uni1EB1" unicode="&#x1eb1;" horiz-adv-x="415" 
d="M369 0h-113v46q-15 -27 -44 -42.5t-57 -15.5q-58 0 -94.5 44t-36.5 117q0 72 36.5 114.5t94.5 42.5q29 0 58 -14.5t43 -39.5v59q0 88 -73 88q-51 0 -98 -48l-42 80q31 33 75.5 48.5t87.5 15.5q77 0 120 -39.5t43 -118.5v-337zM195 64q19 0 35.5 13.5t25.5 36.5v65
q-9 23 -25.5 36.5t-35.5 13.5q-28 0 -43 -23t-15 -59t15 -59.5t43 -23.5zM254 632h-72l-106 144h98zM332 583q-45 -63 -124 -63q-77 0 -124 63l53 40q24 -37 71 -37t71 37z" />
    <glyph glyph-name="uni1EB2" unicode="&#x1eb2;" horiz-adv-x="424" 
d="M424 0h-130l-20 123h-124l-20 -123h-130l139 667h145zM260 234l-48 292l-48 -292h96zM192 785l-43 5q13 32 66 32q60 0 60 -40q0 -19 -16 -35h-45q19 16 19 33q0 18 -20 18q-15 0 -21 -13zM336 727q-46 -46 -124 -46q-76 0 -124 46l53 29q24 -27 71 -27t71 27z" />
    <glyph glyph-name="uni1EB3" unicode="&#x1eb3;" horiz-adv-x="415" 
d="M369 0h-113v46q-15 -27 -44 -42.5t-57 -15.5q-58 0 -94.5 44t-36.5 117q0 72 36.5 114.5t94.5 42.5q29 0 58 -14.5t43 -39.5v59q0 88 -73 88q-51 0 -98 -48l-42 80q31 33 75.5 48.5t87.5 15.5q77 0 120 -39.5t43 -118.5v-337zM195 64q19 0 35.5 13.5t25.5 36.5v65
q-9 23 -25.5 36.5t-35.5 13.5q-28 0 -43 -23t-15 -59t15 -59.5t43 -23.5zM189 691l-43 8q13 53 66 53q27 0 43.5 -16.5t16.5 -49.5q0 -31 -16 -57h-45q19 26 19 54q0 29 -20 29q-15 0 -21 -21zM332 583q-45 -63 -124 -63q-77 0 -124 63l53 40q24 -37 71 -37t71 37z" />
    <glyph glyph-name="uni1EB4" unicode="&#x1eb4;" horiz-adv-x="424" 
d="M424 0h-130l-20 123h-124l-20 -123h-130l139 667h145zM260 234l-48 292l-48 -292h96zM336 722q-46 -39 -124 -39q-77 0 -124 39l53 24q24 -22 71 -22t71 22zM254 757q-29 0 -53.5 18.5t-34.5 18.5q-26 0 -26 -34h-57q0 29 22.5 48t62.5 19q30 0 54 -18.5t34 -18.5
q26 0 26 34h57q0 -30 -22 -48.5t-63 -18.5z" />
    <glyph glyph-name="uni1EB5" unicode="&#x1eb5;" horiz-adv-x="415" 
d="M369 0h-113v46q-15 -27 -44 -42.5t-57 -15.5q-58 0 -94.5 44t-36.5 117q0 72 36.5 114.5t94.5 42.5q29 0 58 -14.5t43 -39.5v59q0 88 -73 88q-51 0 -98 -48l-42 80q31 33 75.5 48.5t87.5 15.5q77 0 120 -39.5t43 -118.5v-337zM195 64q19 0 35.5 13.5t25.5 36.5v65
q-9 23 -25.5 36.5t-35.5 13.5q-28 0 -43 -23t-15 -59t15 -59.5t43 -23.5zM332 583q-45 -63 -124 -63q-77 0 -124 63l53 40q24 -37 71 -37t71 37zM250 649q-22 0 -38.5 18.5t-28 37t-21.5 18.5q-26 0 -26 -68h-57q0 60 22.5 97t62.5 37q18 0 32.5 -11.5t22 -25.5t16.5 -25.5
t17 -11.5q26 0 26 68h57q0 -60 -22 -97t-63 -37z" />
    <glyph glyph-name="uni1EB6" unicode="&#x1eb6;" horiz-adv-x="424" 
d="M424 0h-130l-20 123h-124l-20 -123h-130l139 667h145zM260 234l-48 292l-48 -292h96zM213 -192q-25 0 -43 18t-18 43t18 43.5t43 18.5q26 0 44 -18t18 -44t-18 -43.5t-44 -17.5zM336 775q-45 -63 -124 -63q-77 0 -124 63l53 40q24 -37 71 -37t71 37z" />
    <glyph glyph-name="uni1EB7" unicode="&#x1eb7;" horiz-adv-x="415" 
d="M369 0h-113v46q-15 -27 -44 -42.5t-57 -15.5q-58 0 -94.5 44t-36.5 117q0 72 36.5 114.5t94.5 42.5q29 0 58 -14.5t43 -39.5v59q0 88 -73 88q-51 0 -98 -48l-42 80q31 33 75.5 48.5t87.5 15.5q77 0 120 -39.5t43 -118.5v-337zM195 64q19 0 35.5 13.5t25.5 36.5v65
q-9 23 -25.5 36.5t-35.5 13.5q-28 0 -43 -23t-15 -59t15 -59.5t43 -23.5zM209 -192q-25 0 -43 18t-18 43t18 43.5t43 18.5q26 0 44 -18t18 -44t-18 -43.5t-44 -17.5zM331 608q-45 -63 -124 -63q-77 0 -124 63l53 40q24 -37 71 -37t71 37z" />
    <glyph glyph-name="uni1EB8" unicode="&#x1eb8;" horiz-adv-x="378" 
d="M344 0h-292v667h292v-111h-166v-161h159v-111h-159v-173h166v-111zM203 -192q-25 0 -43 18t-18 43t18 43.5t43 18.5q26 0 44 -18t18 -44t-18 -43.5t-44 -17.5z" />
    <glyph glyph-name="uni1EB9" unicode="&#x1eb9;" horiz-adv-x="404" 
d="M219 -12q-92 0 -142 70t-50 184q0 110 47 181.5t134 71.5t130 -69t43 -182v-39h-245q1 -56 25 -90.5t70 -34.5q45 0 80 48l55 -63q-60 -77 -147 -77zM272 284q0 119 -67 119q-37 0 -53 -36t-16 -83h136zM208 -192q-25 0 -43 18t-18 43t18 43.5t43 18.5q26 0 44 -18
t18 -44t-18 -43.5t-44 -17.5z" />
    <glyph glyph-name="uni1EBA" unicode="&#x1eba;" horiz-adv-x="378" 
d="M344 0h-292v667h292v-111h-166v-161h159v-111h-159v-173h166v-111zM168 759l-43 8q13 53 66 53q27 0 43.5 -16.5t16.5 -49.5q0 -31 -16 -57h-45q19 26 19 54q0 29 -20 29q-15 0 -21 -21z" />
    <glyph glyph-name="uni1EBB" unicode="&#x1ebb;" horiz-adv-x="404" 
d="M219 -12q-92 0 -142 70t-50 184q0 110 47 181.5t134 71.5t130 -69t43 -182v-39h-245q1 -56 25 -90.5t70 -34.5q45 0 80 48l55 -63q-60 -77 -147 -77zM272 284q0 119 -67 119q-37 0 -53 -36t-16 -83h136zM186 589l-43 8q13 53 66 53q27 0 43.5 -16.5t16.5 -49.5
q0 -31 -16 -57h-45q19 26 19 54q0 29 -20 29q-15 0 -21 -21z" />
    <glyph glyph-name="uni1EBC" unicode="&#x1ebc;" horiz-adv-x="378" 
d="M344 0h-292v667h292v-111h-166v-161h159v-111h-159v-173h166v-111zM241 721q-22 0 -38.5 18.5t-28 37t-21.5 18.5q-26 0 -26 -68h-57q0 60 22.5 97t62.5 37q18 0 32.5 -11.5t22 -25.5t16.5 -25.5t17 -11.5q26 0 26 68h57q0 -60 -22 -97t-63 -37z" />
    <glyph glyph-name="uni1EBD" unicode="&#x1ebd;" horiz-adv-x="404" 
d="M219 -12q-92 0 -142 70t-50 184q0 110 47 181.5t134 71.5t130 -69t43 -182v-39h-245q1 -56 25 -90.5t70 -34.5q45 0 80 48l55 -63q-60 -77 -147 -77zM272 284q0 119 -67 119q-37 0 -53 -36t-16 -83h136zM250 554q-22 0 -38.5 18.5t-28 37t-21.5 18.5q-26 0 -26 -68h-57
q0 60 22.5 97t62.5 37q18 0 32.5 -11.5t22 -25.5t16.5 -25.5t17 -11.5q26 0 26 68h57q0 -60 -22 -97t-63 -37z" />
    <glyph glyph-name="uni1EBE" unicode="&#x1ebe;" horiz-adv-x="378" 
d="M314 682h-62l-55 69l-50 -69h-63l63 108h102zM469 843l-106 -108h-72l79 108h99zM344 0h-292v667h292v-111h-166v-161h159v-111h-159v-173h166v-111z" />
    <glyph glyph-name="uni1EBF" unicode="&#x1ebf;" horiz-adv-x="404" 
d="M324 556h-62l-55 92l-50 -92h-63l63 144h102zM475 771l-106 -144h-72l79 144h99zM219 -12q-92 0 -142 70t-50 184q0 110 47 181.5t134 71.5t130 -69t43 -182v-39h-245q1 -56 25 -90.5t70 -34.5q45 0 80 48l55 -63q-60 -77 -147 -77zM272 284q0 119 -67 119q-37 0 -53 -36
t-16 -83h136z" />
    <glyph glyph-name="uni1EC0" unicode="&#x1ec0;" horiz-adv-x="378" 
d="M314 682h-62l-55 69l-50 -69h-63l63 108h102zM344 0h-292v667h292v-111h-166v-161h159v-111h-159v-173h166v-111zM107 735h-72l-106 108h98z" />
    <glyph glyph-name="uni1EC1" unicode="&#x1ec1;" horiz-adv-x="404" 
d="M324 556h-62l-55 92l-50 -92h-63l63 144h102zM219 -12q-92 0 -142 70t-50 184q0 110 47 181.5t134 71.5t130 -69t43 -182v-39h-245q1 -56 25 -90.5t70 -34.5q45 0 80 48l55 -63q-60 -77 -147 -77zM272 284q0 119 -67 119q-37 0 -53 -36t-16 -83h136zM115 627h-72
l-106 144h98z" />
    <glyph glyph-name="uni1EC2" unicode="&#x1ec2;" horiz-adv-x="378" 
d="M314 682h-62l-55 69l-50 -69h-63l63 108h102zM344 0h-292v667h292v-111h-166v-161h159v-111h-159v-173h166v-111zM306 791l-43 6q13 39 66 39q60 0 60 -49q0 -24 -16 -43h-45q19 20 19 41t-20 21q-14 0 -21 -15z" />
    <glyph glyph-name="uni1EC3" unicode="&#x1ec3;" horiz-adv-x="404" 
d="M323 556h-62l-55 92l-50 -92h-63l63 144h102zM219 -12q-92 0 -142 70t-50 184q0 110 47 181.5t134 71.5t130 -69t43 -182v-39h-245q1 -56 25 -90.5t70 -34.5q45 0 80 48l55 -63q-60 -77 -147 -77zM272 284q0 119 -67 119q-37 0 -53 -36t-16 -83h136zM272 729l-43 8
q13 53 66 53q27 0 43.5 -16.5t16.5 -49.5q0 -31 -16 -57h-45q19 26 19 54q0 29 -20 29q-15 0 -21 -21z" />
    <glyph glyph-name="uni1EC4" unicode="&#x1ec4;" horiz-adv-x="378" 
d="M313 678h-62l-55 46l-50 -46h-63l63 72h102zM344 0h-292v667h292v-111h-166v-161h159v-111h-159v-173h166v-111zM240 757q-29 0 -53.5 18.5t-34.5 18.5q-26 0 -26 -34h-57q0 29 22.5 48t62.5 19q30 0 54 -18.5t34 -18.5q26 0 26 34h57q0 -30 -22 -48.5t-63 -18.5z" />
    <glyph glyph-name="uni1EC5" unicode="&#x1ec5;" horiz-adv-x="404" 
d="M322 523h-62l-55 92l-50 -92h-63l63 144h102zM219 -12q-92 0 -142 70t-50 184q0 110 47 181.5t134 71.5t130 -69t43 -182v-39h-245q1 -56 25 -90.5t70 -34.5q45 0 80 48l55 -63q-60 -77 -147 -77zM272 284q0 119 -67 119q-37 0 -53 -36t-16 -83h136zM249 682
q-22 0 -38.5 18.5t-28 37t-21.5 18.5q-26 0 -26 -68h-57q0 60 22.5 97t62.5 37q18 0 32.5 -11.5t22 -25.5t16.5 -25.5t17 -11.5q26 0 26 68h57q0 -60 -22 -97t-63 -37z" />
    <glyph glyph-name="uni1EC6" unicode="&#x1ec6;" horiz-adv-x="378" 
d="M314 723h-62l-55 92l-50 -92h-63l63 144h102zM344 0h-292v667h292v-111h-166v-161h159v-111h-159v-173h166v-111zM203 -192q-25 0 -43 18t-18 43t18 43.5t43 18.5q26 0 44 -18t18 -44t-18 -43.5t-44 -17.5z" />
    <glyph glyph-name="uni1EC7" unicode="&#x1ec7;" horiz-adv-x="404" 
d="M324 556h-62l-55 92l-50 -92h-63l63 144h102zM219 -12q-92 0 -142 70t-50 184q0 110 47 181.5t134 71.5t130 -69t43 -182v-39h-245q1 -56 25 -90.5t70 -34.5q45 0 80 48l55 -63q-60 -77 -147 -77zM272 284q0 119 -67 119q-37 0 -53 -36t-16 -83h136zM208 -192
q-25 0 -43 18t-18 43t18 43.5t43 18.5q26 0 44 -18t18 -44t-18 -43.5t-44 -17.5z" />
    <glyph glyph-name="uni1EC8" unicode="&#x1ec8;" horiz-adv-x="230" 
d="M178 0h-126v667h126v-667zM94 759l-43 8q13 53 66 53q27 0 43.5 -16.5t16.5 -49.5q0 -31 -16 -57h-45q19 26 19 54q0 29 -20 29q-15 0 -21 -21z" />
    <glyph glyph-name="uni1EC9" unicode="&#x1ec9;" horiz-adv-x="204" 
d="M159 0h-113v483h113v-483zM81 589l-43 8q13 53 66 53q27 0 43.5 -16.5t16.5 -49.5q0 -31 -16 -57h-45q19 26 19 54q0 29 -20 29q-15 0 -21 -21z" />
    <glyph glyph-name="uni1ECA" unicode="&#x1eca;" horiz-adv-x="230" 
d="M178 0h-126v667h126v-667zM115 -192q-25 0 -43 18t-18 43t18 43.5t43 18.5q26 0 44 -18t18 -44t-18 -43.5t-44 -17.5z" />
    <glyph glyph-name="uni1ECB" unicode="&#x1ecb;" horiz-adv-x="204" 
d="M102 540q-28 0 -48.5 20t-20.5 48t20.5 48.5t48.5 20.5t48.5 -20.5t20.5 -48.5t-20 -48t-49 -20zM159 0h-113v483h113v-483zM103 -192q-25 0 -43 18t-18 43t18 43.5t43 18.5q26 0 44 -18t18 -44t-18 -43.5t-44 -17.5z" />
    <glyph glyph-name="uni1ECC" unicode="&#x1ecc;" horiz-adv-x="478" 
d="M239 -12q-105 0 -156.5 94.5t-51.5 250.5t51.5 250.5t156.5 94.5t156.5 -94.5t51.5 -250.5t-51.5 -250.5t-156.5 -94.5zM239 100q79 0 79 233t-79 233t-79 -233t79 -233zM241 -192q-25 0 -43 18t-18 43t18 43.5t43 18.5q26 0 44 -18t18 -44t-18 -43.5t-44 -17.5z" />
    <glyph glyph-name="uni1ECD" unicode="&#x1ecd;" horiz-adv-x="417" 
d="M208 -12q-89 0 -135 72.5t-46 181.5t46 181t135 72q90 0 136 -72t46 -181t-46 -181.5t-136 -72.5zM208 88q65 0 65 154q0 153 -65 153q-64 0 -64 -153q0 -154 64 -154zM208 -192q-25 0 -43 18t-18 43t18 43.5t43 18.5q26 0 44 -18t18 -44t-18 -43.5t-44 -17.5z" />
    <glyph glyph-name="uni1ECE" unicode="&#x1ece;" horiz-adv-x="478" 
d="M239 -12q-105 0 -156.5 94.5t-51.5 250.5t51.5 250.5t156.5 94.5t156.5 -94.5t51.5 -250.5t-51.5 -250.5t-156.5 -94.5zM239 100q79 0 79 233t-79 233t-79 -233t79 -233zM219 759l-43 8q13 53 66 53q27 0 43.5 -16.5t16.5 -49.5q0 -31 -16 -57h-45q19 26 19 54
q0 29 -20 29q-15 0 -21 -21z" />
    <glyph glyph-name="uni1ECF" unicode="&#x1ecf;" horiz-adv-x="417" 
d="M208 -12q-89 0 -135 72.5t-46 181.5t46 181t135 72q90 0 136 -72t46 -181t-46 -181.5t-136 -72.5zM208 88q65 0 65 154q0 153 -65 153q-64 0 -64 -153q0 -154 64 -154zM189 589l-43 8q13 53 66 53q27 0 43.5 -16.5t16.5 -49.5q0 -31 -16 -57h-45q19 26 19 54q0 29 -20 29
q-15 0 -21 -21z" />
    <glyph glyph-name="uni1ED0" unicode="&#x1ed0;" horiz-adv-x="478" 
d="M352 682h-62l-55 69l-50 -69h-63l63 108h102zM507 843l-106 -108h-72l79 108h99zM239 -12q-105 0 -156.5 94.5t-51.5 250.5t51.5 250.5t156.5 94.5t156.5 -94.5t51.5 -250.5t-51.5 -250.5t-156.5 -94.5zM239 100q79 0 79 233t-79 233t-79 -233t79 -233z" />
    <glyph glyph-name="uni1ED1" unicode="&#x1ed1;" horiz-adv-x="417" 
d="M323 556h-62l-55 92l-50 -92h-63l63 144h102zM475 771l-106 -144h-72l79 144h99zM208 -12q-89 0 -135 72.5t-46 181.5t46 181t135 72q90 0 136 -72t46 -181t-46 -181.5t-136 -72.5zM208 88q65 0 65 154q0 153 -65 153q-64 0 -64 -153q0 -154 64 -154z" />
    <glyph glyph-name="uni1ED2" unicode="&#x1ed2;" horiz-adv-x="478" 
d="M350 682h-62l-55 69l-50 -69h-63l63 108h102zM239 -12q-105 0 -156.5 94.5t-51.5 250.5t51.5 250.5t156.5 94.5t156.5 -94.5t51.5 -250.5t-51.5 -250.5t-156.5 -94.5zM239 100q79 0 79 233t-79 233t-79 -233t79 -233zM144 735h-72l-106 108h98z" />
    <glyph glyph-name="uni1ED3" unicode="&#x1ed3;" horiz-adv-x="417" 
d="M323 556h-62l-55 92l-50 -92h-63l63 144h102zM208 -12q-89 0 -135 72.5t-46 181.5t46 181t135 72q90 0 136 -72t46 -181t-46 -181.5t-136 -72.5zM208 88q65 0 65 154q0 153 -65 153q-64 0 -64 -153q0 -154 64 -154zM115 627h-72l-106 144h98z" />
    <glyph glyph-name="uni1ED4" unicode="&#x1ed4;" horiz-adv-x="478" 
d="M350 682h-62l-55 69l-50 -69h-63l63 108h102zM239 -12q-105 0 -156.5 94.5t-51.5 250.5t51.5 250.5t156.5 94.5t156.5 -94.5t51.5 -250.5t-51.5 -250.5t-156.5 -94.5zM239 100q79 0 79 233t-79 233t-79 -233t79 -233zM343 791l-43 6q13 39 66 39q60 0 60 -49
q0 -24 -16 -43h-45q19 20 19 41t-20 21q-14 0 -21 -15z" />
    <glyph glyph-name="uni1ED5" unicode="&#x1ed5;" horiz-adv-x="417" 
d="M323 556h-62l-55 92l-50 -92h-63l63 144h102zM208 -12q-89 0 -135 72.5t-46 181.5t46 181t135 72q90 0 136 -72t46 -181t-46 -181.5t-136 -72.5zM208 88q65 0 65 154q0 153 -65 153q-64 0 -64 -153q0 -154 64 -154zM273 729l-43 8q13 53 66 53q27 0 43.5 -16.5
t16.5 -49.5q0 -31 -16 -57h-45q19 26 19 54q0 29 -20 29q-15 0 -21 -21z" />
    <glyph glyph-name="uni1ED6" unicode="&#x1ed6;" horiz-adv-x="478" 
d="M352 678h-62l-55 46l-50 -46h-63l63 72h102zM239 -12q-105 0 -156.5 94.5t-51.5 250.5t51.5 250.5t156.5 94.5t156.5 -94.5t51.5 -250.5t-51.5 -250.5t-156.5 -94.5zM239 100q79 0 79 233t-79 233t-79 -233t79 -233zM279 757q-29 0 -53.5 18.5t-34.5 18.5q-26 0 -26 -34
h-57q0 29 22.5 48t62.5 19q30 0 54 -18.5t34 -18.5q26 0 26 34h57q0 -30 -22 -48.5t-63 -18.5z" />
    <glyph glyph-name="uni1ED7" unicode="&#x1ed7;" horiz-adv-x="417" 
d="M324 523h-62l-55 92l-50 -92h-63l63 144h102zM208 -12q-89 0 -135 72.5t-46 181.5t46 181t135 72q90 0 136 -72t46 -181t-46 -181.5t-136 -72.5zM208 88q65 0 65 154q0 153 -65 153q-64 0 -64 -153q0 -154 64 -154zM251 682q-22 0 -38.5 18.5t-28 37t-21.5 18.5
q-26 0 -26 -68h-57q0 60 22.5 97t62.5 37q18 0 32.5 -11.5t22 -25.5t16.5 -25.5t17 -11.5q26 0 26 68h57q0 -60 -22 -97t-63 -37z" />
    <glyph glyph-name="uni1ED8" unicode="&#x1ed8;" horiz-adv-x="478" 
d="M355 723h-62l-55 92l-50 -92h-63l63 144h102zM239 -12q-105 0 -156.5 94.5t-51.5 250.5t51.5 250.5t156.5 94.5t156.5 -94.5t51.5 -250.5t-51.5 -250.5t-156.5 -94.5zM239 100q79 0 79 233t-79 233t-79 -233t79 -233zM241 -192q-25 0 -43 18t-18 43t18 43.5t43 18.5
q26 0 44 -18t18 -44t-18 -43.5t-44 -17.5z" />
    <glyph glyph-name="uni1ED9" unicode="&#x1ed9;" horiz-adv-x="417" 
d="M324 556h-62l-55 92l-50 -92h-63l63 144h102zM208 -12q-89 0 -135 72.5t-46 181.5t46 181t135 72q90 0 136 -72t46 -181t-46 -181.5t-136 -72.5zM208 88q65 0 65 154q0 153 -65 153q-64 0 -64 -153q0 -154 64 -154zM207 -192q-25 0 -43 18t-18 43t18 43.5t43 18.5
q26 0 44 -18t18 -44t-18 -43.5t-44 -17.5z" />
    <glyph glyph-name="uni1EDA" unicode="&#x1eda;" horiz-adv-x="478" 
d="M372 867l-106 -144h-72l79 144h99zM239 -12q-105 0 -156.5 94.5t-51.5 250.5t51.5 250.5t156.5 94.5q103 0 158 -98q27 29 33 58q-2 -3 -12 -3q-20 0 -33 14t-13 35q0 22 15 37.5t37 15.5q25 0 42 -19.5t17 -51.5q0 -77 -67 -129q31 -84 31 -204q0 -156 -51.5 -250.5
t-156.5 -94.5zM239 100q79 0 79 233t-79 233t-79 -233t79 -233z" />
    <glyph glyph-name="uni1EDB" unicode="&#x1edb;" horiz-adv-x="417" 
d="M342 700l-106 -144h-72l79 144h99zM408 532q0 -71 -57 -121q39 -66 39 -169q0 -109 -46 -181.5t-136 -72.5q-89 0 -135 72.5t-46 181.5t46 181t135 72q70 0 115 -47q26 26 32 56q-1 -3 -12 -3q-20 0 -33 14t-13 35q0 22 15 37.5t37 15.5q25 0 42 -19.5t17 -51.5zM208 88
q65 0 65 154q0 153 -65 153q-64 0 -64 -153q0 -154 64 -154z" />
    <glyph glyph-name="uni1EDC" unicode="&#x1edc;" horiz-adv-x="478" 
d="M239 -12q-105 0 -156.5 94.5t-51.5 250.5t51.5 250.5t156.5 94.5q103 0 158 -98q27 29 33 58q-2 -3 -12 -3q-20 0 -33 14t-13 35q0 22 15 37.5t37 15.5q25 0 42 -19.5t17 -51.5q0 -77 -67 -129q31 -84 31 -204q0 -156 -51.5 -250.5t-156.5 -94.5zM239 100q79 0 79 233
t-79 233t-79 -233t79 -233zM283 723h-72l-106 144h98z" />
    <glyph glyph-name="uni1EDD" unicode="&#x1edd;" horiz-adv-x="417" 
d="M408 532q0 -71 -57 -121q39 -66 39 -169q0 -109 -46 -181.5t-136 -72.5q-89 0 -135 72.5t-46 181.5t46 181t135 72q70 0 115 -47q26 26 32 56q-1 -3 -12 -3q-20 0 -33 14t-13 35q0 22 15 37.5t37 15.5q25 0 42 -19.5t17 -51.5zM208 88q65 0 65 154q0 153 -65 153
q-64 0 -64 -153q0 -154 64 -154zM253 556h-72l-106 144h98z" />
    <glyph glyph-name="uni1EDE" unicode="&#x1ede;" horiz-adv-x="478" 
d="M239 -12q-105 0 -156.5 94.5t-51.5 250.5t51.5 250.5t156.5 94.5q103 0 158 -98q27 29 33 58q-2 -3 -12 -3q-20 0 -33 14t-13 35q0 22 15 37.5t37 15.5q25 0 42 -19.5t17 -51.5q0 -77 -67 -129q31 -84 31 -204q0 -156 -51.5 -250.5t-156.5 -94.5zM239 100q79 0 79 233
t-79 233t-79 -233t79 -233zM218 759l-43 8q13 53 66 53q27 0 43.5 -16.5t16.5 -49.5q0 -31 -16 -57h-45q19 26 19 54q0 29 -20 29q-15 0 -21 -21z" />
    <glyph glyph-name="uni1EDF" unicode="&#x1edf;" horiz-adv-x="417" 
d="M408 532q0 -71 -57 -121q39 -66 39 -169q0 -109 -46 -181.5t-136 -72.5q-89 0 -135 72.5t-46 181.5t46 181t135 72q70 0 115 -47q26 26 32 56q-1 -3 -12 -3q-20 0 -33 14t-13 35q0 22 15 37.5t37 15.5q25 0 42 -19.5t17 -51.5zM208 88q65 0 65 154q0 153 -65 153
q-64 0 -64 -153q0 -154 64 -154zM188 589l-43 8q13 53 66 53q27 0 43.5 -16.5t16.5 -49.5q0 -31 -16 -57h-45q19 26 19 54q0 29 -20 29q-15 0 -21 -21z" />
    <glyph glyph-name="uni1EE0" unicode="&#x1ee0;" horiz-adv-x="478" 
d="M239 -12q-105 0 -156.5 94.5t-51.5 250.5t51.5 250.5t156.5 94.5q103 0 158 -98q27 29 33 58q-2 -3 -12 -3q-20 0 -33 14t-13 35q0 22 15 37.5t37 15.5q25 0 42 -19.5t17 -51.5q0 -77 -67 -129q31 -84 31 -204q0 -156 -51.5 -250.5t-156.5 -94.5zM239 100q79 0 79 233
t-79 233t-79 -233t79 -233zM283 721q-22 0 -38.5 18.5t-28 37t-21.5 18.5q-26 0 -26 -68h-57q0 60 22.5 97t62.5 37q18 0 32.5 -11.5t22 -25.5t16.5 -25.5t17 -11.5q26 0 26 68h57q0 -60 -22 -97t-63 -37z" />
    <glyph glyph-name="uni1EE1" unicode="&#x1ee1;" horiz-adv-x="417" 
d="M408 532q0 -71 -57 -121q39 -66 39 -169q0 -109 -46 -181.5t-136 -72.5q-89 0 -135 72.5t-46 181.5t46 181t135 72q70 0 115 -47q26 26 32 56q-1 -3 -12 -3q-20 0 -33 14t-13 35q0 22 15 37.5t37 15.5q25 0 42 -19.5t17 -51.5zM208 88q65 0 65 154q0 153 -65 153
q-64 0 -64 -153q0 -154 64 -154zM232 554q-22 0 -38.5 18.5t-28 37t-21.5 18.5q-26 0 -26 -68h-57q0 60 22.5 97t62.5 37q18 0 32.5 -11.5t22 -25.5t16.5 -25.5t17 -11.5q26 0 26 68h57q0 -60 -22 -97t-63 -37z" />
    <glyph glyph-name="uni1EE2" unicode="&#x1ee2;" horiz-adv-x="478" 
d="M239 -12q-105 0 -156.5 94.5t-51.5 250.5t51.5 250.5t156.5 94.5q103 0 158 -98q27 29 33 58q-2 -3 -12 -3q-20 0 -33 14t-13 35q0 22 15 37.5t37 15.5q25 0 42 -19.5t17 -51.5q0 -77 -67 -129q31 -84 31 -204q0 -156 -51.5 -250.5t-156.5 -94.5zM239 100q79 0 79 233
t-79 233t-79 -233t79 -233zM241 -192q-25 0 -43 18t-18 43t18 43.5t43 18.5q26 0 44 -18t18 -44t-18 -43.5t-44 -17.5z" />
    <glyph glyph-name="uni1EE3" unicode="&#x1ee3;" horiz-adv-x="417" 
d="M408 532q0 -71 -57 -121q39 -66 39 -169q0 -109 -46 -181.5t-136 -72.5q-89 0 -135 72.5t-46 181.5t46 181t135 72q70 0 115 -47q26 26 32 56q-1 -3 -12 -3q-20 0 -33 14t-13 35q0 22 15 37.5t37 15.5q25 0 42 -19.5t17 -51.5zM208 88q65 0 65 154q0 153 -65 153
q-64 0 -64 -153q0 -154 64 -154zM209 -192q-25 0 -43 18t-18 43t18 43.5t43 18.5q26 0 44 -18t18 -44t-18 -43.5t-44 -17.5z" />
    <glyph glyph-name="uni1EE4" unicode="&#x1ee4;" horiz-adv-x="484" 
d="M242 -12q-81 0 -135.5 52t-54.5 153v474h126v-480q0 -88 64 -88t64 88v480h126v-474q0 -101 -54.5 -153t-135.5 -52zM244 -192q-25 0 -43 18t-18 43t18 43.5t43 18.5q26 0 44 -18t18 -44t-18 -43.5t-44 -17.5z" />
    <glyph glyph-name="uni1EE5" unicode="&#x1ee5;" 
d="M375 0h-114v61q-15 -30 -47 -51.5t-66 -21.5q-102 0 -102 109v386h113v-346q0 -49 37 -49q21 0 38.5 18t26.5 43v334h114v-483zM210 -192q-25 0 -43 18t-18 43t18 43.5t43 18.5q26 0 44 -18t18 -44t-18 -43.5t-44 -17.5z" />
    <glyph glyph-name="uni1EE6" unicode="&#x1ee6;" horiz-adv-x="484" 
d="M242 -12q-81 0 -135.5 52t-54.5 153v474h126v-480q0 -88 64 -88t64 88v480h126v-474q0 -101 -54.5 -153t-135.5 -52zM221 759l-43 8q13 53 66 53q27 0 43.5 -16.5t16.5 -49.5q0 -31 -16 -57h-45q19 26 19 54q0 29 -20 29q-15 0 -21 -21z" />
    <glyph glyph-name="uni1EE7" unicode="&#x1ee7;" 
d="M375 0h-114v61q-15 -30 -47 -51.5t-66 -21.5q-102 0 -102 109v386h113v-346q0 -49 37 -49q21 0 38.5 18t26.5 43v334h114v-483zM189 589l-43 8q13 53 66 53q27 0 43.5 -16.5t16.5 -49.5q0 -31 -16 -57h-45q19 26 19 54q0 29 -20 29q-15 0 -21 -21z" />
    <glyph glyph-name="uni1EE8" unicode="&#x1ee8;" horiz-adv-x="484" 
d="M376 867l-106 -144h-72l79 144h99zM527 727q0 -42 -24.5 -82t-70.5 -66v-386q0 -101 -54.5 -153t-135.5 -52t-135.5 52t-54.5 153v474h126v-480q0 -88 64 -88t64 88v480h126v-35q37 33 43 67q-4 -2 -13 -2q-20 0 -32.5 13.5t-12.5 35.5q0 21 15 36.5t36 15.5
q24 0 41.5 -19.5t17.5 -51.5z" />
    <glyph glyph-name="uni1EE9" unicode="&#x1ee9;" 
d="M344 700l-106 -144h-72l79 144h99zM375 0h-114v61q-15 -30 -47 -51.5t-66 -21.5q-102 0 -102 109v386h113v-346q0 -49 37 -49q21 0 38.5 18t26.5 43v334h113q11 18 14 31h-5q-5 -1 -7 -1q-20 0 -33 13.5t-13 34.5t15 36.5t37 15.5q25 0 42 -19t17 -51q0 -73 -66 -129
v-414z" />
    <glyph glyph-name="uni1EEA" unicode="&#x1eea;" horiz-adv-x="484" 
d="M287 723h-72l-106 144h98zM527 727q0 -42 -24.5 -82t-70.5 -66v-386q0 -101 -54.5 -153t-135.5 -52t-135.5 52t-54.5 153v474h126v-480q0 -88 64 -88t64 88v480h126v-35q37 33 43 67q-4 -2 -13 -2q-20 0 -32.5 13.5t-12.5 35.5q0 21 15 36.5t36 15.5q24 0 41.5 -19.5
t17.5 -51.5z" />
    <glyph glyph-name="uni1EEB" unicode="&#x1eeb;" 
d="M255 556h-72l-106 144h98zM375 0h-114v61q-15 -30 -47 -51.5t-66 -21.5q-102 0 -102 109v386h113v-346q0 -49 37 -49q21 0 38.5 18t26.5 43v334h113q11 18 14 31h-5q-5 -1 -7 -1q-20 0 -33 13.5t-13 34.5t15 36.5t37 15.5q25 0 42 -19t17 -51q0 -73 -66 -129v-414z" />
    <glyph glyph-name="uni1EEC" unicode="&#x1eec;" horiz-adv-x="484" 
d="M221 759l-43 8q13 53 66 53q27 0 43.5 -16.5t16.5 -49.5q0 -31 -16 -57h-45q19 26 19 54q0 29 -20 29q-15 0 -21 -21zM527 727q0 -42 -24.5 -82t-70.5 -66v-386q0 -101 -54.5 -153t-135.5 -52t-135.5 52t-54.5 153v474h126v-480q0 -88 64 -88t64 88v480h126v-35
q37 33 43 67q-4 -2 -13 -2q-20 0 -32.5 13.5t-12.5 35.5q0 21 15 36.5t36 15.5q24 0 41.5 -19.5t17.5 -51.5z" />
    <glyph glyph-name="uni1EED" unicode="&#x1eed;" 
d="M189 589l-43 8q13 53 66 53q27 0 43.5 -16.5t16.5 -49.5q0 -31 -16 -57h-45q19 26 19 54q0 29 -20 29q-15 0 -21 -21zM375 0h-114v61q-15 -30 -47 -51.5t-66 -21.5q-102 0 -102 109v386h113v-346q0 -49 37 -49q21 0 38.5 18t26.5 43v334h113q11 18 14 31h-5q-5 -1 -7 -1
q-20 0 -33 13.5t-13 34.5t15 36.5t37 15.5q25 0 42 -19t17 -51q0 -73 -66 -129v-414z" />
    <glyph glyph-name="uni1EEE" unicode="&#x1eee;" horiz-adv-x="484" 
d="M527 727q0 -42 -24.5 -82t-70.5 -66v-386q0 -101 -54.5 -153t-135.5 -52t-135.5 52t-54.5 153v474h126v-480q0 -88 64 -88t64 88v480h126v-35q37 33 43 67q-4 -2 -13 -2q-20 0 -32.5 13.5t-12.5 35.5q0 21 15 36.5t36 15.5q24 0 41.5 -19.5t17.5 -51.5zM285 721
q-22 0 -38.5 18.5t-28 37t-21.5 18.5q-26 0 -26 -68h-57q0 60 22.5 97t62.5 37q18 0 32.5 -11.5t22 -25.5t16.5 -25.5t17 -11.5q26 0 26 68h57q0 -60 -22 -97t-63 -37z" />
    <glyph glyph-name="uni1EEF" unicode="&#x1eef;" 
d="M375 0h-114v61q-15 -30 -47 -51.5t-66 -21.5q-102 0 -102 109v386h113v-346q0 -49 37 -49q21 0 38.5 18t26.5 43v334h113q11 18 14 31h-5q-5 -1 -7 -1q-20 0 -33 13.5t-13 34.5t15 36.5t37 15.5q25 0 42 -19t17 -51q0 -73 -66 -129v-414zM248 554q-22 0 -38.5 18.5
t-28 37t-21.5 18.5q-26 0 -26 -68h-57q0 60 22.5 97t62.5 37q18 0 32.5 -11.5t22 -25.5t16.5 -25.5t17 -11.5q26 0 26 68h57q0 -60 -22 -97t-63 -37z" />
    <glyph glyph-name="uni1EF0" unicode="&#x1ef0;" horiz-adv-x="484" 
d="M244 -192q-25 0 -43 18t-18 43t18 43.5t43 18.5q26 0 44 -18t18 -44t-18 -43.5t-44 -17.5zM527 727q0 -42 -24.5 -82t-70.5 -66v-386q0 -101 -54.5 -153t-135.5 -52t-135.5 52t-54.5 153v474h126v-480q0 -88 64 -88t64 88v480h126v-35q37 33 43 67q-4 -2 -13 -2
q-20 0 -32.5 13.5t-12.5 35.5q0 21 15 36.5t36 15.5q24 0 41.5 -19.5t17.5 -51.5z" />
    <glyph glyph-name="uni1EF1" unicode="&#x1ef1;" 
d="M210 -192q-25 0 -43 18t-18 43t18 43.5t43 18.5q26 0 44 -18t18 -44t-18 -43.5t-44 -17.5zM375 0h-114v61q-15 -30 -47 -51.5t-66 -21.5q-102 0 -102 109v386h113v-346q0 -49 37 -49q21 0 38.5 18t26.5 43v334h113q11 18 14 31h-5q-5 -1 -7 -1q-20 0 -33 13.5t-13 34.5
t15 36.5t37 15.5q25 0 42 -19t17 -51q0 -73 -66 -129v-414z" />
    <glyph glyph-name="Ygrave" unicode="&#x1ef2;" horiz-adv-x="430" 
d="M278 0h-125v276l-157 391h134l85 -269l87 269h132l-156 -391v-276zM260 723h-72l-106 144h98z" />
    <glyph glyph-name="ygrave" unicode="&#x1ef3;" horiz-adv-x="380" 
d="M40 -189l16 98q12 -5 23 -5q30 0 40 34l14 50l-131 495h120l68 -340l70 340h119l-152 -568q-17 -64 -47.5 -87.5t-85.5 -23.5q-35 0 -54 7zM235 556h-72l-106 144h98z" />
    <glyph glyph-name="thinspace" unicode="&#x2009;" horiz-adv-x="32" 
 />
    <glyph glyph-name="endash" unicode="&#x2013;" horiz-adv-x="460" 
d="M430 194h-400v96h400v-96z" />
    <glyph glyph-name="emdash" unicode="&#x2014;" horiz-adv-x="640" 
d="M610 194h-580v96h580v-96z" />
    <glyph glyph-name="afii00208" unicode="&#x2015;" horiz-adv-x="460" 
d="M430 194h-400v96h400v-96z" />
    <glyph glyph-name="quoteleft" unicode="&#x2018;" horiz-adv-x="251" 
d="M46 503q0 52 26 97.5t71 76.5l50 -40q-25 -15 -47 -42t-27 -52q9 3 18 3q26 0 44 -19t18 -48t-21.5 -50.5t-50.5 -21.5q-34 0 -57.5 26t-23.5 70z" />
    <glyph glyph-name="quoteright" unicode="&#x2019;" horiz-adv-x="251" 
d="M203 581q0 -52 -26 -97.5t-71 -76.5l-49 40q25 15 46.5 42t27.5 52q-9 -3 -18 -3q-26 0 -44 19t-18 48t21 50.5t51 21.5q34 0 57 -26t23 -70z" />
    <glyph glyph-name="quotesinglbase" unicode="&#x201a;" horiz-adv-x="248" 
d="M203 41q0 -106 -97 -175l-50 40q25 15 47 42.5t27 52.5q-6 -3 -17 -3q-26 0 -44.5 19t-18.5 47q0 30 21 51.5t51 21.5q34 0 57.5 -26t23.5 -70z" />
    <glyph glyph-name="quotereversed" unicode="&#x201b;" horiz-adv-x="251" 
d="M47 581q0 44 23.5 70t57.5 26q30 0 51 -21.5t21 -50.5t-18 -48t-44 -19q-9 0 -18 3q6 -25 27.5 -52t46.5 -42l-50 -40q-44 31 -70.5 76.5t-26.5 97.5z" />
    <glyph glyph-name="quotedblleft" unicode="&#x201c;" horiz-adv-x="442" 
d="M47 503q0 52 26.5 97.5t70.5 76.5l50 -40q-25 -15 -46.5 -42t-27.5 -52q9 3 18 3q26 0 44 -19t18 -48t-21 -50.5t-51 -21.5q-34 0 -57.5 26t-23.5 70zM238 503q0 52 26.5 97.5t70.5 76.5l51 -40q-25 -15 -47 -42t-27 -52q9 3 17 3q26 0 44 -19t18 -48t-21 -50.5
t-50 -21.5q-34 0 -58 26t-24 70z" />
    <glyph glyph-name="quotedblright" unicode="&#x201d;" horiz-adv-x="442" 
d="M395 581q0 -52 -26.5 -97.5t-70.5 -76.5l-50 40q25 15 47 42t27 52q-9 -3 -18 -3q-26 0 -44 19t-18 48t21.5 50.5t50.5 21.5q34 0 57.5 -26t23.5 -70zM203 581q0 -52 -26 -97.5t-71 -76.5l-49 40q25 15 46.5 42t27.5 52q-9 -3 -18 -3q-26 0 -44 19t-18 48t21 50.5
t51 21.5q34 0 57 -26t23 -70z" />
    <glyph glyph-name="quotedblbase" unicode="&#x201e;" horiz-adv-x="440" 
d="M203 41q0 -106 -97 -175l-50 40q25 15 47 42.5t27 52.5q-6 -3 -17 -3q-26 0 -44.5 19t-18.5 47q0 30 21 51.5t51 21.5q34 0 57.5 -26t23.5 -70zM395 41q0 -105 -97 -175l-50 40q25 15 47 42.5t26 52.5q-6 -3 -17 -3q-26 0 -44 19t-18 47q0 30 21 51.5t51 21.5
q34 0 57.5 -26t23.5 -70z" />
    <glyph glyph-name="dagger" unicode="&#x2020;" horiz-adv-x="273" 
d="M252 525l-89 4l4 -202h-62l5 202l-89 -4v57l89 -3l-5 98h62l-4 -98l89 3v-57z" />
    <glyph glyph-name="daggerdbl" unicode="&#x2021;" horiz-adv-x="273" 
d="M252 582v-57l-89 4v-199l89 4v-57l-89 3l4 -100h-62l4 100l-88 -3v57l88 -4v199l-88 -4v57l88 -3l-4 98h62l-4 -98z" />
    <glyph glyph-name="bullet" unicode="&#x2022;" horiz-adv-x="358" 
d="M296 242q0 -47 -34 -81t-82 -34t-82 34t-34 81q0 48 34 82t82 34t82 -34t34 -82z" />
    <glyph glyph-name="ellipsis" unicode="&#x2026;" horiz-adv-x="745" 
d="M198 63q0 -30 -21.5 -52t-52.5 -22q-30 0 -52 22t-22 52t22 52t52 22q31 0 52.5 -22t21.5 -52zM446 63q0 -30 -21.5 -52t-52.5 -22q-30 0 -51.5 22t-21.5 52t21.5 52t51.5 22q31 0 52.5 -22t21.5 -52zM695 63q0 -30 -22 -52t-53 -22q-30 0 -51.5 22t-21.5 52t21.5 52
t51.5 22q31 0 53 -22t22 -52z" />
    <glyph glyph-name="perthousand" unicode="&#x2030;" horiz-adv-x="866" 
d="M280 510q0 -71 -35.5 -117.5t-94.5 -46.5q-58 0 -94 46.5t-36 117.5q0 72 36 119.5t94 47.5q59 0 94.5 -47.5t35.5 -119.5zM459 667l-279 -667h-51l279 667h51zM567 153q0 -71 -35.5 -118t-94.5 -47q-58 0 -94 47t-36 118q0 72 36 119t94 47q59 0 94.5 -47t35.5 -119z
M204 510q0 45 -14.5 70.5t-39.5 25.5t-39.5 -26t-14.5 -70q0 -42 14.5 -68t39.5 -26t39.5 25.5t14.5 68.5zM491 153q0 44 -14.5 69.5t-39.5 25.5t-39.5 -25.5t-14.5 -69.5q0 -43 14.5 -68.5t39.5 -25.5t39.5 25.5t14.5 68.5zM846 153q0 -71 -35.5 -118t-94.5 -47
q-58 0 -93.5 47t-35.5 118q0 72 35.5 119t93.5 47q59 0 94.5 -47t35.5 -119zM770 153q0 44 -14.5 69.5t-39.5 25.5t-39.5 -25.5t-14.5 -69.5q0 -42 14.5 -68t39.5 -26t39.5 25.5t14.5 68.5z" />
    <glyph glyph-name="guilsinglleft" unicode="&#x2039;" horiz-adv-x="238" 
d="M208 63h-88l-90 180l90 177h88l-90 -177z" />
    <glyph glyph-name="guilsinglright" unicode="&#x203a;" horiz-adv-x="238" 
d="M208 243l-90 -180h-88l90 180l-90 177h88z" />
    <glyph glyph-name="uni203E" unicode="&#x203e;" horiz-adv-x="258" 
d="M258 564h-258v66h258v-66z" />
    <glyph glyph-name="fraction" unicode="&#x2044;" horiz-adv-x="133" 
d="M231 667l-279 -667h-50l278 667h51z" />
    <glyph glyph-name="zerosuperior" unicode="&#x2070;" horiz-adv-x="293" 
d="M280 621q0 -86 -34 -146.5t-99 -60.5t-99 60.5t-34 146.5t33.5 146t99.5 60q65 0 99 -60t34 -146zM192 621q0 137 -45 137q-27 0 -36.5 -35.5t-9.5 -101.5t9.5 -102t36.5 -36q45 0 45 138z" />
    <glyph glyph-name="foursuperior" unicode="&#x2074;" horiz-adv-x="293" 
d="M281 511h-34v-90h-86v90h-147v67l129 243h104v-242h34v-68zM161 579v148l-75 -148h75z" />
    <glyph glyph-name="fivesuperior" unicode="&#x2075;" horiz-adv-x="293" 
d="M276 551q0 -60 -37 -98.5t-98 -38.5q-84 0 -127 64l54 52q28 -47 69 -47q24 0 38 19t14 48q0 31 -12.5 48t-34.5 17q-32 0 -55 -38l-62 20v224h230v-69h-145v-106q25 32 66 32q42 0 71 -33.5t29 -93.5z" />
    <glyph glyph-name="sixsuperior" unicode="&#x2076;" horiz-adv-x="293" 
d="M277 551q0 -60 -34 -98.5t-89 -38.5q-70 0 -104 58t-34 149q0 93 40 149.5t111 56.5q60 0 96 -42l-42 -58q-19 31 -52 31q-31 0 -48.5 -33.5t-17.5 -83.5v-9q23 52 77 52q41 0 69 -36t28 -97zM191 548q0 35 -12.5 51.5t-30.5 16.5q-27 0 -46 -41q4 -92 46 -92
q20 0 31.5 19.5t11.5 45.5z" />
    <glyph glyph-name="sevensuperior" unicode="&#x2077;" horiz-adv-x="268" 
d="M255 762l-112 -341h-82l114 331h-161v69h241v-59z" />
    <glyph glyph-name="eightsuperior" unicode="&#x2078;" horiz-adv-x="293" 
d="M276 524q0 -52 -35 -81t-95 -29q-61 0 -95.5 28.5t-34.5 81.5q0 34 21.5 63t52.5 40q-29 10 -48.5 35.5t-19.5 60.5q0 51 36.5 77.5t87.5 26.5q52 0 88.5 -26.5t36.5 -77.5q0 -35 -19.5 -60.5t-48.5 -35.5q30 -11 51.5 -40t21.5 -63zM187 710q0 51 -41 51q-40 0 -40 -51
q0 -40 40 -55q7 2 15 7t17 18t9 30zM191 532q0 27 -16.5 45t-28.5 20q-12 -3 -28 -20.5t-16 -45.5q0 -25 12 -38t32 -13q19 0 32 13t13 39z" />
    <glyph glyph-name="ninesuperior" unicode="&#x2079;" horiz-adv-x="293" 
d="M16 690q0 60 35 98.5t89 38.5q70 0 104 -58t34 -149q0 -93 -40 -149.5t-111 -56.5q-60 0 -96 42l42 58q19 -31 52 -31q29 0 47.5 34t18.5 84v8q-23 -52 -78 -52q-41 0 -69 36t-28 97zM103 693q0 -35 12.5 -51.5t29.5 -16.5q28 0 47 42q-4 91 -47 91q-20 0 -31 -19.5
t-11 -45.5z" />
    <glyph glyph-name="parenleftsuperior" unicode="&#x207d;" horiz-adv-x="161" 
d="M146 377l-46 -21q-72 119 -72 265t72 265l46 -20q-48 -112 -48 -245q0 -135 48 -244z" />
    <glyph glyph-name="parenrightsuperior" unicode="&#x207e;" horiz-adv-x="161" 
d="M133 621q0 -146 -72 -265l-47 21q50 111 50 244q0 132 -50 245l47 20q72 -119 72 -265z" />
    <glyph glyph-name="nsuperior" unicode="&#x207f;" horiz-adv-x="311" 
d="M274 326h-83v217q0 36 -27 36q-28 0 -44 -39v-214h-83v314h83v-39q11 19 34 33t46 14q74 0 74 -78v-244z" />
    <glyph glyph-name="zeroinferior" unicode="&#x2080;" horiz-adv-x="293" 
d="M280 54q0 -86 -34 -146.5t-99 -60.5t-99 60.5t-34 146.5t33.5 146t99.5 60q65 0 99 -60t34 -146zM192 54q0 137 -45 137q-27 0 -36.5 -35.5t-9.5 -101.5t9.5 -102t36.5 -36q45 0 45 138z" />
    <glyph glyph-name="oneinferior" unicode="&#x2081;" horiz-adv-x="244" 
d="M201 -146h-87v290l-56 -58l-49 50l117 118h75v-400z" />
    <glyph glyph-name="twoinferior" unicode="&#x2082;" horiz-adv-x="293" 
d="M276 -146h-248v63q103 111 132 151.5t29 73.5q0 22 -13 35.5t-35 13.5q-43 0 -72 -48l-52 51q47 66 129 66q58 0 93 -30.5t35 -85.5q0 -41 -29 -85.5t-110 -135.5h141v-69z" />
    <glyph glyph-name="threeinferior" unicode="&#x2083;" horiz-adv-x="293" 
d="M276 -35q0 -53 -36 -85.5t-95 -32.5q-88 0 -130 64l55 52q27 -47 71 -47q51 0 51 54t-55 54q-23 0 -29 -1v69q5 -1 25 -1q54 0 54 49q0 51 -47 51q-43 0 -68 -42l-53 46q42 65 126 65q57 0 91 -28t34 -81q0 -33 -20 -59t-50 -31q32 -5 54 -32.5t22 -63.5z" />
    <glyph glyph-name="fourinferior" unicode="&#x2084;" horiz-adv-x="293" 
d="M281 -56h-34v-90h-86v90h-147v67l129 243h104v-242h34v-68zM161 12v148l-75 -148h75z" />
    <glyph glyph-name="fiveinferior" unicode="&#x2085;" horiz-adv-x="293" 
d="M276 -16q0 -60 -37 -98.5t-98 -38.5q-84 0 -127 64l54 52q28 -47 69 -47q24 0 38 19t14 48q0 31 -12.5 48t-34.5 17q-32 0 -55 -38l-62 20v224h230v-69h-145v-106q25 32 66 32q42 0 71 -33.5t29 -93.5z" />
    <glyph glyph-name="sixinferior" unicode="&#x2086;" horiz-adv-x="293" 
d="M277 -16q0 -60 -34 -98.5t-89 -38.5q-70 0 -104 58t-34 149q0 93 40 149.5t111 56.5q60 0 96 -42l-42 -58q-19 31 -52 31q-31 0 -48.5 -33.5t-17.5 -83.5v-9q23 52 77 52q41 0 69 -36t28 -97zM191 -19q0 35 -12.5 51.5t-30.5 16.5q-27 0 -46 -41q4 -92 46 -92
q20 0 31.5 19.5t11.5 45.5z" />
    <glyph glyph-name="seveninferior" unicode="&#x2087;" horiz-adv-x="268" 
d="M255 195l-112 -341h-82l114 331h-161v69h241v-59z" />
    <glyph glyph-name="eightinferior" unicode="&#x2088;" horiz-adv-x="293" 
d="M276 -43q0 -52 -35 -81t-95 -29q-61 0 -95.5 28.5t-34.5 81.5q0 34 21.5 63t52.5 40q-29 10 -48.5 35.5t-19.5 60.5q0 51 36.5 77.5t87.5 26.5q52 0 88.5 -26.5t36.5 -77.5q0 -35 -19.5 -60.5t-48.5 -35.5q30 -11 51.5 -40t21.5 -63zM187 143q0 51 -41 51q-40 0 -40 -51
q0 -40 40 -55q7 2 15 7t17 18t9 30zM191 -35q0 27 -16.5 45t-28.5 20q-12 -3 -28 -20.5t-16 -45.5q0 -25 12 -38t32 -13q19 0 32 13t13 39z" />
    <glyph glyph-name="nineinferior" unicode="&#x2089;" horiz-adv-x="293" 
d="M16 123q0 60 35 98.5t89 38.5q70 0 104 -58t34 -149q0 -93 -40 -149.5t-111 -56.5q-60 0 -96 42l42 58q19 -31 52 -31q29 0 47.5 34t18.5 84v8q-23 -52 -78 -52q-41 0 -69 36t-28 97zM103 126q0 -35 12.5 -51.5t29.5 -16.5q28 0 47 42q-4 91 -47 91q-20 0 -31 -19.5
t-11 -45.5z" />
    <glyph glyph-name="parenleftinferior" unicode="&#x208d;" horiz-adv-x="161" 
d="M146 -190l-46 -21q-72 119 -72 265t72 265l46 -20q-48 -112 -48 -245q0 -135 48 -244z" />
    <glyph glyph-name="parenrightinferior" unicode="&#x208e;" horiz-adv-x="161" 
d="M133 54q0 -146 -72 -265l-47 21q50 111 50 244q0 132 -50 245l47 20q72 -119 72 -265z" />
    <glyph glyph-name="colonmonetary" unicode="&#x20a1;" horiz-adv-x="413" 
d="M235 -12h-1l-18 -88h-64l20 99q-19 6 -34 17l-24 -116h-64l35 171q-59 89 -59 262q0 147 45.5 239t137.5 104l19 92h63l-19 -94q15 -3 36 -13l22 107h64l-32 -156q23 -34 40 -91l-100 -37q-12 42 -26.5 62t-40.5 20q-80 0 -80 -233t80 -233q52 0 68 97l101 -37
q-43 -172 -169 -172z" />
    <glyph glyph-name="frenchfranc" unicode="&#x20a3;" horiz-adv-x="389" 
d="M192 0h-126v117h-50v66h50v484h292v-111h-166v-161h159v-111h-159v-101h85v-66h-85v-117z" />
    <glyph glyph-name="lira" unicode="&#x20a4;" horiz-adv-x="424" 
d="M30 332v60h30q-14 39 -14 86q0 83 56.5 141t132.5 58q64 0 108 -34t56 -97l-100 -43q-8 35 -21 53t-37 18q-25 0 -42 -26.5t-17 -71.5q0 -44 14 -84h90v-60h-65q10 -29 13 -58h52v-59h-53q-14 -63 -53 -98q18 9 36 9q23 0 51 -13t46 -13q44 0 67 30l34 -100
q-14 -17 -46 -29.5t-66 -12.5q-38 0 -77 20.5t-59 20.5q-36 0 -85 -36l-37 86q36 23 57.5 59.5t21.5 73.5v3h-93v59h82q0 1 -26 58h-56z" />
    <glyph glyph-name="uni20A6" unicode="&#x20a6;" horiz-adv-x="510" 
d="M446 0h-119l-85 234h-50v-234h-126v234h-50v66h50v74h-50v66h50v227h126l80 -227h48v227h126v-227h45v-66h-45v-74h45v-66h-45v-234zM192 373v-73h26zM296 374l24 -67v67h-24z" />
    <glyph glyph-name="peseta" unicode="&#x20a7;" horiz-adv-x="488" 
d="M477 419h-45q-9 -79 -56.5 -129.5t-130.5 -50.5h-53v-239h-126v419h-50v69h50v179h179q83 0 130.5 -50.5t56.5 -128.5h45v-69zM232 350q27 0 45.5 18.5t24.5 50.5h-110v-69h40zM192 556v-68h109q-6 32 -24 50t-45 18h-40z" />
    <glyph glyph-name="rupee" unicode="&#x20a8;" horiz-adv-x="771" 
d="M594 -12q-104 0 -157 63l47 78q47 -52 100 -52q27 0 44 14t17 38q0 18 -14 32.5t-35.5 24.5t-46 24.5t-46 31t-35.5 47t-14 69.5q0 58 41 97.5t113 39.5q83 0 142 -57l-46 -76q-36 44 -93 44q-23 0 -37.5 -13t-14.5 -32q0 -20 20 -35t48.5 -29t56.5 -32t48 -52t20 -81
q0 -64 -44.5 -104t-113.5 -40zM426 0h-135l-72 245h-41v-245h-126v667h186q80 0 131 -58t51 -149q0 -139 -86 -184zM219 356q35 0 54 27t19 73t-19 73t-54 27h-41v-200h41z" />
    <glyph glyph-name="uni20A9" unicode="&#x20a9;" horiz-adv-x="650" 
d="M508 0h-128l-30 234h-50l-30 -234h-128l-40 234h-76v66h64l-12 74h-52v66h41l-39 227h128l28 -227h59l32 227h100l32 -227h58l29 227h128l-39 -227h35v-66h-46l-13 -74h59v-66h-70zM192 374l10 -74h21l11 74h-42zM417 374l10 -74h21l9 74h-40zM318 374l-10 -74h33l-9 74
h-14z" />
    <glyph glyph-name="afii57636" unicode="&#x20aa;" horiz-adv-x="560" 
d="M343 0h-170v394h84v-313h86q87 0 87 88v381h84v-354q0 -196 -171 -196zM216 550q171 0 171 -196v-199h-85v226q0 88 -86 88h-86v-469h-84v550h170z" />
    <glyph glyph-name="dong" unicode="&#x20ab;" horiz-adv-x="434" 
d="M349 -164h-258v66h258v-66zM377 0h-113v60q-15 -34 -41 -53t-53 -19q-70 0 -106.5 67t-36.5 186q0 117 36.5 185.5t106.5 68.5q28 0 54 -18.5t40 -53.5v107h-119v66h119v71h113v-71h37v-66h-37v-530zM207 88q18 0 33.5 16.5t23.5 41.5v191q-8 25 -23.5 41.5t-33.5 16.5
q-64 0 -64 -154q0 -153 64 -153z" />
    <glyph glyph-name="Euro" unicode="&#x20ac;" horiz-adv-x="445" 
d="M257 -12q-86 0 -136.5 64t-66.5 177h-40v70h34v34v36h-34v72h41q16 111 66.5 174t135.5 63q38 0 68 -13.5t49 -39t30 -49.5t20 -55l-100 -37q-12 42 -26.5 62t-40.5 20q-59 0 -75 -125h99v-72h-104v-36v-34h104v-70h-99q15 -129 75 -129q52 0 68 97l101 -37
q-43 -172 -169 -172z" />
    <glyph glyph-name="afii61289" unicode="&#x2113;" horiz-adv-x="431" 
d="M164 233v-114q0 -45 26 -45q19 0 28 12l24 -73q-26 -25 -80 -25q-55 0 -82.5 28.5t-27.5 94.5v389q0 79 51.5 128t137.5 49q69 0 122.5 -40t53.5 -104q0 -38 -16.5 -70t-64.5 -76zM164 356l89 83q29 28 42.5 48.5t13.5 45.5t-19.5 42t-48.5 17q-36 0 -56.5 -23.5
t-20.5 -68.5v-144z" />
    <glyph glyph-name="afii61352" unicode="&#x2116;" horiz-adv-x="792" 
d="M639 350q-62 0 -96 47.5t-34 117.5t34 117.5t96 47.5q63 0 96.5 -47.5t33.5 -117.5t-33.5 -117.5t-96.5 -47.5zM639 417q45 0 45 98q0 97 -45 97t-45 -97q0 -98 45 -98zM432 0h-119l-135 353v-353h-126v667h126l128 -340v340h126v-667z" />
    <glyph glyph-name="published" unicode="&#x2117;" horiz-adv-x="778" 
d="M734 334q0 -142 -101 -243.5t-244 -101.5t-244 101.5t-101 243.5t101 243.5t244 101.5t244 -101.5t101 -243.5zM699 334q0 128 -91.5 219t-218.5 91t-218 -91t-91 -219t91 -219t218 -91t218.5 91t91.5 219zM553 417q0 -52 -36.5 -84.5t-89.5 -32.5h-112v-169h-43v405h155
q52 0 89 -32.5t37 -86.5zM509 417q0 36 -23.5 58t-58.5 22h-112v-158h112q35 0 58.5 21.5t23.5 56.5z" />
    <glyph glyph-name="servicemark" unicode="&#x2120;" horiz-adv-x="374" 
d="M337 447h-28v182l-55 -182h-8l-55 182v-182h-28v220h43l44 -157l44 157h43v-220zM122 501q0 -26 -15.5 -43t-40.5 -17q-32 0 -51 21l14 25q16 -19 34 -19q12 0 21 9t9 24q0 17 -11.5 30.5t-24.5 22t-24.5 25t-11.5 37.5q0 25 15 41t39 16q25 0 43 -16l-12 -24
q-12 13 -29 13q-11 0 -18.5 -8t-7.5 -22t11 -26.5t24.5 -21.5t24.5 -26.5t11 -40.5z" />
    <glyph glyph-name="trademark" unicode="&#x2122;" horiz-adv-x="374" 
d="M339 447h-28v182l-55 -182h-8l-55 182v-182h-28v220h43l44 -157l44 157h43v-220zM129 641h-42v-194h-28v194h-42v26h112v-26z" />
    <glyph glyph-name="Omega" unicode="&#x2126;" horiz-adv-x="469" 
d="M36 111h77q-87 85 -87 249q0 147 52.5 232.5t156.5 85.5q103 0 155.5 -85.5t52.5 -232.5q0 -162 -89 -249h78v-111h-169v111q21 21 36 83.5t15 138.5q0 232 -79 232q-80 0 -80 -232q0 -76 15 -138.5t36 -83.5v-111h-170v111z" />
    <glyph glyph-name="estimated" unicode="&#x212e;" horiz-adv-x="842" 
d="M811 324h-632q-5 0 -5 -5v-190q0 -14 9 -23q98 -103 240 -103q151 0 250 115h57q-54 -63 -135 -99.5t-174 -36.5q-161 0 -275.5 103t-114.5 248t114.5 248t275.5 103t275.5 -103t114.5 -248v-9zM668 349v191q0 14 -10 24q-97 99 -235 99q-140 0 -239 -102
q-10 -10 -10 -24v-188q0 -6 5 -6h485q4 0 4 6z" />
    <glyph glyph-name="onethird" unicode="&#x2153;" horiz-adv-x="683" 
d="M201 267h-87v290l-56 -58l-49 50l117 118h75v-400zM488 667l-279 -667h-50l278 667h51zM666 111q0 -53 -36 -85.5t-95 -32.5q-88 0 -130 64l55 52q27 -47 71 -47q51 0 51 54t-55 54q-23 0 -29 -1v69q5 -1 25 -1q54 0 54 49q0 51 -47 51q-43 0 -68 -42l-53 46
q42 65 126 65q57 0 91 -28t34 -81q0 -33 -20 -59t-50 -31q32 -5 54 -32.5t22 -63.5z" />
    <glyph glyph-name="twothirds" unicode="&#x2154;" horiz-adv-x="719" 
d="M276 267h-248v63q103 111 132 151.5t29 73.5q0 22 -13 35.5t-35 13.5q-43 0 -72 -48l-52 51q47 66 129 66q58 0 93 -30.5t35 -85.5q0 -41 -29 -85.5t-110 -135.5h141v-69zM524 667l-279 -667h-50l278 667h51zM702 111q0 -53 -36 -85.5t-95 -32.5q-88 0 -130 64l55 52
q27 -47 71 -47q51 0 51 54t-55 54q-23 0 -29 -1v69q5 -1 25 -1q54 0 54 49q0 51 -47 51q-43 0 -68 -42l-53 46q42 65 126 65q57 0 91 -28t34 -81q0 -33 -20 -59t-50 -31q32 -5 54 -32.5t22 -63.5z" />
    <glyph glyph-name="oneeighth" unicode="&#x215b;" horiz-adv-x="683" 
d="M201 267h-87v290l-56 -58l-49 50l117 118h75v-400zM666 103q0 -52 -35 -81t-95 -29q-61 0 -95.5 28.5t-34.5 81.5q0 34 21.5 63t52.5 40q-29 10 -48.5 35.5t-19.5 60.5q0 51 36.5 77.5t87.5 26.5q52 0 88.5 -26.5t36.5 -77.5q0 -35 -19.5 -60.5t-48.5 -35.5
q30 -11 51.5 -40t21.5 -63zM577 289q0 51 -41 51q-40 0 -40 -51q0 -40 40 -55q7 2 15 7t17 18t9 30zM581 111q0 27 -16.5 45t-28.5 20q-12 -3 -28 -20.5t-16 -45.5q0 -25 12 -38t32 -13q19 0 32 13t13 39zM488 667l-279 -667h-50l278 667h51z" />
    <glyph glyph-name="threeeighths" unicode="&#x215c;" horiz-adv-x="719" 
d="M702 103q0 -52 -35 -81t-95 -29q-61 0 -95.5 28.5t-34.5 81.5q0 34 21.5 63t52.5 40q-29 10 -48.5 35.5t-19.5 60.5q0 51 36.5 77.5t87.5 26.5q52 0 88.5 -26.5t36.5 -77.5q0 -35 -19.5 -60.5t-48.5 -35.5q30 -11 51.5 -40t21.5 -63zM613 289q0 51 -41 51q-40 0 -40 -51
q0 -40 40 -55q7 2 15 7t17 18t9 30zM617 111q0 27 -16.5 45t-28.5 20q-12 -3 -28 -20.5t-16 -45.5q0 -25 12 -38t32 -13q19 0 32 13t13 39zM524 667l-279 -667h-50l278 667h51zM276 378q0 -53 -36 -85.5t-95 -32.5q-88 0 -130 64l55 52q27 -47 71 -47q51 0 51 54t-55 54
q-23 0 -29 -1v69q5 -1 25 -1q54 0 54 49q0 51 -47 51q-43 0 -68 -42l-53 46q42 65 126 65q57 0 91 -28t34 -81q0 -32 -20 -58.5t-50 -31.5q32 -5 54 -32.5t22 -63.5z" />
    <glyph glyph-name="fiveeighths" unicode="&#x215d;" horiz-adv-x="714" 
d="M697 103q0 -52 -34.5 -81t-95.5 -29t-95.5 28.5t-34.5 81.5q0 34 21.5 63t52.5 40q-29 10 -48.5 35.5t-19.5 60.5q0 51 36.5 77.5t87.5 26.5q52 0 88.5 -26.5t36.5 -77.5q0 -35 -19.5 -60.5t-48.5 -35.5q30 -11 51.5 -40t21.5 -63zM608 289q0 51 -41 51q-40 0 -40 -51
q0 -40 40 -55q7 2 15 7t17 18t9 30zM612 111q0 27 -16.5 45t-28.5 20q-12 -3 -28 -20.5t-16 -45.5q0 -25 12 -38t32 -13q19 0 32 13t13 39zM276 397q0 -60 -37 -98.5t-98 -38.5q-84 0 -127 64l54 52q28 -47 69 -47q24 0 38 19t14 48q0 31 -12.5 48t-34.5 17q-32 0 -55 -38
l-62 20v224h230v-69h-145v-106q25 32 66 32q42 0 71 -33.5t29 -93.5zM519 667l-279 -667h-50l278 667h51z" />
    <glyph glyph-name="seveneighths" unicode="&#x215e;" horiz-adv-x="661" 
d="M644 103q0 -52 -35 -81t-95 -29q-61 0 -95.5 28.5t-34.5 81.5q0 34 21.5 63t52.5 40q-29 10 -48.5 35.5t-19.5 60.5q0 51 36.5 77.5t87.5 26.5q52 0 88.5 -26.5t36.5 -77.5q0 -35 -19.5 -60.5t-48.5 -35.5q30 -11 51.5 -40t21.5 -63zM555 289q0 51 -41 51q-40 0 -40 -51
q0 -40 40 -55q7 2 15 7t17 18t9 30zM559 111q0 27 -16.5 45t-28.5 20q-12 -3 -28 -20.5t-16 -45.5q0 -25 12 -38t32 -13q19 0 32 13t13 39zM255 608l-112 -341h-82l114 331h-161v69h241v-59zM466 667l-279 -667h-50l278 667h51z" />
    <glyph glyph-name="arrowleft" unicode="&#x2190;" horiz-adv-x="582" 
d="M538 211h-269l12 -130l-281 205l281 204l-12 -129h269v-150z" />
    <glyph glyph-name="arrowup" unicode="&#x2191;" horiz-adv-x="582" 
d="M216 17v269l-130 -12l205 281l204 -281l-129 12v-269h-150z" />
    <glyph glyph-name="arrowright" unicode="&#x2192;" horiz-adv-x="582" 
d="M584 286l-281 -205l12 130h-268v150h268l-12 129z" />
    <glyph glyph-name="arrowdown" unicode="&#x2193;" horiz-adv-x="582" 
d="M366 555v-269l130 12l-205 -281l-204 281l129 -12v269h150z" />
    <glyph glyph-name="partialdiff" unicode="&#x2202;" horiz-adv-x="417" 
d="M208 -12q-89 0 -135 69t-46 171q0 101 39 169t110 68q65 0 93 -68q-23 140 -96 241l95 44q122 -184 122 -440q0 -112 -45.5 -183t-136.5 -71zM208 88q65 0 65 139t-65 139q-64 0 -64 -139t64 -139z" />
    <glyph glyph-name="Delta" unicode="&#x2206;" horiz-adv-x="442" 
d="M441 0h-441l148 667h146zM296 111l-75 415l-75 -415h150z" />
    <glyph glyph-name="product" unicode="&#x220f;" horiz-adv-x="516" 
d="M447 -90h-126v646h-126v-646h-126v646h-51v111h480v-111h-51v-646z" />
    <glyph glyph-name="summation" unicode="&#x2211;" horiz-adv-x="363" 
d="M166 556l111 -259l-115 -276h171v-111h-298v116l113 273l-113 257v111h298v-111h-167z" />
    <glyph glyph-name="minus" unicode="&#x2212;" horiz-adv-x="383" 
d="M354 302h-325v71h325v-71z" />
    <glyph glyph-name="uni2215" unicode="&#x2215;" horiz-adv-x="133" 
d="M231 667l-279 -667h-50l278 667h51z" />
    <glyph glyph-name="uni2219" unicode="&#x2219;" horiz-adv-x="248" 
d="M198 245q0 -30 -22 -52.5t-52 -22.5t-52 22.5t-22 52.5q0 29 22 51.5t52 22.5t52 -22t22 -52z" />
    <glyph glyph-name="radical" unicode="&#x221a;" horiz-adv-x="465" 
d="M289 0h-78l-66 302l-93 -18l-13 70l159 31l54 -272l122 554h73z" />
    <glyph glyph-name="infinity" unicode="&#x221e;" horiz-adv-x="494" 
d="M143 162q-57 0 -85.5 51t-28.5 122t28.5 123t85.5 52q68 0 104 -102q15 44 42.5 72.5t61.5 28.5q56 0 85 -51.5t29 -122.5t-28.5 -122t-85.5 -51q-34 0 -61.5 28t-42.5 73q-35 -101 -104 -101zM339 233q27 0 42 28t15 74q0 47 -15 75t-42 28q-40 0 -61 -103
q21 -102 61 -102zM155 233q41 0 62 102q-21 103 -62 103q-26 0 -41.5 -28t-15.5 -75q0 -46 15.5 -74t41.5 -28z" />
    <glyph glyph-name="integral" unicode="&#x222b;" horiz-adv-x="244" 
d="M45 -100h-28v76h28q15 0 25.5 12t10.5 30v631q0 51 35.5 85t82.5 34h28v-76h-28q-15 0 -25.5 -12.5t-10.5 -30.5v-631q0 -51 -35.5 -84.5t-82.5 -33.5z" />
    <glyph glyph-name="approxequal" unicode="&#x2248;" horiz-adv-x="383" 
d="M29 203v76q36 -20 81 -20q34 0 78 17t85 17q47 0 81 -15v-75q-35 19 -81 19q-33 0 -77.5 -17.5t-85.5 -17.5q-44 0 -81 16zM29 390v75q38 -20 81 -20q34 0 78 17.5t85 17.5q47 0 81 -15v-76q-34 20 -81 20q-33 0 -77.5 -17.5t-85.5 -17.5q-44 0 -81 16z" />
    <glyph glyph-name="notequal" unicode="&#x2260;" horiz-adv-x="383" 
d="M115 93h-50l46 110h-82v72h112l50 118h-162v72h192l45 109h52l-46 -109h82v-72h-113l-49 -118h162v-72h-192z" />
    <glyph glyph-name="lessequal" unicode="&#x2264;" horiz-adv-x="383" 
d="M354 156l-325 138v81l325 139v-85l-241 -95l241 -93v-85zM354 27h-325v71h325v-71z" />
    <glyph glyph-name="greaterequal" unicode="&#x2265;" horiz-adv-x="383" 
d="M354 294l-325 -138v85l241 93l-241 95v85l325 -139v-81zM354 27h-325v71h325v-71z" />
    <glyph glyph-name="triangleright" unicode="&#x22b2;" horiz-adv-x="587" 
d="M589 286l-535 -309v618z" />
    <glyph glyph-name="triangleleft" unicode="&#x22b3;" horiz-adv-x="587" 
d="M535 595v-618l-535 309z" />
    <glyph glyph-name="dotmath" unicode="&#x22c5;" horiz-adv-x="248" 
d="M198 245q0 -30 -22 -52.5t-52 -22.5t-52 22.5t-22 52.5q0 29 22 51.5t52 22.5t52 -22t22 -52z" />
    <glyph glyph-name="uni2318" unicode="&#x2318;" horiz-adv-x="667" 
d="M221 154v68h-68q-28 0 -47.5 -20t-19.5 -48q0 -29 19.5 -49t47.5 -20t48 20t20 49zM221 445v69q0 28 -19.5 48t-47.5 20t-48 -20t-20 -48t20 -48.5t48 -20.5h67zM265 265h137v137h-137v-137zM581 154q0 28 -19.5 48t-47.5 20h-68v-68q0 -28 20 -48.5t48 -20.5t47.5 20
t19.5 49zM581 514q0 28 -19.5 48t-47.5 20t-48 -20t-20 -48v-69h68q28 0 47.5 20.5t19.5 48.5zM625 154q0 -46 -32.5 -79t-78.5 -33t-79 33t-33 79v68h-137v-68q0 -46 -33 -79t-79 -33t-78.5 33t-32.5 79t32.5 78.5t78.5 32.5h68v137h-67q-46 0 -79 33t-33 79t33 78.5
t79 32.5t78.5 -32.5t32.5 -78.5v-69h137v69q0 46 33 78.5t79 32.5t78.5 -32.5t32.5 -78.5t-32.5 -79t-78.5 -33h-68v-137h68q46 0 78.5 -32.5t32.5 -78.5z" />
    <glyph glyph-name="blacksquare" unicode="&#x25a0;" horiz-adv-x="661" 
d="M618 0h-571v572h571v-572z" />
    <glyph glyph-name="triagup" unicode="&#x25b2;" horiz-adv-x="616" 
d="M617 29l-619 1l309 535z" />
    <glyph glyph-name="triagdn" unicode="&#x25bc;" horiz-adv-x="616" 
d="M617 510l-310 -535l-309 535h619z" />
    <glyph glyph-name="lozenge" unicode="&#x25ca;" horiz-adv-x="375" 
d="M198 0h-21l-158 334l158 333h21l158 -333zM188 41l132 293l-133 292l-132 -292z" />
    <glyph glyph-name="circlesolid" unicode="&#x25cf;" horiz-adv-x="695" 
d="M644 285q0 -123 -87 -210t-210 -87t-210 87t-87 210t87 210t210 87t210 -87t87 -210z" />
    <glyph glyph-name="blackstar" unicode="&#x2605;" horiz-adv-x="759" 
d="M759 421l-235 -171l90 -275l-235 170l-234 -170l89 275l-234 171h290l89 276l90 -276h290z" />
    <glyph glyph-name="ballotbox" unicode="&#x2610;" horiz-adv-x="661" 
d="M616 0h-571v572h571v-572zM538 72v428h-415v-428h415z" />
    <glyph glyph-name="boxchecked" unicode="&#x2611;" horiz-adv-x="661" 
d="M616 0h-571v572h491l89 165l62 -39l-71 -131v-567zM538 72v351l-180 -332l-202 246l56 53l136 -166l149 276h-374v-428h415z" />
    <glyph glyph-name="diamond" unicode="&#x2666;" horiz-adv-x="501" 
d="M501 285l-251 -250l-250 250l250 251z" />
    <glyph glyph-name="checkmark" unicode="&#x2713;" horiz-adv-x="531" 
d="M531 698l-329 -607l-202 246l56 53l136 -166l277 513z" />
    <glyph glyph-name="perthousand.onum" unicode="&#xf628;" horiz-adv-x="716" 
d="M233 424q0 -59 -30 -98t-79 -39t-79 39t-30 98t30 98.5t79 39.5t79 -39.5t30 -98.5zM463 127q0 -59 -30 -98t-79 -39t-79 39t-30 98q0 60 30 99t79 39t79 -39.5t30 -98.5zM395 549l-249 -549h-50l249 549h50zM164 424q0 35 -10.5 56.5t-29.5 21.5q-18 0 -29 -21.5
t-11 -56.5t10.5 -56t29.5 -21q40 0 40 77zM395 127q0 34 -11.5 55.5t-29.5 21.5q-19 0 -30.5 -21.5t-11.5 -55.5t11.5 -55.5t30.5 -21.5q18 0 29.5 21.5t11.5 55.5zM700 127q0 -59 -30 -98t-79 -39t-79 39t-30 98q0 60 30 99t79 39t79 -39.5t30 -98.5zM632 127q0 35 -11 56
t-30 21t-30 -21t-11 -56q0 -34 11 -55.5t30 -21.5t30 21.5t11 55.5z" />
    <glyph glyph-name="uniF637" unicode="&#xf637;" horiz-adv-x="310" 
d="M273 326h-82v217q0 34 -28 34q-27 0 -44 -38v-213h-82v434h82v-159q11 18 34 32.5t47 14.5q73 0 73 -76v-246z" />
    <glyph glyph-name="zero.tzero" unicode="&#xf638;" horiz-adv-x="441" 
d="M220 -12q-65 0 -108 45l-15 -33h-73l45 95q-45 94 -45 238q0 67 11 126.5t33.5 109.5t61.5 79t90 29q60 0 106 -44l17 34h73l-46 -96q46 -93 46 -238q0 -67 -11 -126.5t-33.5 -109.5t-61.5 -79.5t-90 -29.5zM220 100q41 0 54 58t13 175q0 43 -1 63l-118 -247
q16 -49 52 -49zM153 333v-62l118 246q-16 48 -51 48q-41 0 -54 -57.5t-13 -174.5z" />
    <glyph glyph-name="zero.tnum" unicode="&#xf639;" horiz-adv-x="441" 
d="M220 -12q-67 0 -113 52t-64.5 127t-18.5 166q0 67 11 126.5t33.5 109.5t61.5 79t90 29t90 -29t61.5 -79t33.5 -109.5t11 -126.5t-11 -126.5t-33.5 -109.5t-61.5 -79.5t-90 -29.5zM220 100q41 0 54 58t13 175q0 118 -13 175t-54 57t-54 -57.5t-13 -174.5t13 -175t54 -58z
" />
    <glyph glyph-name="two.tnum" unicode="&#xf63a;" horiz-adv-x="441" 
d="M412 0h-366v105q159 202 197.5 264.5t38.5 114.5q0 34 -19 57.5t-50 23.5q-65 0 -105 -74l-80 75q71 111 191 111q86 0 138 -52.5t52 -138.5q0 -65 -39 -139t-158 -236h200v-111z" />
    <glyph glyph-name="three.tnum" unicode="&#xf63b;" horiz-adv-x="441" 
d="M215 -12q-64 0 -114.5 30.5t-79.5 78.5l86 74q40 -71 103 -71q76 0 76 93q0 49 -24 70t-57 21q-31 0 -41 -1v113q8 -1 36 -1q37 0 58 21.5t21 62.5q0 86 -70 86q-64 0 -98 -64l-82 67q63 109 186 109q85 0 136 -45.5t51 -134.5q0 -53 -29.5 -97t-76.5 -55
q50 -11 82.5 -56t32.5 -106q0 -88 -53 -141.5t-143 -53.5z" />
    <glyph glyph-name="four.tnum" unicode="&#xf63c;" horiz-adv-x="441" 
d="M370 0h-126v147h-223v111l202 409h147v-410h50v-110h-50v-147zM244 257v263l-121 -263h121z" />
    <glyph glyph-name="five.tnum" unicode="&#xf63d;" horiz-adv-x="441" 
d="M214 -12q-126 0 -190 109l82 74q38 -71 100 -71q36 0 57 32.5t21 78.5q0 111 -69 111q-47 0 -81 -55l-93 24v376h340v-111h-215v-179q14 24 40.5 39t56.5 15q68 0 109 -57t41 -160q0 -98 -54 -162t-145 -64z" />
    <glyph glyph-name="six.tnum" unicode="&#xf63e;" horiz-adv-x="441" 
d="M233 -12q-72 0 -119 49.5t-65.5 124t-18.5 171.5q0 153 58 248.5t165 95.5q94 0 145 -75l-66 -90q-27 53 -76 53q-46 0 -72.5 -61.5t-26.5 -147.5v-9q15 37 44.5 60t67.5 23q63 0 104.5 -57t41.5 -159q0 -98 -50.5 -162t-131.5 -64zM226 100q31 0 46 31.5t15 77.5
q0 60 -17.5 86.5t-44.5 26.5q-42 0 -68 -73q5 -149 69 -149z" />
    <glyph glyph-name="seven.tnum" unicode="&#xf63f;" horiz-adv-x="441" 
d="M232 0h-134l161 556h-216v111h355v-87z" />
    <glyph glyph-name="eight.tnum" unicode="&#xf640;" horiz-adv-x="441" 
d="M221 -12q-94 0 -143.5 47t-49.5 132q0 58 33.5 108t78.5 69q-43 17 -73 60.5t-30 101.5q0 84 53 127.5t131 43.5q77 0 130.5 -43.5t53.5 -127.5q0 -58 -31 -101.5t-74 -60.5q45 -19 79 -69t34 -107q0 -85 -50 -132.5t-142 -47.5zM221 385q10 5 20.5 13.5t24.5 32t14 51.5
q0 39 -15.5 61t-43.5 22q-61 0 -61 -83q0 -28 14 -51.5t25.5 -32.5t21.5 -13zM221 100q29 0 47.5 22t18.5 64q0 46 -24.5 77.5t-41.5 35.5q-17 -3 -41.5 -35t-24.5 -78q0 -42 18 -64t48 -22z" />
    <glyph glyph-name="nine.tnum" unicode="&#xf641;" horiz-adv-x="441" 
d="M188 -11q-94 0 -145 75l66 90q28 -53 76 -53q44 0 71.5 60.5t27.5 147.5v10q-15 -37 -44.5 -60t-67.5 -23q-63 0 -104.5 57t-41.5 159q0 98 50.5 162t131.5 64q72 0 119 -49.5t65.5 -124t18.5 -171.5q0 -153 -58 -248.5t-165 -95.5zM215 344q43 0 68 73q-2 149 -67 149
q-31 0 -47 -32t-16 -77q0 -59 18 -86t44 -27z" />
    <glyph glyph-name="percent.onum" unicode="&#xf642;" horiz-adv-x="477" 
d="M233 424q0 -59 -30 -98t-79 -39t-79 39t-30 98t30 98.5t79 39.5t79 -39.5t30 -98.5zM463 127q0 -59 -30 -98t-79 -39t-79 39t-30 98q0 60 30 99t79 39t79 -39.5t30 -98.5zM389 550l-250 -550h-50l250 550h50zM164 424q0 35 -10.5 56.5t-29.5 21.5q-18 0 -29 -21.5
t-11 -56.5t10.5 -56t29.5 -21q40 0 40 77zM395 127q0 34 -11.5 55.5t-29.5 21.5q-19 0 -30.5 -21.5t-11.5 -55.5t11.5 -55.5t30.5 -21.5q18 0 29.5 21.5t11.5 55.5z" />
    <glyph glyph-name="zero.tonum" unicode="&#xf643;" horiz-adv-x="441" 
d="M416 275q0 -75 -18.5 -137.5t-64.5 -106t-113 -43.5t-113 43.5t-64.5 106t-18.5 137.5q0 119 49 203t147 84t147 -84t49 -203zM287 275q0 175 -67 175t-67 -175t67 -175t67 175z" />
    <glyph glyph-name="one.tonum" unicode="&#xf644;" horiz-adv-x="441" 
d="M349 0h-126v387l-92 -96l-72 76l181 183h109v-550z" />
    <glyph glyph-name="two.tonum" unicode="&#xf645;" horiz-adv-x="441" 
d="M390 0h-344v105q225 171 225 268q0 34 -18 55.5t-48 21.5q-59 0 -97 -67l-80 68q68 111 187 111q82 0 132.5 -46t50.5 -123q0 -129 -182 -282h174v-111z" />
    <glyph glyph-name="three.tonum" unicode="&#xf646;" horiz-adv-x="441" 
d="M215 -127q-64 0 -114.5 30.5t-79.5 78.5l86 74q40 -71 103 -71q76 0 76 93q0 49 -24 70t-57 21q-31 0 -41 -1v113q8 -1 36 -1q37 0 58 21.5t21 62.5q0 86 -70 86q-64 0 -98 -64l-82 67q63 109 186 109q85 0 136 -45.5t51 -134.5q0 -53 -29.5 -97t-76.5 -55
q50 -11 82.5 -56t32.5 -106q0 -88 -53 -141.5t-143 -53.5z" />
    <glyph glyph-name="four.tonum" unicode="&#xf647;" horiz-adv-x="441" 
d="M420 35h-50v-152h-126v152h-223v112l202 403h147v-404h50v-111zM244 146v257l-121 -257h121z" />
    <glyph glyph-name="five.tonum" unicode="&#xf648;" horiz-adv-x="441" 
d="M214 -129q-126 0 -190 109l82 74q38 -71 100 -71q36 0 57 32.5t21 78.5q0 111 -69 111q-47 0 -81 -55l-93 24v376h340v-111h-215v-179q14 24 40.5 39t56.5 15q68 0 109 -57t41 -160q0 -98 -54 -162t-145 -64z" />
    <glyph glyph-name="six.tonum" unicode="&#xf649;" horiz-adv-x="441" 
d="M233 -12q-72 0 -119 49.5t-65.5 124t-18.5 171.5q0 153 58 248.5t165 95.5q94 0 145 -75l-66 -90q-27 53 -76 53q-46 0 -72.5 -61.5t-26.5 -147.5v-9q15 37 44.5 60t67.5 23q63 0 104.5 -57t41.5 -159q0 -98 -50.5 -162t-131.5 -64zM226 100q31 0 46 31.5t15 77.5
q0 60 -17.5 86.5t-44.5 26.5q-42 0 -68 -73q5 -149 69 -149z" />
    <glyph glyph-name="seven.tonum" unicode="&#xf64a;" horiz-adv-x="441" 
d="M232 -117h-134l161 556h-216v111h355v-87z" />
    <glyph glyph-name="eight.tonum" unicode="&#xf64b;" horiz-adv-x="441" 
d="M221 -12q-94 0 -143.5 47t-49.5 132q0 58 33.5 108t78.5 69q-43 17 -73 60.5t-30 101.5q0 84 53 127.5t131 43.5q77 0 130.5 -43.5t53.5 -127.5q0 -58 -31 -101.5t-74 -60.5q45 -19 79 -69t34 -107q0 -85 -50 -132.5t-142 -47.5zM221 385q10 5 20.5 13.5t24.5 32t14 51.5
q0 39 -15.5 61t-43.5 22q-61 0 -61 -83q0 -28 14 -51.5t25.5 -32.5t21.5 -13zM221 100q29 0 47.5 22t18.5 64q0 46 -24.5 77.5t-41.5 35.5q-17 -3 -41.5 -35t-24.5 -78q0 -42 18 -64t48 -22z" />
    <glyph glyph-name="nine.tonum" unicode="&#xf64c;" horiz-adv-x="441" 
d="M188 -127q-94 0 -145 75l66 90q28 -53 76 -53q44 0 71.5 60.5t27.5 147.5v10q-15 -37 -44.5 -60t-67.5 -23q-63 0 -104.5 57t-41.5 159q0 98 50.5 162t131.5 64q72 0 119 -49.5t65.5 -124t18.5 -171.5q0 -153 -58 -248.5t-165 -95.5zM215 228q43 0 68 73q-2 149 -67 149
q-31 0 -47 -32t-16 -77q0 -59 18 -86t44 -27z" />
    <glyph glyph-name="colonmonetary.onum" unicode="&#xf64d;" horiz-adv-x="386" 
d="M77 -53l19 92q-67 74 -67 236q0 127 43.5 204.5t132.5 82.5l8 37h47l-9 -41q16 -4 24 -8l10 49h46l-16 -76q31 -32 52 -99l-94 -31q-20 66 -56 66q-68 0 -68 -184t68 -184q40 0 56 70l94 -30q-19 -64 -52 -103.5t-98 -39.5h-13l-8 -41h-46l10 50q-12 4 -24 10l-13 -60
h-46z" />
    <glyph glyph-name="Euro.onum" unicode="&#xf64e;" horiz-adv-x="400" 
d="M243 304h-80v-29v-29h80v-56h-76q13 -99 64 -99q40 0 56 70l94 -30q-19 -64 -52 -103.5t-98 -39.5q-78 0 -123.5 54t-58.5 148h-35v56h29v29v29h-29v55h34q13 95 58.5 149t124.5 54q64 0 97 -38t53 -100l-94 -31q-20 66 -56 66q-51 0 -64 -100h76v-55z" />
    </font>
</defs>
</svg>
