<?xml version="1.0" standalone="no"?>
<!DOCTYPE svg PUBLIC "-//W3C//DTD SVG 1.1//EN" "http://www.w3.org/Graphics/SVG/1.1/DTD/svg11.dtd" >
<svg xmlns="http://www.w3.org/2000/svg" xmlns:xlink="http://www.w3.org/1999/xlink" version="1.1">
<metadata>
Created by FontForge 20170731 at Tue Nov 30 17:19:48 2010
 By ,,,
Copyright (c) Mark Simonson, 2005. All rights reserved.
</metadata>
<defs>
<font id="ProximaNovaExCn-BoldIt" horiz-adv-x="420" >
  <font-face 
    font-family="Proxima Nova ExCn Rg"
    font-weight="700"
    font-style="italic"
    font-stretch="normal"
    units-per-em="1000"
    panose-1="2 0 5 6 3 0 0 2 0 4"
    ascent="790"
    descent="-210"
    x-height="483"
    cap-height="667"
    bbox="-152 -278 832 886"
    underline-thickness="20"
    underline-position="-173"
    unicode-range="U+000D-FB04"
  />
<missing-glyph horiz-adv-x="455" 
d="M423 -90h-351v842h351v-842zM391 -60v782h-288v-782h288z" />
    <glyph glyph-name="f_f_j" unicode="ffj" horiz-adv-x="703" 
d="M370 0h-113l86 385h-45l22 98h44l10 50q32 144 145 144q39 0 72 -14l-37 -90q-8 6 -19 6q-37 0 -48 -46l-10 -50h61l-22 -98h-61zM444 -196q-52 0 -74 28l44 83q6 -13 24 -13q31 0 42 56l118 525h113l-118 -525q-17 -81 -50.5 -117.5t-98.5 -36.5zM673 540q-27 0 -45 17
t-18 42q0 35 25 56.5t54 21.5q27 0 44.5 -17.5t17.5 -41.5q0 -35 -24.5 -56.5t-53.5 -21.5zM120 0h-113l86 385h-45l22 98h44l10 50q32 144 145 144q66 0 94 -30l-46 -84q-13 16 -32 16q-36 0 -48 -46l-10 -50h61l-22 -98h-61z" />
    <glyph glyph-name="f_j" unicode="fj" horiz-adv-x="454" 
d="M120 0h-113l86 385h-45l22 98h44l10 50q32 144 145 144q39 0 72 -14l-37 -90q-7 6 -19 6q-37 0 -48 -46l-10 -50h61l-22 -98h-61zM195 -196q-52 0 -74 28l44 83q7 -13 24 -13q31 0 42 56l118 525h113l-118 -525q-17 -81 -50.5 -117.5t-98.5 -36.5zM424 540q-27 0 -45 17
t-18 42q0 35 25 56.5t54 21.5q27 0 44.5 -17.5t17.5 -41.5q0 -35 -24.5 -56.5t-53.5 -21.5z" />
    <glyph glyph-name="f_f" unicode="ff" horiz-adv-x="499" 
d="M120 0h-113l86 385h-45l22 98h44l10 50q32 144 145 144q66 0 94 -30l-46 -84q-13 16 -32 16q-36 0 -48 -46l-10 -50h61l-22 -98h-61zM370 0h-113l86 385h-45l22 98h44l10 50q32 144 145 144q66 0 94 -30l-46 -84q-13 16 -32 16q-36 0 -48 -46l-10 -50h61l-22 -98h-61z
" />
    <glyph glyph-name="fi" unicode="fi" horiz-adv-x="454" 
d="M120 0h-113l86 385h-45l22 98h44l10 50q32 144 145 144q39 0 72 -14l-37 -90q-7 6 -19 6q-37 0 -48 -46l-10 -50h61l-22 -98h-61zM424 540q-27 0 -45 17t-18 42q0 35 25 56.5t54 21.5q27 0 44.5 -17.5t17.5 -41.5q0 -35 -24.5 -56.5t-53.5 -21.5zM355 0h-114l108 483h113
z" />
    <glyph glyph-name="fl" unicode="fl" horiz-adv-x="454" 
d="M120 0h-113l86 385h-45l22 98h44l10 50q32 144 145 144q39 0 72 -14l-37 -90q-7 6 -19 6q-37 0 -48 -46l-10 -50h61l-22 -98h-61zM355 0h-114l148 667h113z" />
    <glyph glyph-name="f_f_i" unicode="ffi" horiz-adv-x="703" 
d="M370 0h-113l86 385h-45l22 98h44l10 50q32 144 145 144q39 0 72 -14l-37 -90q-8 6 -19 6q-37 0 -48 -46l-10 -50h61l-22 -98h-61zM673 540q-27 0 -45 17t-18 42q0 35 25 56.5t54 21.5q27 0 44.5 -17.5t17.5 -41.5q0 -35 -24.5 -56.5t-53.5 -21.5zM604 0h-114l108 483h113
zM120 0h-113l86 385h-45l22 98h44l10 50q32 144 145 144q66 0 94 -30l-46 -84q-13 16 -32 16q-36 0 -48 -46l-10 -50h61l-22 -98h-61z" />
    <glyph glyph-name="f_f_l" unicode="ffl" horiz-adv-x="703" 
d="M370 0h-113l86 385h-45l22 98h44l10 50q32 144 145 144q39 0 72 -14l-37 -90q-8 6 -19 6q-37 0 -48 -46l-10 -50h61l-22 -98h-61zM604 0h-114l148 667h113zM120 0h-113l86 385h-45l22 98h44l10 50q32 144 145 144q66 0 94 -30l-46 -84q-13 16 -32 16q-36 0 -48 -46
l-10 -50h61l-22 -98h-61z" />
    <glyph glyph-name="f_b" unicode="fb" horiz-adv-x="673" 
d="M120 0h-113l86 385h-45l22 98h44l10 50q32 144 145 144q39 0 72 -14l-37 -90q-7 6 -19 6q-37 0 -48 -46l-10 -50h61l-22 -98h-61zM463 -12q-74 0 -95 74l-13 -62h-113l147 667h113l-54 -242q46 70 103 70q106 0 106 -154q0 -50 -12 -108.5t-35 -114.5t-61.5 -93
t-85.5 -37zM438 88q32 0 57 46.5t35.5 99.5t10.5 92q0 69 -48 69q-17 0 -35 -16.5t-29 -40.5l-43 -192q4 -26 18 -42t34 -16z" />
    <glyph glyph-name="f_h" unicode="fh" horiz-adv-x="669" 
d="M120 0h-113l86 385h-45l22 98h44l10 50q32 144 145 144q39 0 72 -14l-37 -90q-7 6 -19 6q-37 0 -48 -46l-10 -50h61l-22 -98h-61zM571 0h-114l77 343q0 1 1 9.5t1 10.5q0 32 -30 32q-40 0 -79 -64l-72 -331h-114l148 667h113l-54 -244q53 72 122 72q42 0 65.5 -22.5
t23.5 -58.5q0 -9 -4 -29z" />
    <glyph glyph-name="f_k" unicode="fk" horiz-adv-x="652" 
d="M120 0h-113l86 385h-45l22 98h44l10 50q32 144 145 144q39 0 72 -14l-37 -90q-7 6 -19 6q-37 0 -48 -46l-10 -50h61l-22 -98h-61zM594 0h-122l-30 196l-63 -83l-24 -113h-114l148 667h113l-89 -400l157 216h126l-162 -214z" />
    <glyph glyph-name=".notdef" horiz-adv-x="455" 
d="M423 -90h-351v842h351v-842zM391 -60v782h-288v-782h288z" />
    <glyph glyph-name=".null" horiz-adv-x="0" 
 />
    <glyph glyph-name=".null" horiz-adv-x="0" 
 />
    <glyph glyph-name="nonmarkingreturn" horiz-adv-x="333" 
 />
    <glyph glyph-name="CR" unicode="&#xd;" horiz-adv-x="0" 
 />
    <glyph glyph-name="space" unicode=" " horiz-adv-x="163" 
 />
    <glyph glyph-name="exclam" unicode="!" horiz-adv-x="248" 
d="M166 209h-98l81 458h138zM77 -11q-28 0 -47.5 19.5t-19.5 47.5q0 33 24 57t56 24q28 0 48 -20t20 -48q0 -33 -24 -56.5t-57 -23.5z" />
    <glyph glyph-name="quotedbl" unicode="&#x22;" horiz-adv-x="389" 
d="M164 386h-50q12 205 12 218q1 31 21.5 52t50.5 21q23 0 39 -16t16 -40q0 -5 -1 -11t-3 -11.5t-2 -6.5zM336 386h-49q11 205 11 218q1 31 21.5 52t50.5 21q23 0 39.5 -16t16.5 -40q0 -11 -7 -29z" />
    <glyph glyph-name="numbersign" unicode="#" horiz-adv-x="455" 
d="M211 0h-85l80 173h-63l-78 -173h-85l79 173h-60l33 73h60l79 175h-60l31 72h62l78 174h85l-78 -174h62l78 174h84l-78 -174h59l-31 -72h-61l-80 -175h64l-34 -73h-63zM238 246l79 175h-62l-79 -175h62z" />
    <glyph glyph-name="dollar" unicode="$" horiz-adv-x="389" 
d="M83 -100l20 93q-84 14 -125 71l72 93q16 -25 44.5 -41t56.5 -16q32 0 55 25t23 66q0 23 -15.5 46.5t-37.5 45.5t-44.5 46.5t-38 59t-15.5 73.5q0 82 51 142.5t127 71.5l20 92h86l-22 -97q62 -17 98 -57l-67 -93q-34 45 -88 45q-33 0 -52.5 -23.5t-19.5 -56.5
q0 -26 23.5 -56.5t51.5 -56.5t51.5 -69t23.5 -91q0 -83 -47.5 -145.5t-124.5 -75.5l-20 -92h-86z" />
    <glyph glyph-name="percent" unicode="%" horiz-adv-x="587" 
d="M126 0h-51l426 667h51zM396 -12q-53 0 -83 35.5t-30 89.5q0 85 47 145.5t108 60.5q53 0 83 -35t30 -89q0 -85 -47 -146t-108 -61zM401 59q27 0 50 39t23 90q0 61 -42 61q-26 0 -49.5 -39t-23.5 -90q0 -61 42 -61zM188 346q-53 0 -83 35.5t-30 88.5q0 85 47 146t108 61
q53 0 83 -35.5t30 -88.5q0 -85 -47 -146t-108 -61zM194 416q26 0 49.5 39t23.5 90q0 61 -42 61q-27 0 -50.5 -39t-23.5 -90q0 -61 43 -61z" />
    <glyph glyph-name="ampersand" unicode="&#x26;" horiz-adv-x="447" 
d="M388 0h-113q-3 6 -13 31q-59 -43 -120 -43q-62 0 -100 38t-38 106q0 87 40 142t111 103q-9 49 -9 93q0 85 48.5 146t112.5 61q52 0 83.5 -31.5t31.5 -91.5q0 -38 -12 -69t-40 -58.5t-47 -42t-60 -41.5q12 -42 19 -63l21 -67q24 44 55 115l81 -48q-48 -102 -99 -169
q9 -22 48 -111zM169 78q31 0 62 33q-18 50 -32 96q-13 38 -21 70q-58 -56 -58 -128q0 -30 13 -50.5t36 -20.5zM245 466q0 -20 1 -30q77 56 77 117q0 42 -25 42q-21 0 -37 -40.5t-16 -88.5z" />
    <glyph glyph-name="quotesingle" unicode="'" horiz-adv-x="218" 
d="M164 386h-50q12 205 12 218q1 31 21.5 52t50.5 21q23 0 39 -16t16 -40q0 -5 -1 -11t-3 -11.5t-2 -6.5z" />
    <glyph glyph-name="parenleft" unicode="(" horiz-adv-x="258" 
d="M147 -170l-89 -29q-36 111 -36 235q0 348 231 649l74 -44q-86 -145 -137.5 -321t-51.5 -341q0 -68 9 -149z" />
    <glyph glyph-name="parenright" unicode=")" horiz-adv-x="258" 
d="M110 656l89 29q36 -111 36 -235q0 -348 -231 -649l-74 44q86 145 137.5 321t51.5 341q0 81 -9 149z" />
    <glyph glyph-name="asterisk" unicode="*" horiz-adv-x="321" 
d="M217 373h-58l30 114l-107 -49l-17 53l109 39l-87 61l40 46l80 -69l19 109h59l-31 -115l107 50l17 -53l-108 -40l86 -60l-40 -46l-80 69z" />
    <glyph glyph-name="plus" unicode="+" horiz-adv-x="383" 
d="M366 302h-123l-33 -146h-78l33 146h-123l15 71h124l30 139h79l-31 -139h123z" />
    <glyph glyph-name="comma" unicode="," horiz-adv-x="248" 
d="M162 62q0 -54 -40 -107.5t-99 -82.5l-41 43q29 14 56 37t38 47q-1 -1 -10 -1q-24 0 -40 16t-16 44q0 32 25 55.5t56 23.5q29 0 50 -20t21 -55z" />
    <glyph glyph-name="hyphen" unicode="-" horiz-adv-x="241" 
d="M200 194h-181l21 96h181z" />
    <glyph glyph-name="period" unicode="." horiz-adv-x="248" 
d="M77 -11q-28 0 -47.5 19.5t-19.5 47.5q0 33 24 57t57 24q28 0 47.5 -20t19.5 -48q0 -33 -24 -56.5t-57 -23.5z" />
    <glyph glyph-name="slash" unicode="/" horiz-adv-x="227" 
d="M23 -20h-82l303 707h83z" />
    <glyph glyph-name="zero" unicode="0" horiz-adv-x="454" 
d="M190 -12q-72 0 -115.5 54.5t-43.5 156.5q0 110 34 219t98.5 184t139.5 75q72 0 115 -54.5t43 -156.5q0 -109 -34 -218.5t-98 -184.5t-139 -75zM201 100q38 0 71 77.5t49 165.5t16 145q0 77 -47 77q-37 0 -70 -77t-49.5 -165.5t-16.5 -144.5q0 -78 47 -78z" />
    <glyph glyph-name="one" unicode="1" horiz-adv-x="348" 
d="M242 0h-126l111 504l-113 -96l-56 76l222 183h109z" />
    <glyph glyph-name="two" unicode="2" horiz-adv-x="441" 
d="M354 0h-367l29 127q36 36 85.5 85t73.5 72.5t56 57t46.5 51t29.5 39.5t20 38t5 32q0 29 -16.5 46t-46.5 17q-60 0 -110 -63l-64 82q80 93 187 93q81 0 131.5 -42.5t50.5 -117.5q0 -42 -14 -80t-51.5 -87t-80 -94t-122.5 -127l-18 -18h200z" />
    <glyph glyph-name="three" unicode="3" horiz-adv-x="440" 
d="M188 -12q-70 0 -126 35t-75 99l102 64q11 -42 37.5 -64t61.5 -22q42 0 65.5 37.5t23.5 83.5q0 31 -19.5 47t-49.5 16q-26 0 -36 -1l25 113q7 -1 51 -1q42 0 64.5 33t22.5 77q0 60 -72 60q-57 0 -96 -55l-68 74q80 93 185 93q80 0 130 -38.5t50 -108.5t-44 -124.5
t-104 -66.5q44 -15 64.5 -50t20.5 -78q0 -91 -62 -157t-151 -66z" />
    <glyph glyph-name="four" unicode="4" horiz-adv-x="431" 
d="M311 0h-126l32 147h-224l27 121l285 399h153l-91 -410h51l-25 -110h-50zM241 257l59 260l-178 -260h119z" />
    <glyph glyph-name="five" unicode="5" horiz-adv-x="446" 
d="M188 -12q-148 0 -194 133l100 63q10 -40 35 -62t58 -22q41 0 71 48t30 107q0 31 -15.5 49.5t-45.5 18.5q-44 0 -83 -47l-87 32l81 359h340l-24 -111h-215l-39 -175q38 45 97 45q56 0 89.5 -41t33.5 -113q0 -114 -65.5 -199t-166.5 -85z" />
    <glyph glyph-name="six" unicode="6" horiz-adv-x="442" 
d="M198 -12q-83 0 -126.5 55t-43.5 153q0 64 17.5 142t51.5 156t94 130.5t134 52.5q51 0 90.5 -24.5t59.5 -66.5l-84 -82q-15 61 -73 61q-45 0 -80.5 -56t-57.5 -137q-2 -6 -6 -25q22 36 55 58t67 22q54 0 88.5 -39.5t34.5 -107.5q0 -69 -25.5 -134.5t-77.5 -111.5t-118 -46
zM201 100q39 0 63 53.5t24 103.5q0 30 -13 48.5t-39 18.5q-44 0 -79 -73q-8 -34 -8 -70q0 -81 52 -81z" />
    <glyph glyph-name="seven" unicode="7" horiz-adv-x="390" 
d="M155 0h-139l283 556h-213l25 111h355l-20 -87z" />
    <glyph glyph-name="eight" unicode="8" horiz-adv-x="441" 
d="M193 -12q-189 0 -189 150q0 67 40.5 127t117.5 88q-31 18 -52 54t-21 77q0 80 60.5 136.5t140.5 56.5q74 0 126 -35.5t52 -111.5q0 -72 -42 -125t-105 -69q79 -49 79 -143q0 -89 -58 -147t-149 -58zM251 384q88 33 88 124q0 57 -53 57q-33 0 -54 -30.5t-21 -73.5
q0 -25 12.5 -45.5t27.5 -31.5zM192 100q34 0 59 33.5t25 82.5q0 33 -14.5 55t-29.5 29q-38 -12 -67.5 -48.5t-29.5 -88.5q0 -31 15.5 -47t41.5 -16z" />
    <glyph glyph-name="nine" unicode="9" horiz-adv-x="442" 
d="M283 678q83 0 126.5 -55t43.5 -153q0 -64 -18 -142t-51.5 -156t-93.5 -130.5t-134 -52.5q-51 0 -90.5 24.5t-59.5 66.5l84 82q6 -28 25 -44.5t47 -16.5q46 0 81.5 56t56.5 136q4 13 7 26q-22 -36 -55 -58t-68 -22q-53 0 -87 39.5t-34 107.5q0 69 25 134.5t77 111.5
t118 46zM280 566q-39 0 -63 -53.5t-24 -103.5q0 -30 12.5 -48.5t38.5 -18.5q44 0 81 73q7 42 7 70q0 81 -52 81z" />
    <glyph glyph-name="colon" unicode=":" horiz-adv-x="248" 
d="M77 -11q-28 0 -47.5 19.5t-19.5 47.5q0 33 24 57t57 24q28 0 47.5 -20t19.5 -48q0 -33 -24 -56.5t-57 -23.5zM155 342q-28 0 -47.5 20t-19.5 48q0 32 24 56t56 24q28 0 48 -20t20 -48q0 -33 -24 -56.5t-57 -23.5z" />
    <glyph glyph-name="semicolon" unicode=";" horiz-adv-x="248" 
d="M162 62q0 -54 -40 -107.5t-99 -82.5l-41 43q29 14 56 37t38 47q-1 -1 -10 -1q-24 0 -40 16t-16 44q0 32 25 55.5t56 23.5q29 0 50 -20t21 -55zM156 342q-28 0 -48 20t-20 48q0 32 24 56t57 24q28 0 47.5 -20t19.5 -48q0 -33 -24 -56.5t-56 -23.5z" />
    <glyph glyph-name="less" unicode="&#x3c;" horiz-adv-x="383" 
d="M334 156l-294 138l18 81l355 139l-20 -89l-261 -95l220 -93z" />
    <glyph glyph-name="equal" unicode="=" horiz-adv-x="383" 
d="M387 393h-325l16 72h324zM344 203h-325l16 72h325z" />
    <glyph glyph-name="greater" unicode="&#x3e;" horiz-adv-x="383" 
d="M364 294l-355 -138l20 88l262 94l-220 95l17 81l295 -139z" />
    <glyph glyph-name="question" unicode="?" horiz-adv-x="325" 
d="M210 234l-101 -35q-10 23 -10 61q0 39 15 72t36.5 56t43 43.5t36.5 43.5t15 47q0 20 -12.5 34.5t-34.5 14.5q-33 0 -56 -22l-35 82q58 47 130 47q60 0 99.5 -35t39.5 -88q0 -40 -17.5 -75.5t-43 -61t-51 -49t-43 -49t-17.5 -50.5q0 -22 6 -36zM118 -11q-28 0 -47.5 19.5
t-19.5 47.5q0 33 24 57t56 24q28 0 48 -20t20 -48q0 -33 -24 -56.5t-57 -23.5z" />
    <glyph glyph-name="at" unicode="@" horiz-adv-x="635" 
d="M291 -70q-112 0 -174 76.5t-62 208.5q0 108 47 205.5t128 158t174 60.5q96 0 156 -65.5t60 -176.5q0 -127 -50 -219.5t-118 -92.5q-34 0 -57 18t-28 49l-1 8q-48 -75 -113 -75q-40 0 -67.5 30t-27.5 98q0 69 23 133.5t67.5 108t99.5 43.5q56 0 73 -65l10 51h100l-53 -253
q-3 -15 -3 -28q0 -41 28 -41q14 0 31 26.5t31 83t14 124.5q0 98 -47.5 151.5t-129.5 53.5t-154 -56.5t-112.5 -145t-40.5 -183.5q0 -112 51 -180.5t150 -68.5q74 0 147 55l20 -29q-85 -63 -172 -63zM303 165q17 0 32 11t22.5 22t18.5 30l30 138q-12 51 -42 51
q-45 0 -73 -61.5t-28 -125.5q0 -65 40 -65z" />
    <glyph glyph-name="A" unicode="A" horiz-adv-x="424" 
d="M370 0h-126l7 123h-126l-46 -123h-133l286 667h145zM260 234l17 292l-112 -292h95z" />
    <glyph glyph-name="B" unicode="B" horiz-adv-x="452" 
d="M223 0h-225l147 667h166q75 0 116.5 -40.5t41.5 -103.5q0 -68 -38 -124t-98 -65q38 -11 57 -45t19 -76q0 -84 -48.5 -148.5t-137.5 -64.5zM211 395h46q36 0 57 32.5t21 70.5q0 58 -61 58h-27zM198 111q37 0 61 33t24 79q0 61 -61 61h-35l-39 -173h50z" />
    <glyph glyph-name="C" unicode="C" horiz-adv-x="429" 
d="M203 -12q-83 0 -128 55.5t-45 156.5q0 49 9.5 109t31.5 126t53.5 119.5t81 88.5t107.5 35q81 0 120 -55t42 -136l-117 -22q-5 101 -53 101q-43 0 -78.5 -73.5t-51.5 -156t-16 -139.5q0 -97 51 -97q42 0 83 81l101 -42q-71 -151 -191 -151z" />
    <glyph glyph-name="D" unicode="D" horiz-adv-x="476" 
d="M165 0h-167l147 667h163q70 0 119.5 -56.5t49.5 -160.5q0 -36 -6.5 -79.5t-20 -96t-38 -100t-57.5 -87t-82 -63.5t-108 -24zM148 111h39q41 0 74.5 40.5t51.5 98.5t27 110.5t9 87.5q0 54 -18.5 81t-46.5 27h-37z" />
    <glyph glyph-name="E" unicode="E" horiz-adv-x="378" 
d="M290 0h-292l147 667h292l-24 -111h-166l-36 -161h159l-25 -111h-158l-39 -173h166z" />
    <glyph glyph-name="F" unicode="F" horiz-adv-x="376" 
d="M124 0h-126l147 667h292l-24 -111h-166l-36 -161h159l-25 -111h-158z" />
    <glyph glyph-name="G" unicode="G" horiz-adv-x="453" 
d="M203 -12q-84 0 -128.5 56t-44.5 156q0 53 10 114.5t33 126.5t55 117.5t80.5 86t104.5 33.5q79 0 116 -49.5t40 -125.5l-107 -26q-4 89 -56 89q-32 0 -61 -41.5t-47 -101.5t-28.5 -121t-10.5 -105q0 -52 12 -74.5t39 -22.5q33 0 68 44l23 108h-75l25 111h186l-59 -265
q-71 -110 -175 -110z" />
    <glyph glyph-name="H" unicode="H" horiz-adv-x="484" 
d="M378 0h-126l63 288h-128l-63 -288h-126l147 667h126l-59 -269h128l59 269h126z" />
    <glyph glyph-name="I" unicode="I" horiz-adv-x="230" 
d="M124 0h-126l147 667h126z" />
    <glyph glyph-name="J" unicode="J" horiz-adv-x="348" 
d="M87 -12q-82 0 -124 43l51 100q22 -31 62 -31q63 0 79 73l110 494h126l-111 -500q-21 -94 -67 -136.5t-126 -42.5z" />
    <glyph glyph-name="K" unicode="K" horiz-adv-x="471" 
d="M414 0h-133l-58 257l-62 -87l-37 -170h-126l147 667h126l-64 -291l197 291h145l-232 -314z" />
    <glyph glyph-name="L" unicode="L" horiz-adv-x="365" 
d="M290 0h-292l147 667h126l-123 -556h166z" />
    <glyph glyph-name="M" unicode="M" horiz-adv-x="616" 
d="M510 0h-124l90 408l-201 -408h-42l-19 408l-90 -408h-126l147 667h158l16 -355l178 355h160z" />
    <glyph glyph-name="N" unicode="N" horiz-adv-x="484" 
d="M378 0h-119l-54 370l-81 -370h-126l147 667h126l49 -355l79 355h126z" />
    <glyph glyph-name="O" unicode="O" horiz-adv-x="478" 
d="M203 -12q-86 0 -129.5 59t-43.5 153q0 63 16.5 140t48.5 155t89.5 130.5t128.5 52.5q86 0 129.5 -60t43.5 -154q0 -63 -16.5 -140t-48.5 -154.5t-89.5 -129.5t-128.5 -52zM210 100q32 0 61 42.5t47 102.5t28.5 120.5t10.5 101.5q0 99 -52 99q-32 0 -61 -42.5t-47 -103
t-28 -121t-10 -102.5q0 -97 51 -97z" />
    <glyph glyph-name="P" unicode="P" horiz-adv-x="441" 
d="M124 0h-126l147 667h166q71 0 115 -47.5t44 -121.5q0 -103 -62.5 -178t-176.5 -75h-53zM202 356h39q45 0 71.5 39.5t26.5 90.5q0 34 -15.5 52t-41.5 18h-35z" />
    <glyph glyph-name="Q" unicode="Q" horiz-adv-x="478" 
d="M203 -12q-86 0 -129.5 59t-43.5 153q0 63 16.5 140t48.5 155t89.5 130.5t128.5 52.5q86 0 129.5 -60t43.5 -154q0 -111 -45 -244.5t-128 -194.5l7 -43l-94 -17l-4 24q-3 0 -9.5 -0.5t-9.5 -0.5zM185 220l94 16l10 -63q30 59 49 147.5t19 146.5q0 99 -52 99
q-32 0 -61 -42.5t-47 -103t-28 -121t-10 -102.5q0 -92 45 -97z" />
    <glyph glyph-name="R" unicode="R" horiz-adv-x="460" 
d="M372 0h-131l-18 245h-45l-54 -245h-126l147 667h166q69 0 114 -48.5t45 -120.5q0 -80 -39 -145.5t-90 -84.5zM202 356h40q44 0 70 39t26 91q0 70 -56 70h-35z" />
    <glyph glyph-name="S" unicode="S" horiz-adv-x="396" 
d="M151 -12q-54 0 -101.5 21t-71.5 55l72 93q16 -25 44.5 -41t56.5 -16q32 0 55 25t23 66q0 23 -15.5 46.5t-37.5 45.5t-44.5 46.5t-38 59t-15.5 73.5q0 90 60 153t146 63q44 0 85.5 -16.5t68.5 -47.5l-67 -93q-34 45 -88 45q-33 0 -52.5 -23.5t-19.5 -56.5
q0 -26 23.5 -56.5t51.5 -56.5t51.5 -69t23.5 -91q0 -94 -59 -159.5t-151 -65.5z" />
    <glyph glyph-name="T" unicode="T" horiz-adv-x="364" 
d="M191 0h-126l123 556h-101l24 111h328l-24 -111h-101z" />
    <glyph glyph-name="U" unicode="U" horiz-adv-x="484" 
d="M209 -12q-74 0 -123 45.5t-49 120.5q0 21 5 44l103 469h126l-106 -480q-3 -21 -3 -29q0 -28 15.5 -43.5t40.5 -15.5q57 0 76 88l105 480h126l-104 -474q-23 -104 -79 -154.5t-133 -50.5z" />
    <glyph glyph-name="V" unicode="V" horiz-adv-x="424" 
d="M230 0h-145l8 667h126l-29 -505l194 505h133z" />
    <glyph glyph-name="W" unicode="W" horiz-adv-x="616" 
d="M437 0h-128l40 430l-150 -430h-128l33 667h126l-43 -447l163 447h99l-34 -447l153 447h130z" />
    <glyph glyph-name="X" unicode="X" horiz-adv-x="438" 
d="M386 0h-132l-36 223l-128 -223h-145l226 347l-71 320h133l28 -212l118 212h146l-216 -333z" />
    <glyph glyph-name="Y" unicode="Y" horiz-adv-x="430" 
d="M224 0h-125l60 276l-70 391h128l26 -269l146 269h138l-242 -391z" />
    <glyph glyph-name="Z" unicode="Z" horiz-adv-x="376" 
d="M293 0h-318l23 106l262 450h-162l25 111h310l-23 -102l-265 -454h172z" />
    <glyph glyph-name="bracketleft" unicode="[" horiz-adv-x="205" 
d="M90 -190h-151l192 868h152l-17 -76h-69l-159 -716h69z" />
    <glyph glyph-name="backslash" unicode="\" horiz-adv-x="227" 
d="M89 -20v707h79v-707h-79z" />
    <glyph glyph-name="bracketright" unicode="]" horiz-adv-x="205" 
d="M73 -190h-152l17 76h70l158 716h-69l16 76h153z" />
    <glyph glyph-name="asciicircum" unicode="^" horiz-adv-x="337" 
d="M337 333h-79l-14 243l-121 -243h-85l182 334h83z" />
    <glyph glyph-name="underscore" unicode="_" horiz-adv-x="279" 
d="M202 -117h-284l17 77h284z" />
    <glyph glyph-name="grave" unicode="`" horiz-adv-x="178" 
d="M247 556h-72l-74 144h98z" />
    <glyph glyph-name="a" unicode="a" horiz-adv-x="423" 
d="M208 495q75 0 96 -74l14 62h112l-107 -483h-113l14 58q-46 -70 -103 -70q-52 0 -79.5 39.5t-27.5 114.5q0 69 20 147.5t66.5 142t107.5 63.5zM234 395q-33 0 -58 -46.5t-35 -99t-10 -92.5q0 -69 48 -69q36 0 64 57l43 192q-4 26 -18.5 42t-33.5 16z" />
    <glyph glyph-name="b" unicode="b" horiz-adv-x="423" 
d="M213 -12q-74 0 -95 74l-13 -62h-113l147 667h113l-54 -242q46 70 103 70q106 0 106 -154q0 -50 -12 -108.5t-35 -114.5t-61.5 -93t-85.5 -37zM188 88q32 0 57 46.5t35.5 99.5t10.5 92q0 69 -48 69q-17 0 -35 -16.5t-29 -40.5l-43 -192q4 -26 18 -42t34 -16z" />
    <glyph glyph-name="c" unicode="c" horiz-adv-x="344" 
d="M179 -12q-76 0 -119 46.5t-43 133.5q0 75 26 148.5t80.5 126t123.5 52.5q78 0 122 -49l-54 -85q-20 34 -59 34q-53 0 -87.5 -71t-34.5 -144q0 -92 71 -92q32 0 59 27l19 -90q-43 -37 -104 -37z" />
    <glyph glyph-name="d" unicode="d" horiz-adv-x="423" 
d="M208 495q75 0 96 -74l54 246h113l-148 -667h-113l14 58q-46 -70 -103 -70q-52 0 -79.5 39.5t-27.5 114.5q0 69 20 147.5t66.5 142t107.5 63.5zM234 395q-33 0 -58 -46.5t-35 -99t-10 -92.5q0 -69 48 -69q36 0 64 57l43 192q-4 26 -18.5 42t-33.5 16z" />
    <glyph glyph-name="e" unicode="e" horiz-adv-x="404" 
d="M182 -12q-78 0 -121.5 47.5t-43.5 134.5q0 47 14 101t40.5 105t71 85t98.5 34q75 0 112 -43t37 -122q0 -45 -19 -126h-245q-5 -18 -5 -41q0 -34 19.5 -58.5t62.5 -24.5t83 42l40 -70q-61 -64 -144 -64zM141 284h141q6 32 6 49q0 31 -15 50.5t-40 19.5q-37 0 -60.5 -36.5
t-31.5 -82.5z" />
    <glyph glyph-name="f" unicode="f" horiz-adv-x="250" 
d="M120 0h-113l86 385h-45l22 98h44l10 50q32 144 145 144q66 0 94 -30l-46 -84q-13 16 -32 16q-36 0 -48 -46l-10 -50h61l-22 -98h-61z" />
    <glyph glyph-name="g" unicode="g" horiz-adv-x="423" 
d="M120 -196q-105 0 -157 61l59 86q34 -49 95 -49q71 0 95 106l16 67q-42 -70 -103 -70q-52 0 -80.5 37t-28.5 109q0 49 11 105t33 111.5t61 91.5t88 36q30 0 59 -19.5t36 -54.5l14 62h112l-104 -467q-26 -117 -78 -164.5t-128 -47.5zM181 105q18 0 35.5 16.5t29.5 40.5
l39 175q-4 24 -19 41t-34 17q-45 0 -72 -77t-27 -144q0 -69 48 -69z" />
    <glyph glyph-name="h" unicode="h" 
d="M321 0h-114l77 343q0 1 1 9.5t1 10.5q0 32 -30 32q-40 0 -79 -64l-72 -331h-114l148 667h113l-54 -244q53 72 122 72q42 0 65.5 -22.5t23.5 -58.5q0 -9 -4 -29z" />
    <glyph glyph-name="i" unicode="i" horiz-adv-x="204" 
d="M174 540q-27 0 -45 17t-18 42q0 35 25 56.5t54 21.5q27 0 44.5 -17.5t17.5 -41.5q0 -35 -24.5 -56.5t-53.5 -21.5zM105 0h-114l108 483h113z" />
    <glyph glyph-name="j" unicode="j" horiz-adv-x="204" 
d="M-55 -196q-52 0 -74 28l44 83q7 -13 24 -13q31 0 42 56l118 525h113l-118 -525q-17 -81 -50.5 -117.5t-98.5 -36.5zM174 540q-27 0 -45 17t-18 42q0 35 25 56.5t54 21.5q27 0 44.5 -17.5t17.5 -41.5q0 -35 -24.5 -56.5t-53.5 -21.5z" />
    <glyph glyph-name="k" unicode="k" horiz-adv-x="403" 
d="M344 0h-122l-30 196l-63 -83l-24 -113h-114l148 667h113l-89 -400l157 216h126l-162 -214z" />
    <glyph glyph-name="l" unicode="l" horiz-adv-x="204" 
d="M105 0h-114l148 667h113z" />
    <glyph glyph-name="m" unicode="m" horiz-adv-x="636" 
d="M536 0h-113l76 343q0 1 1.5 9t1.5 11q0 32 -31 32q-21 0 -42 -19t-36 -45l-72 -331h-114l77 343q0 2 1 10t1 11q0 31 -30 31q-39 0 -79 -64l-72 -331h-114l108 483h113l-14 -60q22 31 55 51.5t67 20.5q39 0 64 -21t25 -51q0 -4 -1 -8q24 35 58 57.5t69 22.5
q41 0 65 -21.5t24 -59.5q0 -8 -3 -29z" />
    <glyph glyph-name="n" unicode="n" 
d="M321 0h-114l77 343q0 2 1 10t1 10q0 32 -30 32q-40 0 -79 -64l-72 -331h-114l108 483h113l-14 -60q53 72 122 72q41 0 65 -22t24 -59q0 -17 -4 -29z" />
    <glyph glyph-name="o" unicode="o" horiz-adv-x="417" 
d="M173 -12q-76 0 -116 46t-40 131q0 73 25 147t78 128.5t122 54.5q76 0 116 -46t40 -131q0 -73 -25 -147t-78 -128.5t-122 -54.5zM180 88q45 0 74.5 83t29.5 149q0 75 -48 75q-32 0 -57.5 -45.5t-36.5 -97.5t-11 -90q0 -74 49 -74z" />
    <glyph glyph-name="p" unicode="p" horiz-adv-x="423" 
d="M213 -12q-74 0 -95 74l-54 -246h-113l148 667h113l-14 -58q46 70 103 70q106 0 106 -154q0 -50 -12 -108.5t-35 -114.5t-61.5 -93t-85.5 -37zM188 88q32 0 57 46.5t35.5 99.5t10.5 92q0 69 -48 69q-17 0 -35 -16.5t-29 -40.5l-43 -192q4 -26 18 -42t34 -16z" />
    <glyph glyph-name="q" unicode="q" horiz-adv-x="423" 
d="M208 495q75 0 96 -74l13 62h113l-148 -667h-113l55 242q-46 -70 -103 -70q-52 0 -79.5 39.5t-27.5 114.5q0 69 20 147.5t66.5 142t107.5 63.5zM234 395q-33 0 -58 -46.5t-35 -99t-10 -92.5q0 -69 48 -69q36 0 64 57l43 192q-4 26 -18.5 42t-33.5 16z" />
    <glyph glyph-name="r" unicode="r" horiz-adv-x="280" 
d="M105 0h-114l108 483h113l-14 -62q44 74 125 74l-26 -112q-12 4 -26 4q-54 0 -95 -64z" />
    <glyph glyph-name="s" unicode="s" horiz-adv-x="346" 
d="M133 -12q-52 0 -95 20.5t-62 50.5l62 73q34 -55 96 -55q26 0 44 17t18 41q0 20 -23 41t-50 37.5t-50 48.5t-23 73q0 66 43.5 113t120.5 47q42 0 81 -17.5t64 -48.5l-59 -71q-10 18 -35.5 33t-51.5 15q-25 0 -40 -14t-15 -37q0 -18 23.5 -38t51.5 -37t51.5 -50t23.5 -74
q0 -69 -48.5 -118.5t-126.5 -49.5z" />
    <glyph glyph-name="t" unicode="t" horiz-adv-x="258" 
d="M139 -12q-112 0 -112 87q0 19 5 42l61 268h-46l22 98h45l29 132h113l-29 -132h61l-22 -98h-61l-55 -248q-3 -21 -3 -23q0 -26 26 -26q13 0 25 8l2 -92q-21 -16 -61 -16z" />
    <glyph glyph-name="u" unicode="u" 
d="M99 483h113l-76 -342q-4 -18 -4 -22q0 -31 31 -31q41 0 77 62l74 333h114l-107 -483h-114l14 61q-52 -73 -122 -73q-41 0 -65 22t-24 59q0 17 4 29z" />
    <glyph glyph-name="v" unicode="v" horiz-adv-x="380" 
d="M197 0h-122l-20 483h116l-7 -342l145 342h123z" />
    <glyph glyph-name="w" unicode="w" horiz-adv-x="608" 
d="M437 0h-118l3 329l-141 -329h-119l-4 483h114l-12 -330l137 330h107l-4 -330l135 330h121z" />
    <glyph glyph-name="x" unicode="x" horiz-adv-x="372" 
d="M314 0h-117l-26 160l-98 -160h-124l166 243l-54 240h116l23 -156l93 156h123l-161 -240z" />
    <glyph glyph-name="y" unicode="y" horiz-adv-x="380" 
d="M-54 -184l37 93q7 -5 23 -5q23 0 41 34l27 54l-19 491h116l-7 -340l145 340h123l-277 -568q-33 -64 -64 -87.5t-76 -23.5q-43 0 -69 12z" />
    <glyph glyph-name="z" unicode="z" horiz-adv-x="335" 
d="M254 0h-281l18 85l206 300h-139l22 98h277l-18 -82l-208 -302h145z" />
    <glyph glyph-name="braceleft" unicode="{" horiz-adv-x="220" 
d="M106 -190h-21q-40 0 -70.5 26t-31.5 67q0 6 3 27l48 214q2 10 2 18q0 22 -10.5 35.5t-29.5 13.5l15 66q52 0 67 67l48 215q27 119 144 119h29l-18 -76h-28q-36 0 -45 -43l-52 -235q-8 -36 -22.5 -57t-42.5 -32q29 -15 29 -55q0 -18 -4 -34l-46 -211l-3 -18
q0 -14 8.5 -22.5t19.5 -8.5h28z" />
    <glyph glyph-name="bar" unicode="|" horiz-adv-x="181" 
d="M148 -20h-76v707h76v-707z" />
    <glyph glyph-name="braceright" unicode="}" horiz-adv-x="220" 
d="M113 678h20q40 0 71.5 -26.5t31.5 -67.5q0 -12 -4 -26l-47 -214q-2 -10 -2 -19q0 -22 10.5 -35t28.5 -13l-15 -66q-51 0 -66 -67l-48 -215q-27 -119 -145 -119h-28l17 76h28q36 0 45 43l52 235q8 36 22.5 57t42.5 32q-29 15 -29 56q0 18 4 34l47 210q2 12 2 18
q0 14 -7.5 22.5t-19.5 8.5h-28z" />
    <glyph glyph-name="asciitilde" unicode="~" horiz-adv-x="416" 
d="M405 667l76 -7q-45 -245 -163 -245q-41 0 -59.5 28t-17.5 62t-3 62t-19 28q-38 0 -77 -181l-77 7q47 245 165 245q40 0 58 -28.5t17 -62t3 -62t19 -28.5q39 0 78 182z" />
    <glyph glyph-name="nbspace" unicode="&#xa0;" horiz-adv-x="163" 
 />
    <glyph glyph-name="exclamdown" unicode="&#xa1;" horiz-adv-x="248" 
d="M82 274h98l-81 -458h-137zM172 494q28 0 47.5 -19.5t19.5 -47.5q0 -33 -24 -57t-57 -24q-28 0 -47.5 20t-19.5 48q0 33 24 56.5t57 23.5z" />
    <glyph glyph-name="cent" unicode="&#xa2;" horiz-adv-x="344" 
d="M92 -100l22 99q-97 35 -97 169q0 112 57 212t149 113l17 72h83l-18 -79q39 -13 64 -40l-54 -85q-20 34 -59 34q-53 0 -87.5 -71t-34.5 -144q0 -92 71 -92q32 0 59 27l19 -90q-39 -33 -89 -36l-19 -89h-83z" />
    <glyph glyph-name="sterling" unicode="&#xa3;" horiz-adv-x="424" 
d="M37 276l16 73h52q-13 46 -13 88q0 102 66.5 171t149.5 69q67 0 112 -37t47 -106l-109 -31q-3 71 -49 71q-33 0 -58 -45.5t-25 -108.5q0 -25 11 -71h72l-16 -73h-54q-7 -51 -30.5 -93.5t-56.5 -65.5q19 9 35 9q23 0 53 -13t48 -13q39 0 67 30l12 -102q-40 -40 -103 -40
q-41 0 -85.5 20.5t-68.5 20.5q-37 0 -85 -36l-18 86q49 28 81.5 79t32.5 104q0 9 -1 14h-83z" />
    <glyph glyph-name="currency" unicode="&#xa4;" horiz-adv-x="441" 
d="M212 100q-56 0 -92 24l-80 -65l-59 75l82 66q-11 29 -11 74q0 128 68 213l-53 70l76 62l53 -70q37 16 74 16q52 0 90 -23l84 68l59 -76l-84 -68q12 -34 12 -76q0 -126 -69 -212l54 -69l-76 -62l-54 69q-37 -16 -74 -16zM161 278q0 -81 58 -81q42 0 72.5 58.5t30.5 130.5
q0 82 -57 82q-44 0 -74 -59t-30 -131z" />
    <glyph glyph-name="yen" unicode="&#xa5;" horiz-adv-x="430" 
d="M224 0h-125l25 117h-128l16 72h128l19 87h-128l16 71h99l-57 320h128l26 -269l146 269h138l-198 -320h97l-15 -71h-126l-19 -87h125l-16 -72h-125z" />
    <glyph glyph-name="brokenbar" unicode="&#xa6;" horiz-adv-x="181" 
d="M148 -20h-76v316h76v-316zM148 371h-76v316h76v-316z" />
    <glyph glyph-name="section" unicode="&#xa7;" horiz-adv-x="347" 
d="M345 336q0 -105 -102 -150q47 -38 47 -96q0 -71 -49 -121t-122 -50q-121 0 -164 66l62 72q32 -54 95 -54q29 0 48.5 21t19.5 50q0 24 -22.5 45.5t-49 37t-49 47t-22.5 73.5q0 49 29.5 87.5t79.5 51.5q-54 41 -54 105q0 67 46.5 111.5t112.5 44.5q105 0 154 -65l-60 -62
q-31 47 -87 47q-25 0 -42 -18.5t-17 -43.5q0 -23 23 -45t50 -38.5t50 -47t23 -68.5zM240 308q0 38 -31 67q-68 -13 -68 -77q0 -44 44 -71q55 22 55 81z" />
    <glyph glyph-name="dieresis" unicode="&#xa8;" horiz-adv-x="278" 
d="M363 616q0 -27 -21 -47.5t-49 -20.5q-23 0 -38.5 15.5t-15.5 39.5q0 26 21 47t48 21q23 0 39 -16t16 -39zM201 616q0 -27 -21.5 -47.5t-48.5 -20.5q-23 0 -39 15.5t-16 39.5q0 26 21 47t49 21q23 0 39 -16t16 -39z" />
    <glyph glyph-name="copyright" unicode="&#xa9;" horiz-adv-x="778" 
d="M754 334q0 -142 -101.5 -243.5t-244.5 -101.5q-142 0 -243 101t-101 244t101 244t243 101q143 0 244.5 -101.5t101.5 -243.5zM719 334q0 127 -91.5 218.5t-219.5 91.5q-127 0 -218 -91t-91 -219t91 -219t218 -91q128 0 219.5 91.5t91.5 218.5zM506 209l23 -33
q-62 -53 -137 -53q-87 0 -139.5 52t-52.5 132q0 100 71 169.5t163 69.5q109 0 159 -80l-36 -26q-36 68 -124 68q-72 0 -130.5 -58t-58.5 -142q0 -62 40.5 -105t107.5 -43q65 0 114 49z" />
    <glyph glyph-name="ordfeminine" unicode="&#xaa;" horiz-adv-x="313" 
d="M224 582q-30 0 -50.5 -49.5t-20.5 -97.5q0 -51 34 -51q24 0 46 39l26 124q-2 15 -12 25t-23 10zM280 640h83l-69 -314h-83l8 39q-30 -47 -73 -47q-35 0 -56.5 27t-21.5 83q0 77 38 148.5t97 71.5q48 0 69 -46z" />
    <glyph glyph-name="guillemotleft" unicode="&#xab;" horiz-adv-x="385" 
d="M165 63h-86l-50 180l130 177h90l-133 -181zM312 63h-86l-50 180l130 177h90l-133 -181z" />
    <glyph glyph-name="logicalnot" unicode="&#xac;" horiz-adv-x="383" 
d="M402 465l-58 -262h-73l41 190h-250l16 72h324z" />
    <glyph glyph-name="uni00AD" unicode="&#xad;" horiz-adv-x="241" 
d="M200 194h-181l21 96h181z" />
    <glyph glyph-name="registered" unicode="&#xae;" horiz-adv-x="494" 
d="M508 465q0 -88 -62.5 -150t-150.5 -62t-149.5 62t-61.5 150t62 150t150 62t150 -61.5t62 -150.5zM477 465q0 75 -53.5 128t-128.5 53t-127.5 -52.5t-52.5 -128.5q0 -75 52.5 -128t127.5 -53t128.5 53.5t53.5 127.5zM369 343h-40l-42 96h-44l-21 -96h-34l53 243h92
q31 0 51.5 -18t20.5 -46q0 -35 -25 -58.5t-55 -23.5zM369 518q0 18 -11.5 28.5t-30.5 10.5h-58l-20 -88h66q22 0 38 14t16 35z" />
    <glyph glyph-name="macron" unicode="&#xaf;" horiz-adv-x="258" 
d="M329 564h-258l14 66h258z" />
    <glyph glyph-name="degree" unicode="&#xb0;" horiz-adv-x="305" 
d="M351 545q0 -54 -39 -92.5t-93 -38.5q-55 0 -93 38.5t-38 92.5q0 55 38 93.5t93 38.5q54 0 93 -38.5t39 -93.5zM288 545q0 28 -20.5 48.5t-48.5 20.5t-48 -20.5t-20 -48.5t19.5 -47.5t47.5 -19.5t49 20t21 47z" />
    <glyph glyph-name="plusminus" unicode="&#xb1;" horiz-adv-x="383" 
d="M366 302h-123l-33 -146h-78l33 146h-123l15 71h124l30 139h79l-31 -139h123zM306 27h-326l16 71h325z" />
    <glyph glyph-name="twosuperior" unicode="&#xb2;" horiz-adv-x="293" 
d="M315 421h-248l15 68q130 109 170 152t40 76q0 19 -12 30t-33 11q-42 0 -77 -45l-42 55q54 59 126 59q54 0 89.5 -27t35.5 -75q0 -50 -39.5 -95.5t-151.5 -139.5h142z" />
    <glyph glyph-name="threesuperior" unicode="&#xb3;" horiz-adv-x="293" 
d="M340 541q0 -49 -37.5 -88t-97.5 -39q-46 0 -81.5 18.5t-51.5 51.5l64 48q18 -49 65 -49q26 0 41 21t15 47q0 40 -44 40q-23 0 -29 -1l15 69q5 -1 32 -1t43.5 16.5t16.5 43.5q0 19 -12.5 29.5t-33.5 10.5q-41 0 -72 -39l-44 48q52 60 124 60q57 0 90.5 -25t33.5 -71
q0 -38 -25.5 -71t-68.5 -39q57 -16 57 -80z" />
    <glyph glyph-name="acute" unicode="&#xb4;" horiz-adv-x="178" 
d="M279 700l-138 -144h-74l111 144h101z" />
    <glyph glyph-name="mu" unicode="&#xb5;" horiz-adv-x="432" 
d="M106 4l-41 -188h-114l148 667h113l-77 -346q-5 -23 2.5 -36.5t25.5 -13.5q41 0 77 62l74 334h114l-80 -356q-8 -39 17 -39q7 0 15 2l-12 -95q-28 -7 -54 -7q-46 0 -63 20t-15 66q-16 -40 -41.5 -63t-51.5 -23q-23 0 -37 16z" />
    <glyph glyph-name="paragraph" unicode="&#xb6;" horiz-adv-x="449" 
d="M319 -100h-58l158 709h-81l-159 -709h-57l94 423q-57 0 -97 44.5t-40 111.5q0 73 56.5 130.5t137.5 57.5h216z" />
    <glyph glyph-name="periodcentered" unicode="&#xb7;" horiz-adv-x="248" 
d="M117 170q-28 0 -47.5 20t-19.5 48q0 33 24 57t57 24q28 0 47.5 -20t19.5 -48q0 -33 -24 -57t-57 -24z" />
    <glyph glyph-name="cedilla" unicode="&#xb8;" horiz-adv-x="182" 
d="M4 -195q-57 0 -93 39l31 44q24 -32 62 -32q18 0 30 11.5t12 27.5q0 23 -22 23q-14 0 -24 -13l-38 24l50 82h57l-40 -64q10 10 24 10q22 0 36.5 -16t14.5 -42q0 -40 -28.5 -67t-71.5 -27z" />
    <glyph glyph-name="onesuperior" unicode="&#xb9;" horiz-adv-x="244" 
d="M240 421h-87l63 286l-66 -55l-40 51l143 118h75z" />
    <glyph glyph-name="ordmasculine" unicode="&#xba;" horiz-adv-x="308" 
d="M185 318q-55 0 -84.5 33t-29.5 88q0 75 43 142t114 67q55 0 84.5 -33t29.5 -88q0 -75 -43 -142t-114 -67zM189 385q32 0 51 53t19 93q0 49 -36 49q-32 0 -50.5 -53t-18.5 -93q0 -49 35 -49z" />
    <glyph glyph-name="guillemotright" unicode="&#xbb;" horiz-adv-x="385" 
d="M73 420h86l50 -180l-130 -177h-90l133 181zM220 420h86l50 -180l-130 -177h-90l133 181z" />
    <glyph glyph-name="onequarter" unicode="&#xbc;" horiz-adv-x="648" 
d="M206 267h-87l63 286l-66 -55l-40 51l143 118h75zM601 90h-34l-19 -90h-86l19 90h-147l14 67l184 243h104l-53 -242h33zM496 158l33 144l-107 -144h74zM581 667l-426 -667h-50l425 667h51z" />
    <glyph glyph-name="onehalf" unicode="&#xbd;" horiz-adv-x="683" 
d="M206 267h-87l63 286l-66 -55l-40 51l143 118h75zM612 0h-248l15 68q130 109 170 152t40 76q0 19 -12 30t-33 11q-42 0 -77 -45l-42 55q54 59 126 59q54 0 89.5 -27t35.5 -75q0 -50 -39.5 -95.5t-151.5 -139.5h142zM581 667l-426 -667h-50l425 667h51z" />
    <glyph glyph-name="threequarters" unicode="&#xbe;" horiz-adv-x="684" 
d="M637 90h-34l-19 -90h-86l19 90h-147l14 67l184 243h104l-53 -242h33zM532 158l33 144l-107 -144h74zM617 667l-426 -667h-50l425 667h51zM306 387q0 -49 -37.5 -88t-97.5 -39q-46 0 -81.5 18.5t-51.5 51.5l64 48q18 -49 65 -49q26 0 41 21t15 47q0 40 -44 40
q-23 0 -29 -1l15 69q5 -1 32 -1t43.5 16.5t16.5 43.5q0 19 -12.5 29.5t-33.5 10.5q-41 0 -72 -39l-44 48q52 60 124 60q57 0 90.5 -25t33.5 -71q0 -38 -25.5 -71t-68.5 -39q57 -16 57 -80z" />
    <glyph glyph-name="questiondown" unicode="&#xbf;" horiz-adv-x="287" 
d="M113 249l103 34q9 -24 9 -61q0 -38 -15 -71t-36.5 -56t-43 -43.5t-36.5 -43.5t-15 -47q0 -21 12.5 -35.5t33.5 -14.5q31 0 57 22l35 -81q-58 -47 -130 -47q-60 0 -100 35t-40 87q0 40 17.5 76t43 61.5t51 49t43 49t17.5 50.5q0 21 -6 36zM206 494q28 0 47.5 -20t19.5 -48
q0 -33 -24 -56.5t-57 -23.5q-28 0 -47.5 20t-19.5 48q0 33 24 56.5t57 23.5z" />
    <glyph glyph-name="Agrave" unicode="&#xc0;" horiz-adv-x="424" 
d="M370 0h-126l7 123h-126l-46 -123h-133l286 667h145zM260 234l17 292l-112 -292h95zM362 723h-72l-74 144h98z" />
    <glyph glyph-name="Aacute" unicode="&#xc1;" horiz-adv-x="424" 
d="M370 0h-126l7 123h-126l-46 -123h-133l286 667h145zM260 234l17 292l-112 -292h95zM483 867l-138 -144h-74l111 144h101z" />
    <glyph glyph-name="Acircumflex" unicode="&#xc2;" horiz-adv-x="424" 
d="M433 723h-60l-35 92l-70 -92h-65l95 144h102zM370 0h-126l7 123h-126l-46 -123h-133l286 667h145zM260 234l17 292l-112 -292h95z" />
    <glyph glyph-name="Atilde" unicode="&#xc3;" horiz-adv-x="424" 
d="M370 0h-126l7 123h-126l-46 -123h-133l286 667h145zM260 234l17 292l-112 -292h95zM370 721q-21 0 -34 11.5t-17 25.5t-11.5 25.5t-18.5 11.5q-24 0 -38 -68h-60q30 134 104 134q21 0 34 -11.5t17.5 -25.5t12 -25.5t18.5 -11.5q22 0 38 68h60q-30 -134 -105 -134z" />
    <glyph glyph-name="Adieresis" unicode="&#xc4;" horiz-adv-x="424" 
d="M473 783q0 -27 -21 -47.5t-49 -20.5q-23 0 -38.5 15.5t-15.5 39.5q0 26 21 47t48 21q23 0 39 -16t16 -39zM311 783q0 -27 -21.5 -47.5t-48.5 -20.5q-23 0 -39 15.5t-16 39.5q0 26 21 47t49 21q23 0 39 -16t16 -39zM370 0h-126l7 123h-126l-46 -123h-133l286 667h145z
M260 234l17 292l-112 -292h95z" />
    <glyph glyph-name="Aring" unicode="&#xc5;" horiz-adv-x="424" 
d="M370 0h-126l7 123h-126l-46 -123h-133l286 667h145zM260 234l17 292l-112 -292h95zM321 691q-35 0 -57.5 23t-22.5 58q0 40 30 69.5t69 29.5q35 0 57.5 -23t22.5 -58q0 -39 -30 -69t-69 -30zM326 741q18 0 31.5 13.5t13.5 31.5q0 15 -10 25.5t-24 10.5q-18 0 -31.5 -13.5
t-13.5 -31.5q0 -15 9.5 -25.5t24.5 -10.5z" />
    <glyph glyph-name="AE" unicode="&#xc6;" horiz-adv-x="607" 
d="M522 0h-292l27 123h-111l-63 -123h-132l371 667h347l-25 -111h-165l-36 -161h159l-24 -111h-159l-38 -173h165zM282 234l62 280l-143 -280h81z" />
    <glyph glyph-name="Ccedilla" unicode="&#xc7;" horiz-adv-x="429" 
d="M153 -195q-57 0 -93 39l31 44q24 -32 62 -32q18 0 30 11.5t12 27.5q0 23 -22 23q-14 0 -24 -13l-38 24l40 66q-59 16 -90 68.5t-31 136.5q0 49 9.5 109t31.5 126t53.5 119.5t81 88.5t107.5 35q81 0 120 -55t42 -136l-117 -22q-5 101 -53 101q-43 0 -78.5 -73.5
t-51.5 -156t-16 -139.5q0 -97 51 -97q42 0 83 81l101 -42q-71 -151 -191 -151l-25 -41q10 10 24 10q22 0 36.5 -16t14.5 -42q0 -40 -28.5 -67t-71.5 -27z" />
    <glyph glyph-name="Egrave" unicode="&#xc8;" horiz-adv-x="378" 
d="M290 0h-292l147 667h292l-24 -111h-166l-36 -161h159l-25 -111h-158l-39 -173h166zM348 723h-72l-74 144h98z" />
    <glyph glyph-name="Eacute" unicode="&#xc9;" horiz-adv-x="378" 
d="M470 867l-138 -144h-74l111 144h101zM290 0h-292l147 667h292l-24 -111h-166l-36 -161h159l-25 -111h-158l-39 -173h166z" />
    <glyph glyph-name="Ecircumflex" unicode="&#xca;" horiz-adv-x="378" 
d="M420 723h-60l-35 92l-70 -92h-65l95 144h102zM290 0h-292l147 667h292l-24 -111h-166l-36 -161h159l-25 -111h-158l-39 -173h166z" />
    <glyph glyph-name="Edieresis" unicode="&#xcb;" horiz-adv-x="378" 
d="M459 783q0 -27 -21 -47.5t-49 -20.5q-23 0 -38.5 15.5t-15.5 39.5q0 26 21 47t48 21q23 0 39 -16t16 -39zM297 783q0 -27 -21.5 -47.5t-48.5 -20.5q-23 0 -39 15.5t-16 39.5q0 26 21 47t49 21q23 0 39 -16t16 -39zM290 0h-292l147 667h292l-24 -111h-166l-36 -161h159
l-25 -111h-158l-39 -173h166z" />
    <glyph glyph-name="Igrave" unicode="&#xcc;" horiz-adv-x="230" 
d="M124 0h-126l147 667h126zM264 723h-72l-74 144h98z" />
    <glyph glyph-name="Iacute" unicode="&#xcd;" horiz-adv-x="230" 
d="M124 0h-126l147 667h126zM386 867l-138 -144h-74l111 144h101z" />
    <glyph glyph-name="Icircumflex" unicode="&#xce;" horiz-adv-x="230" 
d="M336 723h-60l-35 92l-70 -92h-65l95 144h102zM124 0h-126l147 667h126z" />
    <glyph glyph-name="Idieresis" unicode="&#xcf;" horiz-adv-x="230" 
d="M376 783q0 -27 -21 -47.5t-49 -20.5q-23 0 -38.5 15.5t-15.5 39.5q0 26 21 47t48 21q23 0 39 -16t16 -39zM214 783q0 -27 -21.5 -47.5t-48.5 -20.5q-23 0 -39 15.5t-16 39.5q0 26 21 47t49 21q23 0 39 -16t16 -39zM124 0h-126l147 667h126z" />
    <glyph glyph-name="Eth" unicode="&#xd0;" horiz-adv-x="498" 
d="M188 0h-167l62 283h-59l23 101h58l63 283h163q70 0 119.5 -56.5t49.5 -160.5q0 -36 -6.5 -79.5t-20 -96t-38 -100t-57.5 -87t-82 -63.5t-108 -24zM279 283h-70l-38 -172h39q41 0 74.5 40.5t51.5 98.5t27 110.5t9 87.5q0 54 -18.5 81t-46.5 27h-37l-38 -172h69z" />
    <glyph glyph-name="Ntilde" unicode="&#xd1;" horiz-adv-x="484" 
d="M401 721q-21 0 -34 11.5t-17 25.5t-11.5 25.5t-18.5 11.5q-24 0 -38 -68h-60q30 134 104 134q21 0 34 -11.5t17.5 -25.5t12 -25.5t18.5 -11.5q22 0 38 68h60q-30 -134 -105 -134zM378 0h-119l-54 370l-81 -370h-126l147 667h126l49 -355l79 355h126z" />
    <glyph glyph-name="Ograve" unicode="&#xd2;" horiz-adv-x="478" 
d="M388 723h-72l-74 144h98zM203 -12q-86 0 -129.5 59t-43.5 153q0 63 16.5 140t48.5 155t89.5 130.5t128.5 52.5q86 0 129.5 -60t43.5 -154q0 -63 -16.5 -140t-48.5 -154.5t-89.5 -129.5t-128.5 -52zM210 100q32 0 61 42.5t47 102.5t28.5 120.5t10.5 101.5q0 99 -52 99
q-32 0 -61 -42.5t-47 -103t-28 -121t-10 -102.5q0 -97 51 -97z" />
    <glyph glyph-name="Oacute" unicode="&#xd3;" horiz-adv-x="478" 
d="M511 867l-138 -144h-74l111 144h101zM203 -12q-86 0 -129.5 59t-43.5 153q0 63 16.5 140t48.5 155t89.5 130.5t128.5 52.5q86 0 129.5 -60t43.5 -154q0 -63 -16.5 -140t-48.5 -154.5t-89.5 -129.5t-128.5 -52zM210 100q32 0 61 42.5t47 102.5t28.5 120.5t10.5 101.5
q0 99 -52 99q-32 0 -61 -42.5t-47 -103t-28 -121t-10 -102.5q0 -97 51 -97z" />
    <glyph glyph-name="Ocircumflex" unicode="&#xd4;" horiz-adv-x="478" 
d="M460 723h-60l-35 92l-70 -92h-65l95 144h102zM203 -12q-86 0 -129.5 59t-43.5 153q0 63 16.5 140t48.5 155t89.5 130.5t128.5 52.5q86 0 129.5 -60t43.5 -154q0 -63 -16.5 -140t-48.5 -154.5t-89.5 -129.5t-128.5 -52zM210 100q32 0 61 42.5t47 102.5t28.5 120.5
t10.5 101.5q0 99 -52 99q-32 0 -61 -42.5t-47 -103t-28 -121t-10 -102.5q0 -97 51 -97z" />
    <glyph glyph-name="Otilde" unicode="&#xd5;" horiz-adv-x="478" 
d="M203 -12q-86 0 -129.5 59t-43.5 153q0 63 16.5 140t48.5 155t89.5 130.5t128.5 52.5q86 0 129.5 -60t43.5 -154q0 -63 -16.5 -140t-48.5 -154.5t-89.5 -129.5t-128.5 -52zM210 100q32 0 61 42.5t47 102.5t28.5 120.5t10.5 101.5q0 99 -52 99q-32 0 -61 -42.5t-47 -103
t-28 -121t-10 -102.5q0 -97 51 -97zM397 721q-21 0 -34 11.5t-17 25.5t-11.5 25.5t-18.5 11.5q-24 0 -38 -68h-60q30 134 104 134q21 0 34 -11.5t17.5 -25.5t12 -25.5t18.5 -11.5q22 0 38 68h60q-30 -134 -105 -134z" />
    <glyph glyph-name="Odieresis" unicode="&#xd6;" horiz-adv-x="478" 
d="M500 783q0 -27 -21 -47.5t-49 -20.5q-23 0 -38.5 15.5t-15.5 39.5q0 26 21 47t48 21q23 0 39 -16t16 -39zM338 783q0 -27 -21.5 -47.5t-48.5 -20.5q-23 0 -39 15.5t-16 39.5q0 26 21 47t49 21q23 0 39 -16t16 -39zM203 -12q-86 0 -129.5 59t-43.5 153q0 63 16.5 140
t48.5 155t89.5 130.5t128.5 52.5q86 0 129.5 -60t43.5 -154q0 -63 -16.5 -140t-48.5 -154.5t-89.5 -129.5t-128.5 -52zM210 100q32 0 61 42.5t47 102.5t28.5 120.5t10.5 101.5q0 99 -52 99q-32 0 -61 -42.5t-47 -103t-28 -121t-10 -102.5q0 -97 51 -97z" />
    <glyph glyph-name="multiply" unicode="&#xd7;" horiz-adv-x="383" 
d="M281 185l-77 98l-125 -102l-44 55l127 103l-77 98l56 46l76 -98l126 103l44 -56l-125 -103l75 -98z" />
    <glyph glyph-name="Oslash" unicode="&#xd8;" horiz-adv-x="478" 
d="M203 -12q-75 0 -118 45l-23 -33h-74l62 88q-20 46 -20 112q0 63 16.5 140t48.5 155t89.5 130.5t128.5 52.5q73 0 118 -47l25 36h73l-63 -90q20 -51 20 -113q0 -63 -16.5 -140t-48.5 -154.5t-89.5 -129.5t-128.5 -52zM305 566q-37 0 -69.5 -56t-49.5 -125.5t-24 -137.5
l190 271q-11 48 -47 48zM210 100q36 0 68.5 55.5t50.5 125t25 136.5l-190 -272q11 -45 46 -45z" />
    <glyph glyph-name="Ugrave" unicode="&#xd9;" horiz-adv-x="484" 
d="M209 -12q-74 0 -123 45.5t-49 120.5q0 21 5 44l103 469h126l-106 -480q-3 -21 -3 -29q0 -28 15.5 -43.5t40.5 -15.5q57 0 76 88l105 480h126l-104 -474q-23 -104 -79 -154.5t-133 -50.5zM391 723h-72l-74 144h98z" />
    <glyph glyph-name="Uacute" unicode="&#xda;" horiz-adv-x="484" 
d="M513 867l-138 -144h-74l111 144h101zM209 -12q-74 0 -123 45.5t-49 120.5q0 21 5 44l103 469h126l-106 -480q-3 -21 -3 -29q0 -28 15.5 -43.5t40.5 -15.5q57 0 76 88l105 480h126l-104 -474q-23 -104 -79 -154.5t-133 -50.5z" />
    <glyph glyph-name="Ucircumflex" unicode="&#xdb;" horiz-adv-x="484" 
d="M464 723h-60l-35 92l-70 -92h-65l95 144h102zM209 -12q-74 0 -123 45.5t-49 120.5q0 21 5 44l103 469h126l-106 -480q-3 -21 -3 -29q0 -28 15.5 -43.5t40.5 -15.5q57 0 76 88l105 480h126l-104 -474q-23 -104 -79 -154.5t-133 -50.5z" />
    <glyph glyph-name="Udieresis" unicode="&#xdc;" horiz-adv-x="484" 
d="M502 783q0 -27 -21 -47.5t-49 -20.5q-23 0 -38.5 15.5t-15.5 39.5q0 26 21 47t48 21q23 0 39 -16t16 -39zM340 783q0 -27 -21.5 -47.5t-48.5 -20.5q-23 0 -39 15.5t-16 39.5q0 26 21 47t49 21q23 0 39 -16t16 -39zM209 -12q-74 0 -123 45.5t-49 120.5q0 21 5 44l103 469
h126l-106 -480q-3 -21 -3 -29q0 -28 15.5 -43.5t40.5 -15.5q57 0 76 88l105 480h126l-104 -474q-23 -104 -79 -154.5t-133 -50.5z" />
    <glyph glyph-name="Yacute" unicode="&#xdd;" horiz-adv-x="430" 
d="M224 0h-125l60 276l-70 391h128l26 -269l146 269h138l-242 -391zM488 867l-138 -144h-74l111 144h101z" />
    <glyph glyph-name="Thorn" unicode="&#xde;" horiz-adv-x="441" 
d="M124 0h-126l147 667h126l-24 -111h39q70 0 114.5 -47t44.5 -122q0 -62 -23.5 -117.5t-79.5 -95.5t-136 -40h-52zM216 245q44 0 71 39t27 91q0 33 -15.5 52t-41.5 19h-35l-44 -201h38z" />
    <glyph glyph-name="germandbls" unicode="&#xdf;" horiz-adv-x="517" 
d="M483 156q0 -64 -46.5 -116t-120.5 -52q-102 0 -154 69l57 73q34 -51 84 -51q23 0 40 17t17 42q0 16 -13 31t-31 28.5t-36 29t-31 40t-13 54.5q0 35 14 62t34 43t40 30t34 31t14 38q0 23 -18 37.5t-49 14.5q-67 0 -87 -87l-108 -490h-112l107 490q19 85 73 136t136 51
q73 0 124 -39.5t51 -100.5q0 -29 -10 -52.5t-25.5 -38.5t-33.5 -29t-33.5 -24.5t-25.5 -23.5t-10 -28q0 -16 13.5 -30t33 -27t39 -28.5t33 -41.5t13.5 -58z" />
    <glyph glyph-name="agrave" unicode="&#xe0;" horiz-adv-x="423" 
d="M208 495q75 0 96 -74l14 62h112l-107 -483h-113l14 58q-46 -70 -103 -70q-52 0 -79.5 39.5t-27.5 114.5q0 69 20 147.5t66.5 142t107.5 63.5zM234 395q-33 0 -58 -46.5t-35 -99t-10 -92.5q0 -69 48 -69q36 0 64 57l43 192q-4 26 -18.5 42t-33.5 16zM322 556h-72l-74 144
h98z" />
    <glyph glyph-name="aacute" unicode="&#xe1;" horiz-adv-x="423" 
d="M208 495q75 0 96 -74l14 62h112l-107 -483h-113l14 58q-46 -70 -103 -70q-52 0 -79.5 39.5t-27.5 114.5q0 69 20 147.5t66.5 142t107.5 63.5zM234 395q-33 0 -58 -46.5t-35 -99t-10 -92.5q0 -69 48 -69q36 0 64 57l43 192q-4 26 -18.5 42t-33.5 16zM443 700l-138 -144
h-74l111 144h101z" />
    <glyph glyph-name="acircumflex" unicode="&#xe2;" horiz-adv-x="423" 
d="M208 495q75 0 96 -74l14 62h112l-107 -483h-113l14 58q-46 -70 -103 -70q-52 0 -79.5 39.5t-27.5 114.5q0 69 20 147.5t66.5 142t107.5 63.5zM234 395q-33 0 -58 -46.5t-35 -99t-10 -92.5q0 -69 48 -69q36 0 64 57l43 192q-4 26 -18.5 42t-33.5 16zM393 556h-60l-35 92
l-70 -92h-65l95 144h102z" />
    <glyph glyph-name="atilde" unicode="&#xe3;" horiz-adv-x="423" 
d="M208 495q75 0 96 -74l14 62h112l-107 -483h-113l14 58q-46 -70 -103 -70q-52 0 -79.5 39.5t-27.5 114.5q0 69 20 147.5t66.5 142t107.5 63.5zM234 395q-33 0 -58 -46.5t-35 -99t-10 -92.5q0 -69 48 -69q36 0 64 57l43 192q-4 26 -18.5 42t-33.5 16zM330 554
q-21 0 -34 11.5t-17 25.5t-11.5 25.5t-18.5 11.5q-24 0 -38 -68h-60q30 134 104 134q21 0 34 -11.5t17.5 -25.5t12 -25.5t18.5 -11.5q22 0 38 68h60q-30 -134 -105 -134z" />
    <glyph glyph-name="adieresis" unicode="&#xe4;" horiz-adv-x="423" 
d="M208 495q75 0 96 -74l14 62h112l-107 -483h-113l14 58q-46 -70 -103 -70q-52 0 -79.5 39.5t-27.5 114.5q0 69 20 147.5t66.5 142t107.5 63.5zM234 395q-33 0 -58 -46.5t-35 -99t-10 -92.5q0 -69 48 -69q36 0 64 57l43 192q-4 26 -18.5 42t-33.5 16zM432 616
q0 -27 -21 -47.5t-49 -20.5q-23 0 -38.5 15.5t-15.5 39.5q0 26 21 47t48 21q23 0 39 -16t16 -39zM270 616q0 -27 -21.5 -47.5t-48.5 -20.5q-23 0 -39 15.5t-16 39.5q0 26 21 47t49 21q23 0 39 -16t16 -39z" />
    <glyph glyph-name="aring" unicode="&#xe5;" horiz-adv-x="423" 
d="M208 495q75 0 96 -74l14 62h112l-107 -483h-113l14 58q-46 -70 -103 -70q-52 0 -79.5 39.5t-27.5 114.5q0 69 20 147.5t66.5 142t107.5 63.5zM234 395q-33 0 -58 -46.5t-35 -99t-10 -92.5q0 -69 48 -69q36 0 64 57l43 192q-4 26 -18.5 42t-33.5 16zM283 529
q-35 0 -57.5 23t-22.5 58q0 40 30 69.5t69 29.5q35 0 57.5 -23t22.5 -58q0 -39 -30 -69t-69 -30zM288 579q18 0 31.5 13.5t13.5 31.5q0 15 -10 25.5t-24 10.5q-18 0 -31.5 -13.5t-13.5 -31.5q0 -15 9.5 -25.5t24.5 -10.5z" />
    <glyph glyph-name="ae" unicode="&#xe6;" horiz-adv-x="648" 
d="M234 395q-33 0 -58 -46.5t-35 -99t-10 -92.5q0 -69 48 -69q36 0 64 57l43 192q-4 26 -18.5 42t-33.5 16zM341 80l-18 -80h-113l14 58q-46 -70 -103 -70q-52 0 -79.5 39.5t-27.5 114.5q0 69 20 147.5t66.5 142t107.5 63.5q75 0 96 -74l14 62h112l-11 -54q44 66 104 66
q110 -2 110 -156q0 -63 -19 -135h-244q-4 -19 -4 -41q0 -34 20.5 -57.5t62.5 -23.5t82 43l39 -79q-53 -58 -119 -58q-93 0 -110 92zM387 284h138q6 25 6 49q0 31 -14 50.5t-39 19.5q-37 0 -60.5 -37t-30.5 -82z" />
    <glyph glyph-name="ccedilla" unicode="&#xe7;" horiz-adv-x="344" 
d="M128 -195q-57 0 -93 39l31 44q24 -32 62 -32q18 0 30 11.5t12 27.5q0 23 -22 23q-14 0 -24 -13l-38 24l40 66q-109 30 -109 173q0 75 26 148.5t80.5 126t123.5 52.5q78 0 122 -49l-54 -85q-20 34 -59 34q-53 0 -87.5 -71t-34.5 -144q0 -92 71 -92q32 0 59 27l19 -90
q-43 -37 -104 -37h-1l-25 -41q10 10 24 10q22 0 36.5 -16t14.5 -42q0 -40 -28.5 -67t-71.5 -27z" />
    <glyph glyph-name="egrave" unicode="&#xe8;" horiz-adv-x="404" 
d="M182 -12q-78 0 -121.5 47.5t-43.5 134.5q0 47 14 101t40.5 105t71 85t98.5 34q75 0 112 -43t37 -122q0 -45 -19 -126h-245q-5 -18 -5 -41q0 -34 19.5 -58.5t62.5 -24.5t83 42l40 -70q-61 -64 -144 -64zM141 284h141q6 32 6 49q0 31 -15 50.5t-40 19.5q-37 0 -60.5 -36.5
t-31.5 -82.5zM325 556h-72l-74 144h98z" />
    <glyph glyph-name="eacute" unicode="&#xe9;" horiz-adv-x="404" 
d="M448 700l-138 -144h-74l111 144h101zM182 -12q-78 0 -121.5 47.5t-43.5 134.5q0 47 14 101t40.5 105t71 85t98.5 34q75 0 112 -43t37 -122q0 -45 -19 -126h-245q-5 -18 -5 -41q0 -34 19.5 -58.5t62.5 -24.5t83 42l40 -70q-61 -64 -144 -64zM141 284h141q6 32 6 49
q0 31 -15 50.5t-40 19.5q-37 0 -60.5 -36.5t-31.5 -82.5z" />
    <glyph glyph-name="ecircumflex" unicode="&#xea;" horiz-adv-x="404" 
d="M396 556h-60l-35 92l-70 -92h-65l95 144h102zM182 -12q-78 0 -121.5 47.5t-43.5 134.5q0 47 14 101t40.5 105t71 85t98.5 34q75 0 112 -43t37 -122q0 -45 -19 -126h-245q-5 -18 -5 -41q0 -34 19.5 -58.5t62.5 -24.5t83 42l40 -70q-61 -64 -144 -64zM141 284h141
q6 32 6 49q0 31 -15 50.5t-40 19.5q-37 0 -60.5 -36.5t-31.5 -82.5z" />
    <glyph glyph-name="edieresis" unicode="&#xeb;" horiz-adv-x="404" 
d="M436 616q0 -27 -21 -47.5t-49 -20.5q-23 0 -38.5 15.5t-15.5 39.5q0 26 21 47t48 21q23 0 39 -16t16 -39zM274 616q0 -27 -21.5 -47.5t-48.5 -20.5q-23 0 -39 15.5t-16 39.5q0 26 21 47t49 21q23 0 39 -16t16 -39zM182 -12q-78 0 -121.5 47.5t-43.5 134.5q0 47 14 101
t40.5 105t71 85t98.5 34q75 0 112 -43t37 -122q0 -45 -19 -126h-245q-5 -18 -5 -41q0 -34 19.5 -58.5t62.5 -24.5t83 42l40 -70q-61 -64 -144 -64zM141 284h141q6 32 6 49q0 31 -15 50.5t-40 19.5q-37 0 -60.5 -36.5t-31.5 -82.5z" />
    <glyph glyph-name="igrave" unicode="&#xec;" horiz-adv-x="204" 
d="M105 0h-114l108 483h113zM215 556h-72l-74 144h98z" />
    <glyph glyph-name="iacute" unicode="&#xed;" horiz-adv-x="204" 
d="M337 700l-138 -144h-74l111 144h101zM105 0h-114l108 483h113z" />
    <glyph glyph-name="icircumflex" unicode="&#xee;" horiz-adv-x="204" 
d="M287 556h-60l-35 92l-70 -92h-65l95 144h102zM105 0h-114l108 483h113z" />
    <glyph glyph-name="idieresis" unicode="&#xef;" horiz-adv-x="204" 
d="M326 616q0 -27 -21 -47.5t-49 -20.5q-23 0 -38.5 15.5t-15.5 39.5q0 26 21 47t48 21q23 0 39 -16t16 -39zM164 616q0 -27 -21.5 -47.5t-48.5 -20.5q-23 0 -39 15.5t-16 39.5q0 26 21 47t49 21q23 0 39 -16t16 -39zM105 0h-114l108 483h113z" />
    <glyph glyph-name="eth" unicode="&#xf0;" horiz-adv-x="417" 
d="M192 500l-12 55l103 31q-10 52 -22 81l111 35q12 -38 23 -83l68 20l12 -54l-69 -21q9 -66 9 -135q0 -56 -7.5 -114t-26 -117.5t-45 -105.5t-68 -75t-91.5 -29q-80 0 -121 46t-41 126q0 65 22.5 133.5t69 120t105.5 51.5q37 0 60.5 -21.5t30.5 -57.5q-2 78 -11 144z
M180 88q29 0 53 38t35 84t11 84q0 29 -12 50.5t-39 21.5q-30 0 -53.5 -39.5t-34 -85t-10.5 -80.5q0 -73 50 -73z" />
    <glyph glyph-name="ntilde" unicode="&#xf1;" 
d="M321 0h-114l77 343q0 2 1 10t1 10q0 32 -30 32q-40 0 -79 -64l-72 -331h-114l108 483h113l-14 -60q53 72 122 72q41 0 65 -22t24 -59q0 -17 -4 -29zM332 554q-21 0 -34 11.5t-17 25.5t-11.5 25.5t-18.5 11.5q-24 0 -38 -68h-60q30 134 104 134q21 0 34 -11.5t17.5 -25.5
t12 -25.5t18.5 -11.5q22 0 38 68h60q-30 -134 -105 -134z" />
    <glyph glyph-name="ograve" unicode="&#xf2;" horiz-adv-x="417" 
d="M173 -12q-76 0 -116 46t-40 131q0 73 25 147t78 128.5t122 54.5q76 0 116 -46t40 -131q0 -73 -25 -147t-78 -128.5t-122 -54.5zM180 88q45 0 74.5 83t29.5 149q0 75 -48 75q-32 0 -57.5 -45.5t-36.5 -97.5t-11 -90q0 -74 49 -74zM322 556h-72l-74 144h98z" />
    <glyph glyph-name="oacute" unicode="&#xf3;" horiz-adv-x="417" 
d="M444 700l-138 -144h-74l111 144h101zM173 -12q-76 0 -116 46t-40 131q0 73 25 147t78 128.5t122 54.5q76 0 116 -46t40 -131q0 -73 -25 -147t-78 -128.5t-122 -54.5zM180 88q45 0 74.5 83t29.5 149q0 75 -48 75q-32 0 -57.5 -45.5t-36.5 -97.5t-11 -90q0 -74 49 -74z" />
    <glyph glyph-name="ocircumflex" unicode="&#xf4;" horiz-adv-x="417" 
d="M394 556h-60l-35 92l-70 -92h-65l95 144h102zM173 -12q-76 0 -116 46t-40 131q0 73 25 147t78 128.5t122 54.5q76 0 116 -46t40 -131q0 -73 -25 -147t-78 -128.5t-122 -54.5zM180 88q45 0 74.5 83t29.5 149q0 75 -48 75q-32 0 -57.5 -45.5t-36.5 -97.5t-11 -90
q0 -74 49 -74z" />
    <glyph glyph-name="otilde" unicode="&#xf5;" horiz-adv-x="417" 
d="M173 -12q-76 0 -116 46t-40 131q0 73 25 147t78 128.5t122 54.5q76 0 116 -46t40 -131q0 -73 -25 -147t-78 -128.5t-122 -54.5zM180 88q45 0 74.5 83t29.5 149q0 75 -48 75q-32 0 -57.5 -45.5t-36.5 -97.5t-11 -90q0 -74 49 -74zM331 554q-21 0 -34 11.5t-17 25.5
t-11.5 25.5t-18.5 11.5q-24 0 -38 -68h-60q30 134 104 134q21 0 34 -11.5t17.5 -25.5t12 -25.5t18.5 -11.5q22 0 38 68h60q-30 -134 -105 -134z" />
    <glyph glyph-name="odieresis" unicode="&#xf6;" horiz-adv-x="417" 
d="M433 616q0 -27 -21 -47.5t-49 -20.5q-23 0 -38.5 15.5t-15.5 39.5q0 26 21 47t48 21q23 0 39 -16t16 -39zM271 616q0 -27 -21.5 -47.5t-48.5 -20.5q-23 0 -39 15.5t-16 39.5q0 26 21 47t49 21q23 0 39 -16t16 -39zM173 -12q-76 0 -116 46t-40 131q0 73 25 147t78 128.5
t122 54.5q76 0 116 -46t40 -131q0 -73 -25 -147t-78 -128.5t-122 -54.5zM180 88q45 0 74.5 83t29.5 149q0 75 -48 75q-32 0 -57.5 -45.5t-36.5 -97.5t-11 -90q0 -74 49 -74z" />
    <glyph glyph-name="divide" unicode="&#xf7;" horiz-adv-x="374" 
d="M358 302h-316l15 71h316zM170 135q-22 0 -37 14.5t-15 36.5q0 25 18.5 43.5t43.5 18.5q22 0 37 -15.5t15 -36.5q0 -25 -18.5 -43t-43.5 -18zM235 425q-22 0 -37 15t-15 37q0 25 18.5 43t43.5 18q22 0 37 -15t15 -37q0 -25 -18.5 -43t-43.5 -18z" />
    <glyph glyph-name="oslash" unicode="&#xf8;" horiz-adv-x="417" 
d="M45 0h-67l56 69q-17 40 -17 96q0 73 25 147t78 128.5t122 54.5q67 0 108 -38l21 26h66l-57 -70q18 -39 18 -95q0 -73 -25 -147t-78 -128.5t-122 -54.5q-68 0 -108 37zM180 88q28 0 51 36.5t35 81t16 87.5l-144 -178q11 -27 42 -27zM236 395q-41 0 -68.5 -66.5
t-35.5 -138.5l145 177q-11 28 -41 28z" />
    <glyph glyph-name="ugrave" unicode="&#xf9;" 
d="M99 483h113l-76 -342q-4 -18 -4 -22q0 -31 31 -31q41 0 77 62l74 333h114l-107 -483h-114l14 61q-52 -73 -122 -73q-41 0 -65 22t-24 59q0 17 4 29zM325 556h-72l-74 144h98z" />
    <glyph glyph-name="uacute" unicode="&#xfa;" 
d="M445 700l-138 -144h-74l111 144h101zM99 483h113l-76 -342q-4 -18 -4 -22q0 -31 31 -31q41 0 77 62l74 333h114l-107 -483h-114l14 61q-52 -73 -122 -73q-41 0 -65 22t-24 59q0 17 4 29z" />
    <glyph glyph-name="ucircumflex" unicode="&#xfb;" 
d="M395 556h-60l-35 92l-70 -92h-65l95 144h102zM99 483h113l-76 -342q-4 -18 -4 -22q0 -31 31 -31q41 0 77 62l74 333h114l-107 -483h-114l14 61q-52 -73 -122 -73q-41 0 -65 22t-24 59q0 17 4 29z" />
    <glyph glyph-name="udieresis" unicode="&#xfc;" 
d="M435 616q0 -27 -21 -47.5t-49 -20.5q-23 0 -38.5 15.5t-15.5 39.5q0 26 21 47t48 21q23 0 39 -16t16 -39zM273 616q0 -27 -21.5 -47.5t-48.5 -20.5q-23 0 -39 15.5t-16 39.5q0 26 21 47t49 21q23 0 39 -16t16 -39zM99 483h113l-76 -342q-4 -18 -4 -22q0 -31 31 -31
q41 0 77 62l74 333h114l-107 -483h-114l14 61q-52 -73 -122 -73q-41 0 -65 22t-24 59q0 17 4 29z" />
    <glyph glyph-name="yacute" unicode="&#xfd;" horiz-adv-x="380" 
d="M-54 -184l37 93q7 -5 23 -5q23 0 41 34l27 54l-19 491h116l-7 -340l145 340h123l-277 -568q-33 -64 -64 -87.5t-76 -23.5q-43 0 -69 12zM421 700l-138 -144h-74l111 144h101z" />
    <glyph glyph-name="thorn" unicode="&#xfe;" horiz-adv-x="423" 
d="M213 -12q-74 0 -95 74l-54 -246h-113l188 851h113l-54 -242q46 70 103 70q106 0 106 -154q0 -50 -12 -108.5t-35 -114.5t-61.5 -93t-85.5 -37zM188 88q32 0 57 46.5t35.5 99.5t10.5 92q0 69 -48 69q-17 0 -35 -16.5t-29 -40.5l-43 -192q4 -26 18 -42t34 -16z" />
    <glyph glyph-name="ydieresis" unicode="&#xff;" horiz-adv-x="380" 
d="M-54 -184l37 93q7 -5 23 -5q23 0 41 34l27 54l-19 491h116l-7 -340l145 340h123l-277 -568q-33 -64 -64 -87.5t-76 -23.5q-43 0 -69 12zM411 616q0 -27 -21 -47.5t-49 -20.5q-23 0 -38.5 15.5t-15.5 39.5q0 26 21 47t48 21q23 0 39 -16t16 -39zM249 616
q0 -27 -21.5 -47.5t-48.5 -20.5q-23 0 -39 15.5t-16 39.5q0 26 21 47t49 21q23 0 39 -16t16 -39z" />
    <glyph glyph-name="Amacron" unicode="&#x100;" horiz-adv-x="424" 
d="M370 0h-126l7 123h-126l-46 -123h-133l286 667h145zM260 234l17 292l-112 -292h95zM449 731h-258l14 66h258z" />
    <glyph glyph-name="amacron" unicode="&#x101;" horiz-adv-x="423" 
d="M208 495q75 0 96 -74l14 62h112l-107 -483h-113l14 58q-46 -70 -103 -70q-52 0 -79.5 39.5t-27.5 114.5q0 69 20 147.5t66.5 142t107.5 63.5zM234 395q-33 0 -58 -46.5t-35 -99t-10 -92.5q0 -69 48 -69q36 0 64 57l43 192q-4 26 -18.5 42t-33.5 16zM408 564h-258l14 66
h258z" />
    <glyph glyph-name="Abreve" unicode="&#x102;" horiz-adv-x="424" 
d="M370 0h-126l7 123h-126l-46 -123h-133l286 667h145zM260 234l17 292l-112 -292h95zM451 775q-60 -63 -138 -63q-77 0 -111 63l59 40q16 -37 63 -37t79 37z" />
    <glyph glyph-name="abreve" unicode="&#x103;" horiz-adv-x="423" 
d="M208 495q75 0 96 -74l14 62h112l-107 -483h-113l14 58q-46 -70 -103 -70q-52 0 -79.5 39.5t-27.5 114.5q0 69 20 147.5t66.5 142t107.5 63.5zM234 395q-33 0 -58 -46.5t-35 -99t-10 -92.5q0 -69 48 -69q36 0 64 57l43 192q-4 26 -18.5 42t-33.5 16zM411 608
q-60 -63 -138 -63q-77 0 -111 63l59 40q16 -37 63 -37t79 37z" />
    <glyph glyph-name="Aogonek" unicode="&#x104;" horiz-adv-x="424" 
d="M339 -109l41 -29q-30 -48 -77 -48q-33 0 -53 16.5t-20 48.5q0 63 65 121h-51l7 123h-126l-46 -123h-133l286 667h145l-7 -667q-83 -53 -83 -115q0 -22 21 -22q20 0 31 28zM260 234l17 292l-112 -292h95z" />
    <glyph glyph-name="aogonek" unicode="&#x105;" horiz-adv-x="423" 
d="M292 -109l41 -29q-30 -48 -77 -48q-33 0 -53 16.5t-20 48.5q0 63 65 121h-38l14 58q-46 -70 -103 -70q-52 0 -79.5 39.5t-27.5 114.5q0 69 20 147.5t66.5 142t107.5 63.5q75 0 96 -74l14 62h112l-107 -483q-83 -53 -83 -115q0 -22 21 -22t31 28zM234 395q-33 0 -58 -46.5
t-35 -99t-10 -92.5q0 -69 48 -69q36 0 64 57l43 192q-4 26 -18.5 42t-33.5 16z" />
    <glyph glyph-name="Cacute" unicode="&#x106;" horiz-adv-x="429" 
d="M512 872l-138 -144h-74l111 144h101zM203 -12q-83 0 -128 55.5t-45 156.5q0 49 9.5 109t31.5 126t53.5 119.5t81 88.5t107.5 35q81 0 120 -55t42 -136l-117 -22q-5 101 -53 101q-43 0 -78.5 -73.5t-51.5 -156t-16 -139.5q0 -97 51 -97q42 0 83 81l101 -42
q-71 -151 -191 -151z" />
    <glyph glyph-name="cacute" unicode="&#x107;" horiz-adv-x="344" 
d="M452 700l-138 -144h-74l111 144h101zM179 -12q-76 0 -119 46.5t-43 133.5q0 75 26 148.5t80.5 126t123.5 52.5q78 0 122 -49l-54 -85q-20 34 -59 34q-53 0 -87.5 -71t-34.5 -144q0 -92 71 -92q32 0 59 27l19 -90q-43 -37 -104 -37z" />
    <glyph glyph-name="Ccircumflex" unicode="&#x108;" horiz-adv-x="429" 
d="M460 723h-60l-35 92l-70 -92h-65l95 144h102zM203 -12q-83 0 -128 55.5t-45 156.5q0 49 9.5 109t31.5 126t53.5 119.5t81 88.5t107.5 35q81 0 120 -55t42 -136l-117 -22q-5 101 -53 101q-43 0 -78.5 -73.5t-51.5 -156t-16 -139.5q0 -97 51 -97q42 0 83 81l101 -42
q-71 -151 -191 -151z" />
    <glyph glyph-name="ccircumflex" unicode="&#x109;" horiz-adv-x="344" 
d="M401 556h-60l-35 92l-70 -92h-65l95 144h102zM179 -12q-76 0 -119 46.5t-43 133.5q0 75 26 148.5t80.5 126t123.5 52.5q78 0 122 -49l-54 -85q-20 34 -59 34q-53 0 -87.5 -71t-34.5 -144q0 -92 71 -92q32 0 59 27l19 -90q-43 -37 -104 -37z" />
    <glyph glyph-name="Cdotaccent" unicode="&#x10a;" horiz-adv-x="429" 
d="M203 -12q-83 0 -128 55.5t-45 156.5q0 49 9.5 109t31.5 126t53.5 119.5t81 88.5t107.5 35q81 0 120 -55t42 -136l-117 -22q-5 101 -53 101q-43 0 -78.5 -73.5t-51.5 -156t-16 -139.5q0 -97 51 -97q42 0 83 81l101 -42q-71 -151 -191 -151zM419 783q0 -28 -21 -48.5
t-49 -20.5q-24 0 -39.5 16t-15.5 39q0 28 21 48.5t49 20.5q24 0 39.5 -16t15.5 -39z" />
    <glyph glyph-name="cdotaccent" unicode="&#x10b;" horiz-adv-x="344" 
d="M179 -12q-76 0 -119 46.5t-43 133.5q0 75 26 148.5t80.5 126t123.5 52.5q78 0 122 -49l-54 -85q-20 34 -59 34q-53 0 -87.5 -71t-34.5 -144q0 -92 71 -92q32 0 59 27l19 -90q-43 -37 -104 -37zM360 616q0 -28 -21 -48.5t-49 -20.5q-24 0 -39.5 16t-15.5 39q0 28 21 48.5
t49 20.5q24 0 39.5 -16t15.5 -39z" />
    <glyph glyph-name="Ccaron" unicode="&#x10c;" horiz-adv-x="429" 
d="M399 723h-102l-34 144h61l33 -92l72 92h64zM203 -12q-83 0 -128 55.5t-45 156.5q0 49 9.5 109t31.5 126t53.5 119.5t81 88.5t107.5 35q81 0 120 -55t42 -136l-117 -22q-5 101 -53 101q-43 0 -78.5 -73.5t-51.5 -156t-16 -139.5q0 -97 51 -97q42 0 83 81l101 -42
q-71 -151 -191 -151z" />
    <glyph glyph-name="ccaron" unicode="&#x10d;" horiz-adv-x="344" 
d="M338 556h-102l-34 144h61l33 -92l72 92h64zM179 -12q-76 0 -119 46.5t-43 133.5q0 75 26 148.5t80.5 126t123.5 52.5q78 0 122 -49l-54 -85q-20 34 -59 34q-53 0 -87.5 -71t-34.5 -144q0 -92 71 -92q32 0 59 27l19 -90q-43 -37 -104 -37z" />
    <glyph glyph-name="Dcaron" unicode="&#x10e;" horiz-adv-x="476" 
d="M405 723h-102l-34 144h61l33 -92l72 92h64zM165 0h-167l147 667h163q70 0 119.5 -56.5t49.5 -160.5q0 -36 -6.5 -79.5t-20 -96t-38 -100t-57.5 -87t-82 -63.5t-108 -24zM148 111h39q41 0 74.5 40.5t51.5 98.5t27 110.5t9 87.5q0 54 -18.5 81t-46.5 27h-37z" />
    <glyph glyph-name="dcaron" unicode="&#x10f;" horiz-adv-x="536" 
d="M620 619q0 -44 -32.5 -88.5t-80.5 -68.5l-33 35q60 29 79 73q-2 -1 -9 -1q-18 0 -31.5 13t-13.5 34q0 26 20 45t45 19q24 0 40 -16t16 -45zM208 495q75 0 96 -74l54 246h113l-148 -667h-113l14 58q-46 -70 -103 -70q-52 0 -79.5 39.5t-27.5 114.5q0 69 20 147.5t66.5 142
t107.5 63.5zM234 395q-33 0 -58 -46.5t-35 -99t-10 -92.5q0 -69 48 -69q36 0 64 57l43 192q-4 26 -18.5 42t-33.5 16z" />
    <glyph glyph-name="Dcroat" unicode="&#x110;" horiz-adv-x="498" 
d="M188 0h-167l62 283h-59l23 101h58l63 283h163q70 0 119.5 -56.5t49.5 -160.5q0 -36 -6.5 -79.5t-20 -96t-38 -100t-57.5 -87t-82 -63.5t-108 -24zM279 283h-70l-38 -172h39q41 0 74.5 40.5t51.5 98.5t27 110.5t9 87.5q0 54 -18.5 81t-46.5 27h-37l-38 -172h69z" />
    <glyph glyph-name="dcroat" unicode="&#x111;" horiz-adv-x="425" 
d="M208 495q75 0 96 -74l24 110h-117l15 66h116l16 70h113l-16 -70h40l-14 -66h-40l-118 -531h-113l14 58q-46 -70 -103 -70q-52 0 -79.5 39.5t-27.5 114.5q0 69 20 147.5t66.5 142t107.5 63.5zM234 395q-33 0 -58 -46.5t-35 -99t-10 -92.5q0 -69 48 -69q36 0 64 57l43 192
q-4 26 -18.5 42t-33.5 16z" />
    <glyph glyph-name="Emacron" unicode="&#x112;" horiz-adv-x="378" 
d="M290 0h-292l147 667h292l-24 -111h-166l-36 -161h159l-25 -111h-158l-39 -173h166zM434 731h-258l14 66h258z" />
    <glyph glyph-name="emacron" unicode="&#x113;" horiz-adv-x="404" 
d="M182 -12q-78 0 -121.5 47.5t-43.5 134.5q0 47 14 101t40.5 105t71 85t98.5 34q75 0 112 -43t37 -122q0 -45 -19 -126h-245q-5 -18 -5 -41q0 -34 19.5 -58.5t62.5 -24.5t83 42l40 -70q-61 -64 -144 -64zM141 284h141q6 32 6 49q0 31 -15 50.5t-40 19.5q-37 0 -60.5 -36.5
t-31.5 -82.5zM413 564h-258l14 66h258z" />
    <glyph glyph-name="Ebreve" unicode="&#x114;" horiz-adv-x="378" 
d="M290 0h-292l147 667h292l-24 -111h-166l-36 -161h159l-25 -111h-158l-39 -173h166zM437 775q-60 -63 -138 -63q-77 0 -111 63l59 40q16 -37 63 -37t79 37z" />
    <glyph glyph-name="ebreve" unicode="&#x115;" horiz-adv-x="404" 
d="M182 -12q-78 0 -121.5 47.5t-43.5 134.5q0 47 14 101t40.5 105t71 85t98.5 34q75 0 112 -43t37 -122q0 -45 -19 -126h-245q-5 -18 -5 -41q0 -34 19.5 -58.5t62.5 -24.5t83 42l40 -70q-61 -64 -144 -64zM141 284h141q6 32 6 49q0 31 -15 50.5t-40 19.5q-37 0 -60.5 -36.5
t-31.5 -82.5zM415 608q-60 -63 -138 -63q-77 0 -111 63l59 40q16 -37 63 -37t79 37z" />
    <glyph glyph-name="Edotaccent" unicode="&#x116;" horiz-adv-x="378" 
d="M290 0h-292l147 667h292l-24 -111h-166l-36 -161h159l-25 -111h-158l-39 -173h166zM379 787q0 -28 -21 -48.5t-49 -20.5q-24 0 -39.5 16t-15.5 39q0 28 21 48.5t49 20.5q24 0 39.5 -16t15.5 -39z" />
    <glyph glyph-name="edotaccent" unicode="&#x117;" horiz-adv-x="404" 
d="M182 -12q-78 0 -121.5 47.5t-43.5 134.5q0 47 14 101t40.5 105t71 85t98.5 34q75 0 112 -43t37 -122q0 -45 -19 -126h-245q-5 -18 -5 -41q0 -34 19.5 -58.5t62.5 -24.5t83 42l40 -70q-61 -64 -144 -64zM141 284h141q6 32 6 49q0 31 -15 50.5t-40 19.5q-37 0 -60.5 -36.5
t-31.5 -82.5zM356 616q0 -28 -21 -48.5t-49 -20.5q-24 0 -39.5 16t-15.5 39q0 28 21 48.5t49 20.5q24 0 39.5 -16t15.5 -39z" />
    <glyph glyph-name="Eogonek" unicode="&#x118;" horiz-adv-x="378" 
d="M290 0q-83 -53 -83 -115q0 -22 21 -22q20 0 31 28l41 -29q-30 -48 -77 -48q-33 0 -53 16.5t-20 48.5q0 63 65 121h-217l147 667h292l-24 -111h-166l-36 -161h159l-25 -111h-158l-39 -173h166z" />
    <glyph glyph-name="eogonek" unicode="&#x119;" horiz-adv-x="404" 
d="M217 -109l41 -29q-30 -48 -77 -48q-33 0 -53 16.5t-20 48.5q0 58 53 110q-69 6 -106.5 53t-37.5 128q0 47 14 101t40.5 105t71 85t98.5 34q75 0 112 -43t37 -122q0 -45 -19 -126h-245q-5 -18 -5 -41q0 -34 19.5 -58.5t62.5 -24.5t83 42l40 -70q-36 -37 -78 -52
q-83 -53 -83 -115q0 -22 21 -22q20 0 31 28zM141 284h141q6 32 6 49q0 31 -15 50.5t-40 19.5q-37 0 -60.5 -36.5t-31.5 -82.5z" />
    <glyph glyph-name="Ecaron" unicode="&#x11a;" horiz-adv-x="378" 
d="M357 723h-102l-34 144h61l33 -92l72 92h64zM290 0h-292l147 667h292l-24 -111h-166l-36 -161h159l-25 -111h-158l-39 -173h166z" />
    <glyph glyph-name="ecaron" unicode="&#x11b;" horiz-adv-x="404" 
d="M335 556h-102l-34 144h61l33 -92l72 92h64zM182 -12q-78 0 -121.5 47.5t-43.5 134.5q0 47 14 101t40.5 105t71 85t98.5 34q75 0 112 -43t37 -122q0 -45 -19 -126h-245q-5 -18 -5 -41q0 -34 19.5 -58.5t62.5 -24.5t83 42l40 -70q-61 -64 -144 -64zM141 284h141q6 32 6 49
q0 31 -15 50.5t-40 19.5q-37 0 -60.5 -36.5t-31.5 -82.5z" />
    <glyph glyph-name="Gcircumflex" unicode="&#x11c;" horiz-adv-x="453" 
d="M461 723h-60l-35 92l-70 -92h-65l95 144h102zM203 -12q-84 0 -128.5 56t-44.5 156q0 53 10 114.5t33 126.5t55 117.5t80.5 86t104.5 33.5q79 0 116 -49.5t40 -125.5l-107 -26q-4 89 -56 89q-32 0 -61 -41.5t-47 -101.5t-28.5 -121t-10.5 -105q0 -52 12 -74.5t39 -22.5
q33 0 68 44l23 108h-75l25 111h186l-59 -265q-71 -110 -175 -110z" />
    <glyph glyph-name="gcircumflex" unicode="&#x11d;" horiz-adv-x="423" 
d="M387 548h-60l-35 92l-70 -92h-65l95 144h102zM120 -196q-105 0 -157 61l59 86q34 -49 95 -49q71 0 95 106l16 67q-42 -70 -103 -70q-52 0 -80.5 37t-28.5 109q0 49 11 105t33 111.5t61 91.5t88 36q30 0 59 -19.5t36 -54.5l14 62h112l-104 -467q-26 -117 -78 -164.5
t-128 -47.5zM181 105q18 0 35.5 16.5t29.5 40.5l39 175q-4 24 -19 41t-34 17q-45 0 -72 -77t-27 -144q0 -69 48 -69z" />
    <glyph glyph-name="Gbreve" unicode="&#x11e;" horiz-adv-x="453" 
d="M203 -12q-84 0 -128.5 56t-44.5 156q0 53 10 114.5t33 126.5t55 117.5t80.5 86t104.5 33.5q79 0 116 -49.5t40 -125.5l-107 -26q-4 89 -56 89q-32 0 -61 -41.5t-47 -101.5t-28.5 -121t-10.5 -105q0 -52 12 -74.5t39 -22.5q33 0 68 44l23 108h-75l25 111h186l-59 -265
q-71 -110 -175 -110zM478 775q-60 -63 -138 -63q-77 0 -111 63l59 40q16 -37 63 -37t79 37z" />
    <glyph glyph-name="gbreve" unicode="&#x11f;" horiz-adv-x="423" 
d="M120 -196q-105 0 -157 61l59 86q34 -49 95 -49q71 0 95 106l16 67q-42 -70 -103 -70q-52 0 -80.5 37t-28.5 109q0 49 11 105t33 111.5t61 91.5t88 36q30 0 59 -19.5t36 -54.5l14 62h112l-104 -467q-26 -117 -78 -164.5t-128 -47.5zM181 105q18 0 35.5 16.5t29.5 40.5
l39 175q-4 24 -19 41t-34 17q-45 0 -72 -77t-27 -144q0 -69 48 -69zM409 608q-60 -63 -138 -63q-77 0 -111 63l59 40q16 -37 63 -37t79 37z" />
    <glyph glyph-name="Gdotaccent" unicode="&#x120;" horiz-adv-x="453" 
d="M203 -12q-84 0 -128.5 56t-44.5 156q0 53 10 114.5t33 126.5t55 117.5t80.5 86t104.5 33.5q79 0 116 -49.5t40 -125.5l-107 -26q-4 89 -56 89q-32 0 -61 -41.5t-47 -101.5t-28.5 -121t-10.5 -105q0 -52 12 -74.5t39 -22.5q33 0 68 44l23 108h-75l25 111h186l-59 -265
q-71 -110 -175 -110zM419 783q0 -28 -21 -48.5t-49 -20.5q-24 0 -39.5 16t-15.5 39q0 28 21 48.5t49 20.5q24 0 39.5 -16t15.5 -39z" />
    <glyph glyph-name="gdotaccent" unicode="&#x121;" horiz-adv-x="423" 
d="M120 -196q-105 0 -157 61l59 86q34 -49 95 -49q71 0 95 106l16 67q-42 -70 -103 -70q-52 0 -80.5 37t-28.5 109q0 49 11 105t33 111.5t61 91.5t88 36q30 0 59 -19.5t36 -54.5l14 62h112l-104 -467q-26 -117 -78 -164.5t-128 -47.5zM181 105q18 0 35.5 16.5t29.5 40.5
l39 175q-4 24 -19 41t-34 17q-45 0 -72 -77t-27 -144q0 -69 48 -69zM350 616q0 -28 -21 -48.5t-49 -20.5q-24 0 -39.5 16t-15.5 39q0 28 21 48.5t49 20.5q24 0 39.5 -16t15.5 -39z" />
    <glyph glyph-name="Gcommaaccent" unicode="&#x122;" horiz-adv-x="453" 
d="M215 -121q0 -44 -32.5 -88.5t-80.5 -68.5l-33 35q60 29 79 73q-2 -1 -9 -1q-18 0 -31.5 13t-13.5 34q0 26 20 45t45 19q24 0 40 -16t16 -45zM203 -12q-84 0 -128.5 56t-44.5 156q0 53 10 114.5t33 126.5t55 117.5t80.5 86t104.5 33.5q79 0 116 -49.5t40 -125.5l-107 -26
q-4 89 -56 89q-32 0 -61 -41.5t-47 -101.5t-28.5 -121t-10.5 -105q0 -52 12 -74.5t39 -22.5q33 0 68 44l23 108h-75l25 111h186l-59 -265q-71 -110 -175 -110z" />
    <glyph glyph-name="gcommaaccent" unicode="&#x123;" horiz-adv-x="423" 
d="M226 608q0 44 33 89.5t82 69.5l32 -36q-25 -13 -47.5 -32.5t-30.5 -39.5h7q20 0 33.5 -13.5t13.5 -35.5q0 -25 -20.5 -44t-45.5 -19q-24 0 -40.5 16t-16.5 45zM120 -196q-105 0 -157 61l59 86q34 -49 95 -49q71 0 95 106l16 67q-42 -70 -103 -70q-52 0 -80.5 37
t-28.5 109q0 49 11 105t33 111.5t61 91.5t88 36q30 0 59 -19.5t36 -54.5l14 62h112l-104 -467q-26 -117 -78 -164.5t-128 -47.5zM181 105q18 0 35.5 16.5t29.5 40.5l39 175q-4 24 -19 41t-34 17q-45 0 -72 -77t-27 -144q0 -69 48 -69z" />
    <glyph glyph-name="Hcircumflex" unicode="&#x124;" horiz-adv-x="484" 
d="M463 723h-60l-35 92l-70 -92h-65l95 144h102zM378 0h-126l63 288h-128l-63 -288h-126l147 667h126l-59 -269h128l59 269h126z" />
    <glyph glyph-name="hcircumflex" unicode="&#x125;" 
d="M433 723h-60l-35 92l-70 -92h-65l95 144h102zM321 0h-114l77 343q0 1 1 9.5t1 10.5q0 32 -30 32q-40 0 -79 -64l-72 -331h-114l148 667h113l-54 -244q53 72 122 72q42 0 65.5 -22.5t23.5 -58.5q0 -9 -4 -29z" />
    <glyph glyph-name="Hbar" unicode="&#x126;" horiz-adv-x="509" 
d="M391 0h-126l63 288h-128l-63 -288h-126l110 501h-51l14 66h52l22 100h126l-22 -100h128l22 100h126l-22 -100h49l-15 -66h-49zM225 398h128l22 103h-128z" />
    <glyph glyph-name="hbar" unicode="&#x127;" horiz-adv-x="423" 
d="M324 0h-114l77 343q0 1 1 9.5t1 10.5q0 32 -30 32q-40 0 -79 -64l-72 -331h-114l117 530h-41l15 66h41l16 71h113l-16 -71h117l-14 -66h-118l-23 -107q53 72 122 72q42 0 65.5 -22.5t23.5 -58.5q0 -9 -4 -29z" />
    <glyph glyph-name="Itilde" unicode="&#x128;" horiz-adv-x="230" 
d="M124 0h-126l147 667h126zM274 721q-21 0 -34 11.5t-17 25.5t-11.5 25.5t-18.5 11.5q-24 0 -38 -68h-60q30 134 104 134q21 0 34 -11.5t17.5 -25.5t12 -25.5t18.5 -11.5q22 0 38 68h60q-30 -134 -105 -134z" />
    <glyph glyph-name="itilde" unicode="&#x129;" horiz-adv-x="204" 
d="M105 0h-114l108 483h113zM224 554q-21 0 -34 11.5t-17 25.5t-11.5 25.5t-18.5 11.5q-24 0 -38 -68h-60q30 134 104 134q21 0 34 -11.5t17.5 -25.5t12 -25.5t18.5 -11.5q22 0 38 68h60q-30 -134 -105 -134z" />
    <glyph glyph-name="Imacron" unicode="&#x12a;" horiz-adv-x="230" 
d="M124 0h-126l147 667h126zM352 731h-258l14 66h258z" />
    <glyph glyph-name="imacron" unicode="&#x12b;" horiz-adv-x="204" 
d="M105 0h-114l108 483h113zM303 564h-258l14 66h258z" />
    <glyph glyph-name="Ibreve" unicode="&#x12c;" horiz-adv-x="230" 
d="M124 0h-126l147 667h126zM354 775q-60 -63 -138 -63q-77 0 -111 63l59 40q16 -37 63 -37t79 37z" />
    <glyph glyph-name="ibreve" unicode="&#x12d;" horiz-adv-x="204" 
d="M105 0h-114l108 483h113zM305 608q-60 -63 -138 -63q-77 0 -111 63l59 40q16 -37 63 -37t79 37z" />
    <glyph glyph-name="Iogonek" unicode="&#x12e;" horiz-adv-x="230" 
d="M93 -109l41 -29q-30 -48 -77 -48q-33 0 -53 16.5t-20 48.5q0 63 65 121h-51l147 667h126l-147 -667q-83 -53 -83 -115q0 -22 21 -22q20 0 31 28z" />
    <glyph glyph-name="iogonek" unicode="&#x12f;" horiz-adv-x="204" 
d="M74 -109l41 -29q-30 -48 -77 -48q-33 0 -53 16.5t-20 48.5q0 63 65 121h-39l108 483h113l-107 -483q-83 -53 -83 -115q0 -22 21 -22q20 0 31 28zM174 540q-27 0 -45 17t-18 42q0 35 25 56.5t54 21.5q27 0 44.5 -17.5t17.5 -41.5q0 -35 -24.5 -56.5t-53.5 -21.5z" />
    <glyph glyph-name="Idotaccent" unicode="&#x130;" horiz-adv-x="230" 
d="M124 0h-126l147 667h126zM295 783q0 -28 -21 -48.5t-49 -20.5q-24 0 -39.5 16t-15.5 39q0 28 21 48.5t49 20.5q24 0 39.5 -16t15.5 -39z" />
    <glyph glyph-name="dotlessi" unicode="&#x131;" horiz-adv-x="204" 
d="M105 0h-114l108 483h113z" />
    <glyph glyph-name="IJ" unicode="&#x132;" horiz-adv-x="578" 
d="M124 0h-126l147 667h126zM317 -12q-82 0 -124 43l51 100q22 -31 62 -31q63 0 79 73l110 494h126l-111 -500q-21 -94 -67 -136.5t-126 -42.5z" />
    <glyph glyph-name="ij" unicode="&#x133;" horiz-adv-x="408" 
d="M174 540q-27 0 -45 17t-18 42q0 35 25 56.5t54 21.5q27 0 44.5 -17.5t17.5 -41.5q0 -35 -24.5 -56.5t-53.5 -21.5zM105 0h-114l108 483h113zM149 -196q-52 0 -74 28l44 83q7 -13 24 -13q31 0 42 56l118 525h113l-118 -525q-17 -81 -50.5 -117.5t-98.5 -36.5zM378 540
q-27 0 -45 17t-18 42q0 35 25 56.5t54 21.5q27 0 44.5 -17.5t17.5 -41.5q0 -35 -24.5 -56.5t-53.5 -21.5z" />
    <glyph glyph-name="Jcircumflex" unicode="&#x134;" horiz-adv-x="348" 
d="M454 723h-60l-35 92l-70 -92h-65l95 144h102zM87 -12q-82 0 -124 43l51 100q22 -31 62 -31q63 0 79 73l110 494h126l-111 -500q-21 -94 -67 -136.5t-126 -42.5z" />
    <glyph glyph-name="jcircumflex" unicode="&#x135;" horiz-adv-x="204" 
d="M287 556h-60l-35 92l-70 -92h-65l95 144h102zM-55 -196q-52 0 -74 28l44 83q7 -13 24 -13q31 0 42 56l118 525h113l-118 -525q-17 -81 -50.5 -117.5t-98.5 -36.5z" />
    <glyph glyph-name="Kcommaaccent" unicode="&#x136;" horiz-adv-x="471" 
d="M234 -121q0 -44 -32.5 -88.5t-80.5 -68.5l-33 35q60 29 79 73q-2 -1 -9 -1q-18 0 -31.5 13t-13.5 34q0 26 20 45t45 19q24 0 40 -16t16 -45zM414 0h-133l-58 257l-62 -87l-37 -170h-126l147 667h126l-64 -291l197 291h145l-232 -314z" />
    <glyph glyph-name="kcommaaccent" unicode="&#x137;" horiz-adv-x="403" 
d="M192 -121q0 -44 -32.5 -88.5t-80.5 -68.5l-33 35q60 29 79 73q-2 -1 -9 -1q-18 0 -31.5 13t-13.5 34q0 26 20 45t45 19q24 0 40 -16t16 -45zM344 0h-122l-30 196l-63 -83l-24 -113h-114l148 667h113l-89 -400l157 216h126l-162 -214z" />
    <glyph glyph-name="kgreenlandic" unicode="&#x138;" horiz-adv-x="403" 
d="M344 0h-122l-30 196l-63 -83l-24 -113h-114l108 483h113l-49 -216l157 216h126l-162 -214z" />
    <glyph glyph-name="Lacute" unicode="&#x139;" horiz-adv-x="365" 
d="M470 867l-138 -144h-74l111 144h101zM290 0h-292l147 667h126l-123 -556h166z" />
    <glyph glyph-name="lacute" unicode="&#x13a;" horiz-adv-x="204" 
d="M374 867l-138 -144h-74l111 144h101zM105 0h-114l148 667h113z" />
    <glyph glyph-name="Lcommaaccent" unicode="&#x13b;" horiz-adv-x="365" 
d="M182 -121q0 -44 -32.5 -88.5t-80.5 -68.5l-33 35q60 29 79 73q-2 -1 -9 -1q-18 0 -31.5 13t-13.5 34q0 26 20 45t45 19q24 0 40 -16t16 -45zM290 0h-292l147 667h126l-123 -556h166z" />
    <glyph glyph-name="lcommaaccent" unicode="&#x13c;" horiz-adv-x="204" 
d="M77 -121q0 -44 -32.5 -88.5t-80.5 -68.5l-33 35q60 29 79 73q-2 -1 -9 -1q-18 0 -31.5 13t-13.5 34q0 26 20 45t45 19q24 0 40 -16t16 -45zM105 0h-114l148 667h113z" />
    <glyph glyph-name="Lcaron" unicode="&#x13d;" horiz-adv-x="365" 
d="M427 620q0 -44 -32.5 -88.5t-80.5 -68.5l-33 35q60 29 79 73q-2 -1 -9 -1q-18 0 -31.5 13t-13.5 34q0 26 20 45t45 19q24 0 40 -16t16 -45zM290 0h-292l147 667h126l-123 -556h166z" />
    <glyph glyph-name="lcaron" unicode="&#x13e;" horiz-adv-x="316" 
d="M414 620q0 -44 -32.5 -88.5t-80.5 -68.5l-33 35q60 29 79 73q-2 -1 -9 -1q-18 0 -31.5 13t-13.5 34q0 26 20 45t45 19q24 0 40 -16t16 -45zM105 0h-114l148 667h113z" />
    <glyph glyph-name="Ldot" unicode="&#x13f;" horiz-adv-x="429" 
d="M290 0h-292l147 667h126l-123 -556h166zM344 267q-28 0 -47.5 20t-19.5 48q0 33 24 57t57 24q28 0 47.5 -20t19.5 -48q0 -33 -24 -57t-57 -24z" />
    <glyph glyph-name="ldot" unicode="&#x140;" horiz-adv-x="357" 
d="M105 0h-114l148 667h113zM273 170q-28 0 -47.5 20t-19.5 48q0 33 24 57t57 24q28 0 47.5 -20t19.5 -48q0 -33 -24 -57t-57 -24z" />
    <glyph glyph-name="Lslash" unicode="&#x141;" horiz-adv-x="374" 
d="M10 219l23 104l52 26l70 318h126l-54 -245l66 34l-23 -104l-66 -34l-46 -207h166l-24 -111h-292l54 245z" />
    <glyph glyph-name="lslash" unicode="&#x142;" horiz-adv-x="241" 
d="M13 234l19 84l54 28l72 321h113l-57 -256l54 27l-18 -83l-54 -28l-72 -327h-114l58 262z" />
    <glyph glyph-name="Nacute" unicode="&#x143;" horiz-adv-x="484" 
d="M515 867l-138 -144h-74l111 144h101zM378 0h-119l-54 370l-81 -370h-126l147 667h126l49 -355l79 355h126z" />
    <glyph glyph-name="nacute" unicode="&#x144;" 
d="M446 700l-138 -144h-74l111 144h101zM321 0h-114l77 343q0 2 1 10t1 10q0 32 -30 32q-40 0 -79 -64l-72 -331h-114l108 483h113l-14 -60q53 72 122 72q41 0 65 -22t24 -59q0 -17 -4 -29z" />
    <glyph glyph-name="Ncommaaccent" unicode="&#x145;" horiz-adv-x="484" 
d="M220 -121q0 -44 -32.5 -88.5t-80.5 -68.5l-33 35q60 29 79 73q-2 -1 -9 -1q-18 0 -31.5 13t-13.5 34q0 26 20 45t45 19q24 0 40 -16t16 -45zM378 0h-119l-54 370l-81 -370h-126l147 667h126l49 -355l79 355h126z" />
    <glyph glyph-name="ncommaaccent" unicode="&#x146;" 
d="M186 -121q0 -44 -32.5 -88.5t-80.5 -68.5l-33 35q60 29 79 73q-2 -1 -9 -1q-18 0 -31.5 13t-13.5 34q0 26 20 45t45 19q24 0 40 -16t16 -45zM321 0h-114l77 343q0 2 1 10t1 10q0 32 -30 32q-40 0 -79 -64l-72 -331h-114l108 483h113l-14 -60q53 72 122 72q41 0 65 -22
t24 -59q0 -17 -4 -29z" />
    <glyph glyph-name="Ncaron" unicode="&#x147;" horiz-adv-x="484" 
d="M402 723h-102l-34 144h61l33 -92l72 92h64zM378 0h-119l-54 370l-81 -370h-126l147 667h126l49 -355l79 355h126z" />
    <glyph glyph-name="ncaron" unicode="&#x148;" 
d="M332 556h-102l-34 144h61l33 -92l72 92h64zM321 0h-114l77 343q0 2 1 10t1 10q0 32 -30 32q-40 0 -79 -64l-72 -331h-114l108 483h113l-14 -60q53 72 122 72q41 0 65 -22t24 -59q0 -17 -4 -29z" />
    <glyph glyph-name="napostrophe" unicode="&#x149;" 
d="M247 698q0 -44 -32.5 -88.5t-80.5 -68.5l-33 35q60 29 79 73q-2 -1 -9 -1q-18 0 -31.5 13t-13.5 34q0 26 20 45t45 19q24 0 40 -16t16 -45zM321 0h-114l77 343q0 2 1 10t1 10q0 32 -30 32q-40 0 -79 -64l-72 -331h-114l108 483h113l-14 -60q53 72 122 72q41 0 65 -22
t24 -59q0 -17 -4 -29z" />
    <glyph glyph-name="Eng" unicode="&#x14a;" horiz-adv-x="484" 
d="M181 -196q-80 0 -124 43l49 95q21 -29 64 -29q64 0 79 73l7 34l-51 350l-81 -370h-126l147 667h126l49 -355l79 355h126l-151 -684q-21 -94 -66.5 -136.5t-126.5 -42.5z" />
    <glyph glyph-name="eng" unicode="&#x14b;" 
d="M405 385l-94 -425q-19 -85 -54 -120.5t-96 -35.5q-49 0 -74 28l44 85q7 -13 23 -13q31 0 44 56l86 383q2 14 2 20q0 32 -30 32q-41 0 -79 -64l-72 -331h-114l108 483h113l-15 -63q23 32 55.5 53.5t67.5 21.5q41 0 65 -22t24 -59q0 -11 -4 -29z" />
    <glyph glyph-name="Omacron" unicode="&#x14c;" horiz-adv-x="478" 
d="M476 731h-258l14 66h258zM203 -12q-86 0 -129.5 59t-43.5 153q0 63 16.5 140t48.5 155t89.5 130.5t128.5 52.5q86 0 129.5 -60t43.5 -154q0 -63 -16.5 -140t-48.5 -154.5t-89.5 -129.5t-128.5 -52zM210 100q32 0 61 42.5t47 102.5t28.5 120.5t10.5 101.5q0 99 -52 99
q-32 0 -61 -42.5t-47 -103t-28 -121t-10 -102.5q0 -97 51 -97z" />
    <glyph glyph-name="omacron" unicode="&#x14d;" horiz-adv-x="417" 
d="M410 564h-258l14 66h258zM173 -12q-76 0 -116 46t-40 131q0 73 25 147t78 128.5t122 54.5q76 0 116 -46t40 -131q0 -73 -25 -147t-78 -128.5t-122 -54.5zM180 88q45 0 74.5 83t29.5 149q0 75 -48 75q-32 0 -57.5 -45.5t-36.5 -97.5t-11 -90q0 -74 49 -74z" />
    <glyph glyph-name="Obreve" unicode="&#x14e;" horiz-adv-x="478" 
d="M203 -12q-86 0 -129.5 59t-43.5 153q0 63 16.5 140t48.5 155t89.5 130.5t128.5 52.5q86 0 129.5 -60t43.5 -154q0 -63 -16.5 -140t-48.5 -154.5t-89.5 -129.5t-128.5 -52zM210 100q32 0 61 42.5t47 102.5t28.5 120.5t10.5 101.5q0 99 -52 99q-32 0 -61 -42.5t-47 -103
t-28 -121t-10 -102.5q0 -97 51 -97zM478 775q-60 -63 -138 -63q-77 0 -111 63l59 40q16 -37 63 -37t79 37z" />
    <glyph glyph-name="obreve" unicode="&#x14f;" horiz-adv-x="417" 
d="M173 -12q-76 0 -116 46t-40 131q0 73 25 147t78 128.5t122 54.5q76 0 116 -46t40 -131q0 -73 -25 -147t-78 -128.5t-122 -54.5zM180 88q45 0 74.5 83t29.5 149q0 75 -48 75q-32 0 -57.5 -45.5t-36.5 -97.5t-11 -90q0 -74 49 -74zM412 608q-60 -63 -138 -63q-77 0 -111 63
l59 40q16 -37 63 -37t79 37z" />
    <glyph glyph-name="Ohungarumlaut" unicode="&#x150;" horiz-adv-x="478" 
d="M403 867l-112 -144h-61l86 144h87zM531 867l-112 -144h-61l86 144h87zM203 -12q-86 0 -129.5 59t-43.5 153q0 63 16.5 140t48.5 155t89.5 130.5t128.5 52.5q86 0 129.5 -60t43.5 -154q0 -63 -16.5 -140t-48.5 -154.5t-89.5 -129.5t-128.5 -52zM210 100q32 0 61 42.5
t47 102.5t28.5 120.5t10.5 101.5q0 99 -52 99q-32 0 -61 -42.5t-47 -103t-28 -121t-10 -102.5q0 -97 51 -97z" />
    <glyph glyph-name="ohungarumlaut" unicode="&#x151;" horiz-adv-x="417" 
d="M340 700l-112 -144h-61l86 144h87zM468 700l-112 -144h-61l86 144h87zM173 -12q-76 0 -116 46t-40 131q0 73 25 147t78 128.5t122 54.5q76 0 116 -46t40 -131q0 -73 -25 -147t-78 -128.5t-122 -54.5zM180 88q45 0 74.5 83t29.5 149q0 75 -48 75q-32 0 -57.5 -45.5
t-36.5 -97.5t-11 -90q0 -74 49 -74z" />
    <glyph glyph-name="OE" unicode="&#x152;" horiz-adv-x="633" 
d="M548 0h-292l10 50q-41 -62 -103 -62q-61 0 -97.5 56.5t-36.5 155.5q0 66 18 145t51 155t88.5 126.5t122.5 50.5q27 0 51 -14.5t33 -45.5l10 50h292l-25 -111h-165l-36 -161h159l-24 -111h-159l-38 -173h165zM298 191l64 285q-4 89 -53 89q-35 0 -65 -42t-48.5 -102.5
t-28.5 -120.5t-10 -103q0 -97 50 -97q23 0 47.5 24t43.5 67z" />
    <glyph glyph-name="oe" unicode="&#x153;" horiz-adv-x="650" 
d="M618 204h-242q-4 -12 -4 -41q0 -83 79 -83q41 0 83 43l39 -71q-61 -64 -142 -64q-100 0 -123 89q-61 -89 -137 -89q-77 0 -115.5 46.5t-38.5 130.5q0 77 25.5 151.5t78 126.5t119.5 52q86 0 118 -86q52 86 133 86q70 0 108 -41t38 -124q0 -54 -19 -126zM393 284h135
q7 19 7 49q0 70 -53 70q-37 0 -59 -35.5t-30 -83.5zM280 320q0 75 -47 75q-31 0 -56 -44t-35.5 -95.5t-10.5 -93.5q0 -74 47 -74q32 0 56.5 45.5t35 97t10.5 89.5z" />
    <glyph glyph-name="Racute" unicode="&#x154;" horiz-adv-x="460" 
d="M503 867l-138 -144h-74l111 144h101zM372 0h-131l-18 245h-45l-54 -245h-126l147 667h166q69 0 114 -48.5t45 -120.5q0 -80 -39 -145.5t-90 -84.5zM202 356h40q44 0 70 39t26 91q0 70 -56 70h-35z" />
    <glyph glyph-name="racute" unicode="&#x155;" horiz-adv-x="280" 
d="M392 700l-138 -144h-74l111 144h101zM105 0h-114l108 483h113l-14 -62q44 74 125 74l-26 -112q-12 4 -26 4q-54 0 -95 -64z" />
    <glyph glyph-name="Rcommaaccent" unicode="&#x156;" horiz-adv-x="460" 
d="M210 -121q0 -44 -32.5 -88.5t-80.5 -68.5l-33 35q60 29 79 73q-2 -1 -9 -1q-18 0 -31.5 13t-13.5 34q0 26 20 45t45 19q24 0 40 -16t16 -45zM372 0h-131l-18 245h-45l-54 -245h-126l147 667h166q69 0 114 -48.5t45 -120.5q0 -80 -39 -145.5t-90 -84.5zM202 356h40
q44 0 70 39t26 91q0 70 -56 70h-35z" />
    <glyph glyph-name="rcommaaccent" unicode="&#x157;" horiz-adv-x="280" 
d="M136 -121q0 -44 -32.5 -88.5t-80.5 -68.5l-33 35q60 29 79 73q-2 -1 -9 -1q-18 0 -31.5 13t-13.5 34q0 26 20 45t45 19q24 0 40 -16t16 -45zM105 0h-114l108 483h113l-14 -62q44 74 125 74l-26 -112q-12 4 -26 4q-54 0 -95 -64z" />
    <glyph glyph-name="Rcaron" unicode="&#x158;" horiz-adv-x="460" 
d="M390 723h-102l-34 144h61l33 -92l72 92h64zM372 0h-131l-18 245h-45l-54 -245h-126l147 667h166q69 0 114 -48.5t45 -120.5q0 -80 -39 -145.5t-90 -84.5zM202 356h40q44 0 70 39t26 91q0 70 -56 70h-35z" />
    <glyph glyph-name="rcaron" unicode="&#x159;" horiz-adv-x="280" 
d="M282 556h-102l-34 144h61l33 -92l72 92h64zM105 0h-114l108 483h113l-14 -62q44 74 125 74l-26 -112q-12 4 -26 4q-54 0 -95 -64z" />
    <glyph glyph-name="Sacute" unicode="&#x15a;" horiz-adv-x="396" 
d="M472 867l-138 -144h-74l111 144h101zM151 -12q-54 0 -101.5 21t-71.5 55l72 93q16 -25 44.5 -41t56.5 -16q32 0 55 25t23 66q0 23 -15.5 46.5t-37.5 45.5t-44.5 46.5t-38 59t-15.5 73.5q0 90 60 153t146 63q44 0 85.5 -16.5t68.5 -47.5l-67 -93q-34 45 -88 45
q-33 0 -52.5 -23.5t-19.5 -56.5q0 -26 23.5 -56.5t51.5 -56.5t51.5 -69t23.5 -91q0 -94 -59 -159.5t-151 -65.5z" />
    <glyph glyph-name="sacute" unicode="&#x15b;" horiz-adv-x="346" 
d="M408 700l-138 -144h-74l111 144h101zM133 -12q-52 0 -95 20.5t-62 50.5l62 73q34 -55 96 -55q26 0 44 17t18 41q0 20 -23 41t-50 37.5t-50 48.5t-23 73q0 66 43.5 113t120.5 47q42 0 81 -17.5t64 -48.5l-59 -71q-10 18 -35.5 33t-51.5 15q-25 0 -40 -14t-15 -37
q0 -18 23.5 -38t51.5 -37t51.5 -50t23.5 -74q0 -69 -48.5 -118.5t-126.5 -49.5z" />
    <glyph glyph-name="Scircumflex" unicode="&#x15c;" horiz-adv-x="396" 
d="M421 723h-60l-35 92l-70 -92h-65l95 144h102zM151 -12q-54 0 -101.5 21t-71.5 55l72 93q16 -25 44.5 -41t56.5 -16q32 0 55 25t23 66q0 23 -15.5 46.5t-37.5 45.5t-44.5 46.5t-38 59t-15.5 73.5q0 90 60 153t146 63q44 0 85.5 -16.5t68.5 -47.5l-67 -93q-34 45 -88 45
q-33 0 -52.5 -23.5t-19.5 -56.5q0 -26 23.5 -56.5t51.5 -56.5t51.5 -69t23.5 -91q0 -94 -59 -159.5t-151 -65.5z" />
    <glyph glyph-name="scircumflex" unicode="&#x15d;" horiz-adv-x="346" 
d="M359 556h-60l-35 92l-70 -92h-65l95 144h102zM133 -12q-52 0 -95 20.5t-62 50.5l62 73q34 -55 96 -55q26 0 44 17t18 41q0 20 -23 41t-50 37.5t-50 48.5t-23 73q0 66 43.5 113t120.5 47q42 0 81 -17.5t64 -48.5l-59 -71q-10 18 -35.5 33t-51.5 15q-25 0 -40 -14t-15 -37
q0 -18 23.5 -38t51.5 -37t51.5 -50t23.5 -74q0 -69 -48.5 -118.5t-126.5 -49.5z" />
    <glyph glyph-name="Scedilla" unicode="&#x15e;" horiz-adv-x="396" 
d="M101 -195q-57 0 -93 39l31 44q24 -32 62 -32q18 0 30 11.5t12 27.5q0 23 -22 23q-14 0 -24 -13l-38 24l39 65q-82 16 -120 70l72 93q16 -25 44.5 -41t56.5 -16q32 0 55 25t23 66q0 23 -15.5 46.5t-37.5 45.5t-44.5 46.5t-38 59t-15.5 73.5q0 90 60 153t146 63
q44 0 85.5 -16.5t68.5 -47.5l-67 -93q-34 45 -88 45q-33 0 -52.5 -23.5t-19.5 -56.5q0 -26 23.5 -56.5t51.5 -56.5t51.5 -69t23.5 -91q0 -93 -59 -158.5t-151 -66.5l-25 -41q10 10 24 10q22 0 36.5 -16t14.5 -42q0 -40 -28.5 -67t-71.5 -27z" />
    <glyph glyph-name="scedilla" unicode="&#x15f;" horiz-adv-x="346" 
d="M81 -195q-57 0 -93 39l31 44q24 -32 62 -32q18 0 30 11.5t12 27.5q0 23 -22 23q-14 0 -24 -13l-38 24l39 65q-72 17 -102 65l62 73q34 -55 96 -55q26 0 44 17t18 41q0 20 -23 41t-50 37.5t-50 48.5t-23 73q0 66 43.5 113t120.5 47q42 0 81 -17.5t64 -48.5l-59 -71
q-10 18 -35.5 33t-51.5 15q-25 0 -40 -14t-15 -37q0 -18 23.5 -38t51.5 -37t51.5 -50t23.5 -74q0 -69 -48.5 -118.5t-126.5 -49.5h-2l-25 -41q10 10 24 10q22 0 36.5 -16t14.5 -42q0 -40 -28.5 -67t-71.5 -27z" />
    <glyph glyph-name="Scaron" unicode="&#x160;" horiz-adv-x="396" 
d="M359 723h-102l-34 144h61l33 -92l72 92h64zM151 -12q-54 0 -101.5 21t-71.5 55l72 93q16 -25 44.5 -41t56.5 -16q32 0 55 25t23 66q0 23 -15.5 46.5t-37.5 45.5t-44.5 46.5t-38 59t-15.5 73.5q0 90 60 153t146 63q44 0 85.5 -16.5t68.5 -47.5l-67 -93q-34 45 -88 45
q-33 0 -52.5 -23.5t-19.5 -56.5q0 -26 23.5 -56.5t51.5 -56.5t51.5 -69t23.5 -91q0 -94 -59 -159.5t-151 -65.5z" />
    <glyph glyph-name="scaron" unicode="&#x161;" horiz-adv-x="346" 
d="M297 556h-102l-34 144h61l33 -92l72 92h64zM133 -12q-52 0 -95 20.5t-62 50.5l62 73q34 -55 96 -55q26 0 44 17t18 41q0 20 -23 41t-50 37.5t-50 48.5t-23 73q0 66 43.5 113t120.5 47q42 0 81 -17.5t64 -48.5l-59 -71q-10 18 -35.5 33t-51.5 15q-25 0 -40 -14t-15 -37
q0 -18 23.5 -38t51.5 -37t51.5 -50t23.5 -74q0 -69 -48.5 -118.5t-126.5 -49.5z" />
    <glyph glyph-name="Tcommaaccent" unicode="&#x162;" horiz-adv-x="364" 
d="M165 -121q0 -44 -32.5 -88.5t-80.5 -68.5l-33 35q60 29 79 73q-2 -1 -9 -1q-18 0 -31.5 13t-13.5 34q0 26 20 45t45 19q24 0 40 -16t16 -45zM191 0h-126l123 556h-101l24 111h328l-24 -111h-101z" />
    <glyph glyph-name="tcommaaccent" unicode="&#x163;" horiz-adv-x="258" 
d="M109 -121q0 -44 -32.5 -88.5t-80.5 -68.5l-33 35q60 29 79 73q-2 -1 -9 -1q-18 0 -31.5 13t-13.5 34q0 26 20 45t45 19q24 0 40 -16t16 -45zM139 -12q-112 0 -112 87q0 19 5 42l61 268h-46l22 98h45l29 132h113l-29 -132h61l-22 -98h-61l-55 -248q-3 -21 -3 -23
q0 -26 26 -26q13 0 25 8l2 -92q-21 -16 -61 -16z" />
    <glyph glyph-name="Tcaron" unicode="&#x164;" horiz-adv-x="364" 
d="M337 723h-102l-34 144h61l33 -92l72 92h64zM191 0h-126l123 556h-101l24 111h328l-24 -111h-101z" />
    <glyph glyph-name="tcaron" unicode="&#x165;" horiz-adv-x="306" 
d="M429 698q0 -44 -32.5 -88.5t-80.5 -68.5l-33 35q60 29 79 73q-2 -1 -9 -1q-18 0 -31.5 13t-13.5 34q0 26 20 45t45 19q24 0 40 -16t16 -45zM139 -12q-112 0 -112 87q0 19 5 42l61 268h-46l22 98h45l29 132h113l-29 -132h61l-22 -98h-61l-55 -248q-3 -21 -3 -23
q0 -26 26 -26q13 0 25 8l2 -92q-21 -16 -61 -16z" />
    <glyph glyph-name="Tbar" unicode="&#x166;" horiz-adv-x="364" 
d="M191 0h-126l60 271h-70l15 66h69l49 219h-101l24 111h328l-24 -111h-101l-49 -219h70l-14 -66h-70z" />
    <glyph glyph-name="tbar" unicode="&#x167;" horiz-adv-x="258" 
d="M139 -12q-112 0 -112 87q0 19 5 42l22 97h-45l14 65h46l24 106h-46l22 98h45l29 132h113l-29 -132h61l-22 -98h-61l-24 -106h36l-15 -65h-35l-17 -77q-3 -21 -3 -23q0 -26 26 -26q13 0 25 8l2 -92q-21 -16 -61 -16z" />
    <glyph glyph-name="Utilde" unicode="&#x168;" horiz-adv-x="484" 
d="M209 -12q-74 0 -123 45.5t-49 120.5q0 21 5 44l103 469h126l-106 -480q-3 -21 -3 -29q0 -28 15.5 -43.5t40.5 -15.5q57 0 76 88l105 480h126l-104 -474q-23 -104 -79 -154.5t-133 -50.5zM400 721q-21 0 -34 11.5t-17 25.5t-11.5 25.5t-18.5 11.5q-24 0 -38 -68h-60
q30 134 104 134q21 0 34 -11.5t17.5 -25.5t12 -25.5t18.5 -11.5q22 0 38 68h60q-30 -134 -105 -134z" />
    <glyph glyph-name="utilde" unicode="&#x169;" 
d="M99 483h113l-76 -342q-4 -18 -4 -22q0 -31 31 -31q41 0 77 62l74 333h114l-107 -483h-114l14 61q-52 -73 -122 -73q-41 0 -65 22t-24 59q0 17 4 29zM332 554q-21 0 -34 11.5t-17 25.5t-11.5 25.5t-18.5 11.5q-24 0 -38 -68h-60q30 134 104 134q21 0 34 -11.5t17.5 -25.5
t12 -25.5t18.5 -11.5q22 0 38 68h60q-30 -134 -105 -134z" />
    <glyph glyph-name="Umacron" unicode="&#x16a;" horiz-adv-x="484" 
d="M209 -12q-74 0 -123 45.5t-49 120.5q0 21 5 44l103 469h126l-106 -480q-3 -21 -3 -29q0 -28 15.5 -43.5t40.5 -15.5q57 0 76 88l105 480h126l-104 -474q-23 -104 -79 -154.5t-133 -50.5zM479 731h-258l14 66h258z" />
    <glyph glyph-name="umacron" unicode="&#x16b;" 
d="M99 483h113l-76 -342q-4 -18 -4 -22q0 -31 31 -31q41 0 77 62l74 333h114l-107 -483h-114l14 61q-52 -73 -122 -73q-41 0 -65 22t-24 59q0 17 4 29zM411 564h-258l14 66h258z" />
    <glyph glyph-name="Ubreve" unicode="&#x16c;" horiz-adv-x="484" 
d="M209 -12q-74 0 -123 45.5t-49 120.5q0 21 5 44l103 469h126l-106 -480q-3 -21 -3 -29q0 -28 15.5 -43.5t40.5 -15.5q57 0 76 88l105 480h126l-104 -474q-23 -104 -79 -154.5t-133 -50.5zM480 775q-60 -63 -138 -63q-77 0 -111 63l59 40q16 -37 63 -37t79 37z" />
    <glyph glyph-name="ubreve" unicode="&#x16d;" 
d="M99 483h113l-76 -342q-4 -18 -4 -22q0 -31 31 -31q41 0 77 62l74 333h114l-107 -483h-114l14 61q-52 -73 -122 -73q-41 0 -65 22t-24 59q0 17 4 29zM413 608q-60 -63 -138 -63q-77 0 -111 63l59 40q16 -37 63 -37t79 37z" />
    <glyph glyph-name="Uring" unicode="&#x16e;" horiz-adv-x="484" 
d="M351 691q-35 0 -57.5 23t-22.5 58q0 40 30 69.5t69 29.5q35 0 57.5 -23t22.5 -58q0 -39 -30 -69t-69 -30zM356 741q18 0 31.5 13.5t13.5 31.5q0 15 -10 25.5t-24 10.5q-18 0 -31.5 -13.5t-13.5 -31.5q0 -15 9.5 -25.5t24.5 -10.5zM209 -12q-74 0 -123 45.5t-49 120.5
q0 21 5 44l103 469h126l-106 -480q-3 -21 -3 -29q0 -28 15.5 -43.5t40.5 -15.5q57 0 76 88l105 480h126l-104 -474q-23 -104 -79 -154.5t-133 -50.5z" />
    <glyph glyph-name="uring" unicode="&#x16f;" 
d="M286 536q-35 0 -57.5 23t-22.5 58q0 40 30 69.5t69 29.5q35 0 57.5 -23t22.5 -58q0 -39 -30 -69t-69 -30zM291 586q18 0 31.5 13.5t13.5 31.5q0 15 -10 25.5t-24 10.5q-18 0 -31.5 -13.5t-13.5 -31.5q0 -15 9.5 -25.5t24.5 -10.5zM99 483h113l-76 -342q-4 -18 -4 -22
q0 -31 31 -31q41 0 77 62l74 333h114l-107 -483h-114l14 61q-52 -73 -122 -73q-41 0 -65 22t-24 59q0 17 4 29z" />
    <glyph glyph-name="Uhungarumlaut" unicode="&#x170;" horiz-adv-x="484" 
d="M209 -12q-74 0 -123 45.5t-49 120.5q0 21 5 44l103 469h126l-106 -480q-3 -21 -3 -29q0 -28 15.5 -43.5t40.5 -15.5q57 0 76 88l105 480h126l-104 -474q-23 -104 -79 -154.5t-133 -50.5zM407 867l-112 -144h-61l86 144h87zM535 867l-112 -144h-61l86 144h87z" />
    <glyph glyph-name="uhungarumlaut" unicode="&#x171;" 
d="M99 483h113l-76 -342q-4 -18 -4 -22q0 -31 31 -31q41 0 77 62l74 333h114l-107 -483h-114l14 61q-52 -73 -122 -73q-41 0 -65 22t-24 59q0 17 4 29zM341 700l-112 -144h-61l86 144h87zM469 700l-112 -144h-61l86 144h87z" />
    <glyph glyph-name="Uogonek" unicode="&#x172;" horiz-adv-x="484" 
d="M248 -109l41 -29q-30 -48 -77 -48q-33 0 -53 16.5t-20 48.5q0 57 53 110q-68 5 -111.5 49.5t-43.5 115.5q0 21 5 44l103 469h126l-106 -480q-3 -21 -3 -29q0 -28 15.5 -43.5t40.5 -15.5q57 0 76 88l105 480h126l-104 -474q-34 -154 -142 -193q-83 -53 -83 -115
q0 -22 21 -22q20 0 31 28z" />
    <glyph glyph-name="uogonek" unicode="&#x173;" 
d="M99 483h113l-76 -342q-4 -18 -4 -22q0 -31 31 -31q41 0 77 62l74 333h114l-107 -483h-1q-83 -53 -83 -115q0 -22 21 -22q20 0 31 28l41 -29q-30 -48 -77 -48q-33 0 -53 16.5t-20 48.5q0 63 65 121h-38l14 61q-52 -73 -122 -73q-41 0 -65 22t-24 59q0 17 4 29z" />
    <glyph glyph-name="Wcircumflex" unicode="&#x174;" horiz-adv-x="616" 
d="M527 723h-60l-35 92l-70 -92h-65l95 144h102zM437 0h-128l40 430l-150 -430h-128l33 667h126l-43 -447l163 447h99l-34 -447l153 447h130z" />
    <glyph glyph-name="wcircumflex" unicode="&#x175;" horiz-adv-x="608" 
d="M483 556h-60l-35 92l-70 -92h-65l95 144h102zM437 0h-118l3 329l-141 -329h-119l-4 483h114l-12 -330l137 330h107l-4 -330l135 330h121z" />
    <glyph glyph-name="Ycircumflex" unicode="&#x176;" horiz-adv-x="430" 
d="M437 723h-60l-35 92l-70 -92h-65l95 144h102zM224 0h-125l60 276l-70 391h128l26 -269l146 269h138l-242 -391z" />
    <glyph glyph-name="ycircumflex" unicode="&#x177;" horiz-adv-x="380" 
d="M-54 -184l37 93q7 -5 23 -5q23 0 41 34l27 54l-19 491h116l-7 -340l145 340h123l-277 -568q-33 -64 -64 -87.5t-76 -23.5q-43 0 -69 12zM371 556h-60l-35 92l-70 -92h-65l95 144h102z" />
    <glyph glyph-name="Ydieresis" unicode="&#x178;" horiz-adv-x="430" 
d="M478 783q0 -27 -21 -47.5t-49 -20.5q-23 0 -38.5 15.5t-15.5 39.5q0 26 21 47t48 21q23 0 39 -16t16 -39zM316 783q0 -27 -21.5 -47.5t-48.5 -20.5q-23 0 -39 15.5t-16 39.5q0 26 21 47t49 21q23 0 39 -16t16 -39zM224 0h-125l60 276l-70 391h128l26 -269l146 269h138
l-242 -391z" />
    <glyph glyph-name="Zacute" unicode="&#x179;" horiz-adv-x="376" 
d="M456 867l-138 -144h-74l111 144h101zM293 0h-318l23 106l262 450h-162l25 111h310l-23 -102l-265 -454h172z" />
    <glyph glyph-name="zacute" unicode="&#x17a;" horiz-adv-x="335" 
d="M400 700l-138 -144h-74l111 144h101zM254 0h-281l18 85l206 300h-139l22 98h277l-18 -82l-208 -302h145z" />
    <glyph glyph-name="Zdotaccent" unicode="&#x17b;" horiz-adv-x="376" 
d="M293 0h-318l23 106l262 450h-162l25 111h310l-23 -102l-265 -454h172zM364 783q0 -28 -21 -48.5t-49 -20.5q-24 0 -39.5 16t-15.5 39q0 28 21 48.5t49 20.5q24 0 39.5 -16t15.5 -39z" />
    <glyph glyph-name="zdotaccent" unicode="&#x17c;" horiz-adv-x="335" 
d="M254 0h-281l18 85l206 300h-139l22 98h277l-18 -82l-208 -302h145zM309 616q0 -28 -21 -48.5t-49 -20.5q-24 0 -39.5 16t-15.5 39q0 28 21 48.5t49 20.5q24 0 39.5 -16t15.5 -39z" />
    <glyph glyph-name="Zcaron" unicode="&#x17d;" horiz-adv-x="376" 
d="M344 723h-102l-34 144h61l33 -92l72 92h64zM293 0h-318l23 106l262 450h-162l25 111h310l-23 -102l-265 -454h172z" />
    <glyph glyph-name="zcaron" unicode="&#x17e;" horiz-adv-x="335" 
d="M287 556h-102l-34 144h61l33 -92l72 92h64zM254 0h-281l18 85l206 300h-139l22 98h277l-18 -82l-208 -302h145z" />
    <glyph glyph-name="longs" unicode="&#x17f;" horiz-adv-x="250" 
d="M120 0h-113l86 385h-45l22 98h44l10 50q32 144 145 144q66 0 94 -30l-46 -84q-13 16 -32 16q-36 0 -48 -46z" />
    <glyph glyph-name="florin" unicode="&#x192;" horiz-adv-x="397" 
d="M87 -161h-128l89 404h-42v100h65l45 204q13 61 49.5 95.5t93.5 34.5q61 0 94 -26l-35 -97q-11 12 -32 12q-38 0 -48 -50l-38 -173h78v-100h-101z" />
    <glyph glyph-name="Ohorn" unicode="&#x1a0;" horiz-adv-x="478" 
d="M203 -12q-86 0 -129.5 59t-43.5 153q0 63 16.5 140t48.5 155t89.5 130.5t128.5 52.5q107 0 150 -95q36 25 47 53h-7q-17 0 -29 12t-12 32q0 23 17.5 40t40.5 17q21 0 36 -15t15 -40q0 -39 -26.5 -77.5t-67.5 -62.5q9 -36 9 -78q0 -63 -16.5 -140t-48.5 -154.5
t-89.5 -129.5t-128.5 -52zM210 100q32 0 61 42.5t47 102.5t28.5 120.5t10.5 101.5q0 99 -52 99q-32 0 -61 -42.5t-47 -103t-28 -121t-10 -102.5q0 -97 51 -97z" />
    <glyph glyph-name="ohorn" unicode="&#x1a1;" horiz-adv-x="417" 
d="M467 548q0 -37 -24.5 -74t-62.5 -61q18 -39 18 -95q0 -73 -25 -147t-78 -128.5t-122 -54.5q-76 0 -116 46t-40 131q0 73 25 147t78 128.5t122 54.5q75 0 116 -47q38 26 48 54h-7q-17 0 -29 12t-12 32q0 23 18 40t40 17t36.5 -15t14.5 -40zM180 88q45 0 74.5 83t29.5 149
q0 75 -48 75q-32 0 -57.5 -45.5t-36.5 -97.5t-11 -90q0 -74 49 -74z" />
    <glyph glyph-name="Uhorn" unicode="&#x1af;" horiz-adv-x="484" 
d="M629 743q0 -43 -34.5 -87t-86.5 -66l-87 -397q-23 -104 -79 -154.5t-133 -50.5q-74 0 -123 45.5t-49 120.5q0 21 5 44l103 469h126l-106 -480q-3 -21 -3 -29q0 -28 15.5 -43.5t40.5 -15.5q57 0 76 88l105 480h126l-5 -23q37 26 48 54q-1 -1 -7 -1q-17 0 -29.5 12
t-12.5 32q0 23 18 40t40 17t37 -14.5t15 -40.5z" />
    <glyph glyph-name="uhorn" unicode="&#x1b0;" 
d="M499 558q0 -34 -23 -71t-61 -62l-94 -425h-114l14 61q-52 -73 -122 -73q-41 0 -65 22t-24 59q0 17 4 29l85 385h113l-77 -343q0 -3 -1 -7.5t-1.5 -7.5t-0.5 -5q0 -32 31 -32q41 0 77 62l74 333h103q15 15 21 31q-2 -1 -8 -1q-17 0 -28.5 11.5t-11.5 31.5q0 24 17.5 40.5
t40.5 16.5q22 0 36.5 -14.5t14.5 -40.5z" />
    <glyph glyph-name="AEacute" unicode="&#x1fc;" horiz-adv-x="607" 
d="M620 867l-138 -144h-74l111 144h101zM522 0h-292l27 123h-111l-63 -123h-132l371 667h347l-25 -111h-165l-36 -161h159l-24 -111h-159l-38 -173h165zM282 234l62 280l-143 -280h81z" />
    <glyph glyph-name="aeacute" unicode="&#x1fd;" horiz-adv-x="648" 
d="M556 700l-138 -144h-74l111 144h101zM234 395q-33 0 -58 -46.5t-35 -99t-10 -92.5q0 -69 48 -69q36 0 64 57l43 192q-4 26 -18.5 42t-33.5 16zM341 80l-18 -80h-113l14 58q-46 -70 -103 -70q-52 0 -79.5 39.5t-27.5 114.5q0 69 20 147.5t66.5 142t107.5 63.5q75 0 96 -74
l14 62h112l-11 -54q44 66 104 66q110 -2 110 -156q0 -63 -19 -135h-244q-4 -19 -4 -41q0 -34 20.5 -57.5t62.5 -23.5t82 43l39 -79q-53 -58 -119 -58q-93 0 -110 92zM387 284h138q6 25 6 49q0 31 -14 50.5t-39 19.5q-37 0 -60.5 -37t-30.5 -82z" />
    <glyph glyph-name="Oslashacute" unicode="&#x1fe;" horiz-adv-x="478" 
d="M511 867l-138 -144h-74l111 144h101zM203 -12q-75 0 -118 45l-23 -33h-74l62 88q-20 46 -20 112q0 63 16.5 140t48.5 155t89.5 130.5t128.5 52.5q73 0 118 -47l25 36h73l-63 -90q20 -51 20 -113q0 -63 -16.5 -140t-48.5 -154.5t-89.5 -129.5t-128.5 -52zM305 566
q-37 0 -69.5 -56t-49.5 -125.5t-24 -137.5l190 271q-11 48 -47 48zM210 100q36 0 68.5 55.5t50.5 125t25 136.5l-190 -272q11 -45 46 -45z" />
    <glyph glyph-name="oslashacute" unicode="&#x1ff;" horiz-adv-x="417" 
d="M445 700l-138 -144h-74l111 144h101zM45 0h-67l56 69q-17 40 -17 96q0 73 25 147t78 128.5t122 54.5q67 0 108 -38l21 26h66l-57 -70q18 -39 18 -95q0 -73 -25 -147t-78 -128.5t-122 -54.5q-68 0 -108 37zM180 88q28 0 51 36.5t35 81t16 87.5l-144 -178q11 -27 42 -27z
M236 395q-41 0 -68.5 -66.5t-35.5 -138.5l145 177q-11 28 -41 28z" />
    <glyph glyph-name="Scommaaccent" unicode="&#x218;" horiz-adv-x="396" 
d="M177 -121q0 -44 -32.5 -88.5t-80.5 -68.5l-33 35q60 29 79 73q-2 -1 -9 -1q-18 0 -31.5 13t-13.5 34q0 26 20 45t45 19q24 0 40 -16t16 -45zM151 -12q-54 0 -101.5 21t-71.5 55l72 93q16 -25 44.5 -41t56.5 -16q32 0 55 25t23 66q0 23 -15.5 46.5t-37.5 45.5t-44.5 46.5
t-38 59t-15.5 73.5q0 90 60 153t146 63q44 0 85.5 -16.5t68.5 -47.5l-67 -93q-34 45 -88 45q-33 0 -52.5 -23.5t-19.5 -56.5q0 -26 23.5 -56.5t51.5 -56.5t51.5 -69t23.5 -91q0 -94 -59 -159.5t-151 -65.5z" />
    <glyph glyph-name="scommaaccent" unicode="&#x219;" horiz-adv-x="346" 
d="M149 -121q0 -44 -32.5 -88.5t-80.5 -68.5l-33 35q60 29 79 73q-2 -1 -9 -1q-18 0 -31.5 13t-13.5 34q0 26 20 45t45 19q24 0 40 -16t16 -45zM133 -12q-52 0 -95 20.5t-62 50.5l62 73q34 -55 96 -55q26 0 44 17t18 41q0 20 -23 41t-50 37.5t-50 48.5t-23 73q0 66 43.5 113
t120.5 47q42 0 81 -17.5t64 -48.5l-59 -71q-10 18 -35.5 33t-51.5 15q-25 0 -40 -14t-15 -37q0 -18 23.5 -38t51.5 -37t51.5 -50t23.5 -74q0 -69 -48.5 -118.5t-126.5 -49.5z" />
    <glyph glyph-name="uni021A" unicode="&#x21a;" horiz-adv-x="364" 
d="M165 -121q0 -44 -32.5 -88.5t-80.5 -68.5l-33 35q60 29 79 73q-2 -1 -9 -1q-18 0 -31.5 13t-13.5 34q0 26 20 45t45 19q24 0 40 -16t16 -45zM191 0h-126l123 556h-101l24 111h328l-24 -111h-101z" />
    <glyph glyph-name="uni021B" unicode="&#x21b;" horiz-adv-x="258" 
d="M109 -121q0 -44 -32.5 -88.5t-80.5 -68.5l-33 35q60 29 79 73q-2 -1 -9 -1q-18 0 -31.5 13t-13.5 34q0 26 20 45t45 19q24 0 40 -16t16 -45zM139 -12q-112 0 -112 87q0 19 5 42l61 268h-46l22 98h45l29 132h113l-29 -132h61l-22 -98h-61l-55 -248q-3 -21 -3 -23
q0 -26 26 -26q13 0 25 8l2 -92q-21 -16 -61 -16z" />
    <glyph glyph-name="uni0237" unicode="&#x237;" horiz-adv-x="204" 
d="M-55 -196q-52 0 -74 28l44 83q7 -13 24 -13q31 0 42 56l118 525h113l-118 -525q-17 -81 -50.5 -117.5t-98.5 -36.5z" />
    <glyph glyph-name="hsuperior" unicode="&#x2b0;" horiz-adv-x="310" 
d="M292 326h-83l48 215q2 8 2 16q0 22 -23 22q-25 0 -52 -43l-46 -210h-83l95 434h83l-34 -159q34 47 82 47q30 0 48.5 -15.5t18.5 -40.5q0 -2 -3 -23z" />
    <glyph glyph-name="uni02BC" unicode="&#x2bc;" horiz-adv-x="251" 
d="M281 602q0 -53 -40 -107t-98 -82l-41 42q29 14 56 37t38 47h-10q-24 0 -40 16t-16 43q0 32 25 55.5t56 23.5q29 0 49.5 -20t20.5 -55z" />
    <glyph glyph-name="circumflex" unicode="&#x2c6;" horiz-adv-x="230" 
d="M299 556h-60l-35 92l-70 -92h-65l95 144h102z" />
    <glyph glyph-name="caron" unicode="&#x2c7;" horiz-adv-x="230" 
d="M237 556h-102l-34 144h61l33 -92l72 92h64z" />
    <glyph glyph-name="uni02C9" unicode="&#x2c9;" horiz-adv-x="258" 
d="M334 591h-257l14 66h257z" />
    <glyph glyph-name="uni02CB" unicode="&#x2cb;" horiz-adv-x="178" 
d="M247 556h-72l-74 144h98z" />
    <glyph glyph-name="breve" unicode="&#x2d8;" horiz-adv-x="248" 
d="M329 608q-60 -63 -138 -63q-77 0 -111 63l59 40q16 -37 63 -37t79 37z" />
    <glyph glyph-name="dotaccent" unicode="&#x2d9;" horiz-adv-x="157" 
d="M222 616q0 -28 -21 -48.5t-49 -20.5q-24 0 -39.5 16t-15.5 39q0 28 21 48.5t49 20.5q24 0 39.5 -16t15.5 -39z" />
    <glyph glyph-name="ring" unicode="&#x2da;" horiz-adv-x="177" 
d="M163 536q-35 0 -57.5 23t-22.5 58q0 40 30 69.5t69 29.5q35 0 57.5 -23t22.5 -58q0 -39 -30 -69t-69 -30zM168 586q18 0 31.5 13.5t13.5 31.5q0 15 -10 25.5t-24 10.5q-18 0 -31.5 -13.5t-13.5 -31.5q0 -15 9.5 -25.5t24.5 -10.5z" />
    <glyph glyph-name="ogonek" unicode="&#x2db;" horiz-adv-x="155" 
d="M30 -109l41 -29q-30 -48 -77 -48q-33 0 -53 16.5t-20 48.5q0 81 102 149l38 -28q-83 -53 -83 -115q0 -22 21 -22t31 28z" />
    <glyph glyph-name="tilde" unicode="&#x2dc;" horiz-adv-x="256" 
d="M249 554q-21 0 -34 11.5t-17 25.5t-11.5 25.5t-18.5 11.5q-24 0 -38 -68h-60q30 134 104 134q21 0 34 -11.5t17.5 -25.5t12 -25.5t18.5 -11.5q22 0 38 68h60q-30 -134 -105 -134z" />
    <glyph glyph-name="hungarumlaut" unicode="&#x2dd;" horiz-adv-x="267" 
d="M240 700l-112 -144h-61l86 144h87zM368 700l-112 -144h-61l86 144h87z" />
    <glyph glyph-name="hookabovecomb" unicode="&#x309;" horiz-adv-x="155" 
d="M222 730l-39 12q21 48 66 48q57 0 57 -53q0 -36 -30 -70h-47q28 28 31 59q3 24 -15 24q-14 0 -23 -20z" />
    <glyph glyph-name="uni037E" unicode="&#x37e;" horiz-adv-x="248" 
d="M162 62q0 -54 -40 -107.5t-99 -82.5l-41 43q29 14 56 37t38 47q-1 -1 -10 -1q-24 0 -40 16t-16 44q0 32 25 55.5t56 23.5q29 0 50 -20t21 -55zM156 342q-28 0 -48 20t-20 48q0 32 24 56t57 24q28 0 47.5 -20t19.5 -48q0 -33 -24 -56.5t-56 -23.5z" />
    <glyph glyph-name="tonos" unicode="&#x384;" 
d="M229 557h-51l67 208h97z" />
    <glyph glyph-name="dieresistonos" unicode="&#x385;" 
d="M293 557h-51l67 208h98zM492 616q0 -27 -21 -47.5t-49 -20.5q-23 0 -38.5 15.5t-15.5 39.5q0 26 21 47t48 21q23 0 39 -16t16 -39zM221 616q0 -27 -21 -47.5t-49 -20.5q-23 0 -39 15.5t-16 39.5q0 26 21.5 47t48.5 21q23 0 39 -16t16 -39z" />
    <glyph glyph-name="Alphatonos" unicode="&#x386;" horiz-adv-x="424" 
d="M137 557h-51l67 208h97zM370 0h-126l7 123h-126l-46 -123h-133l286 667h145zM260 234l17 292l-112 -292h95z" />
    <glyph glyph-name="Epsilontonos" unicode="&#x388;" horiz-adv-x="429" 
d="M118 557h-51l67 208h97zM341 0h-292l147 667h292l-24 -111h-166l-36 -161h159l-25 -111h-158l-39 -173h166z" />
    <glyph glyph-name="Etatonos" unicode="&#x389;" horiz-adv-x="535" 
d="M118 557h-51l67 208h97zM429 0h-126l63 288h-128l-63 -288h-126l147 667h126l-59 -269h128l59 269h126z" />
    <glyph glyph-name="Iotatonos" unicode="&#x38a;" horiz-adv-x="281" 
d="M118 557h-51l67 208h97zM175 0h-126l147 667h126z" />
    <glyph glyph-name="Omicrontonos" unicode="&#x38c;" horiz-adv-x="501" 
d="M130 557h-51l67 208h97zM226 -12q-86 0 -129.5 59t-43.5 153q0 63 16.5 140t48.5 155t89.5 130.5t128.5 52.5q86 0 129.5 -60t43.5 -154q0 -63 -16.5 -140t-48.5 -154.5t-89.5 -129.5t-128.5 -52zM233 100q32 0 61 42.5t47 102.5t28.5 120.5t10.5 101.5q0 99 -52 99
q-32 0 -61 -42.5t-47 -103t-28 -121t-10 -102.5q0 -97 51 -97z" />
    <glyph glyph-name="Upsilontonos" unicode="&#x38e;" horiz-adv-x="524" 
d="M114 557h-51l67 208h97zM318 0h-125l60 276l-70 391h128l26 -269l146 269h138l-242 -391z" />
    <glyph glyph-name="Omegatonos" unicode="&#x38f;" horiz-adv-x="497" 
d="M130 557h-51l67 208h97zM35 111h87q-54 63 -54 165q0 59 18.5 128t50.5 130.5t83 102.5t109 41q82 0 132.5 -48.5t50.5 -150.5q0 -118 -45 -215.5t-112 -152.5h75l-24 -111h-169l24 111q48 38 83.5 159.5t35.5 196.5q0 50 -11.5 74t-40.5 24q-40 0 -75 -66.5t-52 -148.5
t-17 -145q0 -67 21 -94l-25 -111h-170z" />
    <glyph glyph-name="iotadieresistonos" unicode="&#x390;" horiz-adv-x="216" 
d="M192 557h-51l67 208h98zM391 616q0 -27 -21 -47.5t-49 -20.5q-23 0 -38.5 15.5t-15.5 39.5q0 26 21 47t48 21q23 0 39 -16t16 -39zM120 616q0 -27 -21 -47.5t-49 -20.5q-23 0 -39 15.5t-16 39.5q0 26 21.5 47t48.5 21q23 0 39 -16t16 -39zM98 -12q-58 0 -77 30t-5 93
l82 372h113l-79 -356q-8 -39 18 -39q5 0 15 2l-13 -95q-26 -7 -54 -7z" />
    <glyph glyph-name="Alpha" unicode="&#x391;" horiz-adv-x="424" 
d="M370 0h-126l7 123h-126l-46 -123h-133l286 667h145zM260 234l17 292l-112 -292h95z" />
    <glyph glyph-name="Beta" unicode="&#x392;" horiz-adv-x="452" 
d="M223 0h-225l147 667h166q75 0 116.5 -40.5t41.5 -103.5q0 -68 -38 -124t-98 -65q38 -11 57 -45t19 -76q0 -84 -48.5 -148.5t-137.5 -64.5zM211 395h46q36 0 57 32.5t21 70.5q0 58 -61 58h-27zM198 111q37 0 61 33t24 79q0 61 -61 61h-35l-39 -173h50z" />
    <glyph glyph-name="Gamma" unicode="&#x393;" horiz-adv-x="376" 
d="M124 0h-126l147 667h292l-24 -111h-166z" />
    <glyph glyph-name="uni0394" unicode="&#x394;" horiz-adv-x="424" 
d="M370 0h-424l286 667h145zM253 111l23 415l-159 -415h136z" />
    <glyph glyph-name="Epsilon" unicode="&#x395;" horiz-adv-x="378" 
d="M290 0h-292l147 667h292l-24 -111h-166l-36 -161h159l-25 -111h-158l-39 -173h166z" />
    <glyph glyph-name="Zeta" unicode="&#x396;" horiz-adv-x="376" 
d="M293 0h-318l23 106l262 450h-162l25 111h310l-23 -102l-265 -454h172z" />
    <glyph glyph-name="Eta" unicode="&#x397;" horiz-adv-x="484" 
d="M378 0h-126l63 288h-128l-63 -288h-126l147 667h126l-59 -269h128l59 269h126z" />
    <glyph glyph-name="Theta" unicode="&#x398;" horiz-adv-x="478" 
d="M304 284h-113l24 111h113zM203 -12q-86 0 -129.5 59t-43.5 153q0 63 16.5 140t48.5 155t89.5 130.5t128.5 52.5q86 0 129.5 -60t43.5 -154q0 -63 -16.5 -140t-48.5 -154.5t-89.5 -129.5t-128.5 -52zM210 100q32 0 61 42.5t47 102.5t28.5 120.5t10.5 101.5q0 99 -52 99
q-32 0 -61 -42.5t-47 -103t-28 -121t-10 -102.5q0 -97 51 -97z" />
    <glyph glyph-name="Iota" unicode="&#x399;" horiz-adv-x="230" 
d="M124 0h-126l147 667h126z" />
    <glyph glyph-name="Kappa" unicode="&#x39a;" horiz-adv-x="471" 
d="M414 0h-133l-58 257l-62 -87l-37 -170h-126l147 667h126l-64 -291l197 291h145l-232 -314z" />
    <glyph glyph-name="Lambda" unicode="&#x39b;" horiz-adv-x="424" 
d="M370 0h-126l33 526l-198 -526h-133l286 667h145z" />
    <glyph glyph-name="Mu" unicode="&#x39c;" horiz-adv-x="616" 
d="M510 0h-124l90 408l-201 -408h-42l-19 408l-90 -408h-126l147 667h158l16 -355l178 355h160z" />
    <glyph glyph-name="Nu" unicode="&#x39d;" horiz-adv-x="484" 
d="M378 0h-119l-54 370l-81 -370h-126l147 667h126l49 -355l79 355h126z" />
    <glyph glyph-name="Xi" unicode="&#x39e;" horiz-adv-x="398" 
d="M432 556h-329l24 111h329zM309 0h-328l24 111h328zM364 284h-313l24 111h314z" />
    <glyph glyph-name="Omicron" unicode="&#x39f;" horiz-adv-x="478" 
d="M203 -12q-86 0 -129.5 59t-43.5 153q0 63 16.5 140t48.5 155t89.5 130.5t128.5 52.5q86 0 129.5 -60t43.5 -154q0 -63 -16.5 -140t-48.5 -154.5t-89.5 -129.5t-128.5 -52zM210 100q32 0 61 42.5t47 102.5t28.5 120.5t10.5 101.5q0 99 -52 99q-32 0 -61 -42.5t-47 -103
t-28 -121t-10 -102.5q0 -97 51 -97z" />
    <glyph glyph-name="Pi" unicode="&#x3a0;" horiz-adv-x="484" 
d="M378 0h-126l122 556h-128l-122 -556h-126l147 667h380z" />
    <glyph glyph-name="Rho" unicode="&#x3a1;" horiz-adv-x="441" 
d="M124 0h-126l147 667h166q71 0 115 -47.5t44 -121.5q0 -103 -62.5 -178t-176.5 -75h-53zM202 356h39q45 0 71.5 39.5t26.5 90.5q0 34 -15.5 52t-41.5 18h-35z" />
    <glyph glyph-name="Sigma" unicode="&#x3a3;" horiz-adv-x="355" 
d="M231 556l64 -219l-163 -226h163l-24 -111h-293l28 129l163 228l-64 212l21 98h292l-24 -111h-163z" />
    <glyph glyph-name="Tau" unicode="&#x3a4;" horiz-adv-x="364" 
d="M191 0h-126l123 556h-101l24 111h328l-24 -111h-101z" />
    <glyph glyph-name="Upsilon" unicode="&#x3a5;" horiz-adv-x="430" 
d="M224 0h-125l60 276l-70 391h128l26 -269l146 269h138l-242 -391z" />
    <glyph glyph-name="Phi" unicode="&#x3a6;" horiz-adv-x="655" 
d="M337 0h-126l16 71q-185 32 -185 219q0 51 19.5 102t56 96t96.5 75.5t134 36.5l15 67h126l-17 -72q184 -33 184 -218q0 -111 -80.5 -205t-223.5 -106zM174 290q0 -85 78 -107l69 300q-52 -12 -86.5 -44.5t-47.5 -69.5t-13 -79zM524 377q0 83 -77 105l-69 -299
q75 17 110.5 72t35.5 122z" />
    <glyph glyph-name="Chi" unicode="&#x3a7;" horiz-adv-x="438" 
d="M386 0h-132l-36 223l-128 -223h-145l226 347l-71 320h133l28 -212l118 212h146l-216 -333z" />
    <glyph glyph-name="Psi" unicode="&#x3a8;" horiz-adv-x="679" 
d="M348 0h-125l30 131q-178 29 -178 175q0 27 8 69l67 292h127l-70 -310q-5 -22 -5 -40q0 -60 76 -77l97 427h125l-97 -426q102 21 124 116l71 310h127l-76 -332q-22 -93 -97 -147t-176 -63z" />
    <glyph glyph-name="uni03A9" unicode="&#x3a9;" horiz-adv-x="469" 
d="M7 111h87q-54 63 -54 165q0 59 18.5 128t50.5 130.5t83 102.5t109 41q82 0 132.5 -48.5t50.5 -150.5q0 -118 -45 -215.5t-112 -152.5h75l-24 -111h-169l24 111q48 38 83.5 159.5t35.5 196.5q0 50 -11.5 74t-40.5 24q-40 0 -75 -66.5t-52 -148.5t-17 -145q0 -67 21 -94
l-25 -111h-170z" />
    <glyph glyph-name="Iotadieresis" unicode="&#x3aa;" horiz-adv-x="230" 
d="M124 0h-126l147 667h126zM380 800q0 -27 -21 -47.5t-49 -20.5q-23 0 -38.5 15.5t-15.5 39.5q0 26 21 47t48 21q23 0 39 -16t16 -39zM218 800q0 -27 -21.5 -47.5t-48.5 -20.5q-23 0 -39 15.5t-16 39.5q0 26 21 47t49 21q23 0 39 -16t16 -39z" />
    <glyph glyph-name="Upsilondieresis" unicode="&#x3ab;" horiz-adv-x="430" 
d="M224 0h-125l60 276l-70 391h128l26 -269l146 269h138l-242 -391zM481 800q0 -27 -21 -47.5t-49 -20.5q-23 0 -38.5 15.5t-15.5 39.5q0 26 21 47t48 21q23 0 39 -16t16 -39zM319 800q0 -27 -21.5 -47.5t-48.5 -20.5q-23 0 -39 15.5t-16 39.5q0 26 21 47t49 21q23 0 39 -16
t16 -39z" />
    <glyph glyph-name="alphatonos" unicode="&#x3ac;" horiz-adv-x="435" 
d="M303 557h-51l67 208h97zM383 90l-12 -95q-28 -7 -54 -7q-51 0 -69.5 20.5t-17.5 60.5q-47 -81 -109 -81q-51 0 -79 41t-28 113q0 69 20 147.5t66.5 142t107.5 63.5q75 0 95 -74l15 62h112l-79 -356q-8 -39 17 -39q5 0 15 2zM179 88q36 0 64 57l43 192q-4 26 -18.5 42
t-33.5 16q-33 0 -58 -46.5t-35 -99t-10 -92.5q0 -69 48 -69z" />
    <glyph glyph-name="epsilontonos" unicode="&#x3ad;" horiz-adv-x="378" 
d="M279 557h-51l67 208h97zM143 -12q-69 0 -107.5 32.5t-38.5 86.5q0 53 38 93t93 48q-33 6 -52.5 33.5t-19.5 60.5q0 69 56 111t139 42q49 0 88.5 -19.5t60.5 -53.5l-68 -65q-26 47 -82 47q-38 0 -63.5 -18.5t-25.5 -51.5q0 -45 58 -45h76l-20 -90h-80q-34 0 -59.5 -16
t-25.5 -56q0 -22 14.5 -35t40.5 -13q71 0 120 52l44 -71q-80 -72 -186 -72z" />
    <glyph glyph-name="etatonos" unicode="&#x3ae;" 
d="M299 557h-51l67 208h97zM281 -184h-114l117 527q0 2 1 10t1 10q0 32 -30 32q-40 0 -79 -64l-72 -331h-114l108 483h113l-14 -60q53 72 122 72q41 0 65 -22t24 -59q0 -17 -4 -29z" />
    <glyph glyph-name="iotatonos" unicode="&#x3af;" horiz-adv-x="216" 
d="M197 557h-51l67 208h97zM98 -12q-58 0 -77 30t-5 93l82 372h113l-79 -356q-8 -39 18 -39q5 0 15 2l-13 -95q-26 -7 -54 -7z" />
    <glyph glyph-name="upsilondieresistonos" unicode="&#x3b0;" horiz-adv-x="419" 
d="M296 557h-51l67 208h98zM495 616q0 -27 -21 -47.5t-49 -20.5q-23 0 -38.5 15.5t-15.5 39.5q0 26 21 47t48 21q23 0 39 -16t16 -39zM224 616q0 -27 -21 -47.5t-49 -20.5q-23 0 -39 15.5t-16 39.5q0 26 21.5 47t48.5 21q23 0 39 -16t16 -39zM160 -12q-73 0 -111.5 47.5
t-20.5 130.5l70 317h113l-69 -317q-18 -78 33 -78q45 0 79.5 79t34.5 174q0 67 -12 117l114 37q18 -58 18 -142q0 -63 -14.5 -125t-43.5 -117t-78.5 -89t-112.5 -34z" />
    <glyph glyph-name="alpha" unicode="&#x3b1;" horiz-adv-x="435" 
d="M383 90l-12 -95q-28 -7 -54 -7q-51 0 -69.5 20.5t-17.5 60.5q-47 -81 -109 -81q-51 0 -79 41t-28 113q0 69 20 147.5t66.5 142t107.5 63.5q75 0 95 -74l15 62h112l-79 -356q-8 -39 17 -39q5 0 15 2zM179 88q36 0 64 57l43 192q-4 26 -18.5 42t-33.5 16q-33 0 -58 -46.5
t-35 -99t-10 -92.5q0 -69 48 -69z" />
    <glyph glyph-name="beta" unicode="&#x3b2;" horiz-adv-x="423" 
d="M214 -12q-70 0 -97 69l-52 -241h-114l142 645q24 114 82 165t130 51q68 0 104.5 -33.5t36.5 -100.5q0 -66 -33 -123.5t-96 -74.5q69 -30 69 -127q0 -91 -50.5 -160.5t-121.5 -69.5zM205 458l-69 -315q9 -55 48 -55q38 0 62 43t24 91q0 67 -44 67h-16l21 100h12
q36 0 58.5 39.5t22.5 92.5q0 55 -35 55q-58 0 -84 -118z" />
    <glyph glyph-name="gamma" unicode="&#x3b3;" horiz-adv-x="380" 
d="M152 -184h-113l26 120q68 309 -21 547h123q42 -173 16 -325q80 140 119 325h114q-26 -115 -87 -242.5t-134 -230.5z" />
    <glyph glyph-name="delta" unicode="&#x3b4;" horiz-adv-x="417" 
d="M165 -12q-78 0 -115.5 50t-37.5 126q0 149 148 262q-38 43 -38 98q0 66 50.5 110.5t128.5 44.5q93 0 139 -57l-63 -76q-10 18 -32.5 31t-50.5 13q-26 0 -44.5 -16t-18.5 -39q0 -16 16.5 -33.5t40 -37t47 -44.5t40 -67t16.5 -95q0 -39 -15 -84.5t-42 -87.5t-71.5 -70
t-97.5 -28zM283 249q0 64 -55 115q-97 -84 -97 -193q0 -83 53 -83q30 0 53.5 29t34.5 65t11 67z" />
    <glyph glyph-name="epsilon" unicode="&#x3b5;" horiz-adv-x="378" 
d="M143 -12q-69 0 -107.5 32.5t-38.5 86.5q0 53 38 93t93 48q-33 6 -52.5 33.5t-19.5 60.5q0 69 56 111t139 42q49 0 88.5 -19.5t60.5 -53.5l-68 -65q-26 47 -82 47q-38 0 -63.5 -18.5t-25.5 -51.5q0 -45 58 -45h76l-20 -90h-80q-34 0 -59.5 -16t-25.5 -56q0 -22 14.5 -35
t40.5 -13q71 0 120 52l44 -71q-80 -72 -186 -72z" />
    <glyph glyph-name="zeta" unicode="&#x3b6;" horiz-adv-x="344" 
d="M163 -31q0 19 -23 19q-60 0 -96.5 44.5t-36.5 110.5q0 95 63 205.5t206 220.5h-172l22 98h285l-18 -82q-113 -91 -188 -206t-75 -207q0 -38 17 -61t52 -23q72 0 72 -68q0 -65 -79 -177h-103q74 86 74 126z" />
    <glyph glyph-name="eta" unicode="&#x3b7;" 
d="M281 -184h-114l117 527q0 2 1 10t1 10q0 32 -30 32q-40 0 -79 -64l-72 -331h-114l108 483h113l-14 -60q53 72 122 72q41 0 65 -22t24 -59q0 -17 -4 -29z" />
    <glyph glyph-name="theta" unicode="&#x3b8;" horiz-adv-x="417" 
d="M174 -12q-68 0 -109 55t-41 157q0 110 32.5 219.5t93.5 184.5t133 75q68 0 108.5 -55t40.5 -158q0 -109 -32 -218t-93 -184.5t-133 -75.5zM181 88q59 0 107 198h-140q-12 -72 -12 -119q0 -79 45 -79zM276 579q-59 0 -107 -195h139q12 79 12 115q0 80 -44 80z" />
    <glyph glyph-name="iota" unicode="&#x3b9;" horiz-adv-x="216" 
d="M98 -12q-58 0 -77 30t-5 93l82 372h113l-79 -356q-8 -39 18 -39q5 0 15 2l-13 -95q-26 -7 -54 -7z" />
    <glyph glyph-name="kappa" unicode="&#x3ba;" horiz-adv-x="403" 
d="M344 0h-122l-30 196l-63 -83l-24 -113h-114l108 483h113l-49 -216l157 216h126l-162 -214z" />
    <glyph glyph-name="lambda" unicode="&#x3bb;" horiz-adv-x="380" 
d="M132 573l4 99q23 7 56 7q54 0 79.5 -24t29.5 -87l24 -568h-117l9 340l-147 -340h-122l240 495l-1 50q-3 34 -33 34q-13 0 -22 -6z" />
    <glyph glyph-name="uni03BC" unicode="&#x3bc;" horiz-adv-x="432" 
d="M106 4l-41 -188h-114l148 667h113l-77 -346q-5 -23 2.5 -36.5t25.5 -13.5q41 0 77 62l74 334h114l-80 -356q-8 -39 17 -39q7 0 15 2l-12 -95q-28 -7 -54 -7q-46 0 -63 20t-15 66q-16 -40 -41.5 -63t-51.5 -23q-23 0 -37 16z" />
    <glyph glyph-name="nu" unicode="&#x3bd;" horiz-adv-x="380" 
d="M187 0h-112l-21 483h120l-7 -356q93 158 135 356h114q-27 -119 -90.5 -250t-138.5 -233z" />
    <glyph glyph-name="xi" unicode="&#x3be;" horiz-adv-x="344" 
d="M143 -12q-63 0 -101 39.5t-38 103.5q0 68 36.5 118t101.5 73q-34 8 -50.5 35t-16.5 64q0 43 28.5 83t77.5 65h-68l22 98h269l-22 -98h-122q-30 -17 -48 -47.5t-18 -63.5q0 -69 62 -69h80l-22 -99h-80q-42 0 -74.5 -34t-32.5 -92q0 -32 17.5 -54t54.5 -22q72 0 72 -68
q0 -65 -79 -177h-98q69 89 69 126q0 19 -20 19z" />
    <glyph glyph-name="omicron" unicode="&#x3bf;" horiz-adv-x="417" 
d="M173 -12q-76 0 -116 46t-40 131q0 73 25 147t78 128.5t122 54.5q76 0 116 -46t40 -131q0 -73 -25 -147t-78 -128.5t-122 -54.5zM180 88q45 0 74.5 83t29.5 149q0 75 -48 75q-32 0 -57.5 -45.5t-36.5 -97.5t-11 -90q0 -74 49 -74z" />
    <glyph glyph-name="pi" unicode="&#x3c0;" horiz-adv-x="451" 
d="M336 0h-113l85 385h-103l-85 -385h-113l85 385h-46l22 98h420l-22 -98h-45z" />
    <glyph glyph-name="rho" unicode="&#x3c1;" horiz-adv-x="423" 
d="M213 -12q-74 0 -95 74l-53 -246h-114l94 426q24 113 82 183t139 70q68 0 104.5 -43.5t36.5 -120.5q0 -46 -12 -102.5t-35 -111.5t-61.5 -92t-85.5 -37zM188 88q32 0 57 46.5t35.5 99.5t10.5 92q0 69 -40 69q-61 0 -93 -153l-21 -96q2 -24 17 -41t34 -17z" />
    <glyph glyph-name="sigma1" unicode="&#x3c2;" horiz-adv-x="340" 
d="M140 -12q-48 0 -85.5 48.5t-37.5 131.5q0 75 26 148.5t80.5 126t123.5 52.5q78 0 122 -49l-54 -85q-20 34 -59 34q-53 0 -87.5 -71t-34.5 -144q0 -45 18 -68.5t45 -23.5q73 0 73 -67q0 -65 -80 -178h-101q75 86 75 126q0 19 -24 19z" />
    <glyph glyph-name="sigma" unicode="&#x3c3;" horiz-adv-x="417" 
d="M388 285q0 -44 -13.5 -93.5t-38.5 -96t-68 -77t-95 -30.5q-76 0 -116 46t-40 131q0 75 26.5 146t84.5 121.5t134 50.5h192l-23 -100h-66q23 -40 23 -98zM282 311q0 52 -11 72h-22q-53 0 -85.5 -73t-32.5 -148q0 -74 49 -74q31 0 56 45t35.5 94.5t10.5 83.5z" />
    <glyph glyph-name="tau" unicode="&#x3c4;" horiz-adv-x="306" 
d="M149 -12q-58 0 -77 29.5t-5 93.5l60 274h-82l22 98h276l-22 -98h-81l-56 -252q-9 -45 17 -45q17 0 30 13l4 -88q-33 -25 -86 -25z" />
    <glyph glyph-name="upsilon" unicode="&#x3c5;" horiz-adv-x="419" 
d="M160 -12q-73 0 -111.5 47.5t-20.5 130.5l70 317h113l-69 -317q-18 -78 33 -78q45 0 79.5 79t34.5 174q0 67 -12 117l114 37q18 -58 18 -142q0 -63 -14.5 -125t-43.5 -117t-78.5 -89t-112.5 -34z" />
    <glyph glyph-name="phi" unicode="&#x3c6;" horiz-adv-x="609" 
d="M591 293q0 -47 -18 -96t-52.5 -93t-90.5 -75t-125 -38l-38 -175h-113l39 178q-89 14 -132 67t-43 132q0 94 51 174t158 128l32 -88q-57 -29 -89.5 -83.5t-32.5 -118.5q0 -90 78 -111l88 401h56q116 0 174 -56t58 -146zM394 390l-66 -295q40 10 70 33.5t45 52.5t22 54.5
t7 46.5q0 44 -20 73t-58 35z" />
    <glyph glyph-name="chi" unicode="&#x3c7;" horiz-adv-x="372" 
d="M274 -184h-115l-15 223l-113 -223h-122l186 336l-35 331h115l12 -218l107 218h121l-180 -331z" />
    <glyph glyph-name="psi" unicode="&#x3c8;" horiz-adv-x="610" 
d="M267 -184h-113l39 179q-75 12 -117 53.5t-42 110.5q0 32 9 77l55 247h112l-57 -260q-6 -28 -6 -54q0 -60 68 -76l126 574h113l-126 -573q94 20 118 129l57 260h113l-61 -276q-22 -98 -89.5 -153t-160.5 -64z" />
    <glyph glyph-name="omega" unicode="&#x3c9;" horiz-adv-x="636" 
d="M619 317q0 -49 -14 -104t-39 -106.5t-68 -85t-94 -33.5q-52 0 -84 31.5t-32 87.5q-24 -58 -62 -88.5t-85 -30.5q-60 0 -94 47.5t-34 120.5q0 105 49 200t123 139l71 -62q-56 -34 -91 -113t-35 -155q0 -77 37 -77q60 0 93 154l27 122h114l-27 -122q-35 -154 25 -154
q28 0 52.5 41.5t36.5 91.5t12 85q0 96 -36 127l97 62q28 -22 43 -72t15 -106z" />
    <glyph glyph-name="iotadieresis" unicode="&#x3ca;" horiz-adv-x="216" 
d="M331 616q0 -27 -21 -47.5t-49 -20.5q-23 0 -38.5 15.5t-15.5 39.5q0 26 21 47t48 21q23 0 39 -16t16 -39zM169 616q0 -27 -21.5 -47.5t-48.5 -20.5q-23 0 -39 15.5t-16 39.5q0 26 21 47t49 21q23 0 39 -16t16 -39zM98 -12q-58 0 -77 30t-5 93l82 372h113l-79 -356
q-8 -39 18 -39q5 0 15 2l-13 -95q-26 -7 -54 -7z" />
    <glyph glyph-name="upsilondieresis" unicode="&#x3cb;" horiz-adv-x="419" 
d="M436 616q0 -27 -21 -47.5t-49 -20.5q-23 0 -38.5 15.5t-15.5 39.5q0 26 21 47t48 21q23 0 39 -16t16 -39zM274 616q0 -27 -21.5 -47.5t-48.5 -20.5q-23 0 -39 15.5t-16 39.5q0 26 21 47t49 21q23 0 39 -16t16 -39zM160 -12q-73 0 -111.5 47.5t-20.5 130.5l70 317h113
l-69 -317q-18 -78 33 -78q45 0 79.5 79t34.5 174q0 67 -12 117l114 37q18 -58 18 -142q0 -63 -14.5 -125t-43.5 -117t-78.5 -89t-112.5 -34z" />
    <glyph glyph-name="omicrontonos" unicode="&#x3cc;" horiz-adv-x="417" 
d="M298 557h-51l67 208h97zM173 -12q-76 0 -116 46t-40 131q0 73 25 147t78 128.5t122 54.5q76 0 116 -46t40 -131q0 -73 -25 -147t-78 -128.5t-122 -54.5zM180 88q45 0 74.5 83t29.5 149q0 75 -48 75q-32 0 -57.5 -45.5t-36.5 -97.5t-11 -90q0 -74 49 -74z" />
    <glyph glyph-name="upsilontonos" unicode="&#x3cd;" horiz-adv-x="419" 
d="M301 557h-51l67 208h97zM160 -12q-73 0 -111.5 47.5t-20.5 130.5l70 317h113l-69 -317q-18 -78 33 -78q45 0 79.5 79t34.5 174q0 67 -12 117l114 37q18 -58 18 -142q0 -63 -14.5 -125t-43.5 -117t-78.5 -89t-112.5 -34z" />
    <glyph glyph-name="omegatonos" unicode="&#x3ce;" horiz-adv-x="636" 
d="M408 557h-51l67 208h97zM619 317q0 -49 -14 -104t-39 -106.5t-68 -85t-94 -33.5q-52 0 -84 31.5t-32 87.5q-24 -58 -62 -88.5t-85 -30.5q-60 0 -94 47.5t-34 120.5q0 105 49 200t123 139l71 -62q-56 -34 -91 -113t-35 -155q0 -77 37 -77q60 0 93 154l27 122h114l-27 -122
q-35 -154 25 -154q28 0 52.5 41.5t36.5 91.5t12 85q0 96 -36 127l97 62q28 -22 43 -72t15 -106z" />
    <glyph glyph-name="afii10023" unicode="&#x401;" horiz-adv-x="378" 
d="M459 783q0 -27 -21 -47.5t-49 -20.5q-23 0 -38.5 15.5t-15.5 39.5q0 26 21 47t48 21q23 0 39 -16t16 -39zM297 783q0 -27 -21.5 -47.5t-48.5 -20.5q-23 0 -39 15.5t-16 39.5q0 26 21 47t49 21q23 0 39 -16t16 -39zM290 0h-292l147 667h292l-24 -111h-166l-36 -161h159
l-25 -111h-158l-39 -173h166z" />
    <glyph glyph-name="afii10051" unicode="&#x402;" horiz-adv-x="517" 
d="M229 -12l24 112q74 0 94 92l5 19q10 45 -8 72.5t-58 27.5q-30 0 -49 -5l-67 -306h-127l123 556h-102l25 111h328l-25 -111h-101l-31 -141q38 7 72 7q90 0 127.5 -61t18.5 -150l-5 -19q-23 -106 -89.5 -155t-154.5 -49z" />
    <glyph glyph-name="afii10052" unicode="&#x403;" horiz-adv-x="376" 
d="M477 867l-138 -144h-74l111 144h101zM124 0h-126l147 667h292l-24 -111h-166z" />
    <glyph glyph-name="afii10053" unicode="&#x404;" horiz-adv-x="429" 
d="M203 -12q-83 0 -128 55.5t-45 156.5q0 49 9.5 109t31.5 126t53.5 119.5t81 88.5t107.5 35q55 0 92.5 -28.5t51.5 -66.5t17 -84l-116 -28q-5 95 -53 95q-67 0 -115 -171h180l-25 -111h-178q-8 -54 -8 -87q0 -97 51 -97q42 0 83 81l101 -42q-71 -151 -191 -151z" />
    <glyph glyph-name="afii10054" unicode="&#x405;" horiz-adv-x="396" 
d="M151 -12q-54 0 -101.5 21t-71.5 55l72 93q16 -25 44.5 -41t56.5 -16q32 0 55 25t23 66q0 23 -15.5 46.5t-37.5 45.5t-44.5 46.5t-38 59t-15.5 73.5q0 90 60 153t146 63q44 0 85.5 -16.5t68.5 -47.5l-67 -93q-34 45 -88 45q-33 0 -52.5 -23.5t-19.5 -56.5
q0 -26 23.5 -56.5t51.5 -56.5t51.5 -69t23.5 -91q0 -94 -59 -159.5t-151 -65.5z" />
    <glyph glyph-name="afii10055" unicode="&#x406;" horiz-adv-x="230" 
d="M124 0h-126l147 667h126z" />
    <glyph glyph-name="afii10056" unicode="&#x407;" horiz-adv-x="230" 
d="M376 783q0 -27 -21 -47.5t-49 -20.5q-23 0 -38.5 15.5t-15.5 39.5q0 26 21 47t48 21q23 0 39 -16t16 -39zM214 783q0 -27 -21.5 -47.5t-48.5 -20.5q-23 0 -39 15.5t-16 39.5q0 26 21 47t49 21q23 0 39 -16t16 -39zM124 0h-126l147 667h126z" />
    <glyph glyph-name="afii10057" unicode="&#x408;" horiz-adv-x="348" 
d="M87 -12q-82 0 -124 43l51 100q22 -31 62 -31q63 0 79 73l110 494h126l-111 -500q-21 -94 -67 -136.5t-126 -42.5z" />
    <glyph glyph-name="afii10058" unicode="&#x409;" horiz-adv-x="695" 
d="M-38 -12l24 112q23 0 38.5 11.5t36.5 57t47 134.5l105 364h312l-54 -245h39q71 0 115.5 -48t44.5 -122q0 -102 -62.5 -177t-175.5 -75h-180l123 556h-70l-72 -254q-28 -99 -59 -163.5t-66.5 -96t-68.5 -43t-77 -11.5zM482 311h-35l-45 -200h38q45 0 71.5 39.5t26.5 89.5
q0 34 -15 52.5t-41 18.5z" />
    <glyph glyph-name="afii10059" unicode="&#x40a;" horiz-adv-x="695" 
d="M423 0h-179l63 288h-128l-63 -288h-126l147 667h125l-58 -269h127l59 269h126l-59 -269h40q72 0 116 -44.5t44 -117.5q0 -95 -62.5 -165.5t-171.5 -70.5zM469 288h-36l-40 -177h38q41 0 68 34.5t27 77.5q0 65 -57 65z" />
    <glyph glyph-name="afii10060" unicode="&#x40b;" horiz-adv-x="517" 
d="M297 0l46 211q10 47 -4 73.5t-53 26.5q-30 0 -49 -5l-67 -306h-127l123 556h-102l25 111h328l-25 -111h-101l-31 -141q38 7 72 7q89 0 123 -60.5t15 -150.5l-47 -211h-126z" />
    <glyph glyph-name="afii10061" unicode="&#x40c;" horiz-adv-x="471" 
d="M514 867l-138 -144h-74l111 144h101zM414 0h-133l-58 257l-62 -87l-37 -170h-126l147 667h126l-64 -291l197 291h145l-232 -314z" />
    <glyph glyph-name="afii10062" unicode="&#x40e;" horiz-adv-x="430" 
d="M37 -12q-56 0 -93 28l51 104q18 -19 50 -19q35 0 58 45l36 65l-51 456h130l22 -291l149 291h137l-302 -546q-41 -73 -83.5 -103t-103.5 -30zM451 775q-60 -63 -138 -63q-77 0 -111 63l59 40q16 -37 63 -37t79 37z" />
    <glyph glyph-name="afii10145" unicode="&#x40f;" horiz-adv-x="484" 
d="M97 -128l28 128h-127l147 667h126l-122 -556h128l122 556h126l-147 -667h-127l-28 -128h-126z" />
    <glyph glyph-name="afii10017" unicode="&#x410;" horiz-adv-x="424" 
d="M370 0h-126l7 123h-126l-46 -123h-133l286 667h145zM260 234l17 292l-112 -292h95z" />
    <glyph glyph-name="afii10018" unicode="&#x411;" horiz-adv-x="441" 
d="M145 667h332l-24 -111h-206l-30 -134h40q71 0 115 -48t44 -122q0 -103 -62.5 -177.5t-175.5 -74.5h-180zM228 311h-35l-45 -200h38q46 0 72.5 39.5t26.5 89.5q0 34 -15.5 52.5t-41.5 18.5z" />
    <glyph glyph-name="afii10019" unicode="&#x412;" horiz-adv-x="452" 
d="M223 0h-225l147 667h166q75 0 116.5 -40.5t41.5 -103.5q0 -68 -38 -124t-98 -65q38 -11 57 -45t19 -76q0 -84 -48.5 -148.5t-137.5 -64.5zM211 395h46q36 0 57 32.5t21 70.5q0 58 -61 58h-27zM198 111q37 0 61 33t24 79q0 61 -61 61h-35l-39 -173h50z" />
    <glyph glyph-name="afii10020" unicode="&#x413;" horiz-adv-x="376" 
d="M124 0h-126l147 667h292l-24 -111h-166z" />
    <glyph glyph-name="afii10021" unicode="&#x414;" horiz-adv-x="496" 
d="M-66 -123l48 223q26 6 40.5 16.5t38.5 59.5t51 145l100 346h312l-123 -556h53l-52 -234h-126l27 123h-217l-27 -123h-125zM304 556l-65 -228q-42 -149 -106 -217h142l99 445h-70z" />
    <glyph glyph-name="afii10022" unicode="&#x415;" horiz-adv-x="378" 
d="M290 0h-292l147 667h292l-24 -111h-166l-36 -161h159l-25 -111h-158l-39 -173h166z" />
    <glyph glyph-name="afii10024" unicode="&#x416;" horiz-adv-x="653" 
d="M96 0h-147l252 353l-93 314h132l60 -257l56 257h126l-51 -230l156 230h144l-231 -314l96 -353h-137l-51 261l-22 -31l-50 -230h-126l50 229l-5 20z" />
    <glyph glyph-name="afii10025" unicode="&#x417;" horiz-adv-x="440" 
d="M188 -12q-70 0 -126 35t-75 99l102 64q11 -42 36.5 -64t58.5 -22q42 0 67 36t25 74q0 74 -77 74h-68l24 110h74q51 0 76.5 32.5t25.5 76.5q0 29 -17.5 45.5t-50.5 16.5q-57 0 -96 -55l-68 74q80 93 185 93q80 0 130 -38.5t50 -108.5t-48.5 -126t-109.5 -65q49 -13 72 -49
t23 -79q0 -91 -62 -157t-151 -66z" />
    <glyph glyph-name="afii10026" unicode="&#x418;" horiz-adv-x="484" 
d="M117 0h-119l147 667h127l-79 -355l206 355h126l-147 -667h-126l81 370z" />
    <glyph glyph-name="afii10027" unicode="&#x419;" horiz-adv-x="484" 
d="M117 0h-119l147 667h127l-79 -355l206 355h126l-147 -667h-126l81 370zM481 775q-60 -63 -138 -63q-77 0 -111 63l59 40q16 -37 63 -37t79 37z" />
    <glyph glyph-name="afii10028" unicode="&#x41a;" horiz-adv-x="471" 
d="M414 0h-133l-58 257l-62 -87l-37 -170h-126l147 667h126l-64 -291l197 291h145l-232 -314z" />
    <glyph glyph-name="afii10029" unicode="&#x41b;" horiz-adv-x="484" 
d="M-39 -12l24 112q23 0 38.5 11.5t37 58t47.5 137.5l104 360h312l-146 -667h-127l122 556h-69l-72 -254q-28 -99 -58.5 -163.5t-66 -96t-69 -43t-77.5 -11.5z" />
    <glyph glyph-name="afii10030" unicode="&#x41c;" horiz-adv-x="616" 
d="M510 0h-124l90 408l-201 -408h-42l-19 408l-90 -408h-126l147 667h158l16 -355l178 355h160z" />
    <glyph glyph-name="afii10031" unicode="&#x41d;" horiz-adv-x="484" 
d="M378 0h-126l63 288h-128l-63 -288h-126l147 667h126l-59 -269h128l59 269h126z" />
    <glyph glyph-name="afii10032" unicode="&#x41e;" horiz-adv-x="478" 
d="M203 -12q-86 0 -129.5 59t-43.5 153q0 63 16.5 140t48.5 155t89.5 130.5t128.5 52.5q86 0 129.5 -60t43.5 -154q0 -63 -16.5 -140t-48.5 -154.5t-89.5 -129.5t-128.5 -52zM210 100q32 0 61 42.5t47 102.5t28.5 120.5t10.5 101.5q0 99 -52 99q-32 0 -61 -42.5t-47 -103
t-28 -121t-10 -102.5q0 -97 51 -97z" />
    <glyph glyph-name="afii10033" unicode="&#x41f;" horiz-adv-x="484" 
d="M378 0h-126l122 556h-128l-122 -556h-126l147 667h380z" />
    <glyph glyph-name="afii10034" unicode="&#x420;" horiz-adv-x="441" 
d="M124 0h-126l147 667h166q71 0 115 -47.5t44 -121.5q0 -103 -62.5 -178t-176.5 -75h-53zM202 356h39q45 0 71.5 39.5t26.5 90.5q0 34 -15.5 52t-41.5 18h-35z" />
    <glyph glyph-name="afii10035" unicode="&#x421;" horiz-adv-x="429" 
d="M203 -12q-83 0 -128 55.5t-45 156.5q0 49 9.5 109t31.5 126t53.5 119.5t81 88.5t107.5 35q81 0 120 -55t42 -136l-117 -22q-5 101 -53 101q-43 0 -78.5 -73.5t-51.5 -156t-16 -139.5q0 -97 51 -97q42 0 83 81l101 -42q-71 -151 -191 -151z" />
    <glyph glyph-name="afii10036" unicode="&#x422;" horiz-adv-x="364" 
d="M191 0h-126l123 556h-101l24 111h328l-24 -111h-101z" />
    <glyph glyph-name="afii10037" unicode="&#x423;" horiz-adv-x="430" 
d="M37 -12q-56 0 -93 28l51 104q18 -19 50 -19q35 0 58 45l36 65l-51 456h130l22 -291l149 291h137l-302 -546q-41 -73 -83.5 -103t-103.5 -30z" />
    <glyph glyph-name="afii10038" unicode="&#x424;" horiz-adv-x="655" 
d="M337 0h-126l16 71q-185 32 -185 219q0 51 19.5 102t56 96t96.5 75.5t134 36.5l15 67h126l-17 -72q184 -33 184 -218q0 -111 -80.5 -205t-223.5 -106zM174 290q0 -85 78 -107l69 300q-52 -12 -86.5 -44.5t-47.5 -69.5t-13 -79zM524 377q0 83 -77 105l-69 -299
q75 17 110.5 72t35.5 122z" />
    <glyph glyph-name="afii10039" unicode="&#x425;" horiz-adv-x="438" 
d="M386 0h-132l-36 223l-128 -223h-145l226 347l-71 320h133l28 -212l118 212h146l-216 -333z" />
    <glyph glyph-name="afii10040" unicode="&#x426;" horiz-adv-x="496" 
d="M277 -123l27 123h-306l147 667h126l-122 -556h128l122 556h126l-123 -556h52l-52 -234h-125z" />
    <glyph glyph-name="afii10041" unicode="&#x427;" horiz-adv-x="471" 
d="M258 667l-46 -211q-10 -46 4 -73t53 -27q30 0 49 5l68 306h126l-146 -667h-127l55 252q-39 -7 -71 -7q-89 0 -123 60.5t-14 150.5l47 211h125z" />
    <glyph glyph-name="afii10042" unicode="&#x428;" horiz-adv-x="693" 
d="M608 667h126l-147 -667h-589l147 667h125l-122 -556h106l122 556h126l-122 -556h106z" />
    <glyph glyph-name="afii10043" unicode="&#x429;" horiz-adv-x="705" 
d="M608 667h126l-123 -556h49l-52 -234h-126l27 123h-511l147 667h125l-122 -556h106l122 556h126l-122 -556h106z" />
    <glyph glyph-name="afii10044" unicode="&#x42a;" horiz-adv-x="508" 
d="M245 0h-180l122 556h-100l24 111h227l-54 -245h40q71 0 115 -48t44 -122q0 -103 -62.5 -177.5t-175.5 -74.5zM296 311h-36l-45 -200h38q46 0 72.5 39.5t26.5 89.5q0 34 -15.5 52.5t-40.5 18.5z" />
    <glyph glyph-name="afii10045" unicode="&#x42b;" horiz-adv-x="646" 
d="M541 0h-126l146 667h126zM145 667h126l-54 -245h40q71 0 115 -48t44 -122q0 -103 -62.5 -177.5t-175.5 -74.5h-180zM229 311h-36l-45 -200h38q46 0 72.5 39.5t26.5 89.5q0 34 -15.5 52.5t-40.5 18.5z" />
    <glyph glyph-name="afii10046" unicode="&#x42c;" horiz-adv-x="441" 
d="M145 667h126l-54 -245h40q71 0 115 -48t44 -122q0 -103 -62.5 -177.5t-175.5 -74.5h-180zM229 311h-36l-45 -200h38q46 0 72.5 39.5t26.5 89.5q0 34 -15.5 52.5t-40.5 18.5z" />
    <glyph glyph-name="afii10047" unicode="&#x42d;" horiz-adv-x="429" 
d="M264 678q83 0 128 -55.5t45 -156.5q0 -49 -9.5 -109t-31.5 -126t-53.5 -119.5t-81 -88.5t-107.5 -35q-81 0 -119 52.5t-42 126.5l116 28q5 -95 53 -95q37 0 67.5 52.5t50.5 131.5h-181l25 111h178q6 42 6 74q0 97 -51 97q-43 0 -83 -81l-101 42q71 151 191 151z" />
    <glyph glyph-name="afii10048" unicode="&#x42e;" horiz-adv-x="697" 
d="M423 -12q-86 0 -129.5 59t-43.5 153q0 38 6 88h-68l-64 -288h-126l147 667h126l-59 -269h68q16 56 38 103t52.5 88.5t72.5 65t90 23.5q85 0 129 -60t44 -154q0 -63 -16.5 -140t-48.5 -154.5t-89.5 -129.5t-128.5 -52zM429 100q32 0 61.5 42.5t47.5 102.5t28.5 120.5
t10.5 101.5q0 99 -52 99q-32 0 -61 -42.5t-47 -103t-28.5 -121t-10.5 -102.5q0 -97 51 -97z" />
    <glyph glyph-name="afii10049" unicode="&#x42f;" horiz-adv-x="460" 
d="M122 0h-143l158 283q-55 46 -55 132q0 103 63 177.5t177 74.5h178l-147 -667h-126l55 245h-34zM270 356h35l45 200h-38q-45 0 -71.5 -39.5t-26.5 -89.5q0 -34 15 -52.5t41 -18.5z" />
    <glyph glyph-name="afii10065" unicode="&#x430;" horiz-adv-x="423" 
d="M208 495q75 0 96 -74l14 62h112l-107 -483h-113l14 58q-46 -70 -103 -70q-52 0 -79.5 39.5t-27.5 114.5q0 69 20 147.5t66.5 142t107.5 63.5zM234 395q-33 0 -58 -46.5t-35 -99t-10 -92.5q0 -69 48 -69q36 0 64 57l43 192q-4 26 -18.5 42t-33.5 16z" />
    <glyph glyph-name="afii10066" unicode="&#x431;" horiz-adv-x="416" 
d="M180 88q45 0 74.5 83t29.5 149q0 75 -48 75q-32 0 -57.5 -45.5t-36.5 -97.5t-11 -90q0 -74 49 -74zM173 -12q-76 0 -116 46t-40 131q0 90 48 240q59 180 235 221q49 12 55 41h112q-6 -27 -20 -48.5t-30 -34.5t-38 -23.5t-38 -15.5t-37 -9q-64 -14 -97.5 -37t-49.5 -66
q46 62 120 62q52 0 86.5 -47.5t34.5 -129.5q0 -73 -25 -147t-78 -128.5t-122 -54.5z" />
    <glyph glyph-name="afii10067" unicode="&#x432;" horiz-adv-x="418" 
d="M202 0h-211l107 483h177q59 0 93.5 -27t35.5 -73q1 -47 -27.5 -86t-83.5 -51q67 -21 69 -87q1 -63 -40 -111t-120 -48zM124 90h58q30 0 47.5 21.5t17.5 47.5q-1 43 -49 43h-49zM168 292h54q29 0 44 19.5t15 41.5q0 40 -47 40h-44z" />
    <glyph glyph-name="afii10068" unicode="&#x433;" horiz-adv-x="312" 
d="M348 483l-21 -98h-138l-84 -385h-114l107 483h250z" />
    <glyph glyph-name="afii10069" unicode="&#x434;" horiz-adv-x="434" 
d="M-65 -123l45 209q17 5 24.5 8.5t21 16.5t25 40t23.5 71l74 261h279l-85 -384h48l-50 -222h-113l27 123h-180l-26 -123h-113zM233 385l-48 -172q-20 -74 -65 -114h109l63 286h-59z" />
    <glyph glyph-name="afii10070" unicode="&#x435;" horiz-adv-x="404" 
d="M182 -12q-78 0 -121.5 47.5t-43.5 134.5q0 47 14 101t40.5 105t71 85t98.5 34q75 0 112 -43t37 -122q0 -45 -19 -126h-245q-5 -18 -5 -41q0 -34 19.5 -58.5t62.5 -24.5t83 42l40 -70q-61 -64 -144 -64zM141 284h141q6 32 6 49q0 31 -15 50.5t-40 19.5q-37 0 -60.5 -36.5
t-31.5 -82.5z" />
    <glyph glyph-name="afii10072" unicode="&#x436;" horiz-adv-x="539" 
d="M81 0h-130l178 269l-67 214h118l47 -171l38 171h113l-33 -149l108 149h129l-163 -214l61 -269h-118l-31 198l-22 -28l-37 -170h-113l37 168l-6 19z" />
    <glyph glyph-name="afii10073" unicode="&#x437;" horiz-adv-x="378" 
d="M233 495q68 0 106 -32.5t38 -85.5q0 -54 -35 -91.5t-89 -45.5q33 -7 54.5 -36.5t21.5 -62.5q0 -69 -56 -111t-139 -42q-50 0 -92 19.5t-62 54.5l68 64q26 -47 87 -47q38 0 63 19t25 52q0 21 -16 35t-44 14h-77l20 90h78q34 0 57 17.5t23 49.5q0 22 -14 35t-40 13
q-67 0 -116 -52l-43 71q79 72 182 72z" />
    <glyph glyph-name="afii10074" unicode="&#x438;" 
d="M102 0h-111l107 483h113l-56 -252l154 252h117l-106 -483h-113l58 264z" />
    <glyph glyph-name="afii10075" unicode="&#x439;" 
d="M102 0h-111l107 483h113l-56 -252l154 252h117l-106 -483h-113l58 264zM413 608q-60 -63 -138 -63q-77 0 -111 63l59 40q16 -37 63 -37t79 37z" />
    <glyph glyph-name="afii10076" unicode="&#x43a;" horiz-adv-x="403" 
d="M344 0h-122l-30 196l-63 -83l-24 -113h-114l108 483h113l-49 -216l157 216h126l-162 -214z" />
    <glyph glyph-name="afii10077" unicode="&#x43b;" 
d="M-41 -12l21 98q29 0 50 25.5t44 110.5l74 261h279l-106 -483h-114l85 385h-59l-48 -172q-36 -131 -88.5 -178t-137.5 -47z" />
    <glyph glyph-name="afii10078" unicode="&#x43c;" horiz-adv-x="531" 
d="M431 0h-111l59 272l-145 -272h-45l-25 272l-59 -272h-114l107 483h136l25 -251l138 251h140z" />
    <glyph glyph-name="afii10079" unicode="&#x43d;" 
d="M105 0h-114l107 483h113l-40 -182h102l40 182h114l-107 -483h-113l45 203h-103z" />
    <glyph glyph-name="afii10080" unicode="&#x43e;" horiz-adv-x="417" 
d="M173 -12q-76 0 -116 46t-40 131q0 73 25 147t78 128.5t122 54.5q76 0 116 -46t40 -131q0 -73 -25 -147t-78 -128.5t-122 -54.5zM180 88q45 0 74.5 83t29.5 149q0 75 -48 75q-32 0 -57.5 -45.5t-36.5 -97.5t-11 -90q0 -74 49 -74z" />
    <glyph glyph-name="afii10081" unicode="&#x43f;" 
d="M320 0h-113l85 385h-103l-85 -385h-113l107 483h328z" />
    <glyph glyph-name="afii10082" unicode="&#x440;" horiz-adv-x="423" 
d="M213 -12q-74 0 -95 74l-54 -246h-113l148 667h113l-14 -58q46 70 103 70q106 0 106 -154q0 -50 -12 -108.5t-35 -114.5t-61.5 -93t-85.5 -37zM188 88q32 0 57 46.5t35.5 99.5t10.5 92q0 69 -48 69q-17 0 -35 -16.5t-29 -40.5l-43 -192q4 -26 18 -42t34 -16z" />
    <glyph glyph-name="afii10083" unicode="&#x441;" horiz-adv-x="344" 
d="M179 -12q-76 0 -119 46.5t-43 133.5q0 75 26 148.5t80.5 126t123.5 52.5q78 0 122 -49l-54 -85q-20 34 -59 34q-53 0 -87.5 -71t-34.5 -144q0 -92 71 -92q32 0 59 27l19 -90q-43 -37 -104 -37z" />
    <glyph glyph-name="afii10084" unicode="&#x442;" horiz-adv-x="302" 
d="M154 0h-114l85 385h-79l22 98h270l-22 -98h-78z" />
    <glyph glyph-name="afii10085" unicode="&#x443;" horiz-adv-x="380" 
d="M-54 -184l37 93q7 -5 23 -5q23 0 41 34l27 54l-19 491h116l-7 -340l145 340h123l-277 -568q-33 -64 -64 -87.5t-76 -23.5q-43 0 -69 12z" />
    <glyph glyph-name="afii10086" unicode="&#x444;" horiz-adv-x="629" 
d="M207 495q68 0 89 -74l54 246h113l-53 -242q44 70 100 70q50 0 74.5 -40.5t24.5 -110.5q0 -48 -12.5 -107.5t-34.5 -116t-60 -94.5t-83 -38q-68 0 -89 74l-54 -246h-113l53 242q-44 -70 -100 -70q-50 0 -75 40.5t-25 110.5q0 49 12.5 108t34.5 115.5t60.5 94.5t83.5 38z
M236 395q-43 0 -72.5 -85t-29.5 -154q0 -36 9.5 -52t31.5 -16q32 0 60 57l42 189q-7 61 -41 61zM389 88q30 0 55 45.5t36.5 99t11.5 94.5q0 36 -9.5 52t-31.5 16q-32 0 -60 -57l-42 -189q7 -61 40 -61z" />
    <glyph glyph-name="afii10087" unicode="&#x445;" horiz-adv-x="372" 
d="M314 0h-117l-26 160l-98 -160h-124l166 243l-54 240h116l23 -156l93 156h123l-161 -240z" />
    <glyph glyph-name="afii10088" unicode="&#x446;" horiz-adv-x="434" 
d="M228 -123l27 123h-263l106 483h113l-85 -384h103l84 384h114l-85 -384h48l-49 -222h-113z" />
    <glyph glyph-name="afii10089" unicode="&#x447;" horiz-adv-x="412" 
d="M89 483h113l-35 -162q-12 -49 38 -49q31 0 57 14l43 197h113l-106 -483h-113l44 200q-43 -28 -99 -28q-67 0 -89 27.5t-10 82.5z" />
    <glyph glyph-name="afii10090" unicode="&#x448;" horiz-adv-x="612" 
d="M505 483h113l-106 -483h-520l106 483h113l-85 -384h91l84 384h113l-84 -384h91z" />
    <glyph glyph-name="afii10091" unicode="&#x449;" horiz-adv-x="626" 
d="M505 483h113l-84 -384h47l-48 -222h-113l27 123h-455l106 483h113l-85 -384h91l84 384h113l-84 -384h91z" />
    <glyph glyph-name="afii10092" unicode="&#x44a;" horiz-adv-x="449" 
d="M224 0h-184l85 385h-79l22 98h192l-39 -172h41q68 0 108.5 -34t40.5 -91q0 -72 -50 -129t-137 -57zM242 221h-40l-29 -131h50q32 0 50 25.5t18 57.5q0 48 -49 48z" />
    <glyph glyph-name="afii10093" unicode="&#x44b;" horiz-adv-x="584" 
d="M485 0h-113l106 483h113zM98 483h113l-38 -172h40q68 0 108.5 -34t40.5 -91q0 -72 -50 -129t-137 -57h-184zM194 221h-41l-29 -131h50q32 0 50 25.5t18 57.5q0 48 -48 48z" />
    <glyph glyph-name="afii10094" unicode="&#x44c;" horiz-adv-x="400" 
d="M98 483h113l-38 -172h40q68 0 108.5 -34t40.5 -91q0 -72 -50 -129t-137 -57h-184zM194 221h-41l-29 -131h50q32 0 50 25.5t18 57.5q0 48 -48 48z" />
    <glyph glyph-name="afii10095" unicode="&#x44d;" horiz-adv-x="344" 
d="M164 495q76 0 119 -46.5t43 -133.5q0 -76 -26 -149t-80 -125.5t-123 -52.5q-79 0 -123 49l50 76q20 -33 60 -33q36 0 64.5 33.5t44.5 85.5h-137l20 90h133q0 3 0.5 8t0.5 7q0 46 -20 72.5t-53 26.5t-59 -26l-18 85q42 33 104 33z" />
    <glyph glyph-name="afii10096" unicode="&#x44e;" horiz-adv-x="610" 
d="M367 -12q-76 0 -116.5 46t-40.5 131q0 12 2 38h-62l-45 -203h-113l106 483h113l-40 -182h61q27 84 79.5 139t124.5 55q76 0 116 -46t40 -131q0 -73 -25 -147t-78 -128.5t-122 -54.5zM374 88q45 0 74.5 83t29.5 149q0 75 -49 75q-45 0 -74.5 -83.5t-29.5 -149.5
q0 -74 49 -74z" />
    <glyph glyph-name="afii10097" unicode="&#x44f;" 
d="M101 0h-129l127 198q-50 35 -50 100q0 72 50 128.5t137 56.5h191l-106 -483h-114l38 172h-44zM218 262h47l29 131h-58q-31 0 -49 -25.5t-18 -57.5q0 -48 49 -48z" />
    <glyph glyph-name="afii10071" unicode="&#x451;" horiz-adv-x="404" 
d="M436 616q0 -27 -21 -47.5t-49 -20.5q-23 0 -38.5 15.5t-15.5 39.5q0 26 21 47t48 21q23 0 39 -16t16 -39zM274 616q0 -27 -21.5 -47.5t-48.5 -20.5q-23 0 -39 15.5t-16 39.5q0 26 21 47t49 21q23 0 39 -16t16 -39zM182 -12q-78 0 -121.5 47.5t-43.5 134.5q0 47 14 101
t40.5 105t71 85t98.5 34q75 0 112 -43t37 -122q0 -45 -19 -126h-245q-5 -18 -5 -41q0 -34 19.5 -58.5t62.5 -24.5t83 42l40 -70q-61 -64 -144 -64zM141 284h141q6 32 6 49q0 31 -15 50.5t-40 19.5q-37 0 -60.5 -36.5t-31.5 -82.5z" />
    <glyph glyph-name="afii10099" unicode="&#x452;" horiz-adv-x="432" 
d="M351 530h-118l-24 -110q22 30 59.5 52.5t70.5 22.5q103 0 78 -109l-94 -428q-33 -154 -167 -154q-40 0 -58 24l45 87q5 -13 22 -13q33 0 45 56l85 387q12 50 -26 50q-41 0 -80 -63l-72 -332h-114l117 530h-39l14 66h40l15 71h113l-15 -71h117z" />
    <glyph glyph-name="afii10100" unicode="&#x453;" horiz-adv-x="312" 
d="M414 700l-138 -144h-74l111 144h101zM348 483l-21 -98h-138l-84 -385h-114l107 483h250z" />
    <glyph glyph-name="afii10101" unicode="&#x454;" horiz-adv-x="344" 
d="M179 -12q-76 0 -119 46.5t-43 133.5q0 75 26 148.5t80.5 126t123.5 52.5q78 0 122 -49l-49 -76q-20 33 -60 33q-36 0 -64 -32t-44 -82h136l-19 -90h-134q-1 -7 -1 -19q0 -47 20 -73.5t53 -26.5q30 0 58 26l19 -85q-43 -33 -105 -33z" />
    <glyph glyph-name="afii10102" unicode="&#x455;" horiz-adv-x="346" 
d="M133 -12q-52 0 -95 20.5t-62 50.5l62 73q34 -55 96 -55q26 0 44 17t18 41q0 20 -23 41t-50 37.5t-50 48.5t-23 73q0 66 43.5 113t120.5 47q42 0 81 -17.5t64 -48.5l-59 -71q-10 18 -35.5 33t-51.5 15q-25 0 -40 -14t-15 -37q0 -18 23.5 -38t51.5 -37t51.5 -50t23.5 -74
q0 -69 -48.5 -118.5t-126.5 -49.5z" />
    <glyph glyph-name="afii10103" unicode="&#x456;" horiz-adv-x="204" 
d="M174 540q-27 0 -45 17t-18 42q0 35 25 56.5t54 21.5q27 0 44.5 -17.5t17.5 -41.5q0 -35 -24.5 -56.5t-53.5 -21.5zM105 0h-114l108 483h113z" />
    <glyph glyph-name="afii10104" unicode="&#x457;" horiz-adv-x="204" 
d="M326 616q0 -27 -21 -47.5t-49 -20.5q-23 0 -38.5 15.5t-15.5 39.5q0 26 21 47t48 21q23 0 39 -16t16 -39zM164 616q0 -27 -21.5 -47.5t-48.5 -20.5q-23 0 -39 15.5t-16 39.5q0 26 21 47t49 21q23 0 39 -16t16 -39zM105 0h-114l108 483h113z" />
    <glyph glyph-name="afii10105" unicode="&#x458;" horiz-adv-x="204" 
d="M-55 -196q-52 0 -74 28l44 83q7 -13 24 -13q31 0 42 56l118 525h113l-118 -525q-17 -81 -50.5 -117.5t-98.5 -36.5zM174 540q-27 0 -45 17t-18 42q0 35 25 56.5t54 21.5q27 0 44.5 -17.5t17.5 -41.5q0 -35 -24.5 -56.5t-53.5 -21.5z" />
    <glyph glyph-name="afii10106" unicode="&#x459;" horiz-adv-x="617" 
d="M-41 -12l21 98q29 0 50 25.5t44 110.5l74 261h279l-40 -179h49q85 0 120 -43t19 -110q-14 -66 -67.5 -108.5t-137.5 -42.5h-163l85 385h-59l-48 -172q-36 -131 -88.5 -178t-137.5 -47zM404 214h-37l-27 -124h37q70 0 83 62q6 28 -8 45t-48 17z" />
    <glyph glyph-name="afii10107" unicode="&#x45a;" horiz-adv-x="610" 
d="M105 0h-114l107 483h113l-40 -182h102l40 182h114l-41 -182h46q73 0 111.5 -34.5t34.5 -93.5q-5 -70 -56.5 -121.5t-138.5 -51.5h-176l45 203h-103zM409 208h-44l-25 -118h51q30 0 48.5 23t18.5 51q1 22 -12 33t-37 11z" />
    <glyph glyph-name="afii10108" unicode="&#x45b;" horiz-adv-x="423" 
d="M324 0h-114l77 343q0 1 1 9.5t1 10.5q0 32 -30 32q-40 0 -79 -64l-72 -331h-114l117 530h-41l15 66h41l16 71h113l-16 -71h117l-14 -66h-118l-23 -107q53 72 122 72q42 0 65.5 -22.5t23.5 -58.5q0 -9 -4 -29z" />
    <glyph glyph-name="afii10109" unicode="&#x45c;" horiz-adv-x="403" 
d="M445 700l-138 -144h-74l111 144h101zM344 0h-122l-30 196l-63 -83l-24 -113h-114l108 483h113l-49 -216l157 216h126l-162 -214z" />
    <glyph glyph-name="afii10110" unicode="&#x45e;" horiz-adv-x="380" 
d="M-54 -184l37 93q7 -5 23 -5q23 0 41 34l27 54l-19 491h116l-7 -340l145 340h123l-277 -568q-33 -64 -64 -87.5t-76 -23.5q-43 0 -69 12zM391 608q-60 -63 -138 -63q-77 0 -111 63l59 40q16 -37 63 -37t79 37z" />
    <glyph glyph-name="afii10193" unicode="&#x45f;" 
d="M72 -126l27 126h-107l106 483h113l-85 -384h103l84 384h114l-106 -483h-109l-27 -126h-113z" />
    <glyph glyph-name="afii10050" unicode="&#x490;" horiz-adv-x="376" 
d="M124 0h-126l147 667h166l28 127h126l-52 -238h-166z" />
    <glyph glyph-name="afii10098" unicode="&#x491;" horiz-adv-x="312" 
d="M189 385l-84 -385h-114l107 483h137l28 126h113l-49 -224h-138z" />
    <glyph glyph-name="uni1E02" unicode="&#x1e02;" horiz-adv-x="452" 
d="M223 0h-225l147 667h166q75 0 116.5 -40.5t41.5 -103.5q0 -68 -38 -124t-98 -65q38 -11 57 -45t19 -76q0 -84 -48.5 -148.5t-137.5 -64.5zM211 395h46q36 0 57 32.5t21 70.5q0 58 -61 58h-27zM198 111q37 0 61 33t24 79q0 61 -61 61h-35l-39 -173h50zM410 783
q0 -28 -21 -48.5t-49 -20.5q-24 0 -39.5 16t-15.5 39q0 28 21 48.5t49 20.5q24 0 39.5 -16t15.5 -39z" />
    <glyph glyph-name="uni1E03" unicode="&#x1e03;" horiz-adv-x="423" 
d="M213 -12q-74 0 -95 74l-13 -62h-113l147 667h113l-54 -242q46 70 103 70q106 0 106 -154q0 -50 -12 -108.5t-35 -114.5t-61.5 -93t-85.5 -37zM188 88q32 0 57 46.5t35.5 99.5t10.5 92q0 69 -48 69q-17 0 -35 -16.5t-29 -40.5l-43 -192q4 -26 18 -42t34 -16zM398 783
q0 -28 -21 -48.5t-49 -20.5q-24 0 -39.5 16t-15.5 39q0 28 21 48.5t49 20.5q24 0 39.5 -16t15.5 -39z" />
    <glyph glyph-name="uni1E0A" unicode="&#x1e0a;" horiz-adv-x="476" 
d="M165 0h-167l147 667h163q70 0 119.5 -56.5t49.5 -160.5q0 -36 -6.5 -79.5t-20 -96t-38 -100t-57.5 -87t-82 -63.5t-108 -24zM148 111h39q41 0 74.5 40.5t51.5 98.5t27 110.5t9 87.5q0 54 -18.5 81t-46.5 27h-37zM426 783q0 -28 -21 -48.5t-49 -20.5q-24 0 -39.5 16
t-15.5 39q0 28 21 48.5t49 20.5q24 0 39.5 -16t15.5 -39z" />
    <glyph glyph-name="uni1E0B" unicode="&#x1e0b;" horiz-adv-x="423" 
d="M208 495q75 0 96 -74l54 246h113l-148 -667h-113l14 58q-46 -70 -103 -70q-52 0 -79.5 39.5t-27.5 114.5q0 69 20 147.5t66.5 142t107.5 63.5zM234 395q-33 0 -58 -46.5t-35 -99t-10 -92.5q0 -69 48 -69q36 0 64 57l43 192q-4 26 -18.5 42t-33.5 16zM388 783
q0 -28 -21 -48.5t-49 -20.5q-24 0 -39.5 16t-15.5 39q0 28 21 48.5t49 20.5q24 0 39.5 -16t15.5 -39z" />
    <glyph glyph-name="uni1E1E" unicode="&#x1e1e;" horiz-adv-x="376" 
d="M378 783q0 -28 -21 -48.5t-49 -20.5q-24 0 -39.5 16t-15.5 39q0 28 21 48.5t49 20.5q24 0 39.5 -16t15.5 -39zM124 0h-126l147 667h292l-24 -111h-166l-36 -161h159l-25 -111h-158z" />
    <glyph glyph-name="uni1E1F" unicode="&#x1e1f;" horiz-adv-x="250" 
d="M348 783q0 -28 -21 -48.5t-49 -20.5q-24 0 -39.5 16t-15.5 39q0 28 21 48.5t49 20.5q24 0 39.5 -16t15.5 -39zM120 0h-113l86 385h-45l22 98h44l10 50q32 144 145 144q66 0 94 -30l-46 -84q-13 16 -32 16q-36 0 -48 -46l-10 -50h61l-22 -98h-61z" />
    <glyph glyph-name="uni1E22" unicode="&#x1e22;" horiz-adv-x="484" 
d="M378 0h-126l63 288h-128l-63 -288h-126l147 667h126l-59 -269h128l59 269h126zM423 783q0 -28 -21 -48.5t-49 -20.5q-24 0 -39.5 16t-15.5 39q0 28 21 48.5t49 20.5q24 0 39.5 -16t15.5 -39z" />
    <glyph glyph-name="uni1E23" unicode="&#x1e23;" 
d="M321 0h-114l77 343q0 1 1 9.5t1 10.5q0 32 -30 32q-40 0 -79 -64l-72 -331h-114l148 667h113l-54 -244q53 72 122 72q42 0 65.5 -22.5t23.5 -58.5q0 -9 -4 -29zM392 783q0 -28 -21 -48.5t-49 -20.5q-24 0 -39.5 16t-15.5 39q0 28 21 48.5t49 20.5q24 0 39.5 -16t15.5 -39
z" />
    <glyph glyph-name="uni1E56" unicode="&#x1e56;" horiz-adv-x="441" 
d="M124 0h-126l147 667h166q71 0 115 -47.5t44 -121.5q0 -103 -62.5 -178t-176.5 -75h-53zM202 356h39q45 0 71.5 39.5t26.5 90.5q0 34 -15.5 52t-41.5 18h-35zM412 783q0 -28 -21 -48.5t-49 -20.5q-24 0 -39.5 16t-15.5 39q0 28 21 48.5t49 20.5q24 0 39.5 -16t15.5 -39z
" />
    <glyph glyph-name="uni1E57" unicode="&#x1e57;" horiz-adv-x="423" 
d="M213 -12q-74 0 -95 74l-54 -246h-113l148 667h113l-14 -58q46 70 103 70q106 0 106 -154q0 -50 -12 -108.5t-35 -114.5t-61.5 -93t-85.5 -37zM188 88q32 0 57 46.5t35.5 99.5t10.5 92q0 69 -48 69q-17 0 -35 -16.5t-29 -40.5l-43 -192q4 -26 18 -42t34 -16zM363 616
q0 -28 -21 -48.5t-49 -20.5q-24 0 -39.5 16t-15.5 39q0 28 21 48.5t49 20.5q24 0 39.5 -16t15.5 -39z" />
    <glyph glyph-name="uni1E60" unicode="&#x1e60;" horiz-adv-x="396" 
d="M151 -12q-54 0 -101.5 21t-71.5 55l72 93q16 -25 44.5 -41t56.5 -16q32 0 55 25t23 66q0 23 -15.5 46.5t-37.5 45.5t-44.5 46.5t-38 59t-15.5 73.5q0 90 60 153t146 63q44 0 85.5 -16.5t68.5 -47.5l-67 -93q-34 45 -88 45q-33 0 -52.5 -23.5t-19.5 -56.5
q0 -26 23.5 -56.5t51.5 -56.5t51.5 -69t23.5 -91q0 -94 -59 -159.5t-151 -65.5zM380 783q0 -28 -21 -48.5t-49 -20.5q-24 0 -39.5 16t-15.5 39q0 28 21 48.5t49 20.5q24 0 39.5 -16t15.5 -39z" />
    <glyph glyph-name="uni1E61" unicode="&#x1e61;" horiz-adv-x="346" 
d="M133 -12q-52 0 -95 20.5t-62 50.5l62 73q34 -55 96 -55q26 0 44 17t18 41q0 20 -23 41t-50 37.5t-50 48.5t-23 73q0 66 43.5 113t120.5 47q42 0 81 -17.5t64 -48.5l-59 -71q-10 18 -35.5 33t-51.5 15q-25 0 -40 -14t-15 -37q0 -18 23.5 -38t51.5 -37t51.5 -50t23.5 -74
q0 -69 -48.5 -118.5t-126.5 -49.5zM317 616q0 -28 -21 -48.5t-49 -20.5q-24 0 -39.5 16t-15.5 39q0 28 21 48.5t49 20.5q24 0 39.5 -16t15.5 -39z" />
    <glyph glyph-name="uni1E6A" unicode="&#x1e6a;" horiz-adv-x="364" 
d="M191 0h-126l123 556h-101l24 111h328l-24 -111h-101zM362 783q0 -28 -21 -48.5t-49 -20.5q-24 0 -39.5 16t-15.5 39q0 28 21 48.5t49 20.5q24 0 39.5 -16t15.5 -39z" />
    <glyph glyph-name="uni1E6B" unicode="&#x1e6b;" horiz-adv-x="258" 
d="M139 -12q-112 0 -112 87q0 19 5 42l61 268h-46l22 98h45l29 132h113l-29 -132h61l-22 -98h-61l-55 -248q-3 -21 -3 -23q0 -26 26 -26q13 0 25 8l2 -92q-21 -16 -61 -16zM297 783q0 -28 -21 -48.5t-49 -20.5q-24 0 -39.5 16t-15.5 39q0 28 21 48.5t49 20.5q24 0 39.5 -16
t15.5 -39z" />
    <glyph glyph-name="Wgrave" unicode="&#x1e80;" horiz-adv-x="616" 
d="M437 0h-128l40 430l-150 -430h-128l33 667h126l-43 -447l163 447h99l-34 -447l153 447h130zM454 723h-72l-74 144h98z" />
    <glyph glyph-name="wgrave" unicode="&#x1e81;" horiz-adv-x="608" 
d="M437 0h-118l3 329l-141 -329h-119l-4 483h114l-12 -330l137 330h107l-4 -330l135 330h121zM412 556h-72l-74 144h98z" />
    <glyph glyph-name="Wacute" unicode="&#x1e82;" horiz-adv-x="616" 
d="M575 867l-138 -144h-74l111 144h101zM437 0h-128l40 430l-150 -430h-128l33 667h126l-43 -447l163 447h99l-34 -447l153 447h130z" />
    <glyph glyph-name="wacute" unicode="&#x1e83;" horiz-adv-x="608" 
d="M533 700l-138 -144h-74l111 144h101zM437 0h-118l3 329l-141 -329h-119l-4 483h114l-12 -330l137 330h107l-4 -330l135 330h121z" />
    <glyph glyph-name="Wdieresis" unicode="&#x1e84;" horiz-adv-x="616" 
d="M565 783q0 -27 -21 -47.5t-49 -20.5q-23 0 -38.5 15.5t-15.5 39.5q0 26 21 47t48 21q23 0 39 -16t16 -39zM403 783q0 -27 -21.5 -47.5t-48.5 -20.5q-23 0 -39 15.5t-16 39.5q0 26 21 47t49 21q23 0 39 -16t16 -39zM437 0h-128l40 430l-150 -430h-128l33 667h126l-43 -447
l163 447h99l-34 -447l153 447h130z" />
    <glyph glyph-name="wdieresis" unicode="&#x1e85;" horiz-adv-x="608" 
d="M522 616q0 -27 -21 -47.5t-49 -20.5q-23 0 -38.5 15.5t-15.5 39.5q0 26 21 47t48 21q23 0 39 -16t16 -39zM360 616q0 -27 -21.5 -47.5t-48.5 -20.5q-23 0 -39 15.5t-16 39.5q0 26 21 47t49 21q23 0 39 -16t16 -39zM437 0h-118l3 329l-141 -329h-119l-4 483h114l-12 -330
l137 330h107l-4 -330l135 330h121z" />
    <glyph glyph-name="uni1EA0" unicode="&#x1ea0;" horiz-adv-x="424" 
d="M370 0h-126l7 123h-126l-46 -123h-133l286 667h145zM260 234l17 292l-112 -292h95zM192 -123q0 -28 -21 -48.5t-49 -20.5q-24 0 -39.5 16t-15.5 39q0 28 21 48.5t49 20.5q24 0 39.5 -16t15.5 -39z" />
    <glyph glyph-name="uni1EA1" unicode="&#x1ea1;" horiz-adv-x="423" 
d="M208 495q75 0 96 -74l14 62h112l-107 -483h-113l14 58q-46 -70 -103 -70q-52 0 -79.5 39.5t-27.5 114.5q0 69 20 147.5t66.5 142t107.5 63.5zM234 395q-33 0 -58 -46.5t-35 -99t-10 -92.5q0 -69 48 -69q36 0 64 57l43 192q-4 26 -18.5 42t-33.5 16zM188 -123
q0 -28 -21 -48.5t-49 -20.5q-24 0 -39.5 16t-15.5 39q0 28 21 48.5t49 20.5q24 0 39.5 -16t15.5 -39z" />
    <glyph glyph-name="uni1EA2" unicode="&#x1ea2;" horiz-adv-x="424" 
d="M370 0h-126l7 123h-126l-46 -123h-133l286 667h145zM260 234l17 292l-112 -292h95zM304 760l-39 12q21 48 66 48q57 0 57 -53q0 -36 -30 -70h-47q28 28 31 59q3 24 -15 24q-14 0 -23 -20z" />
    <glyph glyph-name="uni1EA3" unicode="&#x1ea3;" horiz-adv-x="423" 
d="M208 495q75 0 96 -74l14 62h112l-107 -483h-113l14 58q-46 -70 -103 -70q-52 0 -79.5 39.5t-27.5 114.5q0 69 20 147.5t66.5 142t107.5 63.5zM234 395q-33 0 -58 -46.5t-35 -99t-10 -92.5q0 -69 48 -69q36 0 64 57l43 192q-4 26 -18.5 42t-33.5 16zM264 590l-39 12
q21 48 66 48q57 0 57 -53q0 -36 -30 -70h-47q28 28 31 59q3 24 -15 24q-14 0 -23 -20z" />
    <glyph glyph-name="uni1EA4" unicode="&#x1ea4;" horiz-adv-x="424" 
d="M418 682h-60l-35 69l-70 -69h-65l95 108h102zM370 0h-126l7 123h-126l-46 -123h-133l286 667h145zM260 234l17 292l-112 -292h95zM617 843l-138 -108h-74l111 108h101z" />
    <glyph glyph-name="uni1EA5" unicode="&#x1ea5;" horiz-adv-x="423" 
d="M208 495q75 0 96 -74l14 62h112l-107 -483h-113l14 58q-46 -70 -103 -70q-52 0 -79.5 39.5t-27.5 114.5q0 69 20 147.5t66.5 142t107.5 63.5zM234 395q-33 0 -58 -46.5t-35 -99t-10 -92.5q0 -69 48 -69q36 0 64 57l43 192q-4 26 -18.5 42t-33.5 16zM393 556h-60l-35 92
l-70 -92h-65l95 144h102zM594 771l-138 -144h-74l111 144h101z" />
    <glyph glyph-name="uni1EA6" unicode="&#x1ea6;" horiz-adv-x="424" 
d="M418 682h-60l-35 69l-70 -69h-65l95 108h102zM370 0h-126l7 123h-126l-46 -123h-133l286 667h145zM260 234l17 292l-112 -292h95zM226 735h-72l-74 108h98z" />
    <glyph glyph-name="uni1EA7" unicode="&#x1ea7;" horiz-adv-x="423" 
d="M208 495q75 0 96 -74l14 62h112l-107 -483h-113l14 58q-46 -70 -103 -70q-52 0 -79.5 39.5t-27.5 114.5q0 69 20 147.5t66.5 142t107.5 63.5zM234 395q-33 0 -58 -46.5t-35 -99t-10 -92.5q0 -69 48 -69q36 0 64 57l43 192q-4 26 -18.5 42t-33.5 16zM393 556h-60l-35 92
l-70 -92h-65l95 144h102zM202 627h-72l-74 144h98z" />
    <glyph glyph-name="uni1EA8" unicode="&#x1ea8;" horiz-adv-x="424" 
d="M418 682h-60l-35 69l-70 -69h-65l95 108h102zM370 0h-126l7 123h-126l-46 -123h-133l286 667h145zM260 234l17 292l-112 -292h95zM402 803l-39 9q21 36 66 36q57 0 57 -39q0 -27 -30 -53h-47q28 22 31 44q3 18 -15 18q-14 0 -23 -15z" />
    <glyph glyph-name="uni1EA9" unicode="&#x1ea9;" horiz-adv-x="423" 
d="M208 495q75 0 96 -74l14 62h112l-107 -483h-113l14 58q-46 -70 -103 -70q-52 0 -79.5 39.5t-27.5 114.5q0 69 20 147.5t66.5 142t107.5 63.5zM234 395q-33 0 -58 -46.5t-35 -99t-10 -92.5q0 -69 48 -69q36 0 64 57l43 192q-4 26 -18.5 42t-33.5 16zM393 556h-60l-35 92
l-70 -92h-65l95 144h102zM374 730l-39 12q21 48 66 48q57 0 57 -53q0 -36 -30 -70h-47q28 28 31 59q3 24 -15 24q-14 0 -23 -20z" />
    <glyph glyph-name="uni1EAA" unicode="&#x1eaa;" horiz-adv-x="424" 
d="M414 678h-60l-35 46l-70 -46h-65l95 72h102zM370 0h-126l7 123h-126l-46 -123h-133l286 667h145zM260 234l17 292l-112 -292h95zM372 757q-21 0 -34 6t-17 12.5t-11.5 12.5t-18.5 6q-23 0 -38 -34h-60q30 67 104 67q21 0 34 -6t17.5 -12.5t12 -12.5t18.5 -6q22 0 38 34
h60q-29 -67 -105 -67z" />
    <glyph glyph-name="uni1EAB" unicode="&#x1eab;" horiz-adv-x="423" 
d="M208 495q75 0 96 -74l14 62h112l-107 -483h-113l14 58q-46 -70 -103 -70q-52 0 -79.5 39.5t-27.5 114.5q0 69 20 147.5t66.5 142t107.5 63.5zM234 395q-33 0 -58 -46.5t-35 -99t-10 -92.5q0 -69 48 -69q36 0 64 57l43 192q-4 26 -18.5 42t-33.5 16zM386 523h-60l-35 92
l-70 -92h-65l95 144h102zM359 682q-21 0 -34 11.5t-17 25.5t-11.5 25.5t-18.5 11.5q-24 0 -38 -68h-60q30 134 104 134q21 0 34 -11.5t17.5 -25.5t12 -25.5t18.5 -11.5q22 0 38 68h60q-30 -134 -105 -134z" />
    <glyph glyph-name="uni1EAC" unicode="&#x1eac;" horiz-adv-x="424" 
d="M370 0h-126l7 123h-126l-46 -123h-133l286 667h145zM260 234l17 292l-112 -292h95zM433 723h-60l-35 92l-70 -92h-65l95 144h102zM192 -123q0 -28 -21 -48.5t-49 -20.5q-24 0 -39.5 16t-15.5 39q0 28 21 48.5t49 20.5q24 0 39.5 -16t15.5 -39z" />
    <glyph glyph-name="uni1EAD" unicode="&#x1ead;" horiz-adv-x="423" 
d="M208 495q75 0 96 -74l14 62h112l-107 -483h-113l14 58q-46 -70 -103 -70q-52 0 -79.5 39.5t-27.5 114.5q0 69 20 147.5t66.5 142t107.5 63.5zM234 395q-33 0 -58 -46.5t-35 -99t-10 -92.5q0 -69 48 -69q36 0 64 57l43 192q-4 26 -18.5 42t-33.5 16zM393 556h-60l-35 92
l-70 -92h-65l95 144h102zM188 -123q0 -28 -21 -48.5t-49 -20.5q-24 0 -39.5 16t-15.5 39q0 28 21 48.5t49 20.5q24 0 39.5 -16t15.5 -39z" />
    <glyph glyph-name="uni1EAE" unicode="&#x1eae;" horiz-adv-x="424" 
d="M370 0h-126l7 123h-126l-46 -123h-133l286 667h145zM260 234l17 292l-112 -292h95zM479 833l-138 -88h-74l111 88h101zM440 722q-61 -46 -138 -46t-111 46l59 29q16 -27 63 -27t79 27z" />
    <glyph glyph-name="uni1EAF" unicode="&#x1eaf;" horiz-adv-x="423" 
d="M208 495q75 0 96 -74l14 62h112l-107 -483h-113l14 58q-46 -70 -103 -70q-52 0 -79.5 39.5t-27.5 114.5q0 69 20 147.5t66.5 142t107.5 63.5zM234 395q-33 0 -58 -46.5t-35 -99t-10 -92.5q0 -69 48 -69q36 0 64 57l43 192q-4 26 -18.5 42t-33.5 16zM450 772l-138 -144
h-74l111 144h101zM404 578q-60 -63 -138 -63q-77 0 -111 63l59 40q16 -37 63 -37t79 37z" />
    <glyph glyph-name="uni1EB0" unicode="&#x1eb0;" horiz-adv-x="424" 
d="M370 0h-126l7 123h-126l-46 -123h-133l286 667h145zM260 234l17 292l-112 -292h95zM369 745h-72l-74 88h98zM440 722q-61 -46 -138 -46t-111 46l59 29q16 -27 63 -27t79 27z" />
    <glyph glyph-name="uni1EB1" unicode="&#x1eb1;" horiz-adv-x="423" 
d="M208 495q75 0 96 -74l14 62h112l-107 -483h-113l14 58q-46 -70 -103 -70q-52 0 -79.5 39.5t-27.5 114.5q0 69 20 147.5t66.5 142t107.5 63.5zM234 395q-33 0 -58 -46.5t-35 -99t-10 -92.5q0 -69 48 -69q36 0 64 57l43 192q-4 26 -18.5 42t-33.5 16zM340 632h-72l-74 144
h98zM404 578q-60 -63 -138 -63q-77 0 -111 63l59 40q16 -37 63 -37t79 37z" />
    <glyph glyph-name="uni1EB2" unicode="&#x1eb2;" horiz-adv-x="424" 
d="M370 0h-126l7 123h-126l-46 -123h-133l286 667h145zM260 234l17 292l-112 -292h95zM311 786l-39 7q20 29 66 29q57 0 57 -32q0 -22 -30 -43h-47q28 17 31 36q3 15 -15 15q-14 0 -23 -12zM440 722q-61 -46 -138 -46t-111 46l59 29q16 -27 63 -27t79 27z" />
    <glyph glyph-name="uni1EB3" unicode="&#x1eb3;" horiz-adv-x="423" 
d="M208 495q75 0 96 -74l14 62h112l-107 -483h-113l14 58q-46 -70 -103 -70q-52 0 -79.5 39.5t-27.5 114.5q0 69 20 147.5t66.5 142t107.5 63.5zM234 395q-33 0 -58 -46.5t-35 -99t-10 -92.5q0 -69 48 -69q36 0 64 57l43 192q-4 26 -18.5 42t-33.5 16zM285 693l-39 12
q21 48 66 48q57 0 57 -53q0 -36 -30 -70h-47q28 28 31 59q3 24 -15 24q-14 0 -23 -20zM404 578q-60 -63 -138 -63q-77 0 -111 63l59 40q16 -37 63 -37t79 37z" />
    <glyph glyph-name="uni1EB4" unicode="&#x1eb4;" horiz-adv-x="424" 
d="M370 0h-126l7 123h-126l-46 -123h-133l286 667h145zM260 234l17 292l-112 -292h95zM441 717q-60 -39 -138 -39q-77 0 -111 39l59 24q16 -22 63 -22q48 0 79 22zM372 757q-21 0 -34 6t-17 12.5t-11.5 12.5t-18.5 6q-23 0 -38 -34h-60q30 67 104 67q21 0 34 -6t17.5 -12.5
t12 -12.5t18.5 -6q22 0 38 34h60q-29 -67 -105 -67z" />
    <glyph glyph-name="uni1EB5" unicode="&#x1eb5;" horiz-adv-x="423" 
d="M208 495q75 0 96 -74l14 62h112l-107 -483h-113l14 58q-46 -70 -103 -70q-52 0 -79.5 39.5t-27.5 114.5q0 69 20 147.5t66.5 142t107.5 63.5zM234 395q-33 0 -58 -46.5t-35 -99t-10 -92.5q0 -69 48 -69q36 0 64 57l43 192q-4 26 -18.5 42t-33.5 16zM404 578
q-60 -63 -138 -63q-77 0 -111 63l59 40q16 -37 63 -37t79 37zM348 636q-21 0 -34 11.5t-17 25.5t-11.5 25.5t-18.5 11.5q-24 0 -38 -68h-60q30 134 104 134q21 0 34 -11.5t17.5 -25.5t12 -25.5t18.5 -11.5q22 0 38 68h60q-30 -134 -105 -134z" />
    <glyph glyph-name="uni1EB6" unicode="&#x1eb6;" horiz-adv-x="424" 
d="M370 0h-126l7 123h-126l-46 -123h-133l286 667h145zM260 234l17 292l-112 -292h95zM192 -123q0 -28 -21 -48.5t-49 -20.5q-24 0 -39.5 16t-15.5 39q0 28 21 48.5t49 20.5q24 0 39.5 -16t15.5 -39zM450 775q-60 -63 -138 -63q-77 0 -111 63l59 40q16 -37 63 -37t79 37z
" />
    <glyph glyph-name="uni1EB7" unicode="&#x1eb7;" horiz-adv-x="423" 
d="M208 495q75 0 96 -74l14 62h112l-107 -483h-113l14 58q-46 -70 -103 -70q-52 0 -79.5 39.5t-27.5 114.5q0 69 20 147.5t66.5 142t107.5 63.5zM234 395q-33 0 -58 -46.5t-35 -99t-10 -92.5q0 -69 48 -69q36 0 64 57l43 192q-4 26 -18.5 42t-33.5 16zM187 -123
q0 -28 -21 -48.5t-49 -20.5q-24 0 -39.5 16t-15.5 39q0 28 21 48.5t49 20.5q24 0 39.5 -16t15.5 -39zM410 608q-60 -63 -138 -63q-77 0 -111 63l59 40q16 -37 63 -37t79 37z" />
    <glyph glyph-name="uni1EB8" unicode="&#x1eb8;" horiz-adv-x="378" 
d="M290 0h-292l147 667h292l-24 -111h-166l-36 -161h159l-25 -111h-158l-39 -173h166zM178 -123q0 -28 -21 -48.5t-49 -20.5q-24 0 -39.5 16t-15.5 39q0 28 21 48.5t49 20.5q24 0 39.5 -16t15.5 -39z" />
    <glyph glyph-name="uni1EB9" unicode="&#x1eb9;" horiz-adv-x="404" 
d="M182 -12q-78 0 -121.5 47.5t-43.5 134.5q0 47 14 101t40.5 105t71 85t98.5 34q75 0 112 -43t37 -122q0 -45 -19 -126h-245q-5 -18 -5 -41q0 -34 19.5 -58.5t62.5 -24.5t83 42l40 -70q-61 -64 -144 -64zM141 284h141q6 32 6 49q0 31 -15 50.5t-40 19.5q-37 0 -60.5 -36.5
t-31.5 -82.5zM192 -123q0 -28 -21 -48.5t-49 -20.5q-24 0 -39.5 16t-15.5 39q0 28 21 48.5t49 20.5q24 0 39.5 -16t15.5 -39z" />
    <glyph glyph-name="uni1EBA" unicode="&#x1eba;" horiz-adv-x="378" 
d="M290 0h-292l147 667h292l-24 -111h-166l-36 -161h159l-25 -111h-158l-39 -173h166zM290 760l-39 12q21 48 66 48q57 0 57 -53q0 -36 -30 -70h-47q28 28 31 59q3 24 -15 24q-14 0 -23 -20z" />
    <glyph glyph-name="uni1EBB" unicode="&#x1ebb;" horiz-adv-x="404" 
d="M182 -12q-78 0 -121.5 47.5t-43.5 134.5q0 47 14 101t40.5 105t71 85t98.5 34q75 0 112 -43t37 -122q0 -45 -19 -126h-245q-5 -18 -5 -41q0 -34 19.5 -58.5t62.5 -24.5t83 42l40 -70q-61 -64 -144 -64zM141 284h141q6 32 6 49q0 31 -15 50.5t-40 19.5q-37 0 -60.5 -36.5
t-31.5 -82.5zM267 590l-39 12q21 48 66 48q57 0 57 -53q0 -36 -30 -70h-47q28 28 31 59q3 24 -15 24q-14 0 -23 -20z" />
    <glyph glyph-name="uni1EBC" unicode="&#x1ebc;" horiz-adv-x="378" 
d="M290 0h-292l147 667h292l-24 -111h-166l-36 -161h159l-25 -111h-158l-39 -173h166zM356 721q-21 0 -34 11.5t-17 25.5t-11.5 25.5t-18.5 11.5q-24 0 -38 -68h-60q30 134 104 134q21 0 34 -11.5t17.5 -25.5t12 -25.5t18.5 -11.5q22 0 38 68h60q-30 -134 -105 -134z" />
    <glyph glyph-name="uni1EBD" unicode="&#x1ebd;" horiz-adv-x="404" 
d="M182 -12q-78 0 -121.5 47.5t-43.5 134.5q0 47 14 101t40.5 105t71 85t98.5 34q75 0 112 -43t37 -122q0 -45 -19 -126h-245q-5 -18 -5 -41q0 -34 19.5 -58.5t62.5 -24.5t83 42l40 -70q-61 -64 -144 -64zM141 284h141q6 32 6 49q0 31 -15 50.5t-40 19.5q-37 0 -60.5 -36.5
t-31.5 -82.5zM334 554q-21 0 -34 11.5t-17 25.5t-11.5 25.5t-18.5 11.5q-24 0 -38 -68h-60q30 134 104 134q21 0 34 -11.5t17.5 -25.5t12 -25.5t18.5 -11.5q22 0 38 68h60q-30 -134 -105 -134z" />
    <glyph glyph-name="uni1EBE" unicode="&#x1ebe;" horiz-adv-x="378" 
d="M404 682h-60l-35 69l-70 -69h-65l95 108h102zM605 843l-138 -108h-74l111 108h101zM290 0h-292l147 667h292l-24 -111h-166l-36 -161h159l-25 -111h-158l-39 -173h166z" />
    <glyph glyph-name="uni1EBF" unicode="&#x1ebf;" horiz-adv-x="404" 
d="M397 556h-60l-35 92l-70 -92h-65l95 144h102zM598 771l-138 -144h-74l111 144h101zM182 -12q-78 0 -121.5 47.5t-43.5 134.5q0 47 14 101t40.5 105t71 85t98.5 34q75 0 112 -43t37 -122q0 -45 -19 -126h-245q-5 -18 -5 -41q0 -34 19.5 -58.5t62.5 -24.5t83 42l40 -70
q-61 -64 -144 -64zM141 284h141q6 32 6 49q0 31 -15 50.5t-40 19.5q-37 0 -60.5 -36.5t-31.5 -82.5z" />
    <glyph glyph-name="uni1EC0" unicode="&#x1ec0;" horiz-adv-x="378" 
d="M405 682h-60l-35 69l-70 -69h-65l95 108h102zM290 0h-292l147 667h292l-24 -111h-166l-36 -161h159l-25 -111h-158l-39 -173h166zM214 735h-72l-74 108h98z" />
    <glyph glyph-name="uni1EC1" unicode="&#x1ec1;" horiz-adv-x="404" 
d="M397 556h-60l-35 92l-70 -92h-65l95 144h102zM182 -12q-78 0 -121.5 47.5t-43.5 134.5q0 47 14 101t40.5 105t71 85t98.5 34q75 0 112 -43t37 -122q0 -45 -19 -126h-245q-5 -18 -5 -41q0 -34 19.5 -58.5t62.5 -24.5t83 42l40 -70q-61 -64 -144 -64zM141 284h141
q6 32 6 49q0 31 -15 50.5t-40 19.5q-37 0 -60.5 -36.5t-31.5 -82.5zM207 627h-72l-74 144h98z" />
    <glyph glyph-name="uni1EC2" unicode="&#x1ec2;" horiz-adv-x="378" 
d="M404 682h-60l-35 69l-70 -69h-65l95 108h102zM290 0h-292l147 667h292l-24 -111h-166l-36 -161h159l-25 -111h-158l-39 -173h166zM388 803l-39 9q21 36 66 36q57 0 57 -39q0 -27 -30 -53h-47q28 22 31 44q3 18 -15 18q-14 0 -23 -15z" />
    <glyph glyph-name="uni1EC3" unicode="&#x1ec3;" horiz-adv-x="404" 
d="M397 556h-60l-35 92l-70 -92h-65l95 144h102zM182 -12q-78 0 -121.5 47.5t-43.5 134.5q0 47 14 101t40.5 105t71 85t98.5 34q75 0 112 -43t37 -122q0 -45 -19 -126h-245q-5 -18 -5 -41q0 -34 19.5 -58.5t62.5 -24.5t83 42l40 -70q-61 -64 -144 -64zM141 284h141
q6 32 6 49q0 31 -15 50.5t-40 19.5q-37 0 -60.5 -36.5t-31.5 -82.5zM379 730l-39 12q21 48 66 48q57 0 57 -53q0 -36 -30 -70h-47q28 28 31 59q3 24 -15 24q-14 0 -23 -20z" />
    <glyph glyph-name="uni1EC4" unicode="&#x1ec4;" horiz-adv-x="378" 
d="M399 678h-60l-35 46l-70 -46h-65l95 72h102zM290 0h-292l147 667h292l-24 -111h-166l-36 -161h159l-25 -111h-158l-39 -173h166zM357 757q-35 0 -51 18.5t-30 18.5q-23 0 -38 -34h-60q30 67 104 67q34 0 51 -18.5t31 -18.5q22 0 38 34h60q-29 -67 -105 -67z" />
    <glyph glyph-name="uni1EC5" unicode="&#x1ec5;" horiz-adv-x="404" 
d="M390 523h-60l-35 92l-70 -92h-65l95 144h102zM182 -12q-78 0 -121.5 47.5t-43.5 134.5q0 47 14 101t40.5 105t71 85t98.5 34q75 0 112 -43t37 -122q0 -45 -19 -126h-245q-5 -18 -5 -41q0 -34 19.5 -58.5t62.5 -24.5t83 42l40 -70q-61 -64 -144 -64zM141 284h141
q6 32 6 49q0 31 -15 50.5t-40 19.5q-37 0 -60.5 -36.5t-31.5 -82.5zM362 682q-21 0 -34 11.5t-17 25.5t-11.5 25.5t-18.5 11.5q-24 0 -38 -68h-60q30 134 104 134q21 0 34 -11.5t17.5 -25.5t12 -25.5t18.5 -11.5q22 0 38 68h60q-30 -134 -105 -134z" />
    <glyph glyph-name="uni1EC6" unicode="&#x1ec6;" horiz-adv-x="378" 
d="M420 723h-60l-35 92l-70 -92h-65l95 144h102zM290 0h-292l147 667h292l-24 -111h-166l-36 -161h159l-25 -111h-158l-39 -173h166zM179 -123q0 -28 -21 -48.5t-49 -20.5q-24 0 -39.5 16t-15.5 39q0 28 21 48.5t49 20.5q24 0 39.5 -16t15.5 -39z" />
    <glyph glyph-name="uni1EC7" unicode="&#x1ec7;" horiz-adv-x="404" 
d="M397 556h-60l-35 92l-70 -92h-65l95 144h102zM182 -12q-78 0 -121.5 47.5t-43.5 134.5q0 47 14 101t40.5 105t71 85t98.5 34q75 0 112 -43t37 -122q0 -45 -19 -126h-245q-5 -18 -5 -41q0 -34 19.5 -58.5t62.5 -24.5t83 42l40 -70q-61 -64 -144 -64zM141 284h141
q6 32 6 49q0 31 -15 50.5t-40 19.5q-37 0 -60.5 -36.5t-31.5 -82.5zM192 -123q0 -28 -21 -48.5t-49 -20.5q-24 0 -39.5 16t-15.5 39q0 28 21 48.5t49 20.5q24 0 39.5 -16t15.5 -39z" />
    <glyph glyph-name="uni1EC8" unicode="&#x1ec8;" horiz-adv-x="230" 
d="M124 0h-126l147 667h126zM207 760l-39 12q21 48 66 48q57 0 57 -53q0 -36 -30 -70h-47q28 28 31 59q3 24 -15 24q-14 0 -23 -20z" />
    <glyph glyph-name="uni1EC9" unicode="&#x1ec9;" horiz-adv-x="204" 
d="M105 0h-114l108 483h113zM156 590l-39 12q21 48 66 48q57 0 57 -53q0 -36 -30 -70h-47q28 28 31 59q3 24 -15 24q-14 0 -23 -20z" />
    <glyph glyph-name="uni1ECA" unicode="&#x1eca;" horiz-adv-x="230" 
d="M124 0h-126l147 667h126zM95 -123q0 -28 -21 -48.5t-49 -20.5q-24 0 -39.5 16t-15.5 39q0 28 21 48.5t49 20.5q24 0 39.5 -16t15.5 -39z" />
    <glyph glyph-name="uni1ECB" unicode="&#x1ecb;" horiz-adv-x="204" 
d="M174 540q-27 0 -45 17t-18 42q0 35 25 56.5t54 21.5q27 0 44.5 -17.5t17.5 -41.5q0 -35 -24.5 -56.5t-53.5 -21.5zM105 0h-114l108 483h113zM84 -123q0 -28 -21 -48.5t-49 -20.5q-24 0 -39.5 16t-15.5 39q0 28 21 48.5t49 20.5q24 0 39.5 -16t15.5 -39z" />
    <glyph glyph-name="uni1ECC" unicode="&#x1ecc;" horiz-adv-x="478" 
d="M203 -12q-86 0 -129.5 59t-43.5 153q0 63 16.5 140t48.5 155t89.5 130.5t128.5 52.5q86 0 129.5 -60t43.5 -154q0 -63 -16.5 -140t-48.5 -154.5t-89.5 -129.5t-128.5 -52zM210 100q32 0 61 42.5t47 102.5t28.5 120.5t10.5 101.5q0 99 -52 99q-32 0 -61 -42.5t-47 -103
t-28 -121t-10 -102.5q0 -97 51 -97zM218 -123q0 -28 -21 -48.5t-49 -20.5q-24 0 -39.5 16t-15.5 39q0 28 21 48.5t49 20.5q24 0 39.5 -16t15.5 -39z" />
    <glyph glyph-name="uni1ECD" unicode="&#x1ecd;" horiz-adv-x="417" 
d="M173 -12q-76 0 -116 46t-40 131q0 73 25 147t78 128.5t122 54.5q76 0 116 -46t40 -131q0 -73 -25 -147t-78 -128.5t-122 -54.5zM180 88q45 0 74.5 83t29.5 149q0 75 -48 75q-32 0 -57.5 -45.5t-36.5 -97.5t-11 -90q0 -74 49 -74zM189 -123q0 -28 -21 -48.5t-49 -20.5
q-24 0 -39.5 16t-15.5 39q0 28 21 48.5t49 20.5q24 0 39.5 -16t15.5 -39z" />
    <glyph glyph-name="uni1ECE" unicode="&#x1ece;" horiz-adv-x="478" 
d="M203 -12q-86 0 -129.5 59t-43.5 153q0 63 16.5 140t48.5 155t89.5 130.5t128.5 52.5q86 0 129.5 -60t43.5 -154q0 -63 -16.5 -140t-48.5 -154.5t-89.5 -129.5t-128.5 -52zM210 100q32 0 61 42.5t47 102.5t28.5 120.5t10.5 101.5q0 99 -52 99q-32 0 -61 -42.5t-47 -103
t-28 -121t-10 -102.5q0 -97 51 -97zM331 760l-39 12q21 48 66 48q57 0 57 -53q0 -36 -30 -70h-47q28 28 31 59q3 24 -15 24q-14 0 -23 -20z" />
    <glyph glyph-name="uni1ECF" unicode="&#x1ecf;" horiz-adv-x="417" 
d="M173 -12q-76 0 -116 46t-40 131q0 73 25 147t78 128.5t122 54.5q76 0 116 -46t40 -131q0 -73 -25 -147t-78 -128.5t-122 -54.5zM180 88q45 0 74.5 83t29.5 149q0 75 -48 75q-32 0 -57.5 -45.5t-36.5 -97.5t-11 -90q0 -74 49 -74zM264 590l-39 12q21 48 66 48q57 0 57 -53
q0 -36 -30 -70h-47q28 28 31 59q3 24 -15 24q-14 0 -23 -20z" />
    <glyph glyph-name="uni1ED0" unicode="&#x1ed0;" horiz-adv-x="478" 
d="M444 682h-60l-35 69l-70 -69h-65l95 108h102zM645 843l-138 -108h-74l111 108h101zM203 -12q-86 0 -129.5 59t-43.5 153q0 63 16.5 140t48.5 155t89.5 130.5t128.5 52.5q86 0 129.5 -60t43.5 -154q0 -63 -16.5 -140t-48.5 -154.5t-89.5 -129.5t-128.5 -52zM210 100
q32 0 61 42.5t47 102.5t28.5 120.5t10.5 101.5q0 99 -52 99q-32 0 -61 -42.5t-47 -103t-28 -121t-10 -102.5q0 -97 51 -97z" />
    <glyph glyph-name="uni1ED1" unicode="&#x1ed1;" horiz-adv-x="417" 
d="M393 556h-60l-35 92l-70 -92h-65l95 144h102zM594 771l-138 -144h-74l111 144h101zM173 -12q-76 0 -116 46t-40 131q0 73 25 147t78 128.5t122 54.5q76 0 116 -46t40 -131q0 -73 -25 -147t-78 -128.5t-122 -54.5zM180 88q45 0 74.5 83t29.5 149q0 75 -48 75
q-32 0 -57.5 -45.5t-36.5 -97.5t-11 -90q0 -74 49 -74z" />
    <glyph glyph-name="uni1ED2" unicode="&#x1ed2;" horiz-adv-x="478" 
d="M444 682h-60l-35 69l-70 -69h-65l95 108h102zM203 -12q-86 0 -129.5 59t-43.5 153q0 63 16.5 140t48.5 155t89.5 130.5t128.5 52.5q86 0 129.5 -60t43.5 -154q0 -63 -16.5 -140t-48.5 -154.5t-89.5 -129.5t-128.5 -52zM210 100q32 0 61 42.5t47 102.5t28.5 120.5
t10.5 101.5q0 99 -52 99q-32 0 -61 -42.5t-47 -103t-28 -121t-10 -102.5q0 -97 51 -97zM253 735h-72l-74 108h98z" />
    <glyph glyph-name="uni1ED3" unicode="&#x1ed3;" horiz-adv-x="417" 
d="M393 556h-60l-35 92l-70 -92h-65l95 144h102zM173 -12q-76 0 -116 46t-40 131q0 73 25 147t78 128.5t122 54.5q76 0 116 -46t40 -131q0 -73 -25 -147t-78 -128.5t-122 -54.5zM180 88q45 0 74.5 83t29.5 149q0 75 -48 75q-32 0 -57.5 -45.5t-36.5 -97.5t-11 -90
q0 -74 49 -74zM203 627h-72l-74 144h98z" />
    <glyph glyph-name="uni1ED4" unicode="&#x1ed4;" horiz-adv-x="478" 
d="M444 682h-60l-35 69l-70 -69h-65l95 108h102zM203 -12q-86 0 -129.5 59t-43.5 153q0 63 16.5 140t48.5 155t89.5 130.5t128.5 52.5q86 0 129.5 -60t43.5 -154q0 -63 -16.5 -140t-48.5 -154.5t-89.5 -129.5t-128.5 -52zM210 100q32 0 61 42.5t47 102.5t28.5 120.5
t10.5 101.5q0 99 -52 99q-32 0 -61 -42.5t-47 -103t-28 -121t-10 -102.5q0 -97 51 -97zM429 803l-39 9q21 36 66 36q57 0 57 -39q0 -27 -30 -53h-47q28 22 31 44q3 18 -15 18q-14 0 -23 -15z" />
    <glyph glyph-name="uni1ED5" unicode="&#x1ed5;" horiz-adv-x="417" 
d="M393 556h-60l-35 92l-70 -92h-65l95 144h102zM173 -12q-76 0 -116 46t-40 131q0 73 25 147t78 128.5t122 54.5q76 0 116 -46t40 -131q0 -73 -25 -147t-78 -128.5t-122 -54.5zM180 88q45 0 74.5 83t29.5 149q0 75 -48 75q-32 0 -57.5 -45.5t-36.5 -97.5t-11 -90
q0 -74 49 -74zM375 730l-39 12q21 48 66 48q57 0 57 -53q0 -36 -30 -70h-47q28 28 31 59q3 24 -15 24q-14 0 -23 -20z" />
    <glyph glyph-name="uni1ED6" unicode="&#x1ed6;" horiz-adv-x="478" 
d="M439 678h-60l-35 46l-70 -46h-65l95 72h102zM203 -12q-86 0 -129.5 59t-43.5 153q0 63 16.5 140t48.5 155t89.5 130.5t128.5 52.5q86 0 129.5 -60t43.5 -154q0 -63 -16.5 -140t-48.5 -154.5t-89.5 -129.5t-128.5 -52zM210 100q32 0 61 42.5t47 102.5t28.5 120.5
t10.5 101.5q0 99 -52 99q-32 0 -61 -42.5t-47 -103t-28 -121t-10 -102.5q0 -97 51 -97zM397 757q-35 0 -51 18.5t-30 18.5q-23 0 -38 -34h-60q30 67 104 67q34 0 51 -18.5t31 -18.5q22 0 38 34h60q-29 -67 -105 -67z" />
    <glyph glyph-name="uni1ED7" unicode="&#x1ed7;" horiz-adv-x="417" 
d="M386 523h-60l-35 92l-70 -92h-65l95 144h102zM173 -12q-76 0 -116 46t-40 131q0 73 25 147t78 128.5t122 54.5q76 0 116 -46t40 -131q0 -73 -25 -147t-78 -128.5t-122 -54.5zM180 88q45 0 74.5 83t29.5 149q0 75 -48 75q-32 0 -57.5 -45.5t-36.5 -97.5t-11 -90
q0 -74 49 -74zM359 682q-21 0 -34 11.5t-17 25.5t-11.5 25.5t-18.5 11.5q-24 0 -38 -68h-60q30 134 104 134q21 0 34 -11.5t17.5 -25.5t12 -25.5t18.5 -11.5q22 0 38 68h60q-30 -134 -105 -134z" />
    <glyph glyph-name="uni1ED8" unicode="&#x1ed8;" horiz-adv-x="478" 
d="M460 723h-60l-35 92l-70 -92h-65l95 144h102zM203 -12q-86 0 -129.5 59t-43.5 153q0 63 16.5 140t48.5 155t89.5 130.5t128.5 52.5q86 0 129.5 -60t43.5 -154q0 -63 -16.5 -140t-48.5 -154.5t-89.5 -129.5t-128.5 -52zM210 100q32 0 61 42.5t47 102.5t28.5 120.5
t10.5 101.5q0 99 -52 99q-32 0 -61 -42.5t-47 -103t-28 -121t-10 -102.5q0 -97 51 -97zM218 -123q0 -28 -21 -48.5t-49 -20.5q-24 0 -39.5 16t-15.5 39q0 28 21 48.5t49 20.5q24 0 39.5 -16t15.5 -39z" />
    <glyph glyph-name="uni1ED9" unicode="&#x1ed9;" horiz-adv-x="417" 
d="M393 556h-60l-35 92l-70 -92h-65l95 144h102zM173 -12q-76 0 -116 46t-40 131q0 73 25 147t78 128.5t122 54.5q76 0 116 -46t40 -131q0 -73 -25 -147t-78 -128.5t-122 -54.5zM180 88q45 0 74.5 83t29.5 149q0 75 -48 75q-32 0 -57.5 -45.5t-36.5 -97.5t-11 -90
q0 -74 49 -74zM189 -123q0 -28 -21 -48.5t-49 -20.5q-24 0 -39.5 16t-15.5 39q0 28 21 48.5t49 20.5q24 0 39.5 -16t15.5 -39z" />
    <glyph glyph-name="uni1EDA" unicode="&#x1eda;" horiz-adv-x="478" 
d="M511 867l-138 -144h-74l111 144h101zM203 -12q-86 0 -129.5 59t-43.5 153q0 63 16.5 140t48.5 155t89.5 130.5t128.5 52.5q107 0 150 -95q36 25 47 53h-7q-17 0 -29 12t-12 32q0 23 17.5 40t40.5 17q21 0 36 -15t15 -40q0 -39 -26.5 -77.5t-67.5 -62.5q9 -36 9 -78
q0 -63 -16.5 -140t-48.5 -154.5t-89.5 -129.5t-128.5 -52zM210 100q32 0 61 42.5t47 102.5t28.5 120.5t10.5 101.5q0 99 -52 99q-32 0 -61 -42.5t-47 -103t-28 -121t-10 -102.5q0 -97 51 -97z" />
    <glyph glyph-name="uni1EDB" unicode="&#x1edb;" horiz-adv-x="417" 
d="M444 700l-138 -144h-74l111 144h101zM467 548q0 -37 -24.5 -74t-62.5 -61q18 -39 18 -95q0 -73 -25 -147t-78 -128.5t-122 -54.5q-76 0 -116 46t-40 131q0 73 25 147t78 128.5t122 54.5q75 0 116 -47q38 26 48 54h-7q-17 0 -29 12t-12 32q0 23 18 40t40 17t36.5 -15
t14.5 -40zM180 88q45 0 74.5 83t29.5 149q0 75 -48 75q-32 0 -57.5 -45.5t-36.5 -97.5t-11 -90q0 -74 49 -74z" />
    <glyph glyph-name="uni1EDC" unicode="&#x1edc;" horiz-adv-x="478" 
d="M203 -12q-86 0 -129.5 59t-43.5 153q0 63 16.5 140t48.5 155t89.5 130.5t128.5 52.5q107 0 150 -95q36 25 47 53h-7q-17 0 -29 12t-12 32q0 23 17.5 40t40.5 17q21 0 36 -15t15 -40q0 -39 -26.5 -77.5t-67.5 -62.5q9 -36 9 -78q0 -63 -16.5 -140t-48.5 -154.5
t-89.5 -129.5t-128.5 -52zM210 100q32 0 61 42.5t47 102.5t28.5 120.5t10.5 101.5q0 99 -52 99q-32 0 -61 -42.5t-47 -103t-28 -121t-10 -102.5q0 -97 51 -97zM388 723h-72l-74 144h98z" />
    <glyph glyph-name="uni1EDD" unicode="&#x1edd;" horiz-adv-x="417" 
d="M467 548q0 -37 -24.5 -74t-62.5 -61q18 -39 18 -95q0 -73 -25 -147t-78 -128.5t-122 -54.5q-76 0 -116 46t-40 131q0 73 25 147t78 128.5t122 54.5q75 0 116 -47q38 26 48 54h-7q-17 0 -29 12t-12 32q0 23 18 40t40 17t36.5 -15t14.5 -40zM180 88q45 0 74.5 83t29.5 149
q0 75 -48 75q-32 0 -57.5 -45.5t-36.5 -97.5t-11 -90q0 -74 49 -74zM322 556h-72l-74 144h98z" />
    <glyph glyph-name="uni1EDE" unicode="&#x1ede;" horiz-adv-x="478" 
d="M203 -12q-86 0 -129.5 59t-43.5 153q0 63 16.5 140t48.5 155t89.5 130.5t128.5 52.5q107 0 150 -95q36 25 47 53h-7q-17 0 -29 12t-12 32q0 23 17.5 40t40.5 17q21 0 36 -15t15 -40q0 -39 -26.5 -77.5t-67.5 -62.5q9 -36 9 -78q0 -63 -16.5 -140t-48.5 -154.5
t-89.5 -129.5t-128.5 -52zM210 100q32 0 61 42.5t47 102.5t28.5 120.5t10.5 101.5q0 99 -52 99q-32 0 -61 -42.5t-47 -103t-28 -121t-10 -102.5q0 -97 51 -97zM330 760l-39 12q21 48 66 48q57 0 57 -53q0 -36 -30 -70h-47q28 28 31 59q3 24 -15 24q-14 0 -23 -20z" />
    <glyph glyph-name="uni1EDF" unicode="&#x1edf;" horiz-adv-x="417" 
d="M467 548q0 -37 -24.5 -74t-62.5 -61q18 -39 18 -95q0 -73 -25 -147t-78 -128.5t-122 -54.5q-76 0 -116 46t-40 131q0 73 25 147t78 128.5t122 54.5q75 0 116 -47q38 26 48 54h-7q-17 0 -29 12t-12 32q0 23 18 40t40 17t36.5 -15t14.5 -40zM180 88q45 0 74.5 83t29.5 149
q0 75 -48 75q-32 0 -57.5 -45.5t-36.5 -97.5t-11 -90q0 -74 49 -74zM264 590l-39 12q21 48 66 48q57 0 57 -53q0 -36 -30 -70h-47q28 28 31 59q3 24 -15 24q-14 0 -23 -20z" />
    <glyph glyph-name="uni1EE0" unicode="&#x1ee0;" horiz-adv-x="478" 
d="M203 -12q-86 0 -129.5 59t-43.5 153q0 63 16.5 140t48.5 155t89.5 130.5t128.5 52.5q107 0 150 -95q36 25 47 53h-7q-17 0 -29 12t-12 32q0 23 17.5 40t40.5 17q21 0 36 -15t15 -40q0 -39 -26.5 -77.5t-67.5 -62.5q9 -36 9 -78q0 -63 -16.5 -140t-48.5 -154.5
t-89.5 -129.5t-128.5 -52zM210 100q32 0 61 42.5t47 102.5t28.5 120.5t10.5 101.5q0 99 -52 99q-32 0 -61 -42.5t-47 -103t-28 -121t-10 -102.5q0 -97 51 -97zM397 721q-21 0 -34 11.5t-17 25.5t-11.5 25.5t-18.5 11.5q-24 0 -38 -68h-60q30 134 104 134q21 0 34 -11.5
t17.5 -25.5t12 -25.5t18.5 -11.5q22 0 38 68h60q-30 -134 -105 -134z" />
    <glyph glyph-name="uni1EE1" unicode="&#x1ee1;" horiz-adv-x="417" 
d="M467 548q0 -37 -24.5 -74t-62.5 -61q18 -39 18 -95q0 -73 -25 -147t-78 -128.5t-122 -54.5q-76 0 -116 46t-40 131q0 73 25 147t78 128.5t122 54.5q75 0 116 -47q38 26 48 54h-7q-17 0 -29 12t-12 32q0 23 18 40t40 17t36.5 -15t14.5 -40zM180 88q45 0 74.5 83t29.5 149
q0 75 -48 75q-32 0 -57.5 -45.5t-36.5 -97.5t-11 -90q0 -74 49 -74zM295 554q-21 0 -34 11.5t-17 25.5t-11.5 25.5t-18.5 11.5q-24 0 -38 -68h-60q30 134 104 134q21 0 34 -11.5t17.5 -25.5t12 -25.5t18.5 -11.5q22 0 38 68h60q-30 -134 -105 -134z" />
    <glyph glyph-name="uni1EE2" unicode="&#x1ee2;" horiz-adv-x="478" 
d="M203 -12q-86 0 -129.5 59t-43.5 153q0 63 16.5 140t48.5 155t89.5 130.5t128.5 52.5q107 0 150 -95q36 25 47 53h-7q-17 0 -29 12t-12 32q0 23 17.5 40t40.5 17q21 0 36 -15t15 -40q0 -39 -26.5 -77.5t-67.5 -62.5q9 -36 9 -78q0 -63 -16.5 -140t-48.5 -154.5
t-89.5 -129.5t-128.5 -52zM210 100q32 0 61 42.5t47 102.5t28.5 120.5t10.5 101.5q0 99 -52 99q-32 0 -61 -42.5t-47 -103t-28 -121t-10 -102.5q0 -97 51 -97zM218 -123q0 -28 -21 -48.5t-49 -20.5q-24 0 -39.5 16t-15.5 39q0 28 21 48.5t49 20.5q24 0 39.5 -16t15.5 -39z
" />
    <glyph glyph-name="uni1EE3" unicode="&#x1ee3;" horiz-adv-x="417" 
d="M467 548q0 -37 -24.5 -74t-62.5 -61q18 -39 18 -95q0 -73 -25 -147t-78 -128.5t-122 -54.5q-76 0 -116 46t-40 131q0 73 25 147t78 128.5t122 54.5q75 0 116 -47q38 26 48 54h-7q-17 0 -29 12t-12 32q0 23 18 40t40 17t36.5 -15t14.5 -40zM180 88q45 0 74.5 83t29.5 149
q0 75 -48 75q-32 0 -57.5 -45.5t-36.5 -97.5t-11 -90q0 -74 49 -74zM189 -123q0 -28 -21 -48.5t-49 -20.5q-24 0 -39.5 16t-15.5 39q0 28 21 48.5t49 20.5q24 0 39.5 -16t15.5 -39z" />
    <glyph glyph-name="uni1EE4" unicode="&#x1ee4;" horiz-adv-x="484" 
d="M209 -12q-74 0 -123 45.5t-49 120.5q0 21 5 44l103 469h126l-106 -480q-3 -21 -3 -29q0 -28 15.5 -43.5t40.5 -15.5q57 0 76 88l105 480h126l-104 -474q-23 -104 -79 -154.5t-133 -50.5zM220 -123q0 -28 -21 -48.5t-49 -20.5q-24 0 -39.5 16t-15.5 39q0 28 21 48.5
t49 20.5q24 0 39.5 -16t15.5 -39z" />
    <glyph glyph-name="uni1EE5" unicode="&#x1ee5;" 
d="M99 483h113l-76 -342q-4 -18 -4 -22q0 -31 31 -31q41 0 77 62l74 333h114l-107 -483h-114l14 61q-52 -73 -122 -73q-41 0 -65 22t-24 59q0 17 4 29zM189 -123q0 -28 -21 -48.5t-49 -20.5q-24 0 -39.5 16t-15.5 39q0 28 21 48.5t49 20.5q24 0 39.5 -16t15.5 -39z" />
    <glyph glyph-name="uni1EE6" unicode="&#x1ee6;" horiz-adv-x="484" 
d="M209 -12q-74 0 -123 45.5t-49 120.5q0 21 5 44l103 469h126l-106 -480q-3 -21 -3 -29q0 -28 15.5 -43.5t40.5 -15.5q57 0 76 88l105 480h126l-104 -474q-23 -104 -79 -154.5t-133 -50.5zM333 760l-39 12q21 48 66 48q57 0 57 -53q0 -36 -30 -70h-47q28 28 31 59
q3 24 -15 24q-14 0 -23 -20z" />
    <glyph glyph-name="uni1EE7" unicode="&#x1ee7;" 
d="M99 483h113l-76 -342q-4 -18 -4 -22q0 -31 31 -31q41 0 77 62l74 333h114l-107 -483h-114l14 61q-52 -73 -122 -73q-41 0 -65 22t-24 59q0 17 4 29zM265 590l-39 12q21 48 66 48q57 0 57 -53q0 -36 -30 -70h-47q28 28 31 59q3 24 -15 24q-14 0 -23 -20z" />
    <glyph glyph-name="uni1EE8" unicode="&#x1ee8;" horiz-adv-x="484" 
d="M513 867l-138 -144h-74l111 144h101zM629 743q0 -43 -34.5 -87t-86.5 -66l-87 -397q-23 -104 -79 -154.5t-133 -50.5q-74 0 -123 45.5t-49 120.5q0 21 5 44l103 469h126l-106 -480q-3 -21 -3 -29q0 -28 15.5 -43.5t40.5 -15.5q57 0 76 88l105 480h126l-5 -23q37 26 48 54
q-1 -1 -7 -1q-17 0 -29.5 12t-12.5 32q0 23 18 40t40 17t37 -14.5t15 -40.5z" />
    <glyph glyph-name="uni1EE9" unicode="&#x1ee9;" 
d="M445 700l-138 -144h-74l111 144h101zM499 558q0 -34 -23 -71t-61 -62l-94 -425h-114l14 61q-52 -73 -122 -73q-41 0 -65 22t-24 59q0 17 4 29l85 385h113l-77 -343q0 -3 -1 -7.5t-1.5 -7.5t-0.5 -5q0 -32 31 -32q41 0 77 62l74 333h103q15 15 21 31q-2 -1 -8 -1
q-17 0 -28.5 11.5t-11.5 31.5q0 24 17.5 40.5t40.5 16.5q22 0 36.5 -14.5t14.5 -40.5z" />
    <glyph glyph-name="uni1EEA" unicode="&#x1eea;" horiz-adv-x="484" 
d="M391 723h-72l-74 144h98zM629 743q0 -43 -34.5 -87t-86.5 -66l-87 -397q-23 -104 -79 -154.5t-133 -50.5q-74 0 -123 45.5t-49 120.5q0 21 5 44l103 469h126l-106 -480q-3 -21 -3 -29q0 -28 15.5 -43.5t40.5 -15.5q57 0 76 88l105 480h126l-5 -23q37 26 48 54
q-1 -1 -7 -1q-17 0 -29.5 12t-12.5 32q0 23 18 40t40 17t37 -14.5t15 -40.5z" />
    <glyph glyph-name="uni1EEB" unicode="&#x1eeb;" 
d="M325 556h-72l-74 144h98zM499 558q0 -34 -23 -71t-61 -62l-94 -425h-114l14 61q-52 -73 -122 -73q-41 0 -65 22t-24 59q0 17 4 29l85 385h113l-77 -343q0 -3 -1 -7.5t-1.5 -7.5t-0.5 -5q0 -32 31 -32q41 0 77 62l74 333h103q15 15 21 31q-2 -1 -8 -1q-17 0 -28.5 11.5
t-11.5 31.5q0 24 17.5 40.5t40.5 16.5q22 0 36.5 -14.5t14.5 -40.5z" />
    <glyph glyph-name="uni1EEC" unicode="&#x1eec;" horiz-adv-x="484" 
d="M333 760l-39 12q21 48 66 48q57 0 57 -53q0 -36 -30 -70h-47q28 28 31 59q3 24 -15 24q-14 0 -23 -20zM629 743q0 -43 -34.5 -87t-86.5 -66l-87 -397q-23 -104 -79 -154.5t-133 -50.5q-74 0 -123 45.5t-49 120.5q0 21 5 44l103 469h126l-106 -480q-3 -21 -3 -29
q0 -28 15.5 -43.5t40.5 -15.5q57 0 76 88l105 480h126l-5 -23q37 26 48 54q-1 -1 -7 -1q-17 0 -29.5 12t-12.5 32q0 23 18 40t40 17t37 -14.5t15 -40.5z" />
    <glyph glyph-name="uni1EED" unicode="&#x1eed;" 
d="M265 590l-39 12q21 48 66 48q57 0 57 -53q0 -36 -30 -70h-47q28 28 31 59q3 24 -15 24q-14 0 -23 -20zM499 558q0 -34 -23 -71t-61 -62l-94 -425h-114l14 61q-52 -73 -122 -73q-41 0 -65 22t-24 59q0 17 4 29l85 385h113l-77 -343q0 -3 -1 -7.5t-1.5 -7.5t-0.5 -5
q0 -32 31 -32q41 0 77 62l74 333h103q15 15 21 31q-2 -1 -8 -1q-17 0 -28.5 11.5t-11.5 31.5q0 24 17.5 40.5t40.5 16.5q22 0 36.5 -14.5t14.5 -40.5z" />
    <glyph glyph-name="uni1EEE" unicode="&#x1eee;" horiz-adv-x="484" 
d="M629 743q0 -43 -34.5 -87t-86.5 -66l-87 -397q-23 -104 -79 -154.5t-133 -50.5q-74 0 -123 45.5t-49 120.5q0 21 5 44l103 469h126l-106 -480q-3 -21 -3 -29q0 -28 15.5 -43.5t40.5 -15.5q57 0 76 88l105 480h126l-5 -23q37 26 48 54q-1 -1 -7 -1q-17 0 -29.5 12
t-12.5 32q0 23 18 40t40 17t37 -14.5t15 -40.5zM400 721q-21 0 -34 11.5t-17 25.5t-11.5 25.5t-18.5 11.5q-24 0 -38 -68h-60q30 134 104 134q21 0 34 -11.5t17.5 -25.5t12 -25.5t18.5 -11.5q22 0 38 68h60q-30 -134 -105 -134z" />
    <glyph glyph-name="uni1EEF" unicode="&#x1eef;" 
d="M499 558q0 -34 -23 -71t-61 -62l-94 -425h-114l14 61q-52 -73 -122 -73q-41 0 -65 22t-24 59q0 17 4 29l85 385h113l-77 -343q0 -3 -1 -7.5t-1.5 -7.5t-0.5 -5q0 -32 31 -32q41 0 77 62l74 333h103q15 15 21 31q-2 -1 -8 -1q-17 0 -28.5 11.5t-11.5 31.5q0 24 17.5 40.5
t40.5 16.5q22 0 36.5 -14.5t14.5 -40.5zM305 554q-21 0 -34 11.5t-17 25.5t-11.5 25.5t-18.5 11.5q-24 0 -38 -68h-60q30 134 104 134q21 0 34 -11.5t17.5 -25.5t12 -25.5t18.5 -11.5q22 0 38 68h60q-30 -134 -105 -134z" />
    <glyph glyph-name="uni1EF0" unicode="&#x1ef0;" horiz-adv-x="484" 
d="M220 -123q0 -28 -21 -48.5t-49 -20.5q-24 0 -39.5 16t-15.5 39q0 28 21 48.5t49 20.5q24 0 39.5 -16t15.5 -39zM629 743q0 -43 -34.5 -87t-86.5 -66l-87 -397q-23 -104 -79 -154.5t-133 -50.5q-74 0 -123 45.5t-49 120.5q0 21 5 44l103 469h126l-106 -480q-3 -21 -3 -29
q0 -28 15.5 -43.5t40.5 -15.5q57 0 76 88l105 480h126l-5 -23q37 26 48 54q-1 -1 -7 -1q-17 0 -29.5 12t-12.5 32q0 23 18 40t40 17t37 -14.5t15 -40.5z" />
    <glyph glyph-name="uni1EF1" unicode="&#x1ef1;" 
d="M189 -123q0 -28 -21 -48.5t-49 -20.5q-24 0 -39.5 16t-15.5 39q0 28 21 48.5t49 20.5q24 0 39.5 -16t15.5 -39zM499 558q0 -34 -23 -71t-61 -62l-94 -425h-114l14 61q-52 -73 -122 -73q-41 0 -65 22t-24 59q0 17 4 29l85 385h113l-77 -343q0 -3 -1 -7.5t-1.5 -7.5
t-0.5 -5q0 -32 31 -32q41 0 77 62l74 333h103q15 15 21 31q-2 -1 -8 -1q-17 0 -28.5 11.5t-11.5 31.5q0 24 17.5 40.5t40.5 16.5q22 0 36.5 -14.5t14.5 -40.5z" />
    <glyph glyph-name="Ygrave" unicode="&#x1ef2;" horiz-adv-x="430" 
d="M224 0h-125l60 276l-70 391h128l26 -269l146 269h138l-242 -391zM366 723h-72l-74 144h98z" />
    <glyph glyph-name="ygrave" unicode="&#x1ef3;" horiz-adv-x="380" 
d="M-54 -184l37 93q7 -5 23 -5q23 0 41 34l27 54l-19 491h116l-7 -340l145 340h123l-277 -568q-33 -64 -64 -87.5t-76 -23.5q-43 0 -69 12zM300 556h-72l-74 144h98z" />
    <glyph glyph-name="thinspace" unicode="&#x2009;" horiz-adv-x="32" 
 />
    <glyph glyph-name="endash" unicode="&#x2013;" horiz-adv-x="460" 
d="M419 194h-400l21 96h400z" />
    <glyph glyph-name="emdash" unicode="&#x2014;" horiz-adv-x="640" 
d="M599 194h-580l21 96h580z" />
    <glyph glyph-name="afii00208" unicode="&#x2015;" horiz-adv-x="460" 
d="M419 194h-400l21 96h400z" />
    <glyph glyph-name="quoteleft" unicode="&#x2018;" horiz-adv-x="251" 
d="M100 488q0 53 40 107t99 82l41 -42q-29 -14 -56 -37t-38 -47h10q23 0 39.5 -16t16.5 -43q0 -32 -25 -55.5t-56 -23.5q-29 0 -50 20t-21 55z" />
    <glyph glyph-name="quoteright" unicode="&#x2019;" horiz-adv-x="251" 
d="M281 602q0 -53 -40 -107t-98 -82l-41 42q29 14 56 37t38 47h-10q-24 0 -40 16t-16 43q0 32 25 55.5t56 23.5q29 0 49.5 -20t20.5 -55z" />
    <glyph glyph-name="quotesinglbase" unicode="&#x201a;" horiz-adv-x="251" 
d="M162 62q0 -54 -40 -107.5t-99 -82.5l-41 43q29 14 56 37t38 47q-1 -1 -10 -1q-24 0 -40 16t-16 44q0 32 25 55.5t56 23.5q29 0 50 -20t21 -55z" />
    <glyph glyph-name="quotereversed" unicode="&#x201b;" horiz-adv-x="251" 
d="M115 553q0 58 30 91t67 33q32 0 50 -19t18 -44q0 -33 -21.5 -53.5t-55.5 -20.5q-16 0 -27 4q0 -56 52 -105l-50 -31q-63 66 -63 145z" />
    <glyph glyph-name="quotedblleft" unicode="&#x201c;" horiz-adv-x="442" 
d="M293 488q0 53 40 107t98 82l42 -42q-30 -14 -57 -37t-37 -47h9q24 0 40.5 -16t16.5 -43q0 -32 -25 -55.5t-56 -23.5q-29 0 -50 20t-21 55zM103 488q0 53 40 107t98 82l41 -42q-30 -14 -57 -37t-37 -47h10q23 0 39.5 -16t16.5 -43q0 -32 -24.5 -55.5t-55.5 -23.5
q-30 0 -50.5 20t-20.5 55z" />
    <glyph glyph-name="quotedblright" unicode="&#x201d;" horiz-adv-x="442" 
d="M281 602q0 -53 -40 -107t-98 -82l-41 42q29 14 56 37t38 47h-10q-24 0 -40 16t-16 43q0 32 25 55.5t56 23.5q29 0 49.5 -20t20.5 -55zM472 602q0 -53 -40 -107t-99 -82l-40 42q72 35 94 84h-10q-24 0 -40.5 16t-16.5 43q0 32 25 55.5t56 23.5q29 0 50 -20t21 -55z" />
    <glyph glyph-name="quotedblbase" unicode="&#x201e;" horiz-adv-x="442" 
d="M162 62q0 -54 -40 -107.5t-99 -82.5l-41 43q29 14 56 37t38 47q-1 -1 -10 -1q-24 0 -40 16t-16 44q0 32 25 55.5t56 23.5q29 0 50 -20t21 -55zM352 62q0 -54 -39.5 -107.5t-98.5 -82.5l-41 43q29 14 56 37t38 47q-2 -1 -10 -1q-24 0 -40.5 16.5t-16.5 43.5q0 32 25 55.5
t56 23.5q29 0 50 -20t21 -55z" />
    <glyph glyph-name="dagger" unicode="&#x2020;" horiz-adv-x="273" 
d="M314 525l-88 4l-41 -202h-62l49 202l-90 -4l13 57l89 -3l17 98h62l-26 -98l90 3z" />
    <glyph glyph-name="daggerdbl" unicode="&#x2021;" horiz-adv-x="273" 
d="M327 582l-13 -57l-88 4l-44 -199l90 4l-13 -57l-88 3l-19 -100h-62l27 100l-90 -3l13 57l87 -4l45 199l-90 -4l13 57l88 -3l18 98h62l-26 -98z" />
    <glyph glyph-name="bullet" unicode="&#x2022;" horiz-adv-x="358" 
d="M296 254q0 -51 -39 -89t-91 -38q-44 0 -74 30t-30 74q0 51 39 89t91 38q44 0 74 -30t30 -74z" />
    <glyph glyph-name="ellipsis" unicode="&#x2026;" horiz-adv-x="745" 
d="M77 -11q-28 0 -47.5 19.5t-19.5 47.5q0 33 24 57t57 24q28 0 47.5 -20t19.5 -48q0 -33 -24 -56.5t-57 -23.5zM325 -11q-28 0 -47.5 19.5t-19.5 47.5q0 33 24 57t57 24q28 0 47.5 -20t19.5 -48q0 -33 -24 -56.5t-57 -23.5zM573 -11q-28 0 -47 19.5t-19 47.5q0 33 24 57
t56 24q28 0 48 -20t20 -48q0 -33 -24.5 -56.5t-57.5 -23.5z" />
    <glyph glyph-name="perthousand" unicode="&#x2030;" horiz-adv-x="866" 
d="M126 0h-51l426 667h51zM396 -12q-53 0 -83 35.5t-30 89.5q0 85 47 145.5t108 60.5q53 0 83 -35t30 -89q0 -85 -47 -146t-108 -61zM401 59q27 0 50 39t23 90q0 61 -42 61q-26 0 -49.5 -39t-23.5 -90q0 -61 42 -61zM188 346q-53 0 -83 35.5t-30 88.5q0 85 47 146t108 61
q53 0 83 -35.5t30 -88.5q0 -85 -47 -146t-108 -61zM194 416q26 0 49.5 39t23.5 90q0 61 -42 61q-27 0 -50.5 -39t-23.5 -90q0 -61 43 -61zM676 -12q-54 0 -84 35.5t-30 89.5q0 85 47 145.5t108 60.5q54 0 83.5 -35t29.5 -89q0 -85 -46.5 -146t-107.5 -61zM680 59
q27 0 50.5 39t23.5 90q0 61 -42 61q-27 0 -50.5 -39t-23.5 -90q0 -61 42 -61z" />
    <glyph glyph-name="guilsinglleft" unicode="&#x2039;" horiz-adv-x="238" 
d="M165 63h-86l-50 180l130 177h90l-133 -181z" />
    <glyph glyph-name="guilsinglright" unicode="&#x203a;" horiz-adv-x="238" 
d="M73 420h86l50 -180l-130 -177h-90l133 181z" />
    <glyph glyph-name="uni203E" unicode="&#x203e;" horiz-adv-x="258" 
d="M329 564h-258l14 66h258z" />
    <glyph glyph-name="fraction" unicode="&#x2044;" horiz-adv-x="133" 
d="M324 667l-426 -667h-50l425 667h51z" />
    <glyph glyph-name="zerosuperior" unicode="&#x2070;" horiz-adv-x="293" 
d="M363 690q0 -39 -10.5 -84.5t-30.5 -89.5t-55 -73t-77 -29q-52 0 -82 34t-30 103q0 55 17 115.5t58.5 110.5t97.5 50q52 0 82 -34t30 -103zM280 705q0 53 -33 53q-35 0 -60.5 -82.5t-25.5 -139.5q0 -53 33 -53q35 0 60.5 82.5t25.5 139.5z" />
    <glyph glyph-name="foursuperior" unicode="&#x2074;" horiz-adv-x="293" 
d="M330 511h-34l-19 -90h-86l19 90h-147l14 67l184 243h104l-53 -242h33zM225 579l33 144l-107 -144h74z" />
    <glyph glyph-name="fivesuperior" unicode="&#x2075;" horiz-adv-x="293" 
d="M338 583q0 -69 -41.5 -119t-106.5 -50q-93 0 -131 70l63 46q19 -47 65 -47q27 0 44 27.5t17 60.5q0 44 -38 44q-32 0 -58 -34l-58 20l49 220h230l-16 -69h-144l-22 -102q26 28 61 28q36 0 61 -24t25 -71z" />
    <glyph glyph-name="sixsuperior" unicode="&#x2076;" horiz-adv-x="293" 
d="M339 584q0 -65 -39 -117.5t-103 -52.5q-55 0 -86.5 34t-31.5 97q0 60 19.5 122.5t64.5 111t104 48.5q70 0 103 -50l-55 -53q-13 34 -51 34q-54 0 -86 -116q-2 -6 -2 -10q29 52 80 52q35 0 59 -25t24 -75zM252 572q0 44 -37 44q-27 0 -50 -41q-5 -35 -5 -40q0 -22 9.5 -37
t26.5 -15q24 0 40 30t16 59z" />
    <glyph glyph-name="sevensuperior" unicode="&#x2077;" horiz-adv-x="268" 
d="M360 762l-187 -341h-83l186 331h-160l16 69h241z" />
    <glyph glyph-name="eightsuperior" unicode="&#x2078;" horiz-adv-x="293" 
d="M330 536q0 -53 -35.5 -87.5t-94.5 -34.5q-61 0 -98 25t-37 73q0 43 29.5 76.5t70.5 44.5q-50 24 -50 77q0 54 38 85.5t91 31.5q50 0 87.5 -23.5t37.5 -70.5q0 -40 -25 -71.5t-67 -41.5q21 -10 37 -33.5t16 -50.5zM281 724q0 18 -10 27.5t-26 9.5q-21 0 -34.5 -18
t-13.5 -42q0 -18 11 -31t20 -16q53 15 53 70zM246 542q0 21 -10.5 35.5t-20.5 19.5q-23 -4 -42 -26.5t-19 -51.5q0 -17 11 -28t29 -11q21 0 36.5 18t15.5 44z" />
    <glyph glyph-name="ninesuperior" unicode="&#x2079;" horiz-adv-x="293" 
d="M103 658q0 65 39 117.5t103 52.5q56 0 87 -33.5t31 -97.5q0 -60 -19.5 -122.5t-64.5 -111t-104 -48.5q-68 0 -103 50l54 53q15 -34 51 -34q57 0 87 116q2 6 2 10q-32 -52 -80 -52q-36 0 -59.5 25t-23.5 75zM191 670q0 -44 36 -44q27 0 50 41q5 35 5 40q0 22 -9.5 37
t-26.5 15q-24 0 -39.5 -30t-15.5 -59z" />
    <glyph glyph-name="parenleftsuperior" unicode="&#x207d;" horiz-adv-x="161" 
d="M174 377l-50 -21q-28 72 -28 159q0 194 145 371l42 -20q-55 -83 -87.5 -184t-32.5 -195q0 -72 11 -110z" />
    <glyph glyph-name="parenrightsuperior" unicode="&#x207e;" horiz-adv-x="161" 
d="M151 866l51 20q27 -67 27 -158q0 -195 -144 -372l-42 21q55 84 87.5 184.5t32.5 194.5q0 67 -12 110z" />
    <glyph glyph-name="nsuperior" unicode="&#x207f;" horiz-adv-x="311" 
d="M292 326h-83l48 215q2 8 2 16q0 22 -23 22q-25 0 -52 -43l-46 -210h-83l69 314h83l-8 -39q34 47 82 47q32 0 49.5 -15.5t17.5 -40.5q0 -2 -3 -23z" />
    <glyph glyph-name="zeroinferior" unicode="&#x2080;" horiz-adv-x="293" 
d="M247 123q0 -39 -10.5 -84.5t-30.5 -89.5t-55 -73t-77 -29q-52 0 -82 34t-30 103q0 55 17 115.5t58.5 110.5t97.5 50q52 0 82 -34t30 -103zM164 138q0 53 -33 53q-35 0 -60.5 -82.5t-25.5 -139.5q0 -53 33 -53q35 0 60.5 82.5t25.5 139.5z" />
    <glyph glyph-name="oneinferior" unicode="&#x2081;" horiz-adv-x="244" 
d="M115 -146h-87l63 286l-66 -55l-40 51l143 118h75z" />
    <glyph glyph-name="twoinferior" unicode="&#x2082;" horiz-adv-x="293" 
d="M190 -146h-248l15 68q130 109 170 152t40 76q0 19 -12 30t-33 11q-42 0 -77 -45l-42 55q54 59 126 59q54 0 89.5 -27t35.5 -75q0 -50 -39.5 -95.5t-151.5 -139.5h142z" />
    <glyph glyph-name="threeinferior" unicode="&#x2083;" horiz-adv-x="293" 
d="M215 -26q0 -49 -37.5 -88t-97.5 -39q-46 0 -81.5 18.5t-51.5 51.5l64 48q18 -49 65 -49q26 0 41 21t15 47q0 40 -44 40q-23 0 -29 -1l15 69q5 -1 32 -1t43.5 16.5t16.5 43.5q0 19 -12.5 29.5t-33.5 10.5q-41 0 -72 -39l-44 48q52 60 124 60q57 0 90.5 -25t33.5 -71
q0 -38 -25.5 -71t-68.5 -39q57 -16 57 -80z" />
    <glyph glyph-name="fourinferior" unicode="&#x2084;" horiz-adv-x="293" 
d="M214 -56h-34l-19 -90h-86l19 90h-147l14 67l184 243h104l-53 -242h33zM109 12l33 144l-107 -144h74z" />
    <glyph glyph-name="fiveinferior" unicode="&#x2085;" horiz-adv-x="293" 
d="M222 16q0 -69 -41.5 -119t-106.5 -50q-93 0 -131 70l63 46q19 -47 65 -47q27 0 44 27.5t17 60.5q0 44 -38 44q-32 0 -58 -34l-58 20l49 220h230l-16 -69h-144l-22 -102q26 28 61 28q36 0 61 -24t25 -71z" />
    <glyph glyph-name="sixinferior" unicode="&#x2086;" horiz-adv-x="293" 
d="M223 17q0 -65 -39 -117.5t-103 -52.5q-55 0 -86.5 34t-31.5 97q0 60 19.5 122.5t64.5 111t104 48.5q70 0 103 -50l-55 -53q-13 34 -51 34q-54 0 -86 -116q-2 -6 -2 -10q29 52 80 52q35 0 59 -25t24 -75zM136 5q0 44 -37 44q-27 0 -50 -41q-5 -35 -5 -40q0 -22 9.5 -37
t26.5 -15q24 0 40 30t16 59z" />
    <glyph glyph-name="seveninferior" unicode="&#x2087;" horiz-adv-x="268" 
d="M244 195l-187 -341h-83l186 331h-160l16 69h241z" />
    <glyph glyph-name="eightinferior" unicode="&#x2088;" horiz-adv-x="293" 
d="M214 -31q0 -53 -35.5 -87.5t-94.5 -34.5q-61 0 -98 25t-37 73q0 43 29.5 76.5t70.5 44.5q-50 24 -50 77q0 54 38 85.5t91 31.5q50 0 87.5 -23.5t37.5 -70.5q0 -40 -25 -71.5t-67 -41.5q21 -10 37 -33.5t16 -50.5zM165 157q0 18 -10 27.5t-26 9.5q-21 0 -34.5 -18
t-13.5 -42q0 -18 11 -31t20 -16q53 15 53 70zM130 -25q0 21 -10.5 35.5t-20.5 19.5q-23 -4 -42 -26.5t-19 -51.5q0 -17 11 -28t29 -11q21 0 36.5 18t15.5 44z" />
    <glyph glyph-name="nineinferior" unicode="&#x2089;" horiz-adv-x="293" 
d="M-13 91q0 65 39 117.5t103 52.5q56 0 87 -33.5t31 -97.5q0 -60 -19.5 -122.5t-64.5 -111t-104 -48.5q-68 0 -103 50l54 53q15 -34 51 -34q57 0 87 116q2 6 2 10q-32 -52 -80 -52q-36 0 -59.5 25t-23.5 75zM75 103q0 -44 36 -44q27 0 50 41q5 35 5 40q0 22 -9.5 37
t-26.5 15q-24 0 -39.5 -30t-15.5 -59z" />
    <glyph glyph-name="parenleftinferior" unicode="&#x208d;" horiz-adv-x="161" 
d="M49 -190l-50 -21q-28 72 -28 159q0 194 145 371l42 -20q-55 -83 -87.5 -184t-32.5 -195q0 -72 11 -110z" />
    <glyph glyph-name="parenrightinferior" unicode="&#x208e;" horiz-adv-x="161" 
d="M26 299l51 20q27 -67 27 -158q0 -195 -144 -372l-42 21q55 84 87.5 184.5t32.5 194.5q0 67 -12 110z" />
    <glyph glyph-name="colonmonetary" unicode="&#x20a1;" horiz-adv-x="413" 
d="M199 -12q-3 0 -10 0.5t-11 0.5l-38 -89h-66l45 105q-17 9 -28 18l-53 -123h-66l77 179q-23 51 -23 121q0 63 16 139t46.5 153.5t87 130.5t127.5 55l39 90h66l-43 -99q17 -6 30 -15l50 114h66l-70 -163q27 -48 30 -118l-117 -22q-5 101 -53 101q-43 0 -78.5 -73.5
t-51.5 -156t-16 -139.5q0 -97 51 -97q42 0 83 81l101 -42q-71 -151 -191 -151z" />
    <glyph glyph-name="frenchfranc" unicode="&#x20a3;" horiz-adv-x="389" 
d="M138 0h-126l26 117h-51l15 66h50l107 484h292l-24 -111h-166l-36 -161h159l-25 -111h-158l-23 -101h85l-15 -66h-84z" />
    <glyph glyph-name="lira" unicode="&#x20a4;" horiz-adv-x="424" 
d="M49 332l13 60h33q-3 20 -3 45q0 102 66.5 171t149.5 69q67 0 112 -37t47 -106l-109 -31q-3 71 -49 71q-33 0 -58 -45.5t-25 -108.5q0 -19 2 -28h90l-13 -60h-65q2 -14 2 -20q0 -20 -3 -38h53l-13 -59h-55q-25 -66 -72 -98q19 9 35 9q23 0 53 -13t48 -13q39 0 67 30
l12 -102q-40 -40 -103 -40q-41 0 -85.5 20.5t-68.5 20.5q-37 0 -85 -36l-18 86q38 22 67 58.5t40 77.5h-91l13 59h85q-2 25 -11 58h-61z" />
    <glyph glyph-name="uni20A6" unicode="&#x20a6;" horiz-adv-x="510" 
d="M392 0h-119l-35 234h-49l-51 -234h-126l51 234h-50l15 66h50l16 74h-50l15 66h50l50 227h126l31 -227h46l51 227h126l-50 -227h47l-15 -66h-47l-16 -74h47l-15 -66h-47zM219 370l-16 -70h26zM325 374l9 -62l14 62h-23z" />
    <glyph glyph-name="peseta" unicode="&#x20a7;" horiz-adv-x="488" 
d="M138 0h-126l92 420h-49l14 66h50l40 181h165q71 0 115 -49t44 -123v-9h49l-15 -66h-44q-20 -80 -79 -130.5t-151 -50.5h-53zM253 350q60 0 87 70h-110l-15 -70h38zM260 556l-15 -70h107q-1 33 -16.5 51.5t-40.5 18.5h-35z" />
    <glyph glyph-name="rupee" unicode="&#x20a8;" horiz-adv-x="771" 
d="M558 -12q-52 0 -95 20.5t-62 50.5l62 73q34 -55 96 -55q26 0 44 17t18 41q0 20 -23 41t-50 37.5t-50 48.5t-23 73q0 66 43.5 113t120.5 47q42 0 81 -17.5t64 -48.5l-59 -71q-10 18 -35.5 33t-51.5 15q-25 0 -40 -14t-15 -37q0 -18 23.5 -38t51.5 -37t51.5 -50t23.5 -74
q0 -69 -48.5 -118.5t-126.5 -49.5zM372 0h-131l-18 245h-45l-54 -245h-126l147 667h166q69 0 114 -48.5t45 -120.5q0 -80 -39 -145.5t-90 -84.5zM202 356h40q44 0 70 39t26 91q0 70 -56 70h-35z" />
    <glyph glyph-name="uni20A9" unicode="&#x20a9;" horiz-adv-x="650" 
d="M454 0h-128l22 234h-51l-81 -234h-128l11 234h-75l15 66h64l3 74h-51l14 66h41l11 227h126l-22 -227h59l83 227h99l-18 -227h59l78 227h130l-89 -227h37l-14 -66h-49l-29 -74h62l-15 -66h-73zM485 374h-42l-5 -74h21zM260 374h-41l-7 -74h21zM346 374l-26 -74h34l7 74
h-15z" />
    <glyph glyph-name="afii57636" unicode="&#x20aa;" horiz-adv-x="560" 
d="M319 0h-200l87 394h84l-70 -313h101q40 0 60.5 20t30.5 68l85 381h84l-87 -390q-18 -79 -63 -119.5t-112 -40.5zM113 550h157q62 0 106.5 -31.5t44.5 -94.5q0 -14 -7 -58l-47 -211h-85l51 224q3 16 3 30q0 60 -73 60h-84l-103 -469h-85z" />
    <glyph glyph-name="dong" unicode="&#x20ab;" horiz-adv-x="434" 
d="M253 -164h-258l14 66h258zM208 495q75 0 96 -74l24 110h-117l15 66h116l16 70h113l-16 -70h40l-14 -66h-40l-118 -531h-113l14 58q-46 -70 -103 -70q-52 0 -79.5 39.5t-27.5 114.5q0 69 20 147.5t66.5 142t107.5 63.5zM234 395q-33 0 -58 -46.5t-35 -99t-10 -92.5
q0 -69 48 -69q36 0 64 57l43 192q-4 26 -18.5 42t-33.5 16z" />
    <glyph glyph-name="Euro" unicode="&#x20ac;" horiz-adv-x="445" 
d="M220 -12q-83 0 -128 55.5t-45 156.5q0 19 1 29h-37l16 70h28q9 51 14 70h-27l16 72h31q36 104 96.5 170.5t144.5 66.5q81 0 120 -55t42 -136l-117 -22q-5 101 -53 101q-56 0 -101 -125h103l-16 -72h-108q-5 -19 -14 -70h106l-15 -70h-100q-1 -12 -1 -32q0 -97 51 -97
q43 0 83 81l101 -42q-71 -151 -191 -151z" />
    <glyph glyph-name="afii61289" unicode="&#x2113;" horiz-adv-x="431" 
d="M221 500l-32 -145l107 84q27 21 40 32.5t26 30t13 35.5q0 24 -17.5 39.5t-45.5 15.5q-71 0 -91 -92zM367 387l-206 -156l-23 -107q-3 -11 -3 -20q0 -25 26 -25q14 0 24 10l5 -84q-18 -17 -61 -17q-51 0 -81 20.5t-30 62.5q0 22 4 46l86 383q39 177 217 177q69 0 114 -34
t45 -91q0 -43 -26 -79t-91 -86z" />
    <glyph glyph-name="afii61352" unicode="&#x2116;" horiz-adv-x="792" 
d="M670 350q-55 0 -84.5 33t-29.5 88q0 75 43 142t114 67q55 0 84.5 -33t29.5 -88q0 -75 -43 -142t-114 -67zM674 417q32 0 51 53t19 93q0 49 -36 49q-32 0 -50.5 -53t-18.5 -93q0 -49 35 -49zM378 0h-119l-54 370l-81 -370h-126l147 667h126l49 -355l79 355h126z" />
    <glyph glyph-name="published" unicode="&#x2117;" horiz-adv-x="778" 
d="M754 334q0 -142 -101.5 -243.5t-244.5 -101.5q-142 0 -243 101t-101 244t101 244t243 101q143 0 244.5 -101.5t101.5 -243.5zM719 334q0 127 -91.5 218.5t-219.5 91.5q-127 0 -217.5 -91t-90.5 -219t90.5 -219t217.5 -91q128 0 219.5 91.5t91.5 218.5zM595 431
q0 -56 -42.5 -93.5t-104.5 -37.5h-122l-36 -169h-43l89 405h135q52 0 88 -28.5t36 -76.5zM549 428q0 31 -22.5 50t-61.5 19h-95l-34 -158h119q41 0 67.5 26t26.5 63z" />
    <glyph glyph-name="servicemark" unicode="&#x2120;" horiz-adv-x="374" 
d="M382 447h-28l40 182l-95 -182h-8l-15 182l-40 -182h-28l48 220h42l10 -157l78 157h44zM181 513q0 -29 -19.5 -50.5t-47.5 -21.5q-33 0 -50 24l18 22q12 -19 33 -19q12 0 24 13t12 28q0 18 -25 44.5t-25 48.5q0 29 17.5 50t44.5 21q29 0 45 -18l-18 -24q-10 15 -29 15
q-11 0 -20.5 -10.5t-9.5 -26.5q0 -13 25 -42.5t25 -53.5z" />
    <glyph glyph-name="trademark" unicode="&#x2122;" horiz-adv-x="374" 
d="M384 447h-28l40 182l-95 -182h-8l-15 182l-40 -182h-28l48 220h43l10 -157l78 157h43zM217 641h-42l-43 -194h-28l43 194h-42l5 26h112z" />
    <glyph glyph-name="Omega" unicode="&#x2126;" horiz-adv-x="469" 
d="M7 111h87q-54 63 -54 165q0 59 18.5 128t50.5 130.5t83 102.5t109 41q82 0 132.5 -48.5t50.5 -150.5q0 -118 -45 -215.5t-112 -152.5h75l-24 -111h-169l24 111q48 38 83.5 159.5t35.5 196.5q0 50 -11.5 74t-40.5 24q-40 0 -75 -66.5t-52 -148.5t-17 -145q0 -67 21 -94
l-25 -111h-170z" />
    <glyph glyph-name="estimated" unicode="&#x212e;" horiz-adv-x="842" 
d="M829 324h-632q-4 0 -4 -5v-190q0 -15 9 -23q98 -103 240 -103q151 0 250 115h57q-54 -63 -135 -99.5t-174 -36.5q-161 0 -275.5 103t-114.5 248t114.5 248t275.5 103t275.5 -103t114.5 -248zM687 349v191q0 14 -10 24q-97 99 -236 99t-238 -102q-10 -10 -10 -24v-188
q0 -6 5 -6h485q4 0 4 6z" />
    <glyph glyph-name="onethird" unicode="&#x2153;" horiz-adv-x="683" 
d="M206 267h-87l63 286l-66 -55l-40 51l143 118h75zM581 667l-426 -667h-50l425 667h51zM637 120q0 -49 -37.5 -88t-97.5 -39q-46 0 -81.5 18.5t-51.5 51.5l64 48q18 -49 65 -49q26 0 41 21t15 47q0 40 -44 40q-23 0 -29 -1l15 69q5 -1 32 -1t43.5 16.5t16.5 43.5
q0 19 -12.5 29.5t-33.5 10.5q-41 0 -72 -39l-44 48q52 60 124 60q57 0 90.5 -25t33.5 -71q0 -38 -25.5 -71t-68.5 -39q57 -16 57 -80z" />
    <glyph glyph-name="twothirds" unicode="&#x2154;" horiz-adv-x="719" 
d="M281 267h-248l15 68q130 109 170 152t40 76q0 19 -12 30t-33 11q-42 0 -77 -45l-42 55q54 59 126 59q54 0 89.5 -27t35.5 -75q0 -50 -39.5 -95.5t-151.5 -139.5h142zM617 667l-426 -667h-50l425 667h51zM673 120q0 -49 -37.5 -88t-97.5 -39q-46 0 -81.5 18.5t-51.5 51.5
l64 48q18 -49 65 -49q26 0 41 21t15 47q0 40 -44 40q-23 0 -29 -1l15 69q5 -1 32 -1t43.5 16.5t16.5 43.5q0 19 -12.5 29.5t-33.5 10.5q-41 0 -72 -39l-44 48q52 60 124 60q57 0 90.5 -25t33.5 -71q0 -38 -25.5 -71t-68.5 -39q57 -16 57 -80z" />
    <glyph glyph-name="oneeighth" unicode="&#x215b;" horiz-adv-x="683" 
d="M206 267h-87l63 286l-66 -55l-40 51l143 118h75zM636 115q0 -53 -35.5 -87.5t-94.5 -34.5q-61 0 -98 25t-37 73q0 43 29.5 76.5t70.5 44.5q-50 24 -50 77q0 54 38 85.5t91 31.5q50 0 87.5 -23.5t37.5 -70.5q0 -40 -25 -71.5t-67 -41.5q21 -10 37 -33.5t16 -50.5zM587 303
q0 18 -10 27.5t-26 9.5q-21 0 -34.5 -18t-13.5 -42q0 -18 11 -31t20 -16q53 15 53 70zM552 121q0 21 -10.5 35.5t-20.5 19.5q-23 -4 -42 -26.5t-19 -51.5q0 -17 11 -28t29 -11q21 0 36.5 18t15.5 44zM581 667l-426 -667h-50l425 667h51z" />
    <glyph glyph-name="threeeighths" unicode="&#x215c;" horiz-adv-x="719" 
d="M672 115q0 -53 -35.5 -87.5t-94.5 -34.5q-61 0 -98 25t-37 73q0 43 29.5 76.5t70.5 44.5q-50 24 -50 77q0 54 38 85.5t91 31.5q50 0 87.5 -23.5t37.5 -70.5q0 -40 -25 -71.5t-67 -41.5q21 -10 37 -33.5t16 -50.5zM623 303q0 18 -10 27.5t-26 9.5q-21 0 -34.5 -18
t-13.5 -42q0 -18 11 -31t20 -16q53 15 53 70zM588 121q0 21 -10.5 35.5t-20.5 19.5q-23 -4 -42 -26.5t-19 -51.5q0 -17 11 -28t29 -11q21 0 36.5 18t15.5 44zM617 667l-426 -667h-50l425 667h51zM306 387q0 -49 -37.5 -88t-97.5 -39q-46 0 -81.5 18.5t-51.5 51.5l64 48
q18 -49 65 -49q26 0 41 21t15 47q0 40 -44 40q-23 0 -29 -1l15 69q5 -1 32 -1t43.5 16.5t16.5 43.5q0 19 -12.5 29.5t-33.5 10.5q-41 0 -72 -39l-44 48q52 60 124 60q57 0 90.5 -25t33.5 -71q0 -38 -25.5 -71t-68.5 -39q57 -16 57 -80z" />
    <glyph glyph-name="fiveeighths" unicode="&#x215d;" horiz-adv-x="714" 
d="M667 115q0 -53 -35.5 -87.5t-94.5 -34.5q-61 0 -98 25t-37 73q0 43 29.5 76.5t70.5 44.5q-50 24 -50 77q0 54 38 85.5t91 31.5q50 0 87.5 -23.5t37.5 -70.5q0 -40 -25 -71.5t-67 -41.5q21 -10 37 -33.5t16 -50.5zM618 303q0 18 -10 27.5t-26 9.5q-21 0 -34.5 -18
t-13.5 -42q0 -18 11 -31t20 -16q53 15 53 70zM583 121q0 21 -10.5 35.5t-20.5 19.5q-23 -4 -42 -26.5t-19 -51.5q0 -17 11 -28t29 -11q21 0 36.5 18t15.5 44zM313 429q0 -69 -41.5 -119t-106.5 -50q-93 0 -131 70l63 46q19 -47 65 -47q27 0 44 27.5t17 60.5q0 44 -38 44
q-33 0 -58 -34l-58 20l49 220h230l-16 -69h-144l-22 -102q26 28 61 28q36 0 61 -24t25 -71zM612 667l-426 -667h-50l425 667h51z" />
    </font>
</defs>
</svg>
