<?xml version="1.0" standalone="no"?>
<!DOCTYPE svg PUBLIC "-//W3C//DTD SVG 1.1//EN" "http://www.w3.org/Graphics/SVG/1.1/DTD/svg11.dtd" >
<svg xmlns="http://www.w3.org/2000/svg" xmlns:xlink="http://www.w3.org/1999/xlink" version="1.1">
<metadata>
Created by FontForge 20170731 at Tue Nov 30 17:21:33 2010
 By ,,,
Copyright (c) Mark Simonson, 2005. All rights reserved.
</metadata>
<defs>
<font id="ProximaNovaExCn-ExtrabldIt" horiz-adv-x="434" >
  <font-face 
    font-family="Proxima Nova ExCn Th"
    font-weight="800"
    font-style="italic"
    font-stretch="normal"
    units-per-em="1000"
    panose-1="2 0 5 6 3 0 0 2 0 4"
    ascent="790"
    descent="-210"
    x-height="483"
    cap-height="667"
    bbox="-152 -284 883 887"
    underline-thickness="20"
    underline-position="-173"
    unicode-range="U+000D-FB04"
  />
<missing-glyph horiz-adv-x="445" 
d="M418 -90h-351v842h351v-842zM386 -60v782h-288v-782h288z" />
    <glyph glyph-name="f_f_j" unicode="ffj" horiz-adv-x="741" 
d="M400 0h-135l81 365h-44l27 118h43l7 34q18 82 57 121t102 39q47 0 82 -16l-43 -105q-7 6 -18 6q-37 0 -45 -45l-7 -34h59l-27 -118h-58zM470 -196q-55 0 -79 25l48 101q6 -11 23 -11q30 0 42 54l113 510h136l-114 -510q-19 -87 -56.5 -128t-112.5 -41zM703 532
q-31 0 -51.5 20t-20.5 48q0 41 29 66.5t62 25.5q31 0 51.5 -20t20.5 -49q0 -41 -28.5 -66t-62.5 -25zM138 0h-135l81 365h-44l27 118h43l7 34q33 160 159 160q72 0 104 -30l-52 -100q-14 15 -30 15q-37 0 -46 -45l-7 -34h59l-27 -118h-58z" />
    <glyph glyph-name="f_j" unicode="fj" horiz-adv-x="479" 
d="M138 0h-135l81 365h-44l27 118h43l7 34q18 82 57 121t102 39q47 0 82 -16l-43 -105q-7 6 -18 6q-37 0 -45 -45l-7 -34h59l-27 -118h-58zM208 -196q-55 0 -79 25l48 101q6 -11 23 -11q30 0 42 54l113 510h136l-114 -510q-19 -87 -56.5 -128t-112.5 -41zM441 532
q-31 0 -51.5 20t-20.5 48q0 41 29 66.5t62 25.5q31 0 51.5 -20t20.5 -49q0 -41 -28.5 -66t-62.5 -25z" />
    <glyph glyph-name="f_f" unicode="ff" horiz-adv-x="524" 
d="M138 0h-135l81 365h-44l27 118h43l7 34q33 160 159 160q72 0 104 -30l-52 -100q-14 15 -30 15q-37 0 -46 -45l-7 -34h59l-27 -118h-58zM400 0h-135l81 365h-44l27 118h43l7 34q33 160 159 160q72 0 104 -30l-52 -100q-14 15 -30 15q-37 0 -46 -45l-7 -34h59l-27 -118h-58
z" />
    <glyph glyph-name="fi" unicode="fi" horiz-adv-x="479" 
d="M138 0h-135l81 365h-44l27 118h43l7 34q18 82 57 121t102 39q47 0 82 -16l-43 -105q-7 6 -18 6q-37 0 -45 -45l-7 -34h59l-27 -118h-58zM441 532q-31 0 -51.5 20t-20.5 48q0 41 29 66.5t62 25.5q31 0 51.5 -20t20.5 -49q0 -41 -28.5 -66t-62.5 -25zM384 0h-136l107 483
h136z" />
    <glyph glyph-name="fl" unicode="fl" horiz-adv-x="479" 
d="M138 0h-135l81 365h-44l27 118h43l7 34q18 82 57 121t102 39q47 0 82 -16l-43 -105q-7 6 -18 6q-37 0 -45 -45l-7 -34h59l-27 -118h-58zM384 0h-136l147 667h136z" />
    <glyph glyph-name="f_f_i" unicode="ffi" horiz-adv-x="741" 
d="M400 0h-135l81 365h-44l27 118h43l7 34q18 82 57 121t102 39q47 0 82 -16l-43 -105q-7 6 -18 6q-37 0 -45 -45l-7 -34h59l-27 -118h-58zM703 532q-31 0 -51.5 20t-20.5 48q0 41 29 66.5t62 25.5q31 0 51.5 -20t20.5 -49q0 -41 -28.5 -66t-62.5 -25zM646 0h-136l107 483
h136zM138 0h-135l81 365h-44l27 118h43l7 34q33 160 159 160q72 0 104 -30l-52 -100q-14 15 -30 15q-37 0 -46 -45l-7 -34h59l-27 -118h-58z" />
    <glyph glyph-name="f_f_l" unicode="ffl" horiz-adv-x="741" 
d="M400 0h-135l81 365h-44l27 118h43l7 34q18 82 57 121t102 39q47 0 82 -16l-43 -105q-7 6 -18 6q-37 0 -45 -45l-7 -34h59l-27 -118h-58zM646 0h-136l147 667h136zM138 0h-135l81 365h-44l27 118h43l7 34q33 160 159 160q72 0 104 -30l-52 -100q-14 15 -30 15
q-37 0 -46 -45l-7 -34h59l-27 -118h-58z" />
    <glyph glyph-name="f_b" unicode="fb" horiz-adv-x="705" 
d="M138 0h-135l81 365h-44l27 118h43l7 34q18 82 57 121t102 39q47 0 82 -16l-43 -105q-7 6 -18 6q-37 0 -45 -45l-7 -34h59l-27 -118h-58zM496 -12q-78 0 -100 71l-12 -59h-135l146 667h136l-53 -239q45 67 103 67q112 0 112 -159q0 -51 -12.5 -109t-35.5 -112.5t-62 -90.5
t-87 -36zM462 107q42 0 66.5 73.5t24.5 135.5q0 60 -44 60q-29 0 -52 -45l-40 -178q4 -21 16 -33.5t29 -12.5z" />
    <glyph glyph-name="f_h" unicode="fh" horiz-adv-x="703" 
d="M138 0h-135l81 365h-44l27 118h43l7 34q18 82 57 121t102 39q47 0 82 -16l-43 -105q-7 6 -18 6q-37 0 -45 -45l-7 -34h59l-27 -118h-58zM609 0h-136l73 330q3 6 3 17q0 29 -27 29q-34 0 -68 -56l-70 -320h-136l147 667h136l-54 -243q22 30 55 50.5t69 20.5q45 0 70 -23.5
t25 -61.5q0 -8 -4 -28z" />
    <glyph glyph-name="f_k" unicode="fk" horiz-adv-x="686" 
d="M138 0h-135l81 365h-44l27 118h43l7 34q18 82 57 121t102 39q47 0 82 -16l-43 -105q-7 6 -18 6q-37 0 -45 -45l-7 -34h59l-27 -118h-58zM632 0h-146l-23 182l-56 -75l-23 -107h-136l147 667h136l-83 -378l132 194h152l-159 -214z" />
    <glyph glyph-name=".notdef" horiz-adv-x="445" 
d="M418 -90h-351v842h351v-842zM386 -60v782h-288v-782h288z" />
    <glyph glyph-name=".null" horiz-adv-x="0" 
 />
    <glyph glyph-name=".null" horiz-adv-x="0" 
 />
    <glyph glyph-name="nonmarkingreturn" horiz-adv-x="333" 
 />
    <glyph glyph-name="CR" unicode="&#xd;" horiz-adv-x="0" 
 />
    <glyph glyph-name="space" unicode=" " horiz-adv-x="159" 
 />
    <glyph glyph-name="exclam" unicode="!" horiz-adv-x="259" 
d="M185 222h-120l77 445h163zM83 -12q-32 0 -54 23t-22 55q0 38 27.5 65t64.5 27q32 0 54.5 -23t22.5 -55q0 -37 -27.5 -64.5t-65.5 -27.5z" />
    <glyph glyph-name="quotedbl" unicode="&#x22;" horiz-adv-x="415" 
d="M170 370h-58q7 206 7 223q1 36 25 60t59 24q27 0 45.5 -18.5t18.5 -46.5q0 -18 -8 -31zM358 370h-58q7 206 7 223q1 36 25 60t59 24q26 0 44.5 -18.5t18.5 -46.5q0 -14 -7 -31z" />
    <glyph glyph-name="numbersign" unicode="#" horiz-adv-x="471" 
d="M231 0h-99l78 168h-60l-75 -168h-99l76 168h-54l38 85h56l72 160h-56l37 84h57l76 170h99l-76 -170h58l75 170h99l-76 -170h55l-37 -84h-56l-73 -160h59l-39 -85h-59zM248 253l72 160h-58l-72 -160h58z" />
    <glyph glyph-name="dollar" unicode="$" horiz-adv-x="412" 
d="M86 -100l21 94q-89 17 -132 74l85 112q17 -26 46.5 -42t58.5 -16q27 0 45.5 19.5t18.5 51.5q0 19 -16.5 40t-39.5 41.5t-46 44t-39.5 58t-16.5 74.5q0 85 53 148t134 76l21 93h100l-22 -98q66 -18 105 -60l-79 -113q-36 47 -92 47q-27 0 -43 -18.5t-16 -44.5
q0 -20 16 -41t39 -41.5t45.5 -44.5t38.5 -58.5t16 -74.5q0 -85 -50 -150t-131 -79l-20 -92h-100z" />
    <glyph glyph-name="percent" unicode="%" horiz-adv-x="596" 
d="M131 0h-55l428 667h56zM405 -12q-55 0 -86.5 35.5t-31.5 90.5q0 86 47.5 146.5t110.5 60.5q55 0 86.5 -36t31.5 -91q0 -85 -47.5 -145.5t-110.5 -60.5zM411 70q23 0 44 35.5t21 80.5q0 53 -37 53q-23 0 -44 -35.5t-21 -80.5q0 -53 37 -53zM189 344q-55 0 -86.5 36
t-31.5 91q0 85 47.5 145.5t110.5 60.5q55 0 86.5 -36t31.5 -90q0 -86 -47.5 -146.5t-110.5 -60.5zM195 427q23 0 43.5 35t20.5 80q0 53 -36 53q-23 0 -43.5 -35t-20.5 -81q0 -52 36 -52z" />
    <glyph glyph-name="ampersand" unicode="&#x26;" horiz-adv-x="471" 
d="M416 0h-133q-8 16 -11 24q-58 -36 -120 -36q-68 0 -110 40.5t-42 113.5q0 86 41.5 140.5t113.5 97.5q-10 47 -10 92q0 85 51.5 145t121.5 60q59 0 94 -35t35 -98q0 -38 -12.5 -68.5t-41 -56.5t-48 -39.5t-61.5 -39.5q5 -17 17 -51q3 -12 10 -33t9 -26q18 32 52 104
l95 -57q-50 -102 -101 -165q21 -52 50 -112zM186 94q23 0 49 21q-15 36 -31 86q-5 12 -11.5 35t-9.5 31q-45 -45 -45 -103q0 -29 13 -49.5t35 -20.5zM262 470q0 -18 1 -27q68 46 68 99q0 38 -23 38q-18 0 -32 -34t-14 -76z" />
    <glyph glyph-name="quotesingle" unicode="'" horiz-adv-x="229" 
d="M170 370h-58q7 206 7 223q1 36 25 60t59 24q27 0 45.5 -18.5t18.5 -46.5q0 -18 -8 -31z" />
    <glyph glyph-name="parenleft" unicode="(" horiz-adv-x="282" 
d="M172 -164l-107 -35q-41 116 -41 249q0 344 236 635l89 -54q-86 -143 -136 -314.5t-50 -332.5q0 -69 9 -148z" />
    <glyph glyph-name="parenright" unicode=")" horiz-adv-x="282" 
d="M110 650l107 35q41 -116 41 -249q0 -344 -236 -635l-89 54q85 143 135 314t50 333q0 78 -8 148z" />
    <glyph glyph-name="asterisk" unicode="*" horiz-adv-x="329" 
d="M224 363h-67l29 113l-105 -48l-19 60l108 38l-86 59l46 52l77 -66l20 106h67l-31 -113l104 48l20 -60l-106 -38l85 -59l-46 -52l-79 66z" />
    <glyph glyph-name="plus" unicode="+" horiz-adv-x="386" 
d="M368 296h-118l-32 -142h-91l31 142h-118l19 82h118l30 135h90l-29 -135h118z" />
    <glyph glyph-name="comma" unicode="," horiz-adv-x="259" 
d="M181 73q0 -58 -43 -116t-108 -89l-48 49q77 35 100 84q-2 -1 -11 -1q-27 0 -45.5 18.5t-18.5 50.5q0 36 28.5 62.5t64.5 26.5q34 0 57.5 -22.5t23.5 -62.5z" />
    <glyph glyph-name="hyphen" unicode="-" horiz-adv-x="244" 
d="M201 185h-184l25 114h184z" />
    <glyph glyph-name="period" unicode="." horiz-adv-x="259" 
d="M83 -12q-31 0 -53.5 23t-22.5 55q0 37 27.5 64.5t64.5 27.5q33 0 55 -22.5t22 -55.5q0 -38 -27.5 -65t-65.5 -27z" />
    <glyph glyph-name="slash" unicode="/" horiz-adv-x="241" 
d="M36 -20h-96l303 707h97z" />
    <glyph glyph-name="zero" unicode="0" horiz-adv-x="474" 
d="M202 -12q-79 0 -127 59t-48 167q0 111 36.5 217t103 176t144.5 70q79 0 127 -58.5t48 -166.5q0 -111 -36 -217.5t-103 -176.5t-145 -70zM216 122q48 0 85 135t37 221q0 65 -41 65q-34 0 -63.5 -73t-44 -153.5t-14.5 -128.5q0 -66 41 -66z" />
    <glyph glyph-name="one" unicode="1" horiz-adv-x="377" 
d="M276 0h-151l104 473l-109 -92l-66 90l238 196h131z" />
    <glyph glyph-name="two" unicode="2" horiz-adv-x="466" 
d="M384 0h-402l34 151q34 30 82.5 72t73 63.5t56.5 51t47.5 46.5t31 37t21.5 35t6 30q0 27 -16 42t-45 15q-63 0 -113 -58l-73 100q87 92 201 92q91 0 147.5 -45.5t56.5 -127.5q0 -81 -55 -150.5t-206 -206.5q-11 -10 -17 -15h199z" />
    <glyph glyph-name="three" unicode="3" horiz-adv-x="465" 
d="M205 -12q-76 0 -139 36t-83 99l119 77q13 -37 40.5 -57.5t62.5 -20.5q39 0 59.5 29.5t20.5 66.5q0 26 -19.5 40t-47.5 14q-29 0 -40 -2l30 136q7 -1 55 -1q37 0 56.5 25t19.5 60q0 53 -72 53q-55 0 -94 -48l-78 91q86 91 198 91q89 0 145 -40.5t56 -114.5
q0 -70 -46.5 -122t-106.5 -62q47 -15 69 -51t22 -79q0 -92 -65.5 -156t-161.5 -64z" />
    <glyph glyph-name="four" unicode="4" horiz-adv-x="463" 
d="M344 0h-151l28 133h-230l33 146l284 388h183l-89 -401h49l-29 -133h-49zM251 266l50 226l-158 -226h108z" />
    <glyph glyph-name="five" unicode="5" horiz-adv-x="472" 
d="M205 -12q-162 0 -216 134l116 78q13 -37 39.5 -57.5t58.5 -20.5q37 0 63.5 37.5t26.5 85.5q0 28 -15 45t-44 17q-43 0 -80 -43l-103 37l81 366h375l-29 -132h-223l-33 -149q37 44 98 44q60 0 96 -43t36 -119q0 -114 -69 -197t-178 -83z" />
    <glyph glyph-name="six" unicode="6" horiz-adv-x="467" 
d="M214 -12q-91 0 -140.5 58.5t-49.5 166.5q0 68 19 145t55 150t99 121t140 48q54 0 97.5 -22.5t66.5 -61.5l-98 -102q-16 52 -74 52q-41 0 -74.5 -45.5t-52.5 -111.5q-3 -9 -7 -28q22 35 55 54.5t68 19.5q57 0 93.5 -41.5t36.5 -111.5q0 -71 -27.5 -137t-82 -110
t-124.5 -44zM217 122q33 0 54 43.5t21 84.5q0 26 -12.5 43.5t-35.5 17.5q-37 0 -68 -58q-6 -21 -6 -59q0 -72 47 -72z" />
    <glyph glyph-name="seven" unicode="7" horiz-adv-x="421" 
d="M180 0h-167l284 535h-217l29 132h389l-23 -104z" />
    <glyph glyph-name="eight" unicode="8" horiz-adv-x="466" 
d="M209 -12q-103 0 -156 37.5t-53 119.5q0 66 41 125.5t119 84.5q-33 17 -54.5 51.5t-21.5 77.5q0 83 65 138t150 55q82 0 140.5 -37.5t58.5 -117.5q0 -69 -43 -121.5t-108 -66.5q84 -44 84 -142q0 -88 -61.5 -146t-160.5 -58zM265 390q78 30 78 105q0 48 -47 48
q-30 0 -48.5 -25.5t-18.5 -62.5q0 -39 36 -65zM208 122q30 0 52 28.5t22 70.5q0 28 -13 46.5t-26 23.5q-34 -8 -60 -38.5t-26 -75.5q0 -27 13.5 -41t37.5 -14z" />
    <glyph glyph-name="nine" unicode="9" horiz-adv-x="467" 
d="M292 678q91 0 140 -58.5t49 -166.5q0 -68 -19 -145t-55 -150t-99 -121t-140 -48q-54 0 -97 22.5t-67 61.5l98 102q18 -52 74 -52q41 0 74.5 45.5t52.5 111.5q4 9 8 28q-22 -34 -55.5 -54t-68.5 -20q-56 0 -93 41.5t-37 111.5q0 71 27.5 137t82.5 110t125 44zM289 544
q-33 0 -53.5 -43t-20.5 -85q0 -27 12 -44t35 -17q35 0 68 58q6 28 6 59q0 72 -47 72z" />
    <glyph glyph-name="colon" unicode=":" horiz-adv-x="259" 
d="M84 -12q-32 0 -54.5 23t-22.5 55q0 38 27.5 65t64.5 27q32 0 54.5 -23t22.5 -55q0 -38 -27 -65t-65 -27zM157 319q-32 0 -55 23t-23 55q0 38 27.5 65.5t65.5 27.5q32 0 54.5 -23t22.5 -55q0 -38 -27 -65.5t-65 -27.5z" />
    <glyph glyph-name="semicolon" unicode=";" horiz-adv-x="259" 
d="M181 73q0 -58 -43 -116t-108 -89l-48 49q77 35 100 84q-2 -1 -11 -1q-27 0 -45.5 18.5t-18.5 50.5q0 36 28.5 62.5t64.5 26.5q34 0 57.5 -22.5t23.5 -62.5zM157 319q-31 0 -54 23t-23 55q0 38 27.5 65.5t65.5 27.5q32 0 54.5 -23t22.5 -55q0 -38 -27.5 -65.5t-65.5 -27.5
z" />
    <glyph glyph-name="less" unicode="&#x3c;" horiz-adv-x="386" 
d="M335 153l-297 133l21 98l357 133l-22 -102l-251 -85l213 -83z" />
    <glyph glyph-name="equal" unicode="=" horiz-adv-x="386" 
d="M387 387h-327l18 82h328zM346 199h-327l18 82h327z" />
    <glyph glyph-name="greater" unicode="&#x3e;" horiz-adv-x="386" 
d="M365 286l-357 -133l24 102l250 83l-214 85l21 94l298 -133z" />
    <glyph glyph-name="question" unicode="?" horiz-adv-x="332" 
d="M224 246l-122 -38q-9 27 -9 60q0 47 21.5 86t46.5 60.5t46.5 47.5t21.5 50q0 17 -9.5 28t-27.5 11q-29 0 -52 -22l-41 98q64 50 142 50q62 0 104 -35t42 -89q0 -47 -26.5 -89.5t-57.5 -68t-57.5 -57.5t-26.5 -60q0 -19 5 -32zM122 -12q-32 0 -54.5 23t-22.5 55
q0 38 27.5 65t65.5 27q32 0 54.5 -23t22.5 -55q0 -37 -27.5 -64.5t-65.5 -27.5z" />
    <glyph glyph-name="at" unicode="@" horiz-adv-x="653" 
d="M295 -70q-116 0 -178 76t-62 208q0 108 48 206t131.5 158t179.5 60q99 0 161.5 -65t62.5 -174q0 -127 -51.5 -220.5t-125.5 -93.5q-35 0 -60 17.5t-31 47.5l-1 10q-51 -75 -117 -75q-41 0 -68.5 30.5t-27.5 100.5q0 69 23.5 133t69 106.5t101.5 42.5t72 -62l11 48h119
l-51 -241q-3 -15 -3 -27q0 -40 28 -40q7 0 16 9.5t18 29t16.5 45.5t12.5 62t5 75q0 95 -49 148t-133 53q-85 0 -159 -56t-115.5 -143.5t-41.5 -181.5q0 -110 50.5 -179t153.5 -69q74 0 153 55l21 -31q-88 -63 -179 -63zM317 180q11 0 20 4.5t17.5 14.5t12.5 15.5t12 18.5
l26 126q-8 44 -36 44q-40 0 -64 -54.5t-24 -111.5t36 -57z" />
    <glyph glyph-name="A" unicode="A" horiz-adv-x="454" 
d="M403 0h-152l7 108h-116l-40 -108h-159l290 667h174zM270 240l17 261l-97 -261h80z" />
    <glyph glyph-name="B" unicode="B" horiz-adv-x="477" 
d="M248 0h-255l147 667h190q80 0 124.5 -42.5t44.5 -105.5q0 -68 -39.5 -123.5t-101.5 -63.5q40 -11 61 -45.5t21 -77.5q0 -82 -49.5 -145.5t-142.5 -63.5zM272 405q29 0 48 25.5t19 56.5q0 48 -55 48h-22l-28 -130h38zM215 132q32 0 52.5 26t20.5 64q0 51 -51 51h-33
l-31 -141h42z" />
    <glyph glyph-name="C" unicode="C" horiz-adv-x="448" 
d="M217 -12q-92 0 -141.5 59.5t-49.5 163.5q0 51 9.5 109.5t32.5 123t56 116t84.5 85t113.5 33.5q91 0 133 -61t45 -148l-140 -27q-4 102 -47 102q-39 0 -71.5 -66.5t-47.5 -142t-15 -127.5q0 -86 45 -86q41 0 79 80l121 -49q-74 -165 -207 -165z" />
    <glyph glyph-name="D" unicode="D" horiz-adv-x="500" 
d="M180 0h-187l147 667h181q76 0 130.5 -60t54.5 -166q0 -48 -9 -102t-33 -115.5t-59 -110t-94 -81t-131 -32.5zM201 132h5q37 0 67 36t46 88t24.5 100.5t8.5 82.5q0 48 -16.5 72t-41.5 24h-32l-89 -403h28z" />
    <glyph glyph-name="E" unicode="E" horiz-adv-x="392" 
d="M307 0h-314l147 667h314l-30 -132h-162l-28 -130h155l-29 -132h-156l-31 -141h163z" />
    <glyph glyph-name="F" unicode="F" horiz-adv-x="388" 
d="M144 0h-151l147 667h314l-30 -132h-162l-28 -130h155l-29 -132h-156z" />
    <glyph glyph-name="G" unicode="G" horiz-adv-x="474" 
d="M217 -12q-93 0 -142 60t-49 163q0 55 10.5 116t34.5 124t57.5 113t84 82t109.5 32q86 0 127 -53t43 -136l-127 -31q-2 86 -52 86q-38 0 -70 -63.5t-48 -139.5t-16 -133q0 -47 11 -66.5t35 -19.5q31 0 62 38l18 82h-68l30 132h200l-60 -269q-77 -117 -190 -117z" />
    <glyph glyph-name="H" unicode="H" horiz-adv-x="508" 
d="M407 0h-151l61 277h-112l-61 -277h-151l147 667h151l-57 -258h112l57 258h151z" />
    <glyph glyph-name="I" unicode="I" horiz-adv-x="245" 
d="M144 0h-151l147 667h151z" />
    <glyph glyph-name="J" unicode="J" horiz-adv-x="362" 
d="M92 -12q-84 0 -130 40l58 121q21 -27 59 -27q58 0 73 65l106 480h152l-108 -488q-23 -100 -72.5 -145.5t-137.5 -45.5z" />
    <glyph glyph-name="K" unicode="K" horiz-adv-x="497" 
d="M445 0h-160l-47 240l-60 -87l-34 -153h-151l147 667h151l-59 -270l175 270h173l-228 -312z" />
    <glyph glyph-name="L" unicode="L" horiz-adv-x="380" 
d="M307 0h-314l147 667h151l-118 -535h163z" />
    <glyph glyph-name="M" unicode="M" horiz-adv-x="646" 
d="M545 0h-149l80 364l-183 -364h-49l-20 364l-80 -364h-151l147 667h186l17 -312l159 312h190z" />
    <glyph glyph-name="N" unicode="N" horiz-adv-x="508" 
d="M407 0h-141l-51 324l-71 -324h-151l147 667h151l44 -308l68 308h151z" />
    <glyph glyph-name="O" unicode="O" horiz-adv-x="500" 
d="M217 -12q-94 0 -142.5 62t-48.5 161q0 65 17 141t50.5 151.5t93.5 125t135 49.5q93 0 142 -63t49 -162q0 -51 -10 -110t-33.5 -122.5t-56.5 -115t-84 -84.5t-112 -33zM224 122q38 0 71 65.5t48.5 141t15.5 127.5q0 88 -46 88q-29 0 -55.5 -39t-43 -94t-26 -110.5
t-9.5 -92.5q0 -86 45 -86z" />
    <glyph glyph-name="P" unicode="P" horiz-adv-x="469" 
d="M144 0h-151l147 667h186q78 0 125.5 -50.5t47.5 -127.5q0 -105 -66.5 -180t-188.5 -75h-48zM225 366h32q38 0 61.5 32.5t23.5 74.5q0 29 -14 45.5t-37 16.5h-29z" />
    <glyph glyph-name="Q" unicode="Q" horiz-adv-x="501" 
d="M217 -12q-94 0 -142.5 62t-48.5 161q0 65 17 141t50.5 151.5t93.5 125t135 49.5q93 0 142 -63t49 -162t-37.5 -216t-107.5 -185l11 -67l-110 -21l-5 30q-22 -6 -47 -6zM224 122q11 0 19 4l-16 99l91 16q41 118 41 215q0 88 -46 88q-29 0 -55.5 -39t-43 -94t-26 -110.5
t-9.5 -92.5q0 -86 45 -86z" />
    <glyph glyph-name="R" unicode="R" horiz-adv-x="485" 
d="M403 0h-158l-13 234h-36l-52 -234h-151l147 667h187q74 0 123 -51.5t49 -127.5t-39 -141.5t-86 -84.5zM257 366h1q37 0 60 32t23 75q0 62 -50 62h-29l-37 -169h32z" />
    <glyph glyph-name="S" unicode="S" horiz-adv-x="416" 
d="M165 -12q-60 0 -111.5 22t-78.5 58l85 112q17 -26 46.5 -42t58.5 -16q27 0 45.5 19.5t18.5 51.5q0 19 -16.5 40t-39.5 41.5t-46 44t-39.5 58t-16.5 74.5q0 94 64.5 160.5t157.5 66.5q48 0 94 -18t75 -50l-79 -113q-36 47 -92 47q-27 0 -43 -18.5t-16 -44.5q0 -20 16 -41
t39 -41.5t45.5 -44.5t38.5 -58.5t16 -74.5q0 -96 -62.5 -164.5t-159.5 -68.5z" />
    <glyph glyph-name="T" unicode="T" horiz-adv-x="385" 
d="M215 0h-152l118 535h-99l29 132h349l-29 -132h-99z" />
    <glyph glyph-name="U" unicode="U" horiz-adv-x="508" 
d="M222 -12q-80 0 -134 49.5t-54 130.5q0 18 5 41l101 458h151l-104 -472q-3 -18 -3 -25q0 -23 14 -36.5t36 -13.5q48 0 65 75l104 472h152l-103 -463q-24 -109 -85.5 -162.5t-144.5 -53.5z" />
    <glyph glyph-name="V" unicode="V" horiz-adv-x="454" 
d="M260 0h-174l4 667h152l-30 -474l178 474h160z" />
    <glyph glyph-name="W" unicode="W" horiz-adv-x="650" 
d="M470 0h-151l38 388l-134 -388h-151l29 667h151l-42 -404l147 404h117l-30 -404l136 404h156z" />
    <glyph glyph-name="X" unicode="X" horiz-adv-x="474" 
d="M424 0h-159l-34 203l-115 -203h-174l233 348l-78 319h160l26 -192l105 192h174l-221 -333z" />
    <glyph glyph-name="Y" unicode="Y" horiz-adv-x="460" 
d="M252 0h-152l60 273l-73 394h154l20 -251l132 251h165l-247 -394z" />
    <glyph glyph-name="Z" unicode="Z" horiz-adv-x="394" 
d="M312 0h-338l27 127l243 408h-152l29 132h331l-26 -121l-248 -414h164z" />
    <glyph glyph-name="bracketleft" unicode="[" horiz-adv-x="216" 
d="M101 -190h-161l192 868h162l-19 -89h-67l-152 -690h66z" />
    <glyph glyph-name="backslash" unicode="\" horiz-adv-x="241" 
d="M88 -20v707h94v-707h-94z" />
    <glyph glyph-name="bracketright" unicode="]" horiz-adv-x="216" 
d="M84 -190h-162l19 89h66l154 690h-67l20 89h163z" />
    <glyph glyph-name="asciicircum" unicode="^" horiz-adv-x="341" 
d="M341 333h-93l-6 226l-106 -226h-98l177 334h98z" />
    <glyph glyph-name="underscore" unicode="_" horiz-adv-x="279" 
d="M199 -129h-284l20 89h284z" />
    <glyph glyph-name="grave" unicode="`" horiz-adv-x="193" 
d="M262 556h-84l-77 144h114z" />
    <glyph glyph-name="a" unicode="a" horiz-adv-x="442" 
d="M208 495q78 0 99 -70l14 58h134l-107 -483h-135l12 55q-43 -67 -103 -67q-112 0 -112 159q0 51 12.5 109t36 112.5t62.5 90.5t87 36zM241 376q-22 0 -41 -24t-29.5 -58.5t-16 -68t-5.5 -58.5q0 -60 44 -60q31 0 54 45l39 178q-3 21 -15.5 33.5t-29.5 12.5z" />
    <glyph glyph-name="b" unicode="b" horiz-adv-x="442" 
d="M234 -12q-78 0 -100 71l-12 -59h-135l146 667h136l-53 -239q45 67 103 67q112 0 112 -159q0 -51 -12.5 -109t-35.5 -112.5t-62 -90.5t-87 -36zM200 107q42 0 66.5 73.5t24.5 135.5q0 60 -44 60q-29 0 -52 -45l-40 -178q4 -21 16 -33.5t29 -12.5z" />
    <glyph glyph-name="c" unicode="c" horiz-adv-x="358" 
d="M190 -12q-82 0 -129.5 49t-47.5 139q0 77 28 149t84 121t127 49q87 0 134 -50l-62 -101q-19 32 -60 32q-47 0 -79.5 -59t-32.5 -125q0 -42 19 -63.5t52 -21.5q32 0 57 25l19 -107q-45 -37 -109 -37z" />
    <glyph glyph-name="d" unicode="d" horiz-adv-x="442" 
d="M208 495q78 0 99 -70l54 242h134l-147 -667h-135l12 55q-43 -67 -103 -67q-112 0 -112 159q0 51 12.5 109t36 112.5t62.5 90.5t87 36zM241 376q-22 0 -41 -24t-29.5 -58.5t-16 -68t-5.5 -58.5q0 -60 44 -60q31 0 54 45l39 178q-3 21 -15.5 33.5t-29.5 12.5z" />
    <glyph glyph-name="e" unicode="e" horiz-adv-x="420" 
d="M191 -12q-84 0 -131 50t-47 140q0 69 25.5 139.5t81 124t128.5 53.5q81 0 120.5 -46t39.5 -126q0 -53 -19 -126h-250q-2 -10 -2 -29q0 -27 18.5 -49t62.5 -22q41 0 82 36l44 -84q-63 -61 -153 -61zM158 290h125q4 17 4 37q0 27 -14 43t-36 16q-33 0 -52.5 -29.5
t-26.5 -66.5z" />
    <glyph glyph-name="f" unicode="f" horiz-adv-x="262" 
d="M138 0h-135l81 365h-44l27 118h43l7 34q33 160 159 160q72 0 104 -30l-52 -100q-14 15 -30 15q-37 0 -46 -45l-7 -34h59l-27 -118h-58z" />
    <glyph glyph-name="g" unicode="g" horiz-adv-x="442" 
d="M130 -196q-113 0 -168 64l67 100q36 -49 97 -49q67 0 91 101l14 58q-43 -69 -104 -69q-55 0 -84.5 38.5t-29.5 112.5q0 49 11 104t32.5 108.5t61 88t89.5 34.5q32 0 62.5 -18t37.5 -52l13 58h135l-103 -459q-27 -122 -83 -171t-139 -49zM197 130q30 0 54 44l35 156
q-5 20 -18.5 33t-28.5 13q-29 0 -50 -36t-29 -76.5t-8 -74.5q0 -59 45 -59z" />
    <glyph glyph-name="h" unicode="h" horiz-adv-x="441" 
d="M347 0h-136l73 330q3 6 3 17q0 29 -27 29q-34 0 -68 -56l-70 -320h-136l147 667h136l-54 -243q22 30 55 50.5t69 20.5q45 0 70 -23.5t25 -61.5q0 -8 -4 -28z" />
    <glyph glyph-name="i" unicode="i" horiz-adv-x="216" 
d="M179 532q-31 0 -51.5 20t-20.5 48q0 41 29 66.5t62 25.5q31 0 51.5 -20t20.5 -49q0 -41 -28.5 -66t-62.5 -25zM122 0h-136l107 483h136z" />
    <glyph glyph-name="j" unicode="j" horiz-adv-x="216" 
d="M-54 -196q-55 0 -79 25l48 101q6 -11 23 -11q30 0 42 54l113 510h136l-114 -510q-19 -87 -56.5 -128t-112.5 -41zM179 532q-31 0 -51.5 20t-20.5 48q0 41 29 66.5t62 25.5q31 0 51.5 -20t20.5 -49q0 -41 -28.5 -66t-62.5 -25z" />
    <glyph glyph-name="k" unicode="k" horiz-adv-x="424" 
d="M370 0h-146l-23 182l-56 -75l-23 -107h-136l147 667h136l-83 -378l132 194h152l-159 -214z" />
    <glyph glyph-name="l" unicode="l" horiz-adv-x="216" 
d="M122 0h-136l147 667h136z" />
    <glyph glyph-name="m" unicode="m" horiz-adv-x="666" 
d="M571 0h-135l73 330l1 3q0 3 1 7t1 7q0 29 -27 29q-37 0 -68 -56l-70 -320h-136l73 330q3 6 3 17q0 29 -27 29q-35 0 -68 -56l-70 -320h-136l107 483h136l-14 -59q22 31 55.5 51t68.5 20q42 0 68.5 -22t26.5 -52q0 -2 -1 -6q23 34 59 57t72 23q43 0 69 -23t26 -62
q0 -14 -4 -28z" />
    <glyph glyph-name="n" unicode="n" horiz-adv-x="441" 
d="M347 0h-136l73 330q3 9 3 17q0 29 -27 29q-34 0 -68 -56l-70 -320h-136l107 483h136l-14 -59q22 30 55 50.5t69 20.5q44 0 69.5 -23.5t25.5 -61.5q0 -16 -4 -28z" />
    <glyph glyph-name="o" unicode="o" 
d="M184 -12q-83 0 -127 50t-44 137q0 73 26 145t81.5 123.5t126.5 51.5q85 0 129 -50t44 -137q0 -73 -26.5 -144.5t-82 -123.5t-127.5 -52zM192 107q40 0 65.5 73.5t25.5 130.5q0 65 -43 65q-40 0 -65.5 -74t-25.5 -130q0 -65 43 -65z" />
    <glyph glyph-name="p" unicode="p" horiz-adv-x="442" 
d="M234 -12q-78 0 -100 71l-53 -243h-135l147 667h136l-13 -55q45 67 103 67q112 0 112 -159q0 -51 -12.5 -109t-35.5 -112.5t-62 -90.5t-87 -36zM200 107q42 0 66.5 73.5t24.5 135.5q0 60 -44 60q-29 0 -52 -45l-40 -178q4 -21 16 -33.5t29 -12.5z" />
    <glyph glyph-name="q" unicode="q" horiz-adv-x="442" 
d="M208 495q78 0 99 -70l13 58h134l-147 -667h-135l53 239q-43 -67 -103 -67q-112 0 -112 159q0 51 12.5 109t36 112.5t62.5 90.5t87 36zM241 376q-22 0 -41 -24t-29.5 -58.5t-16 -68t-5.5 -58.5q0 -60 44 -60q31 0 54 45l39 178q-3 21 -15.5 33.5t-29.5 12.5z" />
    <glyph glyph-name="r" unicode="r" horiz-adv-x="295" 
d="M122 0h-136l107 483h136l-13 -59q19 32 51.5 51.5t71.5 19.5l-31 -133q-10 6 -28 6q-50 0 -90 -55z" />
    <glyph glyph-name="s" unicode="s" horiz-adv-x="364" 
d="M144 -12q-56 0 -104 22t-68 52l72 87q39 -55 100 -55q23 0 38 13t15 31q0 17 -24 34.5t-52.5 32.5t-52.5 47t-24 74q0 70 46.5 119.5t130.5 49.5q45 0 88 -18.5t72 -50.5l-69 -85q-11 17 -38 32.5t-54 15.5q-21 0 -33.5 -10.5t-12.5 -28.5q0 -12 16.5 -24.5t39.5 -25.5
t46 -30t39.5 -45t16.5 -63q0 -71 -52 -122.5t-136 -51.5z" />
    <glyph glyph-name="t" unicode="t" horiz-adv-x="270" 
d="M151 -12q-127 0 -127 94q0 23 6 46l54 237h-44l26 118h44l29 132h135l-29 -132h59l-27 -118h-58l-47 -211q-3 -10 -3 -22q0 -25 25 -25q9 0 21 7l-1 -112q-23 -14 -63 -14z" />
    <glyph glyph-name="u" unicode="u" horiz-adv-x="441" 
d="M93 483h136l-73 -327q-3 -14 -3 -22q0 -27 27 -27q36 0 67 54l71 322h136l-107 -483h-136l14 59q-55 -71 -124 -71q-44 0 -69.5 23.5t-25.5 61.5q0 16 4 28z" />
    <glyph glyph-name="v" unicode="v" horiz-adv-x="408" 
d="M222 0h-144l-27 483h139l-7 -313l134 313h146z" />
    <glyph glyph-name="w" unicode="w" horiz-adv-x="641" 
d="M472 0h-142l2 299l-129 -299h-142l-7 483h136l-12 -301l124 301h127l-4 -301l124 301h144z" />
    <glyph glyph-name="x" unicode="x" horiz-adv-x="395" 
d="M342 0h-141l-22 144l-87 -144h-147l167 243l-55 240h138l20 -141l82 141h146l-163 -240z" />
    <glyph glyph-name="y" unicode="y" horiz-adv-x="408" 
d="M-51 -182l44 111q6 -6 23 -6q22 0 39 30l22 42l-26 488h139l-7 -312l134 312h146l-279 -558q-36 -70 -70.5 -95.5t-84.5 -25.5q-48 0 -80 14z" />
    <glyph glyph-name="z" unicode="z" horiz-adv-x="352" 
d="M275 0h-306l21 101l195 264h-136l27 118h302l-22 -96l-196 -269h140z" />
    <glyph glyph-name="braceleft" unicode="{" horiz-adv-x="228" 
d="M114 -190h-18q-43 0 -77.5 28.5t-35.5 71.5q0 12 4 26l45 205q2 10 2 17q0 22 -10.5 35.5t-28.5 13.5l17 74q51 0 66 67l45 205q29 125 157 125h27l-19 -89h-27q-33 0 -41 -36l-50 -229q-15 -72 -65 -91q29 -15 29 -55q0 -18 -4 -34l-44 -200l-3 -18q0 -12 7 -20t17 -8
h27z" />
    <glyph glyph-name="bar" unicode="|" horiz-adv-x="182" 
d="M156 -20h-89v707h89v-707z" />
    <glyph glyph-name="braceright" unicode="}" horiz-adv-x="228" 
d="M113 678h18q44 0 78.5 -28.5t34.5 -71.5q0 -16 -3 -26l-45 -204q-3 -15 -3 -19q0 -21 11 -34.5t29 -13.5l-17 -74q-52 0 -67 -66l-45 -206q-28 -125 -157 -125h-27l20 89h27q32 0 40 36l51 229q15 72 65 91q-29 15 -29 55q0 18 4 34l44 200l3 18q0 12 -7.5 20t-16.5 8
h-28z" />
    <glyph glyph-name="asciitilde" unicode="~" horiz-adv-x="427" 
d="M403 667l89 -7q-43 -249 -169 -249q-42 0 -61 27t-18.5 60t-2 60t-15.5 27q-35 0 -73 -175l-90 7q46 250 171 250q42 0 61 -27.5t18.5 -60t2 -60t15.5 -27.5q36 0 72 175z" />
    <glyph glyph-name="nbspace" unicode="&#xa0;" horiz-adv-x="159" 
 />
    <glyph glyph-name="exclamdown" unicode="&#xa1;" horiz-adv-x="259" 
d="M75 261h119l-77 -445h-163zM176 495q33 0 55 -22.5t22 -55.5q0 -37 -27.5 -64.5t-64.5 -27.5q-32 0 -55 23t-23 55q0 37 27.5 64.5t65.5 27.5z" />
    <glyph glyph-name="cent" unicode="&#xa2;" horiz-adv-x="358" 
d="M85 -100l23 103q-95 41 -95 173q0 110 56 204t147 111l17 74h98l-18 -79q45 -12 73 -41l-62 -101q-19 32 -60 32q-47 0 -79.5 -59t-32.5 -125q0 -42 19 -63.5t52 -21.5q32 0 57 25l19 -107q-38 -32 -97 -37l-19 -88h-98z" />
    <glyph glyph-name="sterling" unicode="&#xa3;" horiz-adv-x="447" 
d="M37 279l19 85h43q-9 38 -9 74q0 103 72 171t158 68q73 0 122.5 -40t50.5 -114l-130 -36q-3 68 -41 68q-29 0 -50 -42t-21 -97q0 -24 7 -52h69l-19 -85h-49q-16 -98 -81 -142q20 8 35 8q23 0 52.5 -11.5t47.5 -11.5q38 0 67 27l11 -122q-43 -39 -106 -39q-43 0 -92.5 21
t-75.5 21q-37 0 -87 -37l-19 102q47 28 76.5 74t29.5 97q0 9 -1 13h-79z" />
    <glyph glyph-name="currency" unicode="&#xa4;" horiz-adv-x="466" 
d="M226 99q-52 0 -92 20l-82 -66l-68 88l78 64q-12 33 -12 76q0 122 68 205l-53 68l90 72l55 -72q32 12 69 12q53 0 90 -20l85 69l70 -88l-81 -65q13 -35 13 -79q0 -119 -67 -202l52 -68l-90 -73l-55 71q-33 -12 -70 -12zM179 286q0 -71 54 -71q37 0 65 48t28 114
q0 74 -54 74q-37 0 -65 -50t-28 -115z" />
    <glyph glyph-name="yen" unicode="&#xa5;" horiz-adv-x="460" 
d="M252 0h-152l25 114h-129l19 82h128l17 77h-128l19 82h94l-58 312h154l20 -251l132 251h165l-196 -312h94l-19 -82h-126l-17 -77h126l-19 -82h-125z" />
    <glyph glyph-name="brokenbar" unicode="&#xa6;" horiz-adv-x="182" 
d="M156 -20h-89v316h89v-316zM156 371h-89v316h89v-316z" />
    <glyph glyph-name="section" unicode="&#xa7;" horiz-adv-x="365" 
d="M368 341q0 -104 -102 -152q47 -34 47 -94q0 -73 -52.5 -124.5t-130.5 -51.5q-133 0 -179 68l73 86q32 -54 97 -54q27 0 43.5 17t16.5 41q0 18 -15.5 33.5t-37.5 28t-44 28t-37.5 42.5t-15.5 62q0 50 29.5 88.5t78.5 53.5q-24 17 -38.5 45t-14.5 57q0 69 50 115.5
t121 46.5q115 0 171 -68l-71 -74q-34 47 -90 47q-23 0 -37.5 -15.5t-14.5 -35.5q0 -21 24 -41t52.5 -35t52.5 -45t24 -69zM243 308q0 37 -29 58q-58 -13 -58 -68q0 -42 41 -62q46 21 46 72z" />
    <glyph glyph-name="dieresis" unicode="&#xa8;" horiz-adv-x="284" 
d="M382 620q0 -31 -24.5 -55t-55.5 -24q-27 0 -45 18t-18 45q0 31 24 55t56 24q27 0 45 -18t18 -45zM208 620q0 -31 -24 -55t-56 -24q-27 0 -44.5 18t-17.5 45q0 31 24 55t55 24q27 0 45 -18t18 -45z" />
    <glyph glyph-name="copyright" unicode="&#xa9;" horiz-adv-x="778" 
d="M754 334q0 -142 -101.5 -243.5t-244.5 -101.5q-142 0 -243 101t-101 244t101 244t243 101q143 0 244.5 -101.5t101.5 -243.5zM716 334q0 126 -91 216.5t-217 90.5t-216 -90.5t-90 -216.5t90 -216.5t216 -90.5t217 90.5t91 216.5zM507 213l25 -35q-64 -55 -139 -55
q-86 0 -138.5 52t-52.5 132q0 100 70 169t163 69q109 0 159 -81l-39 -27q-37 67 -123 67q-70 0 -126.5 -56.5t-56.5 -138.5q0 -60 39.5 -102.5t105.5 -42.5q62 0 113 49z" />
    <glyph glyph-name="ordfeminine" unicode="&#xaa;" horiz-adv-x="324" 
d="M228 571q-27 0 -45.5 -44t-18.5 -88t31 -44q19 0 38 32l26 116q-8 28 -31 28zM280 640h97l-69 -314h-97l8 36q-32 -44 -73 -44q-37 0 -59 27.5t-22 84.5q0 77 38.5 147.5t97.5 70.5q51 0 71 -44z" />
    <glyph glyph-name="guillemotleft" unicode="&#xab;" horiz-adv-x="416" 
d="M179 63h-100l-50 180l130 177h104l-133 -181zM343 63h-101l-50 180l130 177h105l-133 -181z" />
    <glyph glyph-name="logicalnot" unicode="&#xac;" horiz-adv-x="386" 
d="M406 469l-60 -270h-85l41 188h-242l18 82h328z" />
    <glyph glyph-name="uni00AD" unicode="&#xad;" horiz-adv-x="244" 
d="M201 185h-184l25 114h184z" />
    <glyph glyph-name="registered" unicode="&#xae;" horiz-adv-x="494" 
d="M508 465q0 -88 -62.5 -150t-150.5 -62t-149.5 62t-61.5 150t62 150t150 62t150 -61.5t62 -150.5zM475 465q0 75 -52.5 127t-127.5 52t-126.5 -51.5t-51.5 -127.5q0 -75 51.5 -127t126.5 -52t127.5 52.5t52.5 126.5zM369 343h-41l-42 96h-43l-21 -96h-35l53 243h94
q32 0 51.5 -18t19.5 -46q0 -35 -25 -58.5t-55 -23.5zM368 519q0 37 -42 37h-57l-19 -86h64q22 0 38 14t16 35z" />
    <glyph glyph-name="macron" unicode="&#xaf;" horiz-adv-x="263" 
d="M333 560h-262l16 76h262z" />
    <glyph glyph-name="degree" unicode="&#xb0;" horiz-adv-x="314" 
d="M359 540q0 -57 -40 -97t-97 -40t-97 40t-40 97q0 56 40 96.5t97 40.5t97 -40.5t40 -96.5zM287 540q0 26 -19 45.5t-46 19.5t-45.5 -19t-18.5 -46t18 -46t45 -19t46.5 19t19.5 46z" />
    <glyph glyph-name="plusminus" unicode="&#xb1;" horiz-adv-x="386" 
d="M368 296h-118l-32 -142h-91l31 142h-118l19 82h118l30 135h90l-29 -135h118zM306 18h-327l18 83h327z" />
    <glyph glyph-name="twosuperior" unicode="&#xb2;" horiz-adv-x="308" 
d="M333 421h-268l18 79q132 102 171 140.5t39 68.5q0 38 -43 38q-41 0 -79 -44l-46 66q58 58 133 58q60 0 99 -28t39 -79t-40 -94t-147 -125h142z" />
    <glyph glyph-name="threesuperior" unicode="&#xb3;" horiz-adv-x="308" 
d="M357 539q0 -49 -40 -87t-102 -38q-49 0 -87.5 18t-57.5 51l73 59q22 -48 67 -48q23 0 36.5 17.5t13.5 37.5q0 36 -43 36q-23 0 -30 -1l17 79q5 -1 34 -1q25 0 39.5 13.5t14.5 36.5q0 16 -12 25.5t-32 9.5q-41 0 -72 -37l-50 58q56 59 131 59q61 0 98.5 -26.5t37.5 -72.5
q0 -38 -26 -70.5t-70 -36.5q60 -18 60 -82z" />
    <glyph glyph-name="acute" unicode="&#xb4;" horiz-adv-x="193" 
d="M294 700l-141 -144h-86l112 144h115z" />
    <glyph glyph-name="mu" unicode="&#xb5;" horiz-adv-x="455" 
d="M122 1l-40 -185h-136l147 667h136l-74 -332q-8 -44 25 -44q34 0 67 53l71 323h136l-76 -343q-7 -33 16 -33q7 0 15 2l-15 -112q-25 -9 -63 -9q-50 0 -69 20t-18 67q-14 -41 -38.5 -64t-48.5 -23q-21 0 -35 13z" />
    <glyph glyph-name="paragraph" unicode="&#xb6;" horiz-adv-x="449" 
d="M329 -100h-65l157 702h-78l-156 -702h-65l94 423q-57 0 -97 44.5t-40 111.5q0 73 56.5 130.5t137.5 57.5h226z" />
    <glyph glyph-name="periodcentered" unicode="&#xb7;" horiz-adv-x="259" 
d="M121 159q-32 0 -54 23t-22 55q0 38 27.5 65.5t64.5 27.5q32 0 54.5 -23.5t22.5 -55.5q0 -38 -27.5 -65t-65.5 -27z" />
    <glyph glyph-name="cedilla" unicode="&#xb8;" horiz-adv-x="191" 
d="M9 -196q-60 0 -97 40l33 48q25 -32 63 -32q17 0 27.5 10t10.5 25q0 20 -19 20q-13 0 -23 -13l-42 27l48 82h66l-40 -62q11 10 23 10q24 0 39 -16.5t15 -44.5q0 -40 -30 -67t-74 -27z" />
    <glyph glyph-name="onesuperior" unicode="&#xb9;" horiz-adv-x="259" 
d="M259 421h-102l58 267l-63 -53l-46 61l154 125h87z" />
    <glyph glyph-name="ordmasculine" unicode="&#xba;" horiz-adv-x="318" 
d="M192 318q-60 0 -92 34.5t-32 90.5q0 78 45.5 141.5t118.5 63.5q59 0 91.5 -34.5t32.5 -90.5q0 -78 -45.5 -141.5t-118.5 -63.5zM196 396q28 0 44.5 48.5t16.5 83.5q0 41 -31 41q-28 0 -44.5 -48t-16.5 -83q0 -42 31 -42z" />
    <glyph glyph-name="guillemotright" unicode="&#xbb;" horiz-adv-x="416" 
d="M73 420h100l50 -180l-130 -177h-104l133 181zM236 420h101l50 -180l-130 -177h-105l133 181z" />
    <glyph glyph-name="onequarter" unicode="&#xbc;" horiz-adv-x="684" 
d="M225 267h-102l58 267l-63 -53l-46 61l154 125h87zM637 83h-33l-18 -83h-101l18 83h-152l18 78l183 239h122l-52 -237h32zM520 163l28 125l-94 -125h66zM605 667l-430 -667h-55l429 667h56z" />
    <glyph glyph-name="onehalf" unicode="&#xbd;" horiz-adv-x="721" 
d="M225 267h-102l58 267l-63 -53l-46 61l154 125h87zM654 0h-268l18 79q132 102 171 140.5t39 68.5q0 38 -43 38q-41 0 -79 -44l-46 66q58 58 133 58q60 0 99 -28t39 -79t-40 -94t-147 -125h142zM605 667l-430 -667h-55l429 667h56z" />
    <glyph glyph-name="threequarters" unicode="&#xbe;" horiz-adv-x="720" 
d="M673 83h-33l-18 -83h-101l18 83h-152l18 78l183 239h122l-52 -237h32zM556 163l28 125l-94 -125h66zM641 667l-430 -667h-55l429 667h56zM323 385q0 -49 -40 -87t-102 -38q-49 0 -87.5 18t-57.5 51l73 59q22 -48 67 -48q23 0 36.5 17.5t13.5 37.5q0 36 -43 36
q-23 0 -30 -1l17 79q5 -1 34 -1q25 0 39.5 13.5t14.5 36.5q0 16 -12 25.5t-32 9.5q-41 0 -72 -37l-50 58q56 59 131 59q61 0 98.5 -26.5t37.5 -72.5q0 -38 -26 -70.5t-70 -36.5q60 -18 60 -82z" />
    <glyph glyph-name="questiondown" unicode="&#xbf;" horiz-adv-x="296" 
d="M106 236l122 38q8 -24 8 -59q0 -39 -14 -71.5t-34 -54.5t-39.5 -40.5t-33.5 -38t-14 -39.5q0 -17 10 -28t28 -11q29 0 50 21l41 -97q-62 -51 -140 -51q-62 0 -104.5 35t-42.5 89q0 39 17.5 73.5t42.5 59.5t49.5 47.5t42 46.5t17.5 48q0 20 -6 32zM209 494q31 0 53.5 -23
t22.5 -55q0 -37 -27.5 -64.5t-64.5 -27.5q-33 0 -55.5 23t-22.5 56q0 37 28 64t66 27z" />
    <glyph glyph-name="Agrave" unicode="&#xc0;" horiz-adv-x="454" 
d="M403 0h-152l7 108h-116l-40 -108h-159l290 667h174zM270 240l17 261l-97 -261h80zM380 723h-84l-77 144h114z" />
    <glyph glyph-name="Aacute" unicode="&#xc1;" horiz-adv-x="454" 
d="M403 0h-152l7 108h-116l-40 -108h-159l290 667h174zM270 240l17 261l-97 -261h80zM509 867l-141 -144h-86l112 144h115z" />
    <glyph glyph-name="Acircumflex" unicode="&#xc2;" horiz-adv-x="454" 
d="M455 723h-71l-32 86l-66 -86h-76l93 144h120zM403 0h-152l7 108h-116l-40 -108h-159l290 667h174zM270 240l17 261l-97 -261h80z" />
    <glyph glyph-name="Atilde" unicode="&#xc3;" horiz-adv-x="454" 
d="M403 0h-152l7 108h-116l-40 -108h-159l290 667h174zM270 240l17 261l-97 -261h80zM387 721q-21 0 -34 10t-18 22t-13 22t-19 10q-21 0 -34 -58h-70q31 134 110 134q20 0 33.5 -10t18.5 -22t13.5 -22t19.5 -10q21 0 34 58h70q-13 -62 -41.5 -98t-69.5 -36z" />
    <glyph glyph-name="Adieresis" unicode="&#xc4;" horiz-adv-x="454" 
d="M503 787q0 -31 -24.5 -55t-55.5 -24q-27 0 -45 18t-18 45q0 31 24 55t56 24q27 0 45 -18t18 -45zM329 787q0 -31 -24 -55t-56 -24q-27 0 -44.5 18t-17.5 45q0 31 24 55t55 24q27 0 45 -18t18 -45zM403 0h-152l7 108h-116l-40 -108h-159l290 667h174zM270 240l17 261
l-97 -261h80z" />
    <glyph glyph-name="Aring" unicode="&#xc5;" horiz-adv-x="454" 
d="M403 0h-152l7 108h-116l-40 -108h-159l290 667h174zM270 240l17 261l-97 -261h80zM335 690q-36 0 -58.5 23t-22.5 59q0 41 30.5 72.5t71.5 31.5q36 0 59 -23.5t23 -59.5q0 -41 -31 -72t-72 -31zM343 747q15 0 27 12t12 28q0 14 -8.5 23t-22.5 9q-16 0 -28 -12t-12 -28
q0 -14 9 -23t23 -9z" />
    <glyph glyph-name="AE" unicode="&#xc6;" horiz-adv-x="633" 
d="M554 0h-313l23 108h-104l-55 -108h-158l375 667h379l-29 -132h-162l-29 -130h156l-30 -132h-155l-31 -141h162zM293 240l55 246l-123 -246h68z" />
    <glyph glyph-name="Ccedilla" unicode="&#xc7;" horiz-adv-x="448" 
d="M165 -196q-60 0 -97 40l33 48q25 -32 63 -32q17 0 27.5 10t10.5 25q0 20 -19 20q-13 0 -23 -13l-42 27l39 67q-64 17 -97.5 73t-33.5 142q0 51 9.5 109.5t32.5 123t56 116t84.5 85t113.5 33.5q91 0 133 -61t45 -148l-140 -27q-4 102 -47 102q-39 0 -71.5 -66.5
t-47.5 -142t-15 -127.5q0 -86 45 -86q41 0 79 80l121 -49q-74 -165 -207 -165l-25 -39q11 10 23 10q24 0 39 -16.5t15 -44.5q0 -40 -30 -67t-74 -27z" />
    <glyph glyph-name="Egrave" unicode="&#xc8;" horiz-adv-x="392" 
d="M307 0h-314l147 667h314l-30 -132h-162l-28 -130h155l-29 -132h-156l-31 -141h163zM357 723h-84l-77 144h114z" />
    <glyph glyph-name="Eacute" unicode="&#xc9;" horiz-adv-x="392" 
d="M487 867l-141 -144h-86l112 144h115zM307 0h-314l147 667h314l-30 -132h-162l-28 -130h155l-29 -132h-156l-31 -141h163z" />
    <glyph glyph-name="Ecircumflex" unicode="&#xca;" horiz-adv-x="392" 
d="M432 723h-71l-32 86l-66 -86h-76l93 144h120zM307 0h-314l147 667h314l-30 -132h-162l-28 -130h155l-29 -132h-156l-31 -141h163z" />
    <glyph glyph-name="Edieresis" unicode="&#xcb;" horiz-adv-x="392" 
d="M479 787q0 -31 -24.5 -55t-55.5 -24q-27 0 -45 18t-18 45q0 31 24 55t56 24q27 0 45 -18t18 -45zM305 787q0 -31 -24 -55t-56 -24q-27 0 -44.5 18t-17.5 45q0 31 24 55t55 24q27 0 45 -18t18 -45zM307 0h-314l147 667h314l-30 -132h-162l-28 -130h155l-29 -132h-156
l-31 -141h163z" />
    <glyph glyph-name="Igrave" unicode="&#xcc;" horiz-adv-x="245" 
d="M144 0h-151l147 667h151zM275 723h-84l-77 144h114z" />
    <glyph glyph-name="Iacute" unicode="&#xcd;" horiz-adv-x="245" 
d="M144 0h-151l147 667h151zM405 867l-141 -144h-86l112 144h115z" />
    <glyph glyph-name="Icircumflex" unicode="&#xce;" horiz-adv-x="245" 
d="M351 723h-71l-32 86l-66 -86h-76l93 144h120zM144 0h-151l147 667h151z" />
    <glyph glyph-name="Idieresis" unicode="&#xcf;" horiz-adv-x="245" 
d="M399 787q0 -31 -24.5 -55t-55.5 -24q-27 0 -45 18t-18 45q0 31 24 55t56 24q27 0 45 -18t18 -45zM225 787q0 -31 -24 -55t-56 -24q-27 0 -44.5 18t-17.5 45q0 31 24 55t55 24q27 0 45 -18t18 -45zM144 0h-151l147 667h151z" />
    <glyph glyph-name="Eth" unicode="&#xd0;" horiz-adv-x="524" 
d="M204 0h-187l60 273h-57l26 121h57l61 273h181q76 0 130.5 -60t54.5 -166q0 -48 -9 -102t-33 -115.5t-59 -110t-94 -81t-131 -32.5zM291 273h-63l-31 -141h33q37 0 67 36t46 88t24.5 100.5t8.5 82.5q0 48 -16.5 72t-41.5 24h-32l-31 -141h63z" />
    <glyph glyph-name="Ntilde" unicode="&#xd1;" horiz-adv-x="508" 
d="M414 721q-21 0 -34 10t-18 22t-13 22t-19 10q-21 0 -34 -58h-70q31 134 110 134q20 0 33.5 -10t18.5 -22t13.5 -22t19.5 -10q21 0 34 58h70q-13 -62 -41.5 -98t-69.5 -36zM407 0h-141l-51 324l-71 -324h-151l147 667h151l44 -308l68 308h151z" />
    <glyph glyph-name="Ograve" unicode="&#xd2;" horiz-adv-x="500" 
d="M403 723h-84l-77 144h114zM217 -12q-94 0 -142.5 62t-48.5 161q0 65 17 141t50.5 151.5t93.5 125t135 49.5q93 0 142 -63t49 -162q0 -51 -10 -110t-33.5 -122.5t-56.5 -115t-84 -84.5t-112 -33zM224 122q38 0 71 65.5t48.5 141t15.5 127.5q0 88 -46 88q-29 0 -55.5 -39
t-43 -94t-26 -110.5t-9.5 -92.5q0 -86 45 -86z" />
    <glyph glyph-name="Oacute" unicode="&#xd3;" horiz-adv-x="500" 
d="M533 867l-141 -144h-86l112 144h115zM217 -12q-94 0 -142.5 62t-48.5 161q0 65 17 141t50.5 151.5t93.5 125t135 49.5q93 0 142 -63t49 -162q0 -51 -10 -110t-33.5 -122.5t-56.5 -115t-84 -84.5t-112 -33zM224 122q38 0 71 65.5t48.5 141t15.5 127.5q0 88 -46 88
q-29 0 -55.5 -39t-43 -94t-26 -110.5t-9.5 -92.5q0 -86 45 -86z" />
    <glyph glyph-name="Ocircumflex" unicode="&#xd4;" horiz-adv-x="500" 
d="M479 723h-71l-32 86l-66 -86h-76l93 144h120zM217 -12q-94 0 -142.5 62t-48.5 161q0 65 17 141t50.5 151.5t93.5 125t135 49.5q93 0 142 -63t49 -162q0 -51 -10 -110t-33.5 -122.5t-56.5 -115t-84 -84.5t-112 -33zM224 122q38 0 71 65.5t48.5 141t15.5 127.5q0 88 -46 88
q-29 0 -55.5 -39t-43 -94t-26 -110.5t-9.5 -92.5q0 -86 45 -86z" />
    <glyph glyph-name="Otilde" unicode="&#xd5;" horiz-adv-x="500" 
d="M217 -12q-94 0 -142.5 62t-48.5 161q0 65 17 141t50.5 151.5t93.5 125t135 49.5q93 0 142 -63t49 -162q0 -51 -10 -110t-33.5 -122.5t-56.5 -115t-84 -84.5t-112 -33zM224 122q38 0 71 65.5t48.5 141t15.5 127.5q0 88 -46 88q-29 0 -55.5 -39t-43 -94t-26 -110.5
t-9.5 -92.5q0 -86 45 -86zM410 721q-21 0 -34 10t-18 22t-13 22t-19 10q-21 0 -34 -58h-70q31 134 110 134q20 0 33.5 -10t18.5 -22t13.5 -22t19.5 -10q21 0 34 58h70q-13 -62 -41.5 -98t-69.5 -36z" />
    <glyph glyph-name="Odieresis" unicode="&#xd6;" horiz-adv-x="500" 
d="M526 787q0 -31 -24.5 -55t-55.5 -24q-27 0 -45 18t-18 45q0 31 24 55t56 24q27 0 45 -18t18 -45zM352 787q0 -31 -24 -55t-56 -24q-27 0 -44.5 18t-17.5 45q0 31 24 55t55 24q27 0 45 -18t18 -45zM217 -12q-94 0 -142.5 62t-48.5 161q0 65 17 141t50.5 151.5t93.5 125
t135 49.5q93 0 142 -63t49 -162q0 -51 -10 -110t-33.5 -122.5t-56.5 -115t-84 -84.5t-112 -33zM224 122q38 0 71 65.5t48.5 141t15.5 127.5q0 88 -46 88q-29 0 -55.5 -39t-43 -94t-26 -110.5t-9.5 -92.5q0 -86 45 -86z" />
    <glyph glyph-name="multiply" unicode="&#xd7;" horiz-adv-x="386" 
d="M278 181l-73 94l-122 -100l-51 65l123 99l-73 95l64 53l74 -94l122 100l50 -64l-121 -100l73 -95z" />
    <glyph glyph-name="Oslash" unicode="&#xd8;" horiz-adv-x="500" 
d="M217 -12q-79 0 -126 44l-24 -32h-84l66 90q-23 50 -23 121q0 65 17 141t50.5 151.5t93.5 125t135 49.5q77 0 126 -46l25 35h84l-68 -93q24 -52 24 -121q0 -51 -10 -110t-33.5 -122.5t-56.5 -115t-84 -84.5t-112 -33zM313 544q-46 0 -80.5 -85t-48.5 -185l170 231
q-11 39 -41 39zM224 122q31 0 59.5 45.5t45.5 104t25 118.5l-170 -231q10 -37 40 -37z" />
    <glyph glyph-name="Ugrave" unicode="&#xd9;" horiz-adv-x="508" 
d="M222 -12q-80 0 -134 49.5t-54 130.5q0 18 5 41l101 458h151l-104 -472q-3 -18 -3 -25q0 -23 14 -36.5t36 -13.5q48 0 65 75l104 472h152l-103 -463q-24 -109 -85.5 -162.5t-144.5 -53.5zM407 723h-84l-77 144h114z" />
    <glyph glyph-name="Uacute" unicode="&#xda;" horiz-adv-x="508" 
d="M537 867l-141 -144h-86l112 144h115zM222 -12q-80 0 -134 49.5t-54 130.5q0 18 5 41l101 458h151l-104 -472q-3 -18 -3 -25q0 -23 14 -36.5t36 -13.5q48 0 65 75l104 472h152l-103 -463q-24 -109 -85.5 -162.5t-144.5 -53.5z" />
    <glyph glyph-name="Ucircumflex" unicode="&#xdb;" horiz-adv-x="508" 
d="M484 723h-71l-32 86l-66 -86h-76l93 144h120zM222 -12q-80 0 -134 49.5t-54 130.5q0 18 5 41l101 458h151l-104 -472q-3 -18 -3 -25q0 -23 14 -36.5t36 -13.5q48 0 65 75l104 472h152l-103 -463q-24 -109 -85.5 -162.5t-144.5 -53.5z" />
    <glyph glyph-name="Udieresis" unicode="&#xdc;" horiz-adv-x="508" 
d="M530 787q0 -31 -24.5 -55t-55.5 -24q-27 0 -45 18t-18 45q0 31 24 55t56 24q27 0 45 -18t18 -45zM356 787q0 -31 -24 -55t-56 -24q-27 0 -44.5 18t-17.5 45q0 31 24 55t55 24q27 0 45 -18t18 -45zM222 -12q-80 0 -134 49.5t-54 130.5q0 18 5 41l101 458h151l-104 -472
q-3 -18 -3 -25q0 -23 14 -36.5t36 -13.5q48 0 65 75l104 472h152l-103 -463q-24 -109 -85.5 -162.5t-144.5 -53.5z" />
    <glyph glyph-name="Yacute" unicode="&#xdd;" horiz-adv-x="460" 
d="M252 0h-152l60 273l-73 394h154l20 -251l132 251h165l-247 -394zM513 867l-141 -144h-86l112 144h115z" />
    <glyph glyph-name="Thorn" unicode="&#xde;" horiz-adv-x="469" 
d="M144 0h-151l147 667h151l-23 -106h35q75 0 124 -50t49 -128q0 -47 -15 -91t-45 -81.5t-80.5 -60t-114.5 -22.5h-49zM232 260q37 0 61.5 32t24.5 75q0 29 -14 45.5t-36 16.5h-29l-37 -169h30z" />
    <glyph glyph-name="germandbls" unicode="&#xdf;" horiz-adv-x="549" 
d="M518 163q0 -66 -49.5 -120.5t-128.5 -54.5q-112 0 -166 70l66 88q35 -50 83 -50q19 0 33.5 12.5t14.5 32.5q0 16 -19.5 33t-43.5 31t-43.5 42t-19.5 65q0 36 13.5 63t33 42.5t39 28.5t33 28.5t13.5 35.5q0 22 -17.5 35t-46.5 13q-64 0 -83 -83l-104 -475h-136l105 475
q19 90 78 146t151 56q80 0 137.5 -43t57.5 -108q0 -41 -21.5 -73.5t-46.5 -48t-46.5 -33.5t-21.5 -34t21 -32t46.5 -29t46.5 -42.5t21 -70.5z" />
    <glyph glyph-name="agrave" unicode="&#xe0;" horiz-adv-x="442" 
d="M208 495q78 0 99 -70l14 58h134l-107 -483h-135l12 55q-43 -67 -103 -67q-112 0 -112 159q0 51 12.5 109t36 112.5t62.5 90.5t87 36zM241 376q-22 0 -41 -24t-29.5 -58.5t-16 -68t-5.5 -58.5q0 -60 44 -60q31 0 54 45l39 178q-3 21 -15.5 33.5t-29.5 12.5zM334 556h-84
l-77 144h114z" />
    <glyph glyph-name="aacute" unicode="&#xe1;" horiz-adv-x="442" 
d="M208 495q78 0 99 -70l14 58h134l-107 -483h-135l12 55q-43 -67 -103 -67q-112 0 -112 159q0 51 12.5 109t36 112.5t62.5 90.5t87 36zM241 376q-22 0 -41 -24t-29.5 -58.5t-16 -68t-5.5 -58.5q0 -60 44 -60q31 0 54 45l39 178q-3 21 -15.5 33.5t-29.5 12.5zM464 700
l-141 -144h-86l112 144h115z" />
    <glyph glyph-name="acircumflex" unicode="&#xe2;" horiz-adv-x="442" 
d="M208 495q78 0 99 -70l14 58h134l-107 -483h-135l12 55q-43 -67 -103 -67q-112 0 -112 159q0 51 12.5 109t36 112.5t62.5 90.5t87 36zM241 376q-22 0 -41 -24t-29.5 -58.5t-16 -68t-5.5 -58.5q0 -60 44 -60q31 0 54 45l39 178q-3 21 -15.5 33.5t-29.5 12.5zM409 556h-71
l-32 86l-66 -86h-76l93 144h120z" />
    <glyph glyph-name="atilde" unicode="&#xe3;" horiz-adv-x="442" 
d="M208 495q78 0 99 -70l14 58h134l-107 -483h-135l12 55q-43 -67 -103 -67q-112 0 -112 159q0 51 12.5 109t36 112.5t62.5 90.5t87 36zM241 376q-22 0 -41 -24t-29.5 -58.5t-16 -68t-5.5 -58.5q0 -60 44 -60q31 0 54 45l39 178q-3 21 -15.5 33.5t-29.5 12.5zM340 554
q-21 0 -34 10t-18 22t-13 22t-19 10q-21 0 -34 -58h-70q31 134 110 134q20 0 33.5 -10t18.5 -22t13.5 -22t19.5 -10q21 0 34 58h70q-13 -62 -41.5 -98t-69.5 -36z" />
    <glyph glyph-name="adieresis" unicode="&#xe4;" horiz-adv-x="442" 
d="M208 495q78 0 99 -70l14 58h134l-107 -483h-135l12 55q-43 -67 -103 -67q-112 0 -112 159q0 51 12.5 109t36 112.5t62.5 90.5t87 36zM241 376q-22 0 -41 -24t-29.5 -58.5t-16 -68t-5.5 -58.5q0 -60 44 -60q31 0 54 45l39 178q-3 21 -15.5 33.5t-29.5 12.5zM458 620
q0 -31 -24.5 -55t-55.5 -24q-27 0 -45 18t-18 45q0 31 24 55t56 24q27 0 45 -18t18 -45zM284 620q0 -31 -24 -55t-56 -24q-27 0 -44.5 18t-17.5 45q0 31 24 55t55 24q27 0 45 -18t18 -45z" />
    <glyph glyph-name="aring" unicode="&#xe5;" horiz-adv-x="442" 
d="M208 495q78 0 99 -70l14 58h134l-107 -483h-135l12 55q-43 -67 -103 -67q-112 0 -112 159q0 51 12.5 109t36 112.5t62.5 90.5t87 36zM241 376q-22 0 -41 -24t-29.5 -58.5t-16 -68t-5.5 -58.5q0 -60 44 -60q31 0 54 45l39 178q-3 21 -15.5 33.5t-29.5 12.5zM290 525
q-36 0 -58.5 23t-22.5 59q0 41 30.5 72.5t71.5 31.5q36 0 59 -23.5t23 -59.5q0 -41 -31 -72t-72 -31zM298 582q15 0 27 12t12 28q0 14 -8.5 23t-22.5 9q-16 0 -28 -12t-12 -28q0 -14 9 -23t23 -9z" />
    <glyph glyph-name="ae" unicode="&#xe6;" horiz-adv-x="673" 
d="M241 376q-22 0 -41 -24t-29.5 -58.5t-16 -68t-5.5 -58.5q0 -60 44 -60q31 0 54 45l39 178q-3 21 -15.5 33.5t-29.5 12.5zM364 71l-16 -71h-135l12 55q-43 -67 -103 -67q-112 0 -112 159q0 51 12.5 109t36 112.5t62.5 90.5t87 36q78 0 99 -70l14 58h134l-10 -47
q45 60 103 59q58 -2 86 -41t28 -120q0 -68 -20 -137h-248q-3 -15 -3 -28q0 -26 20 -47.5t62 -21.5q40 0 81 37l43 -94q-52 -55 -122 -55q-91 0 -111 83zM413 290h123q5 23 5 38q0 26 -13.5 42t-35.5 16q-33 0 -52.5 -29.5t-26.5 -66.5z" />
    <glyph glyph-name="ccedilla" unicode="&#xe7;" horiz-adv-x="358" 
d="M137 -196q-60 0 -97 40l33 48q25 -32 63 -32q17 0 27.5 10t10.5 25q0 20 -19 20q-13 0 -23 -13l-42 27l39 67q-116 34 -116 180q0 77 28 149t84 121t127 49q87 0 134 -50l-62 -101q-19 32 -60 32q-47 0 -79.5 -59t-32.5 -125q0 -42 19 -63.5t52 -21.5q32 0 57 25l19 -107
q-45 -37 -109 -37h-1l-25 -39q11 10 23 10q24 0 39 -16.5t15 -44.5q0 -40 -30 -67t-74 -27z" />
    <glyph glyph-name="egrave" unicode="&#xe8;" horiz-adv-x="420" 
d="M191 -12q-84 0 -131 50t-47 140q0 69 25.5 139.5t81 124t128.5 53.5q81 0 120.5 -46t39.5 -126q0 -53 -19 -126h-250q-2 -10 -2 -29q0 -27 18.5 -49t62.5 -22q41 0 82 36l44 -84q-63 -61 -153 -61zM158 290h125q4 17 4 37q0 27 -14 43t-36 16q-33 0 -52.5 -29.5
t-26.5 -66.5zM337 556h-84l-77 144h114z" />
    <glyph glyph-name="eacute" unicode="&#xe9;" horiz-adv-x="420" 
d="M467 700l-141 -144h-86l112 144h115zM191 -12q-84 0 -131 50t-47 140q0 69 25.5 139.5t81 124t128.5 53.5q81 0 120.5 -46t39.5 -126q0 -53 -19 -126h-250q-2 -10 -2 -29q0 -27 18.5 -49t62.5 -22q41 0 82 36l44 -84q-63 -61 -153 -61zM158 290h125q4 17 4 37
q0 27 -14 43t-36 16q-33 0 -52.5 -29.5t-26.5 -66.5z" />
    <glyph glyph-name="ecircumflex" unicode="&#xea;" horiz-adv-x="420" 
d="M411 556h-71l-32 86l-66 -86h-76l93 144h120zM191 -12q-84 0 -131 50t-47 140q0 69 25.5 139.5t81 124t128.5 53.5q81 0 120.5 -46t39.5 -126q0 -53 -19 -126h-250q-2 -10 -2 -29q0 -27 18.5 -49t62.5 -22q41 0 82 36l44 -84q-63 -61 -153 -61zM158 290h125q4 17 4 37
q0 27 -14 43t-36 16q-33 0 -52.5 -29.5t-26.5 -66.5z" />
    <glyph glyph-name="edieresis" unicode="&#xeb;" horiz-adv-x="420" 
d="M460 620q0 -31 -24.5 -55t-55.5 -24q-27 0 -45 18t-18 45q0 31 24 55t56 24q27 0 45 -18t18 -45zM286 620q0 -31 -24 -55t-56 -24q-27 0 -44.5 18t-17.5 45q0 31 24 55t55 24q27 0 45 -18t18 -45zM191 -12q-84 0 -131 50t-47 140q0 69 25.5 139.5t81 124t128.5 53.5
q81 0 120.5 -46t39.5 -126q0 -53 -19 -126h-250q-2 -10 -2 -29q0 -27 18.5 -49t62.5 -22q41 0 82 36l44 -84q-63 -61 -153 -61zM158 290h125q4 17 4 37q0 27 -14 43t-36 16q-33 0 -52.5 -29.5t-26.5 -66.5z" />
    <glyph glyph-name="igrave" unicode="&#xec;" horiz-adv-x="216" 
d="M122 0h-136l107 483h136zM225 556h-84l-77 144h114z" />
    <glyph glyph-name="iacute" unicode="&#xed;" horiz-adv-x="216" 
d="M355 700l-141 -144h-86l112 144h115zM122 0h-136l107 483h136z" />
    <glyph glyph-name="icircumflex" unicode="&#xee;" horiz-adv-x="216" 
d="M300 556h-71l-32 86l-66 -86h-76l93 144h120zM122 0h-136l107 483h136z" />
    <glyph glyph-name="idieresis" unicode="&#xef;" horiz-adv-x="216" 
d="M348 620q0 -31 -24.5 -55t-55.5 -24q-27 0 -45 18t-18 45q0 31 24 55t56 24q27 0 45 -18t18 -45zM174 620q0 -31 -24 -55t-56 -24q-27 0 -44.5 18t-17.5 45q0 31 24 55t55 24q27 0 45 -18t18 -45zM122 0h-136l107 483h136z" />
    <glyph glyph-name="eth" unicode="&#xf0;" 
d="M200 492l-15 63l102 30q-10 53 -22 83l131 40q16 -48 24 -84l65 19l14 -61l-67 -20q7 -57 7 -126q0 -75 -13.5 -149.5t-41.5 -143.5t-79 -112t-117 -43q-88 0 -132.5 48.5t-44.5 130.5q0 64 22.5 129t70 113.5t106.5 48.5q41 0 65 -23t31 -60q-2 76 -10 146zM192 107
q37 0 60.5 57t23.5 112q0 62 -45 62q-37 0 -60 -58.5t-23 -109.5q0 -63 44 -63z" />
    <glyph glyph-name="ntilde" unicode="&#xf1;" horiz-adv-x="441" 
d="M347 0h-136l73 330q3 9 3 17q0 29 -27 29q-34 0 -68 -56l-70 -320h-136l107 483h136l-14 -59q22 30 55 50.5t69 20.5q44 0 69.5 -23.5t25.5 -61.5q0 -16 -4 -28zM344 554q-21 0 -34 10t-18 22t-13 22t-19 10q-21 0 -34 -58h-70q31 134 110 134q20 0 33.5 -10t18.5 -22
t13.5 -22t19.5 -10q21 0 34 58h70q-13 -62 -41.5 -98t-69.5 -36z" />
    <glyph glyph-name="ograve" unicode="&#xf2;" 
d="M184 -12q-83 0 -127 50t-44 137q0 73 26 145t81.5 123.5t126.5 51.5q85 0 129 -50t44 -137q0 -73 -26.5 -144.5t-82 -123.5t-127.5 -52zM192 107q40 0 65.5 73.5t25.5 130.5q0 65 -43 65q-40 0 -65.5 -74t-25.5 -130q0 -65 43 -65zM334 556h-84l-77 144h114z" />
    <glyph glyph-name="oacute" unicode="&#xf3;" 
d="M463 700l-141 -144h-86l112 144h115zM184 -12q-83 0 -127 50t-44 137q0 73 26 145t81.5 123.5t126.5 51.5q85 0 129 -50t44 -137q0 -73 -26.5 -144.5t-82 -123.5t-127.5 -52zM192 107q40 0 65.5 73.5t25.5 130.5q0 65 -43 65q-40 0 -65.5 -74t-25.5 -130q0 -65 43 -65z
" />
    <glyph glyph-name="ocircumflex" unicode="&#xf4;" 
d="M409 556h-71l-32 86l-66 -86h-76l93 144h120zM184 -12q-83 0 -127 50t-44 137q0 73 26 145t81.5 123.5t126.5 51.5q85 0 129 -50t44 -137q0 -73 -26.5 -144.5t-82 -123.5t-127.5 -52zM192 107q40 0 65.5 73.5t25.5 130.5q0 65 -43 65q-40 0 -65.5 -74t-25.5 -130
q0 -65 43 -65z" />
    <glyph glyph-name="otilde" unicode="&#xf5;" 
d="M184 -12q-83 0 -127 50t-44 137q0 73 26 145t81.5 123.5t126.5 51.5q85 0 129 -50t44 -137q0 -73 -26.5 -144.5t-82 -123.5t-127.5 -52zM192 107q40 0 65.5 73.5t25.5 130.5q0 65 -43 65q-40 0 -65.5 -74t-25.5 -130q0 -65 43 -65zM340 554q-21 0 -34 10t-18 22t-13 22
t-19 10q-21 0 -34 -58h-70q31 134 110 134q20 0 33.5 -10t18.5 -22t13.5 -22t19.5 -10q21 0 34 58h70q-13 -62 -41.5 -98t-69.5 -36z" />
    <glyph glyph-name="odieresis" unicode="&#xf6;" 
d="M457 620q0 -31 -24.5 -55t-55.5 -24q-27 0 -45 18t-18 45q0 31 24 55t56 24q27 0 45 -18t18 -45zM283 620q0 -31 -24 -55t-56 -24q-27 0 -44.5 18t-17.5 45q0 31 24 55t55 24q27 0 45 -18t18 -45zM184 -12q-83 0 -127 50t-44 137q0 73 26 145t81.5 123.5t126.5 51.5
q85 0 129 -50t44 -137q0 -73 -26.5 -144.5t-82 -123.5t-127.5 -52zM192 107q40 0 65.5 73.5t25.5 130.5q0 65 -43 65q-40 0 -65.5 -74t-25.5 -130q0 -65 43 -65z" />
    <glyph glyph-name="divide" unicode="&#xf7;" horiz-adv-x="374" 
d="M356 296h-316l19 82h316zM169 127q-24 0 -40.5 17t-16.5 40q0 29 20.5 49t48.5 20q24 0 40.5 -17t16.5 -41q0 -28 -20.5 -48t-48.5 -20zM234 420q-23 0 -40 16.5t-17 40.5q0 28 20.5 48.5t48.5 20.5q24 0 40.5 -17t16.5 -41q0 -28 -20.5 -48t-48.5 -20z" />
    <glyph glyph-name="oslash" unicode="&#xf8;" 
d="M48 0h-76l62 72q-21 42 -21 103q0 73 26 145t81.5 123.5t126.5 51.5q72 0 116 -38l23 26h75l-62 -73q21 -42 21 -102q0 -73 -26.5 -144.5t-82 -123.5t-127.5 -52t-115 37zM240 376q-23 0 -42.5 -29t-30 -64.5t-15.5 -73.5l123 145q-10 22 -35 22zM192 107q33 0 56.5 51.5
t31.5 112.5l-123 -144q10 -20 35 -20z" />
    <glyph glyph-name="ugrave" unicode="&#xf9;" horiz-adv-x="441" 
d="M93 483h136l-73 -327q-3 -14 -3 -22q0 -27 27 -27q36 0 67 54l71 322h136l-107 -483h-136l14 59q-55 -71 -124 -71q-44 0 -69.5 23.5t-25.5 61.5q0 16 4 28zM338 556h-84l-77 144h114z" />
    <glyph glyph-name="uacute" unicode="&#xfa;" horiz-adv-x="441" 
d="M467 700l-141 -144h-86l112 144h115zM93 483h136l-73 -327q-3 -14 -3 -22q0 -27 27 -27q36 0 67 54l71 322h136l-107 -483h-136l14 59q-55 -71 -124 -71q-44 0 -69.5 23.5t-25.5 61.5q0 16 4 28z" />
    <glyph glyph-name="ucircumflex" unicode="&#xfb;" horiz-adv-x="441" 
d="M412 556h-71l-32 86l-66 -86h-76l93 144h120zM93 483h136l-73 -327q-3 -14 -3 -22q0 -27 27 -27q36 0 67 54l71 322h136l-107 -483h-136l14 59q-55 -71 -124 -71q-44 0 -69.5 23.5t-25.5 61.5q0 16 4 28z" />
    <glyph glyph-name="udieresis" unicode="&#xfc;" horiz-adv-x="441" 
d="M460 620q0 -31 -24.5 -55t-55.5 -24q-27 0 -45 18t-18 45q0 31 24 55t56 24q27 0 45 -18t18 -45zM286 620q0 -31 -24 -55t-56 -24q-27 0 -44.5 18t-17.5 45q0 31 24 55t55 24q27 0 45 -18t18 -45zM93 483h136l-73 -327q-3 -14 -3 -22q0 -27 27 -27q36 0 67 54l71 322h136
l-107 -483h-136l14 59q-55 -71 -124 -71q-44 0 -69.5 23.5t-25.5 61.5q0 16 4 28z" />
    <glyph glyph-name="yacute" unicode="&#xfd;" horiz-adv-x="408" 
d="M-51 -182l44 111q6 -6 23 -6q22 0 39 30l22 42l-26 488h139l-7 -312l134 312h146l-279 -558q-36 -70 -70.5 -95.5t-84.5 -25.5q-48 0 -80 14zM446 700l-141 -144h-86l112 144h115z" />
    <glyph glyph-name="thorn" unicode="&#xfe;" horiz-adv-x="442" 
d="M234 -12q-78 0 -100 71l-53 -243h-135l187 851h136l-53 -239q45 67 103 67q112 0 112 -159q0 -51 -12.5 -109t-35.5 -112.5t-62 -90.5t-87 -36zM200 107q42 0 66.5 73.5t24.5 135.5q0 60 -44 60q-29 0 -52 -45l-40 -178q4 -21 16 -33.5t29 -12.5z" />
    <glyph glyph-name="ydieresis" unicode="&#xff;" horiz-adv-x="408" 
d="M-51 -182l44 111q6 -6 23 -6q22 0 39 30l22 42l-26 488h139l-7 -312l134 312h146l-279 -558q-36 -70 -70.5 -95.5t-84.5 -25.5q-48 0 -80 14zM440 620q0 -31 -24.5 -55t-55.5 -24q-27 0 -45 18t-18 45q0 31 24 55t56 24q27 0 45 -18t18 -45zM266 620q0 -31 -24 -55
t-56 -24q-27 0 -44.5 18t-17.5 45q0 31 24 55t55 24q27 0 45 -18t18 -45z" />
    <glyph glyph-name="Amacron" unicode="&#x100;" horiz-adv-x="454" 
d="M403 0h-152l7 108h-116l-40 -108h-159l290 667h174zM270 240l17 261l-97 -261h80zM465 727h-262l16 76h262z" />
    <glyph glyph-name="amacron" unicode="&#x101;" horiz-adv-x="442" 
d="M208 495q78 0 99 -70l14 58h134l-107 -483h-135l12 55q-43 -67 -103 -67q-112 0 -112 159q0 51 12.5 109t36 112.5t62.5 90.5t87 36zM241 376q-22 0 -41 -24t-29.5 -58.5t-16 -68t-5.5 -58.5q0 -60 44 -60q31 0 54 45l39 178q-3 21 -15.5 33.5t-29.5 12.5zM419 560h-262
l16 76h262z" />
    <glyph glyph-name="Abreve" unicode="&#x102;" horiz-adv-x="454" 
d="M403 0h-152l7 108h-116l-40 -108h-159l290 667h174zM270 240l17 261l-97 -261h80zM468 772q-60 -63 -140 -63q-81 0 -113 63l68 47q16 -35 58 -35t72 35z" />
    <glyph glyph-name="abreve" unicode="&#x103;" horiz-adv-x="442" 
d="M208 495q78 0 99 -70l14 58h134l-107 -483h-135l12 55q-43 -67 -103 -67q-112 0 -112 159q0 51 12.5 109t36 112.5t62.5 90.5t87 36zM241 376q-22 0 -41 -24t-29.5 -58.5t-16 -68t-5.5 -58.5q0 -60 44 -60q31 0 54 45l39 178q-3 21 -15.5 33.5t-29.5 12.5zM423 605
q-60 -63 -140 -63q-81 0 -113 63l68 47q16 -35 58 -35t72 35z" />
    <glyph glyph-name="Aogonek" unicode="&#x104;" horiz-adv-x="454" 
d="M372 -106l46 -33q-31 -47 -79 -47q-36 0 -57.5 17t-21.5 51q0 62 61 118h-70l7 108h-116l-40 -108h-159l290 667h174l-4 -667q-78 -50 -78 -111q0 -19 19 -19q18 0 28 24zM270 240l17 261l-97 -261h80z" />
    <glyph glyph-name="aogonek" unicode="&#x105;" horiz-adv-x="442" 
d="M317 -106l46 -33q-31 -47 -79 -47q-36 0 -57.5 17t-21.5 51q0 62 61 118h-53l12 55q-43 -67 -103 -67q-112 0 -112 159q0 51 12.5 109t36 112.5t62.5 90.5t87 36q78 0 99 -70l14 58h134l-107 -483q-78 -50 -78 -111q0 -19 19 -19q18 0 28 24zM241 376q-22 0 -41 -24
t-29.5 -58.5t-16 -68t-5.5 -58.5q0 -60 44 -60q31 0 54 45l39 178q-3 21 -15.5 33.5t-29.5 12.5z" />
    <glyph glyph-name="Cacute" unicode="&#x106;" horiz-adv-x="448" 
d="M535 872l-141 -144h-86l112 144h115zM217 -12q-92 0 -141.5 59.5t-49.5 163.5q0 51 9.5 109.5t32.5 123t56 116t84.5 85t113.5 33.5q91 0 133 -61t45 -148l-140 -27q-4 102 -47 102q-39 0 -71.5 -66.5t-47.5 -142t-15 -127.5q0 -86 45 -86q41 0 79 80l121 -49
q-74 -165 -207 -165z" />
    <glyph glyph-name="cacute" unicode="&#x107;" horiz-adv-x="358" 
d="M472 700l-141 -144h-86l112 144h115zM190 -12q-82 0 -129.5 49t-47.5 139q0 77 28 149t84 121t127 49q87 0 134 -50l-62 -101q-19 32 -60 32q-47 0 -79.5 -59t-32.5 -125q0 -42 19 -63.5t52 -21.5q32 0 57 25l19 -107q-45 -37 -109 -37z" />
    <glyph glyph-name="Ccircumflex" unicode="&#x108;" horiz-adv-x="448" 
d="M479 723h-71l-32 86l-66 -86h-76l93 144h120zM217 -12q-92 0 -141.5 59.5t-49.5 163.5q0 51 9.5 109.5t32.5 123t56 116t84.5 85t113.5 33.5q91 0 133 -61t45 -148l-140 -27q-4 102 -47 102q-39 0 -71.5 -66.5t-47.5 -142t-15 -127.5q0 -86 45 -86q41 0 79 80l121 -49
q-74 -165 -207 -165z" />
    <glyph glyph-name="ccircumflex" unicode="&#x109;" horiz-adv-x="358" 
d="M417 556h-71l-32 86l-66 -86h-76l93 144h120zM190 -12q-82 0 -129.5 49t-47.5 139q0 77 28 149t84 121t127 49q87 0 134 -50l-62 -101q-19 32 -60 32q-47 0 -79.5 -59t-32.5 -125q0 -42 19 -63.5t52 -21.5q32 0 57 25l19 -107q-45 -37 -109 -37z" />
    <glyph glyph-name="Cdotaccent" unicode="&#x10a;" horiz-adv-x="448" 
d="M217 -12q-92 0 -141.5 59.5t-49.5 163.5q0 51 9.5 109.5t32.5 123t56 116t84.5 85t113.5 33.5q91 0 133 -61t45 -148l-140 -27q-4 102 -47 102q-39 0 -71.5 -66.5t-47.5 -142t-15 -127.5q0 -86 45 -86q41 0 79 80l121 -49q-74 -165 -207 -165zM442 787q0 -31 -24.5 -55
t-56.5 -24q-27 0 -45 18.5t-18 45.5q0 31 24.5 54.5t56.5 23.5q27 0 45 -18t18 -45z" />
    <glyph glyph-name="cdotaccent" unicode="&#x10b;" horiz-adv-x="358" 
d="M190 -12q-82 0 -129.5 49t-47.5 139q0 77 28 149t84 121t127 49q87 0 134 -50l-62 -101q-19 32 -60 32q-47 0 -79.5 -59t-32.5 -125q0 -42 19 -63.5t52 -21.5q32 0 57 25l19 -107q-45 -37 -109 -37zM380 620q0 -31 -24.5 -55t-56.5 -24q-27 0 -45 18.5t-18 45.5
q0 31 24.5 54.5t56.5 23.5q27 0 45 -18t18 -45z" />
    <glyph glyph-name="Ccaron" unicode="&#x10c;" horiz-adv-x="448" 
d="M419 723h-120l-32 144h72l31 -86l67 86h75zM217 -12q-92 0 -141.5 59.5t-49.5 163.5q0 51 9.5 109.5t32.5 123t56 116t84.5 85t113.5 33.5q91 0 133 -61t45 -148l-140 -27q-4 102 -47 102q-39 0 -71.5 -66.5t-47.5 -142t-15 -127.5q0 -86 45 -86q41 0 79 80l121 -49
q-74 -165 -207 -165z" />
    <glyph glyph-name="ccaron" unicode="&#x10d;" horiz-adv-x="358" 
d="M355 556h-120l-32 144h72l31 -86l67 86h75zM190 -12q-82 0 -129.5 49t-47.5 139q0 77 28 149t84 121t127 49q87 0 134 -50l-62 -101q-19 32 -60 32q-47 0 -79.5 -59t-32.5 -125q0 -42 19 -63.5t52 -21.5q32 0 57 25l19 -107q-45 -37 -109 -37z" />
    <glyph glyph-name="Dcaron" unicode="&#x10e;" horiz-adv-x="500" 
d="M425 723h-120l-32 144h72l31 -86l67 86h75zM180 0h-187l147 667h181q76 0 130.5 -60t54.5 -166q0 -48 -9 -102t-33 -115.5t-59 -110t-94 -81t-131 -32.5zM201 132h5q37 0 67 36t46 88t24.5 100.5t8.5 82.5q0 48 -16.5 72t-41.5 24h-32l-89 -403h28z" />
    <glyph glyph-name="dcaron" unicode="&#x10f;" horiz-adv-x="570" 
d="M655 613q0 -47 -34 -93t-86 -71l-36 38q61 30 80 69q-2 -1 -9 -1q-21 0 -35.5 14.5t-14.5 39.5q0 28 22 49t50 21q27 0 45 -17.5t18 -48.5zM208 495q78 0 99 -70l54 242h134l-147 -667h-135l12 55q-43 -67 -103 -67q-112 0 -112 159q0 51 12.5 109t36 112.5t62.5 90.5
t87 36zM241 376q-22 0 -41 -24t-29.5 -58.5t-16 -68t-5.5 -58.5q0 -60 44 -60q31 0 54 45l39 178q-3 21 -15.5 33.5t-29.5 12.5z" />
    <glyph glyph-name="Dcroat" unicode="&#x110;" horiz-adv-x="524" 
d="M204 0h-187l60 273h-57l26 121h57l61 273h181q76 0 130.5 -60t54.5 -166q0 -48 -9 -102t-33 -115.5t-59 -110t-94 -81t-131 -32.5zM291 273h-63l-31 -141h33q37 0 67 36t46 88t24.5 100.5t8.5 82.5q0 48 -16.5 72t-41.5 24h-32l-31 -141h63z" />
    <glyph glyph-name="dcroat" unicode="&#x111;" horiz-adv-x="448" 
d="M208 495q78 0 99 -70l23 104h-112l17 76h112l14 62h134l-14 -62h42l-18 -76h-41l-116 -529h-135l12 55q-43 -67 -103 -67q-112 0 -112 159q0 51 12.5 109t36 112.5t62.5 90.5t87 36zM241 376q-22 0 -41 -24t-29.5 -58.5t-16 -68t-5.5 -58.5q0 -60 44 -60q31 0 54 45
l39 178q-3 21 -15.5 33.5t-29.5 12.5z" />
    <glyph glyph-name="Emacron" unicode="&#x112;" horiz-adv-x="392" 
d="M307 0h-314l147 667h314l-30 -132h-162l-28 -130h155l-29 -132h-156l-31 -141h163zM441 727h-262l16 76h262z" />
    <glyph glyph-name="emacron" unicode="&#x113;" horiz-adv-x="420" 
d="M191 -12q-84 0 -131 50t-47 140q0 69 25.5 139.5t81 124t128.5 53.5q81 0 120.5 -46t39.5 -126q0 -53 -19 -126h-250q-2 -10 -2 -29q0 -27 18.5 -49t62.5 -22q41 0 82 36l44 -84q-63 -61 -153 -61zM158 290h125q4 17 4 37q0 27 -14 43t-36 16q-33 0 -52.5 -29.5
t-26.5 -66.5zM422 560h-262l16 76h262z" />
    <glyph glyph-name="Ebreve" unicode="&#x114;" horiz-adv-x="392" 
d="M307 0h-314l147 667h314l-30 -132h-162l-28 -130h155l-29 -132h-156l-31 -141h163zM445 772q-60 -63 -140 -63q-81 0 -113 63l68 47q16 -35 58 -35t72 35z" />
    <glyph glyph-name="ebreve" unicode="&#x115;" horiz-adv-x="420" 
d="M191 -12q-84 0 -131 50t-47 140q0 69 25.5 139.5t81 124t128.5 53.5q81 0 120.5 -46t39.5 -126q0 -53 -19 -126h-250q-2 -10 -2 -29q0 -27 18.5 -49t62.5 -22q41 0 82 36l44 -84q-63 -61 -153 -61zM158 290h125q4 17 4 37q0 27 -14 43t-36 16q-33 0 -52.5 -29.5
t-26.5 -66.5zM426 605q-60 -63 -140 -63q-81 0 -113 63l68 47q16 -35 58 -35t72 35z" />
    <glyph glyph-name="Edotaccent" unicode="&#x116;" horiz-adv-x="392" 
d="M307 0h-314l147 667h314l-30 -132h-162l-28 -130h155l-29 -132h-156l-31 -141h163zM395 793q0 -31 -24.5 -55t-56.5 -24q-27 0 -45 18.5t-18 45.5q0 31 24.5 54.5t56.5 23.5q27 0 45 -18t18 -45z" />
    <glyph glyph-name="edotaccent" unicode="&#x117;" horiz-adv-x="420" 
d="M191 -12q-84 0 -131 50t-47 140q0 69 25.5 139.5t81 124t128.5 53.5q81 0 120.5 -46t39.5 -126q0 -53 -19 -126h-250q-2 -10 -2 -29q0 -27 18.5 -49t62.5 -22q41 0 82 36l44 -84q-63 -61 -153 -61zM158 290h125q4 17 4 37q0 27 -14 43t-36 16q-33 0 -52.5 -29.5
t-26.5 -66.5zM374 620q0 -31 -24.5 -55t-56.5 -24q-27 0 -45 18.5t-18 45.5q0 31 24.5 54.5t56.5 23.5q27 0 45 -18t18 -45z" />
    <glyph glyph-name="Eogonek" unicode="&#x118;" horiz-adv-x="392" 
d="M307 0q-78 -50 -78 -111q0 -19 19 -19q18 0 28 24l46 -33q-31 -47 -79 -47q-36 0 -57.5 17t-21.5 51q0 62 61 118h-232l147 667h314l-30 -132h-162l-28 -130h155l-29 -132h-156l-31 -141h163z" />
    <glyph glyph-name="eogonek" unicode="&#x119;" horiz-adv-x="420" 
d="M231 -106l46 -33q-31 -47 -79 -47q-36 0 -57.5 17t-21.5 51q0 57 49 107q-74 7 -114.5 56t-40.5 133q0 69 25.5 139.5t81 124t128.5 53.5q81 0 120.5 -46t39.5 -126q0 -53 -19 -126h-250q-2 -10 -2 -29q0 -27 18.5 -49t62.5 -22q41 0 82 36l44 -84q-35 -33 -82 -49
q-78 -50 -78 -111q0 -19 19 -19q18 0 28 24zM158 290h125q4 17 4 37q0 27 -14 43t-36 16q-33 0 -52.5 -29.5t-26.5 -66.5z" />
    <glyph glyph-name="Ecaron" unicode="&#x11a;" horiz-adv-x="392" 
d="M371 723h-120l-32 144h72l31 -86l67 86h75zM307 0h-314l147 667h314l-30 -132h-162l-28 -130h155l-29 -132h-156l-31 -141h163z" />
    <glyph glyph-name="ecaron" unicode="&#x11b;" horiz-adv-x="420" 
d="M351 556h-120l-32 144h72l31 -86l67 86h75zM191 -12q-84 0 -131 50t-47 140q0 69 25.5 139.5t81 124t128.5 53.5q81 0 120.5 -46t39.5 -126q0 -53 -19 -126h-250q-2 -10 -2 -29q0 -27 18.5 -49t62.5 -22q41 0 82 36l44 -84q-63 -61 -153 -61zM158 290h125q4 17 4 37
q0 27 -14 43t-36 16q-33 0 -52.5 -29.5t-26.5 -66.5z" />
    <glyph glyph-name="Gcircumflex" unicode="&#x11c;" horiz-adv-x="474" 
d="M480 723h-71l-32 86l-66 -86h-76l93 144h120zM217 -12q-93 0 -142 60t-49 163q0 55 10.5 116t34.5 124t57.5 113t84 82t109.5 32q86 0 127 -53t43 -136l-127 -31q-2 86 -52 86q-38 0 -70 -63.5t-48 -139.5t-16 -133q0 -47 11 -66.5t35 -19.5q31 0 62 38l18 82h-68l30 132
h200l-60 -269q-77 -117 -190 -117z" />
    <glyph glyph-name="gcircumflex" unicode="&#x11d;" horiz-adv-x="442" 
d="M405 548h-71l-32 86l-66 -86h-76l93 144h120zM130 -196q-113 0 -168 64l67 100q36 -49 97 -49q67 0 91 101l14 58q-43 -69 -104 -69q-55 0 -84.5 38.5t-29.5 112.5q0 49 11 104t32.5 108.5t61 88t89.5 34.5q32 0 62.5 -18t37.5 -52l13 58h135l-103 -459
q-27 -122 -83 -171t-139 -49zM197 130q30 0 54 44l35 156q-5 20 -18.5 33t-28.5 13q-29 0 -50 -36t-29 -76.5t-8 -74.5q0 -59 45 -59z" />
    <glyph glyph-name="Gbreve" unicode="&#x11e;" horiz-adv-x="474" 
d="M217 -12q-93 0 -142 60t-49 163q0 55 10.5 116t34.5 124t57.5 113t84 82t109.5 32q86 0 127 -53t43 -136l-127 -31q-2 86 -52 86q-38 0 -70 -63.5t-48 -139.5t-16 -133q0 -47 11 -66.5t35 -19.5q31 0 62 38l18 82h-68l30 132h200l-60 -269q-77 -117 -190 -117zM492 772
q-60 -63 -140 -63q-81 0 -113 63l68 47q16 -35 58 -35t72 35z" />
    <glyph glyph-name="gbreve" unicode="&#x11f;" horiz-adv-x="442" 
d="M130 -196q-113 0 -168 64l67 100q36 -49 97 -49q67 0 91 101l14 58q-43 -69 -104 -69q-55 0 -84.5 38.5t-29.5 112.5q0 49 11 104t32.5 108.5t61 88t89.5 34.5q32 0 62.5 -18t37.5 -52l13 58h135l-103 -459q-27 -122 -83 -171t-139 -49zM197 130q30 0 54 44l35 156
q-5 20 -18.5 33t-28.5 13q-29 0 -50 -36t-29 -76.5t-8 -74.5q0 -59 45 -59zM422 605q-60 -63 -140 -63q-81 0 -113 63l68 47q16 -35 58 -35t72 35z" />
    <glyph glyph-name="Gdotaccent" unicode="&#x120;" horiz-adv-x="474" 
d="M217 -12q-93 0 -142 60t-49 163q0 55 10.5 116t34.5 124t57.5 113t84 82t109.5 32q86 0 127 -53t43 -136l-127 -31q-2 86 -52 86q-38 0 -70 -63.5t-48 -139.5t-16 -133q0 -47 11 -66.5t35 -19.5q31 0 62 38l18 82h-68l30 132h200l-60 -269q-77 -117 -190 -117zM442 788
q0 -31 -24.5 -55t-56.5 -24q-27 0 -45 18.5t-18 45.5q0 31 24.5 54.5t56.5 23.5q27 0 45 -18t18 -45z" />
    <glyph glyph-name="gdotaccent" unicode="&#x121;" horiz-adv-x="442" 
d="M130 -196q-113 0 -168 64l67 100q36 -49 97 -49q67 0 91 101l14 58q-43 -69 -104 -69q-55 0 -84.5 38.5t-29.5 112.5q0 49 11 104t32.5 108.5t61 88t89.5 34.5q32 0 62.5 -18t37.5 -52l13 58h135l-103 -459q-27 -122 -83 -171t-139 -49zM197 130q30 0 54 44l35 156
q-5 20 -18.5 33t-28.5 13q-29 0 -50 -36t-29 -76.5t-8 -74.5q0 -59 45 -59zM371 620q0 -31 -24.5 -55t-56.5 -24q-27 0 -45 18.5t-18 45.5q0 31 24.5 54.5t56.5 23.5q27 0 45 -18t18 -45z" />
    <glyph glyph-name="Gcommaaccent" unicode="&#x122;" horiz-adv-x="474" 
d="M236 -120q0 -47 -34 -93t-86 -71l-36 38q61 30 80 69q-2 -1 -9 -1q-21 0 -35.5 14.5t-14.5 39.5q0 28 22 49t50 21q27 0 45 -17.5t18 -48.5zM217 -12q-93 0 -142 60t-49 163q0 55 10.5 116t34.5 124t57.5 113t84 82t109.5 32q86 0 127 -53t43 -136l-127 -31q-2 86 -52 86
q-38 0 -70 -63.5t-48 -139.5t-16 -133q0 -47 11 -66.5t35 -19.5q31 0 62 38l18 82h-68l30 132h200l-60 -269q-77 -117 -190 -117z" />
    <glyph glyph-name="gcommaaccent" unicode="&#x123;" horiz-adv-x="442" 
d="M228 610q0 46 35 92.5t87 72.5l37 -39q-25 -11 -48.5 -30.5t-32.5 -39.5h8q22 0 37 -14t15 -39q0 -29 -23 -50t-51 -21q-27 0 -45.5 18t-18.5 50zM130 -196q-113 0 -168 64l67 100q36 -49 97 -49q67 0 91 101l14 58q-43 -69 -104 -69q-55 0 -84.5 38.5t-29.5 112.5
q0 49 11 104t32.5 108.5t61 88t89.5 34.5q32 0 62.5 -18t37.5 -52l13 58h135l-103 -459q-27 -122 -83 -171t-139 -49zM197 130q30 0 54 44l35 156q-5 20 -18.5 33t-28.5 13q-29 0 -50 -36t-29 -76.5t-8 -74.5q0 -59 45 -59z" />
    <glyph glyph-name="Hcircumflex" unicode="&#x124;" horiz-adv-x="508" 
d="M482 723h-71l-32 86l-66 -86h-76l93 144h120zM407 0h-151l61 277h-112l-61 -277h-151l147 667h151l-57 -258h112l57 258h151z" />
    <glyph glyph-name="hcircumflex" unicode="&#x125;" horiz-adv-x="441" 
d="M451 723h-71l-32 86l-66 -86h-76l93 144h120zM347 0h-136l73 330q3 6 3 17q0 29 -27 29q-34 0 -68 -56l-70 -320h-136l147 667h136l-54 -243q22 30 55 50.5t69 20.5q45 0 70 -23.5t25 -61.5q0 -8 -4 -28z" />
    <glyph glyph-name="Hbar" unicode="&#x126;" horiz-adv-x="520" 
d="M413 0h-151l61 277h-112l-61 -277h-151l110 501h-46l17 76h46l20 90h151l-20 -90h112l20 90h151l-20 -90h44l-16 -76h-45zM240 409h112l20 92h-112z" />
    <glyph glyph-name="hbar" unicode="&#x127;" horiz-adv-x="447" 
d="M353 0h-136l73 330q3 6 3 17q0 29 -27 29q-34 0 -68 -56l-70 -320h-136l116 528h-36l17 77h36l14 62h136l-14 -62h117l-17 -77h-117l-23 -104q22 30 55 50.5t69 20.5q45 0 70 -23.5t25 -61.5q0 -8 -4 -28z" />
    <glyph glyph-name="Itilde" unicode="&#x128;" horiz-adv-x="245" 
d="M144 0h-151l147 667h151zM282 721q-21 0 -34 10t-18 22t-13 22t-19 10q-21 0 -34 -58h-70q31 134 110 134q20 0 33.5 -10t18.5 -22t13.5 -22t19.5 -10q21 0 34 58h70q-13 -62 -41.5 -98t-69.5 -36z" />
    <glyph glyph-name="itilde" unicode="&#x129;" horiz-adv-x="216" 
d="M122 0h-136l107 483h136zM232 554q-21 0 -34 10t-18 22t-13 22t-19 10q-21 0 -34 -58h-70q31 134 110 134q20 0 33.5 -10t18.5 -22t13.5 -22t19.5 -10q21 0 34 58h70q-13 -62 -41.5 -98t-69.5 -36z" />
    <glyph glyph-name="Imacron" unicode="&#x12a;" horiz-adv-x="245" 
d="M144 0h-151l147 667h151zM361 727h-262l16 76h262z" />
    <glyph glyph-name="imacron" unicode="&#x12b;" horiz-adv-x="216" 
d="M122 0h-136l107 483h136zM310 560h-262l16 76h262z" />
    <glyph glyph-name="Ibreve" unicode="&#x12c;" horiz-adv-x="245" 
d="M144 0h-151l147 667h151zM363 772q-60 -63 -140 -63q-81 0 -113 63l68 47q16 -35 58 -35t72 35z" />
    <glyph glyph-name="ibreve" unicode="&#x12d;" horiz-adv-x="216" 
d="M122 0h-136l107 483h136zM314 605q-60 -63 -140 -63q-81 0 -113 63l68 47q16 -35 58 -35t72 35z" />
    <glyph glyph-name="Iogonek" unicode="&#x12e;" horiz-adv-x="245" 
d="M114 -106l46 -33q-31 -47 -79 -47q-36 0 -57.5 17t-21.5 51q0 62 61 118h-70l147 667h151l-147 -667h1q-78 -50 -78 -111q0 -19 19 -19q18 0 28 24z" />
    <glyph glyph-name="iogonek" unicode="&#x12f;" horiz-adv-x="216" 
d="M91 -106l46 -33q-31 -47 -79 -47q-36 0 -57.5 17t-21.5 51q0 62 61 118h-54l107 483h136l-107 -483q-78 -50 -78 -111q0 -19 19 -19q18 0 28 24zM179 532q-31 0 -51.5 20t-20.5 48q0 41 29 66.5t62 25.5q31 0 51.5 -20t20.5 -49q0 -41 -28.5 -66t-62.5 -25z" />
    <glyph glyph-name="Idotaccent" unicode="&#x130;" horiz-adv-x="245" 
d="M144 0h-151l147 667h151zM314 787q0 -31 -24.5 -55t-56.5 -24q-27 0 -45 18.5t-18 45.5q0 31 24.5 54.5t56.5 23.5q27 0 45 -18t18 -45z" />
    <glyph glyph-name="dotlessi" unicode="&#x131;" horiz-adv-x="216" 
d="M122 0h-136l107 483h136z" />
    <glyph glyph-name="IJ" unicode="&#x132;" horiz-adv-x="607" 
d="M144 0h-151l147 667h151zM337 -12q-84 0 -130 40l58 121q21 -27 59 -27q58 0 73 65l106 480h152l-108 -488q-23 -100 -72.5 -145.5t-137.5 -45.5z" />
    <glyph glyph-name="ij" unicode="&#x133;" horiz-adv-x="432" 
d="M179 532q-31 0 -51.5 20t-20.5 48q0 41 29 66.5t62 25.5q31 0 51.5 -20t20.5 -49q0 -41 -28.5 -66t-62.5 -25zM122 0h-136l107 483h136zM162 -196q-55 0 -79 25l48 101q6 -11 23 -11q30 0 42 54l113 510h136l-114 -510q-19 -87 -56.5 -128t-112.5 -41zM395 532
q-31 0 -51.5 20t-20.5 48q0 41 29 66.5t62 25.5q31 0 51.5 -20t20.5 -49q0 -41 -28.5 -66t-62.5 -25z" />
    <glyph glyph-name="Jcircumflex" unicode="&#x134;" horiz-adv-x="362" 
d="M469 723h-71l-32 86l-66 -86h-76l93 144h120zM92 -12q-84 0 -130 40l58 121q21 -27 59 -27q58 0 73 65l106 480h152l-108 -488q-23 -100 -72.5 -145.5t-137.5 -45.5z" />
    <glyph glyph-name="jcircumflex" unicode="&#x135;" horiz-adv-x="216" 
d="M300 556h-71l-32 86l-66 -86h-76l93 144h120zM-54 -196q-55 0 -79 25l48 101q6 -11 23 -11q30 0 42 54l113 510h136l-114 -510q-19 -87 -56.5 -128t-112.5 -41z" />
    <glyph glyph-name="Kcommaaccent" unicode="&#x136;" horiz-adv-x="497" 
d="M253 -120q0 -47 -34 -93t-86 -71l-36 38q61 30 80 69q-2 -1 -9 -1q-21 0 -35.5 14.5t-14.5 39.5q0 28 22 49t50 21q27 0 45 -17.5t18 -48.5zM445 0h-160l-47 240l-60 -87l-34 -153h-151l147 667h151l-59 -270l175 270h173l-228 -312z" />
    <glyph glyph-name="kcommaaccent" unicode="&#x137;" horiz-adv-x="424" 
d="M209 -120q0 -47 -34 -93t-86 -71l-36 38q61 30 80 69q-2 -1 -9 -1q-21 0 -35.5 14.5t-14.5 39.5q0 28 22 49t50 21q27 0 45 -17.5t18 -48.5zM370 0h-146l-23 182l-56 -75l-23 -107h-136l147 667h136l-83 -378l132 194h152l-159 -214z" />
    <glyph glyph-name="kgreenlandic" unicode="&#x138;" horiz-adv-x="424" 
d="M370 0h-146l-23 182l-56 -75l-23 -107h-136l107 483h136l-43 -194l132 194h152l-159 -214z" />
    <glyph glyph-name="Lacute" unicode="&#x139;" horiz-adv-x="380" 
d="M486 867l-141 -144h-86l112 144h115zM307 0h-314l147 667h151l-118 -535h163z" />
    <glyph glyph-name="lacute" unicode="&#x13a;" horiz-adv-x="216" 
d="M392 867l-141 -144h-86l112 144h115zM122 0h-136l147 667h136z" />
    <glyph glyph-name="Lcommaaccent" unicode="&#x13b;" horiz-adv-x="380" 
d="M192 -120q0 -47 -34 -93t-86 -71l-36 38q61 30 80 69q-2 -1 -9 -1q-21 0 -35.5 14.5t-14.5 39.5q0 28 22 49t50 21q27 0 45 -17.5t18 -48.5zM307 0h-314l147 667h151l-118 -535h163z" />
    <glyph glyph-name="lcommaaccent" unicode="&#x13c;" horiz-adv-x="216" 
d="M92 -120q0 -47 -34 -93t-86 -71l-36 38q61 30 80 69q-2 -1 -9 -1q-21 0 -35.5 14.5t-14.5 39.5q0 28 22 49t50 21q27 0 45 -17.5t18 -48.5zM122 0h-136l147 667h136z" />
    <glyph glyph-name="Lcaron" unicode="&#x13d;" horiz-adv-x="380" 
d="M457 615q0 -47 -34 -93t-86 -71l-36 38q61 30 80 69q-2 -1 -9 -1q-21 0 -35.5 14.5t-14.5 39.5q0 28 22 49t50 21q27 0 45 -17.5t18 -48.5zM307 0h-314l147 667h151l-118 -535h163z" />
    <glyph glyph-name="lcaron" unicode="&#x13e;" horiz-adv-x="344" 
d="M439 614q0 -47 -34 -93t-86 -71l-36 38q61 30 80 69q-2 -1 -9 -1q-21 0 -35.5 14.5t-14.5 39.5q0 28 22 49t50 21q27 0 45 -17.5t18 -48.5zM122 0h-136l147 667h136z" />
    <glyph glyph-name="Ldot" unicode="&#x13f;" horiz-adv-x="462" 
d="M307 0h-314l147 667h151l-118 -535h163zM367 257q-32 0 -54 23t-22 55q0 38 27.5 65.5t64.5 27.5q32 0 54.5 -23.5t22.5 -55.5q0 -38 -27.5 -65t-65.5 -27z" />
    <glyph glyph-name="ldot" unicode="&#x140;" horiz-adv-x="391" 
d="M122 0h-136l147 667h136zM295 159q-32 0 -54 23t-22 55q0 38 27.5 65.5t64.5 27.5q32 0 54.5 -23.5t22.5 -55.5q0 -38 -27.5 -65t-65.5 -27z" />
    <glyph glyph-name="Lslash" unicode="&#x141;" horiz-adv-x="388" 
d="M5 204l26 123l47 24l70 316h151l-51 -228l65 33l-26 -123l-66 -34l-40 -183h163l-29 -132h-314l50 228z" />
    <glyph glyph-name="lslash" unicode="&#x142;" horiz-adv-x="251" 
d="M8 221l21 98l49 25l72 323h136l-54 -246l51 26l-22 -98l-51 -26l-71 -323h-136l54 246z" />
    <glyph glyph-name="Nacute" unicode="&#x143;" horiz-adv-x="508" 
d="M538 867l-141 -144h-86l112 144h115zM407 0h-141l-51 324l-71 -324h-151l147 667h151l44 -308l68 308h151z" />
    <glyph glyph-name="nacute" unicode="&#x144;" horiz-adv-x="441" 
d="M468 700l-141 -144h-86l112 144h115zM347 0h-136l73 330q3 9 3 17q0 29 -27 29q-34 0 -68 -56l-70 -320h-136l107 483h136l-14 -59q22 30 55 50.5t69 20.5q44 0 69.5 -23.5t25.5 -61.5q0 -16 -4 -28z" />
    <glyph glyph-name="Ncommaaccent" unicode="&#x145;" horiz-adv-x="508" 
d="M240 -120q0 -47 -34 -93t-86 -71l-36 38q61 30 80 69q-2 -1 -9 -1q-21 0 -35.5 14.5t-14.5 39.5q0 28 22 49t50 21q27 0 45 -17.5t18 -48.5zM407 0h-141l-51 324l-71 -324h-151l147 667h151l44 -308l68 308h151z" />
    <glyph glyph-name="ncommaaccent" unicode="&#x146;" horiz-adv-x="441" 
d="M205 -120q0 -47 -34 -93t-86 -71l-36 38q61 30 80 69q-2 -1 -9 -1q-21 0 -35.5 14.5t-14.5 39.5q0 28 22 49t50 21q27 0 45 -17.5t18 -48.5zM347 0h-136l73 330q3 9 3 17q0 29 -27 29q-34 0 -68 -56l-70 -320h-136l107 483h136l-14 -59q22 30 55 50.5t69 20.5
q44 0 69.5 -23.5t25.5 -61.5q0 -16 -4 -28z" />
    <glyph glyph-name="Ncaron" unicode="&#x147;" horiz-adv-x="508" 
d="M422 723h-120l-32 144h72l31 -86l67 86h75zM407 0h-141l-51 324l-71 -324h-151l147 667h151l44 -308l68 308h151z" />
    <glyph glyph-name="ncaron" unicode="&#x148;" horiz-adv-x="441" 
d="M351 556h-120l-32 144h72l31 -86l67 86h75zM347 0h-136l73 330q3 9 3 17q0 29 -27 29q-34 0 -68 -56l-70 -320h-136l107 483h136l-14 -59q22 30 55 50.5t69 20.5q44 0 69.5 -23.5t25.5 -61.5q0 -16 -4 -28z" />
    <glyph glyph-name="napostrophe" unicode="&#x149;" horiz-adv-x="441" 
d="M255 702q0 -47 -34 -93t-86 -71l-36 38q61 30 80 69q-2 -1 -9 -1q-21 0 -35.5 14.5t-14.5 39.5q0 28 22 49t50 21q27 0 45 -17.5t18 -48.5zM347 0h-136l73 330q3 9 3 17q0 29 -27 29q-34 0 -68 -56l-70 -320h-136l107 483h136l-14 -59q22 30 55 50.5t69 20.5
q44 0 69.5 -23.5t25.5 -61.5q0 -16 -4 -28z" />
    <glyph glyph-name="Eng" unicode="&#x14a;" horiz-adv-x="508" 
d="M197 -196q-84 0 -130 39l54 115q22 -23 61 -23q60 0 73 65l6 28l-46 296l-71 -324h-151l147 667h151l44 -308l68 308h151l-148 -672q-23 -101 -72 -146t-137 -45z" />
    <glyph glyph-name="eng" unicode="&#x14b;" horiz-adv-x="441" 
d="M430 382l-89 -408q-21 -92 -60 -131t-110 -39q-50 0 -79 25l49 105q6 -11 22 -11q31 0 43 51l78 356q3 15 3 16q0 30 -27 30q-35 0 -68 -56l-70 -320h-136l107 483h136l-14 -60q22 30 55.5 51t68.5 21q43 0 69 -23t26 -61q0 -11 -4 -29z" />
    <glyph glyph-name="Omacron" unicode="&#x14c;" horiz-adv-x="500" 
d="M488 727h-262l16 76h262zM217 -12q-94 0 -142.5 62t-48.5 161q0 65 17 141t50.5 151.5t93.5 125t135 49.5q93 0 142 -63t49 -162q0 -51 -10 -110t-33.5 -122.5t-56.5 -115t-84 -84.5t-112 -33zM224 122q38 0 71 65.5t48.5 141t15.5 127.5q0 88 -46 88q-29 0 -55.5 -39
t-43 -94t-26 -110.5t-9.5 -92.5q0 -86 45 -86z" />
    <glyph glyph-name="omacron" unicode="&#x14d;" 
d="M419 560h-262l16 76h262zM184 -12q-83 0 -127 50t-44 137q0 73 26 145t81.5 123.5t126.5 51.5q85 0 129 -50t44 -137q0 -73 -26.5 -144.5t-82 -123.5t-127.5 -52zM192 107q40 0 65.5 73.5t25.5 130.5q0 65 -43 65q-40 0 -65.5 -74t-25.5 -130q0 -65 43 -65z" />
    <glyph glyph-name="Obreve" unicode="&#x14e;" horiz-adv-x="500" 
d="M217 -12q-94 0 -142.5 62t-48.5 161q0 65 17 141t50.5 151.5t93.5 125t135 49.5q93 0 142 -63t49 -162q0 -51 -10 -110t-33.5 -122.5t-56.5 -115t-84 -84.5t-112 -33zM224 122q38 0 71 65.5t48.5 141t15.5 127.5q0 88 -46 88q-29 0 -55.5 -39t-43 -94t-26 -110.5
t-9.5 -92.5q0 -86 45 -86zM492 772q-60 -63 -140 -63q-81 0 -113 63l68 47q16 -35 58 -35t72 35z" />
    <glyph glyph-name="obreve" unicode="&#x14f;" 
d="M184 -12q-83 0 -127 50t-44 137q0 73 26 145t81.5 123.5t126.5 51.5q85 0 129 -50t44 -137q0 -73 -26.5 -144.5t-82 -123.5t-127.5 -52zM192 107q40 0 65.5 73.5t25.5 130.5q0 65 -43 65q-40 0 -65.5 -74t-25.5 -130q0 -65 43 -65zM422 605q-60 -63 -140 -63
q-81 0 -113 63l68 47q16 -35 58 -35t72 35z" />
    <glyph glyph-name="Ohungarumlaut" unicode="&#x150;" horiz-adv-x="500" 
d="M413 867l-114 -144h-71l84 144h101zM547 867l-114 -144h-71l84 144h101zM217 -12q-94 0 -142.5 62t-48.5 161q0 65 17 141t50.5 151.5t93.5 125t135 49.5q93 0 142 -63t49 -162q0 -51 -10 -110t-33.5 -122.5t-56.5 -115t-84 -84.5t-112 -33zM224 122q38 0 71 65.5
t48.5 141t15.5 127.5q0 88 -46 88q-29 0 -55.5 -39t-43 -94t-26 -110.5t-9.5 -92.5q0 -86 45 -86z" />
    <glyph glyph-name="ohungarumlaut" unicode="&#x151;" 
d="M346 700l-114 -144h-71l84 144h101zM480 700l-114 -144h-71l84 144h101zM184 -12q-83 0 -127 50t-44 137q0 73 26 145t81.5 123.5t126.5 51.5q85 0 129 -50t44 -137q0 -73 -26.5 -144.5t-82 -123.5t-127.5 -52zM192 107q40 0 65.5 73.5t25.5 130.5q0 65 -43 65
q-40 0 -65.5 -74t-25.5 -130q0 -65 43 -65z" />
    <glyph glyph-name="OE" unicode="&#x152;" horiz-adv-x="652" 
d="M573 0h-313l8 42q-38 -54 -100 -54q-65 0 -104.5 58.5t-39.5 164.5q0 68 19 146.5t53.5 151t92 120.5t124.5 48q27 0 51.5 -13.5t33.5 -38.5l9 42h313l-29 -132h-162l-29 -130h156l-30 -132h-155l-31 -141h163zM302 197l61 273q-3 73 -47 73q-32 0 -59.5 -38.5
t-43.5 -93.5t-25.5 -109.5t-9.5 -93.5q0 -86 45 -86q20 0 41.5 19.5t37.5 55.5z" />
    <glyph glyph-name="oe" unicode="&#x153;" horiz-adv-x="672" 
d="M642 197h-246q-2 -8 -2 -28q0 -30 18 -50.5t60 -20.5q44 0 81 36l44 -85q-64 -61 -151 -61q-96 0 -127 78q-61 -78 -137 -78q-84 0 -126.5 50t-42.5 137q0 76 26.5 148t81.5 122t124 50q86 0 125 -76q51 76 133 76q75 0 117 -42t42 -130q0 -46 -20 -126zM415 290h121
q4 18 4 37q0 59 -47 59q-33 0 -52.5 -29t-25.5 -67zM279 311q0 65 -42 65q-40 0 -64 -71t-24 -133q0 -65 43 -65q39 0 63 73t24 131z" />
    <glyph glyph-name="Racute" unicode="&#x154;" horiz-adv-x="485" 
d="M527 867l-141 -144h-86l112 144h115zM403 0h-158l-13 234h-36l-52 -234h-151l147 667h187q74 0 123 -51.5t49 -127.5t-39 -141.5t-86 -84.5zM257 366h1q37 0 60 32t23 75q0 62 -50 62h-29l-37 -169h32z" />
    <glyph glyph-name="racute" unicode="&#x155;" horiz-adv-x="295" 
d="M418 700l-141 -144h-86l112 144h115zM122 0h-136l107 483h136l-13 -59q19 32 51.5 51.5t71.5 19.5l-31 -133q-10 6 -28 6q-50 0 -90 -55z" />
    <glyph glyph-name="Rcommaaccent" unicode="&#x156;" horiz-adv-x="485" 
d="M229 -120q0 -47 -34 -93t-86 -71l-36 38q61 30 80 69q-2 -1 -9 -1q-21 0 -35.5 14.5t-14.5 39.5q0 28 22 49t50 21q27 0 45 -17.5t18 -48.5zM403 0h-158l-13 234h-36l-52 -234h-151l147 667h187q74 0 123 -51.5t49 -127.5t-39 -141.5t-86 -84.5zM257 366h1q37 0 60 32
t23 75q0 62 -50 62h-29l-37 -169h32z" />
    <glyph glyph-name="rcommaaccent" unicode="&#x157;" horiz-adv-x="295" 
d="M151 -120q0 -47 -34 -93t-86 -71l-36 38q61 30 80 69q-2 -1 -9 -1q-21 0 -35.5 14.5t-14.5 39.5q0 28 22 49t50 21q27 0 45 -17.5t18 -48.5zM122 0h-136l107 483h136l-13 -59q19 32 51.5 51.5t71.5 19.5l-31 -133q-10 6 -28 6q-50 0 -90 -55z" />
    <glyph glyph-name="Rcaron" unicode="&#x158;" horiz-adv-x="485" 
d="M411 723h-120l-32 144h72l31 -86l67 86h75zM403 0h-158l-13 234h-36l-52 -234h-151l147 667h187q74 0 123 -51.5t49 -127.5t-39 -141.5t-86 -84.5zM257 366h1q37 0 60 32t23 75q0 62 -50 62h-29l-37 -169h32z" />
    <glyph glyph-name="rcaron" unicode="&#x159;" horiz-adv-x="295" 
d="M299 556h-120l-32 144h72l31 -86l67 86h75zM122 0h-136l107 483h136l-13 -59q19 32 51.5 51.5t71.5 19.5l-31 -133q-10 6 -28 6q-50 0 -90 -55z" />
    <glyph glyph-name="Sacute" unicode="&#x15a;" horiz-adv-x="416" 
d="M494 867l-141 -144h-86l112 144h115zM165 -12q-60 0 -111.5 22t-78.5 58l85 112q17 -26 46.5 -42t58.5 -16q27 0 45.5 19.5t18.5 51.5q0 19 -16.5 40t-39.5 41.5t-46 44t-39.5 58t-16.5 74.5q0 94 64.5 160.5t157.5 66.5q48 0 94 -18t75 -50l-79 -113q-36 47 -92 47
q-27 0 -43 -18.5t-16 -44.5q0 -20 16 -41t39 -41.5t45.5 -44.5t38.5 -58.5t16 -74.5q0 -96 -62.5 -164.5t-159.5 -68.5z" />
    <glyph glyph-name="sacute" unicode="&#x15b;" horiz-adv-x="364" 
d="M431 700l-141 -144h-86l112 144h115zM144 -12q-56 0 -104 22t-68 52l72 87q39 -55 100 -55q23 0 38 13t15 31q0 17 -24 34.5t-52.5 32.5t-52.5 47t-24 74q0 70 46.5 119.5t130.5 49.5q45 0 88 -18.5t72 -50.5l-69 -85q-11 17 -38 32.5t-54 15.5q-21 0 -33.5 -10.5
t-12.5 -28.5q0 -12 16.5 -24.5t39.5 -25.5t46 -30t39.5 -45t16.5 -63q0 -71 -52 -122.5t-136 -51.5z" />
    <glyph glyph-name="Scircumflex" unicode="&#x15c;" horiz-adv-x="416" 
d="M439 723h-71l-32 86l-66 -86h-76l93 144h120zM165 -12q-60 0 -111.5 22t-78.5 58l85 112q17 -26 46.5 -42t58.5 -16q27 0 45.5 19.5t18.5 51.5q0 19 -16.5 40t-39.5 41.5t-46 44t-39.5 58t-16.5 74.5q0 94 64.5 160.5t157.5 66.5q48 0 94 -18t75 -50l-79 -113
q-36 47 -92 47q-27 0 -43 -18.5t-16 -44.5q0 -20 16 -41t39 -41.5t45.5 -44.5t38.5 -58.5t16 -74.5q0 -96 -62.5 -164.5t-159.5 -68.5z" />
    <glyph glyph-name="scircumflex" unicode="&#x15d;" horiz-adv-x="364" 
d="M376 556h-71l-32 86l-66 -86h-76l93 144h120zM144 -12q-56 0 -104 22t-68 52l72 87q39 -55 100 -55q23 0 38 13t15 31q0 17 -24 34.5t-52.5 32.5t-52.5 47t-24 74q0 70 46.5 119.5t130.5 49.5q45 0 88 -18.5t72 -50.5l-69 -85q-11 17 -38 32.5t-54 15.5
q-21 0 -33.5 -10.5t-12.5 -28.5q0 -12 16.5 -24.5t39.5 -25.5t46 -30t39.5 -45t16.5 -63q0 -71 -52 -122.5t-136 -51.5z" />
    <glyph glyph-name="Scedilla" unicode="&#x15e;" horiz-adv-x="416" 
d="M113 -196q-60 0 -97 40l33 48q25 -32 63 -32q17 0 27.5 10t10.5 25q0 20 -19 20q-13 0 -23 -13l-42 27l38 66q-88 17 -129 73l85 112q17 -26 46.5 -42t58.5 -16q27 0 45.5 19.5t18.5 51.5q0 19 -16.5 40t-39.5 41.5t-46 44t-39.5 58t-16.5 74.5q0 94 64.5 160.5
t157.5 66.5q48 0 94 -18t75 -50l-79 -113q-36 47 -92 47q-27 0 -43 -18.5t-16 -44.5q0 -20 16 -41t39 -41.5t45.5 -44.5t38.5 -58.5t16 -74.5q0 -96 -62.5 -164.5t-159.5 -68.5l-25 -39q11 10 23 10q24 0 39 -16.5t15 -44.5q0 -40 -30 -67t-74 -27z" />
    <glyph glyph-name="scedilla" unicode="&#x15f;" horiz-adv-x="364" 
d="M90 -196q-60 0 -97 40l33 48q25 -32 63 -32q17 0 27.5 10t10.5 25q0 20 -19 20q-13 0 -23 -13l-42 27l39 67q-80 19 -110 66l72 87q39 -55 100 -55q23 0 38 13t15 31q0 17 -24 34.5t-52.5 32.5t-52.5 47t-24 74q0 70 46.5 119.5t130.5 49.5q45 0 88 -18.5t72 -50.5
l-69 -85q-11 17 -38 32.5t-54 15.5q-21 0 -33.5 -10.5t-12.5 -28.5q0 -12 16.5 -24.5t39.5 -25.5t46 -30t39.5 -45t16.5 -63q0 -71 -52 -122.5t-136 -51.5h-2l-25 -39q11 10 23 10q24 0 39 -16.5t15 -44.5q0 -40 -30 -67t-74 -27z" />
    <glyph glyph-name="Scaron" unicode="&#x160;" horiz-adv-x="416" 
d="M379 723h-120l-32 144h72l31 -86l67 86h75zM165 -12q-60 0 -111.5 22t-78.5 58l85 112q17 -26 46.5 -42t58.5 -16q27 0 45.5 19.5t18.5 51.5q0 19 -16.5 40t-39.5 41.5t-46 44t-39.5 58t-16.5 74.5q0 94 64.5 160.5t157.5 66.5q48 0 94 -18t75 -50l-79 -113
q-36 47 -92 47q-27 0 -43 -18.5t-16 -44.5q0 -20 16 -41t39 -41.5t45.5 -44.5t38.5 -58.5t16 -74.5q0 -96 -62.5 -164.5t-159.5 -68.5z" />
    <glyph glyph-name="scaron" unicode="&#x161;" horiz-adv-x="364" 
d="M315 556h-120l-32 144h72l31 -86l67 86h75zM144 -12q-56 0 -104 22t-68 52l72 87q39 -55 100 -55q23 0 38 13t15 31q0 17 -24 34.5t-52.5 32.5t-52.5 47t-24 74q0 70 46.5 119.5t130.5 49.5q45 0 88 -18.5t72 -50.5l-69 -85q-11 17 -38 32.5t-54 15.5q-21 0 -33.5 -10.5
t-12.5 -28.5q0 -12 16.5 -24.5t39.5 -25.5t46 -30t39.5 -45t16.5 -63q0 -71 -52 -122.5t-136 -51.5z" />
    <glyph glyph-name="Tcommaaccent" unicode="&#x162;" horiz-adv-x="385" 
d="M182 -120q0 -47 -34 -93t-86 -71l-36 38q61 30 80 69q-2 -1 -9 -1q-21 0 -35.5 14.5t-14.5 39.5q0 28 22 49t50 21q27 0 45 -17.5t18 -48.5zM215 0h-152l118 535h-99l29 132h349l-29 -132h-99z" />
    <glyph glyph-name="tcommaaccent" unicode="&#x163;" horiz-adv-x="270" 
d="M123 -120q0 -47 -34 -93t-86 -71l-36 38q61 30 80 69q-2 -1 -9 -1q-21 0 -35.5 14.5t-14.5 39.5q0 28 22 49t50 21q27 0 45 -17.5t18 -48.5zM151 -12q-127 0 -127 94q0 23 6 46l54 237h-44l26 118h44l29 132h135l-29 -132h59l-27 -118h-58l-47 -211q-3 -10 -3 -22
q0 -25 25 -25q9 0 21 7l-1 -112q-23 -14 -63 -14z" />
    <glyph glyph-name="Tcaron" unicode="&#x164;" horiz-adv-x="385" 
d="M356 723h-120l-32 144h72l31 -86l67 86h75zM215 0h-152l118 535h-99l29 132h349l-29 -132h-99z" />
    <glyph glyph-name="tcaron" unicode="&#x165;" horiz-adv-x="331" 
d="M453 702q0 -47 -34 -93t-86 -71l-36 38q61 30 80 69q-2 -1 -9 -1q-21 0 -35.5 14.5t-14.5 39.5q0 28 22 49t50 21q27 0 45 -17.5t18 -48.5zM151 -12q-127 0 -127 94q0 23 6 46l54 237h-44l26 118h44l29 132h135l-29 -132h59l-27 -118h-58l-47 -211q-3 -10 -3 -22
q0 -25 25 -25q9 0 21 7l-1 -112q-23 -14 -63 -14z" />
    <glyph glyph-name="Tbar" unicode="&#x166;" horiz-adv-x="385" 
d="M215 0h-152l57 258h-68l17 76h67l45 201h-99l29 132h349l-29 -132h-99l-44 -201h67l-16 -76h-68z" />
    <glyph glyph-name="tbar" unicode="&#x167;" horiz-adv-x="270" 
d="M151 -12q-127 0 -127 94q0 23 6 46l18 78h-43l16 76h44l19 83h-44l26 118h44l29 132h135l-29 -132h59l-27 -118h-58l-19 -83h35l-17 -76h-35l-11 -52q-3 -10 -3 -22q0 -25 25 -25q9 0 21 7l-1 -112q-23 -14 -63 -14z" />
    <glyph glyph-name="Utilde" unicode="&#x168;" horiz-adv-x="508" 
d="M222 -12q-80 0 -134 49.5t-54 130.5q0 18 5 41l101 458h151l-104 -472q-3 -18 -3 -25q0 -23 14 -36.5t36 -13.5q48 0 65 75l104 472h152l-103 -463q-24 -109 -85.5 -162.5t-144.5 -53.5zM414 721q-21 0 -34 10t-18 22t-13 22t-19 10q-21 0 -34 -58h-70q31 134 110 134
q20 0 33.5 -10t18.5 -22t13.5 -22t19.5 -10q21 0 34 58h70q-13 -62 -41.5 -98t-69.5 -36z" />
    <glyph glyph-name="utilde" unicode="&#x169;" horiz-adv-x="441" 
d="M93 483h136l-73 -327q-3 -14 -3 -22q0 -27 27 -27q36 0 67 54l71 322h136l-107 -483h-136l14 59q-55 -71 -124 -71q-44 0 -69.5 23.5t-25.5 61.5q0 16 4 28zM343 554q-21 0 -34 10t-18 22t-13 22t-19 10q-21 0 -34 -58h-70q31 134 110 134q20 0 33.5 -10t18.5 -22
t13.5 -22t19.5 -10q21 0 34 58h70q-13 -62 -41.5 -98t-69.5 -36z" />
    <glyph glyph-name="Umacron" unicode="&#x16a;" horiz-adv-x="508" 
d="M222 -12q-80 0 -134 49.5t-54 130.5q0 18 5 41l101 458h151l-104 -472q-3 -18 -3 -25q0 -23 14 -36.5t36 -13.5q48 0 65 75l104 472h152l-103 -463q-24 -109 -85.5 -162.5t-144.5 -53.5zM493 727h-262l16 76h262z" />
    <glyph glyph-name="umacron" unicode="&#x16b;" horiz-adv-x="441" 
d="M93 483h136l-73 -327q-3 -14 -3 -22q0 -27 27 -27q36 0 67 54l71 322h136l-107 -483h-136l14 59q-55 -71 -124 -71q-44 0 -69.5 23.5t-25.5 61.5q0 16 4 28zM423 560h-262l16 76h262z" />
    <glyph glyph-name="Ubreve" unicode="&#x16c;" horiz-adv-x="508" 
d="M222 -12q-80 0 -134 49.5t-54 130.5q0 18 5 41l101 458h151l-104 -472q-3 -18 -3 -25q0 -23 14 -36.5t36 -13.5q48 0 65 75l104 472h152l-103 -463q-24 -109 -85.5 -162.5t-144.5 -53.5zM495 772q-60 -63 -140 -63q-81 0 -113 63l68 47q16 -35 58 -35t72 35z" />
    <glyph glyph-name="ubreve" unicode="&#x16d;" horiz-adv-x="441" 
d="M93 483h136l-73 -327q-3 -14 -3 -22q0 -27 27 -27q36 0 67 54l71 322h136l-107 -483h-136l14 59q-55 -71 -124 -71q-44 0 -69.5 23.5t-25.5 61.5q0 16 4 28zM426 605q-60 -63 -140 -63q-81 0 -113 63l68 47q16 -35 58 -35t72 35z" />
    <glyph glyph-name="Uring" unicode="&#x16e;" horiz-adv-x="508" 
d="M363 690q-36 0 -58.5 23t-22.5 59q0 41 30.5 72.5t71.5 31.5q36 0 59 -23.5t23 -59.5q0 -41 -31 -72t-72 -31zM371 747q15 0 27 12t12 28q0 14 -8.5 23t-22.5 9q-16 0 -28 -12t-12 -28q0 -14 9 -23t23 -9zM222 -12q-80 0 -134 49.5t-54 130.5q0 18 5 41l101 458h151
l-104 -472q-3 -18 -3 -25q0 -23 14 -36.5t36 -13.5q48 0 65 75l104 472h152l-103 -463q-24 -109 -85.5 -162.5t-144.5 -53.5z" />
    <glyph glyph-name="uring" unicode="&#x16f;" horiz-adv-x="441" 
d="M294 532q-36 0 -58.5 23t-22.5 59q0 41 30.5 72.5t71.5 31.5q36 0 59 -23.5t23 -59.5q0 -41 -31 -72t-72 -31zM302 589q15 0 27 12t12 28q0 14 -8.5 23t-22.5 9q-16 0 -28 -12t-12 -28q0 -14 9 -23t23 -9zM93 483h136l-73 -327q-3 -14 -3 -22q0 -27 27 -27q36 0 67 54
l71 322h136l-107 -483h-136l14 59q-55 -71 -124 -71q-44 0 -69.5 23.5t-25.5 61.5q0 16 4 28z" />
    <glyph glyph-name="Uhungarumlaut" unicode="&#x170;" horiz-adv-x="508" 
d="M222 -12q-80 0 -134 49.5t-54 130.5q0 18 5 41l101 458h151l-104 -472q-3 -18 -3 -25q0 -23 14 -36.5t36 -13.5q48 0 65 75l104 472h152l-103 -463q-24 -109 -85.5 -162.5t-144.5 -53.5zM418 867l-114 -144h-71l84 144h101zM552 867l-114 -144h-71l84 144h101z" />
    <glyph glyph-name="uhungarumlaut" unicode="&#x171;" horiz-adv-x="441" 
d="M93 483h136l-73 -327q-3 -14 -3 -22q0 -27 27 -27q36 0 67 54l71 322h136l-107 -483h-136l14 59q-55 -71 -124 -71q-44 0 -69.5 23.5t-25.5 61.5q0 16 4 28zM349 700l-114 -144h-71l84 144h101zM483 700l-114 -144h-71l84 144h101z" />
    <glyph glyph-name="Uogonek" unicode="&#x172;" horiz-adv-x="508" 
d="M265 -106l46 -33q-31 -47 -79 -47q-36 0 -57.5 17t-21.5 51q0 57 49 107q-73 6 -120.5 54.5t-47.5 124.5q0 18 5 41l101 458h151l-104 -472q-3 -18 -3 -25q0 -23 14 -36.5t36 -13.5q48 0 65 75l104 472h152l-103 -463q-36 -162 -156 -204q-78 -50 -78 -111q0 -19 19 -19
q18 0 28 24z" />
    <glyph glyph-name="uogonek" unicode="&#x173;" horiz-adv-x="441" 
d="M93 483h136l-73 -327q-3 -14 -3 -22q0 -27 27 -27q36 0 67 54l71 322h136l-107 -483q-78 -50 -78 -111q0 -19 19 -19q18 0 28 24l46 -33q-31 -47 -79 -47q-36 0 -57.5 17t-21.5 51q0 62 61 118h-54l14 59q-55 -71 -124 -71q-44 0 -69.5 23.5t-25.5 61.5q0 16 4 28z" />
    <glyph glyph-name="Wcircumflex" unicode="&#x174;" horiz-adv-x="650" 
d="M551 723h-71l-32 86l-66 -86h-76l93 144h120zM470 0h-151l38 388l-134 -388h-151l29 667h151l-42 -404l147 404h117l-30 -404l136 404h156z" />
    <glyph glyph-name="wcircumflex" unicode="&#x175;" horiz-adv-x="641" 
d="M504 556h-71l-32 86l-66 -86h-76l93 144h120zM472 0h-142l2 299l-129 -299h-142l-7 483h136l-12 -301l124 301h127l-4 -301l124 301h144z" />
    <glyph glyph-name="Ycircumflex" unicode="&#x176;" horiz-adv-x="460" 
d="M458 723h-71l-32 86l-66 -86h-76l93 144h120zM252 0h-152l60 273l-73 394h154l20 -251l132 251h165l-247 -394z" />
    <glyph glyph-name="ycircumflex" unicode="&#x177;" horiz-adv-x="408" 
d="M-51 -182l44 111q6 -6 23 -6q22 0 39 30l22 42l-26 488h139l-7 -312l134 312h146l-279 -558q-36 -70 -70.5 -95.5t-84.5 -25.5q-48 0 -80 14zM391 556h-71l-32 86l-66 -86h-76l93 144h120z" />
    <glyph glyph-name="Ydieresis" unicode="&#x178;" horiz-adv-x="460" 
d="M507 787q0 -31 -24.5 -55t-55.5 -24q-27 0 -45 18t-18 45q0 31 24 55t56 24q27 0 45 -18t18 -45zM333 787q0 -31 -24 -55t-56 -24q-27 0 -44.5 18t-17.5 45q0 31 24 55t55 24q27 0 45 -18t18 -45zM252 0h-152l60 273l-73 394h154l20 -251l132 251h165l-247 -394z" />
    <glyph glyph-name="Zacute" unicode="&#x179;" horiz-adv-x="394" 
d="M476 867l-141 -144h-86l112 144h115zM312 0h-338l27 127l243 408h-152l29 132h331l-26 -121l-248 -414h164z" />
    <glyph glyph-name="zacute" unicode="&#x17a;" horiz-adv-x="352" 
d="M419 700l-141 -144h-86l112 144h115zM275 0h-306l21 101l195 264h-136l27 118h302l-22 -96l-196 -269h140z" />
    <glyph glyph-name="Zdotaccent" unicode="&#x17b;" horiz-adv-x="394" 
d="M312 0h-338l27 127l243 408h-152l29 132h331l-26 -121l-248 -414h164zM384 787q0 -31 -24.5 -55t-56.5 -24q-27 0 -45 18.5t-18 45.5q0 31 24.5 54.5t56.5 23.5q27 0 45 -18t18 -45z" />
    <glyph glyph-name="zdotaccent" unicode="&#x17c;" horiz-adv-x="352" 
d="M275 0h-306l21 101l195 264h-136l27 118h302l-22 -96l-196 -269h140zM327 620q0 -31 -24.5 -55t-56.5 -24q-27 0 -45 18.5t-18 45.5q0 31 24.5 54.5t56.5 23.5q27 0 45 -18t18 -45z" />
    <glyph glyph-name="Zcaron" unicode="&#x17d;" horiz-adv-x="394" 
d="M361 723h-120l-32 144h72l31 -86l67 86h75zM312 0h-338l27 127l243 408h-152l29 132h331l-26 -121l-248 -414h164z" />
    <glyph glyph-name="zcaron" unicode="&#x17e;" horiz-adv-x="352" 
d="M303 556h-120l-32 144h72l31 -86l67 86h75zM275 0h-306l21 101l195 264h-136l27 118h302l-22 -96l-196 -269h140z" />
    <glyph glyph-name="longs" unicode="&#x17f;" horiz-adv-x="262" 
d="M138 0h-135l81 365h-44l27 118h43l7 34q33 160 159 160q72 0 104 -30l-52 -100q-14 15 -30 15q-37 0 -46 -45z" />
    <glyph glyph-name="florin" unicode="&#x192;" horiz-adv-x="414" 
d="M109 -161h-154l87 397h-39v119h66l39 181q15 67 55.5 104t103.5 37q67 0 103 -25l-39 -118q-13 11 -31 11q-34 0 -45 -49l-31 -141h72v-119h-99z" />
    <glyph glyph-name="Ohorn" unicode="&#x1a0;" horiz-adv-x="500" 
d="M217 -12q-94 0 -142.5 62t-48.5 161q0 65 17 141t50.5 151.5t93.5 125t135 49.5q113 0 162 -94q34 23 45 48h-7q-18 0 -31 12.5t-13 34.5q0 26 19 44.5t45 18.5q23 0 39.5 -16t16.5 -44q0 -40 -27 -79t-70 -63q12 -40 12 -87q0 -51 -10 -110t-33.5 -122.5t-56.5 -115
t-84 -84.5t-112 -33zM224 122q38 0 71 65.5t48.5 141t15.5 127.5q0 88 -46 88q-29 0 -55.5 -39t-43 -94t-26 -110.5t-9.5 -92.5q0 -86 45 -86z" />
    <glyph glyph-name="ohorn" unicode="&#x1a1;" 
d="M488 548q0 -37 -25 -75t-64 -63q21 -42 21 -102q0 -73 -26.5 -144.5t-82 -123.5t-127.5 -52q-83 0 -127 50t-44 137q0 73 26 145t81.5 123.5t126.5 51.5q80 0 125 -47q35 23 48 50h-8q-19 0 -32 12.5t-13 34.5q0 26 20 44.5t45 18.5q23 0 39.5 -16t16.5 -44zM192 107
q40 0 65.5 73.5t25.5 130.5q0 65 -43 65q-40 0 -65.5 -74t-25.5 -130q0 -65 43 -65z" />
    <glyph glyph-name="Uhorn" unicode="&#x1af;" horiz-adv-x="508" 
d="M662 742q0 -44 -35 -89t-90 -67l-85 -382q-24 -109 -85.5 -162.5t-144.5 -53.5q-80 0 -134 49.5t-54 130.5q0 18 5 41l101 458h151l-104 -472q-3 -18 -3 -25q0 -23 14 -36.5t36 -13.5q48 0 65 75l104 472h152l-5 -23q32 22 44 49q-1 -1 -7 -1q-19 0 -32 12.5t-13 34.5
q0 26 19.5 44.5t44.5 18.5q24 0 40 -15.5t16 -44.5z" />
    <glyph glyph-name="uhorn" unicode="&#x1b0;" horiz-adv-x="441" 
d="M522 562q0 -33 -21.5 -69t-58.5 -62l-95 -431h-136l14 59q-55 -71 -124 -71q-44 0 -69.5 23.5t-25.5 61.5q0 16 4 28l83 382h136l-73 -330q-3 -15 -3 -17q0 -29 27 -29q36 0 67 54l71 322h113q14 12 22 29q-1 -1 -7 -1q-19 0 -32 13t-13 35q0 26 19.5 44.5t45.5 18.5
q23 0 39.5 -16t16.5 -44z" />
    <glyph glyph-name="AEacute" unicode="&#x1fc;" horiz-adv-x="633" 
d="M653 867l-141 -144h-86l112 144h115zM554 0h-313l23 108h-104l-55 -108h-158l375 667h379l-29 -132h-162l-29 -130h156l-30 -132h-155l-31 -141h162zM293 240l55 246l-123 -246h68z" />
    <glyph glyph-name="aeacute" unicode="&#x1fd;" horiz-adv-x="673" 
d="M580 700l-141 -144h-86l112 144h115zM241 376q-22 0 -41 -24t-29.5 -58.5t-16 -68t-5.5 -58.5q0 -60 44 -60q31 0 54 45l39 178q-3 21 -15.5 33.5t-29.5 12.5zM364 71l-16 -71h-135l12 55q-43 -67 -103 -67q-112 0 -112 159q0 51 12.5 109t36 112.5t62.5 90.5t87 36
q78 0 99 -70l14 58h134l-10 -47q45 60 103 59q58 -2 86 -41t28 -120q0 -68 -20 -137h-248q-3 -15 -3 -28q0 -26 20 -47.5t62 -21.5q40 0 81 37l43 -94q-52 -55 -122 -55q-91 0 -111 83zM413 290h123q5 23 5 38q0 26 -13.5 42t-35.5 16q-33 0 -52.5 -29.5t-26.5 -66.5z" />
    <glyph glyph-name="Oslashacute" unicode="&#x1fe;" horiz-adv-x="500" 
d="M533 867l-141 -144h-86l112 144h115zM217 -12q-79 0 -126 44l-24 -32h-84l66 90q-23 50 -23 121q0 65 17 141t50.5 151.5t93.5 125t135 49.5q77 0 126 -46l25 35h84l-68 -93q24 -52 24 -121q0 -51 -10 -110t-33.5 -122.5t-56.5 -115t-84 -84.5t-112 -33zM313 544
q-46 0 -80.5 -85t-48.5 -185l170 231q-11 39 -41 39zM224 122q31 0 59.5 45.5t45.5 104t25 118.5l-170 -231q10 -37 40 -37z" />
    <glyph glyph-name="oslashacute" unicode="&#x1ff;" 
d="M465 700l-141 -144h-86l112 144h115zM48 0h-76l62 72q-21 42 -21 103q0 73 26 145t81.5 123.5t126.5 51.5q72 0 116 -38l23 26h75l-62 -73q21 -42 21 -102q0 -73 -26.5 -144.5t-82 -123.5t-127.5 -52t-115 37zM240 376q-23 0 -42.5 -29t-30 -64.5t-15.5 -73.5l123 145
q-10 22 -35 22zM192 107q33 0 56.5 51.5t31.5 112.5l-123 -144q10 -20 35 -20z" />
    <glyph glyph-name="Scommaaccent" unicode="&#x218;" horiz-adv-x="416" 
d="M195 -120q0 -47 -34 -93t-86 -71l-36 38q61 30 80 69q-2 -1 -9 -1q-21 0 -35.5 14.5t-14.5 39.5q0 28 22 49t50 21q27 0 45 -17.5t18 -48.5zM165 -12q-60 0 -111.5 22t-78.5 58l85 112q17 -26 46.5 -42t58.5 -16q27 0 45.5 19.5t18.5 51.5q0 19 -16.5 40t-39.5 41.5
t-46 44t-39.5 58t-16.5 74.5q0 94 64.5 160.5t157.5 66.5q48 0 94 -18t75 -50l-79 -113q-36 47 -92 47q-27 0 -43 -18.5t-16 -44.5q0 -20 16 -41t39 -41.5t45.5 -44.5t38.5 -58.5t16 -74.5q0 -96 -62.5 -164.5t-159.5 -68.5z" />
    <glyph glyph-name="scommaaccent" unicode="&#x219;" horiz-adv-x="364" 
d="M168 -120q0 -47 -34 -93t-86 -71l-36 38q61 30 80 69q-2 -1 -9 -1q-21 0 -35.5 14.5t-14.5 39.5q0 28 22 49t50 21q27 0 45 -17.5t18 -48.5zM144 -12q-56 0 -104 22t-68 52l72 87q39 -55 100 -55q23 0 38 13t15 31q0 17 -24 34.5t-52.5 32.5t-52.5 47t-24 74
q0 70 46.5 119.5t130.5 49.5q45 0 88 -18.5t72 -50.5l-69 -85q-11 17 -38 32.5t-54 15.5q-21 0 -33.5 -10.5t-12.5 -28.5q0 -12 16.5 -24.5t39.5 -25.5t46 -30t39.5 -45t16.5 -63q0 -71 -52 -122.5t-136 -51.5z" />
    <glyph glyph-name="uni021A" unicode="&#x21a;" horiz-adv-x="385" 
d="M182 -120q0 -47 -34 -93t-86 -71l-36 38q61 30 80 69q-2 -1 -9 -1q-21 0 -35.5 14.5t-14.5 39.5q0 28 22 49t50 21q27 0 45 -17.5t18 -48.5zM215 0h-152l118 535h-99l29 132h349l-29 -132h-99z" />
    <glyph glyph-name="uni021B" unicode="&#x21b;" horiz-adv-x="270" 
d="M123 -120q0 -47 -34 -93t-86 -71l-36 38q61 30 80 69q-2 -1 -9 -1q-21 0 -35.5 14.5t-14.5 39.5q0 28 22 49t50 21q27 0 45 -17.5t18 -48.5zM151 -12q-127 0 -127 94q0 23 6 46l54 237h-44l26 118h44l29 132h135l-29 -132h59l-27 -118h-58l-47 -211q-3 -10 -3 -22
q0 -25 25 -25q9 0 21 7l-1 -112q-23 -14 -63 -14z" />
    <glyph glyph-name="uni0237" unicode="&#x237;" horiz-adv-x="216" 
d="M-54 -196q-55 0 -79 25l48 101q6 -11 23 -11q30 0 42 54l113 510h136l-114 -510q-19 -87 -56.5 -128t-112.5 -41z" />
    <glyph glyph-name="hsuperior" unicode="&#x2b0;" horiz-adv-x="321" 
d="M307 326h-96l45 206q3 12 3 15q0 19 -21 19q-20 0 -44 -36l-45 -204h-98l95 434h98l-34 -158q13 20 35.5 33t46.5 13q33 0 52.5 -16t19.5 -43q0 -3 -3 -21z" />
    <glyph glyph-name="uni02BC" unicode="&#x2bc;" horiz-adv-x="262" 
d="M296 592q0 -58 -43 -116.5t-108 -89.5l-48 50q77 35 100 84q-3 -1 -11 -1q-27 0 -46 18t-19 50q0 36 29 63t65 27q34 0 57.5 -22.5t23.5 -62.5z" />
    <glyph glyph-name="circumflex" unicode="&#x2c6;" horiz-adv-x="245" 
d="M314 556h-71l-32 86l-66 -86h-76l93 144h120z" />
    <glyph glyph-name="caron" unicode="&#x2c7;" horiz-adv-x="245" 
d="M253 556h-120l-32 144h72l31 -86l67 86h75z" />
    <glyph glyph-name="uni02C9" unicode="&#x2c9;" horiz-adv-x="263" 
d="M339 591h-262l17 76h262z" />
    <glyph glyph-name="uni02CB" unicode="&#x2cb;" horiz-adv-x="193" 
d="M262 556h-84l-77 144h114z" />
    <glyph glyph-name="breve" unicode="&#x2d8;" horiz-adv-x="253" 
d="M333 605q-60 -63 -140 -63q-81 0 -113 63l68 47q16 -35 58 -35t72 35z" />
    <glyph glyph-name="dotaccent" unicode="&#x2d9;" horiz-adv-x="183" 
d="M246 620q0 -31 -24.5 -55t-56.5 -24q-27 0 -45 18.5t-18 45.5q0 31 24.5 54.5t56.5 23.5q27 0 45 -18t18 -45z" />
    <glyph glyph-name="ring" unicode="&#x2da;" horiz-adv-x="182" 
d="M164 532q-36 0 -58.5 23t-22.5 59q0 41 30.5 72.5t71.5 31.5q36 0 59 -23.5t23 -59.5q0 -41 -31 -72t-72 -31zM172 589q15 0 27 12t12 28q0 14 -8.5 23t-22.5 9q-16 0 -28 -12t-12 -28q0 -14 9 -23t23 -9z" />
    <glyph glyph-name="ogonek" unicode="&#x2db;" horiz-adv-x="164" 
d="M34 -106l46 -33q-31 -47 -79 -47q-36 0 -57.5 17t-21.5 51q0 80 100 149l43 -31q-78 -50 -78 -111q0 -19 19 -19q18 0 28 24z" />
    <glyph glyph-name="tilde" unicode="&#x2dc;" horiz-adv-x="271" 
d="M258 554q-21 0 -34 10t-18 22t-13 22t-19 10q-21 0 -34 -58h-70q31 134 110 134q20 0 33.5 -10t18.5 -22t13.5 -22t19.5 -10q21 0 34 58h70q-13 -62 -41.5 -98t-69.5 -36z" />
    <glyph glyph-name="hungarumlaut" unicode="&#x2dd;" horiz-adv-x="285" 
d="M252 700l-114 -144h-71l84 144h101zM386 700l-114 -144h-71l84 144h101z" />
    <glyph glyph-name="hookabovecomb" unicode="&#x309;" horiz-adv-x="164" 
d="M227 727l-44 12q22 51 69 51q60 0 60 -56q0 -37 -26 -67h-53q25 29 28 55q5 24 -13 24q-13 0 -21 -19z" />
    <glyph glyph-name="uni037E" unicode="&#x37e;" horiz-adv-x="259" 
d="M181 73q0 -58 -43 -116t-108 -89l-48 49q77 35 100 84q-2 -1 -11 -1q-27 0 -45.5 18.5t-18.5 50.5q0 36 28.5 62.5t64.5 26.5q34 0 57.5 -22.5t23.5 -62.5zM157 319q-31 0 -54 23t-23 55q0 38 27.5 65.5t65.5 27.5q32 0 54.5 -23t22.5 -55q0 -38 -27.5 -65.5t-65.5 -27.5
z" />
    <glyph glyph-name="tonos" unicode="&#x384;" horiz-adv-x="441" 
d="M238 551h-58l69 214h109z" />
    <glyph glyph-name="dieresistonos" unicode="&#x385;" horiz-adv-x="441" 
d="M304 551h-59l69 214h110zM523 620q0 -31 -24.5 -55t-55.5 -24q-27 0 -45 18t-18 45q0 31 24 55t56 24q27 0 45 -18t18 -45zM231 620q0 -31 -24 -55t-56 -24q-26 0 -44.5 18t-18.5 45q0 31 24.5 55t56.5 24q26 0 44 -18t18 -45z" />
    <glyph glyph-name="Alphatonos" unicode="&#x386;" horiz-adv-x="454" 
d="M138 551h-58l69 214h109zM403 0h-152l7 108h-116l-40 -108h-159l290 667h174zM270 240l17 261l-97 -261h80z" />
    <glyph glyph-name="Epsilontonos" unicode="&#x388;" horiz-adv-x="456" 
d="M126 551h-58l69 214h109zM371 0h-314l147 667h314l-30 -132h-162l-28 -130h155l-29 -132h-156l-31 -141h163z" />
    <glyph glyph-name="Etatonos" unicode="&#x389;" horiz-adv-x="573" 
d="M126 551h-58l69 214h109zM471 0h-151l61 277h-112l-61 -277h-151l147 667h151l-57 -258h112l57 258h151z" />
    <glyph glyph-name="Iotatonos" unicode="&#x38a;" horiz-adv-x="309" 
d="M126 551h-58l69 214h109zM208 0h-151l147 667h151z" />
    <glyph glyph-name="Omicrontonos" unicode="&#x38c;" horiz-adv-x="529" 
d="M134 551h-58l69 214h109zM247 -12q-94 0 -142.5 62t-48.5 161q0 65 17 141t50.5 151.5t93.5 125t135 49.5q93 0 142 -63t49 -162q0 -51 -10 -110t-33.5 -122.5t-56.5 -115t-84 -84.5t-112 -33zM254 122q38 0 71 65.5t48.5 141t15.5 127.5q0 88 -46 88q-29 0 -55.5 -39
t-43 -94t-26 -110.5t-9.5 -92.5q0 -86 45 -86z" />
    <glyph glyph-name="Upsilontonos" unicode="&#x38e;" horiz-adv-x="568" 
d="M123 551h-58l69 214h109zM360 0h-152l60 273l-73 394h154l20 -251l132 251h165l-247 -394z" />
    <glyph glyph-name="Omegatonos" unicode="&#x38f;" horiz-adv-x="529" 
d="M134 551h-58l69 214h109zM43 132h91q-60 66 -60 168q0 82 32 167.5t96.5 148t143.5 62.5q90 0 147 -51.5t57 -155.5q0 -107 -43 -196t-112 -143h78l-29 -132h-189l30 132q44 36 75 148t31 176q0 44 -10.5 65.5t-37.5 21.5q-35 0 -66 -59t-47 -134t-16 -136q0 -58 18 -82
l-29 -132h-189z" />
    <glyph glyph-name="iotadieresistonos" unicode="&#x390;" horiz-adv-x="230" 
d="M199 551h-59l69 214h110zM418 620q0 -31 -24.5 -55t-55.5 -24q-27 0 -45 18t-18 45q0 31 24 55t56 24q27 0 45 -18t18 -45zM126 620q0 -31 -24 -55t-56 -24q-26 0 -44.5 18t-18.5 45q0 31 24.5 55t56.5 24q26 0 44 -18t18 -45zM106 -12q-65 0 -86.5 32.5t-6.5 100.5
l79 362h136l-75 -343q-7 -33 16 -33q7 0 15 2l-15 -112q-25 -9 -63 -9z" />
    <glyph glyph-name="Alpha" unicode="&#x391;" horiz-adv-x="454" 
d="M403 0h-152l7 108h-116l-40 -108h-159l290 667h174zM270 240l17 261l-97 -261h80z" />
    <glyph glyph-name="Beta" unicode="&#x392;" horiz-adv-x="477" 
d="M248 0h-255l147 667h190q80 0 124.5 -42.5t44.5 -105.5q0 -68 -39.5 -123.5t-101.5 -63.5q40 -11 61 -45.5t21 -77.5q0 -82 -49.5 -145.5t-142.5 -63.5zM272 405q29 0 48 25.5t19 56.5q0 48 -55 48h-22l-28 -130h38zM215 132q32 0 52.5 26t20.5 64q0 51 -51 51h-33
l-31 -141h42z" />
    <glyph glyph-name="Gamma" unicode="&#x393;" horiz-adv-x="388" 
d="M144 0h-151l147 667h314l-30 -132h-162z" />
    <glyph glyph-name="uni0394" unicode="&#x394;" horiz-adv-x="454" 
d="M403 0h-460l290 667h174zM264 132l22 369l-138 -369h116z" />
    <glyph glyph-name="Epsilon" unicode="&#x395;" horiz-adv-x="392" 
d="M307 0h-314l147 667h314l-30 -132h-162l-28 -130h155l-29 -132h-156l-31 -141h163z" />
    <glyph glyph-name="Zeta" unicode="&#x396;" horiz-adv-x="394" 
d="M312 0h-338l27 127l243 408h-152l29 132h331l-26 -121l-248 -414h164z" />
    <glyph glyph-name="Eta" unicode="&#x397;" horiz-adv-x="508" 
d="M407 0h-151l61 277h-112l-61 -277h-151l147 667h151l-57 -258h112l57 258h151z" />
    <glyph glyph-name="Theta" unicode="&#x398;" horiz-adv-x="500" 
d="M307 273h-102l29 132h102zM217 -12q-94 0 -142.5 62t-48.5 161q0 65 17 141t50.5 151.5t93.5 125t135 49.5q93 0 142 -63t49 -162q0 -51 -10 -110t-33.5 -122.5t-56.5 -115t-84 -84.5t-112 -33zM224 122q38 0 71 65.5t48.5 141t15.5 127.5q0 88 -46 88q-29 0 -55.5 -39
t-43 -94t-26 -110.5t-9.5 -92.5q0 -86 45 -86z" />
    <glyph glyph-name="Iota" unicode="&#x399;" horiz-adv-x="245" 
d="M144 0h-151l147 667h151z" />
    <glyph glyph-name="Kappa" unicode="&#x39a;" horiz-adv-x="497" 
d="M445 0h-160l-47 240l-60 -87l-34 -153h-151l147 667h151l-59 -270l175 270h173l-228 -312z" />
    <glyph glyph-name="Lambda" unicode="&#x39b;" horiz-adv-x="454" 
d="M403 0h-152l36 501l-185 -501h-159l290 667h174z" />
    <glyph glyph-name="Mu" unicode="&#x39c;" horiz-adv-x="646" 
d="M545 0h-149l80 364l-183 -364h-49l-20 364l-80 -364h-151l147 667h186l17 -312l159 312h190z" />
    <glyph glyph-name="Nu" unicode="&#x39d;" horiz-adv-x="508" 
d="M407 0h-141l-51 324l-71 -324h-151l147 667h151l44 -308l68 308h151z" />
    <glyph glyph-name="Xi" unicode="&#x39e;" horiz-adv-x="412" 
d="M444 535h-350l30 132h349zM327 0h-350l30 132h349zM379 273h-335l29 132h335z" />
    <glyph glyph-name="Omicron" unicode="&#x39f;" horiz-adv-x="500" 
d="M217 -12q-94 0 -142.5 62t-48.5 161q0 65 17 141t50.5 151.5t93.5 125t135 49.5q93 0 142 -63t49 -162q0 -51 -10 -110t-33.5 -122.5t-56.5 -115t-84 -84.5t-112 -33zM224 122q38 0 71 65.5t48.5 141t15.5 127.5q0 88 -46 88q-29 0 -55.5 -39t-43 -94t-26 -110.5
t-9.5 -92.5q0 -86 45 -86z" />
    <glyph glyph-name="Pi" unicode="&#x3a0;" horiz-adv-x="508" 
d="M407 0h-151l118 535h-112l-118 -535h-151l147 667h414z" />
    <glyph glyph-name="Rho" unicode="&#x3a1;" horiz-adv-x="469" 
d="M144 0h-151l147 667h186q78 0 125.5 -50.5t47.5 -127.5q0 -105 -66.5 -180t-188.5 -75h-48zM225 366h32q38 0 61.5 32.5t23.5 74.5q0 29 -14 45.5t-37 16.5h-29z" />
    <glyph glyph-name="Sigma" unicode="&#x3a3;" horiz-adv-x="377" 
d="M253 535l67 -199l-156 -204h159l-29 -132h-314l33 155l157 205l-68 191l26 116h313l-29 -132h-159z" />
    <glyph glyph-name="Tau" unicode="&#x3a4;" horiz-adv-x="385" 
d="M215 0h-152l118 535h-99l29 132h349l-29 -132h-99z" />
    <glyph glyph-name="Upsilon" unicode="&#x3a5;" horiz-adv-x="460" 
d="M252 0h-152l60 273l-73 394h154l20 -251l132 251h165l-247 -394z" />
    <glyph glyph-name="Phi" unicode="&#x3a6;" horiz-adv-x="691" 
d="M367 0h-151l16 72q-195 35 -195 226q0 69 34.5 133t108.5 112t173 57l15 67h151l-17 -74q195 -35 195 -225q0 -69 -34 -133t-108 -112t-173 -57zM195 298q0 -68 68 -91l58 252q-66 -17 -96 -61t-30 -100zM539 368q0 68 -68 90l-57 -251q65 17 95 61t30 100z" />
    <glyph glyph-name="Chi" unicode="&#x3a7;" horiz-adv-x="474" 
d="M424 0h-159l-34 203l-115 -203h-174l233 348l-78 319h160l26 -192l105 192h174l-221 -333z" />
    <glyph glyph-name="Psi" unicode="&#x3a8;" horiz-adv-x="723" 
d="M383 0h-151l30 132q-88 16 -139 61.5t-51 123.5q0 26 8 68l65 282h153l-70 -304q-4 -20 -4 -31q1 -52 68 -69l92 404h151l-92 -403q91 21 108 99l70 304h153l-76 -330q-21 -91 -100.5 -145.5t-185.5 -65.5z" />
    <glyph glyph-name="uni03A9" unicode="&#x3a9;" horiz-adv-x="494" 
d="M7 132h91q-60 66 -60 168q0 82 32 167.5t96.5 148t143.5 62.5q90 0 147 -51.5t57 -155.5q0 -107 -43 -196t-112 -143h78l-29 -132h-189l30 132q44 36 75 148t31 176q0 44 -10.5 65.5t-37.5 21.5q-35 0 -66 -59t-47 -134t-16 -136q0 -58 18 -82l-29 -132h-189z" />
    <glyph glyph-name="Iotadieresis" unicode="&#x3aa;" horiz-adv-x="245" 
d="M144 0h-151l147 667h151zM403 804q0 -31 -24.5 -55t-55.5 -24q-27 0 -45 18t-18 45q0 31 24 55t56 24q27 0 45 -18t18 -45zM229 804q0 -31 -24 -55t-56 -24q-27 0 -44.5 18t-17.5 45q0 31 24 55t55 24q27 0 45 -18t18 -45z" />
    <glyph glyph-name="Upsilondieresis" unicode="&#x3ab;" horiz-adv-x="460" 
d="M252 0h-152l60 273l-73 394h154l20 -251l132 251h165l-247 -394zM511 804q0 -31 -24.5 -55t-55.5 -24q-27 0 -45 18t-18 45q0 31 24 55t56 24q27 0 45 -18t18 -45zM337 804q0 -31 -24 -55t-56 -24q-27 0 -44.5 18t-17.5 45q0 31 24 55t55 24q27 0 45 -18t18 -45z" />
    <glyph glyph-name="alphatonos" unicode="&#x3ac;" horiz-adv-x="456" 
d="M313 551h-58l69 214h109zM410 109l-14 -112q-25 -9 -64 -9q-55 0 -75.5 20.5t-22.5 59.5q-50 -80 -112 -80q-54 0 -83 42t-29 117q0 51 12.5 109t36 112.5t62.5 90.5t87 36q78 0 98 -70l15 58h134l-76 -343q-7 -33 16 -33q7 0 15 2zM193 107q31 0 54 45l39 178
q-3 21 -15.5 33.5t-29.5 12.5q-22 0 -41 -24t-29.5 -58.5t-16 -68t-5.5 -58.5q0 -60 44 -60z" />
    <glyph glyph-name="epsilontonos" unicode="&#x3ad;" horiz-adv-x="391" 
d="M291 551h-58l69 214h109zM147 -12q-71 0 -113 32.5t-42 87.5q0 52 39 92t95 48q-34 6 -55 33.5t-21 61.5q0 69 59 110.5t147 41.5q51 0 94.5 -19.5t67.5 -52.5l-77 -77q-32 41 -86 41q-34 0 -56.5 -14t-22.5 -41q0 -34 54 -34h79l-23 -108h-86q-30 0 -52 -13t-22 -42
q0 -38 50 -38q74 0 123 46l48 -86q-85 -69 -200 -69z" />
    <glyph glyph-name="etatonos" unicode="&#x3ae;" horiz-adv-x="441" 
d="M313 551h-58l69 214h109zM307 -184h-136l113 514q3 9 3 17q0 29 -27 29q-34 0 -68 -56l-70 -320h-136l107 483h136l-14 -59q22 30 55 50.5t69 20.5q44 0 69.5 -23.5t25.5 -61.5q0 -16 -4 -28z" />
    <glyph glyph-name="iotatonos" unicode="&#x3af;" horiz-adv-x="230" 
d="M205 551h-58l69 214h109zM106 -12q-65 0 -86.5 32.5t-6.5 100.5l79 362h136l-75 -343q-7 -33 16 -33q7 0 15 2l-15 -112q-25 -9 -63 -9z" />
    <glyph glyph-name="upsilondieresistonos" unicode="&#x3b0;" horiz-adv-x="438" 
d="M311 551h-59l69 214h110zM530 620q0 -31 -24.5 -55t-55.5 -24q-27 0 -45 18t-18 45q0 31 24 55t56 24q27 0 45 -18t18 -45zM238 620q0 -31 -24 -55t-56 -24q-26 0 -44.5 18t-18.5 45q0 31 24.5 55t56.5 24q26 0 44 -18t18 -45zM172 -12q-76 0 -121 48.5t-27 134.5l68 312
h136l-68 -310q-14 -66 30 -66q40 0 71 75.5t31 160.5q0 68 -11 108l138 44q16 -62 16 -137q0 -68 -16 -132t-47 -118t-83 -87t-117 -33z" />
    <glyph glyph-name="alpha" unicode="&#x3b1;" horiz-adv-x="456" 
d="M410 109l-14 -112q-25 -9 -64 -9q-55 0 -75.5 20.5t-22.5 59.5q-50 -80 -112 -80q-54 0 -83 42t-29 117q0 51 12.5 109t36 112.5t62.5 90.5t87 36q78 0 98 -70l15 58h134l-76 -343q-7 -33 16 -33q7 0 15 2zM193 107q31 0 54 45l39 178q-3 21 -15.5 33.5t-29.5 12.5
q-22 0 -41 -24t-29.5 -58.5t-16 -68t-5.5 -58.5q0 -60 44 -60z" />
    <glyph glyph-name="beta" unicode="&#x3b2;" horiz-adv-x="442" 
d="M235 -12q-75 0 -101 68l-52 -240h-136l141 643q25 114 88 166t140 52q74 0 114 -35.5t40 -104.5q0 -63 -33 -119.5t-97 -73.5q72 -33 72 -127q0 -89 -51.5 -159t-124.5 -70zM222 458l-67 -306q8 -45 41 -45t54.5 37t21.5 77q0 57 -36 57h-16l26 120h9q32 0 50.5 34.5
t18.5 77.5q0 47 -30 47q-49 0 -72 -99z" />
    <glyph glyph-name="gamma" unicode="&#x3b3;" horiz-adv-x="408" 
d="M177 -184h-135l23 106q34 168 26 308.5t-51 252.5h147q39 -161 17 -297q71 130 106 297h135q-25 -114 -88.5 -242.5t-137.5 -228.5z" />
    <glyph glyph-name="delta" unicode="&#x3b4;" 
d="M176 -12q-86 0 -127 52t-41 131q0 143 142 253q-33 40 -33 92q0 69 53 116t140 47q98 0 152 -59l-74 -91q-11 17 -34.5 30.5t-53.5 13.5q-22 0 -38 -12.5t-16 -29.5q0 -14 17.5 -29.5t42 -34.5t49 -44t42 -68.5t17.5 -98.5q0 -40 -16 -85.5t-44 -87t-75.5 -68.5
t-102.5 -27zM286 246q0 58 -52 105q-85 -75 -85 -170q0 -74 50 -74q37 0 62 46.5t25 92.5z" />
    <glyph glyph-name="epsilon" unicode="&#x3b5;" horiz-adv-x="391" 
d="M147 -12q-71 0 -113 32.5t-42 87.5q0 52 39 92t95 48q-34 6 -55 33.5t-21 61.5q0 69 59 110.5t147 41.5q51 0 94.5 -19.5t67.5 -52.5l-77 -77q-32 41 -86 41q-34 0 -56.5 -14t-22.5 -41q0 -34 54 -34h79l-23 -108h-86q-30 0 -52 -13t-22 -42q0 -38 50 -38q74 0 123 46
l48 -86q-85 -69 -200 -69z" />
    <glyph glyph-name="zeta" unicode="&#x3b6;" horiz-adv-x="358" 
d="M164 -29q0 17 -21 17q-62 0 -101 45t-39 114q0 95 63.5 199.5t199.5 202.5h-172l26 118h306l-21 -96q-107 -83 -181.5 -193t-74.5 -195q0 -35 17 -55.5t50 -20.5q76 0 76 -72q0 -69 -82 -192h-121q75 87 75 128z" />
    <glyph glyph-name="eta" unicode="&#x3b7;" horiz-adv-x="441" 
d="M307 -184h-136l113 514q3 9 3 17q0 29 -27 29q-34 0 -68 -56l-70 -320h-136l107 483h136l-14 -59q22 30 55 50.5t69 20.5q44 0 69.5 -23.5t25.5 -61.5q0 -16 -4 -28z" />
    <glyph glyph-name="theta" unicode="&#x3b8;" 
d="M185 -11q-74 0 -119 59t-45 167q0 111 34.5 217t97.5 176t136 70q75 0 119.5 -59t44.5 -166q0 -111 -34 -217.5t-97 -176.5t-137 -70zM193 107q48 0 92 169h-120q-11 -66 -11 -101q0 -68 39 -68zM281 560q-48 0 -91 -166h119q11 64 11 99q0 67 -39 67z" />
    <glyph glyph-name="iota" unicode="&#x3b9;" horiz-adv-x="230" 
d="M106 -12q-65 0 -86.5 32.5t-6.5 100.5l79 362h136l-75 -343q-7 -33 16 -33q7 0 15 2l-15 -112q-25 -9 -63 -9z" />
    <glyph glyph-name="kappa" unicode="&#x3ba;" horiz-adv-x="424" 
d="M370 0h-146l-23 182l-56 -75l-23 -107h-136l107 483h136l-43 -194l132 194h152l-159 -214z" />
    <glyph glyph-name="lambda" unicode="&#x3bb;" horiz-adv-x="408" 
d="M132 554l7 117q22 8 61 8q62 0 91 -26t35 -95l30 -558h-139l7 312l-133 -312h-147l246 493l-2 37q-3 30 -33 30q-13 0 -23 -6z" />
    <glyph glyph-name="uni03BC" unicode="&#x3bc;" horiz-adv-x="455" 
d="M122 1l-40 -185h-136l147 667h136l-74 -332q-8 -44 25 -44q34 0 67 53l71 323h136l-76 -343q-7 -33 16 -33q7 0 15 2l-15 -112q-25 -9 -63 -9q-50 0 -69 20t-18 67q-14 -41 -38.5 -64t-48.5 -23q-21 0 -35 13z" />
    <glyph glyph-name="nu" unicode="&#x3bd;" horiz-adv-x="408" 
d="M211 0h-133l-28 483h143l-7 -331q86 151 124 331h135q-25 -118 -91.5 -249.5t-142.5 -233.5z" />
    <glyph glyph-name="xi" unicode="&#x3be;" horiz-adv-x="358" 
d="M145 -12q-66 0 -106 38.5t-40 104.5q0 64 36.5 112t102.5 72q-71 14 -71 96q0 38 29 76.5t77 61.5h-67l26 118h290l-27 -118h-128q-25 -13 -41 -38.5t-16 -52.5q0 -61 59 -61h86l-26 -118h-85q-38 0 -68.5 -28t-30.5 -77q0 -29 17.5 -48t53.5 -19q76 0 76 -72
q0 -69 -82 -192h-116q70 97 70 128q0 17 -19 17z" />
    <glyph glyph-name="omicron" unicode="&#x3bf;" 
d="M184 -12q-83 0 -127 50t-44 137q0 73 26 145t81.5 123.5t126.5 51.5q85 0 129 -50t44 -137q0 -73 -26.5 -144.5t-82 -123.5t-127.5 -52zM192 107q40 0 65.5 73.5t25.5 130.5q0 65 -43 65q-40 0 -65.5 -74t-25.5 -130q0 -65 43 -65z" />
    <glyph glyph-name="pi" unicode="&#x3c0;" horiz-adv-x="474" 
d="M363 0h-136l81 365h-90l-80 -365h-135l80 365h-43l25 118h448l-26 -118h-44z" />
    <glyph glyph-name="rho" unicode="&#x3c1;" horiz-adv-x="442" 
d="M234 -12q-78 0 -100 71l-52 -243h-136l93 426q26 115 87.5 184t148.5 69q75 0 115.5 -45t40.5 -128q0 -46 -12.5 -101t-35.5 -108.5t-62.5 -89t-86.5 -35.5zM200 107q42 0 66.5 73.5t24.5 135.5q0 60 -35 60q-51 0 -81 -134l-20 -89q3 -20 15.5 -33t29.5 -13z" />
    <glyph glyph-name="sigma1" unicode="&#x3c2;" horiz-adv-x="355" 
d="M144 -12q-50 0 -90.5 51t-40.5 137q0 77 28 149t84 121t127 49q87 0 134 -50l-62 -101q-19 32 -60 32q-47 0 -79.5 -59t-32.5 -125q0 -41 18 -63t45 -22q75 0 75 -72q0 -69 -82 -192h-119q75 86 75 128q0 17 -20 17z" />
    <glyph glyph-name="sigma" unicode="&#x3c3;" 
d="M407 269q0 -43 -14 -90t-40 -90.5t-70.5 -72t-98.5 -28.5q-83 0 -127 50t-44 137q0 75 28.5 144t88 116.5t137.5 47.5h204l-26 -119h-61q23 -38 23 -95zM282 303q0 42 -10 61h-20q-31 0 -55.5 -32.5t-36 -75.5t-11.5 -84q0 -65 43 -65q40 0 65 72.5t25 123.5z" />
    <glyph glyph-name="tau" unicode="&#x3c4;" horiz-adv-x="324" 
d="M160 -12q-65 0 -86.5 32.5t-5.5 100.5l53 244h-80l26 118h294l-25 -118h-80l-48 -216q-8 -42 15 -42q18 0 29 11v-107q-34 -23 -92 -23z" />
    <glyph glyph-name="upsilon" unicode="&#x3c5;" horiz-adv-x="438" 
d="M172 -12q-76 0 -121 48.5t-27 134.5l68 312h136l-68 -310q-14 -66 30 -66q40 0 71 75.5t31 160.5q0 68 -11 108l138 44q16 -62 16 -137q0 -68 -16 -132t-47 -118t-83 -87t-117 -33z" />
    <glyph glyph-name="phi" unicode="&#x3c6;" horiz-adv-x="648" 
d="M634 287q0 -47 -19.5 -95.5t-56 -90.5t-94.5 -72t-128 -38l-38 -175h-135l39 179q-95 16 -141.5 71t-46.5 135q0 90 53.5 168t162.5 126l38 -105q-52 -27 -82.5 -73t-30.5 -102q0 -80 73 -101l84 381h66q127 0 191.5 -58t64.5 -150zM420 369l-56 -253q66 18 97 64.5
t31 91.5q0 83 -72 97z" />
    <glyph glyph-name="chi" unicode="&#x3c7;" horiz-adv-x="395" 
d="M302 -184h-139l-11 200l-101 -200h-146l187 335l-36 332h137l10 -197l95 197h144l-182 -332z" />
    <glyph glyph-name="psi" unicode="&#x3c8;" horiz-adv-x="649" 
d="M298 -184h-135l39 180q-79 15 -125 58t-46 116q0 31 8 70l53 243h135l-56 -257q-5 -20 -5 -42q0 -54 62 -70l122 553h135l-121 -553q85 22 105 112l56 257h135l-60 -275q-21 -96 -94 -151.5t-170 -65.5z" />
    <glyph glyph-name="omega" unicode="&#x3c9;" horiz-adv-x="666" 
d="M655 317q0 -74 -25 -147.5t-78.5 -127.5t-122.5 -54q-55 0 -90 31.5t-35 88.5q-24 -58 -65 -89t-91 -31q-64 0 -101.5 50t-37.5 125q0 101 47.5 193t119.5 139l87 -72q-49 -33 -82 -106.5t-33 -141.5t34 -68q52 0 82 135l27 122h136l-27 -122q-30 -135 23 -135
q34 0 61.5 70t27.5 126q0 89 -30 120l118 72q26 -24 40.5 -73t14.5 -105z" />
    <glyph glyph-name="iotadieresis" unicode="&#x3ca;" horiz-adv-x="230" 
d="M352 620q0 -31 -24.5 -55t-55.5 -24q-27 0 -45 18t-18 45q0 31 24 55t56 24q27 0 45 -18t18 -45zM178 620q0 -31 -24 -55t-56 -24q-27 0 -44.5 18t-17.5 45q0 31 24 55t55 24q27 0 45 -18t18 -45zM106 -12q-65 0 -86.5 32.5t-6.5 100.5l79 362h136l-75 -343
q-7 -33 16 -33q7 0 15 2l-15 -112q-25 -9 -63 -9z" />
    <glyph glyph-name="upsilondieresis" unicode="&#x3cb;" horiz-adv-x="438" 
d="M465 620q0 -31 -24.5 -55t-55.5 -24q-27 0 -45 18t-18 45q0 31 24 55t56 24q27 0 45 -18t18 -45zM291 620q0 -31 -24 -55t-56 -24q-27 0 -44.5 18t-17.5 45q0 31 24 55t55 24q27 0 45 -18t18 -45zM172 -12q-76 0 -121 48.5t-27 134.5l68 312h136l-68 -310q-14 -66 30 -66
q40 0 71 75.5t31 160.5q0 68 -11 108l138 44q16 -62 16 -137q0 -68 -16 -132t-47 -118t-83 -87t-117 -33z" />
    <glyph glyph-name="omicrontonos" unicode="&#x3cc;" 
d="M311 551h-58l69 214h109zM184 -12q-83 0 -127 50t-44 137q0 73 26 145t81.5 123.5t126.5 51.5q85 0 129 -50t44 -137q0 -73 -26.5 -144.5t-82 -123.5t-127.5 -52zM192 107q40 0 65.5 73.5t25.5 130.5q0 65 -43 65q-40 0 -65.5 -74t-25.5 -130q0 -65 43 -65z" />
    <glyph glyph-name="upsilontonos" unicode="&#x3cd;" horiz-adv-x="438" 
d="M316 551h-58l69 214h109zM172 -12q-76 0 -121 48.5t-27 134.5l68 312h136l-68 -310q-14 -66 30 -66q40 0 71 75.5t31 160.5q0 68 -11 108l138 44q16 -62 16 -137q0 -68 -16 -132t-47 -118t-83 -87t-117 -33z" />
    <glyph glyph-name="omegatonos" unicode="&#x3ce;" horiz-adv-x="666" 
d="M427 551h-58l69 214h109zM655 317q0 -74 -25 -147.5t-78.5 -127.5t-122.5 -54q-55 0 -90 31.5t-35 88.5q-24 -58 -65 -89t-91 -31q-64 0 -101.5 50t-37.5 125q0 101 47.5 193t119.5 139l87 -72q-49 -33 -82 -106.5t-33 -141.5t34 -68q52 0 82 135l27 122h136l-27 -122
q-30 -135 23 -135q34 0 61.5 70t27.5 126q0 89 -30 120l118 72q26 -24 40.5 -73t14.5 -105z" />
    <glyph glyph-name="afii10023" unicode="&#x401;" horiz-adv-x="392" 
d="M480 787q0 -31 -24.5 -55t-55.5 -24q-27 0 -45 18t-18 45q0 31 24 55t56 24q27 0 45 -18t18 -45zM306 787q0 -31 -24 -55t-56 -24q-27 0 -44.5 18t-17.5 45q0 31 24 55t55 24q27 0 45 -18t18 -45zM307 0h-314l147 667h314l-30 -132h-162l-28 -130h155l-29 -132h-156
l-31 -141h163z" />
    <glyph glyph-name="afii10051" unicode="&#x402;" horiz-adv-x="518" 
d="M219 -12l29 134q60 0 78 79l3 15q9 39 -6 62t-48 23q-27 0 -44 -5l-64 -296h-152l117 535h-99l29 132h349l-29 -132h-98l-24 -110q32 8 72 8q92 0 130.5 -62.5t19.5 -153.5l-5 -16q-24 -110 -93.5 -161.5t-164.5 -51.5z" />
    <glyph glyph-name="afii10052" unicode="&#x403;" horiz-adv-x="388" 
d="M493 867l-141 -144h-86l112 144h115zM144 0h-151l147 667h314l-30 -132h-162z" />
    <glyph glyph-name="afii10053" unicode="&#x404;" horiz-adv-x="448" 
d="M217 -12q-92 0 -141.5 59.5t-49.5 163.5q0 51 9.5 109.5t32.5 123t56 116t84.5 85t113.5 33.5q47 0 82.5 -17.5t54 -46.5t28 -58t11.5 -61l-138 -39q-4 88 -47 88q-58 0 -101 -139h177l-29 -132h-176q-5 -31 -5 -65q0 -86 45 -86q41 0 79 80l121 -49q-74 -165 -207 -165z
" />
    <glyph glyph-name="afii10054" unicode="&#x405;" horiz-adv-x="416" 
d="M165 -12q-60 0 -111.5 22t-78.5 58l85 112q17 -26 46.5 -42t58.5 -16q27 0 45.5 19.5t18.5 51.5q0 19 -16.5 40t-39.5 41.5t-46 44t-39.5 58t-16.5 74.5q0 94 64.5 160.5t157.5 66.5q48 0 94 -18t75 -50l-79 -113q-36 47 -92 47q-27 0 -43 -18.5t-16 -44.5q0 -20 16 -41
t39 -41.5t45.5 -44.5t38.5 -58.5t16 -74.5q0 -96 -62.5 -164.5t-159.5 -68.5z" />
    <glyph glyph-name="afii10055" unicode="&#x406;" horiz-adv-x="245" 
d="M144 0h-151l147 667h151z" />
    <glyph glyph-name="afii10056" unicode="&#x407;" horiz-adv-x="245" 
d="M398 787q0 -31 -24.5 -55t-55.5 -24q-27 0 -45 18t-18 45q0 31 24 55t56 24q27 0 45 -18t18 -45zM224 787q0 -31 -24 -55t-56 -24q-27 0 -44.5 18t-17.5 45q0 31 24 55t55 24q27 0 45 -18t18 -45zM144 0h-151l147 667h151z" />
    <glyph glyph-name="afii10057" unicode="&#x408;" horiz-adv-x="362" 
d="M92 -12q-84 0 -130 40l58 121q21 -27 59 -27q58 0 73 65l106 480h152l-108 -488q-23 -100 -72.5 -145.5t-137.5 -45.5z" />
    <glyph glyph-name="afii10058" unicode="&#x409;" horiz-adv-x="732" 
d="M-42 -12l29 134q32 0 55.5 33.5t56.5 147.5l105 364h349l-51 -234h34q78 0 126 -50.5t48 -127.5q0 -105 -66 -180t-187 -75h-201l117 535h-59l-64 -232q-28 -99 -60.5 -163.5t-71 -96.5t-75 -43.5t-85.5 -11.5zM504 301h-31l-38 -169h31q40 0 63.5 33t23.5 75
q0 29 -13.5 45t-35.5 16z" />
    <glyph glyph-name="afii10059" unicode="&#x40a;" horiz-adv-x="732" 
d="M453 0h-202l61 277h-111l-61 -277h-151l146 667h151l-56 -258h111l57 258h151l-56 -258h35q78 0 126 -46.5t48 -121.5q0 -100 -65.5 -170.5t-183.5 -70.5zM494 277h-30l-33 -145h31q37 0 60 28t23 64q0 53 -51 53z" />
    <glyph glyph-name="afii10060" unicode="&#x40b;" horiz-adv-x="518" 
d="M278 0l47 216q9 39 -4 62t-46 23q-27 0 -44 -5l-64 -296h-152l117 535h-99l29 132h349l-29 -132h-98l-24 -110q32 8 72 8q92 0 128.5 -62t16.5 -154l-48 -217h-151z" />
    <glyph glyph-name="afii10061" unicode="&#x40c;" horiz-adv-x="497" 
d="M540 867l-141 -144h-86l112 144h115zM445 0h-160l-47 240l-60 -87l-34 -153h-151l147 667h151l-59 -270l175 270h173l-228 -312z" />
    <glyph glyph-name="afii10062" unicode="&#x40e;" horiz-adv-x="460" 
d="M42 -12q-64 0 -99 28l62 124q16 -17 45 -17q35 0 63 49l31 55l-58 440h156l19 -262l131 263l165 -1l-291 -511q-53 -91 -101 -129.5t-123 -38.5zM466 772q-60 -63 -140 -63q-81 0 -113 63l68 47q16 -35 58 -35t72 35z" />
    <glyph glyph-name="afii10145" unicode="&#x40f;" horiz-adv-x="508" 
d="M95 -128l28 128h-130l146 667h151l-117 -535h111l118 535h151l-146 -667h-132l-28 -128h-152z" />
    <glyph glyph-name="afii10017" unicode="&#x410;" horiz-adv-x="454" 
d="M403 0h-152l7 108h-116l-40 -108h-159l290 667h174zM270 240l17 261l-97 -261h80z" />
    <glyph glyph-name="afii10018" unicode="&#x411;" horiz-adv-x="469" 
d="M139 667h367l-29 -132h-216l-22 -102h35q78 0 125.5 -50.5t47.5 -127.5q0 -105 -66 -180t-187 -75h-201zM239 301h-29l-37 -169h31q39 0 62.5 33t23.5 75q0 29 -14 45t-37 16z" />
    <glyph glyph-name="afii10019" unicode="&#x412;" horiz-adv-x="477" 
d="M248 0h-255l147 667h190q80 0 124.5 -42.5t44.5 -105.5q0 -68 -39.5 -123.5t-101.5 -63.5q40 -11 61 -45.5t21 -77.5q0 -82 -49.5 -145.5t-142.5 -63.5zM272 405q29 0 48 25.5t19 56.5q0 48 -55 48h-22l-28 -130h38zM215 132q32 0 52.5 26t20.5 64q0 51 -51 51h-33
l-31 -141h42z" />
    <glyph glyph-name="afii10020" unicode="&#x413;" horiz-adv-x="388" 
d="M144 0h-151l147 667h314l-30 -132h-162z" />
    <glyph glyph-name="afii10021" unicode="&#x414;" horiz-adv-x="520" 
d="M-68 -123l53 245q18 5 27.5 10t25 23t30.5 56.5t33 100.5l102 355h350l-118 -535h47l-56 -255h-152l27 123h-191l-27 -123h-151zM314 535l-56 -199q-38 -138 -100 -204h126l88 403h-58z" />
    <glyph glyph-name="afii10022" unicode="&#x415;" horiz-adv-x="392" 
d="M307 0h-314l147 667h314l-30 -132h-162l-28 -130h155l-29 -132h-156l-31 -141h163z" />
    <glyph glyph-name="afii10024" unicode="&#x416;" horiz-adv-x="694" 
d="M120 0h-175l249 355l-91 312h160l49 -236l52 236h151l-46 -211l136 211h171l-228 -312l93 -355h-165l-40 244l-20 -29l-47 -215h-152l47 213l-5 19z" />
    <glyph glyph-name="afii10025" unicode="&#x417;" horiz-adv-x="465" 
d="M205 -12q-76 0 -139 36t-83 99l119 77q13 -37 40 -57.5t61 -20.5q38 0 59.5 28t21.5 57q0 64 -77 64h-71l29 133h85q43 0 65.5 25t22.5 57q0 57 -71 57q-55 0 -94 -48l-78 91q86 91 198 91q89 0 145 -40.5t56 -114.5q0 -70 -48.5 -122t-110.5 -62q50 -15 73.5 -51
t23.5 -79q0 -92 -65.5 -156t-161.5 -64z" />
    <glyph glyph-name="afii10026" unicode="&#x418;" horiz-adv-x="508" 
d="M134 0h-141l147 667h151l-69 -308l181 308h151l-147 -667h-151l70 324z" />
    <glyph glyph-name="afii10027" unicode="&#x419;" horiz-adv-x="508" 
d="M134 0h-141l147 667h151l-69 -308l181 308h151l-147 -667h-151l70 324zM495 772q-60 -63 -140 -63q-81 0 -113 63l68 47q16 -35 58 -35t72 35z" />
    <glyph glyph-name="afii10028" unicode="&#x41a;" horiz-adv-x="497" 
d="M445 0h-160l-47 240l-60 -87l-34 -153h-151l147 667h151l-59 -270l175 270h173l-228 -312z" />
    <glyph glyph-name="afii10029" unicode="&#x41b;" horiz-adv-x="508" 
d="M-42 -12l29 134q32 0 55.5 34t56.5 149l104 362h350l-146 -667h-152l117 535h-58l-65 -232q-27 -99 -60 -163.5t-71.5 -96.5t-75 -43.5t-84.5 -11.5z" />
    <glyph glyph-name="afii10030" unicode="&#x41c;" horiz-adv-x="646" 
d="M545 0h-149l80 364l-183 -364h-49l-20 364l-80 -364h-151l147 667h186l17 -312l159 312h190z" />
    <glyph glyph-name="afii10031" unicode="&#x41d;" horiz-adv-x="508" 
d="M407 0h-151l61 277h-112l-61 -277h-151l147 667h151l-57 -258h112l57 258h151z" />
    <glyph glyph-name="afii10032" unicode="&#x41e;" horiz-adv-x="500" 
d="M217 -12q-94 0 -142.5 62t-48.5 161q0 65 17 141t50.5 151.5t93.5 125t135 49.5q93 0 142 -63t49 -162q0 -51 -10 -110t-33.5 -122.5t-56.5 -115t-84 -84.5t-112 -33zM224 122q38 0 71 65.5t48.5 141t15.5 127.5q0 88 -46 88q-29 0 -55.5 -39t-43 -94t-26 -110.5
t-9.5 -92.5q0 -86 45 -86z" />
    <glyph glyph-name="afii10033" unicode="&#x41f;" horiz-adv-x="508" 
d="M407 0h-151l118 535h-112l-118 -535h-151l147 667h414z" />
    <glyph glyph-name="afii10034" unicode="&#x420;" horiz-adv-x="469" 
d="M144 0h-151l147 667h186q78 0 125.5 -50.5t47.5 -127.5q0 -105 -66.5 -180t-188.5 -75h-48zM225 366h32q38 0 61.5 32.5t23.5 74.5q0 29 -14 45.5t-37 16.5h-29z" />
    <glyph glyph-name="afii10035" unicode="&#x421;" horiz-adv-x="448" 
d="M217 -12q-92 0 -141.5 59.5t-49.5 163.5q0 51 9.5 109.5t32.5 123t56 116t84.5 85t113.5 33.5q91 0 133 -61t45 -148l-140 -27q-4 102 -47 102q-39 0 -71.5 -66.5t-47.5 -142t-15 -127.5q0 -86 45 -86q41 0 79 80l121 -49q-74 -165 -207 -165z" />
    <glyph glyph-name="afii10036" unicode="&#x422;" horiz-adv-x="385" 
d="M215 0h-152l118 535h-99l29 132h349l-29 -132h-99z" />
    <glyph glyph-name="afii10037" unicode="&#x423;" horiz-adv-x="460" 
d="M42 -12q-64 0 -99 28l62 124q16 -17 45 -17q35 0 63 49l31 55l-58 440h156l19 -262l131 263l165 -1l-291 -511q-53 -91 -101 -129.5t-123 -38.5z" />
    <glyph glyph-name="afii10038" unicode="&#x424;" horiz-adv-x="691" 
d="M367 0h-151l16 72q-195 35 -195 226q0 69 34.5 133t108.5 112t173 57l15 67h151l-17 -74q195 -35 195 -225q0 -69 -34 -133t-108 -112t-173 -57zM195 298q0 -68 68 -91l58 252q-66 -17 -96 -61t-30 -100zM539 368q0 68 -68 90l-57 -251q65 17 95 61t30 100z" />
    <glyph glyph-name="afii10039" unicode="&#x425;" horiz-adv-x="474" 
d="M424 0h-159l-34 203l-115 -203h-174l233 348l-78 319h160l26 -192l105 192h174l-221 -333z" />
    <glyph glyph-name="afii10040" unicode="&#x426;" horiz-adv-x="520" 
d="M275 -123l27 123h-309l146 667h151l-117 -535h111l118 535h151l-118 -535h48l-57 -255h-151z" />
    <glyph glyph-name="afii10041" unicode="&#x427;" horiz-adv-x="496" 
d="M279 667l-48 -216q-8 -40 4.5 -62.5t45.5 -22.5q21 0 44 5l65 296h152l-147 -667h-152l54 242q-34 -8 -73 -8q-92 0 -128.5 62t-15.5 154l47 217h152z" />
    <glyph glyph-name="afii10042" unicode="&#x428;" horiz-adv-x="734" 
d="M628 667h152l-147 -667h-640l146 667h152l-118 -535h93l118 535h151l-117 -535h93z" />
    <glyph glyph-name="afii10043" unicode="&#x429;" horiz-adv-x="745" 
d="M628 667h152l-118 -535h44l-56 -255h-151l27 123h-533l146 667h152l-118 -535h93l118 535h151l-117 -535h93z" />
    <glyph glyph-name="afii10044" unicode="&#x42a;" horiz-adv-x="539" 
d="M264 0h-201l117 535h-99l29 132h251l-52 -234h35q78 0 125.5 -50.5t47.5 -127.5q0 -105 -66 -180t-187 -75zM311 301h-31l-37 -169h31q40 0 63 33t23 75q0 29 -13.5 45t-35.5 16z" />
    <glyph glyph-name="afii10045" unicode="&#x42b;" horiz-adv-x="688" 
d="M588 0h-152l147 667h151zM139 667h151l-51 -234h35q78 0 125.5 -50.5t47.5 -127.5q0 -105 -66 -180t-187 -75h-201zM241 301h-31l-37 -169h31q39 0 62.5 33t23.5 75q0 29 -13.5 45t-35.5 16z" />
    <glyph glyph-name="afii10046" unicode="&#x42c;" horiz-adv-x="469" 
d="M139 667h151l-51 -234h35q78 0 125.5 -50.5t47.5 -127.5q0 -105 -66 -180t-187 -75h-201zM241 301h-31l-37 -169h31q39 0 62.5 33t23.5 75q0 29 -13.5 45t-35.5 16z" />
    <glyph glyph-name="afii10047" unicode="&#x42d;" horiz-adv-x="448" 
d="M269 678q93 0 142.5 -59.5t49.5 -163.5q0 -65 -17 -140.5t-50 -151t-93 -125.5t-136 -50q-48 0 -83 17.5t-54 46.5t-28 58t-11 61l138 39q4 -88 47 -88q61 0 103 151h-177l29 132h174q4 40 4 53q0 86 -45 86q-41 0 -78 -80l-121 49q72 165 206 165z" />
    <glyph glyph-name="afii10048" unicode="&#x42e;" horiz-adv-x="738" 
d="M455 -12q-95 0 -143.5 62t-48.5 161q0 34 4 66h-61l-61 -277h-152l146 667h152l-56 -258h59q36 116 102.5 192.5t162.5 76.5q94 0 143 -63t49 -162q0 -51 -10 -110t-33.5 -122.5t-56.5 -115t-84 -84.5t-112 -33zM462 122q29 0 55.5 38.5t43 93.5t26 110t9.5 92
q0 88 -46 88q-29 0 -55.5 -39t-42.5 -94t-25.5 -110t-9.5 -93q0 -86 45 -86z" />
    <glyph glyph-name="afii10049" unicode="&#x42f;" horiz-adv-x="485" 
d="M144 0h-170l154 280q-52 48 -52 132q0 105 66.5 180t187.5 75h201l-147 -667h-152l52 234h-24zM284 366h29l37 169h-31q-40 0 -63 -33t-23 -75q0 -29 14 -45t37 -16z" />
    <glyph glyph-name="afii10065" unicode="&#x430;" horiz-adv-x="442" 
d="M208 495q78 0 99 -70l14 58h134l-107 -483h-135l12 55q-43 -67 -103 -67q-112 0 -112 159q0 51 12.5 109t36 112.5t62.5 90.5t87 36zM241 376q-22 0 -41 -24t-29.5 -58.5t-16 -68t-5.5 -58.5q0 -60 44 -60q31 0 54 45l39 178q-3 21 -15.5 33.5t-29.5 12.5z" />
    <glyph glyph-name="afii10066" unicode="&#x431;" horiz-adv-x="433" 
d="M192 107q40 0 65.5 73.5t25.5 130.5q0 65 -43 65q-40 0 -65.5 -74t-25.5 -130q0 -65 43 -65zM184 -12q-83 0 -127 50t-44 137q0 93 47 224q66 186 244 232q48 12 53 36h133q-23 -103 -171 -133q-65 -14 -97.5 -34t-48.5 -59q45 54 114 54q57 0 95 -51.5t38 -135.5
q0 -73 -26.5 -144.5t-82 -123.5t-127.5 -52z" />
    <glyph glyph-name="afii10067" unicode="&#x432;" horiz-adv-x="436" 
d="M223 0h-237l106 483h211q57 0 92 -28t35 -74q1 -47 -28 -86t-84 -49q69 -23 69 -90q1 -62 -40.5 -109t-123.5 -47zM145 107h57q22 0 35 16.5t13 35.5q0 33 -36 33h-50zM187 299h53q21 0 32.5 14.5t11.5 31.5q0 31 -36 31h-44z" />
    <glyph glyph-name="afii10068" unicode="&#x433;" horiz-adv-x="325" 
d="M364 483l-26 -118h-136l-80 -365h-136l106 483h272z" />
    <glyph glyph-name="afii10069" unicode="&#x434;" horiz-adv-x="456" 
d="M-65 -123l48 227q17 4 28 10.5t27.5 36t31.5 82.5l72 250h311l-80 -365h44l-53 -241h-135l27 123h-160l-27 -123h-134zM244 365l-42 -144q-18 -64 -60 -103h95l54 247h-47z" />
    <glyph glyph-name="afii10070" unicode="&#x435;" horiz-adv-x="420" 
d="M191 -12q-84 0 -131 50t-47 140q0 69 25.5 139.5t81 124t128.5 53.5q81 0 120.5 -46t39.5 -126q0 -53 -19 -126h-250q-2 -10 -2 -29q0 -27 18.5 -49t62.5 -22q41 0 82 36l44 -84q-63 -61 -153 -61zM158 290h125q4 17 4 37q0 27 -14 43t-36 16q-33 0 -52.5 -29.5
t-26.5 -66.5z" />
    <glyph glyph-name="afii10072" unicode="&#x436;" horiz-adv-x="576" 
d="M100 0h-154l177 269l-64 214h144l36 -151l33 151h136l-28 -127l87 127h154l-159 -214l59 -269h-142l-24 185l-18 -23l-35 -162h-136l35 158l-5 15z" />
    <glyph glyph-name="afii10073" unicode="&#x437;" horiz-adv-x="391" 
d="M240 495q72 0 113.5 -32.5t41.5 -87.5q0 -53 -35.5 -90t-91.5 -45q34 -6 57 -36t23 -64q0 -69 -59 -110.5t-147 -41.5q-51 0 -96.5 19.5t-69.5 52.5l77 77q31 -40 91 -40q34 0 56.5 14t22.5 40q0 17 -14 28t-41 11h-83l24 108h80q30 0 51 12.5t21 37.5q0 39 -49 39
q-67 0 -117 -47l-48 86q85 69 193 69z" />
    <glyph glyph-name="afii10074" unicode="&#x438;" horiz-adv-x="441" 
d="M116 0h-130l106 483h136l-48 -217l133 217h139l-106 -483h-135l50 231z" />
    <glyph glyph-name="afii10075" unicode="&#x439;" horiz-adv-x="441" 
d="M116 0h-130l106 483h136l-48 -217l133 217h139l-106 -483h-135l50 231zM426 605q-60 -63 -140 -63q-81 0 -113 63l68 47q16 -35 58 -35t72 35z" />
    <glyph glyph-name="afii10076" unicode="&#x43a;" horiz-adv-x="424" 
d="M370 0h-146l-23 182l-56 -75l-23 -107h-136l107 483h136l-43 -194l132 194h152l-159 -214z" />
    <glyph glyph-name="afii10077" unicode="&#x43b;" horiz-adv-x="441" 
d="M-42 -12l25 116q24 0 44 24.5t43 104.5l72 250h311l-106 -483h-136l80 365h-47l-42 -144q-38 -135 -93 -184t-151 -49z" />
    <glyph glyph-name="afii10078" unicode="&#x43c;" horiz-adv-x="556" 
d="M462 0h-133l53 245l-133 -245h-50l-24 245l-53 -245h-136l106 483h164l22 -227l126 227h164z" />
    <glyph glyph-name="afii10079" unicode="&#x43d;" horiz-adv-x="441" 
d="M122 0h-136l107 483h136l-39 -172h89l38 172h136l-107 -483h-135l42 193h-88z" />
    <glyph glyph-name="afii10080" unicode="&#x43e;" 
d="M184 -12q-83 0 -127 50t-44 137q0 73 26 145t81.5 123.5t126.5 51.5q85 0 129 -50t44 -137q0 -73 -26.5 -144.5t-82 -123.5t-127.5 -52zM192 107q40 0 65.5 73.5t25.5 130.5q0 65 -43 65q-40 0 -65.5 -74t-25.5 -130q0 -65 43 -65z" />
    <glyph glyph-name="afii10081" unicode="&#x43f;" horiz-adv-x="441" 
d="M346 0h-135l80 365h-90l-80 -365h-135l106 483h360z" />
    <glyph glyph-name="afii10082" unicode="&#x440;" horiz-adv-x="442" 
d="M234 -12q-78 0 -100 71l-53 -243h-135l147 667h136l-13 -55q45 67 103 67q112 0 112 -159q0 -51 -12.5 -109t-35.5 -112.5t-62 -90.5t-87 -36zM200 107q42 0 66.5 73.5t24.5 135.5q0 60 -44 60q-29 0 -52 -45l-40 -178q4 -21 16 -33.5t29 -12.5z" />
    <glyph glyph-name="afii10083" unicode="&#x441;" horiz-adv-x="358" 
d="M190 -12q-82 0 -129.5 49t-47.5 139q0 77 28 149t84 121t127 49q87 0 134 -50l-62 -101q-19 32 -60 32q-47 0 -79.5 -59t-32.5 -125q0 -42 19 -63.5t52 -21.5q32 0 57 25l19 -107q-45 -37 -109 -37z" />
    <glyph glyph-name="afii10084" unicode="&#x442;" horiz-adv-x="315" 
d="M172 0h-136l80 365h-76l25 118h289l-26 -118h-76z" />
    <glyph glyph-name="afii10085" unicode="&#x443;" horiz-adv-x="408" 
d="M-51 -182l44 111q6 -6 23 -6q22 0 39 30l22 42l-26 488h139l-7 -312l134 312h146l-279 -558q-36 -70 -70.5 -95.5t-84.5 -25.5q-48 0 -80 14z" />
    <glyph glyph-name="afii10086" unicode="&#x444;" horiz-adv-x="650" 
d="M204 495q31 0 56.5 -17.5t35.5 -52.5l53 242h136l-53 -240q44 68 102 68q52 0 78.5 -42t26.5 -112q0 -67 -20.5 -145.5t-67.5 -143t-108 -64.5q-31 0 -56.5 17.5t-35.5 52.5l-53 -242h-136l53 240q-44 -68 -101 -68q-53 0 -79 42t-26 112q0 48 12.5 106.5t35.5 115t62 94
t85 37.5zM240 376q-39 0 -65.5 -72.5t-26.5 -137.5q0 -59 38 -59q27 0 51 45l38 176q-7 48 -35 48zM407 107q27 0 49 38t32.5 85.5t10.5 86.5q0 59 -37 59q-28 0 -51 -45l-38 -176q5 -48 34 -48z" />
    <glyph glyph-name="afii10087" unicode="&#x445;" horiz-adv-x="395" 
d="M342 0h-141l-22 144l-87 -144h-147l167 243l-55 240h138l20 -141l82 141h146l-163 -240z" />
    <glyph glyph-name="afii10088" unicode="&#x446;" horiz-adv-x="456" 
d="M229 -123l27 123h-269l105 483h136l-80 -365h89l80 365h136l-80 -365h44l-52 -241h-136z" />
    <glyph glyph-name="afii10089" unicode="&#x447;" horiz-adv-x="437" 
d="M88 483h136l-38 -171q-9 -42 30 -42q29 0 53 13l44 200h136l-106 -483h-136l39 180q-43 -29 -106 -29q-125 0 -100 112z" />
    <glyph glyph-name="afii10090" unicode="&#x448;" horiz-adv-x="644" 
d="M520 483h136l-106 -483h-563l105 483h136l-80 -365h78l80 365h136l-80 -365h78z" />
    <glyph glyph-name="afii10091" unicode="&#x449;" horiz-adv-x="659" 
d="M520 483h136l-81 -365h45l-53 -241h-135l27 123h-472l105 483h136l-80 -365h78l80 365h136l-80 -365h78z" />
    <glyph glyph-name="afii10092" unicode="&#x44a;" horiz-adv-x="477" 
d="M247 0h-211l80 365h-76l25 118h213l-36 -162h39q73 0 117 -36.5t44 -97.5q0 -73 -52 -130t-143 -57zM259 214h-40l-24 -107h50q25 0 40 20.5t15 46.5q0 19 -11 29.5t-30 10.5z" />
    <glyph glyph-name="afii10093" unicode="&#x44b;" horiz-adv-x="629" 
d="M535 0h-136l106 483h136zM92 483h136l-36 -162h39q73 0 117 -36.5t44 -97.5q0 -73 -52 -130t-143 -57h-211zM209 214h-40l-24 -107h50q25 0 40 20.5t15 46.5q0 40 -41 40z" />
    <glyph glyph-name="afii10094" unicode="&#x44c;" horiz-adv-x="427" 
d="M92 483h136l-36 -162h39q73 0 117 -36.5t44 -97.5q0 -73 -52 -130t-143 -57h-211zM209 214h-40l-24 -107h50q25 0 40 20.5t15 46.5q0 40 -41 40z" />
    <glyph glyph-name="afii10095" unicode="&#x44d;" horiz-adv-x="358" 
d="M167 495q82 0 129.5 -49t47.5 -139q0 -78 -28 -149.5t-84 -120.5t-128 -49q-86 0 -133 50l57 90q20 -30 60 -30q69 0 102 96h-130l21 99h124q-1 42 -21.5 67.5t-51.5 25.5q-30 0 -57 -22l-18 100q45 31 110 31z" />
    <glyph glyph-name="afii10096" unicode="&#x44e;" horiz-adv-x="638" 
d="M388 -12q-83 0 -127 50t-44 137v18h-53l-42 -193h-135l105 483h136l-38 -172h51q28 80 82 132t128 52q84 0 128.5 -50t44.5 -137q0 -73 -26.5 -144.5t-82.5 -123.5t-127 -52zM396 107q40 0 65.5 73.5t25.5 130.5q0 65 -43 65q-40 0 -65.5 -74t-25.5 -130q0 -65 43 -65z
" />
    <glyph glyph-name="afii10097" unicode="&#x44f;" horiz-adv-x="441" 
d="M118 0h-151l122 196q-47 37 -47 100q0 73 52.5 130t142.5 57h216l-106 -483h-136l36 163h-42zM226 270h44l23 106h-53q-26 0 -41 -20.5t-15 -46.5q0 -39 42 -39z" />
    <glyph glyph-name="afii10071" unicode="&#x451;" horiz-adv-x="420" 
d="M459 620q0 -31 -24.5 -55t-55.5 -24q-27 0 -45 18t-18 45q0 31 24 55t56 24q27 0 45 -18t18 -45zM285 620q0 -31 -24 -55t-56 -24q-27 0 -44.5 18t-17.5 45q0 31 24 55t55 24q27 0 45 -18t18 -45zM191 -12q-84 0 -131 50t-47 140q0 69 25.5 139.5t81 124t128.5 53.5
q81 0 120.5 -46t39.5 -126q0 -53 -19 -126h-250q-2 -10 -2 -29q0 -27 18.5 -49t62.5 -22q41 0 82 36l44 -84q-63 -61 -153 -61zM158 290h125q4 17 4 37q0 27 -14 43t-36 16q-33 0 -52.5 -29.5t-26.5 -66.5z" />
    <glyph glyph-name="afii10099" unicode="&#x452;" horiz-adv-x="451" 
d="M365 527h-117l-23 -104q21 28 60 50t72 22q109 0 84 -111l-90 -411q-37 -169 -186 -169q-43 0 -64 20l49 106q7 -11 22 -11q32 0 43 54l80 359q9 44 -24 44q-35 0 -69 -55l-70 -321h-135l115 527h-35l16 77h36l14 63h136l-14 -63h117z" />
    <glyph glyph-name="afii10100" unicode="&#x453;" horiz-adv-x="325" 
d="M430 700l-141 -144h-86l112 144h115zM364 483l-26 -118h-136l-80 -365h-136l106 483h272z" />
    <glyph glyph-name="afii10101" unicode="&#x454;" horiz-adv-x="358" 
d="M190 -12q-82 0 -129.5 49t-47.5 139q0 77 28 149t84 121t127 49q87 0 134 -50l-57 -90q-22 31 -60 31q-68 0 -101 -93h130l-22 -99h-124v-2q0 -43 20 -68.5t53 -25.5q31 0 57 21l18 -100q-45 -31 -110 -31z" />
    <glyph glyph-name="afii10102" unicode="&#x455;" horiz-adv-x="364" 
d="M144 -12q-56 0 -104 22t-68 52l72 87q39 -55 100 -55q23 0 38 13t15 31q0 17 -24 34.5t-52.5 32.5t-52.5 47t-24 74q0 70 46.5 119.5t130.5 49.5q45 0 88 -18.5t72 -50.5l-69 -85q-11 17 -38 32.5t-54 15.5q-21 0 -33.5 -10.5t-12.5 -28.5q0 -12 16.5 -24.5t39.5 -25.5
t46 -30t39.5 -45t16.5 -63q0 -71 -52 -122.5t-136 -51.5z" />
    <glyph glyph-name="afii10103" unicode="&#x456;" horiz-adv-x="216" 
d="M179 532q-31 0 -51.5 20t-20.5 48q0 41 29 66.5t62 25.5q31 0 51.5 -20t20.5 -49q0 -41 -28.5 -66t-62.5 -25zM122 0h-136l107 483h136z" />
    <glyph glyph-name="afii10104" unicode="&#x457;" horiz-adv-x="216" 
d="M347 620q0 -31 -24.5 -55t-55.5 -24q-27 0 -45 18t-18 45q0 31 24 55t56 24q27 0 45 -18t18 -45zM173 620q0 -31 -24 -55t-56 -24q-27 0 -44.5 18t-17.5 45q0 31 24 55t55 24q27 0 45 -18t18 -45zM122 0h-136l107 483h136z" />
    <glyph glyph-name="afii10105" unicode="&#x458;" horiz-adv-x="216" 
d="M-54 -196q-55 0 -79 25l48 101q6 -11 23 -11q30 0 42 54l113 510h136l-114 -510q-19 -87 -56.5 -128t-112.5 -41zM179 532q-31 0 -51.5 20t-20.5 48q0 41 29 66.5t62 25.5q31 0 51.5 -20t20.5 -49q0 -41 -28.5 -66t-62.5 -25z" />
    <glyph glyph-name="afii10106" unicode="&#x459;" horiz-adv-x="653" 
d="M-42 -12l25 116q24 0 44 24.5t43 104.5l72 250h311l-37 -166h52q90 0 126.5 -44.5t20.5 -114.5q-15 -68 -71 -113t-145 -45h-188l80 365h-47l-42 -144q-38 -135 -93 -184t-151 -49zM432 210h-40l-22 -103h39q57 0 69 51q5 23 -7 37.5t-39 14.5z" />
    <glyph glyph-name="afii10107" unicode="&#x45a;" horiz-adv-x="638" 
d="M122 0h-136l106 483h136l-38 -172h89l38 172h136l-38 -172h50q83 0 121.5 -40t29.5 -104q-10 -70 -65.5 -118.5t-144.5 -48.5h-195l42 193h-89zM437 196h-48l-19 -89h52q23 0 37 15.5t16 36.5q2 17 -8 27t-30 10z" />
    <glyph glyph-name="afii10108" unicode="&#x45b;" horiz-adv-x="447" 
d="M353 0h-136l73 330q3 6 3 17q0 29 -27 29q-34 0 -68 -56l-70 -320h-136l116 528h-36l17 77h36l14 62h136l-14 -62h117l-17 -77h-117l-23 -104q22 30 55 50.5t69 20.5q45 0 70 -23.5t25 -61.5q0 -8 -4 -28z" />
    <glyph glyph-name="afii10109" unicode="&#x45c;" horiz-adv-x="424" 
d="M468 700l-141 -144h-86l112 144h115zM370 0h-146l-23 182l-56 -75l-23 -107h-136l107 483h136l-43 -194l132 194h152l-159 -214z" />
    <glyph glyph-name="afii10110" unicode="&#x45e;" horiz-adv-x="408" 
d="M-51 -182l44 111q6 -6 23 -6q22 0 39 30l22 42l-26 488h139l-7 -312l134 312h146l-279 -558q-36 -70 -70.5 -95.5t-84.5 -25.5q-48 0 -80 14zM406 605q-60 -63 -140 -63q-81 0 -113 63l68 47q16 -35 58 -35t72 35z" />
    <glyph glyph-name="afii10193" unicode="&#x45f;" horiz-adv-x="441" 
d="M71 -124l27 124h-111l105 483h136l-80 -365h89l80 365h136l-106 -483h-113l-27 -124h-136z" />
    <glyph glyph-name="afii10050" unicode="&#x490;" horiz-adv-x="388" 
d="M144 0h-151l146 667h162l28 125h152l-57 -257h-163z" />
    <glyph glyph-name="afii10098" unicode="&#x491;" horiz-adv-x="325" 
d="M202 365l-80 -365h-136l106 483h136l27 124h136l-53 -242h-136z" />
    <glyph glyph-name="uni1E02" unicode="&#x1e02;" horiz-adv-x="477" 
d="M248 0h-255l147 667h190q80 0 124.5 -42.5t44.5 -105.5q0 -68 -39.5 -123.5t-101.5 -63.5q40 -11 61 -45.5t21 -77.5q0 -82 -49.5 -145.5t-142.5 -63.5zM272 405q29 0 48 25.5t19 56.5q0 48 -55 48h-22l-28 -130h38zM215 132q32 0 52.5 26t20.5 64q0 51 -51 51h-33
l-31 -141h42zM434 787q0 -31 -24.5 -55t-56.5 -24q-27 0 -45 18.5t-18 45.5q0 31 24.5 54.5t56.5 23.5q27 0 45 -18t18 -45z" />
    <glyph glyph-name="uni1E03" unicode="&#x1e03;" horiz-adv-x="442" 
d="M234 -12q-78 0 -100 71l-12 -59h-135l146 667h136l-53 -239q45 67 103 67q112 0 112 -159q0 -51 -12.5 -109t-35.5 -112.5t-62 -90.5t-87 -36zM200 107q42 0 66.5 73.5t24.5 135.5q0 60 -44 60q-29 0 -52 -45l-40 -178q4 -21 16 -33.5t29 -12.5zM419 787q0 -31 -24.5 -55
t-56.5 -24q-27 0 -45 18.5t-18 45.5q0 31 24.5 54.5t56.5 23.5q27 0 45 -18t18 -45z" />
    <glyph glyph-name="uni1E0A" unicode="&#x1e0a;" horiz-adv-x="500" 
d="M180 0h-187l147 667h181q76 0 130.5 -60t54.5 -166q0 -48 -9 -102t-33 -115.5t-59 -110t-94 -81t-131 -32.5zM201 132h5q37 0 67 36t46 88t24.5 100.5t8.5 82.5q0 48 -16.5 72t-41.5 24h-32l-89 -403h28zM449 787q0 -31 -24.5 -55t-56.5 -24q-27 0 -45 18.5t-18 45.5
q0 31 24.5 54.5t56.5 23.5q27 0 45 -18t18 -45z" />
    <glyph glyph-name="uni1E0B" unicode="&#x1e0b;" horiz-adv-x="442" 
d="M208 495q78 0 99 -70l54 242h134l-147 -667h-135l12 55q-43 -67 -103 -67q-112 0 -112 159q0 51 12.5 109t36 112.5t62.5 90.5t87 36zM241 376q-22 0 -41 -24t-29.5 -58.5t-16 -68t-5.5 -58.5q0 -60 44 -60q31 0 54 45l39 178q-3 21 -15.5 33.5t-29.5 12.5zM409 787
q0 -31 -24.5 -55t-56.5 -24q-27 0 -45 18.5t-18 45.5q0 31 24.5 54.5t56.5 23.5q27 0 45 -18t18 -45z" />
    <glyph glyph-name="uni1E1E" unicode="&#x1e1e;" horiz-adv-x="388" 
d="M394 787q0 -31 -24.5 -55t-56.5 -24q-27 0 -45 18.5t-18 45.5q0 31 24.5 54.5t56.5 23.5q27 0 45 -18t18 -45zM144 0h-151l147 667h314l-30 -132h-162l-28 -130h155l-29 -132h-156z" />
    <glyph glyph-name="uni1E1F" unicode="&#x1e1f;" horiz-adv-x="262" 
d="M368 787q0 -31 -24.5 -55t-56.5 -24q-27 0 -45 18.5t-18 45.5q0 31 24.5 54.5t56.5 23.5q27 0 45 -18t18 -45zM138 0h-135l81 365h-44l27 118h43l7 34q33 160 159 160q72 0 104 -30l-52 -100q-14 15 -30 15q-37 0 -46 -45l-7 -34h59l-27 -118h-58z" />
    <glyph glyph-name="uni1E22" unicode="&#x1e22;" horiz-adv-x="508" 
d="M407 0h-151l61 277h-112l-61 -277h-151l147 667h151l-57 -258h112l57 258h151zM446 787q0 -31 -24.5 -55t-56.5 -24q-27 0 -45 18.5t-18 45.5q0 31 24.5 54.5t56.5 23.5q27 0 45 -18t18 -45z" />
    <glyph glyph-name="uni1E23" unicode="&#x1e23;" horiz-adv-x="441" 
d="M347 0h-136l73 330q3 6 3 17q0 29 -27 29q-34 0 -68 -56l-70 -320h-136l147 667h136l-54 -243q22 30 55 50.5t69 20.5q45 0 70 -23.5t25 -61.5q0 -8 -4 -28zM413 787q0 -31 -24.5 -55t-56.5 -24q-27 0 -45 18.5t-18 45.5q0 31 24.5 54.5t56.5 23.5q27 0 45 -18t18 -45z
" />
    <glyph glyph-name="uni1E56" unicode="&#x1e56;" horiz-adv-x="469" 
d="M144 0h-151l147 667h186q78 0 125.5 -50.5t47.5 -127.5q0 -105 -66.5 -180t-188.5 -75h-48zM225 366h32q38 0 61.5 32.5t23.5 74.5q0 29 -14 45.5t-37 16.5h-29zM435 787q0 -31 -24.5 -55t-56.5 -24q-27 0 -45 18.5t-18 45.5q0 31 24.5 54.5t56.5 23.5q27 0 45 -18
t18 -45z" />
    <glyph glyph-name="uni1E57" unicode="&#x1e57;" horiz-adv-x="442" 
d="M234 -12q-78 0 -100 71l-53 -243h-135l147 667h136l-13 -55q45 67 103 67q112 0 112 -159q0 -51 -12.5 -109t-35.5 -112.5t-62 -90.5t-87 -36zM200 107q42 0 66.5 73.5t24.5 135.5q0 60 -44 60q-29 0 -52 -45l-40 -178q4 -21 16 -33.5t29 -12.5zM384 620q0 -31 -24.5 -55
t-56.5 -24q-27 0 -45 18.5t-18 45.5q0 31 24.5 54.5t56.5 23.5q27 0 45 -18t18 -45z" />
    <glyph glyph-name="uni1E60" unicode="&#x1e60;" horiz-adv-x="416" 
d="M165 -12q-60 0 -111.5 22t-78.5 58l85 112q17 -26 46.5 -42t58.5 -16q27 0 45.5 19.5t18.5 51.5q0 19 -16.5 40t-39.5 41.5t-46 44t-39.5 58t-16.5 74.5q0 94 64.5 160.5t157.5 66.5q48 0 94 -18t75 -50l-79 -113q-36 47 -92 47q-27 0 -43 -18.5t-16 -44.5q0 -20 16 -41
t39 -41.5t45.5 -44.5t38.5 -58.5t16 -74.5q0 -96 -62.5 -164.5t-159.5 -68.5zM401 787q0 -31 -24.5 -55t-56.5 -24q-27 0 -45 18.5t-18 45.5q0 31 24.5 54.5t56.5 23.5q27 0 45 -18t18 -45z" />
    <glyph glyph-name="uni1E61" unicode="&#x1e61;" horiz-adv-x="364" 
d="M144 -12q-56 0 -104 22t-68 52l72 87q39 -55 100 -55q23 0 38 13t15 31q0 17 -24 34.5t-52.5 32.5t-52.5 47t-24 74q0 70 46.5 119.5t130.5 49.5q45 0 88 -18.5t72 -50.5l-69 -85q-11 17 -38 32.5t-54 15.5q-21 0 -33.5 -10.5t-12.5 -28.5q0 -12 16.5 -24.5t39.5 -25.5
t46 -30t39.5 -45t16.5 -63q0 -71 -52 -122.5t-136 -51.5zM338 620q0 -31 -24.5 -55t-56.5 -24q-27 0 -45 18.5t-18 45.5q0 31 24.5 54.5t56.5 23.5q27 0 45 -18t18 -45z" />
    <glyph glyph-name="uni1E6A" unicode="&#x1e6a;" horiz-adv-x="385" 
d="M215 0h-152l118 535h-99l29 132h349l-29 -132h-99zM383 787q0 -31 -24.5 -55t-56.5 -24q-27 0 -45 18.5t-18 45.5q0 31 24.5 54.5t56.5 23.5q27 0 45 -18t18 -45z" />
    <glyph glyph-name="uni1E6B" unicode="&#x1e6b;" horiz-adv-x="270" 
d="M151 -12q-127 0 -127 94q0 23 6 46l54 237h-44l26 118h44l29 132h135l-29 -132h59l-27 -118h-58l-47 -211q-3 -10 -3 -22q0 -25 25 -25q9 0 21 7l-1 -112q-23 -14 -63 -14zM315 787q0 -31 -24.5 -55t-56.5 -24q-27 0 -45 18.5t-18 45.5q0 31 24.5 54.5t56.5 23.5
q27 0 45 -18t18 -45z" />
    <glyph glyph-name="Wgrave" unicode="&#x1e80;" horiz-adv-x="650" 
d="M470 0h-151l38 388l-134 -388h-151l29 667h151l-42 -404l147 404h117l-30 -404l136 404h156zM474 723h-84l-77 144h114z" />
    <glyph glyph-name="wgrave" unicode="&#x1e81;" horiz-adv-x="641" 
d="M472 0h-142l2 299l-129 -299h-142l-7 483h136l-12 -301l124 301h127l-4 -301l124 301h144zM428 556h-84l-77 144h114z" />
    <glyph glyph-name="Wacute" unicode="&#x1e82;" horiz-adv-x="650" 
d="M604 867l-141 -144h-86l112 144h115zM470 0h-151l38 388l-134 -388h-151l29 667h151l-42 -404l147 404h117l-30 -404l136 404h156z" />
    <glyph glyph-name="wacute" unicode="&#x1e83;" horiz-adv-x="641" 
d="M558 700l-141 -144h-86l112 144h115zM472 0h-142l2 299l-129 -299h-142l-7 483h136l-12 -301l124 301h127l-4 -301l124 301h144z" />
    <glyph glyph-name="Wdieresis" unicode="&#x1e84;" horiz-adv-x="650" 
d="M598 787q0 -31 -24.5 -55t-55.5 -24q-27 0 -45 18t-18 45q0 31 24 55t56 24q27 0 45 -18t18 -45zM424 787q0 -31 -24 -55t-56 -24q-27 0 -44.5 18t-17.5 45q0 31 24 55t55 24q27 0 45 -18t18 -45zM470 0h-151l38 388l-134 -388h-151l29 667h151l-42 -404l147 404h117
l-30 -404l136 404h156z" />
    <glyph glyph-name="wdieresis" unicode="&#x1e85;" horiz-adv-x="641" 
d="M552 620q0 -31 -24.5 -55t-55.5 -24q-27 0 -45 18t-18 45q0 31 24 55t56 24q27 0 45 -18t18 -45zM378 620q0 -31 -24 -55t-56 -24q-27 0 -44.5 18t-17.5 45q0 31 24 55t55 24q27 0 45 -18t18 -45zM472 0h-142l2 299l-129 -299h-142l-7 483h136l-12 -301l124 301h127
l-4 -301l124 301h144z" />
    <glyph glyph-name="uni1EA0" unicode="&#x1ea0;" horiz-adv-x="454" 
d="M403 0h-152l7 108h-116l-40 -108h-159l290 667h174zM270 240l17 261l-97 -261h80zM218 -119q0 -31 -24.5 -55t-56.5 -24q-27 0 -45 18.5t-18 45.5q0 31 24.5 54.5t56.5 23.5q27 0 45 -18t18 -45z" />
    <glyph glyph-name="uni1EA1" unicode="&#x1ea1;" horiz-adv-x="442" 
d="M208 495q78 0 99 -70l14 58h134l-107 -483h-135l12 55q-43 -67 -103 -67q-112 0 -112 159q0 51 12.5 109t36 112.5t62.5 90.5t87 36zM241 376q-22 0 -41 -24t-29.5 -58.5t-16 -68t-5.5 -58.5q0 -60 44 -60q31 0 54 45l39 178q-3 21 -15.5 33.5t-29.5 12.5zM208 -119
q0 -31 -24.5 -55t-56.5 -24q-27 0 -45 18.5t-18 45.5q0 31 24.5 54.5t56.5 23.5q27 0 45 -18t18 -45z" />
    <glyph glyph-name="uni1EA2" unicode="&#x1ea2;" horiz-adv-x="454" 
d="M403 0h-152l7 108h-116l-40 -108h-159l290 667h174zM270 240l17 261l-97 -261h80zM320 757l-44 12q22 51 69 51q60 0 60 -56q0 -37 -26 -67h-53q25 29 28 55q5 24 -13 24q-13 0 -21 -19z" />
    <glyph glyph-name="uni1EA3" unicode="&#x1ea3;" horiz-adv-x="442" 
d="M208 495q78 0 99 -70l14 58h134l-107 -483h-135l12 55q-43 -67 -103 -67q-112 0 -112 159q0 51 12.5 109t36 112.5t62.5 90.5t87 36zM241 376q-22 0 -41 -24t-29.5 -58.5t-16 -68t-5.5 -58.5q0 -60 44 -60q31 0 54 45l39 178q-3 21 -15.5 33.5t-29.5 12.5zM275 587
l-44 12q22 51 69 51q60 0 60 -56q0 -37 -26 -67h-53q25 29 28 55q5 24 -13 24q-13 0 -21 -19z" />
    <glyph glyph-name="uni1EA4" unicode="&#x1ea4;" horiz-adv-x="454" 
d="M440 682h-71l-32 64l-66 -64h-76l93 108h120zM403 0h-152l7 108h-116l-40 -108h-159l290 667h174zM270 240l17 261l-97 -261h80zM656 843l-141 -108h-86l112 108h115z" />
    <glyph glyph-name="uni1EA5" unicode="&#x1ea5;" horiz-adv-x="442" 
d="M208 495q78 0 99 -70l14 58h134l-107 -483h-135l12 55q-43 -67 -103 -67q-112 0 -112 159q0 51 12.5 109t36 112.5t62.5 90.5t87 36zM241 376q-22 0 -41 -24t-29.5 -58.5t-16 -68t-5.5 -58.5q0 -60 44 -60q31 0 54 45l39 178q-3 21 -15.5 33.5t-29.5 12.5zM409 556h-71
l-32 86l-66 -86h-76l93 144h120zM626 770l-141 -144h-86l112 144h115z" />
    <glyph glyph-name="uni1EA6" unicode="&#x1ea6;" horiz-adv-x="454" 
d="M440 682h-71l-32 64l-66 -64h-76l93 108h120zM403 0h-152l7 108h-116l-40 -108h-159l290 667h174zM270 240l17 261l-97 -261h80zM234 735h-84l-77 108h114z" />
    <glyph glyph-name="uni1EA7" unicode="&#x1ea7;" horiz-adv-x="442" 
d="M208 495q78 0 99 -70l14 58h134l-107 -483h-135l12 55q-43 -67 -103 -67q-112 0 -112 159q0 51 12.5 109t36 112.5t62.5 90.5t87 36zM241 376q-22 0 -41 -24t-29.5 -58.5t-16 -68t-5.5 -58.5q0 -60 44 -60q31 0 54 45l39 178q-3 21 -15.5 33.5t-29.5 12.5zM409 556h-71
l-32 86l-66 -86h-76l93 144h120zM203 626h-84l-77 144h114z" />
    <glyph glyph-name="uni1EA8" unicode="&#x1ea8;" horiz-adv-x="454" 
d="M440 682h-71l-32 64l-66 -64h-76l93 108h120zM403 0h-152l7 108h-116l-40 -108h-159l290 667h174zM270 240l17 261l-97 -261h80zM426 801l-44 9q21 38 69 38q60 0 60 -42q0 -26 -26 -50h-53q25 22 28 41q4 18 -13 18q-13 0 -21 -14z" />
    <glyph glyph-name="uni1EA9" unicode="&#x1ea9;" horiz-adv-x="442" 
d="M208 495q78 0 99 -70l14 58h134l-107 -483h-135l12 55q-43 -67 -103 -67q-112 0 -112 159q0 51 12.5 109t36 112.5t62.5 90.5t87 36zM241 376q-22 0 -41 -24t-29.5 -58.5t-16 -68t-5.5 -58.5q0 -60 44 -60q31 0 54 45l39 178q-3 21 -15.5 33.5t-29.5 12.5zM409 556h-71
l-32 86l-66 -86h-76l93 144h120zM393 727l-44 12q22 51 69 51q60 0 60 -56q0 -37 -26 -67h-53q25 29 28 55q5 24 -13 24q-13 0 -21 -19z" />
    <glyph glyph-name="uni1EAA" unicode="&#x1eaa;" horiz-adv-x="454" 
d="M436 679h-71l-32 43l-66 -43h-76l93 72h120zM403 0h-152l7 108h-116l-40 -108h-159l290 667h174zM270 240l17 261l-97 -261h80zM387 758q-34 0 -52 16t-32 16q-21 0 -34 -29h-70q31 67 110 67q33 0 52 -16t33 -16q21 0 34 29h70q-28 -67 -111 -67z" />
    <glyph glyph-name="uni1EAB" unicode="&#x1eab;" horiz-adv-x="442" 
d="M208 495q78 0 99 -70l14 58h134l-107 -483h-135l12 55q-43 -67 -103 -67q-112 0 -112 159q0 51 12.5 109t36 112.5t62.5 90.5t87 36zM241 376q-22 0 -41 -24t-29.5 -58.5t-16 -68t-5.5 -58.5q0 -60 44 -60q31 0 54 45l39 178q-3 21 -15.5 33.5t-29.5 12.5zM402 523h-71
l-32 86l-66 -86h-76l93 144h120zM369 682q-21 0 -34 10t-18 22t-13 22t-19 10q-21 0 -34 -58h-70q31 134 110 134q20 0 33.5 -10t18.5 -22t13.5 -22t19.5 -10q21 0 34 58h70q-13 -62 -41.5 -98t-69.5 -36z" />
    <glyph glyph-name="uni1EAC" unicode="&#x1eac;" horiz-adv-x="454" 
d="M403 0h-152l7 108h-116l-40 -108h-159l290 667h174zM270 240l17 261l-97 -261h80zM454 723h-71l-32 86l-66 -86h-76l93 144h120zM218 -119q0 -31 -24.5 -55t-56.5 -24q-27 0 -45 18.5t-18 45.5q0 31 24.5 54.5t56.5 23.5q27 0 45 -18t18 -45z" />
    <glyph glyph-name="uni1EAD" unicode="&#x1ead;" horiz-adv-x="442" 
d="M208 495q78 0 99 -70l14 58h134l-107 -483h-135l12 55q-43 -67 -103 -67q-112 0 -112 159q0 51 12.5 109t36 112.5t62.5 90.5t87 36zM241 376q-22 0 -41 -24t-29.5 -58.5t-16 -68t-5.5 -58.5q0 -60 44 -60q31 0 54 45l39 178q-3 21 -15.5 33.5t-29.5 12.5zM409 556h-71
l-32 86l-66 -86h-76l93 144h120zM208 -119q0 -31 -24.5 -55t-56.5 -24q-27 0 -45 18.5t-18 45.5q0 31 24.5 54.5t56.5 23.5q27 0 45 -18t18 -45z" />
    <glyph glyph-name="uni1EAE" unicode="&#x1eae;" horiz-adv-x="454" 
d="M403 0h-152l7 108h-116l-40 -108h-159l290 667h174zM270 240l17 261l-97 -261h80zM506 831l-141 -82h-86l112 82h115zM458 719q-61 -41 -140 -41q-80 0 -113 41l68 30q16 -22 58 -22t72 22z" />
    <glyph glyph-name="uni1EAF" unicode="&#x1eaf;" horiz-adv-x="442" 
d="M208 495q78 0 99 -70l14 58h134l-107 -483h-135l12 55q-43 -67 -103 -67q-112 0 -112 159q0 51 12.5 109t36 112.5t62.5 90.5t87 36zM241 376q-22 0 -41 -24t-29.5 -58.5t-16 -68t-5.5 -58.5q0 -60 44 -60q31 0 54 45l39 178q-3 21 -15.5 33.5t-29.5 12.5zM475 779
l-141 -144h-86l112 144h115zM417 577q-60 -63 -140 -63q-81 0 -113 63l68 47q16 -35 58 -35t72 35z" />
    <glyph glyph-name="uni1EB0" unicode="&#x1eb0;" horiz-adv-x="454" 
d="M403 0h-152l7 108h-116l-40 -108h-159l290 667h174zM270 240l17 261l-97 -261h80zM387 749h-84l-77 82h114zM456 719q-61 -41 -140 -41q-80 0 -113 41l68 30q16 -22 58 -22t72 22z" />
    <glyph glyph-name="uni1EB1" unicode="&#x1eb1;" horiz-adv-x="442" 
d="M208 495q78 0 99 -70l14 58h134l-107 -483h-135l12 55q-43 -67 -103 -67q-112 0 -112 159q0 51 12.5 109t36 112.5t62.5 90.5t87 36zM241 376q-22 0 -41 -24t-29.5 -58.5t-16 -68t-5.5 -58.5q0 -60 44 -60q31 0 54 45l39 178q-3 21 -15.5 33.5t-29.5 12.5zM353 637h-84
l-77 144h114zM417 577q-60 -63 -140 -63q-81 0 -113 63l68 47q16 -35 58 -35t72 35z" />
    <glyph glyph-name="uni1EB2" unicode="&#x1eb2;" horiz-adv-x="454" 
d="M403 0h-152l7 108h-116l-40 -108h-159l290 667h174zM270 240l17 261l-97 -261h80zM327 783l-44 7q22 29 69 29q60 0 60 -32q0 -22 -26 -39h-53q25 17 28 32q5 14 -13 14q-13 0 -21 -11zM456 719q-61 -41 -140 -41q-80 0 -113 41l68 30q16 -22 58 -22t72 22z" />
    <glyph glyph-name="uni1EB3" unicode="&#x1eb3;" horiz-adv-x="442" 
d="M208 495q78 0 99 -70l14 58h134l-107 -483h-135l12 55q-43 -67 -103 -67q-112 0 -112 159q0 51 12.5 109t36 112.5t62.5 90.5t87 36zM241 376q-22 0 -41 -24t-29.5 -58.5t-16 -68t-5.5 -58.5q0 -60 44 -60q31 0 54 45l39 178q-3 21 -15.5 33.5t-29.5 12.5zM298 698
l-44 12q22 51 69 51q60 0 60 -56q0 -37 -26 -67h-53q25 29 28 55q5 24 -13 24q-13 0 -21 -19zM417 577q-60 -63 -140 -63q-81 0 -113 63l68 47q16 -35 58 -35t72 35z" />
    <glyph glyph-name="uni1EB4" unicode="&#x1eb4;" horiz-adv-x="454" 
d="M403 0h-152l7 108h-116l-40 -108h-159l290 667h174zM270 240l17 261l-97 -261h80zM457 716q-60 -37 -140 -37q-81 0 -113 37l68 27q15 -20 58 -20t72 20zM387 757q-34 0 -52 16t-32 16q-21 0 -34 -29h-70q31 67 110 67q33 0 52 -16t33 -16q21 0 34 29h70
q-28 -67 -111 -67z" />
    <glyph glyph-name="uni1EB5" unicode="&#x1eb5;" horiz-adv-x="442" 
d="M208 495q78 0 99 -70l14 58h134l-107 -483h-135l12 55q-43 -67 -103 -67q-112 0 -112 159q0 51 12.5 109t36 112.5t62.5 90.5t87 36zM241 376q-22 0 -41 -24t-29.5 -58.5t-16 -68t-5.5 -58.5q0 -60 44 -60q31 0 54 45l39 178q-3 21 -15.5 33.5t-29.5 12.5zM417 577
q-60 -63 -140 -63q-81 0 -113 63l68 47q16 -35 58 -35t72 35zM360 641q-21 0 -34 10t-18 22t-13 22t-19 10q-21 0 -34 -58h-70q31 134 110 134q20 0 33.5 -10t18.5 -22t13.5 -22t19.5 -10q21 0 34 58h70q-13 -62 -41.5 -98t-69.5 -36z" />
    <glyph glyph-name="uni1EB6" unicode="&#x1eb6;" horiz-adv-x="454" 
d="M403 0h-152l7 108h-116l-40 -108h-159l290 667h174zM270 240l17 261l-97 -261h80zM218 -119q0 -31 -24.5 -55t-56.5 -24q-27 0 -45 18.5t-18 45.5q0 31 24.5 54.5t56.5 23.5q27 0 45 -18t18 -45zM468 772q-60 -63 -140 -63q-81 0 -113 63l68 47q16 -35 58 -35t72 35z" />
    <glyph glyph-name="uni1EB7" unicode="&#x1eb7;" horiz-adv-x="442" 
d="M208 495q78 0 99 -70l14 58h134l-107 -483h-135l12 55q-43 -67 -103 -67q-112 0 -112 159q0 51 12.5 109t36 112.5t62.5 90.5t87 36zM241 376q-22 0 -41 -24t-29.5 -58.5t-16 -68t-5.5 -58.5q0 -60 44 -60q31 0 54 45l39 178q-3 21 -15.5 33.5t-29.5 12.5zM207 -119
q0 -31 -24.5 -55t-56.5 -24q-27 0 -45 18.5t-18 45.5q0 31 24.5 54.5t56.5 23.5q27 0 45 -18t18 -45zM422 605q-60 -63 -140 -63q-81 0 -113 63l68 47q16 -35 58 -35t72 35z" />
    <glyph glyph-name="uni1EB8" unicode="&#x1eb8;" horiz-adv-x="392" 
d="M307 0h-314l147 667h314l-30 -132h-162l-28 -130h155l-29 -132h-156l-31 -141h163zM194 -119q0 -31 -24.5 -55t-56.5 -24q-27 0 -45 18.5t-18 45.5q0 31 24.5 54.5t56.5 23.5q27 0 45 -18t18 -45z" />
    <glyph glyph-name="uni1EB9" unicode="&#x1eb9;" horiz-adv-x="420" 
d="M191 -12q-84 0 -131 50t-47 140q0 69 25.5 139.5t81 124t128.5 53.5q81 0 120.5 -46t39.5 -126q0 -53 -19 -126h-250q-2 -10 -2 -29q0 -27 18.5 -49t62.5 -22q41 0 82 36l44 -84q-63 -61 -153 -61zM158 290h125q4 17 4 37q0 27 -14 43t-36 16q-33 0 -52.5 -29.5
t-26.5 -66.5zM211 -119q0 -31 -24.5 -55t-56.5 -24q-27 0 -45 18.5t-18 45.5q0 31 24.5 54.5t56.5 23.5q27 0 45 -18t18 -45z" />
    <glyph glyph-name="uni1EBA" unicode="&#x1eba;" horiz-adv-x="392" 
d="M307 0h-314l147 667h314l-30 -132h-162l-28 -130h155l-29 -132h-156l-31 -141h163zM297 757l-44 12q22 51 69 51q60 0 60 -56q0 -37 -26 -67h-53q25 29 28 55q5 24 -13 24q-13 0 -21 -19z" />
    <glyph glyph-name="uni1EBB" unicode="&#x1ebb;" horiz-adv-x="420" 
d="M191 -12q-84 0 -131 50t-47 140q0 69 25.5 139.5t81 124t128.5 53.5q81 0 120.5 -46t39.5 -126q0 -53 -19 -126h-250q-2 -10 -2 -29q0 -27 18.5 -49t62.5 -22q41 0 82 36l44 -84q-63 -61 -153 -61zM158 290h125q4 17 4 37q0 27 -14 43t-36 16q-33 0 -52.5 -29.5
t-26.5 -66.5zM276 587l-44 12q22 51 69 51q60 0 60 -56q0 -37 -26 -67h-53q25 29 28 55q5 24 -13 24q-13 0 -21 -19z" />
    <glyph glyph-name="uni1EBC" unicode="&#x1ebc;" horiz-adv-x="392" 
d="M307 0h-314l147 667h314l-30 -132h-162l-28 -130h155l-29 -132h-156l-31 -141h163zM363 721q-21 0 -34 10t-18 22t-13 22t-19 10q-21 0 -34 -58h-70q31 134 110 134q20 0 33.5 -10t18.5 -22t13.5 -22t19.5 -10q21 0 34 58h70q-13 -62 -41.5 -98t-69.5 -36z" />
    <glyph glyph-name="uni1EBD" unicode="&#x1ebd;" horiz-adv-x="420" 
d="M191 -12q-84 0 -131 50t-47 140q0 69 25.5 139.5t81 124t128.5 53.5q81 0 120.5 -46t39.5 -126q0 -53 -19 -126h-250q-2 -10 -2 -29q0 -27 18.5 -49t62.5 -22q41 0 82 36l44 -84q-63 -61 -153 -61zM158 290h125q4 17 4 37q0 27 -14 43t-36 16q-33 0 -52.5 -29.5
t-26.5 -66.5zM343 554q-21 0 -34 10t-18 22t-13 22t-19 10q-21 0 -34 -58h-70q31 134 110 134q20 0 33.5 -10t18.5 -22t13.5 -22t19.5 -10q21 0 34 58h70q-13 -62 -41.5 -98t-69.5 -36z" />
    <glyph glyph-name="uni1EBE" unicode="&#x1ebe;" horiz-adv-x="392" 
d="M418 682h-71l-32 64l-66 -64h-76l93 108h120zM636 843l-141 -108h-86l112 108h115zM307 0h-314l147 667h314l-30 -132h-162l-28 -130h155l-29 -132h-156l-31 -141h163z" />
    <glyph glyph-name="uni1EBF" unicode="&#x1ebf;" horiz-adv-x="420" 
d="M411 556h-71l-32 86l-66 -86h-76l93 144h120zM627 770l-141 -144h-86l112 144h115zM191 -12q-84 0 -131 50t-47 140q0 69 25.5 139.5t81 124t128.5 53.5q81 0 120.5 -46t39.5 -126q0 -53 -19 -126h-250q-2 -10 -2 -29q0 -27 18.5 -49t62.5 -22q41 0 82 36l44 -84
q-63 -61 -153 -61zM158 290h125q4 17 4 37q0 27 -14 43t-36 16q-33 0 -52.5 -29.5t-26.5 -66.5z" />
    <glyph glyph-name="uni1EC0" unicode="&#x1ec0;" horiz-adv-x="392" 
d="M418 682h-71l-32 64l-66 -64h-76l93 108h120zM307 0h-314l147 667h314l-30 -132h-162l-28 -130h155l-29 -132h-156l-31 -141h163zM212 735h-84l-77 108h114z" />
    <glyph glyph-name="uni1EC1" unicode="&#x1ec1;" horiz-adv-x="420" 
d="M412 556h-71l-32 86l-66 -86h-76l93 144h120zM191 -12q-84 0 -131 50t-47 140q0 69 25.5 139.5t81 124t128.5 53.5q81 0 120.5 -46t39.5 -126q0 -53 -19 -126h-250q-2 -10 -2 -29q0 -27 18.5 -49t62.5 -22q41 0 82 36l44 -84q-63 -61 -153 -61zM158 290h125q4 17 4 37
q0 27 -14 43t-36 16q-33 0 -52.5 -29.5t-26.5 -66.5zM205 626h-84l-77 144h114z" />
    <glyph glyph-name="uni1EC2" unicode="&#x1ec2;" horiz-adv-x="392" 
d="M417 682h-71l-32 64l-66 -64h-76l93 108h120zM307 0h-314l147 667h314l-30 -132h-162l-28 -130h155l-29 -132h-156l-31 -141h163zM403 801l-44 9q21 38 69 38q60 0 60 -42q0 -26 -26 -50h-53q25 22 28 41q5 18 -13 18q-13 0 -21 -14z" />
    <glyph glyph-name="uni1EC3" unicode="&#x1ec3;" horiz-adv-x="420" 
d="M413 556h-71l-32 86l-66 -86h-76l93 144h120zM191 -12q-84 0 -131 50t-47 140q0 69 25.5 139.5t81 124t128.5 53.5q81 0 120.5 -46t39.5 -126q0 -53 -19 -126h-250q-2 -10 -2 -29q0 -27 18.5 -49t62.5 -22q41 0 82 36l44 -84q-63 -61 -153 -61zM158 290h125q4 17 4 37
q0 27 -14 43t-36 16q-33 0 -52.5 -29.5t-26.5 -66.5zM396 727l-44 12q22 51 69 51q60 0 60 -56q0 -37 -26 -67h-53q25 29 28 55q5 24 -13 24q-13 0 -21 -19z" />
    <glyph glyph-name="uni1EC4" unicode="&#x1ec4;" horiz-adv-x="392" 
d="M413 678h-71l-32 43l-66 -43h-76l93 72h120zM307 0h-314l147 667h314l-30 -132h-162l-28 -130h155l-29 -132h-156l-31 -141h163zM364 757q-34 0 -52 16t-32 16q-21 0 -34 -29h-70q31 67 110 67q33 0 52 -16t33 -16q21 0 34 29h70q-28 -67 -111 -67z" />
    <glyph glyph-name="uni1EC5" unicode="&#x1ec5;" horiz-adv-x="420" 
d="M406 523h-71l-32 86l-66 -86h-76l93 144h120zM191 -12q-84 0 -131 50t-47 140q0 69 25.5 139.5t81 124t128.5 53.5q81 0 120.5 -46t39.5 -126q0 -53 -19 -126h-250q-2 -10 -2 -29q0 -27 18.5 -49t62.5 -22q41 0 82 36l44 -84q-63 -61 -153 -61zM158 290h125q4 17 4 37
q0 27 -14 43t-36 16q-33 0 -52.5 -29.5t-26.5 -66.5zM372 682q-21 0 -34 10t-18 22t-13 22t-19 10q-21 0 -34 -58h-70q31 134 110 134q20 0 33.5 -10t18.5 -22t13.5 -22t19.5 -10q21 0 34 58h70q-13 -62 -41.5 -98t-69.5 -36z" />
    <glyph glyph-name="uni1EC6" unicode="&#x1ec6;" horiz-adv-x="392" 
d="M432 723h-71l-32 86l-66 -86h-76l93 144h120zM307 0h-314l147 667h314l-30 -132h-162l-28 -130h155l-29 -132h-156l-31 -141h163zM197 -119q0 -31 -24.5 -55t-56.5 -24q-27 0 -45 18.5t-18 45.5q0 31 24.5 54.5t56.5 23.5q27 0 45 -18t18 -45z" />
    <glyph glyph-name="uni1EC7" unicode="&#x1ec7;" horiz-adv-x="420" 
d="M412 556h-71l-32 86l-66 -86h-76l93 144h120zM191 -12q-84 0 -131 50t-47 140q0 69 25.5 139.5t81 124t128.5 53.5q81 0 120.5 -46t39.5 -126q0 -53 -19 -126h-250q-2 -10 -2 -29q0 -27 18.5 -49t62.5 -22q41 0 82 36l44 -84q-63 -61 -153 -61zM158 290h125q4 17 4 37
q0 27 -14 43t-36 16q-33 0 -52.5 -29.5t-26.5 -66.5zM211 -119q0 -31 -24.5 -55t-56.5 -24q-27 0 -45 18.5t-18 45.5q0 31 24.5 54.5t56.5 23.5q27 0 45 -18t18 -45z" />
    <glyph glyph-name="uni1EC8" unicode="&#x1ec8;" horiz-adv-x="245" 
d="M144 0h-151l147 667h151zM216 757l-44 12q22 51 69 51q60 0 60 -56q0 -37 -26 -67h-53q25 29 28 55q5 24 -13 24q-13 0 -21 -19z" />
    <glyph glyph-name="uni1EC9" unicode="&#x1ec9;" horiz-adv-x="216" 
d="M122 0h-136l107 483h136zM164 587l-44 12q22 51 69 51q60 0 60 -56q0 -37 -26 -67h-53q25 29 28 55q5 24 -13 24q-13 0 -21 -19z" />
    <glyph glyph-name="uni1ECA" unicode="&#x1eca;" horiz-adv-x="245" 
d="M144 0h-151l147 667h151zM113 -119q0 -31 -24.5 -55t-56.5 -24q-27 0 -45 18.5t-18 45.5q0 31 24.5 54.5t56.5 23.5q27 0 45 -18t18 -45z" />
    <glyph glyph-name="uni1ECB" unicode="&#x1ecb;" horiz-adv-x="216" 
d="M179 532q-31 0 -51.5 20t-20.5 48q0 41 29 66.5t62 25.5q31 0 51.5 -20t20.5 -49q0 -41 -28.5 -66t-62.5 -25zM122 0h-136l107 483h136zM100 -119q0 -31 -24.5 -55t-56.5 -24q-27 0 -45 18.5t-18 45.5q0 31 24.5 54.5t56.5 23.5q27 0 45 -18t18 -45z" />
    <glyph glyph-name="uni1ECC" unicode="&#x1ecc;" horiz-adv-x="500" 
d="M217 -12q-94 0 -142.5 62t-48.5 161q0 65 17 141t50.5 151.5t93.5 125t135 49.5q93 0 142 -63t49 -162q0 -51 -10 -110t-33.5 -122.5t-56.5 -115t-84 -84.5t-112 -33zM224 122q38 0 71 65.5t48.5 141t15.5 127.5q0 88 -46 88q-29 0 -55.5 -39t-43 -94t-26 -110.5
t-9.5 -92.5q0 -86 45 -86zM239 -119q0 -31 -24.5 -55t-56.5 -24q-27 0 -45 18.5t-18 45.5q0 31 24.5 54.5t56.5 23.5q27 0 45 -18t18 -45z" />
    <glyph glyph-name="uni1ECD" unicode="&#x1ecd;" 
d="M184 -12q-83 0 -127 50t-44 137q0 73 26 145t81.5 123.5t126.5 51.5q85 0 129 -50t44 -137q0 -73 -26.5 -144.5t-82 -123.5t-127.5 -52zM192 107q40 0 65.5 73.5t25.5 130.5q0 65 -43 65q-40 0 -65.5 -74t-25.5 -130q0 -65 43 -65zM208 -119q0 -31 -24.5 -55t-56.5 -24
q-27 0 -45 18.5t-18 45.5q0 31 24.5 54.5t56.5 23.5q27 0 45 -18t18 -45z" />
    <glyph glyph-name="uni1ECE" unicode="&#x1ece;" horiz-adv-x="500" 
d="M217 -12q-94 0 -142.5 62t-48.5 161q0 65 17 141t50.5 151.5t93.5 125t135 49.5q93 0 142 -63t49 -162q0 -51 -10 -110t-33.5 -122.5t-56.5 -115t-84 -84.5t-112 -33zM224 122q38 0 71 65.5t48.5 141t15.5 127.5q0 88 -46 88q-29 0 -55.5 -39t-43 -94t-26 -110.5
t-9.5 -92.5q0 -86 45 -86zM343 757l-44 12q22 51 69 51q60 0 60 -56q0 -37 -26 -67h-53q25 29 28 55q5 24 -13 24q-13 0 -21 -19z" />
    <glyph glyph-name="uni1ECF" unicode="&#x1ecf;" 
d="M184 -12q-83 0 -127 50t-44 137q0 73 26 145t81.5 123.5t126.5 51.5q85 0 129 -50t44 -137q0 -73 -26.5 -144.5t-82 -123.5t-127.5 -52zM192 107q40 0 65.5 73.5t25.5 130.5q0 65 -43 65q-40 0 -65.5 -74t-25.5 -130q0 -65 43 -65zM273 587l-44 12q22 51 69 51
q60 0 60 -56q0 -37 -26 -67h-53q25 29 28 55q5 24 -13 24q-13 0 -21 -19z" />
    <glyph glyph-name="uni1ED0" unicode="&#x1ed0;" horiz-adv-x="500" 
d="M463 682h-71l-32 64l-66 -64h-76l93 108h120zM679 843l-141 -108h-86l112 108h115zM217 -12q-94 0 -142.5 62t-48.5 161q0 65 17 141t50.5 151.5t93.5 125t135 49.5q93 0 142 -63t49 -162q0 -51 -10 -110t-33.5 -122.5t-56.5 -115t-84 -84.5t-112 -33zM224 122
q38 0 71 65.5t48.5 141t15.5 127.5q0 88 -46 88q-29 0 -55.5 -39t-43 -94t-26 -110.5t-9.5 -92.5q0 -86 45 -86z" />
    <glyph glyph-name="uni1ED1" unicode="&#x1ed1;" 
d="M409 556h-71l-32 86l-66 -86h-76l93 144h120zM625 770l-141 -144h-86l112 144h115zM184 -12q-83 0 -127 50t-44 137q0 73 26 145t81.5 123.5t126.5 51.5q85 0 129 -50t44 -137q0 -73 -26.5 -144.5t-82 -123.5t-127.5 -52zM192 107q40 0 65.5 73.5t25.5 130.5q0 65 -43 65
q-40 0 -65.5 -74t-25.5 -130q0 -65 43 -65z" />
    <glyph glyph-name="uni1ED2" unicode="&#x1ed2;" horiz-adv-x="500" 
d="M463 682h-71l-32 64l-66 -64h-76l93 108h120zM217 -12q-94 0 -142.5 62t-48.5 161q0 65 17 141t50.5 151.5t93.5 125t135 49.5q93 0 142 -63t49 -162q0 -51 -10 -110t-33.5 -122.5t-56.5 -115t-84 -84.5t-112 -33zM224 122q38 0 71 65.5t48.5 141t15.5 127.5q0 88 -46 88
q-29 0 -55.5 -39t-43 -94t-26 -110.5t-9.5 -92.5q0 -86 45 -86zM257 735h-84l-77 108h114z" />
    <glyph glyph-name="uni1ED3" unicode="&#x1ed3;" 
d="M408 556h-71l-32 86l-66 -86h-76l93 144h120zM184 -12q-83 0 -127 50t-44 137q0 73 26 145t81.5 123.5t126.5 51.5q85 0 129 -50t44 -137q0 -73 -26.5 -144.5t-82 -123.5t-127.5 -52zM192 107q40 0 65.5 73.5t25.5 130.5q0 65 -43 65q-40 0 -65.5 -74t-25.5 -130
q0 -65 43 -65zM201 626h-84l-77 144h114z" />
    <glyph glyph-name="uni1ED4" unicode="&#x1ed4;" horiz-adv-x="500" 
d="M463 682h-71l-32 64l-66 -64h-76l93 108h120zM217 -12q-94 0 -142.5 62t-48.5 161q0 65 17 141t50.5 151.5t93.5 125t135 49.5q93 0 142 -63t49 -162q0 -51 -10 -110t-33.5 -122.5t-56.5 -115t-84 -84.5t-112 -33zM224 122q38 0 71 65.5t48.5 141t15.5 127.5q0 88 -46 88
q-29 0 -55.5 -39t-43 -94t-26 -110.5t-9.5 -92.5q0 -86 45 -86zM449 801l-44 9q21 38 69 38q60 0 60 -42q0 -26 -26 -50h-53q25 22 28 41q5 18 -13 18q-13 0 -21 -14z" />
    <glyph glyph-name="uni1ED5" unicode="&#x1ed5;" 
d="M409 556h-71l-32 86l-66 -86h-76l93 144h120zM184 -12q-83 0 -127 50t-44 137q0 73 26 145t81.5 123.5t126.5 51.5q85 0 129 -50t44 -137q0 -73 -26.5 -144.5t-82 -123.5t-127.5 -52zM192 107q40 0 65.5 73.5t25.5 130.5q0 65 -43 65q-40 0 -65.5 -74t-25.5 -130
q0 -65 43 -65zM392 727l-44 12q22 51 69 51q60 0 60 -56q0 -37 -26 -67h-53q25 29 28 55q5 24 -13 24q-13 0 -21 -19z" />
    <glyph glyph-name="uni1ED6" unicode="&#x1ed6;" horiz-adv-x="500" 
d="M458 678h-71l-32 43l-66 -43h-76l93 72h120zM217 -12q-94 0 -142.5 62t-48.5 161q0 65 17 141t50.5 151.5t93.5 125t135 49.5q93 0 142 -63t49 -162q0 -51 -10 -110t-33.5 -122.5t-56.5 -115t-84 -84.5t-112 -33zM224 122q38 0 71 65.5t48.5 141t15.5 127.5q0 88 -46 88
q-29 0 -55.5 -39t-43 -94t-26 -110.5t-9.5 -92.5q0 -86 45 -86zM410 757q-34 0 -52 16t-32 16q-21 0 -34 -29h-70q31 67 110 67q33 0 52 -16t33 -16q21 0 34 29h70q-28 -67 -111 -67z" />
    <glyph glyph-name="uni1ED7" unicode="&#x1ed7;" 
d="M401 523h-71l-32 86l-66 -86h-76l93 144h120zM184 -12q-83 0 -127 50t-44 137q0 73 26 145t81.5 123.5t126.5 51.5q85 0 129 -50t44 -137q0 -73 -26.5 -144.5t-82 -123.5t-127.5 -52zM192 107q40 0 65.5 73.5t25.5 130.5q0 65 -43 65q-40 0 -65.5 -74t-25.5 -130
q0 -65 43 -65zM369 682q-21 0 -34 10t-18 22t-13 22t-19 10q-21 0 -34 -58h-70q31 134 110 134q20 0 33.5 -10t18.5 -22t13.5 -22t19.5 -10q21 0 34 58h70q-13 -62 -41.5 -98t-69.5 -36z" />
    <glyph glyph-name="uni1ED8" unicode="&#x1ed8;" horiz-adv-x="500" 
d="M478 723h-71l-32 86l-66 -86h-76l93 144h120zM217 -12q-94 0 -142.5 62t-48.5 161q0 65 17 141t50.5 151.5t93.5 125t135 49.5q93 0 142 -63t49 -162q0 -51 -10 -110t-33.5 -122.5t-56.5 -115t-84 -84.5t-112 -33zM224 122q38 0 71 65.5t48.5 141t15.5 127.5q0 88 -46 88
q-29 0 -55.5 -39t-43 -94t-26 -110.5t-9.5 -92.5q0 -86 45 -86zM240 -119q0 -31 -24.5 -55t-56.5 -24q-27 0 -45 18.5t-18 45.5q0 31 24.5 54.5t56.5 23.5q27 0 45 -18t18 -45z" />
    <glyph glyph-name="uni1ED9" unicode="&#x1ed9;" 
d="M409 556h-71l-32 86l-66 -86h-76l93 144h120zM184 -12q-83 0 -127 50t-44 137q0 73 26 145t81.5 123.5t126.5 51.5q85 0 129 -50t44 -137q0 -73 -26.5 -144.5t-82 -123.5t-127.5 -52zM192 107q40 0 65.5 73.5t25.5 130.5q0 65 -43 65q-40 0 -65.5 -74t-25.5 -130
q0 -65 43 -65zM208 -119q0 -31 -24.5 -55t-56.5 -24q-27 0 -45 18.5t-18 45.5q0 31 24.5 54.5t56.5 23.5q27 0 45 -18t18 -45z" />
    <glyph glyph-name="uni1EDA" unicode="&#x1eda;" horiz-adv-x="500" 
d="M533 867l-141 -144h-86l112 144h115zM217 -12q-94 0 -142.5 62t-48.5 161q0 65 17 141t50.5 151.5t93.5 125t135 49.5q113 0 162 -94q34 23 45 48h-7q-18 0 -31 12.5t-13 34.5q0 26 19 44.5t45 18.5q23 0 39.5 -16t16.5 -44q0 -40 -27 -79t-70 -63q12 -40 12 -87
q0 -51 -10 -110t-33.5 -122.5t-56.5 -115t-84 -84.5t-112 -33zM224 122q38 0 71 65.5t48.5 141t15.5 127.5q0 88 -46 88q-29 0 -55.5 -39t-43 -94t-26 -110.5t-9.5 -92.5q0 -86 45 -86z" />
    <glyph glyph-name="uni1EDB" unicode="&#x1edb;" 
d="M463 700l-141 -144h-86l112 144h115zM488 548q0 -37 -25 -75t-64 -63q21 -42 21 -102q0 -73 -26.5 -144.5t-82 -123.5t-127.5 -52q-83 0 -127 50t-44 137q0 73 26 145t81.5 123.5t126.5 51.5q80 0 125 -47q35 23 48 50h-8q-19 0 -32 12.5t-13 34.5q0 26 20 44.5t45 18.5
q23 0 39.5 -16t16.5 -44zM192 107q40 0 65.5 73.5t25.5 130.5q0 65 -43 65q-40 0 -65.5 -74t-25.5 -130q0 -65 43 -65z" />
    <glyph glyph-name="uni1EDC" unicode="&#x1edc;" horiz-adv-x="500" 
d="M217 -12q-94 0 -142.5 62t-48.5 161q0 65 17 141t50.5 151.5t93.5 125t135 49.5q113 0 162 -94q34 23 45 48h-7q-18 0 -31 12.5t-13 34.5q0 26 19 44.5t45 18.5q23 0 39.5 -16t16.5 -44q0 -40 -27 -79t-70 -63q12 -40 12 -87q0 -51 -10 -110t-33.5 -122.5t-56.5 -115
t-84 -84.5t-112 -33zM224 122q38 0 71 65.5t48.5 141t15.5 127.5q0 88 -46 88q-29 0 -55.5 -39t-43 -94t-26 -110.5t-9.5 -92.5q0 -86 45 -86zM403 723h-84l-77 144h114z" />
    <glyph glyph-name="uni1EDD" unicode="&#x1edd;" 
d="M488 548q0 -37 -25 -75t-64 -63q21 -42 21 -102q0 -73 -26.5 -144.5t-82 -123.5t-127.5 -52q-83 0 -127 50t-44 137q0 73 26 145t81.5 123.5t126.5 51.5q80 0 125 -47q35 23 48 50h-8q-19 0 -32 12.5t-13 34.5q0 26 20 44.5t45 18.5q23 0 39.5 -16t16.5 -44zM192 107
q40 0 65.5 73.5t25.5 130.5q0 65 -43 65q-40 0 -65.5 -74t-25.5 -130q0 -65 43 -65zM334 556h-84l-77 144h114z" />
    <glyph glyph-name="uni1EDE" unicode="&#x1ede;" horiz-adv-x="500" 
d="M217 -12q-94 0 -142.5 62t-48.5 161q0 65 17 141t50.5 151.5t93.5 125t135 49.5q113 0 162 -94q34 23 45 48h-7q-18 0 -31 12.5t-13 34.5q0 26 19 44.5t45 18.5q23 0 39.5 -16t16.5 -44q0 -40 -27 -79t-70 -63q12 -40 12 -87q0 -51 -10 -110t-33.5 -122.5t-56.5 -115
t-84 -84.5t-112 -33zM224 122q38 0 71 65.5t48.5 141t15.5 127.5q0 88 -46 88q-29 0 -55.5 -39t-43 -94t-26 -110.5t-9.5 -92.5q0 -86 45 -86zM343 757l-44 12q22 51 69 51q60 0 60 -56q0 -37 -26 -67h-53q25 29 28 55q5 24 -13 24q-13 0 -21 -19z" />
    <glyph glyph-name="uni1EDF" unicode="&#x1edf;" 
d="M488 548q0 -37 -25 -75t-64 -63q21 -42 21 -102q0 -73 -26.5 -144.5t-82 -123.5t-127.5 -52q-83 0 -127 50t-44 137q0 73 26 145t81.5 123.5t126.5 51.5q80 0 125 -47q35 23 48 50h-8q-19 0 -32 12.5t-13 34.5q0 26 20 44.5t45 18.5q23 0 39.5 -16t16.5 -44zM192 107
q40 0 65.5 73.5t25.5 130.5q0 65 -43 65q-40 0 -65.5 -74t-25.5 -130q0 -65 43 -65zM273 587l-44 12q22 51 69 51q60 0 60 -56q0 -37 -26 -67h-53q25 29 28 55q5 24 -13 24q-13 0 -21 -19z" />
    <glyph glyph-name="uni1EE0" unicode="&#x1ee0;" horiz-adv-x="500" 
d="M217 -12q-94 0 -142.5 62t-48.5 161q0 65 17 141t50.5 151.5t93.5 125t135 49.5q113 0 162 -94q34 23 45 48h-7q-18 0 -31 12.5t-13 34.5q0 26 19 44.5t45 18.5q23 0 39.5 -16t16.5 -44q0 -40 -27 -79t-70 -63q12 -40 12 -87q0 -51 -10 -110t-33.5 -122.5t-56.5 -115
t-84 -84.5t-112 -33zM224 122q38 0 71 65.5t48.5 141t15.5 127.5q0 88 -46 88q-29 0 -55.5 -39t-43 -94t-26 -110.5t-9.5 -92.5q0 -86 45 -86zM410 721q-21 0 -34 10t-18 22t-13 22t-19 10q-21 0 -34 -58h-70q31 134 110 134q20 0 33.5 -10t18.5 -22t13.5 -22t19.5 -10
q21 0 34 58h70q-13 -62 -41.5 -98t-69.5 -36z" />
    <glyph glyph-name="uni1EE1" unicode="&#x1ee1;" 
d="M488 548q0 -37 -25 -75t-64 -63q21 -42 21 -102q0 -73 -26.5 -144.5t-82 -123.5t-127.5 -52q-83 0 -127 50t-44 137q0 73 26 145t81.5 123.5t126.5 51.5q80 0 125 -47q35 23 48 50h-8q-19 0 -32 12.5t-13 34.5q0 26 20 44.5t45 18.5q23 0 39.5 -16t16.5 -44zM192 107
q40 0 65.5 73.5t25.5 130.5q0 65 -43 65q-40 0 -65.5 -74t-25.5 -130q0 -65 43 -65zM298 554q-21 0 -34 10t-18 22t-13 22t-19 10q-21 0 -34 -58h-70q31 134 110 134q20 0 33.5 -10t18.5 -22t13.5 -22t19.5 -10q21 0 34 58h70q-13 -62 -41.5 -98t-69.5 -36z" />
    <glyph glyph-name="uni1EE2" unicode="&#x1ee2;" horiz-adv-x="500" 
d="M217 -12q-94 0 -142.5 62t-48.5 161q0 65 17 141t50.5 151.5t93.5 125t135 49.5q113 0 162 -94q34 23 45 48h-7q-18 0 -31 12.5t-13 34.5q0 26 19 44.5t45 18.5q23 0 39.5 -16t16.5 -44q0 -40 -27 -79t-70 -63q12 -40 12 -87q0 -51 -10 -110t-33.5 -122.5t-56.5 -115
t-84 -84.5t-112 -33zM224 122q38 0 71 65.5t48.5 141t15.5 127.5q0 88 -46 88q-29 0 -55.5 -39t-43 -94t-26 -110.5t-9.5 -92.5q0 -86 45 -86zM239 -119q0 -31 -24.5 -55t-56.5 -24q-27 0 -45 18.5t-18 45.5q0 31 24.5 54.5t56.5 23.5q27 0 45 -18t18 -45z" />
    <glyph glyph-name="uni1EE3" unicode="&#x1ee3;" 
d="M488 548q0 -37 -25 -75t-64 -63q21 -42 21 -102q0 -73 -26.5 -144.5t-82 -123.5t-127.5 -52q-83 0 -127 50t-44 137q0 73 26 145t81.5 123.5t126.5 51.5q80 0 125 -47q35 23 48 50h-8q-19 0 -32 12.5t-13 34.5q0 26 20 44.5t45 18.5q23 0 39.5 -16t16.5 -44zM192 107
q40 0 65.5 73.5t25.5 130.5q0 65 -43 65q-40 0 -65.5 -74t-25.5 -130q0 -65 43 -65zM208 -119q0 -31 -24.5 -55t-56.5 -24q-27 0 -45 18.5t-18 45.5q0 31 24.5 54.5t56.5 23.5q27 0 45 -18t18 -45z" />
    <glyph glyph-name="uni1EE4" unicode="&#x1ee4;" horiz-adv-x="508" 
d="M222 -12q-80 0 -134 49.5t-54 130.5q0 18 5 41l101 458h151l-104 -472q-3 -18 -3 -25q0 -23 14 -36.5t36 -13.5q48 0 65 75l104 472h152l-103 -463q-24 -109 -85.5 -162.5t-144.5 -53.5zM244 -119q0 -31 -24.5 -55t-56.5 -24q-27 0 -45 18.5t-18 45.5q0 31 24.5 54.5
t56.5 23.5q27 0 45 -18t18 -45z" />
    <glyph glyph-name="uni1EE5" unicode="&#x1ee5;" horiz-adv-x="441" 
d="M93 483h136l-73 -327q-3 -14 -3 -22q0 -27 27 -27q36 0 67 54l71 322h136l-107 -483h-136l14 59q-55 -71 -124 -71q-44 0 -69.5 23.5t-25.5 61.5q0 16 4 28zM210 -119q0 -31 -24.5 -55t-56.5 -24q-27 0 -45 18.5t-18 45.5q0 31 24.5 54.5t56.5 23.5q27 0 45 -18t18 -45z
" />
    <glyph glyph-name="uni1EE6" unicode="&#x1ee6;" horiz-adv-x="508" 
d="M222 -12q-80 0 -134 49.5t-54 130.5q0 18 5 41l101 458h151l-104 -472q-3 -18 -3 -25q0 -23 14 -36.5t36 -13.5q48 0 65 75l104 472h152l-103 -463q-24 -109 -85.5 -162.5t-144.5 -53.5zM347 757l-44 12q22 51 69 51q60 0 60 -56q0 -37 -26 -67h-53q25 29 28 55
q5 24 -13 24q-13 0 -21 -19z" />
    <glyph glyph-name="uni1EE7" unicode="&#x1ee7;" horiz-adv-x="441" 
d="M93 483h136l-73 -327q-3 -14 -3 -22q0 -27 27 -27q36 0 67 54l71 322h136l-107 -483h-136l14 59q-55 -71 -124 -71q-44 0 -69.5 23.5t-25.5 61.5q0 16 4 28zM277 587l-44 12q22 51 69 51q60 0 60 -56q0 -37 -26 -67h-53q25 29 28 55q5 24 -13 24q-13 0 -21 -19z" />
    <glyph glyph-name="uni1EE8" unicode="&#x1ee8;" horiz-adv-x="508" 
d="M537 867l-141 -144h-86l112 144h115zM662 742q0 -44 -35 -89t-90 -67l-85 -382q-24 -109 -85.5 -162.5t-144.5 -53.5q-80 0 -134 49.5t-54 130.5q0 18 5 41l101 458h151l-104 -472q-3 -18 -3 -25q0 -23 14 -36.5t36 -13.5q48 0 65 75l104 472h152l-5 -23q32 22 44 49
q-1 -1 -7 -1q-19 0 -32 12.5t-13 34.5q0 26 19.5 44.5t44.5 18.5q24 0 40 -15.5t16 -44.5z" />
    <glyph glyph-name="uni1EE9" unicode="&#x1ee9;" horiz-adv-x="441" 
d="M467 700l-141 -144h-86l112 144h115zM522 562q0 -33 -21.5 -69t-58.5 -62l-95 -431h-136l14 59q-55 -71 -124 -71q-44 0 -69.5 23.5t-25.5 61.5q0 16 4 28l83 382h136l-73 -330q-3 -15 -3 -17q0 -29 27 -29q36 0 67 54l71 322h113q14 12 22 29q-1 -1 -7 -1q-19 0 -32 13
t-13 35q0 26 19.5 44.5t45.5 18.5q23 0 39.5 -16t16.5 -44z" />
    <glyph glyph-name="uni1EEA" unicode="&#x1eea;" horiz-adv-x="508" 
d="M407 723h-84l-77 144h114zM662 742q0 -44 -35 -89t-90 -67l-85 -382q-24 -109 -85.5 -162.5t-144.5 -53.5q-80 0 -134 49.5t-54 130.5q0 18 5 41l101 458h151l-104 -472q-3 -18 -3 -25q0 -23 14 -36.5t36 -13.5q48 0 65 75l104 472h152l-5 -23q32 22 44 49q-1 -1 -7 -1
q-19 0 -32 12.5t-13 34.5q0 26 19.5 44.5t44.5 18.5q24 0 40 -15.5t16 -44.5z" />
    <glyph glyph-name="uni1EEB" unicode="&#x1eeb;" horiz-adv-x="441" 
d="M338 556h-84l-77 144h114zM522 562q0 -33 -21.5 -69t-58.5 -62l-95 -431h-136l14 59q-55 -71 -124 -71q-44 0 -69.5 23.5t-25.5 61.5q0 16 4 28l83 382h136l-73 -330q-3 -15 -3 -17q0 -29 27 -29q36 0 67 54l71 322h113q14 12 22 29q-1 -1 -7 -1q-19 0 -32 13t-13 35
q0 26 19.5 44.5t45.5 18.5q23 0 39.5 -16t16.5 -44z" />
    <glyph glyph-name="uni1EEC" unicode="&#x1eec;" horiz-adv-x="508" 
d="M347 757l-44 12q22 51 69 51q60 0 60 -56q0 -37 -26 -67h-53q25 29 28 55q5 24 -13 24q-13 0 -21 -19zM662 742q0 -44 -35 -89t-90 -67l-85 -382q-24 -109 -85.5 -162.5t-144.5 -53.5q-80 0 -134 49.5t-54 130.5q0 18 5 41l101 458h151l-104 -472q-3 -18 -3 -25
q0 -23 14 -36.5t36 -13.5q48 0 65 75l104 472h152l-5 -23q32 22 44 49q-1 -1 -7 -1q-19 0 -32 12.5t-13 34.5q0 26 19.5 44.5t44.5 18.5q24 0 40 -15.5t16 -44.5z" />
    <glyph glyph-name="uni1EED" unicode="&#x1eed;" horiz-adv-x="441" 
d="M277 587l-44 12q22 51 69 51q60 0 60 -56q0 -37 -26 -67h-53q25 29 28 55q5 24 -13 24q-13 0 -21 -19zM522 562q0 -33 -21.5 -69t-58.5 -62l-95 -431h-136l14 59q-55 -71 -124 -71q-44 0 -69.5 23.5t-25.5 61.5q0 16 4 28l83 382h136l-73 -330q-3 -15 -3 -17
q0 -29 27 -29q36 0 67 54l71 322h113q14 12 22 29q-1 -1 -7 -1q-19 0 -32 13t-13 35q0 26 19.5 44.5t45.5 18.5q23 0 39.5 -16t16.5 -44z" />
    <glyph glyph-name="uni1EEE" unicode="&#x1eee;" horiz-adv-x="508" 
d="M662 742q0 -44 -35 -89t-90 -67l-85 -382q-24 -109 -85.5 -162.5t-144.5 -53.5q-80 0 -134 49.5t-54 130.5q0 18 5 41l101 458h151l-104 -472q-3 -18 -3 -25q0 -23 14 -36.5t36 -13.5q48 0 65 75l104 472h152l-5 -23q32 22 44 49q-1 -1 -7 -1q-19 0 -32 12.5t-13 34.5
q0 26 19.5 44.5t44.5 18.5q24 0 40 -15.5t16 -44.5zM414 721q-21 0 -34 10t-18 22t-13 22t-19 10q-21 0 -34 -58h-70q31 134 110 134q20 0 33.5 -10t18.5 -22t13.5 -22t19.5 -10q21 0 34 58h70q-13 -62 -41.5 -98t-69.5 -36z" />
    <glyph glyph-name="uni1EEF" unicode="&#x1eef;" horiz-adv-x="441" 
d="M522 562q0 -33 -21.5 -69t-58.5 -62l-95 -431h-136l14 59q-55 -71 -124 -71q-44 0 -69.5 23.5t-25.5 61.5q0 16 4 28l83 382h136l-73 -330q-3 -15 -3 -17q0 -29 27 -29q36 0 67 54l71 322h113q14 12 22 29q-1 -1 -7 -1q-19 0 -32 13t-13 35q0 26 19.5 44.5t45.5 18.5
q23 0 39.5 -16t16.5 -44zM310 554q-21 0 -34 10t-18 22t-13 22t-19 10q-21 0 -34 -58h-70q31 134 110 134q20 0 33.5 -10t18.5 -22t13.5 -22t19.5 -10q21 0 34 58h70q-13 -62 -41.5 -98t-69.5 -36z" />
    <glyph glyph-name="uni1EF0" unicode="&#x1ef0;" horiz-adv-x="508" 
d="M244 -119q0 -31 -24.5 -55t-56.5 -24q-27 0 -45 18.5t-18 45.5q0 31 24.5 54.5t56.5 23.5q27 0 45 -18t18 -45zM662 742q0 -44 -35 -89t-90 -67l-85 -382q-24 -109 -85.5 -162.5t-144.5 -53.5q-80 0 -134 49.5t-54 130.5q0 18 5 41l101 458h151l-104 -472q-3 -18 -3 -25
q0 -23 14 -36.5t36 -13.5q48 0 65 75l104 472h152l-5 -23q32 22 44 49q-1 -1 -7 -1q-19 0 -32 12.5t-13 34.5q0 26 19.5 44.5t44.5 18.5q24 0 40 -15.5t16 -44.5z" />
    <glyph glyph-name="uni1EF1" unicode="&#x1ef1;" horiz-adv-x="441" 
d="M210 -119q0 -31 -24.5 -55t-56.5 -24q-27 0 -45 18.5t-18 45.5q0 31 24.5 54.5t56.5 23.5q27 0 45 -18t18 -45zM522 562q0 -33 -21.5 -69t-58.5 -62l-95 -431h-136l14 59q-55 -71 -124 -71q-44 0 -69.5 23.5t-25.5 61.5q0 16 4 28l83 382h136l-73 -330q-3 -15 -3 -17
q0 -29 27 -29q36 0 67 54l71 322h113q14 12 22 29q-1 -1 -7 -1q-19 0 -32 13t-13 35q0 26 19.5 44.5t45.5 18.5q23 0 39.5 -16t16.5 -44z" />
    <glyph glyph-name="Ygrave" unicode="&#x1ef2;" horiz-adv-x="460" 
d="M252 0h-152l60 273l-73 394h154l20 -251l132 251h165l-247 -394zM384 723h-84l-77 144h114z" />
    <glyph glyph-name="ygrave" unicode="&#x1ef3;" horiz-adv-x="408" 
d="M-51 -182l44 111q6 -6 23 -6q22 0 39 30l22 42l-26 488h139l-7 -312l134 312h146l-279 -558q-36 -70 -70.5 -95.5t-84.5 -25.5q-48 0 -80 14zM317 556h-84l-77 144h114z" />
    <glyph glyph-name="thinspace" unicode="&#x2009;" horiz-adv-x="32" 
 />
    <glyph glyph-name="endash" unicode="&#x2013;" horiz-adv-x="460" 
d="M417 185h-400l25 114h400z" />
    <glyph glyph-name="emdash" unicode="&#x2014;" horiz-adv-x="640" 
d="M597 185h-580l25 114h580z" />
    <glyph glyph-name="afii00208" unicode="&#x2015;" horiz-adv-x="460" 
d="M417 185h-400l25 114h400z" />
    <glyph glyph-name="quoteleft" unicode="&#x2018;" horiz-adv-x="262" 
d="M90 472q0 58 43.5 116.5t108.5 89.5l48 -50q-78 -35 -100 -84q2 1 10 1q27 0 45.5 -18t18.5 -50q0 -36 -28 -63t-64 -27q-34 0 -58 22.5t-24 62.5z" />
    <glyph glyph-name="quoteright" unicode="&#x2019;" horiz-adv-x="262" 
d="M296 592q0 -58 -43 -116.5t-108 -89.5l-48 50q77 35 100 84q-3 -1 -11 -1q-27 0 -46 18t-19 50q0 36 29 63t65 27q34 0 57.5 -22.5t23.5 -62.5z" />
    <glyph glyph-name="quotesinglbase" unicode="&#x201a;" horiz-adv-x="262" 
d="M181 73q0 -58 -43 -116t-108 -89l-48 49q77 35 100 84q-2 -1 -11 -1q-27 0 -45.5 18.5t-18.5 50.5q0 36 28.5 62.5t64.5 26.5q34 0 57.5 -22.5t23.5 -62.5z" />
    <glyph glyph-name="quotereversed" unicode="&#x201b;" horiz-adv-x="262" 
d="M108 540q0 63 34 100t75 37q36 0 57 -22t21 -51q0 -38 -24.5 -61.5t-63.5 -23.5q-19 0 -29 6q2 -58 56 -108l-58 -34q-68 72 -68 157z" />
    <glyph glyph-name="quotedblleft" unicode="&#x201c;" horiz-adv-x="472" 
d="M303 472q0 58 43 116.5t108 89.5l47 -50q-77 -35 -100 -84q3 1 11 1q28 0 46.5 -18t18.5 -50q0 -36 -29 -63t-65 -27q-33 0 -56.5 22.5t-23.5 62.5zM93 472q0 58 43.5 116.5t108.5 89.5l47 -50q-77 -35 -100 -84q2 1 11 1q28 0 46.5 -18t18.5 -50q0 -36 -29 -63t-65 -27
q-34 0 -57.5 22.5t-23.5 62.5z" />
    <glyph glyph-name="quotedblright" unicode="&#x201d;" horiz-adv-x="472" 
d="M296 592q0 -58 -43 -116.5t-108 -89.5l-48 50q77 35 100 84q-3 -1 -11 -1q-27 0 -46 18t-19 50q0 36 29 63t65 27q34 0 57.5 -22.5t23.5 -62.5zM505 592q0 -58 -43 -116.5t-108 -89.5l-48 50q78 35 100 84q-2 -1 -11 -1q-27 0 -45.5 18t-18.5 50q0 36 28.5 63t64.5 27
q34 0 57.5 -22.5t23.5 -62.5z" />
    <glyph glyph-name="quotedblbase" unicode="&#x201e;" horiz-adv-x="471" 
d="M181 73q0 -58 -43 -116t-108 -89l-48 49q77 35 100 84q-2 -1 -11 -1q-27 0 -45.5 18.5t-18.5 50.5q0 36 28.5 62.5t64.5 26.5q34 0 57.5 -22.5t23.5 -62.5zM390 73q0 -58 -43 -116t-108 -89l-48 49q31 14 60 36.5t41 47.5q-2 -1 -11 -1q-28 0 -46.5 18.5t-18.5 50.5
q0 36 28.5 62.5t64.5 26.5q34 0 57.5 -22.5t23.5 -62.5z" />
    <glyph glyph-name="dagger" unicode="&#x2020;" horiz-adv-x="279" 
d="M321 521l-88 4l-40 -198h-72l49 198l-90 -4l14 65l89 -3l16 94h72l-25 -94l89 3z" />
    <glyph glyph-name="daggerdbl" unicode="&#x2021;" horiz-adv-x="279" 
d="M335 586l-14 -65l-88 4l-43 -191l90 4l-14 -65l-88 3l-18 -96h-72l26 96l-89 -3l14 65l88 -4l42 191l-89 -4l14 65l88 -3l17 94h72l-25 -94z" />
    <glyph glyph-name="bullet" unicode="&#x2022;" horiz-adv-x="358" 
d="M300 254q0 -54 -40 -92.5t-94 -38.5q-46 0 -77 30.5t-31 77.5q0 54 40 92.5t94 38.5q46 0 77 -31t31 -77z" />
    <glyph glyph-name="ellipsis" unicode="&#x2026;" horiz-adv-x="777" 
d="M83 -12q-31 0 -53.5 23t-22.5 55q0 37 27.5 64.5t64.5 27.5q33 0 55 -22.5t22 -55.5q0 -38 -27.5 -65t-65.5 -27zM343 -12q-32 0 -54.5 23t-22.5 55q0 37 27.5 64.5t64.5 27.5q33 0 55.5 -23t22.5 -55q0 -37 -27.5 -64.5t-65.5 -27.5zM602 -12q-32 0 -54.5 23t-22.5 55
q0 37 27.5 64.5t65.5 27.5q32 0 54.5 -23t22.5 -55q0 -37 -27.5 -64.5t-65.5 -27.5z" />
    <glyph glyph-name="perthousand" unicode="&#x2030;" horiz-adv-x="880" 
d="M131 0h-55l428 667h56zM405 -12q-55 0 -86.5 35.5t-31.5 90.5q0 86 47.5 146.5t110.5 60.5q55 0 86.5 -36t31.5 -91q0 -85 -47.5 -145.5t-110.5 -60.5zM411 70q23 0 44 35.5t21 80.5q0 53 -37 53q-23 0 -44 -35.5t-21 -80.5q0 -53 37 -53zM189 344q-55 0 -86.5 36
t-31.5 91q0 85 47.5 145.5t110.5 60.5q55 0 86.5 -36t31.5 -90q0 -86 -47.5 -146.5t-110.5 -60.5zM195 427q23 0 43.5 35t20.5 80q0 53 -36 53q-23 0 -43.5 -35t-20.5 -81q0 -52 36 -52zM689 -12q-55 0 -86.5 36t-31.5 90q0 86 47.5 146.5t110.5 60.5q55 0 87 -36t32 -91
q0 -86 -48 -146t-111 -60zM696 70q23 0 43.5 35t20.5 81q0 53 -37 53q-22 0 -43 -35.5t-21 -80.5q0 -53 37 -53z" />
    <glyph glyph-name="guilsinglleft" unicode="&#x2039;" horiz-adv-x="252" 
d="M179 63h-100l-50 180l130 177h104l-133 -181z" />
    <glyph glyph-name="guilsinglright" unicode="&#x203a;" horiz-adv-x="252" 
d="M73 420h100l50 -180l-130 -177h-104l133 181z" />
    <glyph glyph-name="uni203E" unicode="&#x203e;" horiz-adv-x="263" 
d="M333 560h-262l16 76h262z" />
    <glyph glyph-name="fraction" unicode="&#x2044;" horiz-adv-x="142" 
d="M333 667l-430 -667h-55l429 667h56z" />
    <glyph glyph-name="zerosuperior" unicode="&#x2070;" horiz-adv-x="308" 
d="M379 685q0 -54 -18 -114t-61 -108.5t-101 -48.5q-56 0 -89.5 35.5t-33.5 106.5q0 54 18 114t61 108.5t101 48.5q57 0 90 -35.5t33 -106.5zM280 702q0 45 -28 45q-31 0 -54 -77t-23 -130q0 -46 28 -46q31 0 54 77t23 131z" />
    <glyph glyph-name="foursuperior" unicode="&#x2074;" horiz-adv-x="308" 
d="M345 504h-33l-18 -83h-101l18 83h-152l18 78l183 239h122l-52 -237h32zM228 584l28 125l-94 -125h66z" />
    <glyph glyph-name="fivesuperior" unicode="&#x2075;" horiz-adv-x="308" 
d="M355 582q0 -70 -43 -119t-112 -49q-102 0 -145 71l74 55q19 -46 66 -46q24 0 39.5 23t15.5 51q0 40 -36 40q-33 0 -55 -32l-69 22l50 223h248l-17 -80h-148l-20 -87q27 27 62 27q38 0 64 -25t26 -74z" />
    <glyph glyph-name="sixsuperior" unicode="&#x2076;" horiz-adv-x="308" 
d="M357 585q0 -68 -42 -119.5t-108 -51.5q-60 0 -95 35.5t-35 101.5q0 64 21.5 125.5t68.5 106t108 44.5q72 0 111 -48l-63 -62q-17 30 -51 30q-53 0 -80 -101l-2 -7q29 49 80 49q37 0 62 -25.5t25 -77.5zM253 569q0 40 -33 40q-22 0 -43 -32q-3 -21 -3 -38q0 -19 8 -32
t23 -13q21 0 34.5 25.5t13.5 49.5z" />
    <glyph glyph-name="sevensuperior" unicode="&#x2077;" horiz-adv-x="283" 
d="M375 752l-187 -331h-98l187 320h-165l18 80h260z" />
    <glyph glyph-name="eightsuperior" unicode="&#x2078;" horiz-adv-x="308" 
d="M347 535q0 -54 -37 -87.5t-100 -33.5q-67 0 -107.5 26t-40.5 76q0 42 29.5 75t71.5 43q-51 24 -51 77q0 55 40.5 85.5t95.5 30.5q56 0 97 -24t41 -73q0 -40 -25.5 -71t-67.5 -39q22 -11 38 -34.5t16 -50.5zM283 717q0 33 -34 33q-17 0 -29 -15.5t-12 -35.5
q0 -15 9.5 -26.5t18.5 -14.5q47 13 47 59zM249 544q0 18 -9.5 31t-18.5 16q-21 -2 -38 -21.5t-17 -43.5q0 -16 10.5 -25.5t27.5 -9.5q19 0 32 15t13 38z" />
    <glyph glyph-name="ninesuperior" unicode="&#x2079;" horiz-adv-x="308" 
d="M100 657q0 68 41.5 119.5t107.5 51.5q60 0 95 -35.5t35 -101.5q0 -64 -21.5 -125.5t-68.5 -106t-108 -44.5q-72 0 -111 48l63 62q17 -30 51 -30q53 0 80 101l2 7q-29 -49 -80 -49q-36 0 -61 26t-25 77zM203 673q0 -40 33 -40q22 0 43 32q3 21 3 38q0 19 -8 32t-23 13
q-21 0 -34.5 -25.5t-13.5 -49.5z" />
    <glyph glyph-name="parenleftsuperior" unicode="&#x207d;" horiz-adv-x="175" 
d="M188 381l-60 -25q-31 77 -31 164q0 193 148 366l49 -24q-55 -82 -87 -181.5t-32 -191.5q0 -69 13 -108z" />
    <glyph glyph-name="parenrightsuperior" unicode="&#x207e;" horiz-adv-x="176" 
d="M152 862l60 25q31 -77 31 -164q0 -193 -148 -366l-49 24q55 83 87 182.5t32 190.5q0 68 -13 108z" />
    <glyph glyph-name="nsuperior" unicode="&#x207f;" horiz-adv-x="323" 
d="M307 326h-96l45 206q3 12 3 15q0 19 -22 19q-19 0 -43 -36l-45 -204h-98l69 314h98l-8 -38q13 20 35.5 33t46.5 13q34 0 53 -16t19 -43q0 -3 -3 -21z" />
    <glyph glyph-name="zeroinferior" unicode="&#x2080;" horiz-adv-x="308" 
d="M263 118q0 -54 -18 -114t-61 -108.5t-101 -48.5q-56 0 -89.5 35.5t-33.5 106.5q0 54 18 114t61 108.5t101 48.5q57 0 90 -35.5t33 -106.5zM164 135q0 45 -28 45q-31 0 -54 -77t-23 -130q0 -46 28 -46q31 0 54 77t23 131z" />
    <glyph glyph-name="oneinferior" unicode="&#x2081;" horiz-adv-x="259" 
d="M134 -146h-102l58 267l-63 -53l-46 61l154 125h87z" />
    <glyph glyph-name="twoinferior" unicode="&#x2082;" horiz-adv-x="308" 
d="M208 -146h-268l18 79q132 102 171 140.5t39 68.5q0 38 -43 38q-41 0 -79 -44l-46 66q58 58 133 58q60 0 99 -28t39 -79t-40 -94t-147 -125h142z" />
    <glyph glyph-name="threeinferior" unicode="&#x2083;" horiz-adv-x="308" 
d="M232 -28q0 -49 -40 -87t-102 -38q-49 0 -87.5 18t-57.5 51l73 59q22 -48 67 -48q23 0 36.5 17.5t13.5 37.5q0 36 -43 36q-23 0 -30 -1l17 79q5 -1 34 -1q25 0 39.5 13.5t14.5 36.5q0 16 -12 25.5t-32 9.5q-41 0 -72 -37l-50 58q56 59 131 59q61 0 98.5 -26.5t37.5 -72.5
q0 -38 -26 -70.5t-70 -36.5q60 -18 60 -82z" />
    <glyph glyph-name="fourinferior" unicode="&#x2084;" horiz-adv-x="308" 
d="M229 -63h-33l-18 -83h-101l18 83h-152l18 78l183 239h122l-52 -237h32zM112 17l28 125l-94 -125h66z" />
    <glyph glyph-name="fiveinferior" unicode="&#x2085;" horiz-adv-x="308" 
d="M239 15q0 -70 -43 -119t-112 -49q-102 0 -145 71l74 55q19 -46 66 -46q24 0 39.5 23t15.5 51q0 40 -36 40q-33 0 -55 -32l-69 22l50 223h248l-17 -80h-148l-20 -87q27 27 62 27q38 0 64 -25t26 -74z" />
    <glyph glyph-name="sixinferior" unicode="&#x2086;" horiz-adv-x="308" 
d="M241 18q0 -68 -42 -119.5t-108 -51.5q-60 0 -95 35.5t-35 101.5q0 64 21.5 125.5t68.5 106t108 44.5q72 0 111 -48l-63 -62q-17 30 -51 30q-53 0 -80 -101l-2 -7q29 49 80 49q37 0 62 -25.5t25 -77.5zM137 2q0 40 -33 40q-22 0 -43 -32q-3 -21 -3 -38q0 -19 8 -32t23 -13
q21 0 34.5 25.5t13.5 49.5z" />
    <glyph glyph-name="seveninferior" unicode="&#x2087;" horiz-adv-x="283" 
d="M259 185l-187 -331h-98l187 320h-165l18 80h260z" />
    <glyph glyph-name="eightinferior" unicode="&#x2088;" horiz-adv-x="308" 
d="M231 -32q0 -54 -37 -87.5t-100 -33.5q-67 0 -107.5 26t-40.5 76q0 42 29.5 75t71.5 43q-51 24 -51 77q0 55 40.5 85.5t95.5 30.5q56 0 97 -24t41 -73q0 -40 -25.5 -71t-67.5 -39q22 -11 38 -34.5t16 -50.5zM167 150q0 33 -34 33q-17 0 -29 -15.5t-12 -35.5
q0 -15 9.5 -26.5t18.5 -14.5q47 13 47 59zM133 -23q0 18 -9.5 31t-18.5 16q-21 -2 -38 -21.5t-17 -43.5q0 -16 10.5 -25.5t27.5 -9.5q19 0 32 15t13 38z" />
    <glyph glyph-name="nineinferior" unicode="&#x2089;" horiz-adv-x="308" 
d="M-16 90q0 68 41.5 119.5t107.5 51.5q60 0 95 -35.5t35 -101.5q0 -64 -21.5 -125.5t-68.5 -106t-108 -44.5q-72 0 -111 48l63 62q17 -30 51 -30q53 0 80 101l2 7q-29 -49 -80 -49q-36 0 -61 26t-25 77zM87 106q0 -40 33 -40q22 0 43 32q3 21 3 38q0 19 -8 32t-23 13
q-21 0 -34.5 -25.5t-13.5 -49.5z" />
    <glyph glyph-name="parenleftinferior" unicode="&#x208d;" horiz-adv-x="175" 
d="M63 -186l-60 -25q-31 77 -31 164q0 193 148 366l49 -24q-55 -82 -87 -181.5t-32 -191.5q0 -69 13 -108z" />
    <glyph glyph-name="parenrightinferior" unicode="&#x208e;" horiz-adv-x="176" 
d="M27 295l60 25q31 -77 31 -164q0 -193 -148 -366l-49 24q55 83 87 182.5t32 190.5q0 68 -13 108z" />
    <glyph glyph-name="colonmonetary" unicode="&#x20a1;" horiz-adv-x="438" 
d="M215 -12h-12l-37 -88h-75l43 102q-4 1 -28 15l-50 -117h-74l73 173q-31 53 -31 138q0 50 9.5 108t32 121.5t54.5 115t82.5 86t110.5 36.5l38 90h75l-42 -100q17 -7 28 -14l48 114h76l-71 -169q29 -51 33 -130l-140 -27q-4 102 -47 102q-39 0 -71.5 -66.5t-47.5 -142
t-15 -127.5q0 -86 45 -86q41 0 79 80l121 -49q-74 -165 -207 -165z" />
    <glyph glyph-name="frenchfranc" unicode="&#x20a3;" horiz-adv-x="399" 
d="M156 0h-151l23 105h-46l17 76h46l107 486h314l-30 -132h-162l-28 -130h155l-29 -132h-156l-21 -92h78l-17 -76h-77z" />
    <glyph glyph-name="lira" unicode="&#x20a4;" horiz-adv-x="447" 
d="M50 335l15 67h27q-2 11 -2 36q0 103 72 171t158 68q73 0 122.5 -40t50.5 -114l-130 -36q-3 68 -41 68q-29 0 -50 -42t-21 -97v-14h85l-15 -67h-58v-8q0 -15 -4 -43h51l-15 -68h-55q-24 -54 -62 -79q20 8 35 8q23 0 52.5 -11.5t47.5 -11.5q38 0 67 27l11 -122
q-43 -39 -106 -39q-43 0 -92.5 21t-75.5 21q-37 0 -87 -37l-19 102q75 43 98 121h-85l15 68h77q-1 11 -10 51h-56z" />
    <glyph glyph-name="uni20A6" unicode="&#x20a6;" horiz-adv-x="531" 
d="M419 0h-141l-51 324l-71 -324h-151l50 230h-45l16 75h46l13 62h-45l17 77h45l50 223h151l44 -308l68 308h151l-50 -223h44l-17 -77h-44l-13 -62h43l-17 -75h-43z" />
    <glyph glyph-name="peseta" unicode="&#x20a7;" horiz-adv-x="511" 
d="M156 0h-152l89 405h-44l17 77h44l41 185h187q77 0 124 -53.5t47 -131.5h47l-17 -77h-40q-22 -81 -85 -132.5t-160 -51.5h-49zM267 353q46 1 70 52h-92l-11 -52h33zM274 535l-12 -53h89q-9 53 -48 53h-29z" />
    <glyph glyph-name="rupee" unicode="&#x20a8;" horiz-adv-x="816" 
d="M596 -12q-56 0 -104 22t-68 52l72 87q39 -55 100 -55q23 0 38 13t15 31q0 17 -24 34.5t-52.5 32.5t-52.5 47t-24 74q0 70 46.5 119.5t130.5 49.5q45 0 88 -18.5t72 -50.5l-69 -85q-11 17 -38 32.5t-54 15.5q-21 0 -33.5 -10.5t-12.5 -28.5q0 -12 16.5 -24.5t39.5 -25.5
t46 -30t39.5 -45t16.5 -63q0 -71 -52 -122.5t-136 -51.5zM403 0h-158l-13 234h-36l-52 -234h-151l147 667h187q74 0 123 -51.5t49 -127.5t-39 -141.5t-86 -84.5zM257 366h1q37 0 60 32t23 75q0 62 -50 62h-29l-37 -169h32z" />
    <glyph glyph-name="uni20A9" unicode="&#x20a9;" horiz-adv-x="686" 
d="M488 0h-151l22 230h-39l-79 -230h-151l10 230h-78l17 75h64l3 62h-54l18 77h39l10 223h151l-23 -223h47l81 223h117l-17 -223h48l75 223h156l-89 -223h36l-17 -77h-50l-25 -62h62l-18 -75h-74zM469 367l-7 -104l35 104h-28zM266 367h-27l-11 -104zM375 388l-29 -83h21z
" />
    <glyph glyph-name="afii57636" unicode="&#x20aa;" horiz-adv-x="591" 
d="M341 0h-218l87 392h98l-66 -297h102q41 0 62 18.5t30 61.5l83 375h99l-88 -391q-17 -79 -67.5 -119t-121.5 -40zM107 550h174q64 0 114.5 -34t50.5 -102q0 -6 -6 -54l-45 -203h-99l48 214q3 14 3 26q0 58 -76 58h-87l-100 -455h-98z" />
    <glyph glyph-name="dong" unicode="&#x20ab;" horiz-adv-x="452" 
d="M268 -175h-262l16 76h262zM208 495q78 0 99 -70l23 104h-112l17 76h112l14 62h134l-14 -62h42l-18 -76h-41l-116 -529h-135l12 55q-43 -67 -103 -67q-112 0 -112 159q0 51 12.5 109t36 112.5t62.5 90.5t87 36zM241 376q-22 0 -41 -24t-29.5 -58.5t-16 -68t-5.5 -58.5
q0 -60 44 -60q31 0 54 45l39 178q-3 21 -15.5 33.5t-29.5 12.5z" />
    <glyph glyph-name="Euro" unicode="&#x20ac;" horiz-adv-x="467" 
d="M235 -12q-92 0 -141.5 59.5t-49.5 163.5v12h-35l18 83h24q5 27 12 57h-24l20 83h28q37 103 100 167.5t153 64.5q91 0 133 -61t45 -148l-140 -27q-4 102 -47 102q-47 0 -86 -98h92l-19 -83h-99q-1 -7 -5.5 -27t-6.5 -30h99l-18 -83h-91v-15q0 -86 45 -86q41 0 79 80
l121 -49q-74 -165 -207 -165z" />
    <glyph glyph-name="afii61289" unicode="&#x2113;" horiz-adv-x="458" 
d="M233 487l-29 -129l106 79q22 17 34 27.5t24 28t12 33.5q0 23 -16 36.5t-42 13.5q-69 0 -89 -89zM394 377l-222 -165l-16 -75q-3 -11 -3 -18q0 -23 26 -23q11 0 21 8l1 -102q-19 -14 -62 -14q-59 0 -93 22.5t-34 68.5q0 26 6 49l80 359q42 190 239 190q77 0 126 -36.5
t49 -97.5q0 -45 -26.5 -81t-91.5 -85z" />
    <glyph glyph-name="afii61352" unicode="&#x2116;" horiz-adv-x="825" 
d="M702 350q-60 0 -92 34.5t-32 90.5q0 78 45.5 141.5t118.5 63.5q59 0 91.5 -34.5t32.5 -90.5q0 -78 -45.5 -141.5t-118.5 -63.5zM706 428q28 0 44.5 48.5t16.5 83.5q0 41 -31 41q-28 0 -44.5 -48t-16.5 -83q0 -42 31 -42zM407 0h-141l-51 324l-71 -324h-151l147 667h151
l44 -308l68 308h151z" />
    <glyph glyph-name="published" unicode="&#x2117;" horiz-adv-x="778" 
d="M755 334q0 -142 -102 -243.5t-245 -101.5q-142 0 -243 101t-101 244t101 244t243 101q143 0 245 -101.5t102 -243.5zM716 334q0 126 -91 216.5t-217 90.5t-215.5 -90.5t-89.5 -216.5t89.5 -216.5t215.5 -90.5t217 90.5t91 216.5zM596 429q0 -57 -42.5 -94.5t-105.5 -37.5
h-120l-37 -166h-46l89 405h137q52 0 88.5 -29t36.5 -78zM546 426q0 30 -21.5 49t-58.5 19h-94l-35 -154h118q40 0 65.5 25t25.5 61z" />
    <glyph glyph-name="servicemark" unicode="&#x2120;" horiz-adv-x="374" 
d="M382 447h-28l40 182l-95 -182h-8l-15 182l-40 -182h-28l48 220h42l10 -157l78 157h44zM181 513q0 -29 -19.5 -50.5t-47.5 -21.5q-33 0 -50 24l18 22q12 -19 33 -19q12 0 24 13t12 28q0 18 -25 44.5t-25 48.5q0 29 17.5 50t44.5 21q29 0 45 -18l-18 -24q-10 15 -29 15
q-11 0 -20.5 -10.5t-9.5 -26.5q0 -13 25 -42.5t25 -53.5z" />
    <glyph glyph-name="trademark" unicode="&#x2122;" horiz-adv-x="374" 
d="M384 447h-28l40 182l-95 -182h-8l-15 182l-40 -182h-28l48 220h43l10 -157l78 157h43zM217 641h-42l-43 -194h-28l43 194h-42l5 26h112z" />
    <glyph glyph-name="Omega" unicode="&#x2126;" horiz-adv-x="494" 
d="M7 132h91q-60 66 -60 168q0 82 32 167.5t96.5 148t143.5 62.5q90 0 147 -51.5t57 -155.5q0 -107 -43 -196t-112 -143h78l-29 -132h-189l30 132q44 36 75 148t31 176q0 44 -10.5 65.5t-37.5 21.5q-35 0 -66 -59t-47 -134t-16 -136q0 -58 18 -82l-29 -132h-189z" />
    <glyph glyph-name="estimated" unicode="&#x212e;" horiz-adv-x="842" 
d="M829 324h-632q-4 0 -4 -5v-190q0 -15 9 -23q98 -103 240 -103q151 0 250 115h57q-54 -63 -135 -99.5t-174 -36.5q-161 0 -275.5 103t-114.5 248t114.5 248t275.5 103t275.5 -103t114.5 -248zM687 349v191q0 14 -10 24q-97 99 -236 99t-238 -102q-10 -10 -10 -24v-188
q0 -6 5 -6h485q4 0 4 6z" />
    <glyph glyph-name="onethird" unicode="&#x2153;" horiz-adv-x="721" 
d="M224 267h-102l58 267l-63 -53l-46 61l154 125h87zM605 667l-430 -667h-55l429 667h56zM678 118q0 -49 -40 -87t-102 -38q-49 0 -87.5 18t-57.5 51l73 59q22 -48 67 -48q23 0 36.5 17.5t13.5 37.5q0 36 -43 36q-23 0 -30 -1l17 79q5 -1 34 -1q25 0 39.5 13.5t14.5 36.5
q0 16 -12 25.5t-32 9.5q-41 0 -72 -37l-50 58q56 59 131 59q61 0 98.5 -26.5t37.5 -72.5q0 -38 -26 -70.5t-70 -36.5q60 -18 60 -82z" />
    <glyph glyph-name="twothirds" unicode="&#x2154;" horiz-adv-x="757" 
d="M299 267h-268l18 79q132 102 171 140.5t39 68.5q0 38 -43 38q-41 0 -79 -44l-46 66q58 58 133 58q60 0 99 -28t39 -79t-40 -94t-147 -125h142zM641 667l-430 -667h-55l429 667h56zM714 118q0 -49 -40 -87t-102 -38q-49 0 -87.5 18t-57.5 51l73 59q22 -48 67 -48
q23 0 36.5 17.5t13.5 37.5q0 36 -43 36q-23 0 -30 -1l17 79q5 -1 34 -1q25 0 39.5 13.5t14.5 36.5q0 16 -12 25.5t-32 9.5q-41 0 -72 -37l-50 58q56 59 131 59q61 0 98.5 -26.5t37.5 -72.5q0 -38 -26 -70.5t-70 -36.5q60 -18 60 -82z" />
    <glyph glyph-name="oneeighth" unicode="&#x215b;" horiz-adv-x="721" 
d="M225 267h-102l58 267l-63 -53l-46 61l154 125h87zM677 114q0 -54 -37 -87.5t-100 -33.5q-67 0 -107.5 26t-40.5 76q0 42 29.5 75t71.5 43q-51 24 -51 77q0 55 40.5 85.5t95.5 30.5q56 0 97 -24t41 -73q0 -40 -25.5 -71t-67.5 -39q22 -11 38 -34.5t16 -50.5zM613 296
q0 33 -34 33q-17 0 -29 -15.5t-12 -35.5q0 -15 9.5 -26.5t18.5 -14.5q47 13 47 59zM579 123q0 18 -9.5 31t-18.5 16q-21 -2 -38 -21.5t-17 -43.5q0 -16 10.5 -25.5t27.5 -9.5q19 0 32 15t13 38zM605 667l-430 -667h-55l429 667h56z" />
    <glyph glyph-name="threeeighths" unicode="&#x215c;" horiz-adv-x="757" 
d="M713 114q0 -54 -37 -87.5t-100 -33.5q-67 0 -107.5 26t-40.5 76q0 42 29.5 75t71.5 43q-51 24 -51 77q0 55 40.5 85.5t95.5 30.5q56 0 97 -24t41 -73q0 -40 -25.5 -71t-67.5 -39q22 -11 38 -34.5t16 -50.5zM649 296q0 33 -34 33q-17 0 -29 -15.5t-12 -35.5
q0 -15 9.5 -26.5t18.5 -14.5q47 13 47 59zM615 123q0 18 -9.5 31t-18.5 16q-21 -2 -38 -21.5t-17 -43.5q0 -16 10.5 -25.5t27.5 -9.5q19 0 32 15t13 38zM641 667l-430 -667h-55l429 667h56zM323 385q0 -49 -40 -87t-102 -38q-49 0 -87.5 18t-57.5 51l73 59q22 -48 67 -48
q23 0 36.5 17.5t13.5 37.5q0 36 -43 36q-23 0 -30 -1l17 79q5 -1 34 -1q25 0 39.5 13.5t14.5 36.5q0 16 -12 25.5t-32 9.5q-41 0 -72 -37l-50 58q56 59 131 59q61 0 98.5 -26.5t37.5 -72.5q0 -38 -26 -70.5t-70 -36.5q60 -18 60 -82z" />
    <glyph glyph-name="fiveeighths" unicode="&#x215d;" horiz-adv-x="750" 
d="M705 114q0 -54 -37 -87.5t-100 -33.5q-67 0 -107.5 26t-40.5 76q0 42 29.5 75t71.5 43q-51 24 -51 77q0 55 40.5 85.5t95.5 30.5q56 0 97 -24t41 -73q0 -40 -25.5 -71t-67.5 -39q22 -11 38 -34.5t16 -50.5zM641 296q0 33 -34 33q-17 0 -29 -15.5t-12 -35.5
q0 -15 9.5 -26.5t18.5 -14.5q47 13 47 59zM607 123q0 18 -9.5 31t-18.5 16q-21 -2 -38 -21.5t-17 -43.5q0 -16 10.5 -25.5t27.5 -9.5q19 0 32 15t13 38zM330 428q0 -70 -43 -119t-112 -49q-102 0 -145 71l74 55q19 -46 66 -46q24 0 39.5 23t15.5 51q0 40 -36 40
q-33 0 -55 -32l-69 22l50 223h248l-17 -80h-148l-20 -87q27 27 62 27q38 0 64 -25t26 -74zM633 667l-430 -667h-55l429 667h56z" />
    <glyph glyph-name="seveneighths" unicode="&#x215e;" horiz-adv-x="698" 
d="M653 114q0 -54 -37 -87.5t-100 -33.5q-67 0 -107.5 26t-40.5 76q0 42 29.5 75t71.5 43q-51 24 -51 77q0 55 40.5 85.5t95.5 30.5q56 0 97 -24t41 -73q0 -40 -25.5 -71t-67.5 -39q22 -11 38 -34.5t16 -50.5zM589 296q0 33 -34 33q-17 0 -29 -15.5t-12 -35.5
q0 -15 9.5 -26.5t18.5 -14.5q47 13 47 59zM555 123q0 18 -9.5 31t-18.5 16q-21 -2 -38 -21.5t-17 -43.5q0 -16 10.5 -25.5t27.5 -9.5q19 0 32 15t13 38zM350 598l-187 -331h-98l187 320h-165l18 80h260zM581 667l-430 -667h-55l429 667h56z" />
    <glyph glyph-name="arrowleft" unicode="&#x2190;" horiz-adv-x="582" 
d="M558 211h-269l12 -130l-281 205l281 204l-12 -129h269v-150z" />
    <glyph glyph-name="arrowup" unicode="&#x2191;" horiz-adv-x="582" 
d="M236 17v269l-130 -12l205 281l204 -281l-129 12v-269h-150z" />
    </font>
</defs>
</svg>
