<?xml version="1.0" standalone="no"?>
<!DOCTYPE svg PUBLIC "-//W3C//DTD SVG 1.1//EN" "http://www.w3.org/Graphics/SVG/1.1/DTD/svg11.dtd" >
<svg xmlns="http://www.w3.org/2000/svg" xmlns:xlink="http://www.w3.org/1999/xlink" version="1.1">
<metadata>
Created by FontForge 20170731 at Tue Nov 30 17:20:09 2010
 By ,,,
Copyright (c) Mark Simonson, 2005. All rights reserved.
</metadata>
<defs>
<font id="ProximaNovaExCn-LightIt" horiz-adv-x="360" >
  <font-face 
    font-family="Proxima Nova ExCn Lt"
    font-weight="300"
    font-style="italic"
    font-stretch="normal"
    units-per-em="1000"
    panose-1="2 0 5 6 3 0 0 2 0 4"
    ascent="790"
    descent="-210"
    x-height="483"
    cap-height="667"
    bbox="-154 -258 830 886"
    underline-thickness="20"
    underline-position="-173"
    unicode-range="U+000D-FB04"
  />
<missing-glyph horiz-adv-x="486" 
d="M439 -90h-351v842h351v-842zM407 -60v782h-288v-782h288z" />
    <glyph glyph-name="f_f_j" unicode="ffj" horiz-adv-x="596" 
d="M282 0h-49l98 440h-49l9 43h49l20 94q22 100 104 100q22 0 44 -10l-21 -40q-11 6 -22 6q-43 0 -56 -56l-20 -94h68l-10 -43h-67zM368 -196q-46 0 -60 36l33 29q5 -21 26 -21q31 0 46 69l127 566h49l-127 -566q-14 -63 -36 -88t-58 -25zM585 560q-15 0 -25.5 10t-10.5 24
q0 18 14 30t30 12q15 0 25 -9.5t10 -23.5q0 -19 -13.5 -31t-29.5 -12zM69 0h-49l98 440h-49l9 43h49l20 94q22 100 104 100q46 0 64 -28l-28 -37q-12 21 -35 21q-43 0 -56 -56l-20 -94h68l-10 -43h-67z" />
    <glyph glyph-name="f_j" unicode="fj" horiz-adv-x="383" 
d="M69 0h-49l98 440h-49l9 43h49l20 94q22 100 104 100q22 0 44 -10l-21 -40q-10 6 -22 6q-43 0 -56 -56l-20 -94h68l-10 -43h-67zM155 -196q-46 0 -60 36l33 29q5 -21 26 -21q31 0 46 69l127 566h49l-127 -566q-14 -63 -36 -88t-58 -25zM372 560q-15 0 -25.5 10t-10.5 24
q0 18 14 30t30 12q15 0 25 -9.5t10 -23.5q0 -19 -13.5 -31t-29.5 -12z" />
    <glyph glyph-name="f_f" unicode="ff" horiz-adv-x="426" 
d="M69 0h-49l98 440h-49l9 43h49l20 94q22 100 104 100q46 0 64 -28l-28 -37q-12 21 -35 21q-43 0 -56 -56l-20 -94h68l-10 -43h-67zM282 0h-49l98 440h-49l9 43h49l20 94q22 100 104 100q46 0 64 -28l-28 -37q-12 21 -35 21q-43 0 -56 -56l-20 -94h68l-10 -43h-67z" />
    <glyph glyph-name="fi" unicode="fi" horiz-adv-x="383" 
d="M69 0h-49l98 440h-49l9 43h49l20 94q22 100 104 100q22 0 44 -10l-21 -40q-10 6 -22 6q-43 0 -56 -56l-20 -94h68l-10 -43h-67zM372 560q-15 0 -25.5 10t-10.5 24q0 18 14 30t30 12q15 0 25 -9.5t10 -23.5q0 -19 -13.5 -31t-29.5 -12zM269 0h-49l107 483h49z" />
    <glyph glyph-name="fl" unicode="fl" horiz-adv-x="383" 
d="M69 0h-49l98 440h-49l9 43h49l20 94q22 100 104 100q22 0 44 -10l-21 -40q-10 6 -22 6q-43 0 -56 -56l-20 -94h68l-10 -43h-67zM269 0h-49l147 667h49z" />
    <glyph glyph-name="f_f_i" unicode="ffi" horiz-adv-x="596" 
d="M282 0h-49l98 440h-49l9 43h49l20 94q22 100 104 100q22 0 44 -10l-21 -40q-11 6 -22 6q-43 0 -56 -56l-20 -94h68l-10 -43h-67zM585 560q-15 0 -25.5 10t-10.5 24q0 18 14 30t30 12q15 0 25 -9.5t10 -23.5q0 -19 -13.5 -31t-29.5 -12zM482 0h-49l107 483h49zM69 0h-49
l98 440h-49l9 43h49l20 94q22 100 104 100q46 0 64 -28l-28 -37q-12 21 -35 21q-43 0 -56 -56l-20 -94h68l-10 -43h-67z" />
    <glyph glyph-name="f_f_l" unicode="ffl" horiz-adv-x="596" 
d="M282 0h-49l98 440h-49l9 43h49l20 94q22 100 104 100q22 0 44 -10l-21 -40q-11 6 -22 6q-43 0 -56 -56l-20 -94h68l-10 -43h-67zM482 0h-49l147 667h49zM69 0h-49l98 440h-49l9 43h49l20 94q22 100 104 100q46 0 64 -28l-28 -37q-12 21 -35 21q-43 0 -56 -56l-20 -94h68
l-10 -43h-67z" />
    <glyph glyph-name="f_b" unicode="fb" horiz-adv-x="581" 
d="M69 0h-49l98 440h-49l9 43h49l20 94q22 100 104 100q22 0 44 -10l-21 -40q-10 6 -22 6q-43 0 -56 -56l-20 -94h68l-10 -43h-67zM368 -12q-28 0 -51 21.5t-33 63.5l-15 -73h-49l147 667h49l-55 -248q45 76 101 76q44 0 67.5 -36t23.5 -102q0 -47 -11.5 -107t-33 -120
t-59 -101t-81.5 -41zM364 32q32 0 59.5 37t43.5 90t25.5 106t9.5 90q0 96 -59 96q-25 0 -51.5 -26.5t-43.5 -63.5l-53 -237q3 -38 23 -65t46 -27z" />
    <glyph glyph-name="f_h" unicode="fh" horiz-adv-x="573" 
d="M69 0h-49l98 440h-49l9 43h49l20 94q22 100 104 100q22 0 44 -10l-21 -40q-10 6 -22 6q-43 0 -56 -56l-20 -94h68l-10 -43h-67zM459 0h-50l85 382q4 12 4 27q0 42 -41 42q-28 0 -57.5 -26t-51.5 -63l-79 -362h-49l147 667h49l-55 -250q55 78 115 78q36 0 55 -19t19 -51
q0 -8 -5 -33z" />
    <glyph glyph-name="f_k" unicode="fk" horiz-adv-x="556" 
d="M69 0h-49l98 440h-49l9 43h49l20 94q22 100 104 100q22 0 44 -10l-21 -40q-10 6 -22 6q-43 0 -56 -56l-20 -94h68l-10 -43h-67zM482 0h-51l-50 233l-84 -105l-28 -128h-49l147 667h49l-103 -465l224 281h54l-173 -217z" />
    <glyph glyph-name=".notdef" horiz-adv-x="486" 
d="M439 -90h-351v842h351v-842zM407 -60v782h-288v-782h288z" />
    <glyph glyph-name=".null" horiz-adv-x="0" 
 />
    <glyph glyph-name=".null" horiz-adv-x="0" 
 />
    <glyph glyph-name="nonmarkingreturn" horiz-adv-x="333" 
 />
    <glyph glyph-name="CR" unicode="&#xd;" horiz-adv-x="0" 
 />
    <glyph glyph-name="space" unicode=" " horiz-adv-x="176" 
 />
    <glyph glyph-name="exclam" unicode="!" horiz-adv-x="217" 
d="M112 172h-38l96 495h64zM58 -10q-16 0 -27.5 11t-11.5 28q0 19 13.5 32.5t33.5 13.5q16 0 27 -11.5t11 -27.5q0 -19 -13.5 -32.5t-32.5 -13.5z" />
    <glyph glyph-name="quotedbl" unicode="&#x22;" horiz-adv-x="313" 
d="M145 430h-27q26 202 26 205q2 19 12.5 30.5t27.5 11.5q13 0 22 -9t9 -22q0 -5 -5 -20zM275 430h-28q26 202 26 205q2 19 12.5 30.5t27.5 11.5q13 0 22 -9t9 -22q0 -5 -5 -20z" />
    <glyph glyph-name="numbersign" unicode="#" horiz-adv-x="409" 
d="M154 0h-45l86 187h-74l-85 -187h-44l85 187h-72l16 39h73l99 215h-74l16 39h74l85 187h44l-84 -187h74l84 187h44l-84 -187h71l-15 -39h-74l-98 -215h75l-17 -39h-76zM211 226l99 215h-73l-99 -215h73z" />
    <glyph glyph-name="dollar" unicode="$" horiz-adv-x="324" 
d="M75 -100l20 89q-76 10 -109 64l38 40q12 -23 34.5 -38.5t46.5 -17.5l65 288q-25 33 -37 51t-24.5 51.5t-12.5 66.5q0 74 45.5 126t106.5 57l20 91h45l-21 -94q49 -10 77 -47l-34 -40q-21 30 -54 39l-60 -269q65 -93 65 -165q0 -78 -41.5 -134t-104.5 -67l-20 -91h-45z
M152 500q0 -41 35 -95l49 222q-38 -9 -61 -45t-23 -82zM231 187q0 43 -27 89l-52 -231q34 14 56.5 51.5t22.5 90.5z" />
    <glyph glyph-name="percent" unicode="%" horiz-adv-x="563" 
d="M110 0h-36l418 667h37zM370 -12q-49 0 -74 34.5t-25 85.5q0 85 44 146t100 61q49 0 74 -34t25 -85q0 -85 -44.5 -146.5t-99.5 -61.5zM371 25q37 0 68.5 49.5t31.5 118.5q0 85 -57 85q-38 0 -69 -49t-31 -118q0 -86 57 -86zM187 350q-50 0 -75 34t-25 85q0 85 44.5 146.5
t99.5 61.5q50 0 75 -34.5t25 -84.5q0 -85 -44.5 -146.5t-99.5 -61.5zM188 387q37 0 68.5 49.5t31.5 117.5q0 86 -58 86q-37 0 -68.5 -49.5t-31.5 -117.5q0 -86 58 -86z" />
    <glyph glyph-name="ampersand" unicode="&#x26;" horiz-adv-x="378" 
d="M309 0h-55l-21 58q-60 -70 -119 -70q-44 0 -71 31t-27 86q0 87 36 145t103 117q-6 50 -6 97q0 83 39 148t88 65q73 0 73 -94q0 -48 -21 -90.5t-45.5 -68t-65.5 -61.5q-8 -7 -12 -10q5 -29 21 -97q15 -66 24 -97q32 57 70 150l41 -20q-49 -116 -94 -184q14 -38 42 -105z
M121 32q45 0 97 74q-17 51 -33 115q-14 54 -21 94q-45 -45 -70 -93.5t-25 -113.5q0 -35 14.5 -55.5t37.5 -20.5zM197 452q0 -32 2 -48q51 45 77.5 86t26.5 95q0 30 -8 40t-24 10q-29 0 -51.5 -58.5t-22.5 -124.5z" />
    <glyph glyph-name="quotesingle" unicode="'" horiz-adv-x="186" 
d="M145 430h-27q26 202 26 205q2 19 12.5 30.5t27.5 11.5q13 0 22 -9t9 -22q0 -5 -5 -20z" />
    <glyph glyph-name="parenleft" unicode="(" horiz-adv-x="188" 
d="M75 -189l-35 -10q-22 93 -22 197q0 360 217 687l30 -16q-87 -152 -142.5 -341t-55.5 -366q0 -76 8 -151z" />
    <glyph glyph-name="parenright" unicode=")" horiz-adv-x="188" 
d="M112 675l35 10q22 -94 22 -197q0 -360 -217 -687l-30 16q87 153 142.5 341.5t55.5 365.5q0 76 -8 151z" />
    <glyph glyph-name="asterisk" unicode="*" horiz-adv-x="296" 
d="M200 401h-37l32 118l-112 -52l-11 33l116 42l-92 63l25 29l84 -73l20 116h37l-32 -119l112 52l11 -33l-115 -41l90 -63l-24 -29l-84 73z" />
    <glyph glyph-name="plus" unicode="+" horiz-adv-x="376" 
d="M363 317h-138l-35 -158h-42l35 158h-138l9 40h138l33 152h43l-33 -152h137z" />
    <glyph glyph-name="comma" unicode="," horiz-adv-x="217" 
d="M106 28q0 -41 -30 -82t-71 -62l-23 26q28 14 49 37.5t28 46.5q-3 -1 -7 -1q-13 0 -23 10.5t-10 25.5q0 19 14 32.5t32 13.5t29.5 -12.5t11.5 -34.5z" />
    <glyph glyph-name="hyphen" unicode="-" horiz-adv-x="232" 
d="M197 219h-173l10 46h172z" />
    <glyph glyph-name="period" unicode="." horiz-adv-x="217" 
d="M58 -10q-16 0 -27.5 11t-11.5 28q0 19 13.5 32.5t33.5 13.5q16 0 27 -11.5t11 -27.5q0 -19 -13.5 -32.5t-32.5 -13.5z" />
    <glyph glyph-name="slash" unicode="/" horiz-adv-x="189" 
d="M-16 -20h-43l303 707h44z" />
    <glyph glyph-name="zero" unicode="0" horiz-adv-x="395" 
d="M155 -12q-52 0 -82 42t-30 129q0 106 27.5 223t83.5 206t124 89q52 0 82 -42t30 -129q0 -105 -27.5 -222.5t-83.5 -206.5t-124 -89zM160 37q49 0 92 90.5t64 199.5t21 189q0 112 -64 112q-49 0 -92 -90.5t-64 -199.5t-21 -189q0 -112 64 -112z" />
    <glyph glyph-name="one" unicode="1" horiz-adv-x="267" 
d="M146 0h-54l131 594l-126 -111l-26 36l174 148h48z" />
    <glyph glyph-name="two" unicode="2" horiz-adv-x="369" 
d="M267 0h-265l12 57q205 263 259.5 345t54.5 145q0 37 -19 59t-50 22q-58 0 -106 -77l-37 32q66 94 146 94q56 0 90 -32.5t34 -90.5q0 -76 -59 -169.5t-250 -335.5h200z" />
    <glyph glyph-name="three" unicode="3" horiz-adv-x="368" 
d="M140 -12q-54 0 -91 33.5t-49 99.5l50 23q15 -107 90 -107q52 0 84.5 60.5t32.5 133.5q0 44 -22 66.5t-55 22.5q-20 0 -28 -2l12 51q7 -1 43 -1q54 0 84 53.5t30 123.5q0 83 -71 83q-30 0 -57 -21t-45 -56l-37 29q24 42 62.5 69.5t84.5 27.5q55 0 88.5 -33t33.5 -93
q0 -70 -37 -133.5t-97 -77.5q66 -26 66 -121q0 -88 -49.5 -159.5t-122.5 -71.5z" />
    <glyph glyph-name="four" unicode="4" horiz-adv-x="338" 
d="M217 0h-53l40 184h-205l12 53l285 430h68l-96 -434h54l-10 -49h-54zM214 233l80 356l-234 -356h154z" />
    <glyph glyph-name="five" unicode="5" horiz-adv-x="371" 
d="M142 -12q-108 0 -132 132l50 20q9 -103 83 -103q50 0 89.5 77.5t39.5 166.5q0 86 -63 86q-46 0 -95 -57l-37 21l75 336h243l-10 -49h-190l-56 -253q40 49 92 49q44 0 70.5 -35t26.5 -95q0 -113 -55 -204.5t-131 -91.5z" />
    <glyph glyph-name="six" unicode="6" horiz-adv-x="371" 
d="M151 -12q-111 0 -111 161q0 51 13.5 132t40.5 173.5t78 157.5t116 65q42 0 73.5 -29.5t38.5 -79.5l-44 -27q-2 40 -20.5 63.5t-50.5 23.5q-102 0 -167 -294q-1 -4 -4 -20q53 97 120 97q44 0 72 -33.5t28 -96.5q0 -62 -19.5 -127.5t-63 -115.5t-100.5 -50zM157 37
q29 0 53 26.5t38.5 65.5t22 78.5t7.5 71.5q0 38 -15 61.5t-47 23.5q-62 0 -114 -117q-11 -51 -11 -103q0 -107 66 -107z" />
    <glyph glyph-name="seven" unicode="7" horiz-adv-x="304" 
d="M82 0h-59l281 618h-199l11 49h258l-8 -37z" />
    <glyph glyph-name="eight" unicode="8" horiz-adv-x="369" 
d="M147 -12q-131 0 -131 128q0 71 39 134t113 99q-26 21 -44.5 59t-18.5 78q0 72 45.5 131.5t113.5 59.5q51 0 86 -31t35 -96q0 -79 -41.5 -131.5t-98.5 -77.5q30 -26 48 -66.5t18 -81.5q0 -88 -48 -146.5t-116 -58.5zM211 365q45 18 81 64t36 118q0 80 -69 80
q-41 0 -70 -44.5t-29 -106.5q0 -34 15 -65.5t36 -45.5zM146 37q42 0 76 48t34 115q0 46 -18 79.5t-36 44.5q-50 -18 -89 -73t-39 -126q0 -45 20 -66.5t52 -21.5z" />
    <glyph glyph-name="nine" unicode="9" horiz-adv-x="371" 
d="M259 678q112 0 112 -161q0 -39 -8 -99t-27 -136t-46 -140.5t-71.5 -108.5t-96.5 -44q-42 0 -73 29.5t-38 79.5l43 27q2 -40 21 -63.5t50 -23.5q102 0 167 294q1 4 4 20q-51 -97 -120 -97q-43 0 -71 33.5t-28 96.5q0 62 19.5 127.5t63 115.5t99.5 50zM254 629
q-29 0 -53.5 -26.5t-39 -65.5t-22 -78.5t-7.5 -71.5q0 -38 15 -61.5t47 -23.5q61 0 115 117q11 64 11 103q0 107 -66 107z" />
    <glyph glyph-name="colon" unicode=":" horiz-adv-x="217" 
d="M58 -10q-16 0 -27.5 11t-11.5 28q0 19 13.5 32.5t33.5 13.5q16 0 27 -11.5t11 -27.5q0 -19 -13.5 -32.5t-32.5 -13.5zM150 406q-16 0 -27.5 11t-11.5 28q0 19 13.5 32t32.5 13q17 0 28 -11t11 -28q0 -19 -13.5 -32t-32.5 -13z" />
    <glyph glyph-name="semicolon" unicode=";" horiz-adv-x="217" 
d="M106 28q0 -41 -30 -82t-71 -62l-23 26q28 14 49 37.5t28 46.5q-3 -1 -7 -1q-13 0 -23 10.5t-10 25.5q0 19 14 32.5t32 13.5t29.5 -12.5t11.5 -34.5zM150 406q-16 0 -27.5 11t-11.5 28q0 19 13.5 32t32.5 13q17 0 28 -11t11 -28q0 -19 -13.5 -32t-32.5 -13z" />
    <glyph glyph-name="less" unicode="&#x3c;" horiz-adv-x="376" 
d="M329 164l-284 153l8 35l351 153l-11 -49l-294 -124l239 -124z" />
    <glyph glyph-name="equal" unicode="=" horiz-adv-x="376" 
d="M384 412h-318l9 40h318zM340 216h-318l9 40h318z" />
    <glyph glyph-name="greater" unicode="&#x3e;" horiz-adv-x="376" 
d="M363 317l-353 -153l12 49l295 123l-240 125l10 44l284 -153z" />
    <glyph glyph-name="question" unicode="?" horiz-adv-x="307" 
d="M172 197l-46 -21q-12 27 -12 63q0 39 18 73t44 59.5t52.5 50.5t44.5 57.5t18 69.5q0 33 -20 57t-54 24q-38 0 -71 -26l-18 40q44 34 98 34q55 0 87.5 -35t32.5 -82q0 -43 -19 -81t-46 -66t-53.5 -54t-45.5 -55t-19 -58t9 -50zM106 -10q-16 0 -27 11.5t-11 27.5
q0 19 13.5 32.5t32.5 13.5q16 0 27.5 -11.5t11.5 -27.5q0 -19 -13.5 -32.5t-33.5 -13.5z" />
    <glyph glyph-name="at" unicode="@" horiz-adv-x="584" 
d="M279 -70q-100 0 -162 77.5t-62 208.5q0 106 44 204t118.5 158.5t158.5 60.5q88 0 140.5 -65.5t52.5 -180.5q0 -128 -44 -218t-96 -90q-31 0 -49.5 20t-20.5 51v6q-47 -77 -105 -77q-37 0 -63.5 29t-26.5 92q0 109 51.5 201.5t128.5 92.5q56 0 72 -76l11 58h46l-60 -288
q-3 -15 -3 -28q0 -23 6.5 -32.5t22.5 -9.5q13 0 29 18t32 50t27 85.5t11 115.5q0 103 -45 158.5t-117 55.5q-75 0 -142 -57.5t-105.5 -147.5t-38.5 -186q0 -118 53.5 -186.5t140.5 -68.5q70 0 132 57l15 -25q-71 -63 -152 -63zM265 124q22 0 43 15t32.5 30.5t27.5 42.5
l38 172q-14 76 -58 76q-40 0 -72 -42.5t-47 -98.5t-15 -109q0 -86 51 -86z" />
    <glyph glyph-name="A" unicode="A" horiz-adv-x="338" 
d="M275 0h-54l7 166h-151l-65 -166h-57l276 667h62zM231 215l17 383l-152 -383h135z" />
    <glyph glyph-name="B" unicode="B" horiz-adv-x="381" 
d="M150 0h-136l147 667h96q58 0 91.5 -35.5t33.5 -94.5q0 -70 -32.5 -128t-88.5 -71q31 -10 46 -43t15 -71q0 -88 -46.5 -156t-125.5 -68zM148 366h68q35 0 61 29t37 65.5t11 70.5q0 43 -21.5 65t-59.5 22h-40zM149 49q51 0 84 54t33 123q0 92 -84 92h-45l-60 -269h72z" />
    <glyph glyph-name="C" unicode="C" horiz-adv-x="374" 
d="M163 -12q-57 0 -88.5 45t-31.5 135q0 46 8.5 108t28 133t47 130.5t70 99t92.5 39.5q53 0 81.5 -37.5t34.5 -101.5l-51 -9q-9 99 -70 99q-43 0 -80 -55t-58.5 -133.5t-33.5 -153t-12 -123.5q0 -67 16.5 -97t51.5 -30q48 0 97 86l44 -22q-63 -113 -146 -113z" />
    <glyph glyph-name="D" unicode="D" horiz-adv-x="407" 
d="M124 0h-110l147 667h107q53 0 90.5 -47.5t37.5 -144.5q0 -35 -7 -87t-26.5 -121.5t-48 -127.5t-78.5 -98.5t-112 -40.5zM77 49h56q54 0 97 54t65.5 129.5t33.5 139.5t11 102q0 73 -23.5 108.5t-58.5 35.5h-54z" />
    <glyph glyph-name="E" unicode="E" horiz-adv-x="341" 
d="M242 0h-228l147 667h228l-10 -49h-175l-56 -252h168l-11 -48h-168l-60 -269h176z" />
    <glyph glyph-name="F" unicode="F" horiz-adv-x="341" 
d="M67 0h-53l147 667h228l-10 -49h-175l-56 -252h168l-11 -48h-168z" />
    <glyph glyph-name="G" unicode="G" horiz-adv-x="393" 
d="M163 -12q-120 0 -120 180q0 63 15 145.5t43 166t78 141t110 57.5q102 0 115 -135l-49 -10q-9 96 -71 96q-42 0 -78.5 -53.5t-58.5 -130t-34.5 -152.5t-12.5 -129q0 -70 16.5 -98.5t51.5 -28.5q40 0 84 62l40 183h-95l10 49h146l-56 -251q-59 -92 -134 -92z" />
    <glyph glyph-name="H" unicode="H" horiz-adv-x="415" 
d="M294 0h-54l71 319h-174l-70 -319h-53l147 667h53l-66 -300h173l66 300h54z" />
    <glyph glyph-name="I" unicode="I" horiz-adv-x="189" 
d="M67 0h-53l147 667h53z" />
    <glyph glyph-name="J" unicode="J" horiz-adv-x="310" 
d="M72 -12q-74 0 -108 54l31 38q24 -43 74 -43q39 0 61.5 22.5t32.5 73.5l119 534h54l-119 -535q-16 -76 -51 -110t-94 -34z" />
    <glyph glyph-name="K" unicode="K" horiz-adv-x="395" 
d="M326 0h-58l-87 306l-66 -89l-48 -217h-53l147 667h53l-78 -353l259 353h65l-241 -318z" />
    <glyph glyph-name="L" unicode="L" horiz-adv-x="320" 
d="M242 0h-228l147 667h53l-137 -618h176z" />
    <glyph glyph-name="M" unicode="M" horiz-adv-x="533" 
d="M412 0h-54l124 560l-258 -560h-23l-10 560l-124 -560h-53l147 667h75l10 -508l236 508h77z" />
    <glyph glyph-name="N" unicode="N" horiz-adv-x="415" 
d="M294 0h-52l-58 528l-117 -528h-53l147 667h53l58 -519l115 519h54z" />
    <glyph glyph-name="O" unicode="O" horiz-adv-x="415" 
d="M163 -12q-62 0 -91 50t-29 130q0 57 14.5 138.5t42.5 167t78 145t111 59.5q62 0 91.5 -50.5t29.5 -130.5q0 -57 -15 -138t-42.5 -166.5t-78 -145t-111.5 -59.5zM168 37q41 0 77.5 53t59 128.5t35.5 151.5t13 130q0 129 -69 129q-42 0 -78.5 -53t-58.5 -129.5
t-34.5 -152.5t-12.5 -130q0 -127 68 -127z" />
    <glyph glyph-name="P" unicode="P" horiz-adv-x="364" 
d="M67 0h-53l147 667h107q53 0 86 -39.5t33 -104.5q0 -95 -52 -169.5t-144 -74.5h-62zM139 327h58q62 0 97.5 59.5t35.5 134.5q0 48 -20.5 72.5t-53.5 24.5h-52z" />
    <glyph glyph-name="Q" unicode="Q" horiz-adv-x="415" 
d="M163 -12q-62 0 -91 50t-29 130q0 57 14.5 138.5t42.5 167t78 145t111 59.5q62 0 91.5 -50.5t29.5 -130.5q0 -107 -43 -259t-118 -216l8 -49l-45 -8l-5 32q-21 -9 -44 -9zM168 37q15 0 31 8l-25 160l46 7l20 -130q50 65 81.5 196.5t31.5 221.5q0 129 -69 129
q-42 0 -78.5 -53t-58.5 -129.5t-34.5 -152.5t-12.5 -130q0 -127 68 -127z" />
    <glyph glyph-name="R" unicode="R" horiz-adv-x="388" 
d="M285 0h-56l-30 279h-70l-62 -279h-53l147 667h105q55 0 89 -40t34 -101q0 -88 -40.5 -155t-100.5 -84zM139 327h59q63 0 97.5 59.5t34.5 136.5q0 95 -71 95h-55z" />
    <glyph glyph-name="S" unicode="S" horiz-adv-x="337" 
d="M113 -12q-39 0 -74 18t-53 47l38 40q13 -25 38 -40.5t51 -15.5q47 0 82.5 41t35.5 109q0 32 -14 63t-33.5 57.5t-39.5 53.5t-34 61.5t-14 71.5q0 77 49 130.5t113 53.5q74 0 111 -51l-34 -40q-28 42 -77 42q-46 0 -76 -38t-30 -91q0 -33 21 -71.5t46 -69t46 -76t21 -91.5
q0 -87 -49.5 -145.5t-123.5 -58.5z" />
    <glyph glyph-name="T" unicode="T" horiz-adv-x="305" 
d="M125 0h-54l137 618h-107l10 49h269l-10 -49h-108z" />
    <glyph glyph-name="U" unicode="U" horiz-adv-x="416" 
d="M170 -12q-56 0 -90.5 34t-34.5 95q0 25 5 47l111 503h53l-111 -505q-5 -20 -5 -39q0 -42 21 -64t55 -22q40 0 64 28.5t39 96.5l111 505h54l-111 -504q-20 -91 -59 -133t-102 -42z" />
    <glyph glyph-name="V" unicode="V" horiz-adv-x="338" 
d="M146 0h-62l18 667h54l-27 -594l236 594h57z" />
    <glyph glyph-name="W" unicode="W" horiz-adv-x="519" 
d="M341 0h-59l46 551l-199 -551h-59l44 667h56l-48 -568l206 568h49l-46 -568l203 568h57z" />
    <glyph glyph-name="X" unicode="X" horiz-adv-x="338" 
d="M278 0h-56l-43 282l-164 -282h-63l208 342l-54 325h58l36 -271l155 271h63l-199 -331z" />
    <glyph glyph-name="Y" unicode="Y" horiz-adv-x="347" 
d="M146 0h-53l63 286l-62 381h55l43 -323l188 323h59l-229 -381z" />
    <glyph glyph-name="Z" unicode="Z" horiz-adv-x="324" 
d="M236 0h-256l10 48l314 570h-187l11 49h248l-10 -46l-315 -572h195z" />
    <glyph glyph-name="bracketleft" unicode="[" horiz-adv-x="172" 
d="M58 -190h-120l192 868h121l-9 -41h-79l-174 -786h78z" />
    <glyph glyph-name="backslash" unicode="\" horiz-adv-x="189" 
d="M89 -20v707h41v-707h-41z" />
    <glyph glyph-name="bracketright" unicode="]" horiz-adv-x="172" 
d="M41 -190h-120l9 41h78l174 786h-78l9 41h121z" />
    <glyph glyph-name="asciicircum" unicode="^" horiz-adv-x="327" 
d="M327 333h-41l-37 289l-165 -289h-46l199 334h39z" />
    <glyph glyph-name="underscore" unicode="_" horiz-adv-x="279" 
d="M210 -81h-284l9 41h284z" />
    <glyph glyph-name="grave" unicode="`" horiz-adv-x="133" 
d="M202 556h-36l-65 144h54z" />
    <glyph glyph-name="a" unicode="a" horiz-adv-x="368" 
d="M211 495q28 0 51 -21.5t33 -63.5l16 73h49l-107 -483h-49l15 64q-45 -76 -101 -76q-44 0 -68 36t-24 102q0 47 12 107.5t33.5 120.5t58.5 100.5t81 40.5zM216 451q-42 0 -75.5 -63t-48 -135t-14.5 -125q0 -96 59 -96q24 0 50.5 26.5t43.5 63.5l53 237q-3 39 -22.5 65.5
t-45.5 26.5z" />
    <glyph glyph-name="b" unicode="b" horiz-adv-x="368" 
d="M155 -12q-28 0 -51 21.5t-33 63.5l-15 -73h-49l147 667h49l-55 -248q45 76 101 76q44 0 67.5 -36t23.5 -102q0 -47 -11.5 -107t-33 -120t-59 -101t-81.5 -41zM151 32q32 0 59.5 37t43.5 90t25.5 106t9.5 90q0 96 -59 96q-25 0 -51.5 -26.5t-43.5 -63.5l-53 -237
q3 -38 23 -65t46 -27z" />
    <glyph glyph-name="c" unicode="c" horiz-adv-x="306" 
d="M148 -12q-56 0 -87.5 39.5t-31.5 119.5q0 51 13 109t36.5 112.5t64 90.5t89.5 36q59 0 90 -49l-31 -35q-20 40 -60 40q-48 0 -84 -57.5t-51 -125t-15 -123.5q0 -113 73 -113q36 0 65 34l18 -38q-41 -40 -89 -40z" />
    <glyph glyph-name="d" unicode="d" horiz-adv-x="368" 
d="M211 495q28 0 51 -21.5t33 -63.5l57 257h49l-148 -667h-49l15 64q-45 -76 -101 -76q-44 0 -68 36t-24 102q0 47 12 107.5t33.5 120.5t58.5 100.5t81 40.5zM216 451q-42 0 -75.5 -63t-48 -135t-14.5 -125q0 -96 59 -96q24 0 50.5 26.5t43.5 63.5l53 237q-3 39 -22.5 65.5
t-45.5 26.5z" />
    <glyph glyph-name="e" unicode="e" 
d="M157 -12q-61 0 -95 40t-34 119q0 38 10.5 92t31.5 114t61.5 101t92.5 41q112 0 112 -143q0 -59 -18 -126h-232q-9 -44 -9 -80q0 -54 21.5 -85t62.5 -31q47 0 87 59l27 -31q-55 -70 -118 -70zM93 265h184q11 46 11 85q0 45 -17 74t-50 29q-48 0 -81 -58t-47 -130z" />
    <glyph glyph-name="f" unicode="f" horiz-adv-x="213" 
d="M69 0h-49l98 440h-49l9 43h49l20 94q22 100 104 100q46 0 64 -28l-28 -37q-12 21 -35 21q-43 0 -56 -56l-20 -94h68l-10 -43h-67z" />
    <glyph glyph-name="g" unicode="g" horiz-adv-x="368" 
d="M90 -196q-79 0 -121 54l32 39q31 -49 90 -49q79 0 106 121l24 99q-44 -76 -102 -76q-42 0 -67 34t-25 102q0 47 11.5 106.5t32.5 119.5t58.5 100.5t82.5 40.5q27 0 52 -23t33 -62l15 73h48l-113 -510q-20 -90 -59 -129.5t-98 -39.5zM137 36q26 0 52 26.5t43 63.5l52 233
q-2 35 -22 63.5t-47 28.5q-31 0 -58 -35.5t-43.5 -87t-26 -104t-9.5 -92.5q0 -96 59 -96z" />
    <glyph glyph-name="h" unicode="h" 
d="M246 0h-50l85 382q4 12 4 27q0 42 -41 42q-28 0 -57.5 -26t-51.5 -63l-79 -362h-49l147 667h49l-55 -250q55 78 115 78q36 0 55 -19t19 -51q0 -8 -5 -33z" />
    <glyph glyph-name="i" unicode="i" horiz-adv-x="170" 
d="M159 560q-15 0 -25.5 10t-10.5 24q0 18 14 30t30 12q15 0 25 -9.5t10 -23.5q0 -19 -13.5 -31t-29.5 -12zM56 0h-49l107 483h49z" />
    <glyph glyph-name="j" unicode="j" horiz-adv-x="170" 
d="M-58 -196q-46 0 -60 36l33 29q5 -21 26 -21q31 0 46 69l127 566h49l-127 -566q-14 -63 -36 -88t-58 -25zM159 560q-15 0 -25.5 10t-10.5 24q0 18 14 30t30 12q15 0 25 -9.5t10 -23.5q0 -19 -13.5 -31t-29.5 -12z" />
    <glyph glyph-name="k" unicode="k" horiz-adv-x="343" 
d="M269 0h-51l-50 233l-84 -105l-28 -128h-49l147 667h49l-103 -465l224 281h54l-173 -217z" />
    <glyph glyph-name="l" unicode="l" horiz-adv-x="170" 
d="M56 0h-49l147 667h49z" />
    <glyph glyph-name="m" unicode="m" horiz-adv-x="550" 
d="M435 0h-49l84 382q4 20 4 27q0 42 -41 42q-27 0 -56.5 -26t-52.5 -63l-78 -362h-50l85 382q4 20 4 29q0 40 -41 40q-28 0 -57.5 -26t-51.5 -63l-79 -362h-49l107 483h49l-15 -66q53 78 115 78q34 0 54 -18.5t20 -47.5q0 -8 -1 -14q56 80 117 80q35 0 54 -18t19 -51
q0 -14 -4 -34z" />
    <glyph glyph-name="n" unicode="n" 
d="M246 0h-50l85 382q4 16 4 27q0 42 -41 42q-28 0 -57.5 -26t-51.5 -63l-79 -362h-49l107 483h49l-15 -66q55 78 115 78q35 0 54.5 -18.5t19.5 -51.5q0 -15 -5 -33z" />
    <glyph glyph-name="o" unicode="o" horiz-adv-x="367" 
d="M140 -12q-53 0 -82.5 36.5t-29.5 111.5q0 74 21 154t68 142.5t109 62.5q53 0 82.5 -36.5t29.5 -111.5q0 -74 -21 -154t-68 -142.5t-109 -62.5zM143 32q42 0 77 59t51 129.5t16 125.5q0 105 -64 105q-42 0 -77 -59t-51 -130t-16 -126q0 -104 64 -104z" />
    <glyph glyph-name="p" unicode="p" horiz-adv-x="368" 
d="M155 -12q-28 0 -51 21.5t-33 63.5l-56 -257h-49l148 667h49l-15 -64q45 76 101 76q44 0 67.5 -36t23.5 -102q0 -47 -11.5 -107t-33 -120t-59 -101t-81.5 -41zM151 32q32 0 59.5 37t43.5 90t25.5 106t9.5 90q0 96 -59 96q-25 0 -51.5 -26.5t-43.5 -63.5l-53 -237
q3 -38 23 -65t46 -27z" />
    <glyph glyph-name="q" unicode="q" horiz-adv-x="368" 
d="M211 495q28 0 51 -21.5t33 -63.5l16 73h49l-148 -667h-49l56 248q-45 -76 -101 -76q-44 0 -68 36t-24 102q0 47 12 107.5t33.5 120.5t58.5 100.5t81 40.5zM216 451q-42 0 -75.5 -63t-48 -135t-14.5 -125q0 -96 59 -96q24 0 50.5 26.5t43.5 63.5l53 237q-3 39 -22.5 65.5
t-45.5 26.5z" />
    <glyph glyph-name="r" unicode="r" horiz-adv-x="239" 
d="M56 0h-49l107 483h49l-16 -71q48 81 132 81l-13 -53q-8 3 -20 3q-65 0 -112 -90z" />
    <glyph glyph-name="s" unicode="s" horiz-adv-x="294" 
d="M101 -12q-84 0 -115 65l33 31q27 -55 85 -55q35 0 61 29.5t26 67.5q0 31 -19.5 60.5t-43.5 50t-43.5 53.5t-19.5 70q0 56 36 95.5t95 39.5q31 0 58.5 -15t43.5 -42l-32 -31q-9 22 -29.5 34.5t-43.5 12.5q-35 0 -57 -24t-22 -61q0 -23 13 -45.5t31.5 -41.5t37 -39.5
t31.5 -48t13 -58.5q0 -62 -39.5 -105t-99.5 -43z" />
    <glyph glyph-name="t" unicode="t" horiz-adv-x="223" 
d="M104 -12q-70 0 -70 64q0 16 4 33l80 355h-51l10 43h50l29 132h49l-29 -132h68l-10 -43h-67l-78 -350q-4 -13 -4 -29q0 -29 30 -29q19 0 33 16l14 -37q-27 -23 -58 -23z" />
    <glyph glyph-name="u" unicode="u" 
d="M114 483h49l-85 -382q-4 -18 -4 -27q0 -42 41 -42q55 0 107 84l81 367h50l-107 -483h-50l15 66q-55 -78 -115 -78q-35 0 -54.5 18.5t-19.5 51.5q0 16 5 33z" />
    <glyph glyph-name="v" unicode="v" horiz-adv-x="302" 
d="M124 0h-55l-3 483h51l-9 -423l180 423h55z" />
    <glyph glyph-name="w" unicode="w" horiz-adv-x="513" 
d="M339 0h-50l4 415l-177 -415h-51l5 483h50l-14 -411l175 411h52l-7 -411l169 411h54z" />
    <glyph glyph-name="x" unicode="x" horiz-adv-x="306" 
d="M236 0h-52l-38 204l-129 -204h-55l161 245l-48 238h51l34 -197l122 197h55l-155 -238z" />
    <glyph glyph-name="y" unicode="y" horiz-adv-x="302" 
d="M-64 -187l18 41q6 -6 23 -6q15 0 26 11t24 38l41 87l-2 499h51l-8 -419l179 419h55l-273 -597q-22 -46 -43.5 -64t-49.5 -18q-23 0 -41 9z" />
    <glyph glyph-name="z" unicode="z" horiz-adv-x="289" 
d="M197 0h-213l8 41l242 399h-153l10 43h209l-9 -40l-241 -399h156z" />
    <glyph glyph-name="braceleft" unicode="{" horiz-adv-x="195" 
d="M81 -190h-27q-30 0 -51.5 20.5t-21.5 54.5q0 18 4 28l53 241q3 15 3 20q0 51 -39 51l8 38q52 0 68 71l54 245q23 99 110 99h32l-10 -41h-31q-46 0 -59 -58l-56 -253q-14 -68 -64 -87q29 -15 29 -54q0 -18 -4 -34l-53 -241q-2 -12 -2 -16q0 -20 10.5 -32t24.5 -12h31z" />
    <glyph glyph-name="bar" unicode="|" horiz-adv-x="176" 
d="M128 -20h-40v707h40v-707z" />
    <glyph glyph-name="braceright" unicode="}" horiz-adv-x="195" 
d="M113 678h26q30 0 52 -21t22 -56q0 -6 -4 -26l-53 -241q-3 -15 -3 -21q0 -50 39 -50l-9 -38q-51 0 -67 -71l-55 -245q-21 -99 -110 -99h-31l9 41h31q46 0 59 58l56 253q14 68 64 87q-29 15 -29 54q0 18 4 34l53 241q0 2 1.5 7.5t1.5 8.5q0 20 -10.5 32t-24.5 12h-31z" />
    <glyph glyph-name="asciitilde" unicode="~" horiz-adv-x="385" 
d="M410 667l40 -4q-53 -234 -147 -234q-36 0 -50.5 31t-12 67.5t-3 67.5t-26.5 31q-54 0 -102 -199l-40 6q54 232 147 232q36 0 50 -31t11.5 -68t3.5 -68t27 -31q29 0 53 48t49 152z" />
    <glyph glyph-name="nbspace" unicode="&#xa0;" horiz-adv-x="176" 
 />
    <glyph glyph-name="exclamdown" unicode="&#xa1;" horiz-adv-x="217" 
d="M104 311h38l-96 -495h-64zM158 493q16 0 27.5 -11.5t11.5 -27.5q0 -19 -14 -32.5t-33 -13.5q-16 0 -27 11.5t-11 27.5q0 19 13.5 32.5t32.5 13.5z" />
    <glyph glyph-name="cent" unicode="&#xa2;" horiz-adv-x="306" 
d="M91 -100l20 93q-82 24 -82 154q0 68 20 143.5t66.5 137.5t107.5 66l16 71h42l-17 -75q35 -10 58 -44l-31 -35q-12 25 -36 35l-92 -414q31 4 56 34l18 -38q-40 -39 -85 -40l-19 -88h-42zM81 145q0 -84 40 -106l92 409q-61 -15 -96.5 -115t-35.5 -188z" />
    <glyph glyph-name="sterling" unicode="&#xa3;" horiz-adv-x="361" 
d="M35 269l9 40h79q-2 9 -8 28t-9 31t-6 30.5t-3 37.5q0 97 52.5 169t122.5 72q50 0 83 -29.5t37 -81.5l-48 -17q-9 81 -72 81q-44 0 -81 -57t-37 -140q0 -22 4 -42.5t11.5 -45.5t10.5 -36h76l-8 -40h-63v-2q0 -62 -33 -119.5t-75 -87.5q21 11 35 11q23 0 55.5 -17t48.5 -17
q38 0 68 36l14 -42q-38 -43 -92 -43q-34 0 -66 20t-52 20q-31 0 -77 -35l-14 42q54 32 94.5 93.5t40.5 121.5q0 3 -0.5 9.5t-0.5 9.5h-96z" />
    <glyph glyph-name="currency" unicode="&#xa4;" horiz-adv-x="369" 
d="M173 101q-57 0 -88 39l-81 -67l-30 38l90 74q-7 27 -7 62q0 68 18.5 135t52.5 113l-57 73l38 31l51 -68q38 33 84 33q58 0 88 -38l83 69l30 -39l-92 -75q8 -30 8 -63q0 -68 -19.5 -135.5t-53.5 -114.5l58 -72l-38 -31l-53 68q-38 -32 -82 -32zM107 250q0 -101 69 -101
q40 0 72.5 46.5t47.5 106.5t15 113q0 100 -71 100q-40 0 -72 -47t-46.5 -106.5t-14.5 -111.5z" />
    <glyph glyph-name="yen" unicode="&#xa5;" horiz-adv-x="347" 
d="M149 0h-53l28 126h-130l9 40h129l27 120h-129l8 40h114l-55 341h55l43 -323l188 323h59l-205 -341h106l-8 -40h-122l-27 -120h122l-9 -40h-122z" />
    <glyph glyph-name="brokenbar" unicode="&#xa6;" horiz-adv-x="176" 
d="M128 -20h-40v316h40v-316zM128 371h-40v316h40v-316z" />
    <glyph glyph-name="section" unicode="&#xa7;" horiz-adv-x="294" 
d="M278 319q0 -107 -100 -141q45 -45 45 -103q0 -64 -38 -110t-97 -46q-86 0 -122 62l34 32q26 -54 87 -54q35 0 61 31.5t26 75.5q0 25 -12.5 47t-30.5 39.5t-36.5 36t-31 45.5t-12.5 58q0 51 30 87.5t83 43.5q-58 53 -58 117q0 59 37.5 98t87.5 39q77 0 111 -56l-33 -28
q-24 45 -77 45q-32 0 -54.5 -27.5t-22.5 -64.5q0 -25 12.5 -47.5t31 -40.5t36.5 -37t30.5 -45.5t12.5 -56.5zM231 310q0 45 -38 88q-52 -5 -73.5 -33t-21.5 -65q0 -53 53 -98q80 28 80 108z" />
    <glyph glyph-name="dieresis" unicode="&#xa8;" horiz-adv-x="258" 
d="M309 604q0 -16 -12 -27.5t-28 -11.5q-13 0 -22.5 9.5t-9.5 22.5q0 16 12 27.5t28 11.5q14 0 23 -9t9 -23zM178 604q0 -16 -12 -27.5t-28 -11.5q-14 0 -23 9.5t-9 22.5q0 16 12 27.5t28 11.5q14 0 23 -9t9 -23z" />
    <glyph glyph-name="copyright" unicode="&#xa9;" horiz-adv-x="778" 
d="M754 334q0 -142 -101.5 -243.5t-244.5 -101.5q-142 0 -243 101t-101 244t101 244t243 101q143 0 244.5 -101.5t101.5 -243.5zM726 334q0 130 -93.5 223.5t-224.5 93.5q-130 0 -223 -93t-93 -224t93 -224t223 -93q131 0 224.5 93.5t93.5 223.5zM505 197l16 -25
q-60 -52 -132 -52q-88 0 -140 53.5t-52 133.5q0 101 72 171.5t164 70.5q106 0 155 -80l-27 -19q-37 70 -128 70q-77 0 -140.5 -62t-63.5 -151q0 -66 45 -112t115 -46q66 0 116 48z" />
    <glyph glyph-name="ordfeminine" unicode="&#xaa;" horiz-adv-x="282" 
d="M214 614q-39 0 -66.5 -65t-27.5 -126q0 -71 44 -71q35 0 66 59l32 148q-2 23 -15.5 39t-32.5 16zM280 640h41l-69 -314h-41l10 45q-31 -53 -73 -53q-69 0 -69 104q0 47 14 97.5t44.5 89.5t69.5 39q20 0 38.5 -14t24.5 -38z" />
    <glyph glyph-name="guillemotleft" unicode="&#xab;" horiz-adv-x="299" 
d="M123 63h-44l-50 180l130 177h48l-133 -181zM226 63h-44l-50 180l130 177h48l-133 -181z" />
    <glyph glyph-name="logicalnot" unicode="&#xac;" horiz-adv-x="376" 
d="M393 452l-53 -236h-41l43 196h-276l9 40h318z" />
    <glyph glyph-name="uni00AD" unicode="&#xad;" horiz-adv-x="232" 
d="M197 219h-173l10 46h172z" />
    <glyph glyph-name="registered" unicode="&#xae;" horiz-adv-x="494" 
d="M508 465q0 -88 -62.5 -150t-150.5 -62t-149.5 62t-61.5 150t62 150t150 62t150 -61.5t62 -150.5zM481 465q0 77 -54.5 131t-131.5 54t-130.5 -54t-53.5 -131q0 -76 54 -130.5t130 -54.5t131 54.5t55 130.5zM366 343h-36l-42 96h-48l-21 -96h-30l53 243h90q30 0 50 -17
t20 -47q0 -34 -25 -58t-55 -24zM370 518q0 19 -12 29.5t-30 10.5h-62l-20 -90h69q23 0 39 14.5t16 35.5z" />
    <glyph glyph-name="macron" unicode="&#xaf;" horiz-adv-x="244" 
d="M317 577h-244l8 36h243z" />
    <glyph glyph-name="degree" unicode="&#xb0;" horiz-adv-x="281" 
d="M326 561q0 -47 -34.5 -81t-81.5 -34q-48 0 -81.5 34t-33.5 81q0 48 33.5 82t81.5 34q47 0 81.5 -34t34.5 -82zM288 561q0 32 -23 55t-55 23t-54.5 -23t-22.5 -55t22 -54.5t54 -22.5t55.5 23t23.5 54z" />
    <glyph glyph-name="plusminus" unicode="&#xb1;" horiz-adv-x="376" 
d="M363 317h-138l-35 -158h-42l35 158h-138l9 40h138l33 152h43l-33 -152h137zM304 52h-318l9 40h317z" />
    <glyph glyph-name="twosuperior" unicode="&#xb2;" horiz-adv-x="252" 
d="M265 421h-194l8 34q131 141 170.5 192.5t39.5 90.5q0 26 -14 39.5t-36 13.5q-41 0 -75 -50l-26 26q46 60 103 60q39 0 65.5 -23t26.5 -63q0 -48 -40 -101t-163 -183h142z" />
    <glyph glyph-name="threesuperior" unicode="&#xb3;" horiz-adv-x="252" 
d="M292 544q0 -46 -30.5 -88t-84.5 -42q-37 0 -63.5 19t-35.5 52l35 21q14 -56 64 -56q35 0 54 33t19 72q0 27 -14.5 41t-34.5 14t-26 -1l9 36q5 -1 29 -1q31 0 53 26t22 67q0 24 -13 39t-37 15q-41 0 -74 -48l-26 24q43 60 103 60q43 0 66.5 -22.5t23.5 -64.5
q0 -38 -23.5 -73t-62.5 -43q47 -14 47 -80z" />
    <glyph glyph-name="acute" unicode="&#xb4;" horiz-adv-x="133" 
d="M234 700l-130 -144h-37l110 144h57z" />
    <glyph glyph-name="mu" unicode="&#xb5;" horiz-adv-x="368" 
d="M59 13l-43 -197h-50l148 667h49l-85 -383q-7 -34 3 -52t34 -18q28 0 56.5 25t50.5 62l81 366h50l-88 -395q-7 -28 -3 -42t22 -14q9 0 15 1l-5 -42q-18 -3 -26 -3q-36 0 -48 20t-5 63q-50 -83 -109 -83q-32 0 -47 25z" />
    <glyph glyph-name="paragraph" unicode="&#xb6;" horiz-adv-x="449" 
d="M289 -100h-37l163 731h-94l-163 -731h-36l94 423q-57 0 -97 44.5t-40 111.5q0 73 56.5 130.5t137.5 57.5h186z" />
    <glyph glyph-name="periodcentered" unicode="&#xb7;" horiz-adv-x="217" 
d="M105 202q-17 0 -28 11t-11 28q0 19 13.5 32.5t32.5 13.5q16 0 27.5 -11.5t11.5 -27.5q0 -19 -13.5 -32.5t-32.5 -13.5z" />
    <glyph glyph-name="cedilla" unicode="&#xb8;" horiz-adv-x="158" 
d="M-12 -189q-48 0 -77 36l22 29q20 -32 57 -32q23 0 38.5 16t15.5 38q0 28 -27 28q-15 0 -29 -14l-23 15l50 84h36l-42 -69q10 10 24 10q21 0 34 -15t13 -38q0 -37 -27 -62.5t-65 -25.5z" />
    <glyph glyph-name="onesuperior" unicode="&#xb9;" horiz-adv-x="203" 
d="M185 421h-43l75 340l-71 -62l-22 27l111 95h38z" />
    <glyph glyph-name="ordmasculine" unicode="&#xba;" horiz-adv-x="280" 
d="M168 318q-88 0 -88 108q0 42 13.5 90.5t46.5 90t77 41.5q88 0 88 -108q0 -42 -13.5 -90.5t-46.5 -90t-77 -41.5zM169 353q23 0 42.5 21.5t30 53t16.5 61.5t6 52q0 71 -49 71q-30 0 -52.5 -37t-31.5 -78t-9 -72q0 -72 47 -72z" />
    <glyph glyph-name="guillemotright" unicode="&#xbb;" horiz-adv-x="299" 
d="M73 420h44l50 -180l-130 -177h-48l133 181zM176 420h44l50 -180l-130 -177h-48l133 181z" />
    <glyph glyph-name="onequarter" unicode="&#xbc;" horiz-adv-x="545" 
d="M151 267h-43l75 340l-71 -62l-22 27l111 95h38zM498 108h-37l-24 -108h-41l23 108h-138l8 36l184 256h52l-56 -257h36zM426 143l46 201l-145 -201h99zM517 667l-419 -667h-36l418 667h37z" />
    <glyph glyph-name="onehalf" unicode="&#xbd;" horiz-adv-x="576" 
d="M151 267h-43l75 340l-71 -62l-22 27l111 95h38zM496 0h-194l8 34q131 141 170.5 192.5t39.5 90.5q0 26 -14 39.5t-36 13.5q-41 0 -75 -50l-26 26q46 60 103 60q39 0 65.5 -23t26.5 -63q0 -48 -40 -101t-163 -183h142zM517 667l-419 -667h-36l418 667h37z" />
    <glyph glyph-name="threequarters" unicode="&#xbe;" horiz-adv-x="581" 
d="M534 108h-37l-24 -108h-41l23 108h-138l8 36l184 256h52l-56 -257h36zM462 143l46 201l-145 -201h99zM553 667l-419 -667h-36l418 667h37zM258 390q0 -46 -30.5 -88t-84.5 -42q-37 0 -63.5 19t-35.5 52l35 21q14 -56 64 -56q35 0 54 33t19 72q0 27 -14.5 41t-34.5 14
t-26 -1l9 36q5 -1 29 -1q31 0 53 26t22 67q0 24 -13 39t-37 15q-41 0 -74 -48l-26 24q43 60 103 60q43 0 66.5 -22.5t23.5 -64.5q0 -38 -23.5 -73t-62.5 -43q47 -14 47 -80z" />
    <glyph glyph-name="questiondown" unicode="&#xbf;" horiz-adv-x="263" 
d="M133 286l47 21q12 -29 12 -63q0 -39 -18 -73t-44 -59.5t-52.5 -50.5t-44.5 -57.5t-18 -69.5q0 -33 19.5 -57t53.5 -24q37 0 72 25l18 -39q-45 -34 -99 -34q-55 0 -87.5 35t-32.5 82q0 43 19 81t45.5 66t53.5 53.5t46 55t19 58.5t-9 50zM199 492q16 0 27.5 -11t11.5 -27
q0 -19 -13.5 -32.5t-33.5 -13.5q-16 0 -27 11.5t-11 27.5q0 19 13.5 32t32.5 13z" />
    <glyph glyph-name="Agrave" unicode="&#xc0;" horiz-adv-x="338" 
d="M275 0h-54l7 166h-151l-65 -166h-57l276 667h62zM231 215l17 383l-152 -383h135zM309 723h-36l-65 144h54z" />
    <glyph glyph-name="Aacute" unicode="&#xc1;" horiz-adv-x="338" 
d="M275 0h-54l7 166h-151l-65 -166h-57l276 667h62zM231 215l17 383l-152 -383h135zM406 867l-130 -144h-37l110 144h57z" />
    <glyph glyph-name="Acircumflex" unicode="&#xc2;" horiz-adv-x="338" 
d="M368 723h-30l-40 111l-84 -111h-34l99 144h51zM275 0h-54l7 166h-151l-65 -166h-57l276 667h62zM231 215l17 383l-152 -383h135z" />
    <glyph glyph-name="Atilde" unicode="&#xc3;" horiz-adv-x="338" 
d="M275 0h-54l7 166h-151l-65 -166h-57l276 667h62zM231 215l17 383l-152 -383h135zM318 721q-21 0 -30.5 16.5t-10 35.5t-6 35.5t-18.5 16.5q-32 0 -53 -98h-31q29 134 91 134q21 0 31 -16.5t10.5 -35.5t6 -35.5t18.5 -16.5q32 0 53 98h32q-30 -134 -93 -134z" />
    <glyph glyph-name="Adieresis" unicode="&#xc4;" horiz-adv-x="338" 
d="M385 771q0 -16 -12 -27.5t-28 -11.5q-13 0 -22.5 9t-9.5 23q0 16 12 27.5t28 11.5q14 0 23 -9t9 -23zM254 771q0 -16 -12 -27.5t-28 -11.5q-14 0 -23 9t-9 23q0 16 12 27.5t28 11.5q14 0 23 -9t9 -23zM275 0h-54l7 166h-151l-65 -166h-57l276 667h62zM231 215l17 383
l-152 -383h135z" />
    <glyph glyph-name="Aring" unicode="&#xc5;" horiz-adv-x="338" 
d="M275 0h-54l7 166h-151l-65 -166h-57l276 667h62zM231 215l17 383l-152 -383h135zM277 692q-32 0 -52 21t-20 53q0 35 27 62t62 27q32 0 52 -21t20 -53q0 -35 -27 -62t-62 -27zM279 722q23 0 40 17t17 40q0 20 -12 33t-31 13q-23 0 -40.5 -17t-17.5 -40q0 -19 12.5 -32.5
t31.5 -13.5z" />
    <glyph glyph-name="AE" unicode="&#xc6;" horiz-adv-x="532" 
d="M430 0h-229l36 166h-129l-86 -166h-58l361 667h252l-11 -49h-175l-56 -252h169l-11 -48h-169l-59 -269h175zM248 215l84 377l-199 -377h115z" />
    <glyph glyph-name="Ccedilla" unicode="&#xc7;" horiz-adv-x="374" 
d="M117 -189q-48 0 -77 36l22 29q20 -32 57 -32q23 0 38.5 16t15.5 38q0 28 -27 28q-15 0 -29 -14l-23 15l38 65q-89 23 -89 176q0 46 8.5 108t28 133t47 130.5t70 99t92.5 39.5q53 0 81.5 -37.5t34.5 -101.5l-51 -9q-9 99 -70 99q-43 0 -80 -55t-58.5 -133.5t-33.5 -153
t-12 -123.5q0 -67 16.5 -97t51.5 -30q48 0 97 86l44 -22q-63 -110 -143 -113l-28 -46q10 10 24 10q21 0 34 -15t13 -38q0 -37 -27 -62.5t-65 -25.5z" />
    <glyph glyph-name="Egrave" unicode="&#xc8;" horiz-adv-x="341" 
d="M242 0h-228l147 667h228l-10 -49h-175l-56 -252h168l-11 -48h-168l-60 -269h176zM320 723h-36l-65 144h54z" />
    <glyph glyph-name="Eacute" unicode="&#xc9;" horiz-adv-x="341" 
d="M418 867l-130 -144h-37l110 144h57zM242 0h-228l147 667h228l-10 -49h-175l-56 -252h168l-11 -48h-168l-60 -269h176z" />
    <glyph glyph-name="Ecircumflex" unicode="&#xca;" horiz-adv-x="341" 
d="M382 723h-30l-40 111l-84 -111h-34l99 144h51zM242 0h-228l147 667h228l-10 -49h-175l-56 -252h168l-11 -48h-168l-60 -269h176z" />
    <glyph glyph-name="Edieresis" unicode="&#xcb;" horiz-adv-x="341" 
d="M398 771q0 -16 -12 -27.5t-28 -11.5q-14 0 -23 9t-9 23q0 16 12 27.5t28 11.5q14 0 23 -9t9 -23zM267 771q0 -16 -12 -27.5t-28 -11.5q-13 0 -22.5 9t-9.5 23q0 16 12 27.5t28 11.5q14 0 23 -9t9 -23zM242 0h-228l147 667h228l-10 -49h-175l-56 -252h168l-11 -48h-168
l-60 -269h176z" />
    <glyph glyph-name="Igrave" unicode="&#xcc;" horiz-adv-x="189" 
d="M67 0h-53l147 667h53zM234 723h-36l-65 144h54z" />
    <glyph glyph-name="Iacute" unicode="&#xcd;" horiz-adv-x="189" 
d="M67 0h-53l147 667h53zM331 867l-130 -144h-37l110 144h57z" />
    <glyph glyph-name="Icircumflex" unicode="&#xce;" horiz-adv-x="189" 
d="M295 723h-30l-40 111l-84 -111h-34l99 144h51zM67 0h-53l147 667h53z" />
    <glyph glyph-name="Idieresis" unicode="&#xcf;" horiz-adv-x="189" 
d="M312 771q0 -16 -12 -27.5t-28 -11.5q-14 0 -23 9t-9 23q0 16 12 27.5t28 11.5q14 0 23 -9t9 -23zM181 771q0 -16 -12 -27.5t-28 -11.5q-13 0 -22.5 9t-9.5 23q0 16 12 27.5t28 11.5q14 0 23 -9t9 -23zM67 0h-53l147 667h53z" />
    <glyph glyph-name="Eth" unicode="&#xd0;" horiz-adv-x="424" 
d="M142 0h-110l68 311h-62l10 46h62l69 310h107q53 0 90.5 -47.5t37.5 -144.5q0 -35 -7 -87t-26.5 -121.5t-48 -127.5t-78.5 -98.5t-112 -40.5zM244 311h-91l-58 -262h56q54 0 97 54t65.5 129.5t33.5 139.5t11 102q0 73 -23.5 108.5t-58.5 35.5h-54l-59 -261h91z" />
    <glyph glyph-name="Ntilde" unicode="&#xd1;" horiz-adv-x="415" 
d="M358 721q-21 0 -30.5 16.5t-10 35.5t-6 35.5t-18.5 16.5q-32 0 -53 -98h-31q29 134 91 134q21 0 31 -16.5t10.5 -35.5t6 -35.5t18.5 -16.5q32 0 53 98h32q-30 -134 -93 -134zM294 0h-52l-58 528l-117 -528h-53l147 667h53l58 -519l115 519h54z" />
    <glyph glyph-name="Ograve" unicode="&#xd2;" horiz-adv-x="415" 
d="M346 723h-36l-65 144h54zM163 -12q-62 0 -91 50t-29 130q0 57 14.5 138.5t42.5 167t78 145t111 59.5q62 0 91.5 -50.5t29.5 -130.5q0 -57 -15 -138t-42.5 -166.5t-78 -145t-111.5 -59.5zM168 37q41 0 77.5 53t59 128.5t35.5 151.5t13 130q0 129 -69 129q-42 0 -78.5 -53
t-58.5 -129.5t-34.5 -152.5t-12.5 -130q0 -127 68 -127z" />
    <glyph glyph-name="Oacute" unicode="&#xd3;" horiz-adv-x="415" 
d="M445 867l-130 -144h-37l110 144h57zM163 -12q-62 0 -91 50t-29 130q0 57 14.5 138.5t42.5 167t78 145t111 59.5q62 0 91.5 -50.5t29.5 -130.5q0 -57 -15 -138t-42.5 -166.5t-78 -145t-111.5 -59.5zM168 37q41 0 77.5 53t59 128.5t35.5 151.5t13 130q0 129 -69 129
q-42 0 -78.5 -53t-58.5 -129.5t-34.5 -152.5t-12.5 -130q0 -127 68 -127z" />
    <glyph glyph-name="Ocircumflex" unicode="&#xd4;" horiz-adv-x="415" 
d="M408 723h-30l-40 111l-84 -111h-34l99 144h51zM163 -12q-62 0 -91 50t-29 130q0 57 14.5 138.5t42.5 167t78 145t111 59.5q62 0 91.5 -50.5t29.5 -130.5q0 -57 -15 -138t-42.5 -166.5t-78 -145t-111.5 -59.5zM168 37q41 0 77.5 53t59 128.5t35.5 151.5t13 130
q0 129 -69 129q-42 0 -78.5 -53t-58.5 -129.5t-34.5 -152.5t-12.5 -130q0 -127 68 -127z" />
    <glyph glyph-name="Otilde" unicode="&#xd5;" horiz-adv-x="415" 
d="M163 -12q-62 0 -91 50t-29 130q0 57 14.5 138.5t42.5 167t78 145t111 59.5q62 0 91.5 -50.5t29.5 -130.5q0 -57 -15 -138t-42.5 -166.5t-78 -145t-111.5 -59.5zM168 37q41 0 77.5 53t59 128.5t35.5 151.5t13 130q0 129 -69 129q-42 0 -78.5 -53t-58.5 -129.5
t-34.5 -152.5t-12.5 -130q0 -127 68 -127zM357 721q-21 0 -30.5 16.5t-10 35.5t-6 35.5t-18.5 16.5q-32 0 -53 -98h-31q29 134 91 134q21 0 31 -16.5t10.5 -35.5t6 -35.5t18.5 -16.5q32 0 53 98h32q-30 -134 -93 -134z" />
    <glyph glyph-name="Odieresis" unicode="&#xd6;" horiz-adv-x="415" 
d="M424 771q0 -16 -12 -27.5t-28 -11.5q-14 0 -23 9t-9 23q0 16 12 27.5t28 11.5q14 0 23 -9t9 -23zM293 771q0 -16 -12 -27.5t-28 -11.5q-13 0 -22.5 9t-9.5 23q0 16 12 27.5t28 11.5q14 0 23 -9t9 -23zM163 -12q-62 0 -91 50t-29 130q0 57 14.5 138.5t42.5 167t78 145
t111 59.5q62 0 91.5 -50.5t29.5 -130.5q0 -57 -15 -138t-42.5 -166.5t-78 -145t-111.5 -59.5zM168 37q41 0 77.5 53t59 128.5t35.5 151.5t13 130q0 129 -69 129q-42 0 -78.5 -53t-58.5 -129.5t-34.5 -152.5t-12.5 -130q0 -127 68 -127z" />
    <glyph glyph-name="multiply" unicode="&#xd7;" horiz-adv-x="376" 
d="M288 197l-84 109l-135 -111l-25 31l136 111l-85 108l32 26l84 -109l135 111l25 -31l-135 -111l84 -108z" />
    <glyph glyph-name="Oslash" unicode="&#xd8;" horiz-adv-x="415" 
d="M163 -12q-62 0 -93 52l-24 -40h-42l49 82q-10 36 -10 86q0 57 14.5 138.5t42.5 167t78 145t111 59.5q60 0 93 -54l26 43h43l-52 -85q11 -39 11 -85q0 -57 -15 -138t-42.5 -166.5t-78 -145t-111.5 -59.5zM100 164v-6l246 408q-15 63 -62 63q-42 0 -78.5 -53t-58.5 -129.5
t-34.5 -152.5t-12.5 -130zM168 37q41 0 77.5 53t59 128.5t35.5 151.5t13 130v5l-247 -407q13 -61 62 -61z" />
    <glyph glyph-name="Ugrave" unicode="&#xd9;" horiz-adv-x="416" 
d="M170 -12q-56 0 -90.5 34t-34.5 95q0 25 5 47l111 503h53l-111 -505q-5 -20 -5 -39q0 -42 21 -64t55 -22q40 0 64 28.5t39 96.5l111 505h54l-111 -504q-20 -91 -59 -133t-102 -42zM346 723h-36l-65 144h54z" />
    <glyph glyph-name="Uacute" unicode="&#xda;" horiz-adv-x="416" 
d="M446 867l-130 -144h-37l110 144h57zM170 -12q-56 0 -90.5 34t-34.5 95q0 25 5 47l111 503h53l-111 -505q-5 -20 -5 -39q0 -42 21 -64t55 -22q40 0 64 28.5t39 96.5l111 505h54l-111 -504q-20 -91 -59 -133t-102 -42z" />
    <glyph glyph-name="Ucircumflex" unicode="&#xdb;" horiz-adv-x="416" 
d="M408 723h-30l-40 111l-84 -111h-34l99 144h51zM170 -12q-56 0 -90.5 34t-34.5 95q0 25 5 47l111 503h53l-111 -505q-5 -20 -5 -39q0 -42 21 -64t55 -22q40 0 64 28.5t39 96.5l111 505h54l-111 -504q-20 -91 -59 -133t-102 -42z" />
    <glyph glyph-name="Udieresis" unicode="&#xdc;" horiz-adv-x="416" 
d="M424 771q0 -16 -12 -27.5t-28 -11.5q-14 0 -23 9t-9 23q0 16 12 27.5t28 11.5q14 0 23 -9t9 -23zM293 771q0 -16 -12 -27.5t-28 -11.5q-13 0 -22.5 9t-9.5 23q0 16 12 27.5t28 11.5q14 0 23 -9t9 -23zM170 -12q-56 0 -90.5 34t-34.5 95q0 25 5 47l111 503h53l-111 -505
q-5 -20 -5 -39q0 -42 21 -64t55 -22q40 0 64 28.5t39 96.5l111 505h54l-111 -504q-20 -91 -59 -133t-102 -42z" />
    <glyph glyph-name="Yacute" unicode="&#xdd;" horiz-adv-x="347" 
d="M146 0h-53l63 286l-62 381h55l43 -323l188 323h59l-229 -381zM412 867l-130 -144h-37l110 144h57z" />
    <glyph glyph-name="Thorn" unicode="&#xde;" horiz-adv-x="364" 
d="M67 0h-53l147 667h53l-27 -125h53q53 0 86 -39.5t33 -103.5q0 -41 -11.5 -82t-33.5 -78.5t-61.5 -61t-89.5 -23.5h-62zM169 203q62 0 97.5 59t35.5 134q0 45 -19.5 71.5t-54.5 26.5h-52l-64 -291h57z" />
    <glyph glyph-name="germandbls" unicode="&#xdf;" horiz-adv-x="424" 
d="M382 133q0 -56 -38 -100.5t-97 -44.5q-79 0 -119 64l33 33q33 -55 83 -55q34 0 60 28t26 71q0 28 -18.5 54t-41 45t-41 50t-18.5 68q0 35 15 61.5t36.5 43t43 32t36.5 36t15 46.5q0 31 -19.5 49.5t-55.5 18.5q-34 0 -60 -24.5t-38 -77.5l-117 -531h-49l117 531
q16 70 56 108t95 38q54 0 87 -29.5t33 -77.5q0 -41 -23 -71.5t-50 -46t-50 -41t-23 -57.5q0 -24 12.5 -45t30.5 -38t36 -35.5t30.5 -45t12.5 -57.5z" />
    <glyph glyph-name="agrave" unicode="&#xe0;" horiz-adv-x="368" 
d="M211 495q28 0 51 -21.5t33 -63.5l16 73h49l-107 -483h-49l15 64q-45 -76 -101 -76q-44 0 -68 36t-24 102q0 47 12 107.5t33.5 120.5t58.5 100.5t81 40.5zM216 451q-42 0 -75.5 -63t-48 -135t-14.5 -125q0 -96 59 -96q24 0 50.5 26.5t43.5 63.5l53 237q-3 39 -22.5 65.5
t-45.5 26.5zM281 556h-36l-65 144h54z" />
    <glyph glyph-name="aacute" unicode="&#xe1;" horiz-adv-x="368" 
d="M211 495q28 0 51 -21.5t33 -63.5l16 73h49l-107 -483h-49l15 64q-45 -76 -101 -76q-44 0 -68 36t-24 102q0 47 12 107.5t33.5 120.5t58.5 100.5t81 40.5zM216 451q-42 0 -75.5 -63t-48 -135t-14.5 -125q0 -96 59 -96q24 0 50.5 26.5t43.5 63.5l53 237q-3 39 -22.5 65.5
t-45.5 26.5zM379 700l-130 -144h-37l110 144h57z" />
    <glyph glyph-name="acircumflex" unicode="&#xe2;" horiz-adv-x="368" 
d="M211 495q28 0 51 -21.5t33 -63.5l16 73h49l-107 -483h-49l15 64q-45 -76 -101 -76q-44 0 -68 36t-24 102q0 47 12 107.5t33.5 120.5t58.5 100.5t81 40.5zM216 451q-42 0 -75.5 -63t-48 -135t-14.5 -125q0 -96 59 -96q24 0 50.5 26.5t43.5 63.5l53 237q-3 39 -22.5 65.5
t-45.5 26.5zM341 556h-30l-40 111l-84 -111h-34l99 144h51z" />
    <glyph glyph-name="atilde" unicode="&#xe3;" horiz-adv-x="368" 
d="M211 495q28 0 51 -21.5t33 -63.5l16 73h49l-107 -483h-49l15 64q-45 -76 -101 -76q-44 0 -68 36t-24 102q0 47 12 107.5t33.5 120.5t58.5 100.5t81 40.5zM216 451q-42 0 -75.5 -63t-48 -135t-14.5 -125q0 -96 59 -96q24 0 50.5 26.5t43.5 63.5l53 237q-3 39 -22.5 65.5
t-45.5 26.5zM290 554q-21 0 -30.5 16t-10 36t-6 36t-18.5 16q-32 0 -53 -98h-31q29 134 91 134q21 0 31 -16t10.5 -36t6 -36t18.5 -16q32 0 53 98h32q-30 -134 -93 -134z" />
    <glyph glyph-name="adieresis" unicode="&#xe4;" horiz-adv-x="368" 
d="M211 495q28 0 51 -21.5t33 -63.5l16 73h49l-107 -483h-49l15 64q-45 -76 -101 -76q-44 0 -68 36t-24 102q0 47 12 107.5t33.5 120.5t58.5 100.5t81 40.5zM216 451q-42 0 -75.5 -63t-48 -135t-14.5 -125q0 -96 59 -96q24 0 50.5 26.5t43.5 63.5l53 237q-3 39 -22.5 65.5
t-45.5 26.5zM358 604q0 -16 -12 -27.5t-28 -11.5q-14 0 -23 9.5t-9 22.5q0 16 12 27.5t28 11.5q14 0 23 -9t9 -23zM227 604q0 -16 -12 -27.5t-28 -11.5q-13 0 -22.5 9.5t-9.5 22.5q0 16 12 27.5t28 11.5q14 0 23 -9t9 -23z" />
    <glyph glyph-name="aring" unicode="&#xe5;" horiz-adv-x="368" 
d="M211 495q28 0 51 -21.5t33 -63.5l16 73h49l-107 -483h-49l15 64q-45 -76 -101 -76q-44 0 -68 36t-24 102q0 47 12 107.5t33.5 120.5t58.5 100.5t81 40.5zM216 451q-42 0 -75.5 -63t-48 -135t-14.5 -125q0 -96 59 -96q24 0 50.5 26.5t43.5 63.5l53 237q-3 39 -22.5 65.5
t-45.5 26.5zM254 542q-32 0 -52 21t-20 53q0 35 27 62t62 27q32 0 52 -21t20 -53q0 -35 -27 -62t-62 -27zM256 572q23 0 40 17t17 40q0 20 -12 33t-31 13q-23 0 -40.5 -17t-17.5 -40q0 -19 12.5 -32.5t31.5 -13.5z" />
    <glyph glyph-name="ae" unicode="&#xe6;" horiz-adv-x="575" 
d="M216 451q-42 0 -75.5 -63t-48 -135t-14.5 -125q0 -96 59 -96q24 0 50.5 26.5t43.5 63.5l53 237q-3 39 -22.5 65.5t-45.5 26.5zM277 104l-24 -104h-49l15 64q-45 -76 -101 -76q-44 0 -68 36t-24 102q0 47 12 107.5t33.5 120.5t58.5 100.5t81 40.5q28 0 51 -21.5t33 -63.5
l16 73h49l-16 -72q47 84 108 84q100 0 100 -140q0 -62 -19 -129h-229q-9 -44 -9 -80q0 -53 22 -84.5t63 -31.5q45 0 87 60l26 -33q-52 -69 -111 -69q-95 0 -105 116zM312 265h181q10 48 10 85q0 103 -63 103q-48 0 -81.5 -59t-46.5 -129z" />
    <glyph glyph-name="ccedilla" unicode="&#xe7;" horiz-adv-x="306" 
d="M101 -189q-48 0 -77 36l22 29q20 -32 57 -32q23 0 38.5 16t15.5 38q0 28 -27 28q-15 0 -29 -14l-23 15l38 65q-87 19 -87 155q0 51 13 109t36.5 112.5t64 90.5t89.5 36q59 0 90 -49l-31 -35q-20 40 -60 40q-48 0 -84 -57.5t-51 -125t-15 -123.5q0 -113 73 -113
q36 0 65 34l18 -38q-41 -39 -87 -40l-28 -46q10 10 24 10q21 0 34 -15t13 -38q0 -37 -27 -62.5t-65 -25.5z" />
    <glyph glyph-name="egrave" unicode="&#xe8;" 
d="M157 -12q-61 0 -95 40t-34 119q0 38 10.5 92t31.5 114t61.5 101t92.5 41q112 0 112 -143q0 -59 -18 -126h-232q-9 -44 -9 -80q0 -54 21.5 -85t62.5 -31q47 0 87 59l27 -31q-55 -70 -118 -70zM93 265h184q11 46 11 85q0 45 -17 74t-50 29q-48 0 -81 -58t-47 -130zM292 556
h-36l-65 144h54z" />
    <glyph glyph-name="eacute" unicode="&#xe9;" 
d="M389 700l-130 -144h-37l110 144h57zM157 -12q-61 0 -95 40t-34 119q0 38 10.5 92t31.5 114t61.5 101t92.5 41q112 0 112 -143q0 -59 -18 -126h-232q-9 -44 -9 -80q0 -54 21.5 -85t62.5 -31q47 0 87 59l27 -31q-55 -70 -118 -70zM93 265h184q11 46 11 85q0 45 -17 74
t-50 29q-48 0 -81 -58t-47 -130z" />
    <glyph glyph-name="ecircumflex" unicode="&#xea;" 
d="M351 556h-30l-40 111l-84 -111h-34l99 144h51zM157 -12q-61 0 -95 40t-34 119q0 38 10.5 92t31.5 114t61.5 101t92.5 41q112 0 112 -143q0 -59 -18 -126h-232q-9 -44 -9 -80q0 -54 21.5 -85t62.5 -31q47 0 87 59l27 -31q-55 -70 -118 -70zM93 265h184q11 46 11 85
q0 45 -17 74t-50 29q-48 0 -81 -58t-47 -130z" />
    <glyph glyph-name="edieresis" unicode="&#xeb;" 
d="M368 604q0 -16 -12 -27.5t-28 -11.5q-14 0 -23 9.5t-9 22.5q0 16 12 27.5t28 11.5q14 0 23 -9t9 -23zM237 604q0 -16 -12 -27.5t-28 -11.5q-13 0 -22.5 9.5t-9.5 22.5q0 16 12 27.5t28 11.5q14 0 23 -9t9 -23zM157 -12q-61 0 -95 40t-34 119q0 38 10.5 92t31.5 114
t61.5 101t92.5 41q112 0 112 -143q0 -59 -18 -126h-232q-9 -44 -9 -80q0 -54 21.5 -85t62.5 -31q47 0 87 59l27 -31q-55 -70 -118 -70zM93 265h184q11 46 11 85q0 45 -17 74t-50 29q-48 0 -81 -58t-47 -130z" />
    <glyph glyph-name="igrave" unicode="&#xec;" horiz-adv-x="170" 
d="M56 0h-49l107 483h49zM188 556h-36l-65 144h54z" />
    <glyph glyph-name="iacute" unicode="&#xed;" horiz-adv-x="170" 
d="M286 700l-130 -144h-37l110 144h57zM56 0h-49l107 483h49z" />
    <glyph glyph-name="icircumflex" unicode="&#xee;" horiz-adv-x="170" 
d="M249 556h-30l-40 111l-84 -111h-34l99 144h51zM56 0h-49l107 483h49z" />
    <glyph glyph-name="idieresis" unicode="&#xef;" horiz-adv-x="170" 
d="M265 604q0 -16 -12 -27.5t-28 -11.5q-13 0 -22.5 9.5t-9.5 22.5q0 16 12 27.5t28 11.5q14 0 23 -9t9 -23zM134 604q0 -16 -12 -27.5t-28 -11.5q-14 0 -23 9.5t-9 22.5q0 16 12 27.5t28 11.5q14 0 23 -9t9 -23zM56 0h-49l107 483h49z" />
    <glyph glyph-name="eth" unicode="&#xf0;" horiz-adv-x="367" 
d="M171 523l-7 32l110 33q-11 48 -23 79l51 16q10 -33 22 -80l77 23l7 -31l-77 -24q14 -74 14 -160q0 -62 -11.5 -131.5t-34 -137t-63.5 -111t-92 -43.5q-116 0 -116 154q0 70 21.5 148t66.5 138t101 60q29 0 50.5 -18t28.5 -52q-2 66 -15 138zM145 32q32 0 60.5 36t45 87.5
t26 102.5t9.5 87q0 39 -16 69t-50 30q-43 0 -77 -60.5t-49 -129t-15 -116.5q0 -106 66 -106z" />
    <glyph glyph-name="ntilde" unicode="&#xf1;" 
d="M246 0h-50l85 382q4 16 4 27q0 42 -41 42q-28 0 -57.5 -26t-51.5 -63l-79 -362h-49l107 483h49l-15 -66q55 78 115 78q35 0 54.5 -18.5t19.5 -51.5q0 -15 -5 -33zM294 554q-21 0 -30.5 16t-10 36t-6 36t-18.5 16q-32 0 -53 -98h-31q29 134 91 134q21 0 31 -16t10.5 -36
t6 -36t18.5 -16q32 0 53 98h32q-30 -134 -93 -134z" />
    <glyph glyph-name="ograve" unicode="&#xf2;" horiz-adv-x="367" 
d="M140 -12q-53 0 -82.5 36.5t-29.5 111.5q0 74 21 154t68 142.5t109 62.5q53 0 82.5 -36.5t29.5 -111.5q0 -74 -21 -154t-68 -142.5t-109 -62.5zM143 32q42 0 77 59t51 129.5t16 125.5q0 105 -64 105q-42 0 -77 -59t-51 -130t-16 -126q0 -104 64 -104zM287 556h-36l-65 144
h54z" />
    <glyph glyph-name="oacute" unicode="&#xf3;" horiz-adv-x="367" 
d="M384 700l-130 -144h-37l110 144h57zM140 -12q-53 0 -82.5 36.5t-29.5 111.5q0 74 21 154t68 142.5t109 62.5q53 0 82.5 -36.5t29.5 -111.5q0 -74 -21 -154t-68 -142.5t-109 -62.5zM143 32q42 0 77 59t51 129.5t16 125.5q0 105 -64 105q-42 0 -77 -59t-51 -130t-16 -126
q0 -104 64 -104z" />
    <glyph glyph-name="ocircumflex" unicode="&#xf4;" horiz-adv-x="367" 
d="M348 556h-30l-40 111l-84 -111h-34l99 144h51zM140 -12q-53 0 -82.5 36.5t-29.5 111.5q0 74 21 154t68 142.5t109 62.5q53 0 82.5 -36.5t29.5 -111.5q0 -74 -21 -154t-68 -142.5t-109 -62.5zM143 32q42 0 77 59t51 129.5t16 125.5q0 105 -64 105q-42 0 -77 -59t-51 -130
t-16 -126q0 -104 64 -104z" />
    <glyph glyph-name="otilde" unicode="&#xf5;" horiz-adv-x="367" 
d="M140 -12q-53 0 -82.5 36.5t-29.5 111.5q0 74 21 154t68 142.5t109 62.5q53 0 82.5 -36.5t29.5 -111.5q0 -74 -21 -154t-68 -142.5t-109 -62.5zM143 32q42 0 77 59t51 129.5t16 125.5q0 105 -64 105q-42 0 -77 -59t-51 -130t-16 -126q0 -104 64 -104zM297 554
q-21 0 -30.5 16t-10 36t-6 36t-18.5 16q-32 0 -53 -98h-31q29 134 91 134q21 0 31 -16t10.5 -36t6 -36t18.5 -16q32 0 53 98h32q-30 -134 -93 -134z" />
    <glyph glyph-name="odieresis" unicode="&#xf6;" horiz-adv-x="367" 
d="M364 604q0 -16 -12 -27.5t-28 -11.5q-14 0 -23 9.5t-9 22.5q0 16 12 27.5t28 11.5q14 0 23 -9t9 -23zM233 604q0 -16 -12 -27.5t-28 -11.5q-13 0 -22.5 9.5t-9.5 22.5q0 16 12 27.5t28 11.5q14 0 23 -9t9 -23zM140 -12q-53 0 -82.5 36.5t-29.5 111.5q0 74 21 154
t68 142.5t109 62.5q53 0 82.5 -36.5t29.5 -111.5q0 -74 -21 -154t-68 -142.5t-109 -62.5zM143 32q42 0 77 59t51 129.5t16 125.5q0 105 -64 105q-42 0 -77 -59t-51 -130t-16 -126q0 -104 64 -104z" />
    <glyph glyph-name="divide" unicode="&#xf7;" horiz-adv-x="374" 
d="M361 317h-316l9 40h316zM173 155q-15 0 -25 10t-10 25q0 17 12.5 29t29.5 12q15 0 25 -10.5t10 -24.5q0 -17 -12.5 -29t-29.5 -12zM236 439q-14 0 -24 10t-10 25q0 17 12 29t30 12q14 0 24 -10t10 -25q0 -17 -12.5 -29t-29.5 -12z" />
    <glyph glyph-name="oslash" unicode="&#xf8;" horiz-adv-x="367" 
d="M36 0h-39l41 60q-10 30 -10 76q0 74 21 154t68 142.5t109 62.5q56 0 85 -40l19 28h39l-42 -61q11 -31 11 -75q0 -74 -21 -154t-68 -142.5t-109 -62.5q-58 0 -85 39zM143 32q42 0 77 59t51 129.5t16 125.5q0 12 -1 17l-199 -289q14 -42 56 -42zM79 136v-17l200 290
q-15 42 -56 42q-42 0 -77 -59t-51 -130t-16 -126z" />
    <glyph glyph-name="ugrave" unicode="&#xf9;" 
d="M114 483h49l-85 -382q-4 -18 -4 -27q0 -42 41 -42q55 0 107 84l81 367h50l-107 -483h-50l15 66q-55 -78 -115 -78q-35 0 -54.5 18.5t-19.5 51.5q0 16 5 33zM285 556h-36l-65 144h54z" />
    <glyph glyph-name="uacute" unicode="&#xfa;" 
d="M381 700l-130 -144h-37l110 144h57zM114 483h49l-85 -382q-4 -18 -4 -27q0 -42 41 -42q55 0 107 84l81 367h50l-107 -483h-50l15 66q-55 -78 -115 -78q-35 0 -54.5 18.5t-19.5 51.5q0 16 5 33z" />
    <glyph glyph-name="ucircumflex" unicode="&#xfb;" 
d="M345 556h-30l-40 111l-84 -111h-34l99 144h51zM114 483h49l-85 -382q-4 -18 -4 -27q0 -42 41 -42q55 0 107 84l81 367h50l-107 -483h-50l15 66q-55 -78 -115 -78q-35 0 -54.5 18.5t-19.5 51.5q0 16 5 33z" />
    <glyph glyph-name="udieresis" unicode="&#xfc;" 
d="M361 604q0 -16 -12 -27.5t-28 -11.5q-13 0 -22.5 9.5t-9.5 22.5q0 16 12 27.5t28 11.5q14 0 23 -9t9 -23zM230 604q0 -16 -12 -27.5t-28 -11.5q-14 0 -23 9.5t-9 22.5q0 16 12 27.5t28 11.5q14 0 23 -9t9 -23zM114 483h49l-85 -382q-4 -18 -4 -27q0 -42 41 -42
q55 0 107 84l81 367h50l-107 -483h-50l15 66q-55 -78 -115 -78q-35 0 -54.5 18.5t-19.5 51.5q0 16 5 33z" />
    <glyph glyph-name="yacute" unicode="&#xfd;" horiz-adv-x="302" 
d="M-64 -187l18 41q6 -6 23 -6q15 0 26 11t24 38l41 87l-2 499h51l-8 -419l179 419h55l-273 -597q-22 -46 -43.5 -64t-49.5 -18q-23 0 -41 9zM348 700l-130 -144h-37l110 144h57z" />
    <glyph glyph-name="thorn" unicode="&#xfe;" horiz-adv-x="368" 
d="M155 -12q-28 0 -51 21.5t-33 63.5l-56 -257h-49l188 851h49l-55 -248q45 76 101 76q44 0 67.5 -36t23.5 -102q0 -47 -11.5 -107t-33 -120t-59 -101t-81.5 -41zM151 32q32 0 59.5 37t43.5 90t25.5 106t9.5 90q0 96 -59 96q-25 0 -51.5 -26.5t-43.5 -63.5l-53 -237
q3 -38 23 -65t46 -27z" />
    <glyph glyph-name="ydieresis" unicode="&#xff;" horiz-adv-x="302" 
d="M-64 -187l18 41q6 -6 23 -6q15 0 26 11t24 38l41 87l-2 499h51l-8 -419l179 419h55l-273 -597q-22 -46 -43.5 -64t-49.5 -18q-23 0 -41 9zM329 604q0 -16 -12 -27.5t-28 -11.5q-13 0 -22.5 9.5t-9.5 22.5q0 16 12 27.5t28 11.5q14 0 23 -9t9 -23zM198 604
q0 -16 -12 -27.5t-28 -11.5q-14 0 -23 9.5t-9 22.5q0 16 12 27.5t28 11.5q14 0 23 -9t9 -23z" />
    <glyph glyph-name="Amacron" unicode="&#x100;" horiz-adv-x="338" 
d="M275 0h-54l7 166h-151l-65 -166h-57l276 667h62zM231 215l17 383l-152 -383h135zM402 744h-244l8 36h243z" />
    <glyph glyph-name="amacron" unicode="&#x101;" horiz-adv-x="368" 
d="M211 495q28 0 51 -21.5t33 -63.5l16 73h49l-107 -483h-49l15 64q-45 -76 -101 -76q-44 0 -68 36t-24 102q0 47 12 107.5t33.5 120.5t58.5 100.5t81 40.5zM216 451q-42 0 -75.5 -63t-48 -135t-14.5 -125q0 -96 59 -96q24 0 50.5 26.5t43.5 63.5l53 237q-3 39 -22.5 65.5
t-45.5 26.5zM374 577h-244l8 36h243z" />
    <glyph glyph-name="Abreve" unicode="&#x102;" horiz-adv-x="338" 
d="M275 0h-54l7 166h-151l-65 -166h-57l276 667h62zM231 215l17 383l-152 -383h135zM401 782q-56 -59 -130 -59q-75 0 -105 59l32 23q9 -21 31 -33.5t47 -12.5q26 0 53 12.5t44 33.5z" />
    <glyph glyph-name="abreve" unicode="&#x103;" horiz-adv-x="368" 
d="M211 495q28 0 51 -21.5t33 -63.5l16 73h49l-107 -483h-49l15 64q-45 -76 -101 -76q-44 0 -68 36t-24 102q0 47 12 107.5t33.5 120.5t58.5 100.5t81 40.5zM216 451q-42 0 -75.5 -63t-48 -135t-14.5 -125q0 -96 59 -96q24 0 50.5 26.5t43.5 63.5l53 237q-3 39 -22.5 65.5
t-45.5 26.5zM374 615q-56 -59 -130 -59q-75 0 -105 59l32 23q9 -21 31 -33.5t47 -12.5q26 0 53 12.5t44 33.5z" />
    <glyph glyph-name="Aogonek" unicode="&#x104;" horiz-adv-x="338" 
d="M246 -119l26 -18q-24 -49 -70 -49q-57 0 -57 56q0 71 78 130h-2l7 166h-151l-65 -166h-57l276 667h62l-18 -667q-96 -58 -96 -127q0 -27 27 -27q28 0 40 35zM231 215l17 383l-152 -383h135z" />
    <glyph glyph-name="aogonek" unicode="&#x105;" horiz-adv-x="368" 
d="M224 -119l26 -18q-24 -49 -70 -49q-57 0 -57 56q0 73 81 132l15 62q-45 -76 -101 -76q-44 0 -68 36t-24 102q0 47 12 107.5t33.5 120.5t58.5 100.5t81 40.5q28 0 51 -21.5t33 -63.5l16 73h49l-107 -483q-96 -58 -96 -127q0 -27 27 -27q28 0 40 35zM216 451
q-42 0 -75.5 -63t-48 -135t-14.5 -125q0 -96 59 -96q24 0 50.5 26.5t43.5 63.5l53 237q-3 39 -22.5 65.5t-45.5 26.5z" />
    <glyph glyph-name="Cacute" unicode="&#x106;" horiz-adv-x="374" 
d="M445 872l-130 -144h-37l110 144h57zM163 -12q-57 0 -88.5 45t-31.5 135q0 46 8.5 108t28 133t47 130.5t70 99t92.5 39.5q53 0 81.5 -37.5t34.5 -101.5l-51 -9q-9 99 -70 99q-43 0 -80 -55t-58.5 -133.5t-33.5 -153t-12 -123.5q0 -67 16.5 -97t51.5 -30q48 0 97 86l44 -22
q-63 -113 -146 -113z" />
    <glyph glyph-name="cacute" unicode="&#x107;" horiz-adv-x="306" 
d="M390 700l-130 -144h-37l110 144h57zM148 -12q-56 0 -87.5 39.5t-31.5 119.5q0 51 13 109t36.5 112.5t64 90.5t89.5 36q59 0 90 -49l-31 -35q-20 40 -60 40q-48 0 -84 -57.5t-51 -125t-15 -123.5q0 -113 73 -113q36 0 65 34l18 -38q-41 -40 -89 -40z" />
    <glyph glyph-name="Ccircumflex" unicode="&#x108;" horiz-adv-x="374" 
d="M407 723h-30l-40 111l-84 -111h-34l99 144h51zM163 -12q-57 0 -88.5 45t-31.5 135q0 46 8.5 108t28 133t47 130.5t70 99t92.5 39.5q53 0 81.5 -37.5t34.5 -101.5l-51 -9q-9 99 -70 99q-43 0 -80 -55t-58.5 -133.5t-33.5 -153t-12 -123.5q0 -67 16.5 -97t51.5 -30
q48 0 97 86l44 -22q-63 -113 -146 -113z" />
    <glyph glyph-name="ccircumflex" unicode="&#x109;" horiz-adv-x="306" 
d="M353 556h-30l-40 111l-84 -111h-34l99 144h51zM148 -12q-56 0 -87.5 39.5t-31.5 119.5q0 51 13 109t36.5 112.5t64 90.5t89.5 36q59 0 90 -49l-31 -35q-20 40 -60 40q-48 0 -84 -57.5t-51 -125t-15 -123.5q0 -113 73 -113q36 0 65 34l18 -38q-41 -40 -89 -40z" />
    <glyph glyph-name="Cdotaccent" unicode="&#x10a;" horiz-adv-x="374" 
d="M163 -12q-57 0 -88.5 45t-31.5 135q0 46 8.5 108t28 133t47 130.5t70 99t92.5 39.5q53 0 81.5 -37.5t34.5 -101.5l-51 -9q-9 99 -70 99q-43 0 -80 -55t-58.5 -133.5t-33.5 -153t-12 -123.5q0 -67 16.5 -97t51.5 -30q48 0 97 86l44 -22q-63 -113 -146 -113zM358 769
q0 -16 -12 -28t-29 -12q-14 0 -23.5 9t-9.5 23q0 17 12 29t29 12q14 0 23.5 -9.5t9.5 -23.5z" />
    <glyph glyph-name="cdotaccent" unicode="&#x10b;" horiz-adv-x="306" 
d="M148 -12q-56 0 -87.5 39.5t-31.5 119.5q0 51 13 109t36.5 112.5t64 90.5t89.5 36q59 0 90 -49l-31 -35q-20 40 -60 40q-48 0 -84 -57.5t-51 -125t-15 -123.5q0 -113 73 -113q36 0 65 34l18 -38q-41 -40 -89 -40zM306 602q0 -16 -12 -28t-29 -12q-14 0 -23.5 9t-9.5 23
q0 16 12 28.5t29 12.5q14 0 23.5 -9.5t9.5 -23.5z" />
    <glyph glyph-name="Ccaron" unicode="&#x10c;" horiz-adv-x="374" 
d="M341 723h-51l-38 144h30l39 -111l85 111h34zM163 -12q-57 0 -88.5 45t-31.5 135q0 46 8.5 108t28 133t47 130.5t70 99t92.5 39.5q53 0 81.5 -37.5t34.5 -101.5l-51 -9q-9 99 -70 99q-43 0 -80 -55t-58.5 -133.5t-33.5 -153t-12 -123.5q0 -67 16.5 -97t51.5 -30
q48 0 97 86l44 -22q-63 -113 -146 -113z" />
    <glyph glyph-name="ccaron" unicode="&#x10d;" horiz-adv-x="306" 
d="M286 556h-51l-38 144h30l39 -111l85 111h34zM148 -12q-56 0 -87.5 39.5t-31.5 119.5q0 51 13 109t36.5 112.5t64 90.5t89.5 36q59 0 90 -49l-31 -35q-20 40 -60 40q-48 0 -84 -57.5t-51 -125t-15 -123.5q0 -113 73 -113q36 0 65 34l18 -38q-41 -40 -89 -40z" />
    <glyph glyph-name="Dcaron" unicode="&#x10e;" horiz-adv-x="407" 
d="M345 723h-51l-38 144h30l39 -111l85 111h34zM124 0h-110l147 667h107q53 0 90.5 -47.5t37.5 -144.5q0 -35 -7 -87t-26.5 -121.5t-48 -127.5t-78.5 -98.5t-112 -40.5zM77 49h56q54 0 97 54t65.5 129.5t33.5 139.5t11 102q0 73 -23.5 108.5t-58.5 35.5h-54z" />
    <glyph glyph-name="dcaron" unicode="&#x10f;" horiz-adv-x="437" 
d="M522 636q0 -38 -28 -77t-67 -59l-21 24q27 13 47 35.5t27 45.5h-7q-12 0 -21 9.5t-9 22.5q0 17 12 29.5t29 12.5q38 0 38 -43zM211 495q28 0 51 -21.5t33 -63.5l57 257h49l-148 -667h-49l15 64q-45 -76 -101 -76q-44 0 -68 36t-24 102q0 47 12 107.5t33.5 120.5
t58.5 100.5t81 40.5zM216 451q-42 0 -75.5 -63t-48 -135t-14.5 -125q0 -96 59 -96q24 0 50.5 26.5t43.5 63.5l53 237q-3 39 -22.5 65.5t-45.5 26.5z" />
    <glyph glyph-name="Dcroat" unicode="&#x110;" horiz-adv-x="424" 
d="M142 0h-110l68 311h-62l10 46h62l69 310h107q53 0 90.5 -47.5t37.5 -144.5q0 -35 -7 -87t-26.5 -121.5t-48 -127.5t-78.5 -98.5t-112 -40.5zM244 311h-91l-58 -262h56q54 0 97 54t65.5 129.5t33.5 139.5t11 102q0 73 -23.5 108.5t-58.5 35.5h-54l-59 -261h91z" />
    <glyph glyph-name="dcroat" unicode="&#x111;" horiz-adv-x="378" 
d="M211 495q28 0 51 -21.5t33 -63.5l28 128h-128l7 36h129l21 93h49l-21 -93h40l-7 -36h-41l-119 -538h-49l15 64q-45 -76 -101 -76q-44 0 -68 36t-24 102q0 47 12 107.5t33.5 120.5t58.5 100.5t81 40.5zM216 451q-42 0 -75.5 -63t-48 -135t-14.5 -125q0 -96 59 -96
q24 0 50.5 26.5t43.5 63.5l53 237q-3 39 -22.5 65.5t-45.5 26.5z" />
    <glyph glyph-name="Emacron" unicode="&#x112;" horiz-adv-x="341" 
d="M242 0h-228l147 667h228l-10 -49h-175l-56 -252h168l-11 -48h-168l-60 -269h176zM414 744h-244l8 36h243z" />
    <glyph glyph-name="emacron" unicode="&#x113;" 
d="M157 -12q-61 0 -95 40t-34 119q0 38 10.5 92t31.5 114t61.5 101t92.5 41q112 0 112 -143q0 -59 -18 -126h-232q-9 -44 -9 -80q0 -54 21.5 -85t62.5 -31q47 0 87 59l27 -31q-55 -70 -118 -70zM93 265h184q11 46 11 85q0 45 -17 74t-50 29q-48 0 -81 -58t-47 -130zM385 577
h-244l8 36h243z" />
    <glyph glyph-name="Ebreve" unicode="&#x114;" horiz-adv-x="341" 
d="M242 0h-228l147 667h228l-10 -49h-175l-56 -252h168l-11 -48h-168l-60 -269h176zM413 782q-56 -59 -130 -59q-75 0 -105 59l32 23q9 -21 31 -33.5t47 -12.5q26 0 53 12.5t44 33.5z" />
    <glyph glyph-name="ebreve" unicode="&#x115;" 
d="M157 -12q-61 0 -95 40t-34 119q0 38 10.5 92t31.5 114t61.5 101t92.5 41q112 0 112 -143q0 -59 -18 -126h-232q-9 -44 -9 -80q0 -54 21.5 -85t62.5 -31q47 0 87 59l27 -31q-55 -70 -118 -70zM93 265h184q11 46 11 85q0 45 -17 74t-50 29q-48 0 -81 -58t-47 -130zM385 615
q-56 -59 -130 -59q-75 0 -105 59l32 23q9 -21 31 -33.5t47 -12.5q26 0 53 12.5t44 33.5z" />
    <glyph glyph-name="Edotaccent" unicode="&#x116;" horiz-adv-x="341" 
d="M242 0h-228l147 667h228l-10 -49h-175l-56 -252h168l-11 -48h-168l-60 -269h176zM334 770q0 -16 -12 -28t-29 -12q-14 0 -23.5 9t-9.5 23q0 16 12 28.5t29 12.5q14 0 23.5 -9.5t9.5 -23.5z" />
    <glyph glyph-name="edotaccent" unicode="&#x117;" 
d="M157 -12q-61 0 -95 40t-34 119q0 38 10.5 92t31.5 114t61.5 101t92.5 41q112 0 112 -143q0 -59 -18 -126h-232q-9 -44 -9 -80q0 -54 21.5 -85t62.5 -31q47 0 87 59l27 -31q-55 -70 -118 -70zM93 265h184q11 46 11 85q0 45 -17 74t-50 29q-48 0 -81 -58t-47 -130zM305 602
q0 -16 -12 -28t-29 -12q-14 0 -23.5 9t-9.5 23q0 16 12.5 28.5t28.5 12.5q14 0 23.5 -9.5t9.5 -23.5z" />
    <glyph glyph-name="Eogonek" unicode="&#x118;" horiz-adv-x="341" 
d="M242 0q-96 -58 -96 -127q0 -27 27 -27q28 0 40 35l26 -18q-24 -49 -70 -49q-57 0 -57 56q0 71 78 130h-176l147 667h228l-10 -49h-175l-56 -252h168l-11 -48h-168l-60 -269h176z" />
    <glyph glyph-name="eogonek" unicode="&#x119;" 
d="M179 -119l26 -18q-24 -49 -70 -49q-57 0 -57 56q0 64 64 119q-114 10 -114 158q0 38 10.5 92t31.5 114t61.5 101t92.5 41q112 0 112 -143q0 -59 -18 -126h-232q-9 -44 -9 -80q0 -54 21.5 -85t62.5 -31q47 0 87 59l27 -31q-32 -41 -67 -58q-96 -58 -96 -127q0 -27 27 -27
q28 0 40 35zM93 265h184q11 46 11 85q0 45 -17 74t-50 29q-48 0 -81 -58t-47 -130z" />
    <glyph glyph-name="Ecaron" unicode="&#x11a;" horiz-adv-x="341" 
d="M315 723h-51l-38 144h30l39 -111l85 111h34zM242 0h-228l147 667h228l-10 -49h-175l-56 -252h168l-11 -48h-168l-60 -269h176z" />
    <glyph glyph-name="ecaron" unicode="&#x11b;" 
d="M285 556h-51l-38 144h30l39 -111l85 111h34zM157 -12q-61 0 -95 40t-34 119q0 38 10.5 92t31.5 114t61.5 101t92.5 41q112 0 112 -143q0 -59 -18 -126h-232q-9 -44 -9 -80q0 -54 21.5 -85t62.5 -31q47 0 87 59l27 -31q-55 -70 -118 -70zM93 265h184q11 46 11 85
q0 45 -17 74t-50 29q-48 0 -81 -58t-47 -130z" />
    <glyph glyph-name="Gcircumflex" unicode="&#x11c;" horiz-adv-x="393" 
d="M407 723h-30l-40 111l-84 -111h-34l99 144h51zM163 -12q-120 0 -120 180q0 63 15 145.5t43 166t78 141t110 57.5q102 0 115 -135l-49 -10q-9 96 -71 96q-42 0 -78.5 -53.5t-58.5 -130t-34.5 -152.5t-12.5 -129q0 -70 16.5 -98.5t51.5 -28.5q40 0 84 62l40 183h-95l10 49
h146l-56 -251q-59 -92 -134 -92z" />
    <glyph glyph-name="gcircumflex" unicode="&#x11d;" horiz-adv-x="368" 
d="M338 550h-30l-40 111l-84 -111h-34l99 144h51zM90 -196q-79 0 -121 54l32 39q31 -49 90 -49q79 0 106 121l24 99q-44 -76 -102 -76q-42 0 -67 34t-25 102q0 47 11.5 106.5t32.5 119.5t58.5 100.5t82.5 40.5q27 0 52 -23t33 -62l15 73h48l-113 -510q-20 -90 -59 -129.5
t-98 -39.5zM137 36q26 0 52 26.5t43 63.5l52 233q-2 35 -22 63.5t-47 28.5q-31 0 -58 -35.5t-43.5 -87t-26 -104t-9.5 -92.5q0 -96 59 -96z" />
    <glyph glyph-name="Gbreve" unicode="&#x11e;" horiz-adv-x="393" 
d="M163 -12q-120 0 -120 180q0 63 15 145.5t43 166t78 141t110 57.5q102 0 115 -135l-49 -10q-9 96 -71 96q-42 0 -78.5 -53.5t-58.5 -130t-34.5 -152.5t-12.5 -129q0 -70 16.5 -98.5t51.5 -28.5q40 0 84 62l40 183h-95l10 49h146l-56 -251q-59 -92 -134 -92zM440 782
q-56 -59 -130 -59q-75 0 -105 59l32 23q9 -21 31 -33.5t47 -12.5q26 0 53 12.5t44 33.5z" />
    <glyph glyph-name="gbreve" unicode="&#x11f;" horiz-adv-x="368" 
d="M90 -196q-79 0 -121 54l32 39q31 -49 90 -49q79 0 106 121l24 99q-44 -76 -102 -76q-42 0 -67 34t-25 102q0 47 11.5 106.5t32.5 119.5t58.5 100.5t82.5 40.5q27 0 52 -23t33 -62l15 73h48l-113 -510q-20 -90 -59 -129.5t-98 -39.5zM137 36q26 0 52 26.5t43 63.5l52 233
q-2 35 -22 63.5t-47 28.5q-31 0 -58 -35.5t-43.5 -87t-26 -104t-9.5 -92.5q0 -96 59 -96zM373 615q-56 -59 -130 -59q-75 0 -105 59l32 23q9 -21 31 -33.5t47 -12.5q26 0 53 12.5t44 33.5z" />
    <glyph glyph-name="Gdotaccent" unicode="&#x120;" horiz-adv-x="393" 
d="M163 -12q-120 0 -120 180q0 63 15 145.5t43 166t78 141t110 57.5q102 0 115 -135l-49 -10q-9 96 -71 96q-42 0 -78.5 -53.5t-58.5 -130t-34.5 -152.5t-12.5 -129q0 -70 16.5 -98.5t51.5 -28.5q40 0 84 62l40 183h-95l10 49h146l-56 -251q-59 -92 -134 -92zM358 769
q0 -16 -12 -28t-29 -12q-14 0 -23.5 9t-9.5 23q0 17 12 29t29 12q14 0 23.5 -9.5t9.5 -23.5z" />
    <glyph glyph-name="gdotaccent" unicode="&#x121;" horiz-adv-x="368" 
d="M90 -196q-79 0 -121 54l32 39q31 -49 90 -49q79 0 106 121l24 99q-44 -76 -102 -76q-42 0 -67 34t-25 102q0 47 11.5 106.5t32.5 119.5t58.5 100.5t82.5 40.5q27 0 52 -23t33 -62l15 73h48l-113 -510q-20 -90 -59 -129.5t-98 -39.5zM137 36q26 0 52 26.5t43 63.5l52 233
q-2 35 -22 63.5t-47 28.5q-31 0 -58 -35.5t-43.5 -87t-26 -104t-9.5 -92.5q0 -96 59 -96zM293 602q0 -16 -12 -28t-29 -12q-14 0 -23.5 9t-9.5 23q0 16 12.5 28.5t28.5 12.5q14 0 23.5 -9.5t9.5 -23.5z" />
    <glyph glyph-name="Gcommaaccent" unicode="&#x122;" horiz-adv-x="393" 
d="M166 -122q0 -38 -28 -77t-67 -59l-21 24q27 13 47 35.5t27 45.5h-7q-12 0 -21 9.5t-9 22.5q0 17 12 29.5t29 12.5q38 0 38 -43zM163 -12q-120 0 -120 180q0 63 15 145.5t43 166t78 141t110 57.5q102 0 115 -135l-49 -10q-9 96 -71 96q-42 0 -78.5 -53.5t-58.5 -130
t-34.5 -152.5t-12.5 -129q0 -70 16.5 -98.5t51.5 -28.5q40 0 84 62l40 183h-95l10 49h146l-56 -251q-59 -92 -134 -92z" />
    <glyph glyph-name="gcommaaccent" unicode="&#x123;" horiz-adv-x="368" 
d="M216 606q0 38 28.5 76.5t66.5 59.5l22 -23q-27 -14 -47.5 -37t-26.5 -45h6q13 0 22 -9.5t9 -22.5q0 -18 -12.5 -30.5t-29.5 -12.5t-27.5 11.5t-10.5 32.5zM90 -196q-79 0 -121 54l32 39q31 -49 90 -49q79 0 106 121l24 99q-44 -76 -102 -76q-42 0 -67 34t-25 102
q0 47 11.5 106.5t32.5 119.5t58.5 100.5t82.5 40.5q27 0 52 -23t33 -62l15 73h48l-113 -510q-20 -90 -59 -129.5t-98 -39.5zM137 36q26 0 52 26.5t43 63.5l52 233q-2 35 -22 63.5t-47 28.5q-31 0 -58 -35.5t-43.5 -87t-26 -104t-9.5 -92.5q0 -96 59 -96z" />
    <glyph glyph-name="Hcircumflex" unicode="&#x124;" horiz-adv-x="415" 
d="M408 723h-30l-40 111l-84 -111h-34l99 144h51zM294 0h-54l71 319h-174l-70 -319h-53l147 667h53l-66 -300h173l66 300h54z" />
    <glyph glyph-name="hcircumflex" unicode="&#x125;" 
d="M382 723h-30l-40 111l-84 -111h-34l99 144h51zM246 0h-50l85 382q4 12 4 27q0 42 -41 42q-28 0 -57.5 -26t-51.5 -63l-79 -362h-49l147 667h49l-55 -250q55 78 115 78q36 0 55 -19t19 -51q0 -8 -5 -33z" />
    <glyph glyph-name="Hbar" unicode="&#x126;" horiz-adv-x="462" 
d="M318 0h-54l71 319h-174l-70 -319h-53l110 501h-67l8 36h67l29 130h53l-29 -130h173l29 130h54l-29 -130h65l-8 -36h-65zM172 367h173l29 134h-173z" />
    <glyph glyph-name="hbar" unicode="&#x127;" horiz-adv-x="371" 
d="M257 0h-50l85 382q4 12 4 27q0 42 -41 42q-28 0 -57.5 -26t-51.5 -63l-79 -362h-49l118 538h-52l9 36h51l21 93h49l-21 -93h118l-8 -36h-118l-26 -121q55 78 115 78q36 0 55 -19t19 -51q0 -8 -5 -33z" />
    <glyph glyph-name="Itilde" unicode="&#x128;" horiz-adv-x="189" 
d="M67 0h-53l147 667h53zM244 721q-21 0 -30.5 16.5t-10 35.5t-6 35.5t-18.5 16.5q-32 0 -53 -98h-31q29 134 91 134q21 0 31 -16.5t10.5 -35.5t6 -35.5t18.5 -16.5q32 0 53 98h32q-30 -134 -93 -134z" />
    <glyph glyph-name="itilde" unicode="&#x129;" horiz-adv-x="170" 
d="M56 0h-49l107 483h49zM198 554q-21 0 -30.5 16t-10 36t-6 36t-18.5 16q-32 0 -53 -98h-31q29 134 91 134q21 0 31 -16t10.5 -36t6 -36t18.5 -16q32 0 53 98h32q-30 -134 -93 -134z" />
    <glyph glyph-name="Imacron" unicode="&#x12a;" horiz-adv-x="189" 
d="M67 0h-53l147 667h53zM327 744h-244l8 36h243z" />
    <glyph glyph-name="imacron" unicode="&#x12b;" horiz-adv-x="170" 
d="M56 0h-49l107 483h49zM282 577h-244l8 36h243z" />
    <glyph glyph-name="Ibreve" unicode="&#x12c;" horiz-adv-x="189" 
d="M67 0h-53l147 667h53zM327 782q-56 -59 -130 -59q-75 0 -105 59l32 23q9 -21 31 -33.5t47 -12.5q26 0 53 12.5t44 33.5z" />
    <glyph glyph-name="ibreve" unicode="&#x12d;" horiz-adv-x="170" 
d="M56 0h-49l107 483h49zM281 615q-56 -59 -130 -59q-75 0 -105 59l32 23q9 -21 31 -33.5t47 -12.5q26 0 53 12.5t44 33.5z" />
    <glyph glyph-name="Iogonek" unicode="&#x12e;" horiz-adv-x="189" 
d="M38 -119l26 -18q-24 -49 -70 -49q-57 0 -57 56q0 70 78 130h-1l147 667h53l-147 -667q-96 -58 -96 -127q0 -27 27 -27q28 0 40 35z" />
    <glyph glyph-name="iogonek" unicode="&#x12f;" horiz-adv-x="170" 
d="M27 -119l26 -18q-24 -49 -70 -49q-57 0 -57 56q0 72 81 132l107 481h49l-107 -483q-96 -58 -96 -127q0 -27 27 -27q28 0 40 35zM159 560q-15 0 -25.5 10t-10.5 24q0 18 14 30t30 12q15 0 25 -9.5t10 -23.5q0 -19 -13.5 -31t-29.5 -12z" />
    <glyph glyph-name="Idotaccent" unicode="&#x130;" horiz-adv-x="189" 
d="M67 0h-53l147 667h53zM247 769q0 -16 -12 -28t-29 -12q-14 0 -23.5 9t-9.5 23q0 17 12.5 29t28.5 12q14 0 23.5 -9.5t9.5 -23.5z" />
    <glyph glyph-name="dotlessi" unicode="&#x131;" horiz-adv-x="170" 
d="M56 0h-49l107 483h49z" />
    <glyph glyph-name="IJ" unicode="&#x132;" horiz-adv-x="498" 
d="M67 0h-53l147 667h53zM261 -12q-74 0 -108 54l31 38q24 -43 74 -43q39 0 61.5 22.5t32.5 73.5l119 534h54l-119 -535q-16 -76 -51 -110t-94 -34z" />
    <glyph glyph-name="ij" unicode="&#x133;" horiz-adv-x="340" 
d="M159 560q-15 0 -25.5 10t-10.5 24q0 18 14 30t30 12q15 0 25 -9.5t10 -23.5q0 -19 -13.5 -31t-29.5 -12zM56 0h-49l107 483h49zM112 -196q-46 0 -60 36l33 29q5 -21 26 -21q31 0 46 69l127 566h49l-127 -566q-14 -63 -36 -88t-58 -25zM329 560q-15 0 -25.5 10t-10.5 24
q0 18 14 30t30 12q15 0 25 -9.5t10 -23.5q0 -19 -13.5 -31t-29.5 -12z" />
    <glyph glyph-name="Jcircumflex" unicode="&#x134;" horiz-adv-x="310" 
d="M416 723h-30l-40 111l-84 -111h-34l99 144h51zM72 -12q-74 0 -108 54l31 38q24 -43 74 -43q39 0 61.5 22.5t32.5 73.5l119 534h54l-119 -535q-16 -76 -51 -110t-94 -34z" />
    <glyph glyph-name="jcircumflex" unicode="&#x135;" horiz-adv-x="170" 
d="M250 556h-30l-40 111l-84 -111h-34l99 144h51zM-58 -196q-46 0 -60 36l33 29q5 -21 26 -21q31 0 46 69l127 566h49l-127 -566q-14 -63 -36 -88t-58 -25z" />
    <glyph glyph-name="Kcommaaccent" unicode="&#x136;" horiz-adv-x="395" 
d="M176 -122q0 -38 -28 -77t-67 -59l-21 24q27 13 47 35.5t27 45.5h-7q-12 0 -21 9.5t-9 22.5q0 17 12 29.5t29 12.5q38 0 38 -43zM326 0h-58l-87 306l-66 -89l-48 -217h-53l147 667h53l-78 -353l259 353h65l-241 -318z" />
    <glyph glyph-name="kcommaaccent" unicode="&#x137;" horiz-adv-x="343" 
d="M145 -122q0 -38 -28 -77t-67 -59l-21 24q27 13 47 35.5t27 45.5h-7q-12 0 -21 9.5t-9 22.5q0 17 12 29.5t29 12.5q38 0 38 -43zM269 0h-51l-50 233l-84 -105l-28 -128h-49l147 667h49l-103 -465l224 281h54l-173 -217z" />
    <glyph glyph-name="kgreenlandic" unicode="&#x138;" horiz-adv-x="343" 
d="M269 0h-51l-50 233l-84 -105l-28 -128h-49l107 483h49l-63 -281l224 281h54l-173 -217z" />
    <glyph glyph-name="Lacute" unicode="&#x139;" horiz-adv-x="320" 
d="M422 867l-130 -144h-37l110 144h57zM242 0h-228l147 667h53l-137 -618h176z" />
    <glyph glyph-name="lacute" unicode="&#x13a;" horiz-adv-x="170" 
d="M322 867l-130 -144h-37l110 144h57zM56 0h-49l147 667h49z" />
    <glyph glyph-name="Lcommaaccent" unicode="&#x13b;" horiz-adv-x="320" 
d="M149 -122q0 -38 -28 -77t-67 -59l-21 24q27 13 47 35.5t27 45.5h-7q-12 0 -21 9.5t-9 22.5q0 17 12 29.5t29 12.5q38 0 38 -43zM242 0h-228l147 667h53l-137 -618h176z" />
    <glyph glyph-name="lcommaaccent" unicode="&#x13c;" horiz-adv-x="170" 
d="M45 -122q0 -38 -28 -77t-67 -59l-21 24q27 13 47 35.5t27 45.5h-7q-12 0 -21 9.5t-9 22.5q0 17 12 29.5t29 12.5q38 0 38 -43zM56 0h-49l147 667h49z" />
    <glyph glyph-name="Lcaron" unicode="&#x13d;" horiz-adv-x="320" 
d="M344 636q0 -38 -28 -77t-67 -59l-21 24q27 13 47 35.5t27 45.5h-7q-12 0 -21 9.5t-9 22.5q0 17 12 29.5t29 12.5q38 0 38 -43zM242 0h-228l147 667h53l-137 -618h176z" />
    <glyph glyph-name="lcaron" unicode="&#x13e;" horiz-adv-x="238" 
d="M341 636q0 -38 -28 -77t-67 -59l-21 24q27 13 47 35.5t27 45.5h-7q-12 0 -21 9.5t-9 22.5q0 17 12 29.5t29 12.5q38 0 38 -43zM56 0h-49l147 667h49z" />
    <glyph glyph-name="Ldot" unicode="&#x13f;" horiz-adv-x="334" 
d="M242 0h-228l147 667h53l-137 -618h176zM278 299q-16 0 -27.5 11.5t-11.5 27.5q0 19 13.5 32.5t32.5 13.5q16 0 27.5 -11.5t11.5 -27.5q0 -19 -13.5 -32.5t-32.5 -13.5z" />
    <glyph glyph-name="ldot" unicode="&#x140;" horiz-adv-x="258" 
d="M56 0h-49l147 667h49zM210 202q-16 0 -27.5 11t-11.5 28q0 19 13.5 32.5t32.5 13.5q16 0 27.5 -11.5t11.5 -27.5q0 -19 -13.5 -32.5t-32.5 -13.5z" />
    <glyph glyph-name="Lslash" unicode="&#x141;" horiz-adv-x="334" 
d="M27 260l11 50l67 34l71 323h53l-65 -292l70 36l-12 -51l-69 -35l-61 -276h176l-11 -49h-228l65 294z" />
    <glyph glyph-name="lslash" unicode="&#x142;" horiz-adv-x="214" 
d="M30 273l10 44l66 34l70 316h49l-64 -288l66 34l-9 -44l-66 -34l-74 -335h-49l67 307z" />
    <glyph glyph-name="Nacute" unicode="&#x143;" horiz-adv-x="415" 
d="M446 867l-130 -144h-37l110 144h57zM294 0h-52l-58 528l-117 -528h-53l147 667h53l58 -519l115 519h54z" />
    <glyph glyph-name="nacute" unicode="&#x144;" 
d="M381 700l-130 -144h-37l110 144h57zM246 0h-50l85 382q4 16 4 27q0 42 -41 42q-28 0 -57.5 -26t-51.5 -63l-79 -362h-49l107 483h49l-15 -66q55 78 115 78q35 0 54.5 -18.5t19.5 -51.5q0 -15 -5 -33z" />
    <glyph glyph-name="Ncommaaccent" unicode="&#x145;" horiz-adv-x="415" 
d="M170 -122q0 -38 -28 -77t-67 -59l-21 24q27 13 47 35.5t27 45.5h-7q-12 0 -21 9.5t-9 22.5q0 17 12 29.5t29 12.5q38 0 38 -43zM294 0h-52l-58 528l-117 -528h-53l147 667h53l58 -519l115 519h54z" />
    <glyph glyph-name="ncommaaccent" unicode="&#x146;" 
d="M142 -122q0 -38 -28 -77t-67 -59l-21 24q27 13 47 35.5t27 45.5h-7q-12 0 -21 9.5t-9 22.5q0 17 12 29.5t29 12.5q38 0 38 -43zM246 0h-50l85 382q4 16 4 27q0 42 -41 42q-28 0 -57.5 -26t-51.5 -63l-79 -362h-49l107 483h49l-15 -66q55 78 115 78q35 0 54.5 -18.5
t19.5 -51.5q0 -15 -5 -33z" />
    <glyph glyph-name="Ncaron" unicode="&#x147;" horiz-adv-x="415" 
d="M342 723h-51l-38 144h30l39 -111l85 111h34zM294 0h-52l-58 528l-117 -528h-53l147 667h53l58 -519l115 519h54z" />
    <glyph glyph-name="ncaron" unicode="&#x148;" 
d="M276 556h-51l-38 144h30l39 -111l85 111h34zM246 0h-50l85 382q4 16 4 27q0 42 -41 42q-28 0 -57.5 -26t-51.5 -63l-79 -362h-49l107 483h49l-15 -66q55 78 115 78q35 0 54.5 -18.5t19.5 -51.5q0 -15 -5 -33z" />
    <glyph glyph-name="napostrophe" unicode="&#x149;" 
d="M226 689q0 -38 -28 -77t-67 -59l-21 24q27 13 47 35.5t27 45.5h-7q-12 0 -21 9.5t-9 22.5q0 17 12 29.5t29 12.5q38 0 38 -43zM246 0h-50l85 382q4 16 4 27q0 42 -41 42q-28 0 -57.5 -26t-51.5 -63l-79 -362h-49l107 483h49l-15 -66q55 78 115 78q35 0 54.5 -18.5
t19.5 -51.5q0 -15 -5 -33z" />
    <glyph glyph-name="Eng" unicode="&#x14a;" horiz-adv-x="415" 
d="M137 -196q-73 0 -107 54l31 37q24 -43 74 -43q39 0 61 22.5t33 73.5l12 56l-57 524l-117 -528h-53l147 667h53l58 -519l115 519h54l-159 -720q-17 -75 -51 -109t-94 -34z" />
    <glyph glyph-name="eng" unicode="&#x14b;" 
d="M332 392l-105 -475q-14 -64 -36.5 -88.5t-58.5 -24.5q-45 0 -60 36l33 29q3 -21 26 -21q31 0 46 69l104 465q4 16 4 28q0 41 -41 41q-27 0 -57.5 -26.5t-51.5 -62.5l-79 -362h-49l107 483h49l-16 -70q56 82 116 82q34 0 54 -18t20 -52q0 -11 -5 -33z" />
    <glyph glyph-name="Omacron" unicode="&#x14c;" horiz-adv-x="415" 
d="M440 744h-244l8 36h243zM163 -12q-62 0 -91 50t-29 130q0 57 14.5 138.5t42.5 167t78 145t111 59.5q62 0 91.5 -50.5t29.5 -130.5q0 -57 -15 -138t-42.5 -166.5t-78 -145t-111.5 -59.5zM168 37q41 0 77.5 53t59 128.5t35.5 151.5t13 130q0 129 -69 129q-42 0 -78.5 -53
t-58.5 -129.5t-34.5 -152.5t-12.5 -130q0 -127 68 -127z" />
    <glyph glyph-name="omacron" unicode="&#x14d;" horiz-adv-x="367" 
d="M379 577h-244l8 36h243zM140 -12q-53 0 -82.5 36.5t-29.5 111.5q0 74 21 154t68 142.5t109 62.5q53 0 82.5 -36.5t29.5 -111.5q0 -74 -21 -154t-68 -142.5t-109 -62.5zM143 32q42 0 77 59t51 129.5t16 125.5q0 105 -64 105q-42 0 -77 -59t-51 -130t-16 -126
q0 -104 64 -104z" />
    <glyph glyph-name="Obreve" unicode="&#x14e;" horiz-adv-x="415" 
d="M163 -12q-62 0 -91 50t-29 130q0 57 14.5 138.5t42.5 167t78 145t111 59.5q62 0 91.5 -50.5t29.5 -130.5q0 -57 -15 -138t-42.5 -166.5t-78 -145t-111.5 -59.5zM168 37q41 0 77.5 53t59 128.5t35.5 151.5t13 130q0 129 -69 129q-42 0 -78.5 -53t-58.5 -129.5
t-34.5 -152.5t-12.5 -130q0 -127 68 -127zM440 782q-56 -59 -130 -59q-75 0 -105 59l32 23q9 -21 31 -33.5t47 -12.5q26 0 53 12.5t44 33.5z" />
    <glyph glyph-name="obreve" unicode="&#x14f;" horiz-adv-x="367" 
d="M140 -12q-53 0 -82.5 36.5t-29.5 111.5q0 74 21 154t68 142.5t109 62.5q53 0 82.5 -36.5t29.5 -111.5q0 -74 -21 -154t-68 -142.5t-109 -62.5zM143 32q42 0 77 59t51 129.5t16 125.5q0 105 -64 105q-42 0 -77 -59t-51 -130t-16 -126q0 -104 64 -104zM379 615
q-56 -59 -130 -59q-75 0 -105 59l32 23q9 -21 31 -33.5t47 -12.5q26 0 53 12.5t44 33.5z" />
    <glyph glyph-name="Ohungarumlaut" unicode="&#x150;" horiz-adv-x="415" 
d="M370 867l-108 -144h-31l89 144h50zM481 867l-108 -144h-31l89 144h50zM163 -12q-62 0 -91 50t-29 130q0 57 14.5 138.5t42.5 167t78 145t111 59.5q62 0 91.5 -50.5t29.5 -130.5q0 -57 -15 -138t-42.5 -166.5t-78 -145t-111.5 -59.5zM168 37q41 0 77.5 53t59 128.5
t35.5 151.5t13 130q0 129 -69 129q-42 0 -78.5 -53t-58.5 -129.5t-34.5 -152.5t-12.5 -130q0 -127 68 -127z" />
    <glyph glyph-name="ohungarumlaut" unicode="&#x151;" horiz-adv-x="367" 
d="M311 700l-108 -144h-31l89 144h50zM422 700l-108 -144h-31l89 144h50zM140 -12q-53 0 -82.5 36.5t-29.5 111.5q0 74 21 154t68 142.5t109 62.5q53 0 82.5 -36.5t29.5 -111.5q0 -74 -21 -154t-68 -142.5t-109 -62.5zM143 32q42 0 77 59t51 129.5t16 125.5q0 105 -64 105
q-42 0 -77 -59t-51 -130t-16 -126q0 -104 64 -104z" />
    <glyph glyph-name="OE" unicode="&#x152;" horiz-adv-x="578" 
d="M476 0h-229l15 73q-51 -85 -116 -85q-50 0 -76.5 49t-26.5 131q0 46 9 107.5t29 132.5t48 130.5t72 99t95 39.5q27 0 50.5 -18t31.5 -65l16 73h229l-11 -49h-175l-56 -252h169l-11 -48h-169l-59 -269h175zM285 172l71 323q-1 133 -65 133q-44 0 -82.5 -52.5t-61 -128.5
t-35.5 -152t-13 -131q0 -127 62 -127q33 0 65.5 36t58.5 99z" />
    <glyph glyph-name="oe" unicode="&#x153;" horiz-adv-x="589" 
d="M548 226h-229q-8 -32 -8 -80q0 -116 82 -116q42 0 86 59l26 -31q-54 -70 -116 -70q-53 0 -81.5 31.5t-32.5 88.5q-57 -120 -137 -120q-110 0 -110 148q0 80 21.5 160.5t68 139.5t106.5 59q89 0 99 -115q51 115 133 115q110 0 110 -143q0 -68 -18 -126zM328 265h179
q11 35 11 85q0 103 -65 103q-48 0 -79.5 -57t-45.5 -131zM283 346q0 105 -62 105q-42 0 -76.5 -59t-50 -129.5t-15.5 -126.5q0 -105 62 -105q32 0 60.5 35.5t45.5 87t26.5 103t9.5 89.5z" />
    <glyph glyph-name="Racute" unicode="&#x154;" horiz-adv-x="388" 
d="M435 867l-130 -144h-37l110 144h57zM285 0h-56l-30 279h-70l-62 -279h-53l147 667h105q55 0 89 -40t34 -101q0 -88 -40.5 -155t-100.5 -84zM139 327h59q63 0 97.5 59.5t34.5 136.5q0 95 -71 95h-55z" />
    <glyph glyph-name="racute" unicode="&#x155;" horiz-adv-x="239" 
d="M337 700l-130 -144h-37l110 144h57zM56 0h-49l107 483h49l-16 -71q48 81 132 81l-13 -53q-8 3 -20 3q-65 0 -112 -90z" />
    <glyph glyph-name="Rcommaaccent" unicode="&#x156;" horiz-adv-x="388" 
d="M159 -122q0 -38 -28 -77t-67 -59l-21 24q27 13 47 35.5t27 45.5h-7q-12 0 -21 9.5t-9 22.5q0 17 12 29.5t29 12.5q38 0 38 -43zM285 0h-56l-30 279h-70l-62 -279h-53l147 667h105q55 0 89 -40t34 -101q0 -88 -40.5 -155t-100.5 -84zM139 327h59q63 0 97.5 59.5
t34.5 136.5q0 95 -71 95h-55z" />
    <glyph glyph-name="rcommaaccent" unicode="&#x157;" horiz-adv-x="239" 
d="M98 -122q0 -38 -28 -77t-67 -59l-21 24q27 13 47 35.5t27 45.5h-7q-12 0 -21 9.5t-9 22.5q0 17 12 29.5t29 12.5q38 0 38 -43zM56 0h-49l107 483h49l-16 -71q48 81 132 81l-13 -53q-8 3 -20 3q-65 0 -112 -90z" />
    <glyph glyph-name="Rcaron" unicode="&#x158;" horiz-adv-x="388" 
d="M329 723h-51l-38 144h30l39 -111l85 111h34zM285 0h-56l-30 279h-70l-62 -279h-53l147 667h105q55 0 89 -40t34 -101q0 -88 -40.5 -155t-100.5 -84zM139 327h59q63 0 97.5 59.5t34.5 136.5q0 95 -71 95h-55z" />
    <glyph glyph-name="rcaron" unicode="&#x159;" horiz-adv-x="239" 
d="M235 556h-51l-38 144h30l39 -111l85 111h34zM56 0h-49l107 483h49l-16 -71q48 81 132 81l-13 -53q-8 3 -20 3q-65 0 -112 -90z" />
    <glyph glyph-name="Sacute" unicode="&#x15a;" horiz-adv-x="337" 
d="M403 867l-130 -144h-37l110 144h57zM113 -12q-39 0 -74 18t-53 47l38 40q13 -25 38 -40.5t51 -15.5q47 0 82.5 41t35.5 109q0 32 -14 63t-33.5 57.5t-39.5 53.5t-34 61.5t-14 71.5q0 77 49 130.5t113 53.5q74 0 111 -51l-34 -40q-28 42 -77 42q-46 0 -76 -38t-30 -91
q0 -33 21 -71.5t46 -69t46 -76t21 -91.5q0 -87 -49.5 -145.5t-123.5 -58.5z" />
    <glyph glyph-name="sacute" unicode="&#x15b;" horiz-adv-x="294" 
d="M349 700l-130 -144h-37l110 144h57zM101 -12q-84 0 -115 65l33 31q27 -55 85 -55q35 0 61 29.5t26 67.5q0 31 -19.5 60.5t-43.5 50t-43.5 53.5t-19.5 70q0 56 36 95.5t95 39.5q31 0 58.5 -15t43.5 -42l-32 -31q-9 22 -29.5 34.5t-43.5 12.5q-35 0 -57 -24t-22 -61
q0 -23 13 -45.5t31.5 -41.5t37 -39.5t31.5 -48t13 -58.5q0 -62 -39.5 -105t-99.5 -43z" />
    <glyph glyph-name="Scircumflex" unicode="&#x15c;" horiz-adv-x="337" 
d="M367 723h-30l-40 111l-84 -111h-34l99 144h51zM113 -12q-39 0 -74 18t-53 47l38 40q13 -25 38 -40.5t51 -15.5q47 0 82.5 41t35.5 109q0 32 -14 63t-33.5 57.5t-39.5 53.5t-34 61.5t-14 71.5q0 77 49 130.5t113 53.5q74 0 111 -51l-34 -40q-28 42 -77 42q-46 0 -76 -38
t-30 -91q0 -33 21 -71.5t46 -69t46 -76t21 -91.5q0 -87 -49.5 -145.5t-123.5 -58.5z" />
    <glyph glyph-name="scircumflex" unicode="&#x15d;" horiz-adv-x="294" 
d="M312 556h-30l-40 111l-84 -111h-34l99 144h51zM101 -12q-84 0 -115 65l33 31q27 -55 85 -55q35 0 61 29.5t26 67.5q0 31 -19.5 60.5t-43.5 50t-43.5 53.5t-19.5 70q0 56 36 95.5t95 39.5q31 0 58.5 -15t43.5 -42l-32 -31q-9 22 -29.5 34.5t-43.5 12.5q-35 0 -57 -24
t-22 -61q0 -23 13 -45.5t31.5 -41.5t37 -39.5t31.5 -48t13 -58.5q0 -62 -39.5 -105t-99.5 -43z" />
    <glyph glyph-name="Scedilla" unicode="&#x15e;" horiz-adv-x="337" 
d="M64 -189q-48 0 -77 36l22 29q20 -32 57 -32q23 0 38.5 16t15.5 38q0 28 -27 28q-15 0 -29 -14l-23 15l38 65q-62 13 -93 61l38 40q13 -25 38 -40.5t51 -15.5q47 0 82.5 41t35.5 109q0 32 -14 63t-33.5 57.5t-39.5 53.5t-34 61.5t-14 71.5q0 77 49 130.5t113 53.5
q74 0 111 -51l-34 -40q-28 42 -77 42q-46 0 -76 -38t-30 -91q0 -33 21 -71.5t46 -69t46 -76t21 -91.5q0 -87 -49.5 -145.5t-123.5 -58.5l-28 -46q10 10 24 10q21 0 34 -15t13 -38q0 -37 -27 -62.5t-65 -25.5z" />
    <glyph glyph-name="scedilla" unicode="&#x15f;" horiz-adv-x="294" 
d="M52 -189q-48 0 -77 36l22 29q20 -32 57 -32q23 0 38.5 16t15.5 38q0 28 -27 28q-15 0 -29 -14l-23 15l38 64q-58 13 -81 62l33 31q27 -55 85 -55q35 0 61 29.5t26 67.5q0 31 -19.5 60.5t-43.5 50t-43.5 53.5t-19.5 70q0 56 36 95.5t95 39.5q31 0 58.5 -15t43.5 -42
l-32 -31q-9 22 -29.5 34.5t-43.5 12.5q-35 0 -57 -24t-22 -61q0 -23 13 -45.5t31.5 -41.5t37 -39.5t31.5 -48t13 -58.5q0 -62 -39.5 -105t-99.5 -43l-28 -46q10 10 24 10q21 0 34 -15t13 -38q0 -37 -27 -62.5t-65 -25.5z" />
    <glyph glyph-name="Scaron" unicode="&#x160;" horiz-adv-x="337" 
d="M301 723h-51l-38 144h30l39 -111l85 111h34zM113 -12q-39 0 -74 18t-53 47l38 40q13 -25 38 -40.5t51 -15.5q47 0 82.5 41t35.5 109q0 32 -14 63t-33.5 57.5t-39.5 53.5t-34 61.5t-14 71.5q0 77 49 130.5t113 53.5q74 0 111 -51l-34 -40q-28 42 -77 42q-46 0 -76 -38
t-30 -91q0 -33 21 -71.5t46 -69t46 -76t21 -91.5q0 -87 -49.5 -145.5t-123.5 -58.5z" />
    <glyph glyph-name="scaron" unicode="&#x161;" horiz-adv-x="294" 
d="M246 556h-51l-38 144h30l39 -111l85 111h34zM101 -12q-84 0 -115 65l33 31q27 -55 85 -55q35 0 61 29.5t26 67.5q0 31 -19.5 60.5t-43.5 50t-43.5 53.5t-19.5 70q0 56 36 95.5t95 39.5q31 0 58.5 -15t43.5 -42l-32 -31q-9 22 -29.5 34.5t-43.5 12.5q-35 0 -57 -24
t-22 -61q0 -23 13 -45.5t31.5 -41.5t37 -39.5t31.5 -48t13 -58.5q0 -62 -39.5 -105t-99.5 -43z" />
    <glyph glyph-name="Tcommaaccent" unicode="&#x162;" horiz-adv-x="305" 
d="M116 -122q0 -38 -28 -77t-67 -59l-21 24q27 13 47 35.5t27 45.5h-7q-12 0 -21 9.5t-9 22.5q0 17 12 29.5t29 12.5q38 0 38 -43zM125 0h-54l137 618h-107l10 49h269l-10 -49h-108z" />
    <glyph glyph-name="tcommaaccent" unicode="&#x163;" horiz-adv-x="223" 
d="M66 -122q0 -38 -28 -77t-67 -59l-21 24q27 13 47 35.5t27 45.5h-7q-12 0 -21 9.5t-9 22.5q0 17 12 29.5t29 12.5q38 0 38 -43zM104 -12q-70 0 -70 64q0 16 4 33l80 355h-51l10 43h50l29 132h49l-29 -132h68l-10 -43h-67l-78 -350q-4 -13 -4 -29q0 -29 30 -29q19 0 33 16
l14 -37q-27 -23 -58 -23z" />
    <glyph glyph-name="Tcaron" unicode="&#x164;" horiz-adv-x="305" 
d="M281 723h-51l-38 144h30l39 -111l85 111h34zM125 0h-54l137 618h-107l10 49h269l-10 -49h-108z" />
    <glyph glyph-name="tcaron" unicode="&#x165;" horiz-adv-x="234" 
d="M358 689q0 -38 -28 -77t-67 -59l-21 24q27 13 47 35.5t27 45.5h-7q-12 0 -21 9.5t-9 22.5q0 17 12 29.5t29 12.5q38 0 38 -43zM104 -12q-70 0 -70 64q0 16 4 33l80 355h-51l10 43h50l29 132h49l-29 -132h68l-10 -43h-67l-78 -350q-4 -13 -4 -29q0 -29 30 -29q19 0 33 16
l14 -37q-27 -23 -58 -23z" />
    <glyph glyph-name="Tbar" unicode="&#x166;" horiz-adv-x="305" 
d="M125 0h-54l68 310h-77l8 35h77l61 273h-107l10 49h269l-10 -49h-108l-61 -273h77l-8 -35h-77z" />
    <glyph glyph-name="tbar" unicode="&#x167;" horiz-adv-x="223" 
d="M104 -12q-70 0 -70 64q0 16 4 33l34 150h-51l8 36h51l38 169h-51l10 43h50l29 132h49l-29 -132h68l-10 -43h-67l-38 -169h37l-8 -36h-37l-32 -145q-4 -13 -4 -29q0 -29 30 -29q19 0 33 16l14 -37q-27 -23 -58 -23z" />
    <glyph glyph-name="Utilde" unicode="&#x168;" horiz-adv-x="416" 
d="M170 -12q-56 0 -90.5 34t-34.5 95q0 25 5 47l111 503h53l-111 -505q-5 -20 -5 -39q0 -42 21 -64t55 -22q40 0 64 28.5t39 96.5l111 505h54l-111 -504q-20 -91 -59 -133t-102 -42zM358 721q-21 0 -30.5 16.5t-10 35.5t-6 35.5t-18.5 16.5q-32 0 -53 -98h-31q29 134 91 134
q21 0 31 -16.5t10.5 -35.5t6 -35.5t18.5 -16.5q32 0 53 98h32q-30 -134 -93 -134z" />
    <glyph glyph-name="utilde" unicode="&#x169;" 
d="M114 483h49l-85 -382q-4 -18 -4 -27q0 -42 41 -42q55 0 107 84l81 367h50l-107 -483h-50l15 66q-55 -78 -115 -78q-35 0 -54.5 18.5t-19.5 51.5q0 16 5 33zM293 554q-21 0 -30.5 16t-10 36t-6 36t-18.5 16q-32 0 -53 -98h-31q29 134 91 134q21 0 31 -16t10.5 -36t6 -36
t18.5 -16q32 0 53 98h32q-30 -134 -93 -134z" />
    <glyph glyph-name="Umacron" unicode="&#x16a;" horiz-adv-x="416" 
d="M170 -12q-56 0 -90.5 34t-34.5 95q0 25 5 47l111 503h53l-111 -505q-5 -20 -5 -39q0 -42 21 -64t55 -22q40 0 64 28.5t39 96.5l111 505h54l-111 -504q-20 -91 -59 -133t-102 -42zM440 744h-244l8 36h243z" />
    <glyph glyph-name="umacron" unicode="&#x16b;" 
d="M114 483h49l-85 -382q-4 -18 -4 -27q0 -42 41 -42q55 0 107 84l81 367h50l-107 -483h-50l15 66q-55 -78 -115 -78q-35 0 -54.5 18.5t-19.5 51.5q0 16 5 33zM377 577h-244l8 36h243z" />
    <glyph glyph-name="Ubreve" unicode="&#x16c;" horiz-adv-x="416" 
d="M170 -12q-56 0 -90.5 34t-34.5 95q0 25 5 47l111 503h53l-111 -505q-5 -20 -5 -39q0 -42 21 -64t55 -22q40 0 64 28.5t39 96.5l111 505h54l-111 -504q-20 -91 -59 -133t-102 -42zM439 782q-56 -59 -130 -59q-75 0 -105 59l32 23q9 -21 31 -33.5t47 -12.5q26 0 53 12.5
t44 33.5z" />
    <glyph glyph-name="ubreve" unicode="&#x16d;" 
d="M114 483h49l-85 -382q-4 -18 -4 -27q0 -42 41 -42q55 0 107 84l81 367h50l-107 -483h-50l15 66q-55 -78 -115 -78q-35 0 -54.5 18.5t-19.5 51.5q0 16 5 33zM377 615q-56 -59 -130 -59q-75 0 -105 59l32 23q9 -21 31 -33.5t47 -12.5q26 0 53 12.5t44 33.5z" />
    <glyph glyph-name="Uring" unicode="&#x16e;" horiz-adv-x="416" 
d="M316 692q-32 0 -52 21t-20 53q0 35 27 62t62 27q32 0 52 -21t20 -53q0 -35 -27 -62t-62 -27zM318 722q23 0 40 17t17 40q0 20 -12 33t-31 13q-23 0 -40.5 -17t-17.5 -40q0 -19 12.5 -32.5t31.5 -13.5zM170 -12q-56 0 -90.5 34t-34.5 95q0 25 5 47l111 503h53l-111 -505
q-5 -20 -5 -39q0 -42 21 -64t55 -22q40 0 64 28.5t39 96.5l111 505h54l-111 -504q-20 -91 -59 -133t-102 -42z" />
    <glyph glyph-name="uring" unicode="&#x16f;" 
d="M258 549q-32 0 -52 21t-20 53q0 35 27 62t62 27q32 0 52 -21t20 -53q0 -35 -27 -62t-62 -27zM260 579q23 0 40 17t17 40q0 20 -12 33t-31 13q-23 0 -40.5 -17t-17.5 -40q0 -19 12.5 -32.5t31.5 -13.5zM114 483h49l-85 -382q-4 -18 -4 -27q0 -42 41 -42q55 0 107 84
l81 367h50l-107 -483h-50l15 66q-55 -78 -115 -78q-35 0 -54.5 18.5t-19.5 51.5q0 16 5 33z" />
    <glyph glyph-name="Uhungarumlaut" unicode="&#x170;" horiz-adv-x="416" 
d="M170 -12q-56 0 -90.5 34t-34.5 95q0 25 5 47l111 503h53l-111 -505q-5 -20 -5 -39q0 -42 21 -64t55 -22q40 0 64 28.5t39 96.5l111 505h54l-111 -504q-20 -91 -59 -133t-102 -42zM371 867l-108 -144h-31l89 144h50zM482 867l-108 -144h-31l89 144h50z" />
    <glyph glyph-name="uhungarumlaut" unicode="&#x171;" 
d="M114 483h49l-85 -382q-4 -18 -4 -27q0 -42 41 -42q55 0 107 84l81 367h50l-107 -483h-50l15 66q-55 -78 -115 -78q-35 0 -54.5 18.5t-19.5 51.5q0 16 5 33zM308 700l-108 -144h-31l89 144h50zM419 700l-108 -144h-31l89 144h50z" />
    <glyph glyph-name="Uogonek" unicode="&#x172;" horiz-adv-x="416" 
d="M201 -119l26 -18q-24 -49 -70 -49q-57 0 -57 56q0 64 63 118q-54 2 -86 35.5t-32 93.5q0 25 5 47l111 503h53l-111 -505q-5 -20 -5 -39q0 -42 21 -64t55 -22q40 0 64 28.5t39 96.5l111 505h54l-111 -504q-31 -136 -105 -165q-92 -57 -92 -125q0 -27 27 -27q28 0 40 35z
" />
    <glyph glyph-name="uogonek" unicode="&#x173;" 
d="M114 483h49l-85 -382q-4 -18 -4 -27q0 -42 41 -42q55 0 107 84l81 367h50l-107 -483q-96 -58 -96 -127q0 -27 27 -27q28 0 40 35l26 -18q-24 -49 -70 -49q-57 0 -57 56q0 73 80 131l15 65q-55 -78 -115 -78q-35 0 -54.5 18.5t-19.5 51.5q0 16 5 33z" />
    <glyph glyph-name="Wcircumflex" unicode="&#x174;" horiz-adv-x="519" 
d="M460 723h-30l-40 111l-84 -111h-34l99 144h51zM341 0h-59l46 551l-199 -551h-59l44 667h56l-48 -568l206 568h49l-46 -568l203 568h57z" />
    <glyph glyph-name="wcircumflex" unicode="&#x175;" horiz-adv-x="513" 
d="M418 556h-30l-40 111l-84 -111h-34l99 144h51zM339 0h-50l4 415l-177 -415h-51l5 483h50l-14 -411l175 411h52l-7 -411l169 411h54z" />
    <glyph glyph-name="Ycircumflex" unicode="&#x176;" horiz-adv-x="347" 
d="M374 723h-30l-40 111l-84 -111h-34l99 144h51zM146 0h-53l63 286l-62 381h55l43 -323l188 323h59l-229 -381z" />
    <glyph glyph-name="ycircumflex" unicode="&#x177;" horiz-adv-x="302" 
d="M-64 -187l18 41q6 -6 23 -6q15 0 26 11t24 38l41 87l-2 499h51l-8 -419l179 419h55l-273 -597q-22 -46 -43.5 -64t-49.5 -18q-23 0 -41 9zM312 556h-30l-40 111l-84 -111h-34l99 144h51z" />
    <glyph glyph-name="Ydieresis" unicode="&#x178;" horiz-adv-x="347" 
d="M392 771q0 -16 -12 -27.5t-28 -11.5q-14 0 -23 9t-9 23q0 16 12 27.5t28 11.5q14 0 23 -9t9 -23zM261 771q0 -16 -12 -27.5t-28 -11.5q-13 0 -22.5 9t-9.5 23q0 16 12 27.5t28 11.5q14 0 23 -9t9 -23zM146 0h-53l63 286l-62 381h55l43 -323l188 323h59l-229 -381z" />
    <glyph glyph-name="Zacute" unicode="&#x179;" horiz-adv-x="324" 
d="M397 867l-130 -144h-37l110 144h57zM236 0h-256l10 48l314 570h-187l11 49h248l-10 -46l-315 -572h195z" />
    <glyph glyph-name="zacute" unicode="&#x17a;" horiz-adv-x="289" 
d="M343 700l-130 -144h-37l110 144h57zM197 0h-213l8 41l242 399h-153l10 43h209l-9 -40l-241 -399h156z" />
    <glyph glyph-name="Zdotaccent" unicode="&#x17b;" horiz-adv-x="324" 
d="M236 0h-256l10 48l314 570h-187l11 49h248l-10 -46l-315 -572h195zM311 769q0 -16 -12 -28t-29 -12q-14 0 -23.5 9t-9.5 23q0 17 12.5 29t28.5 12q14 0 23.5 -9.5t9.5 -23.5z" />
    <glyph glyph-name="zdotaccent" unicode="&#x17c;" horiz-adv-x="289" 
d="M197 0h-213l8 41l242 399h-153l10 43h209l-9 -40l-241 -399h156zM259 602q0 -16 -12 -28t-29 -12q-14 0 -23.5 9t-9.5 23q0 16 12.5 28.5t28.5 12.5q14 0 23.5 -9.5t9.5 -23.5z" />
    <glyph glyph-name="Zcaron" unicode="&#x17d;" horiz-adv-x="324" 
d="M293 723h-51l-38 144h30l39 -111l85 111h34zM236 0h-256l10 48l314 570h-187l11 49h248l-10 -46l-315 -572h195z" />
    <glyph glyph-name="zcaron" unicode="&#x17e;" horiz-adv-x="289" 
d="M238 556h-51l-38 144h30l39 -111l85 111h34zM197 0h-213l8 41l242 399h-153l10 43h209l-9 -40l-241 -399h156z" />
    <glyph glyph-name="longs" unicode="&#x17f;" horiz-adv-x="213" 
d="M69 0h-49l98 440h-49l9 43h49l20 94q22 100 104 100q46 0 64 -28l-28 -37q-12 21 -35 21q-43 0 -56 -56z" />
    <glyph glyph-name="florin" unicode="&#x192;" horiz-adv-x="349" 
d="M26 -161h-54l93 422h-48v47h59l60 272q10 46 36.5 71.5t66.5 25.5q43 0 65 -27l-25 -37q-12 15 -35 15q-44 0 -55 -57l-58 -263h95v-47h-106z" />
    <glyph glyph-name="Ohorn" unicode="&#x1a0;" horiz-adv-x="415" 
d="M163 -12q-62 0 -91 50t-29 130q0 57 14.5 138.5t42.5 167t78 145t111 59.5q85 0 111 -99q43 30 54 69h-6q-12 0 -21 9.5t-9 22.5q0 16 12 28.5t29 12.5q16 0 26 -11t10 -31q0 -36 -26 -73t-62 -59q3 -24 3 -50q0 -57 -15 -138t-42.5 -166.5t-78 -145t-111.5 -59.5z
M168 37q41 0 77.5 53t59 128.5t35.5 151.5t13 130q0 129 -69 129q-42 0 -78.5 -53t-58.5 -129.5t-34.5 -152.5t-12.5 -130q0 -127 68 -127z" />
    <glyph glyph-name="ohorn" unicode="&#x1a1;" horiz-adv-x="367" 
d="M409 545q0 -34 -23.5 -69.5t-56.5 -57.5q9 -30 9 -71q0 -74 -21 -154t-68 -142.5t-109 -62.5q-53 0 -82.5 36.5t-29.5 111.5q0 74 21 154t68 142.5t109 62.5t90 -48q43 31 52 67h-6q-12 0 -20.5 9.5t-8.5 22.5q0 16 12 28.5t28 12.5t26 -11t10 -31zM143 32q42 0 77 59
t51 129.5t16 125.5q0 105 -64 105q-42 0 -77 -59t-51 -130t-16 -126q0 -104 64 -104z" />
    <glyph glyph-name="Uhorn" unicode="&#x1af;" horiz-adv-x="416" 
d="M533 744q0 -39 -31.5 -79.5t-73.5 -59.5l-97 -442q-20 -91 -59 -133t-102 -42q-56 0 -90.5 34t-34.5 95q0 25 5 47l111 503h53l-111 -505q-5 -20 -5 -39q0 -42 21 -64t55 -22q40 0 64 28.5t39 96.5l111 505h54l-5 -23q43 29 55 70h-6q-12 0 -21 9.5t-9 22.5q0 16 12 28
t28 12t26.5 -11t10.5 -31z" />
    <glyph glyph-name="uhorn" unicode="&#x1b0;" 
d="M434 547q0 -37 -28.5 -76t-68.5 -60l-91 -411h-50l15 66q-55 -78 -115 -78q-35 0 -54.5 18.5t-19.5 51.5q0 16 5 33l87 392h49l-85 -382q-4 -18 -4 -27q0 -42 41 -42q55 0 107 84l81 367h50l-7 -30q38 29 47 64h-7q-12 0 -20.5 9t-8.5 22q0 17 12 29t28 12t26.5 -11
t10.5 -31z" />
    <glyph glyph-name="AEacute" unicode="&#x1fc;" horiz-adv-x="532" 
d="M520 867l-130 -144h-37l110 144h57zM430 0h-229l36 166h-129l-86 -166h-58l361 667h252l-11 -49h-175l-56 -252h169l-11 -48h-169l-59 -269h175zM248 215l84 377l-199 -377h115z" />
    <glyph glyph-name="aeacute" unicode="&#x1fd;" horiz-adv-x="575" 
d="M484 700l-130 -144h-37l110 144h57zM216 451q-42 0 -75.5 -63t-48 -135t-14.5 -125q0 -96 59 -96q24 0 50.5 26.5t43.5 63.5l53 237q-3 39 -22.5 65.5t-45.5 26.5zM277 104l-24 -104h-49l15 64q-45 -76 -101 -76q-44 0 -68 36t-24 102q0 47 12 107.5t33.5 120.5
t58.5 100.5t81 40.5q28 0 51 -21.5t33 -63.5l16 73h49l-16 -72q47 84 108 84q100 0 100 -140q0 -62 -19 -129h-229q-9 -44 -9 -80q0 -53 22 -84.5t63 -31.5q45 0 87 60l26 -33q-52 -69 -111 -69q-95 0 -105 116zM312 265h181q10 48 10 85q0 103 -63 103q-48 0 -81.5 -59
t-46.5 -129z" />
    <glyph glyph-name="Oslashacute" unicode="&#x1fe;" horiz-adv-x="415" 
d="M445 867l-130 -144h-37l110 144h57zM163 -12q-62 0 -93 52l-24 -40h-42l49 82q-10 36 -10 86q0 57 14.5 138.5t42.5 167t78 145t111 59.5q60 0 93 -54l26 43h43l-52 -85q11 -39 11 -85q0 -57 -15 -138t-42.5 -166.5t-78 -145t-111.5 -59.5zM100 164v-6l246 408
q-15 63 -62 63q-42 0 -78.5 -53t-58.5 -129.5t-34.5 -152.5t-12.5 -130zM168 37q41 0 77.5 53t59 128.5t35.5 151.5t13 130v5l-247 -407q13 -61 62 -61z" />
    <glyph glyph-name="oslashacute" unicode="&#x1ff;" horiz-adv-x="367" 
d="M384 700l-130 -144h-37l110 144h57zM36 0h-39l41 60q-10 30 -10 76q0 74 21 154t68 142.5t109 62.5q56 0 85 -40l19 28h39l-42 -61q11 -31 11 -75q0 -74 -21 -154t-68 -142.5t-109 -62.5q-58 0 -85 39zM143 32q42 0 77 59t51 129.5t16 125.5q0 12 -1 17l-199 -289
q14 -42 56 -42zM79 136v-17l200 290q-15 42 -56 42q-42 0 -77 -59t-51 -130t-16 -126z" />
    <glyph glyph-name="Scommaaccent" unicode="&#x218;" horiz-adv-x="337" 
d="M129 -122q0 -38 -28 -77t-67 -59l-21 24q27 13 47 35.5t27 45.5h-7q-12 0 -21 9.5t-9 22.5q0 17 12 29.5t29 12.5q38 0 38 -43zM113 -12q-39 0 -74 18t-53 47l38 40q13 -25 38 -40.5t51 -15.5q47 0 82.5 41t35.5 109q0 32 -14 63t-33.5 57.5t-39.5 53.5t-34 61.5
t-14 71.5q0 77 49 130.5t113 53.5q74 0 111 -51l-34 -40q-28 42 -77 42q-46 0 -76 -38t-30 -91q0 -33 21 -71.5t46 -69t46 -76t21 -91.5q0 -87 -49.5 -145.5t-123.5 -58.5z" />
    <glyph glyph-name="scommaaccent" unicode="&#x219;" horiz-adv-x="294" 
d="M107 -122q0 -38 -28 -77t-67 -59l-21 24q27 13 47 35.5t27 45.5h-7q-12 0 -21 9.5t-9 22.5q0 17 12 29.5t29 12.5q38 0 38 -43zM101 -12q-84 0 -115 65l33 31q27 -55 85 -55q35 0 61 29.5t26 67.5q0 31 -19.5 60.5t-43.5 50t-43.5 53.5t-19.5 70q0 56 36 95.5t95 39.5
q31 0 58.5 -15t43.5 -42l-32 -31q-9 22 -29.5 34.5t-43.5 12.5q-35 0 -57 -24t-22 -61q0 -23 13 -45.5t31.5 -41.5t37 -39.5t31.5 -48t13 -58.5q0 -62 -39.5 -105t-99.5 -43z" />
    <glyph glyph-name="uni021A" unicode="&#x21a;" horiz-adv-x="305" 
d="M116 -122q0 -38 -28 -77t-67 -59l-21 24q27 13 47 35.5t27 45.5h-7q-12 0 -21 9.5t-9 22.5q0 17 12 29.5t29 12.5q38 0 38 -43zM125 0h-54l137 618h-107l10 49h269l-10 -49h-108z" />
    <glyph glyph-name="uni021B" unicode="&#x21b;" horiz-adv-x="223" 
d="M66 -122q0 -38 -28 -77t-67 -59l-21 24q27 13 47 35.5t27 45.5h-7q-12 0 -21 9.5t-9 22.5q0 17 12 29.5t29 12.5q38 0 38 -43zM104 -12q-70 0 -70 64q0 16 4 33l80 355h-51l10 43h50l29 132h49l-29 -132h68l-10 -43h-67l-78 -350q-4 -13 -4 -29q0 -29 30 -29q19 0 33 16
l14 -37q-27 -23 -58 -23z" />
    <glyph glyph-name="uni0237" unicode="&#x237;" horiz-adv-x="170" 
d="M-58 -196q-46 0 -60 36l33 29q5 -21 26 -21q31 0 46 69l127 566h49l-127 -566q-14 -63 -36 -88t-58 -25z" />
    <glyph glyph-name="hsuperior" unicode="&#x2b0;" horiz-adv-x="277" 
d="M247 326h-41l52 239q3 12 3 19q0 30 -29 30q-37 0 -74 -58l-51 -230h-40l95 434h41l-36 -164q36 52 81 52q26 0 41 -13t15 -35q0 -1 -3 -31z" />
    <glyph glyph-name="uni02BC" unicode="&#x2bc;" horiz-adv-x="218" 
d="M240 631q0 -41 -30 -82t-71 -62l-23 25q28 14 49 37.5t28 46.5h-7q-13 0 -23 10.5t-10 24.5q0 19 14 32.5t32 13.5t29.5 -12t11.5 -34z" />
    <glyph glyph-name="circumflex" unicode="&#x2c6;" horiz-adv-x="188" 
d="M257 556h-30l-40 111l-84 -111h-34l99 144h51z" />
    <glyph glyph-name="caron" unicode="&#x2c7;" horiz-adv-x="188" 
d="M190 556h-51l-38 144h30l39 -111l85 111h34z" />
    <glyph glyph-name="uni02C9" unicode="&#x2c9;" horiz-adv-x="244" 
d="M320 591h-243l8 36h243z" />
    <glyph glyph-name="uni02CB" unicode="&#x2cb;" horiz-adv-x="133" 
d="M202 556h-36l-65 144h54z" />
    <glyph glyph-name="breve" unicode="&#x2d8;" horiz-adv-x="234" 
d="M317 615q-56 -59 -130 -59q-75 0 -105 59l32 23q9 -21 31 -33.5t47 -12.5q26 0 53 12.5t44 33.5z" />
    <glyph glyph-name="dotaccent" unicode="&#x2d9;" horiz-adv-x="81" 
d="M156 602q0 -16 -12 -28t-29 -12q-14 0 -23.5 9t-9.5 23q0 16 12 28.5t29 12.5q14 0 23.5 -9.5t9.5 -23.5z" />
    <glyph glyph-name="ring" unicode="&#x2da;" horiz-adv-x="160" 
d="M157 549q-32 0 -52 21t-20 53q0 35 27 62t62 27q32 0 52 -21t20 -53q0 -35 -27 -62t-62 -27zM159 579q23 0 40 17t17 40q0 20 -12 33t-31 13q-23 0 -40.5 -17t-17.5 -40q0 -19 12.5 -32.5t31.5 -13.5z" />
    <glyph glyph-name="ogonek" unicode="&#x2db;" horiz-adv-x="131" 
d="M21 -119l26 -18q-24 -49 -70 -49q-57 0 -57 56q0 84 106 149l24 -19q-96 -58 -96 -127q0 -27 27 -27q28 0 40 35z" />
    <glyph glyph-name="tilde" unicode="&#x2dc;" horiz-adv-x="214" 
d="M219 554q-21 0 -30.5 16t-10 36t-6 36t-18.5 16q-32 0 -53 -98h-31q29 134 91 134q21 0 31 -16t10.5 -36t6 -36t18.5 -16q32 0 53 98h32q-30 -134 -93 -134z" />
    <glyph glyph-name="hungarumlaut" unicode="&#x2dd;" horiz-adv-x="216" 
d="M206 700l-108 -144h-31l89 144h50zM317 700l-108 -144h-31l89 144h50z" />
    <glyph glyph-name="hookabovecomb" unicode="&#x309;" horiz-adv-x="131" 
d="M207 739l-24 10q21 41 57 41q22 0 34 -12t12 -33q0 -44 -38 -78h-31q40 35 40 73q2 24 -20 24q-19 0 -30 -25z" />
    <glyph glyph-name="uni037E" unicode="&#x37e;" horiz-adv-x="217" 
d="M106 28q0 -41 -30 -82t-71 -62l-23 26q28 14 49 37.5t28 46.5q-3 -1 -7 -1q-13 0 -23 10.5t-10 25.5q0 19 14 32.5t32 13.5t29.5 -12.5t11.5 -34.5zM150 406q-16 0 -27.5 11t-11.5 28q0 19 13.5 32t32.5 13q17 0 28 -11t11 -28q0 -19 -13.5 -32t-32.5 -13z" />
    <glyph glyph-name="tonos" unicode="&#x384;" 
d="M203 571h-29l62 194h62z" />
    <glyph glyph-name="dieresistonos" unicode="&#x385;" 
d="M262 571h-29l62 194h63zM404 604q0 -16 -12 -27.5t-28 -11.5q-13 0 -22 9.5t-9 22.5q0 16 12 27.5t28 11.5q13 0 22 -9t9 -23zM191 604q0 -16 -12 -27.5t-28 -11.5q-13 0 -22.5 9.5t-9.5 22.5q0 16 12 27.5t28 11.5q14 0 23 -9t9 -23z" />
    <glyph glyph-name="Alphatonos" unicode="&#x386;" horiz-adv-x="338" 
d="M131 571h-29l62 194h62zM275 0h-54l7 166h-151l-65 -166h-57l276 667h62zM231 215l17 383l-152 -383h135z" />
    <glyph glyph-name="Epsilontonos" unicode="&#x388;" horiz-adv-x="353" 
d="M95 571h-29l62 194h62zM254 0h-228l147 667h228l-10 -49h-175l-56 -252h168l-11 -48h-168l-60 -269h176z" />
    <glyph glyph-name="Etatonos" unicode="&#x389;" horiz-adv-x="427" 
d="M95 571h-29l62 194h62zM306 0h-54l71 319h-174l-70 -319h-53l147 667h53l-66 -300h173l66 300h54z" />
    <glyph glyph-name="Iotatonos" unicode="&#x38a;" horiz-adv-x="200" 
d="M95 571h-29l62 194h62zM79 0h-53l147 667h53z" />
    <glyph glyph-name="Omicrontonos" unicode="&#x38c;" horiz-adv-x="420" 
d="M118 571h-29l62 194h62zM168 -12q-62 0 -91 50t-29 130q0 57 14.5 138.5t42.5 167t78 145t111 59.5q62 0 91.5 -50.5t29.5 -130.5q0 -57 -15 -138t-42.5 -166.5t-78 -145t-111.5 -59.5zM173 37q41 0 77.5 53t59 128.5t35.5 151.5t13 130q0 129 -69 129q-42 0 -78.5 -53
t-58.5 -129.5t-34.5 -152.5t-12.5 -130q0 -127 68 -127z" />
    <glyph glyph-name="Upsilontonos" unicode="&#x38e;" horiz-adv-x="399" 
d="M86 571h-29l62 194h62zM198 0h-53l63 286l-62 381h55l43 -323l188 323h59l-229 -381z" />
    <glyph glyph-name="Omegatonos" unicode="&#x38f;" horiz-adv-x="404" 
d="M118 571h-29l62 194h62zM12 49h77q-39 60 -39 158q0 58 15.5 135.5t43.5 154t74.5 129t101.5 52.5q59 0 91 -40t32 -136q0 -145 -51 -269.5t-115 -183.5h70l-10 -49h-116l10 49q61 47 108 193.5t47 256.5q0 69 -15 99t-51 30q-42 0 -78.5 -51.5t-58.5 -125.5t-34.5 -147
t-12.5 -123q0 -90 27 -132l-10 -49h-117z" />
    <glyph glyph-name="iotadieresistonos" unicode="&#x390;" horiz-adv-x="178" 
d="M172 571h-29l62 194h63zM314 604q0 -16 -12 -27.5t-28 -11.5q-13 0 -22 9.5t-9 22.5q0 16 12 27.5t28 11.5q13 0 22 -9t9 -23zM101 604q0 -16 -12 -27.5t-28 -11.5q-13 0 -22.5 9.5t-9.5 22.5q0 16 12 27.5t28 11.5q14 0 23 -9t9 -23zM78 -12q-74 0 -53 96l88 399h49
l-87 -395q-7 -28 -3 -42t23 -14q8 0 15 1l-6 -42q-15 -3 -26 -3z" />
    <glyph glyph-name="Alpha" unicode="&#x391;" horiz-adv-x="338" 
d="M275 0h-54l7 166h-151l-65 -166h-57l276 667h62zM231 215l17 383l-152 -383h135z" />
    <glyph glyph-name="Beta" unicode="&#x392;" horiz-adv-x="381" 
d="M150 0h-136l147 667h96q58 0 91.5 -35.5t33.5 -94.5q0 -70 -32.5 -128t-88.5 -71q31 -10 46 -43t15 -71q0 -88 -46.5 -156t-125.5 -68zM148 366h68q35 0 61 29t37 65.5t11 70.5q0 43 -21.5 65t-59.5 22h-40zM149 49q51 0 84 54t33 123q0 92 -84 92h-45l-60 -269h72z" />
    <glyph glyph-name="Gamma" unicode="&#x393;" horiz-adv-x="341" 
d="M67 0h-53l147 667h228l-10 -49h-175z" />
    <glyph glyph-name="uni0394" unicode="&#x394;" horiz-adv-x="338" 
d="M275 0h-320l276 667h62zM224 49l24 549l-219 -549h195z" />
    <glyph glyph-name="Epsilon" unicode="&#x395;" horiz-adv-x="341" 
d="M242 0h-228l147 667h228l-10 -49h-175l-56 -252h168l-11 -48h-168l-60 -269h176z" />
    <glyph glyph-name="Zeta" unicode="&#x396;" horiz-adv-x="324" 
d="M236 0h-256l10 48l314 570h-187l11 49h248l-10 -46l-315 -572h195z" />
    <glyph glyph-name="Eta" unicode="&#x397;" horiz-adv-x="415" 
d="M294 0h-54l71 319h-174l-70 -319h-53l147 667h53l-66 -300h173l66 300h54z" />
    <glyph glyph-name="Theta" unicode="&#x398;" horiz-adv-x="415" 
d="M298 318h-149l10 48h149zM163 -12q-62 0 -91 50t-29 130q0 57 14.5 138.5t42.5 167t78 145t111 59.5q62 0 91.5 -50.5t29.5 -130.5q0 -57 -15 -138t-42.5 -166.5t-78 -145t-111.5 -59.5zM168 37q41 0 77.5 53t59 128.5t35.5 151.5t13 130q0 129 -69 129q-42 0 -78.5 -53
t-58.5 -129.5t-34.5 -152.5t-12.5 -130q0 -127 68 -127z" />
    <glyph glyph-name="Iota" unicode="&#x399;" horiz-adv-x="189" 
d="M67 0h-53l147 667h53z" />
    <glyph glyph-name="Kappa" unicode="&#x39a;" horiz-adv-x="395" 
d="M326 0h-58l-87 306l-66 -89l-48 -217h-53l147 667h53l-78 -353l259 353h65l-241 -318z" />
    <glyph glyph-name="Lambda" unicode="&#x39b;" horiz-adv-x="338" 
d="M275 0h-54l27 598l-236 -598h-57l276 667h62z" />
    <glyph glyph-name="Mu" unicode="&#x39c;" horiz-adv-x="533" 
d="M412 0h-54l124 560l-258 -560h-23l-10 560l-124 -560h-53l147 667h75l10 -508l236 508h77z" />
    <glyph glyph-name="Nu" unicode="&#x39d;" horiz-adv-x="415" 
d="M294 0h-52l-58 528l-117 -528h-53l147 667h53l58 -519l115 519h54z" />
    <glyph glyph-name="Xi" unicode="&#x39e;" 
d="M397 618h-269l10 49h269zM260 0h-269l10 49h269zM323 318h-254l10 48h255z" />
    <glyph glyph-name="Omicron" unicode="&#x39f;" horiz-adv-x="415" 
d="M163 -12q-62 0 -91 50t-29 130q0 57 14.5 138.5t42.5 167t78 145t111 59.5q62 0 91.5 -50.5t29.5 -130.5q0 -57 -15 -138t-42.5 -166.5t-78 -145t-111.5 -59.5zM168 37q41 0 77.5 53t59 128.5t35.5 151.5t13 130q0 129 -69 129q-42 0 -78.5 -53t-58.5 -129.5
t-34.5 -152.5t-12.5 -130q0 -127 68 -127z" />
    <glyph glyph-name="Pi" unicode="&#x3a0;" horiz-adv-x="415" 
d="M294 0h-54l136 618h-173l-136 -618h-53l147 667h280z" />
    <glyph glyph-name="Rho" unicode="&#x3a1;" horiz-adv-x="364" 
d="M67 0h-53l147 667h107q53 0 86 -39.5t33 -104.5q0 -95 -52 -169.5t-144 -74.5h-62zM139 327h58q62 0 97.5 59.5t35.5 134.5q0 48 -20.5 72.5t-53.5 24.5h-52z" />
    <glyph glyph-name="Sigma" unicode="&#x3a3;" horiz-adv-x="294" 
d="M166 618l56 -280l-181 -289h173l-10 -49h-229l11 54l182 293l-55 274l9 46h229l-10 -49h-175z" />
    <glyph glyph-name="Tau" unicode="&#x3a4;" horiz-adv-x="305" 
d="M125 0h-54l137 618h-107l10 49h269l-10 -49h-108z" />
    <glyph glyph-name="Upsilon" unicode="&#x3a5;" horiz-adv-x="347" 
d="M146 0h-53l63 286l-62 381h55l43 -323l188 323h59l-229 -381z" />
    <glyph glyph-name="Phi" unicode="&#x3a6;" horiz-adv-x="554" 
d="M250 0h-54l15 66q-153 20 -153 199q0 52 15.5 106t46.5 106t86.5 86t126.5 38l15 66h54l-16 -68q154 -19 154 -197q0 -41 -9 -84.5t-30.5 -88t-52.5 -80t-79 -59t-105 -26.5zM116 265q0 -135 106 -150l99 436q-55 -6 -97 -36t-64.5 -73t-33 -88t-10.5 -89zM482 402
q0 133 -107 149l-99 -437q54 6 95.5 35.5t64.5 72.5t34.5 89t11.5 91z" />
    <glyph glyph-name="Chi" unicode="&#x3a7;" horiz-adv-x="338" 
d="M278 0h-56l-43 282l-164 -282h-63l208 342l-54 325h58l36 -271l155 271h63l-199 -331z" />
    <glyph glyph-name="Psi" unicode="&#x3a8;" horiz-adv-x="555" 
d="M250 0h-53l28 126q-142 14 -142 148q0 34 9 74l74 319h53l-74 -329q-8 -29 -8 -62q0 -91 99 -102l113 493h53l-112 -493q131 13 167 164l75 329h54l-78 -338q-22 -98 -83 -149t-147 -56z" />
    <glyph glyph-name="uni03A9" unicode="&#x3a9;" horiz-adv-x="397" 
d="M5 49h77q-39 60 -39 158q0 58 15.5 135.5t43.5 154t74.5 129t101.5 52.5q59 0 91 -40t32 -136q0 -145 -51 -269.5t-115 -183.5h70l-10 -49h-116l10 49q61 47 108 193.5t47 256.5q0 69 -15 99t-51 30q-42 0 -78.5 -51.5t-58.5 -125.5t-34.5 -147t-12.5 -123q0 -90 27 -132
l-10 -49h-117z" />
    <glyph glyph-name="Iotadieresis" unicode="&#x3aa;" horiz-adv-x="189" 
d="M67 0h-53l147 667h53zM315 788q0 -16 -12 -27.5t-28 -11.5q-13 0 -22.5 9.5t-9.5 22.5q0 16 12 27.5t28 11.5q14 0 23 -9t9 -23zM184 788q0 -16 -12 -27.5t-28 -11.5q-14 0 -23 9.5t-9 22.5q0 16 12 27.5t28 11.5q14 0 23 -9t9 -23z" />
    <glyph glyph-name="Upsilondieresis" unicode="&#x3ab;" horiz-adv-x="347" 
d="M146 0h-53l63 286l-62 381h55l43 -323l188 323h59l-229 -381zM395 788q0 -16 -12 -27.5t-28 -11.5q-13 0 -22.5 9.5t-9.5 22.5q0 16 12 27.5t28 11.5q14 0 23 -9t9 -23zM264 788q0 -16 -12 -27.5t-28 -11.5q-14 0 -23 9.5t-9 22.5q0 16 12 27.5t28 11.5q14 0 23 -9t9 -23
z" />
    <glyph glyph-name="alphatonos" unicode="&#x3ac;" horiz-adv-x="376" 
d="M265 571h-29l62 194h62zM307 33l-5 -42q-18 -3 -26 -3q-37 0 -49.5 20.5t-6.5 61.5q-43 -82 -102 -82q-44 0 -68 37t-24 101q0 47 12 107.5t33.5 120.5t58.5 100.5t81 40.5q28 0 51 -21.5t33 -63.5l16 73h49l-87 -395q-7 -28 -3 -42t21 -14q9 0 16 1zM137 32
q24 0 50.5 26.5t43.5 63.5l53 237q-3 39 -22.5 65.5t-45.5 26.5q-42 0 -75.5 -63t-48 -135t-14.5 -125q0 -96 59 -96z" />
    <glyph glyph-name="epsilontonos" unicode="&#x3ad;" horiz-adv-x="339" 
d="M262 571h-29l62 194h62zM133 -12q-61 0 -91 32.5t-30 81.5q0 56 36.5 96.5t84.5 49.5q-30 9 -46 35t-16 59q0 68 47 110.5t112 42.5q91 0 118 -79l-36 -24q-21 61 -82 61q-45 0 -77.5 -31.5t-32.5 -82.5q0 -34 18.5 -53.5t49.5 -19.5h67l-9 -42h-68q-42 0 -78 -28
t-36 -90q0 -35 19 -55.5t56 -20.5q60 0 111 67l27 -30q-28 -35 -66 -57t-78 -22z" />
    <glyph glyph-name="etatonos" unicode="&#x3ae;" 
d="M264 571h-29l62 194h62zM206 -184h-50l125 566q4 16 4 27q0 42 -41 42q-28 0 -57.5 -26t-51.5 -63l-79 -362h-49l107 483h49l-15 -66q55 78 115 78q35 0 54.5 -18.5t19.5 -51.5q0 -13 -5 -33z" />
    <glyph glyph-name="iotatonos" unicode="&#x3af;" horiz-adv-x="178" 
d="M170 571h-29l62 194h62zM78 -12q-74 0 -53 96l88 399h49l-87 -395q-7 -28 -3 -42t23 -14q8 0 15 1l-6 -42q-15 -3 -26 -3z" />
    <glyph glyph-name="upsilondieresistonos" unicode="&#x3b0;" horiz-adv-x="364" 
d="M270 571h-29l62 194h63zM412 604q0 -16 -12 -27.5t-28 -11.5q-13 0 -22 9.5t-9 22.5q0 16 12 27.5t28 11.5q13 0 22 -9t9 -23zM199 604q0 -16 -12 -27.5t-28 -11.5q-13 0 -22.5 9.5t-9.5 22.5q0 16 12 27.5t28 11.5q14 0 23 -9t9 -23zM129 -12q-61 0 -83.5 42.5
t-5.5 118.5l73 334h49l-73 -334q-14 -59 -3.5 -88t47.5 -29q62 0 106 90.5t44 212.5q0 76 -19 141l49 16q21 -64 21 -154q0 -82 -22 -160t-70.5 -134t-112.5 -56z" />
    <glyph glyph-name="alpha" unicode="&#x3b1;" horiz-adv-x="376" 
d="M307 33l-5 -42q-18 -3 -26 -3q-37 0 -49.5 20.5t-6.5 61.5q-43 -82 -102 -82q-44 0 -68 37t-24 101q0 47 12 107.5t33.5 120.5t58.5 100.5t81 40.5q28 0 51 -21.5t33 -63.5l16 73h49l-87 -395q-7 -28 -3 -42t21 -14q9 0 16 1zM137 32q24 0 50.5 26.5t43.5 63.5l53 237
q-3 39 -22.5 65.5t-45.5 26.5q-42 0 -75.5 -63t-48 -135t-14.5 -125q0 -96 59 -96z" />
    <glyph glyph-name="beta" unicode="&#x3b2;" horiz-adv-x="368" 
d="M155 -12q-65 0 -85 78l-54 -250h-50l142 650q46 211 171 211q100 0 100 -119q0 -71 -32.5 -132.5t-91.5 -80.5q27 -8 43.5 -42t16.5 -82q0 -95 -47 -164t-113 -69zM156 460l-74 -341q2 -36 19.5 -61.5t46.5 -25.5q49 0 82.5 61.5t33.5 128.5q0 49 -18 74t-47 25h-18l9 44
h18q50 0 84 53t34 135q0 80 -51 80q-80 0 -119 -173z" />
    <glyph glyph-name="gamma" unicode="&#x3b3;" horiz-adv-x="302" 
d="M81 -184h-49l35 158q62 287 -12 509h55q53 -200 15 -403q49 78 91 188t65 215h50q-27 -119 -82 -244t-126 -233z" />
    <glyph glyph-name="delta" unicode="&#x3b4;" horiz-adv-x="367" 
d="M143 -12q-55 0 -86.5 42t-31.5 112q0 166 159 289q-45 59 -45 114q0 59 41 96.5t97 37.5q71 0 100 -52l-32 -30q-21 41 -70 41q-36 0 -61.5 -26.5t-25.5 -63.5q0 -25 14 -49t34 -47t39.5 -50.5t33.5 -68.5t14 -91q0 -49 -18.5 -105t-61.5 -102.5t-100 -46.5zM274 239
q0 82 -64 160q-53 -42 -93 -107t-40 -149q0 -50 19.5 -80.5t51.5 -30.5q56 0 91 71t35 136z" />
    <glyph glyph-name="epsilon" unicode="&#x3b5;" horiz-adv-x="339" 
d="M133 -12q-61 0 -91 32.5t-30 81.5q0 56 36.5 96.5t84.5 49.5q-30 9 -46 35t-16 59q0 68 47 110.5t112 42.5q91 0 118 -79l-36 -24q-21 61 -82 61q-45 0 -77.5 -31.5t-32.5 -82.5q0 -34 18.5 -53.5t49.5 -19.5h67l-9 -42h-68q-42 0 -78 -28t-36 -90q0 -35 19 -55.5
t56 -20.5q60 0 111 67l27 -30q-28 -35 -66 -57t-78 -22z" />
    <glyph glyph-name="zeta" unicode="&#x3b6;" horiz-adv-x="306" 
d="M163 -36q0 24 -31 24q-54 0 -82.5 42t-28.5 102q0 43 11 90t38.5 111t88 140t147.5 151h-173l10 43h223l-9 -40q-127 -114 -204.5 -244.5t-77.5 -242.5q0 -44 18 -76t57 -32q64 0 64 -53q0 -50 -71 -136h-57q77 83 77 121z" />
    <glyph glyph-name="eta" unicode="&#x3b7;" 
d="M206 -184h-50l125 566q4 16 4 27q0 42 -41 42q-28 0 -57.5 -26t-51.5 -63l-79 -362h-49l107 483h49l-15 -66q55 78 115 78q35 0 54.5 -18.5t19.5 -51.5q0 -13 -5 -33z" />
    <glyph glyph-name="theta" unicode="&#x3b8;" horiz-adv-x="367" 
d="M143 -12q-51 0 -80.5 42t-29.5 129q0 77 16.5 166.5t45.5 169t74 132t95 52.5t79.5 -42.5t29.5 -130.5q0 -105 -27 -222.5t-82 -206.5t-121 -89zM146 32q47 0 86 81.5t65 200.5h-196q-17 -99 -17 -167q0 -115 62 -115zM261 635q-47 0 -86.5 -80t-64.5 -198h195
q17 94 17 161q0 117 -61 117z" />
    <glyph glyph-name="iota" unicode="&#x3b9;" horiz-adv-x="178" 
d="M78 -12q-74 0 -53 96l88 399h49l-87 -395q-7 -28 -3 -42t23 -14q8 0 15 1l-6 -42q-15 -3 -26 -3z" />
    <glyph glyph-name="kappa" unicode="&#x3ba;" horiz-adv-x="343" 
d="M269 0h-51l-50 233l-84 -105l-28 -128h-49l107 483h49l-63 -281l224 281h54l-173 -217z" />
    <glyph glyph-name="lambda" unicode="&#x3bb;" horiz-adv-x="302" 
d="M129 629v43q16 7 38 7q32 0 48 -18.5t17 -63.5l4 -597h-52l10 419l-181 -419h-54l226 500l1 86q-1 27 -8 38t-25 11q-12 0 -24 -6z" />
    <glyph glyph-name="uni03BC" unicode="&#x3bc;" horiz-adv-x="368" 
d="M59 13l-43 -197h-50l148 667h49l-85 -383q-7 -34 3 -52t34 -18q28 0 56.5 25t50.5 62l81 366h50l-88 -395q-7 -28 -3 -42t22 -14q9 0 15 1l-5 -42q-18 -3 -26 -3q-36 0 -48 20t-5 63q-50 -83 -109 -83q-32 0 -47 25z" />
    <glyph glyph-name="nu" unicode="&#x3bd;" horiz-adv-x="302" 
d="M119 0h-50l-4 483h53l-6 -427q118 192 169 427h50q-56 -250 -212 -483z" />
    <glyph glyph-name="xi" unicode="&#x3be;" horiz-adv-x="306" 
d="M137 -12q-58 0 -87.5 40.5t-29.5 100.5q0 80 36 136t99 75q-29 10 -44 40.5t-15 70.5q0 107 106 173h-67l10 43h210l-10 -43h-105q-42 -28 -66 -71.5t-24 -94.5q0 -44 18 -68t48 -24h65l-9 -44h-66q-55 0 -93.5 -50t-38.5 -135q0 -42 18 -73.5t58 -31.5q64 0 64 -53
q0 -50 -71 -136h-52q72 78 72 121q0 24 -26 24z" />
    <glyph glyph-name="omicron" unicode="&#x3bf;" horiz-adv-x="367" 
d="M140 -12q-53 0 -82.5 36.5t-29.5 111.5q0 74 21 154t68 142.5t109 62.5q53 0 82.5 -36.5t29.5 -111.5q0 -74 -21 -154t-68 -142.5t-109 -62.5zM143 32q42 0 77 59t51 129.5t16 125.5q0 105 -64 105q-42 0 -77 -59t-51 -130t-16 -126q0 -104 64 -104z" />
    <glyph glyph-name="pi" unicode="&#x3c0;" horiz-adv-x="387" 
d="M259 0h-49l96 440h-140l-97 -440h-49l97 440h-51l10 43h340l-10 -43h-50z" />
    <glyph glyph-name="rho" unicode="&#x3c1;" horiz-adv-x="368" 
d="M155 -12q-28 0 -51 21.5t-33 63.5l-55 -257h-50l94 426q24 110 70.5 181.5t110.5 71.5q49 0 74 -39.5t25 -100.5q0 -46 -11.5 -106t-33 -120t-59 -100.5t-81.5 -40.5zM151 32q32 0 59.5 37t43.5 90t25.5 106t9.5 90q0 96 -52 96q-41 0 -74.5 -58t-53.5 -151l-26 -118
q2 -36 22 -64t46 -28z" />
    <glyph glyph-name="sigma1" unicode="&#x3c2;" horiz-adv-x="297" 
d="M129 -12q-40 0 -70 41t-30 118q0 51 13 109t36.5 112.5t64 90.5t89.5 36q59 0 90 -49l-31 -35q-20 40 -60 40q-48 0 -84 -57.5t-51 -125t-15 -123.5q0 -57 19 -85t46 -28q65 0 65 -51t-72 -138h-52q77 83 77 121q0 24 -35 24z" />
    <glyph glyph-name="sigma" unicode="&#x3c3;" horiz-adv-x="367" 
d="M334 329q0 -48 -12 -104.5t-35 -110.5t-61.5 -90t-85.5 -36q-53 0 -82.5 36.5t-29.5 111.5q0 54 13.5 112.5t39.5 112t69 88t96 34.5h158l-10 -44h-84q24 -45 24 -110zM285 334q0 71 -20 105h-25q-39 0 -71 -32.5t-51 -80.5t-29 -98t-10 -92q0 -104 64 -104
q42 0 76.5 58.5t50 126.5t15.5 117z" />
    <glyph glyph-name="tau" unicode="&#x3c4;" horiz-adv-x="253" 
d="M119 -12q-74 0 -53 96l78 356h-87l10 43h223l-10 -43h-87l-77 -351q-7 -29 -3 -43t23 -14q21 0 38 19l14 -34q-31 -29 -69 -29z" />
    <glyph glyph-name="upsilon" unicode="&#x3c5;" horiz-adv-x="364" 
d="M129 -12q-61 0 -83.5 42.5t-5.5 118.5l73 334h49l-73 -334q-14 -59 -3.5 -88t47.5 -29q62 0 106 90.5t44 212.5q0 76 -19 141l49 16q21 -64 21 -154q0 -82 -22 -160t-70.5 -134t-112.5 -56z" />
    <glyph glyph-name="phi" unicode="&#x3c6;" horiz-adv-x="497" 
d="M466 312q0 -48 -13.5 -99.5t-41 -101.5t-78 -84t-116.5 -38l-38 -173h-49l38 174q-71 9 -104 58.5t-33 123.5q0 65 16.5 123.5t60.5 113.5t111 86l15 -39q-77 -37 -113.5 -114.5t-36.5 -166.5q0 -126 93 -141l102 461h25q84 0 123 -50.5t39 -132.5zM319 450l-92 -417
q56 7 96.5 43t58 84.5t24.5 85t7 64.5q0 57 -23 96t-71 44z" />
    <glyph glyph-name="chi" unicode="&#x3c7;" horiz-adv-x="306" 
d="M196 -184h-49l-24 286l-149 -286h-52l181 337l-29 330h49l20 -276l141 276h52l-174 -330z" />
    <glyph glyph-name="psi" unicode="&#x3c8;" horiz-adv-x="498" 
d="M179 -184h-49l38 174q-125 14 -125 136q0 34 12 96l58 261h48l-58 -269q-11 -46 -11 -86q0 -45 19.5 -68t65.5 -27l140 634h49l-139 -634q59 6 96.5 47t58.5 134l58 269h49l-61 -277q-24 -108 -75.5 -160.5t-135.5 -56.5z" />
    <glyph glyph-name="omega" unicode="&#x3c9;" horiz-adv-x="550" 
d="M516 312q0 -41 -11 -93t-31.5 -105.5t-57 -89.5t-80.5 -36q-91 0 -91 113q-23 -53 -55.5 -83t-67.5 -30q-50 0 -73.5 41.5t-23.5 108.5q0 114 53.5 217.5t131.5 139.5l24 -32q-71 -36 -114 -131t-43 -194q0 -106 51 -106q76 0 121 210l27 124h50l-27 -124
q-21 -76 -15 -143t50 -67q39 0 71 55t46.5 117.5t14.5 104.5q0 47 -13 91t-38 64l35 31q32 -21 49 -73t17 -110z" />
    <glyph glyph-name="iotadieresis" unicode="&#x3ca;" horiz-adv-x="178" 
d="M266 604q0 -16 -12 -27.5t-28 -11.5q-14 0 -23 9.5t-9 22.5q0 16 12 27.5t28 11.5q14 0 23 -9t9 -23zM135 604q0 -16 -12 -27.5t-28 -11.5q-13 0 -22.5 9.5t-9.5 22.5q0 16 12 27.5t28 11.5q14 0 23 -9t9 -23zM78 -12q-74 0 -53 96l88 399h49l-87 -395q-7 -28 -3 -42
t23 -14q8 0 15 1l-6 -42q-15 -3 -26 -3z" />
    <glyph glyph-name="upsilondieresis" unicode="&#x3cb;" horiz-adv-x="364" 
d="M368 604q0 -16 -12 -27.5t-28 -11.5q-14 0 -23 9.5t-9 22.5q0 16 12 27.5t28 11.5q14 0 23 -9t9 -23zM237 604q0 -16 -12 -27.5t-28 -11.5q-13 0 -22.5 9.5t-9.5 22.5q0 16 12 27.5t28 11.5q14 0 23 -9t9 -23zM129 -12q-61 0 -83.5 42.5t-5.5 118.5l73 334h49l-73 -334
q-14 -59 -3.5 -88t47.5 -29q62 0 106 90.5t44 212.5q0 76 -19 141l49 16q21 -64 21 -154q0 -82 -22 -160t-70.5 -134t-112.5 -56z" />
    <glyph glyph-name="omicrontonos" unicode="&#x3cc;" horiz-adv-x="367" 
d="M267 571h-29l62 194h62zM140 -12q-53 0 -82.5 36.5t-29.5 111.5q0 74 21 154t68 142.5t109 62.5q53 0 82.5 -36.5t29.5 -111.5q0 -74 -21 -154t-68 -142.5t-109 -62.5zM143 32q42 0 77 59t51 129.5t16 125.5q0 105 -64 105q-42 0 -77 -59t-51 -130t-16 -126
q0 -104 64 -104z" />
    <glyph glyph-name="upsilontonos" unicode="&#x3cd;" horiz-adv-x="364" 
d="M273 571h-29l62 194h62zM129 -12q-61 0 -83.5 42.5t-5.5 118.5l73 334h49l-73 -334q-14 -59 -3.5 -88t47.5 -29q62 0 106 90.5t44 212.5q0 76 -19 141l49 16q21 -64 21 -154q0 -82 -22 -160t-70.5 -134t-112.5 -56z" />
    <glyph glyph-name="omegatonos" unicode="&#x3ce;" horiz-adv-x="550" 
d="M359 571h-29l62 194h62zM516 312q0 -41 -11 -93t-31.5 -105.5t-57 -89.5t-80.5 -36q-91 0 -91 113q-23 -53 -55.5 -83t-67.5 -30q-50 0 -73.5 41.5t-23.5 108.5q0 114 53.5 217.5t131.5 139.5l24 -32q-71 -36 -114 -131t-43 -194q0 -106 51 -106q76 0 121 210l27 124h50
l-27 -124q-21 -76 -15 -143t50 -67q39 0 71 55t46.5 117.5t14.5 104.5q0 47 -13 91t-38 64l35 31q32 -21 49 -73t17 -110z" />
    <glyph glyph-name="afii10023" unicode="&#x401;" horiz-adv-x="341" 
d="M398 771q0 -16 -12 -27.5t-28 -11.5q-14 0 -23 9t-9 23q0 16 12 27.5t28 11.5q14 0 23 -9t9 -23zM267 771q0 -16 -12 -27.5t-28 -11.5q-13 0 -22.5 9t-9.5 23q0 16 12 27.5t28 11.5q14 0 23 -9t9 -23zM242 0h-228l147 667h228l-10 -49h-175l-56 -252h168l-11 -48h-168
l-60 -269h176z" />
    <glyph glyph-name="afii10051" unicode="&#x402;" horiz-adv-x="446" 
d="M203 -12l10 49q42 0 70 28t43 98l18 78q14 66 -4.5 106t-69.5 40q-30 0 -62 -9l-83 -378h-54l136 618h-107l10 49h269l-10 -49h-108l-43 -191q30 8 67 8q76 0 103 -55.5t9 -138.5l-17 -78q-38 -175 -177 -175z" />
    <glyph glyph-name="afii10052" unicode="&#x403;" horiz-adv-x="341" 
d="M427 867l-130 -144h-37l110 144h57zM67 0h-53l147 667h228l-10 -49h-175z" />
    <glyph glyph-name="afii10053" unicode="&#x404;" horiz-adv-x="374" 
d="M163 -12q-57 0 -88.5 45t-31.5 135q0 46 8.5 108t28 133t47 130.5t70 99t92.5 39.5q53 0 81.5 -37.5t34.5 -101.5l-51 -9q-9 99 -70 99q-52 0 -92.5 -75.5t-65.5 -187.5h190l-11 -48h-189q-16 -90 -16 -154q0 -67 16.5 -97t51.5 -30q48 0 97 86l44 -22
q-63 -113 -146 -113z" />
    <glyph glyph-name="afii10054" unicode="&#x405;" horiz-adv-x="337" 
d="M113 -12q-39 0 -74 18t-53 47l38 40q13 -25 38 -40.5t51 -15.5q47 0 82.5 41t35.5 109q0 32 -14 63t-33.5 57.5t-39.5 53.5t-34 61.5t-14 71.5q0 77 49 130.5t113 53.5q74 0 111 -51l-34 -40q-28 42 -77 42q-46 0 -76 -38t-30 -91q0 -33 21 -71.5t46 -69t46 -76t21 -91.5
q0 -87 -49.5 -145.5t-123.5 -58.5z" />
    <glyph glyph-name="afii10055" unicode="&#x406;" horiz-adv-x="189" 
d="M67 0h-53l147 667h53z" />
    <glyph glyph-name="afii10056" unicode="&#x407;" horiz-adv-x="189" 
d="M312 771q0 -16 -12 -27.5t-28 -11.5q-14 0 -23 9t-9 23q0 16 12 27.5t28 11.5q14 0 23 -9t9 -23zM181 771q0 -16 -12 -27.5t-28 -11.5q-13 0 -22.5 9t-9.5 23q0 16 12 27.5t28 11.5q14 0 23 -9t9 -23zM67 0h-53l147 667h53z" />
    <glyph glyph-name="afii10057" unicode="&#x408;" horiz-adv-x="310" 
d="M72 -12q-74 0 -108 54l31 38q24 -43 74 -43q39 0 61.5 22.5t32.5 73.5l119 534h54l-119 -535q-16 -76 -51 -110t-94 -34z" />
    <glyph glyph-name="afii10058" unicode="&#x409;" horiz-adv-x="591" 
d="M-39 -12l11 49q28 0 49 17t48 76t58 168l104 369h210l-61 -279h60q67 0 94.5 -51t15.5 -130q-13 -88 -62.5 -147.5t-128.5 -59.5h-118l136 618h-107l-91 -323q-28 -99 -54.5 -162t-54 -94t-51.5 -41t-58 -10zM428 340h-59l-65 -291h61q50 0 83 43.5t44 112.5
q11 62 -5 98.5t-59 36.5z" />
    <glyph glyph-name="afii10059" unicode="&#x40a;" horiz-adv-x="591" 
d="M355 0h-118l70 319h-173l-70 -319h-54l146 667h54l-66 -300h173l66 300h54l-66 -300h61q66 0 94.5 -48t16.5 -124q-12 -82 -61.5 -138.5t-126.5 -56.5zM420 319h-59l-60 -270h60q48 0 81.5 40.5t43.5 102.5q10 59 -6 93t-60 34z" />
    <glyph glyph-name="afii10060" unicode="&#x40b;" horiz-adv-x="446" 
d="M287 0l53 241q14 67 -2.5 106.5t-67.5 39.5q-30 0 -62 -9l-83 -378h-54l136 618h-107l10 49h269l-10 -49h-108l-43 -191q30 8 67 8q75 0 101 -55t8 -139l-53 -241h-54z" />
    <glyph glyph-name="afii10061" unicode="&#x40c;" horiz-adv-x="395" 
d="M442 867l-130 -144h-37l110 144h57zM326 0h-58l-87 306l-66 -89l-48 -217h-53l147 667h53l-78 -353l259 353h65l-241 -318z" />
    <glyph glyph-name="afii10062" unicode="&#x40e;" horiz-adv-x="347" 
d="M14 -12q-41 0 -67 19l27 46q16 -15 46 -15q38 0 63 49l45 88l-35 492h54l27 -405l206 405h58l-304 -594q-43 -85 -120 -85zM402 782q-56 -59 -130 -59q-75 0 -105 59l32 23q9 -21 31 -33.5t47 -12.5q26 0 53 12.5t44 33.5z" />
    <glyph glyph-name="afii10145" unicode="&#x40f;" horiz-adv-x="415" 
d="M98 -129l28 129h-112l146 667h53l-135 -618h173l136 618h54l-147 -667h-114l-28 -129h-54z" />
    <glyph glyph-name="afii10017" unicode="&#x410;" horiz-adv-x="338" 
d="M275 0h-54l7 166h-151l-65 -166h-57l276 667h62zM231 215l17 383l-152 -383h135z" />
    <glyph glyph-name="afii10018" unicode="&#x411;" horiz-adv-x="364" 
d="M160 667h231l-10 -49h-178l-50 -230h53q53 0 86 -39.5t33 -104.5q0 -95 -52 -169.5t-143 -74.5h-116zM194 340h-52l-65 -291h58q63 0 98 59t35 134q0 48 -20 73t-54 25z" />
    <glyph glyph-name="afii10019" unicode="&#x412;" horiz-adv-x="381" 
d="M150 0h-136l147 667h96q58 0 91.5 -35.5t33.5 -94.5q0 -70 -32.5 -128t-88.5 -71q31 -10 46 -43t15 -71q0 -88 -46.5 -156t-125.5 -68zM148 366h68q35 0 61 29t37 65.5t11 70.5q0 43 -21.5 65t-59.5 22h-40zM149 49q51 0 84 54t33 123q0 92 -84 92h-45l-60 -269h72z" />
    <glyph glyph-name="afii10020" unicode="&#x413;" horiz-adv-x="341" 
d="M67 0h-53l147 667h228l-10 -49h-175z" />
    <glyph glyph-name="afii10021" unicode="&#x414;" horiz-adv-x="439" 
d="M-63 -123l35 167q31 4 50.5 18.5t47.5 73t59 170.5l101 361h210l-136 -618h62l-37 -172h-54l26 123h-285l-27 -123h-52zM270 618l-90 -317q-55 -198 -119 -252h190l125 569h-106z" />
    <glyph glyph-name="afii10022" unicode="&#x415;" horiz-adv-x="341" 
d="M242 0h-228l147 667h228l-10 -49h-175l-56 -252h168l-11 -48h-168l-60 -269h176z" />
    <glyph glyph-name="afii10024" unicode="&#x416;" horiz-adv-x="541" 
d="M18 0h-64l260 349l-101 318h58l93 -327l72 327h54l-69 -311l228 311h64l-241 -318l108 -349h-60l-85 308l-35 -47l-57 -261h-53l57 260l-12 40z" />
    <glyph glyph-name="afii10025" unicode="&#x417;" horiz-adv-x="368" 
d="M140 -12q-54 0 -91 33.5t-49 99.5l50 23q15 -107 89 -107q52 0 84.5 60t32.5 131q0 46 -22 68.5t-56 22.5h-62l11 49h73q56 0 88 53.5t32 123.5q0 83 -70 83q-30 0 -57 -21t-45 -56l-37 29q24 42 62.5 69.5t84.5 27.5q55 0 88.5 -33t33.5 -93q0 -70 -39 -133.5t-99 -77.5
q70 -24 70 -121q0 -88 -49.5 -159.5t-122.5 -71.5z" />
    <glyph glyph-name="afii10026" unicode="&#x418;" horiz-adv-x="415" 
d="M66 0h-52l147 667h53l-114 -519l288 519h53l-147 -667h-54l116 528z" />
    <glyph glyph-name="afii10027" unicode="&#x419;" horiz-adv-x="415" 
d="M66 0h-52l147 667h53l-114 -519l288 519h53l-147 -667h-54l116 528zM440 782q-56 -59 -130 -59q-75 0 -105 59l32 23q9 -21 31 -33.5t47 -12.5q26 0 53 12.5t44 33.5z" />
    <glyph glyph-name="afii10028" unicode="&#x41a;" horiz-adv-x="395" 
d="M326 0h-58l-87 306l-66 -89l-48 -217h-53l147 667h53l-78 -353l259 353h65l-241 -318z" />
    <glyph glyph-name="afii10029" unicode="&#x41b;" horiz-adv-x="415" 
d="M-39 -12l10 49q29 0 50 17t48 76t58 170l103 367h210l-146 -667h-54l136 618h-106l-91 -323q-28 -99 -54.5 -162t-54.5 -94t-52 -41t-57 -10z" />
    <glyph glyph-name="afii10030" unicode="&#x41c;" horiz-adv-x="533" 
d="M412 0h-54l124 560l-258 -560h-23l-10 560l-124 -560h-53l147 667h75l10 -508l236 508h77z" />
    <glyph glyph-name="afii10031" unicode="&#x41d;" horiz-adv-x="415" 
d="M294 0h-54l71 319h-174l-70 -319h-53l147 667h53l-66 -300h173l66 300h54z" />
    <glyph glyph-name="afii10032" unicode="&#x41e;" horiz-adv-x="415" 
d="M163 -12q-62 0 -91 50t-29 130q0 57 14.5 138.5t42.5 167t78 145t111 59.5q62 0 91.5 -50.5t29.5 -130.5q0 -57 -15 -138t-42.5 -166.5t-78 -145t-111.5 -59.5zM168 37q41 0 77.5 53t59 128.5t35.5 151.5t13 130q0 129 -69 129q-42 0 -78.5 -53t-58.5 -129.5
t-34.5 -152.5t-12.5 -130q0 -127 68 -127z" />
    <glyph glyph-name="afii10033" unicode="&#x41f;" horiz-adv-x="415" 
d="M294 0h-54l136 618h-173l-136 -618h-53l147 667h280z" />
    <glyph glyph-name="afii10034" unicode="&#x420;" horiz-adv-x="364" 
d="M67 0h-53l147 667h107q53 0 86 -39.5t33 -104.5q0 -95 -52 -169.5t-144 -74.5h-62zM139 327h58q62 0 97.5 59.5t35.5 134.5q0 48 -20.5 72.5t-53.5 24.5h-52z" />
    <glyph glyph-name="afii10035" unicode="&#x421;" horiz-adv-x="374" 
d="M163 -12q-57 0 -88.5 45t-31.5 135q0 46 8.5 108t28 133t47 130.5t70 99t92.5 39.5q53 0 81.5 -37.5t34.5 -101.5l-51 -9q-9 99 -70 99q-43 0 -80 -55t-58.5 -133.5t-33.5 -153t-12 -123.5q0 -67 16.5 -97t51.5 -30q48 0 97 86l44 -22q-63 -113 -146 -113z" />
    <glyph glyph-name="afii10036" unicode="&#x422;" horiz-adv-x="305" 
d="M125 0h-54l137 618h-107l10 49h269l-10 -49h-108z" />
    <glyph glyph-name="afii10037" unicode="&#x423;" horiz-adv-x="347" 
d="M14 -12q-41 0 -67 19l27 46q16 -15 46 -15q38 0 63 49l45 88l-35 492h54l27 -405l206 405h58l-304 -594q-43 -85 -120 -85z" />
    <glyph glyph-name="afii10038" unicode="&#x424;" horiz-adv-x="554" 
d="M250 0h-54l15 66q-153 20 -153 199q0 52 15.5 106t46.5 106t86.5 86t126.5 38l15 66h54l-16 -68q154 -19 154 -197q0 -41 -9 -84.5t-30.5 -88t-52.5 -80t-79 -59t-105 -26.5zM116 265q0 -135 106 -150l99 436q-55 -6 -97 -36t-64.5 -73t-33 -88t-10.5 -89zM482 402
q0 133 -107 149l-99 -437q54 6 95.5 35.5t64.5 72.5t34.5 89t11.5 91z" />
    <glyph glyph-name="afii10039" unicode="&#x425;" horiz-adv-x="338" 
d="M278 0h-56l-43 282l-164 -282h-63l208 342l-54 325h58l36 -271l155 271h63l-199 -331z" />
    <glyph glyph-name="afii10040" unicode="&#x426;" horiz-adv-x="439" 
d="M275 -123l27 123h-288l146 667h53l-135 -618h173l136 618h54l-137 -618h62l-37 -172h-54z" />
    <glyph glyph-name="afii10041" unicode="&#x427;" horiz-adv-x="388" 
d="M198 667l-43 -194q-15 -67 2 -106.5t68 -39.5q30 0 62 9l73 331h54l-147 -667h-54l63 287q-30 -8 -67 -8q-75 0 -100.5 55t-6.5 139l42 194h54z" />
    <glyph glyph-name="afii10042" unicode="&#x428;" horiz-adv-x="607" 
d="M578 667h54l-146 -667h-471l147 667h53l-136 -618h155l136 618h54l-136 -618h155z" />
    <glyph glyph-name="afii10043" unicode="&#x429;" horiz-adv-x="630" 
d="M578 667h54l-136 -618h60l-37 -172h-54l27 123h-477l147 667h53l-136 -618h155l136 618h54l-136 -618h155z" />
    <glyph glyph-name="afii10044" unicode="&#x42a;" horiz-adv-x="422" 
d="M187 0h-116l136 618h-107l10 49h161l-61 -279h54q53 0 86 -39.5t33 -104.5q0 -95 -52 -169.5t-144 -74.5zM252 340h-53l-64 -291h58q63 0 98 59t35 134q0 48 -20.5 73t-53.5 25z" />
    <glyph glyph-name="afii10045" unicode="&#x42b;" horiz-adv-x="527" 
d="M406 0h-53l146 667h54zM160 667h53l-60 -279h53q53 0 86 -39.5t33 -104.5q0 -95 -52 -169.5t-143 -74.5h-116zM194 340h-52l-65 -291h58q63 0 98 59t35 134q0 48 -20 73t-54 25z" />
    <glyph glyph-name="afii10046" unicode="&#x42c;" horiz-adv-x="364" 
d="M160 667h53l-60 -279h53q53 0 86 -39.5t33 -104.5q0 -95 -52 -169.5t-143 -74.5h-116zM194 340h-52l-65 -291h58q63 0 98 59t35 134q0 48 -20 73t-54 25z" />
    <glyph glyph-name="afii10047" unicode="&#x42d;" horiz-adv-x="374" 
d="M249 678q56 0 87.5 -44.5t31.5 -135.5q0 -46 -8.5 -108t-28 -133t-47 -130.5t-70 -99t-92.5 -39.5q-53 0 -81 38t-34 101l50 10q9 -100 71 -100q54 0 95.5 81.5t65.5 199.5h-190l11 48h188q14 84 14 136q0 67 -16.5 97t-51.5 30q-47 0 -98 -86l-43 22q63 113 146 113z
" />
    <glyph glyph-name="afii10048" unicode="&#x42e;" horiz-adv-x="577" 
d="M325 -12q-62 0 -91 50t-29 130q0 64 16 151h-84l-70 -319h-53l146 667h53l-65 -300h83q19 83 46.5 148.5t73.5 114t100 48.5q62 0 91.5 -50.5t29.5 -130.5q0 -57 -15 -138t-42.5 -166.5t-78 -145t-111.5 -59.5zM330 37q41 0 77.5 53t59 128.5t35.5 151.5t13 130
q0 129 -69 129q-42 0 -78.5 -53t-58.5 -129.5t-34.5 -152.5t-12.5 -130q0 -127 68 -127z" />
    <glyph glyph-name="afii10049" unicode="&#x42f;" horiz-adv-x="388" 
d="M57 0h-63l168 294q-61 38 -61 129q0 95 52 169.5t144 74.5h116l-148 -667h-53l61 279h-62zM232 327h52l65 291h-58q-63 0 -98 -59t-35 -134q0 -48 20 -73t54 -25z" />
    <glyph glyph-name="afii10065" unicode="&#x430;" horiz-adv-x="368" 
d="M211 495q28 0 51 -21.5t33 -63.5l16 73h49l-107 -483h-49l15 64q-45 -76 -101 -76q-44 0 -68 36t-24 102q0 47 12 107.5t33.5 120.5t58.5 100.5t81 40.5zM216 451q-42 0 -75.5 -63t-48 -135t-14.5 -125q0 -96 59 -96q24 0 50.5 26.5t43.5 63.5l53 237q-3 39 -22.5 65.5
t-45.5 26.5z" />
    <glyph glyph-name="afii10066" unicode="&#x431;" horiz-adv-x="367" 
d="M143 32q42 0 77 59t51 129.5t16 125.5q0 105 -64 105q-42 0 -77 -59t-51 -130t-16 -126q0 -104 64 -104zM140 -12q-53 0 -82.5 36.5t-29.5 111.5q0 103 55 277q28 91 74 139t139 70q54 13 59 45h50q-15 -66 -118 -91q-74 -19 -108 -56t-59 -115q47 90 119 90q43 0 71 -37
t28 -111t-21 -154t-68 -142.5t-109 -62.5z" />
    <glyph glyph-name="afii10067" unicode="&#x432;" horiz-adv-x="330" 
d="M142 0h-135l106 483h100q51 0 82 -24t31 -69q1 -48 -23 -87.5t-71 -55.5q49 -21 51 -81q0 -65 -36.5 -115.5t-104.5 -50.5zM64 40h72q46 0 71 38.5t25 86.5q0 30 -17 46.5t-47 16.5h-63zM114 269h73q40 0 63.5 36t23.5 77q0 61 -74 61h-48z" />
    <glyph glyph-name="afii10068" unicode="&#x433;" horiz-adv-x="283" 
d="M310 483l-10 -43h-148l-96 -440h-49l106 483h197z" />
    <glyph glyph-name="afii10069" unicode="&#x434;" horiz-adv-x="383" 
d="M-61 -123l35 162q23 6 37.5 16.5t36 52.5t44.5 119l75 256h185l-97 -439h56l-36 -167h-50l27 123h-237l-28 -123h-48zM204 440l-64 -219q-42 -138 -90 -177h156l87 396h-89z" />
    <glyph glyph-name="afii10070" unicode="&#x435;" 
d="M157 -12q-61 0 -95 40t-34 119q0 38 10.5 92t31.5 114t61.5 101t92.5 41q112 0 112 -143q0 -59 -18 -126h-232q-9 -44 -9 -80q0 -54 21.5 -85t62.5 -31q47 0 87 59l27 -31q-55 -70 -118 -70zM93 265h184q11 46 11 85q0 45 -17 74t-50 29q-48 0 -81 -58t-47 -130z" />
    <glyph glyph-name="afii10072" unicode="&#x436;" horiz-adv-x="446" 
d="M21 0h-55l181 266l-77 217h50l80 -233l51 233h49l-49 -222l175 222h55l-173 -217l65 -266h-51l-49 232l-39 -47l-40 -185h-49l41 186l-16 43z" />
    <glyph glyph-name="afii10073" unicode="&#x437;" horiz-adv-x="339" 
d="M210 495q59 0 87 -31t28 -79q0 -56 -34 -95t-82 -48q31 -9 49.5 -36.5t18.5 -60.5q0 -71 -48 -114t-113 -43q-94 0 -124 81l37 24q22 -63 87 -63q46 0 78.5 32t32.5 85q0 34 -21.5 55.5t-54.5 21.5h-64l10 42h61q43 0 79 28t36 86q0 73 -68 73q-64 0 -114 -65l-27 30
q60 77 146 77z" />
    <glyph glyph-name="afii10074" unicode="&#x438;" 
d="M60 0h-53l106 483h49l-83 -372l217 372h56l-106 -483h-50l83 379z" />
    <glyph glyph-name="afii10075" unicode="&#x439;" 
d="M60 0h-53l106 483h49l-83 -372l217 372h56l-106 -483h-50l83 379zM376 615q-56 -59 -130 -59q-75 0 -105 59l32 23q9 -21 31 -33.5t47 -12.5q26 0 53 12.5t44 33.5z" />
    <glyph glyph-name="afii10076" unicode="&#x43a;" horiz-adv-x="343" 
d="M269 0h-51l-50 233l-84 -105l-28 -128h-49l107 483h49l-63 -281l224 281h54l-173 -217z" />
    <glyph glyph-name="afii10077" unicode="&#x43b;" 
d="M-37 -12l9 44q32 0 59 40.5t61 154.5l75 256h185l-106 -483h-50l97 440h-89l-64 -219q-40 -134 -81 -183.5t-96 -49.5z" />
    <glyph glyph-name="afii10078" unicode="&#x43c;" horiz-adv-x="457" 
d="M343 0h-49l85 390l-192 -390h-25l-21 390l-85 -390h-49l106 483h66l20 -363l181 363h69z" />
    <glyph glyph-name="afii10079" unicode="&#x43d;" 
d="M56 0h-49l106 483h49l-46 -210h140l46 210h50l-106 -483h-50l51 230h-141z" />
    <glyph glyph-name="afii10080" unicode="&#x43e;" horiz-adv-x="367" 
d="M140 -12q-53 0 -82.5 36.5t-29.5 111.5q0 74 21 154t68 142.5t109 62.5q53 0 82.5 -36.5t29.5 -111.5q0 -74 -21 -154t-68 -142.5t-109 -62.5zM143 32q42 0 77 59t51 129.5t16 125.5q0 105 -64 105q-42 0 -77 -59t-51 -130t-16 -126q0 -104 64 -104z" />
    <glyph glyph-name="afii10081" unicode="&#x43f;" 
d="M246 0h-50l97 440h-141l-96 -440h-49l106 483h239z" />
    <glyph glyph-name="afii10082" unicode="&#x440;" horiz-adv-x="368" 
d="M155 -12q-28 0 -51 21.5t-33 63.5l-56 -257h-49l148 667h49l-15 -64q45 76 101 76q44 0 67.5 -36t23.5 -102q0 -47 -11.5 -107t-33 -120t-59 -101t-81.5 -41zM151 32q32 0 59.5 37t43.5 90t25.5 106t9.5 90q0 96 -59 96q-25 0 -51.5 -26.5t-43.5 -63.5l-53 -237
q3 -38 23 -65t46 -27z" />
    <glyph glyph-name="afii10083" unicode="&#x441;" horiz-adv-x="306" 
d="M148 -12q-56 0 -87.5 39.5t-31.5 119.5q0 51 13 109t36.5 112.5t64 90.5t89.5 36q59 0 90 -49l-31 -35q-20 40 -60 40q-48 0 -84 -57.5t-51 -125t-15 -123.5q0 -113 73 -113q36 0 65 34l18 -38q-41 -40 -89 -40z" />
    <glyph glyph-name="afii10084" unicode="&#x442;" horiz-adv-x="268" 
d="M104 0h-49l97 440h-85l10 43h218l-10 -43h-84z" />
    <glyph glyph-name="afii10085" unicode="&#x443;" horiz-adv-x="302" 
d="M-64 -187l18 41q6 -6 23 -6q15 0 26 11t24 38l41 87l-2 499h51l-8 -419l179 419h55l-273 -597q-22 -46 -43.5 -64t-49.5 -18q-23 0 -41 9z" />
    <glyph glyph-name="afii10086" unicode="&#x444;" horiz-adv-x="522" 
d="M196 495q59 0 77 -79l55 251h50l-54 -244q20 35 45 53.5t47 18.5q77 0 77 -133q0 -67 -20 -151.5t-61.5 -153.5t-89.5 -69q-59 0 -76 79l-55 -251h-50l54 244q-20 -35 -45 -53.5t-47 -18.5q-77 0 -77 133q0 48 12.5 111t33.5 122.5t54 100t70 40.5zM208 451
q-37 0 -69 -63.5t-47.5 -138t-15.5 -126.5q0 -91 46 -91q21 0 46 27t41 63l52 236q-1 37 -15.5 65t-37.5 28zM311 32q37 0 69 63.5t47.5 138t15.5 126.5q0 91 -46 91q-22 0 -46 -26.5t-41 -63.5l-52 -236q1 -37 15.5 -65t37.5 -28z" />
    <glyph glyph-name="afii10087" unicode="&#x445;" horiz-adv-x="306" 
d="M236 0h-52l-38 204l-129 -204h-55l161 245l-48 238h51l34 -197l122 197h55l-155 -238z" />
    <glyph glyph-name="afii10088" unicode="&#x446;" horiz-adv-x="383" 
d="M226 -123l27 123h-246l106 483h49l-97 -439h140l97 439h50l-97 -439h56l-36 -167h-49z" />
    <glyph glyph-name="afii10089" unicode="&#x447;" horiz-adv-x="350" 
d="M103 483h49l-40 -183q-16 -68 45 -68q48 0 86 30l49 221h50l-106 -483h-50l49 222q-47 -34 -100 -34t-69.5 25t-4.5 78z" />
    <glyph glyph-name="afii10090" unicode="&#x448;" horiz-adv-x="521" 
d="M463 483h50l-106 -483h-400l106 483h49l-97 -439h126l97 439h49l-97 -439h126z" />
    <glyph glyph-name="afii10091" unicode="&#x449;" horiz-adv-x="544" 
d="M463 483h50l-97 -439h56l-36 -167h-49l27 123h-407l106 483h49l-97 -439h126l97 439h49l-97 -439h126z" />
    <glyph glyph-name="afii10092" unicode="&#x44a;" horiz-adv-x="393" 
d="M180 0h-125l97 440h-85l10 43h133l-44 -198h52q53 0 83.5 -28t30.5 -81q0 -66 -40 -121t-112 -55zM208 244h-50l-45 -203h70q44 0 70 42t26 90q0 71 -71 71z" />
    <glyph glyph-name="afii10093" unicode="&#x44b;" horiz-adv-x="486" 
d="M371 0h-49l106 483h49zM113 483h49l-44 -198h52q52 0 83 -28t31 -81q0 -66 -40.5 -121t-111.5 -55h-125zM160 244h-51l-45 -203h71q44 0 69.5 42t25.5 90q0 71 -70 71z" />
    <glyph glyph-name="afii10094" unicode="&#x44c;" horiz-adv-x="344" 
d="M113 483h49l-44 -198h52q52 0 83 -28t31 -81q0 -66 -40.5 -121t-111.5 -55h-125zM160 244h-51l-45 -203h71q44 0 69.5 42t25.5 90q0 71 -70 71z" />
    <glyph glyph-name="afii10095" unicode="&#x44d;" horiz-adv-x="306" 
d="M157 495q56 0 88 -39.5t32 -119.5q0 -51 -13 -109t-36.5 -112.5t-64 -90.5t-89.5 -36q-60 0 -91 49l30 33q20 -40 61 -40q49 0 83.5 56t52.5 137h-150l10 44h149q6 39 6 72q0 114 -74 114q-36 0 -64 -34l-19 37q40 39 89 39z" />
    <glyph glyph-name="afii10096" unicode="&#x44e;" horiz-adv-x="509" 
d="M282 -12q-113 0 -113 148q0 41 8 94h-71l-50 -230h-49l106 483h49l-46 -210h70q24 94 70 158t111 64q113 0 113 -148q0 -74 -21 -154t-68 -142.5t-109 -62.5zM285 32q42 0 77 59t51 129.5t16 125.5q0 105 -64 105q-43 0 -78 -59t-51 -130t-16 -126q0 -104 65 -104z" />
    <glyph glyph-name="afii10097" unicode="&#x44f;" 
d="M51 0h-59l134 210q-55 25 -55 97q0 66 40 121t112 55h129l-106 -483h-50l44 198h-69zM195 239h54l44 203h-73q-44 0 -70 -42t-26 -90q0 -71 71 -71z" />
    <glyph glyph-name="afii10071" unicode="&#x451;" 
d="M368 604q0 -16 -12 -27.5t-28 -11.5q-14 0 -23 9.5t-9 22.5q0 16 12 27.5t28 11.5q14 0 23 -9t9 -23zM237 604q0 -16 -12 -27.5t-28 -11.5q-13 0 -22.5 9.5t-9.5 22.5q0 16 12 27.5t28 11.5q14 0 23 -9t9 -23zM157 -12q-61 0 -95 40t-34 119q0 38 10.5 92t31.5 114
t61.5 101t92.5 41q112 0 112 -143q0 -59 -18 -126h-232q-9 -44 -9 -80q0 -54 21.5 -85t62.5 -31q47 0 87 59l27 -31q-55 -70 -118 -70zM93 265h184q11 46 11 85q0 45 -17 74t-50 29q-48 0 -81 -58t-47 -130z" />
    <glyph glyph-name="afii10099" unicode="&#x452;" horiz-adv-x="375" 
d="M302 539h-113l-28 -126q26 35 59.5 58.5t64.5 23.5q44 0 58.5 -25t2.5 -78l-104 -475q-14 -62 -40 -87.5t-66 -25.5t-49 35l33 31q5 -22 24 -22q34 0 48 69l103 466q14 68 -34 68q-28 0 -58.5 -25.5t-51.5 -61.5l-80 -364h-49l117 539h-55l7 36h56l21 92h49l-20 -92h112z
" />
    <glyph glyph-name="afii10100" unicode="&#x453;" horiz-adv-x="283" 
d="M368 700l-130 -144h-37l110 144h57zM310 483l-10 -43h-148l-96 -440h-49l106 483h197z" />
    <glyph glyph-name="afii10101" unicode="&#x454;" horiz-adv-x="306" 
d="M148 -12q-56 0 -87.5 39.5t-31.5 119.5q0 51 13 109t36.5 112.5t64 90.5t89.5 36q59 0 90 -49l-30 -33q-20 40 -60 40q-48 0 -82.5 -53.5t-53.5 -132.5h150l-9 -44h-149q-7 -41 -7 -78q0 -115 74 -115q35 0 64 34l18 -37q-40 -39 -89 -39z" />
    <glyph glyph-name="afii10102" unicode="&#x455;" horiz-adv-x="294" 
d="M101 -12q-84 0 -115 65l33 31q27 -55 85 -55q35 0 61 29.5t26 67.5q0 31 -19.5 60.5t-43.5 50t-43.5 53.5t-19.5 70q0 56 36 95.5t95 39.5q31 0 58.5 -15t43.5 -42l-32 -31q-9 22 -29.5 34.5t-43.5 12.5q-35 0 -57 -24t-22 -61q0 -23 13 -45.5t31.5 -41.5t37 -39.5
t31.5 -48t13 -58.5q0 -62 -39.5 -105t-99.5 -43z" />
    <glyph glyph-name="afii10103" unicode="&#x456;" horiz-adv-x="170" 
d="M159 560q-15 0 -25.5 10t-10.5 24q0 18 14 30t30 12q15 0 25 -9.5t10 -23.5q0 -19 -13.5 -31t-29.5 -12zM56 0h-49l107 483h49z" />
    <glyph glyph-name="afii10104" unicode="&#x457;" horiz-adv-x="170" 
d="M265 604q0 -16 -12 -27.5t-28 -11.5q-13 0 -22.5 9.5t-9.5 22.5q0 16 12 27.5t28 11.5q14 0 23 -9t9 -23zM134 604q0 -16 -12 -27.5t-28 -11.5q-14 0 -23 9.5t-9 22.5q0 16 12 27.5t28 11.5q14 0 23 -9t9 -23zM56 0h-49l107 483h49z" />
    <glyph glyph-name="afii10105" unicode="&#x458;" horiz-adv-x="170" 
d="M-58 -196q-46 0 -60 36l33 29q5 -21 26 -21q31 0 46 69l127 566h49l-127 -566q-14 -63 -36 -88t-58 -25zM159 560q-15 0 -25.5 10t-10.5 24q0 18 14 30t30 12q15 0 25 -9.5t10 -23.5q0 -19 -13.5 -31t-29.5 -12z" />
    <glyph glyph-name="afii10106" unicode="&#x459;" horiz-adv-x="535" 
d="M-37 -12l9 44q32 0 59 40.5t61 154.5l75 256h185l-45 -201h54q57 0 86 -31t25 -86q-4 -64 -45 -114.5t-111 -50.5h-120l97 440h-89l-64 -219q-40 -134 -81 -183.5t-96 -49.5zM347 241h-49l-44 -200h66q45 0 71.5 38.5t29.5 85.5q3 76 -74 76z" />
    <glyph glyph-name="afii10107" unicode="&#x45a;" horiz-adv-x="535" 
d="M56 0h-49l106 483h49l-46 -210h140l46 210h50l-47 -210h52q53 0 85 -25.5t32 -76.5q0 -65 -40.5 -118t-112.5 -53h-125l51 230h-141zM347 232h-51l-42 -191h70q44 0 70 39.5t26 86.5q0 65 -73 65z" />
    <glyph glyph-name="afii10108" unicode="&#x45b;" horiz-adv-x="371" 
d="M257 0h-50l85 382q4 12 4 27q0 42 -41 42q-28 0 -57.5 -26t-51.5 -63l-79 -362h-49l118 538h-52l9 36h51l21 93h49l-21 -93h118l-8 -36h-118l-26 -121q55 78 115 78q36 0 55 -19t19 -51q0 -8 -5 -33z" />
    <glyph glyph-name="afii10109" unicode="&#x45c;" horiz-adv-x="343" 
d="M384 700l-130 -144h-37l110 144h57zM269 0h-51l-50 233l-84 -105l-28 -128h-49l107 483h49l-63 -281l224 281h54l-173 -217z" />
    <glyph glyph-name="afii10110" unicode="&#x45e;" horiz-adv-x="302" 
d="M-64 -187l18 41q6 -6 23 -6q15 0 26 11t24 38l41 87l-2 499h51l-8 -419l179 419h55l-273 -597q-22 -46 -43.5 -64t-49.5 -18q-23 0 -41 9zM345 615q-56 -59 -130 -59q-75 0 -105 59l32 23q9 -21 31 -33.5t47 -12.5q26 0 53 12.5t44 33.5z" />
    <glyph glyph-name="afii10193" unicode="&#x45f;" 
d="M74 -122l26 122h-93l106 483h49l-97 -439h140l97 439h50l-106 -483h-96l-27 -122h-49z" />
    <glyph glyph-name="afii10050" unicode="&#x490;" horiz-adv-x="341" 
d="M67 0h-53l146 667h175l28 125h53l-37 -174h-176z" />
    <glyph glyph-name="afii10098" unicode="&#x491;" horiz-adv-x="283" 
d="M152 440l-96 -440h-49l106 483h148l26 122h49l-36 -165h-148z" />
    <glyph glyph-name="uni1E02" unicode="&#x1e02;" horiz-adv-x="381" 
d="M150 0h-136l147 667h96q58 0 91.5 -35.5t33.5 -94.5q0 -70 -32.5 -128t-88.5 -71q31 -10 46 -43t15 -71q0 -88 -46.5 -156t-125.5 -68zM148 366h68q35 0 61 29t37 65.5t11 70.5q0 43 -21.5 65t-59.5 22h-40zM149 49q51 0 84 54t33 123q0 92 -84 92h-45l-60 -269h72z
M344 769q0 -16 -12 -28t-29 -12q-14 0 -23.5 9t-9.5 23q0 17 12 29t29 12q14 0 23.5 -9.5t9.5 -23.5z" />
    <glyph glyph-name="uni1E03" unicode="&#x1e03;" horiz-adv-x="368" 
d="M155 -12q-28 0 -51 21.5t-33 63.5l-15 -73h-49l147 667h49l-55 -248q45 76 101 76q44 0 67.5 -36t23.5 -102q0 -47 -11.5 -107t-33 -120t-59 -101t-81.5 -41zM151 32q32 0 59.5 37t43.5 90t25.5 106t9.5 90q0 96 -59 96q-25 0 -51.5 -26.5t-43.5 -63.5l-53 -237
q3 -38 23 -65t46 -27zM343 769q0 -16 -12 -28t-29 -12q-14 0 -23.5 9t-9.5 23q0 17 12.5 29t28.5 12q14 0 23.5 -9.5t9.5 -23.5z" />
    <glyph glyph-name="uni1E0A" unicode="&#x1e0a;" horiz-adv-x="407" 
d="M124 0h-110l147 667h107q53 0 90.5 -47.5t37.5 -144.5q0 -35 -7 -87t-26.5 -121.5t-48 -127.5t-78.5 -98.5t-112 -40.5zM77 49h56q54 0 97 54t65.5 129.5t33.5 139.5t11 102q0 73 -23.5 108.5t-58.5 35.5h-54zM363 769q0 -16 -12 -28t-29 -12q-14 0 -23.5 9t-9.5 23
q0 17 12.5 29t28.5 12q14 0 23.5 -9.5t9.5 -23.5z" />
    <glyph glyph-name="uni1E0B" unicode="&#x1e0b;" horiz-adv-x="368" 
d="M211 495q28 0 51 -21.5t33 -63.5l57 257h49l-148 -667h-49l15 64q-45 -76 -101 -76q-44 0 -68 36t-24 102q0 47 12 107.5t33.5 120.5t58.5 100.5t81 40.5zM216 451q-42 0 -75.5 -63t-48 -135t-14.5 -125q0 -96 59 -96q24 0 50.5 26.5t43.5 63.5l53 237q-3 39 -22.5 65.5
t-45.5 26.5zM331 769q0 -16 -12 -28t-29 -12q-14 0 -23.5 9t-9.5 23q0 17 12.5 29t28.5 12q14 0 23.5 -9.5t9.5 -23.5z" />
    <glyph glyph-name="uni1E1E" unicode="&#x1e1e;" horiz-adv-x="341" 
d="M333 769q0 -16 -12 -28t-29 -12q-14 0 -23.5 9t-9.5 23q0 17 12.5 29t28.5 12q14 0 23.5 -9.5t9.5 -23.5zM67 0h-53l147 667h228l-10 -49h-175l-56 -252h168l-11 -48h-168z" />
    <glyph glyph-name="uni1E1F" unicode="&#x1e1f;" horiz-adv-x="213" 
d="M300 769q0 -16 -12 -28t-29 -12q-14 0 -23.5 9t-9.5 23q0 17 12 29t29 12q14 0 23.5 -9.5t9.5 -23.5zM69 0h-49l98 440h-49l9 43h49l20 94q22 100 104 100q46 0 64 -28l-28 -37q-12 21 -35 21q-43 0 -56 -56l-20 -94h68l-10 -43h-67z" />
    <glyph glyph-name="uni1E22" unicode="&#x1e22;" horiz-adv-x="415" 
d="M294 0h-54l71 319h-174l-70 -319h-53l147 667h53l-66 -300h173l66 300h54zM359 769q0 -16 -12 -28t-29 -12q-14 0 -23.5 9t-9.5 23q0 17 12.5 29t28.5 12q14 0 23.5 -9.5t9.5 -23.5z" />
    <glyph glyph-name="uni1E23" unicode="&#x1e23;" 
d="M246 0h-50l85 382q4 12 4 27q0 42 -41 42q-28 0 -57.5 -26t-51.5 -63l-79 -362h-49l147 667h49l-55 -250q55 78 115 78q36 0 55 -19t19 -51q0 -8 -5 -33zM333 769q0 -16 -12 -28t-29 -12q-14 0 -23.5 9t-9.5 23q0 17 12.5 29t28.5 12q14 0 23.5 -9.5t9.5 -23.5z" />
    <glyph glyph-name="uni1E56" unicode="&#x1e56;" horiz-adv-x="364" 
d="M67 0h-53l147 667h107q53 0 86 -39.5t33 -104.5q0 -95 -52 -169.5t-144 -74.5h-62zM139 327h58q62 0 97.5 59.5t35.5 134.5q0 48 -20.5 72.5t-53.5 24.5h-52zM347 769q0 -16 -12 -28t-29 -12q-14 0 -23.5 9t-9.5 23q0 17 12.5 29t28.5 12q14 0 23.5 -9.5t9.5 -23.5z" />
    <glyph glyph-name="uni1E57" unicode="&#x1e57;" horiz-adv-x="368" 
d="M155 -12q-28 0 -51 21.5t-33 63.5l-56 -257h-49l148 667h49l-15 -64q45 76 101 76q44 0 67.5 -36t23.5 -102q0 -47 -11.5 -107t-33 -120t-59 -101t-81.5 -41zM151 32q32 0 59.5 37t43.5 90t25.5 106t9.5 90q0 96 -59 96q-25 0 -51.5 -26.5t-43.5 -63.5l-53 -237
q3 -38 23 -65t46 -27zM307 602q0 -16 -12 -28t-29 -12q-14 0 -23.5 9t-9.5 23q0 16 12.5 28.5t28.5 12.5q14 0 23.5 -9.5t9.5 -23.5z" />
    <glyph glyph-name="uni1E60" unicode="&#x1e60;" horiz-adv-x="337" 
d="M113 -12q-39 0 -74 18t-53 47l38 40q13 -25 38 -40.5t51 -15.5q47 0 82.5 41t35.5 109q0 32 -14 63t-33.5 57.5t-39.5 53.5t-34 61.5t-14 71.5q0 77 49 130.5t113 53.5q74 0 111 -51l-34 -40q-28 42 -77 42q-46 0 -76 -38t-30 -91q0 -33 21 -71.5t46 -69t46 -76t21 -91.5
q0 -87 -49.5 -145.5t-123.5 -58.5zM318 769q0 -16 -12 -28t-29 -12q-14 0 -23.5 9t-9.5 23q0 17 12 29t29 12q14 0 23.5 -9.5t9.5 -23.5z" />
    <glyph glyph-name="uni1E61" unicode="&#x1e61;" horiz-adv-x="294" 
d="M101 -12q-84 0 -115 65l33 31q27 -55 85 -55q35 0 61 29.5t26 67.5q0 31 -19.5 60.5t-43.5 50t-43.5 53.5t-19.5 70q0 56 36 95.5t95 39.5q31 0 58.5 -15t43.5 -42l-32 -31q-9 22 -29.5 34.5t-43.5 12.5q-35 0 -57 -24t-22 -61q0 -23 13 -45.5t31.5 -41.5t37 -39.5
t31.5 -48t13 -58.5q0 -62 -39.5 -105t-99.5 -43zM265 602q0 -16 -12 -28t-29 -12q-14 0 -23.5 9t-9.5 23q0 16 12.5 28.5t28.5 12.5q14 0 23.5 -9.5t9.5 -23.5z" />
    <glyph glyph-name="uni1E6A" unicode="&#x1e6a;" horiz-adv-x="305" 
d="M125 0h-54l137 618h-107l10 49h269l-10 -49h-108zM305 769q0 -16 -12 -28t-29 -12q-14 0 -23.5 9t-9.5 23q0 17 12.5 29t28.5 12q14 0 23.5 -9.5t9.5 -23.5z" />
    <glyph glyph-name="uni1E6B" unicode="&#x1e6b;" horiz-adv-x="223" 
d="M104 -12q-70 0 -70 64q0 16 4 33l80 355h-51l10 43h50l29 132h49l-29 -132h68l-10 -43h-67l-78 -350q-4 -13 -4 -29q0 -29 30 -29q19 0 33 16l14 -37q-27 -23 -58 -23zM251 769q0 -16 -12 -28t-29 -12q-14 0 -23.5 9t-9.5 23q0 17 12.5 29t28.5 12q14 0 23.5 -9.5
t9.5 -23.5z" />
    <glyph glyph-name="Wgrave" unicode="&#x1e80;" horiz-adv-x="519" 
d="M341 0h-59l46 551l-199 -551h-59l44 667h56l-48 -568l206 568h49l-46 -568l203 568h57zM397 723h-36l-65 144h54z" />
    <glyph glyph-name="wgrave" unicode="&#x1e81;" horiz-adv-x="513" 
d="M339 0h-50l4 415l-177 -415h-51l5 483h50l-14 -411l175 411h52l-7 -411l169 411h54zM357 556h-36l-65 144h54z" />
    <glyph glyph-name="Wacute" unicode="&#x1e82;" horiz-adv-x="519" 
d="M495 867l-130 -144h-37l110 144h57zM341 0h-59l46 551l-199 -551h-59l44 667h56l-48 -568l206 568h49l-46 -568l203 568h57z" />
    <glyph glyph-name="wacute" unicode="&#x1e83;" horiz-adv-x="513" 
d="M455 700l-130 -144h-37l110 144h57zM339 0h-50l4 415l-177 -415h-51l5 483h50l-14 -411l175 411h52l-7 -411l169 411h54z" />
    <glyph glyph-name="Wdieresis" unicode="&#x1e84;" horiz-adv-x="519" 
d="M475 771q0 -16 -12 -27.5t-28 -11.5q-13 0 -22.5 9t-9.5 23q0 16 12 27.5t28 11.5q14 0 23 -9t9 -23zM344 771q0 -16 -12 -27.5t-28 -11.5q-14 0 -23 9t-9 23q0 16 12 27.5t28 11.5q14 0 23 -9t9 -23zM341 0h-59l46 551l-199 -551h-59l44 667h56l-48 -568l206 568h49
l-46 -568l203 568h57z" />
    <glyph glyph-name="wdieresis" unicode="&#x1e85;" horiz-adv-x="513" 
d="M435 604q0 -16 -12 -27.5t-28 -11.5q-13 0 -22.5 9.5t-9.5 22.5q0 16 12 27.5t28 11.5q14 0 23 -9t9 -23zM304 604q0 -16 -12 -27.5t-28 -11.5q-14 0 -23 9.5t-9 22.5q0 16 12 27.5t28 11.5q14 0 23 -9t9 -23zM339 0h-50l4 415l-177 -415h-51l5 483h50l-14 -411l175 411
h52l-7 -411l169 411h54z" />
    <glyph glyph-name="uni1EA0" unicode="&#x1ea0;" horiz-adv-x="338" 
d="M275 0h-54l7 166h-151l-65 -166h-57l276 667h62zM231 215l17 383l-152 -383h135zM120 -137q0 -16 -12 -28t-29 -12q-14 0 -23.5 9t-9.5 23q0 17 12 29t29 12q14 0 23.5 -9.5t9.5 -23.5z" />
    <glyph glyph-name="uni1EA1" unicode="&#x1ea1;" horiz-adv-x="368" 
d="M211 495q28 0 51 -21.5t33 -63.5l16 73h49l-107 -483h-49l15 64q-45 -76 -101 -76q-44 0 -68 36t-24 102q0 47 12 107.5t33.5 120.5t58.5 100.5t81 40.5zM216 451q-42 0 -75.5 -63t-48 -135t-14.5 -125q0 -96 59 -96q24 0 50.5 26.5t43.5 63.5l53 237q-3 39 -22.5 65.5
t-45.5 26.5zM129 -137q0 -16 -12 -28t-29 -12q-14 0 -23.5 9t-9.5 23q0 17 12.5 29t28.5 12q14 0 23.5 -9.5t9.5 -23.5z" />
    <glyph glyph-name="uni1EA2" unicode="&#x1ea2;" horiz-adv-x="338" 
d="M275 0h-54l7 166h-151l-65 -166h-57l276 667h62zM231 215l17 383l-152 -383h135zM255 769l-24 10q21 41 57 41q22 0 34 -12t12 -33q0 -44 -38 -78h-31q40 35 40 73q2 24 -20 24q-19 0 -30 -25z" />
    <glyph glyph-name="uni1EA3" unicode="&#x1ea3;" horiz-adv-x="368" 
d="M211 495q28 0 51 -21.5t33 -63.5l16 73h49l-107 -483h-49l15 64q-45 -76 -101 -76q-44 0 -68 36t-24 102q0 47 12 107.5t33.5 120.5t58.5 100.5t81 40.5zM216 451q-42 0 -75.5 -63t-48 -135t-14.5 -125q0 -96 59 -96q24 0 50.5 26.5t43.5 63.5l53 237q-3 39 -22.5 65.5
t-45.5 26.5zM227 599l-24 10q21 41 57 41q22 0 34 -12t12 -33q0 -44 -38 -78h-31q40 35 40 73q2 24 -20 24q-19 0 -30 -25z" />
    <glyph glyph-name="uni1EA4" unicode="&#x1ea4;" horiz-adv-x="338" 
d="M353 682h-30l-40 83l-84 -83h-34l99 108h51zM275 0h-54l7 166h-151l-65 -166h-57l276 667h62zM231 215l17 383l-152 -383h135zM506 843l-130 -108h-37l110 108h57z" />
    <glyph glyph-name="uni1EA5" unicode="&#x1ea5;" horiz-adv-x="368" 
d="M211 495q28 0 51 -21.5t33 -63.5l16 73h49l-107 -483h-49l15 64q-45 -76 -101 -76q-44 0 -68 36t-24 102q0 47 12 107.5t33.5 120.5t58.5 100.5t81 40.5zM216 451q-42 0 -75.5 -63t-48 -135t-14.5 -125q0 -96 59 -96q24 0 50.5 26.5t43.5 63.5l53 237q-3 39 -22.5 65.5
t-45.5 26.5zM341 556h-30l-40 111l-84 -111h-34l99 144h51zM496 771l-130 -144h-37l110 144h57z" />
    <glyph glyph-name="uni1EA6" unicode="&#x1ea6;" horiz-adv-x="338" 
d="M353 682h-30l-40 83l-84 -83h-34l99 108h51zM275 0h-54l7 166h-151l-65 -166h-57l276 667h62zM231 215l17 383l-152 -383h135zM203 735h-36l-65 108h54z" />
    <glyph glyph-name="uni1EA7" unicode="&#x1ea7;" horiz-adv-x="368" 
d="M211 495q28 0 51 -21.5t33 -63.5l16 73h49l-107 -483h-49l15 64q-45 -76 -101 -76q-44 0 -68 36t-24 102q0 47 12 107.5t33.5 120.5t58.5 100.5t81 40.5zM216 451q-42 0 -75.5 -63t-48 -135t-14.5 -125q0 -96 59 -96q24 0 50.5 26.5t43.5 63.5l53 237q-3 39 -22.5 65.5
t-45.5 26.5zM341 556h-30l-40 111l-84 -111h-34l99 144h51zM194 627h-36l-65 144h54z" />
    <glyph glyph-name="uni1EA8" unicode="&#x1ea8;" horiz-adv-x="338" 
d="M353 682h-30l-40 83l-84 -83h-34l99 108h51zM275 0h-54l7 166h-151l-65 -166h-57l276 667h62zM231 215l17 383l-152 -383h135zM332 810l-24 8q21 30 57 30q46 0 46 -33q0 -34 -38 -59h-31q40 27 40 55q1 8 -4.5 13t-15.5 5q-19 0 -30 -19z" />
    <glyph glyph-name="uni1EA9" unicode="&#x1ea9;" horiz-adv-x="368" 
d="M211 495q28 0 51 -21.5t33 -63.5l16 73h49l-107 -483h-49l15 64q-45 -76 -101 -76q-44 0 -68 36t-24 102q0 47 12 107.5t33.5 120.5t58.5 100.5t81 40.5zM216 451q-42 0 -75.5 -63t-48 -135t-14.5 -125q0 -96 59 -96q24 0 50.5 26.5t43.5 63.5l53 237q-3 39 -22.5 65.5
t-45.5 26.5zM341 556h-30l-40 111l-84 -111h-34l99 144h51zM317 739l-24 10q21 41 57 41q22 0 34 -12t12 -33q0 -44 -38 -78h-31q40 35 40 73q2 24 -20 24q-19 0 -30 -25z" />
    <glyph glyph-name="uni1EAA" unicode="&#x1eaa;" horiz-adv-x="338" 
d="M347 677h-30l-40 55l-84 -55h-34l99 72h51zM275 0h-54l7 166h-151l-65 -166h-57l276 667h62zM231 215l17 383l-152 -383h135zM319 757q-21 0 -30.5 8t-10 18t-6 18t-18.5 8q-31 0 -53 -49h-31q30 67 91 67q21 0 31 -8t10.5 -18t6 -18t18.5 -8q32 0 53 49h32
q-30 -67 -93 -67z" />
    <glyph glyph-name="uni1EAB" unicode="&#x1eab;" horiz-adv-x="368" 
d="M211 495q28 0 51 -21.5t33 -63.5l16 73h49l-107 -483h-49l15 64q-45 -76 -101 -76q-44 0 -68 36t-24 102q0 47 12 107.5t33.5 120.5t58.5 100.5t81 40.5zM216 451q-42 0 -75.5 -63t-48 -135t-14.5 -125q0 -96 59 -96q24 0 50.5 26.5t43.5 63.5l53 237q-3 39 -22.5 65.5
t-45.5 26.5zM334 523h-30l-40 111l-84 -111h-34l99 144h51zM319 682q-21 0 -30.5 16t-10 36t-6 36t-18.5 16q-32 0 -53 -98h-31q29 134 91 134q21 0 31 -16t10.5 -36t6 -36t18.5 -16q32 0 53 98h32q-30 -134 -93 -134z" />
    <glyph glyph-name="uni1EAC" unicode="&#x1eac;" horiz-adv-x="338" 
d="M275 0h-54l7 166h-151l-65 -166h-57l276 667h62zM231 215l17 383l-152 -383h135zM368 723h-30l-40 111l-84 -111h-34l99 144h51zM122 -137q0 -16 -12 -28t-29 -12q-14 0 -23.5 9t-9.5 23q0 17 12 29t29 12q14 0 23.5 -9.5t9.5 -23.5z" />
    <glyph glyph-name="uni1EAD" unicode="&#x1ead;" horiz-adv-x="368" 
d="M211 495q28 0 51 -21.5t33 -63.5l16 73h49l-107 -483h-49l15 64q-45 -76 -101 -76q-44 0 -68 36t-24 102q0 47 12 107.5t33.5 120.5t58.5 100.5t81 40.5zM216 451q-42 0 -75.5 -63t-48 -135t-14.5 -125q0 -96 59 -96q24 0 50.5 26.5t43.5 63.5l53 237q-3 39 -22.5 65.5
t-45.5 26.5zM341 556h-30l-40 111l-84 -111h-34l99 144h51zM129 -137q0 -16 -12 -28t-29 -12q-14 0 -23.5 9t-9.5 23q0 17 12.5 29t28.5 12q14 0 23.5 -9.5t9.5 -23.5z" />
    <glyph glyph-name="uni1EAE" unicode="&#x1eae;" horiz-adv-x="338" 
d="M275 0h-54l7 166h-151l-65 -166h-57l276 667h62zM231 215l17 383l-152 -383h135zM398 841l-130 -104h-37l110 104h57zM390 737q-55 -55 -130 -55t-105 55l32 21q9 -19 31 -31t47 -12q26 0 53 12t44 31z" />
    <glyph glyph-name="uni1EAF" unicode="&#x1eaf;" horiz-adv-x="368" 
d="M211 495q28 0 51 -21.5t33 -63.5l16 73h49l-107 -483h-49l15 64q-45 -76 -101 -76q-44 0 -68 36t-24 102q0 47 12 107.5t33.5 120.5t58.5 100.5t81 40.5zM216 451q-42 0 -75.5 -63t-48 -135t-14.5 -125q0 -96 59 -96q24 0 50.5 26.5t43.5 63.5l53 237q-3 39 -22.5 65.5
t-45.5 26.5zM377 759l-130 -144h-37l110 144h57zM368 587q-56 -59 -130 -59q-75 0 -105 59l32 23q9 -21 31 -33.5t47 -12.5q26 0 53 12.5t44 33.5z" />
    <glyph glyph-name="uni1EB0" unicode="&#x1eb0;" horiz-adv-x="338" 
d="M275 0h-54l7 166h-151l-65 -166h-57l276 667h62zM231 215l17 383l-152 -383h135zM314 737h-36l-65 104h54zM390 737q-55 -55 -130 -55t-105 55l32 21q9 -19 31 -31t47 -12q26 0 53 12t44 31z" />
    <glyph glyph-name="uni1EB1" unicode="&#x1eb1;" horiz-adv-x="368" 
d="M211 495q28 0 51 -21.5t33 -63.5l16 73h49l-107 -483h-49l15 64q-45 -76 -101 -76q-44 0 -68 36t-24 102q0 47 12 107.5t33.5 120.5t58.5 100.5t81 40.5zM216 451q-42 0 -75.5 -63t-48 -135t-14.5 -125q0 -96 59 -96q24 0 50.5 26.5t43.5 63.5l53 237q-3 39 -22.5 65.5
t-45.5 26.5zM299 617h-36l-65 144h54zM368 587q-56 -59 -130 -59q-75 0 -105 59l32 23q9 -21 31 -33.5t47 -12.5q26 0 53 12.5t44 33.5z" />
    <glyph glyph-name="uni1EB2" unicode="&#x1eb2;" horiz-adv-x="338" 
d="M275 0h-54l7 166h-151l-65 -166h-57l276 667h62zM231 215l17 383l-152 -383h135zM263 794l-24 7q20 29 57 29q46 0 46 -32q0 -31 -38 -56h-31q40 25 40 52q1 8 -4.5 13t-15.5 5q-19 0 -30 -18zM390 737q-55 -55 -130 -55t-105 55l32 21q9 -19 31 -31t47 -12q26 0 53 12
t44 31z" />
    <glyph glyph-name="uni1EB3" unicode="&#x1eb3;" horiz-adv-x="368" 
d="M211 495q28 0 51 -21.5t33 -63.5l16 73h49l-107 -483h-49l15 64q-45 -76 -101 -76q-44 0 -68 36t-24 102q0 47 12 107.5t33.5 120.5t58.5 100.5t81 40.5zM216 451q-42 0 -75.5 -63t-48 -135t-14.5 -125q0 -96 59 -96q24 0 50.5 26.5t43.5 63.5l53 237q-3 39 -22.5 65.5
t-45.5 26.5zM248 684l-24 10q20 41 57 41q22 0 34 -12t12 -33q0 -44 -38 -78h-31q40 35 40 73q2 24 -20 24q-19 0 -30 -25zM368 587q-56 -59 -130 -59q-75 0 -105 59l32 23q9 -21 31 -33.5t47 -12.5q26 0 53 12.5t44 33.5z" />
    <glyph glyph-name="uni1EB4" unicode="&#x1eb4;" horiz-adv-x="338" 
d="M275 0h-54l7 166h-151l-65 -166h-57l276 667h62zM231 215l17 383l-152 -383h135zM390 726q-56 -43 -130 -43q-75 0 -105 43l32 16q20 -33 78 -33q59 0 97 33zM319 757q-21 0 -30.5 8t-10 18t-6 18t-18.5 8q-31 0 -53 -49h-31q30 67 91 67q21 0 31 -8t10.5 -18t6 -18
t18.5 -8q32 0 53 49h32q-30 -67 -93 -67z" />
    <glyph glyph-name="uni1EB5" unicode="&#x1eb5;" horiz-adv-x="368" 
d="M211 495q28 0 51 -21.5t33 -63.5l16 73h49l-107 -483h-49l15 64q-45 -76 -101 -76q-44 0 -68 36t-24 102q0 47 12 107.5t33.5 120.5t58.5 100.5t81 40.5zM216 451q-42 0 -75.5 -63t-48 -135t-14.5 -125q0 -96 59 -96q24 0 50.5 26.5t43.5 63.5l53 237q-3 39 -22.5 65.5
t-45.5 26.5zM368 587q-56 -59 -130 -59q-75 0 -105 59l32 23q9 -21 31 -33.5t47 -12.5q26 0 53 12.5t44 33.5zM307 632q-21 0 -30.5 16t-10 36t-6 36t-18.5 16q-32 0 -53 -98h-31q29 134 91 134q21 0 31 -16t10.5 -36t6 -36t18.5 -16q32 0 53 98h32q-30 -134 -93 -134z" />
    <glyph glyph-name="uni1EB6" unicode="&#x1eb6;" horiz-adv-x="338" 
d="M275 0h-54l7 166h-151l-65 -166h-57l276 667h62zM231 215l17 383l-152 -383h135zM122 -137q0 -16 -12 -28t-29 -12q-14 0 -23.5 9t-9.5 23q0 17 12 29t29 12q14 0 23.5 -9.5t9.5 -23.5zM400 782q-56 -59 -130 -59q-75 0 -105 59l32 23q9 -21 31 -33.5t47 -12.5
q26 0 53 12.5t44 33.5z" />
    <glyph glyph-name="uni1EB7" unicode="&#x1eb7;" horiz-adv-x="368" 
d="M211 495q28 0 51 -21.5t33 -63.5l16 73h49l-107 -483h-49l15 64q-45 -76 -101 -76q-44 0 -68 36t-24 102q0 47 12 107.5t33.5 120.5t58.5 100.5t81 40.5zM216 451q-42 0 -75.5 -63t-48 -135t-14.5 -125q0 -96 59 -96q24 0 50.5 26.5t43.5 63.5l53 237q-3 39 -22.5 65.5
t-45.5 26.5zM129 -137q0 -16 -12 -28t-29 -12q-14 0 -23.5 9t-9.5 23q0 17 12.5 29t28.5 12q14 0 23.5 -9.5t9.5 -23.5zM374 615q-56 -59 -130 -59q-75 0 -105 59l32 23q9 -21 31 -33.5t47 -12.5q26 0 53 12.5t44 33.5z" />
    <glyph glyph-name="uni1EB8" unicode="&#x1eb8;" horiz-adv-x="341" 
d="M242 0h-228l147 667h228l-10 -49h-175l-56 -252h168l-11 -48h-168l-60 -269h176zM133 -137q0 -16 -12 -28t-29 -12q-14 0 -23.5 9t-9.5 23q0 17 12.5 29t28.5 12q14 0 23.5 -9.5t9.5 -23.5z" />
    <glyph glyph-name="uni1EB9" unicode="&#x1eb9;" 
d="M157 -12q-61 0 -95 40t-34 119q0 38 10.5 92t31.5 114t61.5 101t92.5 41q112 0 112 -143q0 -59 -18 -126h-232q-9 -44 -9 -80q0 -54 21.5 -85t62.5 -31q47 0 87 59l27 -31q-55 -70 -118 -70zM93 265h184q11 46 11 85q0 45 -17 74t-50 29q-48 0 -81 -58t-47 -130z
M141 -137q0 -16 -12 -28t-29 -12q-14 0 -23.5 9t-9.5 23q0 17 12.5 29t28.5 12q14 0 23.5 -9.5t9.5 -23.5z" />
    <glyph glyph-name="uni1EBA" unicode="&#x1eba;" horiz-adv-x="341" 
d="M242 0h-228l147 667h228l-10 -49h-175l-56 -252h168l-11 -48h-168l-60 -269h176zM268 769l-24 10q20 41 57 41q22 0 34 -12t12 -33q0 -44 -38 -78h-31q40 35 40 73q2 24 -20 24q-19 0 -30 -25z" />
    <glyph glyph-name="uni1EBB" unicode="&#x1ebb;" 
d="M157 -12q-61 0 -95 40t-34 119q0 38 10.5 92t31.5 114t61.5 101t92.5 41q112 0 112 -143q0 -59 -18 -126h-232q-9 -44 -9 -80q0 -54 21.5 -85t62.5 -31q47 0 87 59l27 -31q-55 -70 -118 -70zM93 265h184q11 46 11 85q0 45 -17 74t-50 29q-48 0 -81 -58t-47 -130zM238 599
l-24 10q20 41 57 41q22 0 34 -12t12 -33q0 -44 -38 -78h-31q40 35 40 73q2 24 -20 24q-19 0 -30 -25z" />
    <glyph glyph-name="uni1EBC" unicode="&#x1ebc;" horiz-adv-x="341" 
d="M242 0h-228l147 667h228l-10 -49h-175l-56 -252h168l-11 -48h-168l-60 -269h176zM331 721q-21 0 -30.5 16.5t-10 35.5t-6 35.5t-18.5 16.5q-32 0 -53 -98h-31q29 134 91 134q21 0 31 -16.5t10.5 -35.5t6 -35.5t18.5 -16.5q32 0 53 98h32q-30 -134 -93 -134z" />
    <glyph glyph-name="uni1EBD" unicode="&#x1ebd;" 
d="M157 -12q-61 0 -95 40t-34 119q0 38 10.5 92t31.5 114t61.5 101t92.5 41q112 0 112 -143q0 -59 -18 -126h-232q-9 -44 -9 -80q0 -54 21.5 -85t62.5 -31q47 0 87 59l27 -31q-55 -70 -118 -70zM93 265h184q11 46 11 85q0 45 -17 74t-50 29q-48 0 -81 -58t-47 -130zM302 554
q-21 0 -30.5 16t-10 36t-6 36t-18.5 16q-32 0 -53 -98h-31q29 134 91 134q21 0 31 -16t10.5 -36t6 -36t18.5 -16q32 0 53 98h32q-30 -134 -93 -134z" />
    <glyph glyph-name="uni1EBE" unicode="&#x1ebe;" horiz-adv-x="341" 
d="M367 682h-30l-40 83l-84 -83h-34l99 108h51zM520 843l-130 -108h-37l110 108h57zM242 0h-228l147 667h228l-10 -49h-175l-56 -252h168l-11 -48h-168l-60 -269h176z" />
    <glyph glyph-name="uni1EBF" unicode="&#x1ebf;" 
d="M352 556h-30l-40 111l-84 -111h-34l99 144h51zM506 771l-130 -144h-37l110 144h57zM157 -12q-61 0 -95 40t-34 119q0 38 10.5 92t31.5 114t61.5 101t92.5 41q112 0 112 -143q0 -59 -18 -126h-232q-9 -44 -9 -80q0 -54 21.5 -85t62.5 -31q47 0 87 59l27 -31
q-55 -70 -118 -70zM93 265h184q11 46 11 85q0 45 -17 74t-50 29q-48 0 -81 -58t-47 -130z" />
    <glyph glyph-name="uni1EC0" unicode="&#x1ec0;" horiz-adv-x="341" 
d="M367 682h-30l-40 83l-84 -83h-34l99 108h51zM242 0h-228l147 667h228l-10 -49h-175l-56 -252h168l-11 -48h-168l-60 -269h176zM217 735h-36l-65 108h54z" />
    <glyph glyph-name="uni1EC1" unicode="&#x1ec1;" 
d="M352 556h-30l-40 111l-84 -111h-34l99 144h51zM157 -12q-61 0 -95 40t-34 119q0 38 10.5 92t31.5 114t61.5 101t92.5 41q112 0 112 -143q0 -59 -18 -126h-232q-9 -44 -9 -80q0 -54 21.5 -85t62.5 -31q47 0 87 59l27 -31q-55 -70 -118 -70zM93 265h184q11 46 11 85
q0 45 -17 74t-50 29q-48 0 -81 -58t-47 -130zM205 627h-36l-65 144h54z" />
    <glyph glyph-name="uni1EC2" unicode="&#x1ec2;" horiz-adv-x="341" 
d="M366 682h-30l-40 83l-84 -83h-34l99 108h51zM242 0h-228l147 667h228l-10 -49h-175l-56 -252h168l-11 -48h-168l-60 -269h176zM345 810l-24 8q21 30 57 30q46 0 46 -33q0 -34 -38 -59h-31q40 27 40 55q1 8 -4.5 13t-15.5 5q-19 0 -30 -19z" />
    <glyph glyph-name="uni1EC3" unicode="&#x1ec3;" 
d="M352 556h-30l-40 111l-84 -111h-34l99 144h51zM157 -12q-61 0 -95 40t-34 119q0 38 10.5 92t31.5 114t61.5 101t92.5 41q112 0 112 -143q0 -59 -18 -126h-232q-9 -44 -9 -80q0 -54 21.5 -85t62.5 -31q47 0 87 59l27 -31q-55 -70 -118 -70zM93 265h184q11 46 11 85
q0 45 -17 74t-50 29q-48 0 -81 -58t-47 -130zM327 739l-24 10q21 41 57 41q22 0 34 -12t12 -33q0 -44 -38 -78h-31q40 35 40 73q2 24 -20 24q-19 0 -30 -25z" />
    <glyph glyph-name="uni1EC4" unicode="&#x1ec4;" horiz-adv-x="341" 
d="M359 678h-30l-40 55l-84 -55h-34l99 72h51zM242 0h-228l147 667h228l-10 -49h-175l-56 -252h168l-11 -48h-168l-60 -269h176zM331 757q-21 0 -30.5 8t-10 18t-6 18t-18.5 8q-31 0 -53 -49h-31q30 67 91 67q21 0 31 -8t10.5 -18t6 -18t18.5 -8q32 0 53 49h32
q-30 -67 -93 -67z" />
    <glyph glyph-name="uni1EC5" unicode="&#x1ec5;" 
d="M345 523h-30l-40 111l-84 -111h-34l99 144h51zM157 -12q-61 0 -95 40t-34 119q0 38 10.5 92t31.5 114t61.5 101t92.5 41q112 0 112 -143q0 -59 -18 -126h-232q-9 -44 -9 -80q0 -54 21.5 -85t62.5 -31q47 0 87 59l27 -31q-55 -70 -118 -70zM93 265h184q11 46 11 85
q0 45 -17 74t-50 29q-48 0 -81 -58t-47 -130zM330 682q-21 0 -30.5 16t-10 36t-6 36t-18.5 16q-32 0 -53 -98h-31q29 134 91 134q21 0 31 -16t10.5 -36t6 -36t18.5 -16q32 0 53 98h32q-30 -134 -93 -134z" />
    <glyph glyph-name="uni1EC6" unicode="&#x1ec6;" horiz-adv-x="341" 
d="M382 723h-30l-40 111l-84 -111h-34l99 144h51zM242 0h-228l147 667h228l-10 -49h-175l-56 -252h168l-11 -48h-168l-60 -269h176zM133 -137q0 -16 -12 -28t-29 -12q-14 0 -23.5 9t-9.5 23q0 17 12.5 29t28.5 12q14 0 23.5 -9.5t9.5 -23.5z" />
    <glyph glyph-name="uni1EC7" unicode="&#x1ec7;" 
d="M351 556h-30l-40 111l-84 -111h-34l99 144h51zM157 -12q-61 0 -95 40t-34 119q0 38 10.5 92t31.5 114t61.5 101t92.5 41q112 0 112 -143q0 -59 -18 -126h-232q-9 -44 -9 -80q0 -54 21.5 -85t62.5 -31q47 0 87 59l27 -31q-55 -70 -118 -70zM93 265h184q11 46 11 85
q0 45 -17 74t-50 29q-48 0 -81 -58t-47 -130zM141 -137q0 -16 -12 -28t-29 -12q-14 0 -23.5 9t-9.5 23q0 17 12.5 29t28.5 12q14 0 23.5 -9.5t9.5 -23.5z" />
    <glyph glyph-name="uni1EC8" unicode="&#x1ec8;" horiz-adv-x="189" 
d="M67 0h-53l147 667h53zM181 769l-24 10q21 41 57 41q22 0 34 -12t12 -33q0 -44 -38 -78h-31q40 35 40 73q2 24 -20 24q-19 0 -30 -25z" />
    <glyph glyph-name="uni1EC9" unicode="&#x1ec9;" horiz-adv-x="170" 
d="M56 0h-49l107 483h49zM134 599l-24 10q20 41 57 41q22 0 34 -12t12 -33q0 -44 -38 -78h-31q40 35 40 73q2 24 -20 24q-19 0 -30 -25z" />
    <glyph glyph-name="uni1ECA" unicode="&#x1eca;" horiz-adv-x="189" 
d="M67 0h-53l147 667h53zM47 -137q0 -16 -12 -28t-29 -12q-14 0 -23.5 9t-9.5 23q0 17 12.5 29t28.5 12q14 0 23.5 -9.5t9.5 -23.5z" />
    <glyph glyph-name="uni1ECB" unicode="&#x1ecb;" horiz-adv-x="170" 
d="M159 560q-15 0 -25.5 10t-10.5 24q0 18 14 30t30 12q15 0 25 -9.5t10 -23.5q0 -19 -13.5 -31t-29.5 -12zM56 0h-49l107 483h49zM37 -137q0 -16 -12 -28t-29 -12q-14 0 -23.5 9t-9.5 23q0 17 12.5 29t28.5 12q14 0 23.5 -9.5t9.5 -23.5z" />
    <glyph glyph-name="uni1ECC" unicode="&#x1ecc;" horiz-adv-x="415" 
d="M163 -12q-62 0 -91 50t-29 130q0 57 14.5 138.5t42.5 167t78 145t111 59.5q62 0 91.5 -50.5t29.5 -130.5q0 -57 -15 -138t-42.5 -166.5t-78 -145t-111.5 -59.5zM168 37q41 0 77.5 53t59 128.5t35.5 151.5t13 130q0 129 -69 129q-42 0 -78.5 -53t-58.5 -129.5
t-34.5 -152.5t-12.5 -130q0 -127 68 -127zM159 -137q0 -16 -12 -28t-29 -12q-14 0 -23.5 9t-9.5 23q0 17 12.5 29t28.5 12q14 0 23.5 -9.5t9.5 -23.5z" />
    <glyph glyph-name="uni1ECD" unicode="&#x1ecd;" horiz-adv-x="367" 
d="M140 -12q-53 0 -82.5 36.5t-29.5 111.5q0 74 21 154t68 142.5t109 62.5q53 0 82.5 -36.5t29.5 -111.5q0 -74 -21 -154t-68 -142.5t-109 -62.5zM143 32q42 0 77 59t51 129.5t16 125.5q0 105 -64 105q-42 0 -77 -59t-51 -130t-16 -126q0 -104 64 -104zM135 -137
q0 -16 -12 -28t-29 -12q-14 0 -23.5 9t-9.5 23q0 17 12.5 29t28.5 12q14 0 23.5 -9.5t9.5 -23.5z" />
    <glyph glyph-name="uni1ECE" unicode="&#x1ece;" horiz-adv-x="415" 
d="M163 -12q-62 0 -91 50t-29 130q0 57 14.5 138.5t42.5 167t78 145t111 59.5q62 0 91.5 -50.5t29.5 -130.5q0 -57 -15 -138t-42.5 -166.5t-78 -145t-111.5 -59.5zM168 37q41 0 77.5 53t59 128.5t35.5 151.5t13 130q0 129 -69 129q-42 0 -78.5 -53t-58.5 -129.5
t-34.5 -152.5t-12.5 -130q0 -127 68 -127zM294 769l-24 10q20 41 57 41q22 0 34 -12t12 -33q0 -44 -38 -78h-31q40 35 40 73q2 24 -20 24q-19 0 -30 -25z" />
    <glyph glyph-name="uni1ECF" unicode="&#x1ecf;" horiz-adv-x="367" 
d="M140 -12q-53 0 -82.5 36.5t-29.5 111.5q0 74 21 154t68 142.5t109 62.5q53 0 82.5 -36.5t29.5 -111.5q0 -74 -21 -154t-68 -142.5t-109 -62.5zM143 32q42 0 77 59t51 129.5t16 125.5q0 105 -64 105q-42 0 -77 -59t-51 -130t-16 -126q0 -104 64 -104zM233 599l-24 10
q21 41 57 41q22 0 34 -12t12 -33q0 -44 -38 -78h-31q40 35 40 73q2 24 -20 24q-19 0 -30 -25z" />
    <glyph glyph-name="uni1ED0" unicode="&#x1ed0;" horiz-adv-x="415" 
d="M393 682h-30l-40 83l-84 -83h-34l99 108h51zM547 843l-130 -108h-37l110 108h57zM163 -12q-62 0 -91 50t-29 130q0 57 14.5 138.5t42.5 167t78 145t111 59.5q62 0 91.5 -50.5t29.5 -130.5q0 -57 -15 -138t-42.5 -166.5t-78 -145t-111.5 -59.5zM168 37q41 0 77.5 53
t59 128.5t35.5 151.5t13 130q0 129 -69 129q-42 0 -78.5 -53t-58.5 -129.5t-34.5 -152.5t-12.5 -130q0 -127 68 -127z" />
    <glyph glyph-name="uni1ED1" unicode="&#x1ed1;" horiz-adv-x="367" 
d="M346 556h-30l-40 111l-84 -111h-34l99 144h51zM500 771l-130 -144h-37l110 144h57zM140 -12q-53 0 -82.5 36.5t-29.5 111.5q0 74 21 154t68 142.5t109 62.5q53 0 82.5 -36.5t29.5 -111.5q0 -74 -21 -154t-68 -142.5t-109 -62.5zM143 32q42 0 77 59t51 129.5t16 125.5
q0 105 -64 105q-42 0 -77 -59t-51 -130t-16 -126q0 -104 64 -104z" />
    <glyph glyph-name="uni1ED2" unicode="&#x1ed2;" horiz-adv-x="415" 
d="M392 682h-30l-40 83l-84 -83h-34l99 108h51zM163 -12q-62 0 -91 50t-29 130q0 57 14.5 138.5t42.5 167t78 145t111 59.5q62 0 91.5 -50.5t29.5 -130.5q0 -57 -15 -138t-42.5 -166.5t-78 -145t-111.5 -59.5zM168 37q41 0 77.5 53t59 128.5t35.5 151.5t13 130
q0 129 -69 129q-42 0 -78.5 -53t-58.5 -129.5t-34.5 -152.5t-12.5 -130q0 -127 68 -127zM243 735h-36l-65 108h54z" />
    <glyph glyph-name="uni1ED3" unicode="&#x1ed3;" horiz-adv-x="367" 
d="M346 556h-30l-40 111l-84 -111h-34l99 144h51zM140 -12q-53 0 -82.5 36.5t-29.5 111.5q0 74 21 154t68 142.5t109 62.5q53 0 82.5 -36.5t29.5 -111.5q0 -74 -21 -154t-68 -142.5t-109 -62.5zM143 32q42 0 77 59t51 129.5t16 125.5q0 105 -64 105q-42 0 -77 -59t-51 -130
t-16 -126q0 -104 64 -104zM199 627h-36l-65 144h54z" />
    <glyph glyph-name="uni1ED4" unicode="&#x1ed4;" horiz-adv-x="415" 
d="M392 682h-30l-40 83l-84 -83h-34l99 108h51zM163 -12q-62 0 -91 50t-29 130q0 57 14.5 138.5t42.5 167t78 145t111 59.5q62 0 91.5 -50.5t29.5 -130.5q0 -57 -15 -138t-42.5 -166.5t-78 -145t-111.5 -59.5zM168 37q41 0 77.5 53t59 128.5t35.5 151.5t13 130
q0 129 -69 129q-42 0 -78.5 -53t-58.5 -129.5t-34.5 -152.5t-12.5 -130q0 -127 68 -127zM371 810l-24 8q21 30 57 30q46 0 46 -33q0 -34 -38 -59h-31q40 27 40 55q1 8 -4.5 13t-15.5 5q-19 0 -30 -19z" />
    <glyph glyph-name="uni1ED5" unicode="&#x1ed5;" horiz-adv-x="367" 
d="M346 556h-30l-40 111l-84 -111h-34l99 144h51zM140 -12q-53 0 -82.5 36.5t-29.5 111.5q0 74 21 154t68 142.5t109 62.5q53 0 82.5 -36.5t29.5 -111.5q0 -74 -21 -154t-68 -142.5t-109 -62.5zM143 32q42 0 77 59t51 129.5t16 125.5q0 105 -64 105q-42 0 -77 -59t-51 -130
t-16 -126q0 -104 64 -104zM321 739l-24 10q21 41 57 41q22 0 34 -12t12 -33q0 -44 -38 -78h-31q40 35 40 73q2 24 -20 24q-19 0 -30 -25z" />
    <glyph glyph-name="uni1ED6" unicode="&#x1ed6;" horiz-adv-x="415" 
d="M387 678h-30l-40 55l-84 -55h-34l99 72h51zM163 -12q-62 0 -91 50t-29 130q0 57 14.5 138.5t42.5 167t78 145t111 59.5q62 0 91.5 -50.5t29.5 -130.5q0 -57 -15 -138t-42.5 -166.5t-78 -145t-111.5 -59.5zM168 37q41 0 77.5 53t59 128.5t35.5 151.5t13 130q0 129 -69 129
q-42 0 -78.5 -53t-58.5 -129.5t-34.5 -152.5t-12.5 -130q0 -127 68 -127zM356 757q-21 0 -30.5 8t-10 18t-6 18t-18.5 8q-31 0 -53 -49h-31q30 67 91 67q21 0 31 -8t10.5 -18t6 -18t18.5 -8q32 0 53 49h32q-30 -67 -93 -67z" />
    <glyph glyph-name="uni1ED7" unicode="&#x1ed7;" horiz-adv-x="367" 
d="M339 523h-30l-40 111l-84 -111h-34l99 144h51zM140 -12q-53 0 -82.5 36.5t-29.5 111.5q0 74 21 154t68 142.5t109 62.5q53 0 82.5 -36.5t29.5 -111.5q0 -74 -21 -154t-68 -142.5t-109 -62.5zM143 32q42 0 77 59t51 129.5t16 125.5q0 105 -64 105q-42 0 -77 -59t-51 -130
t-16 -126q0 -104 64 -104zM325 682q-21 0 -30.5 16t-10 36t-6 36t-18.5 16q-32 0 -53 -98h-31q29 134 91 134q21 0 31 -16t10.5 -36t6 -36t18.5 -16q32 0 53 98h32q-30 -134 -93 -134z" />
    <glyph glyph-name="uni1ED8" unicode="&#x1ed8;" horiz-adv-x="415" 
d="M408 723h-30l-40 111l-84 -111h-34l99 144h51zM163 -12q-62 0 -91 50t-29 130q0 57 14.5 138.5t42.5 167t78 145t111 59.5q62 0 91.5 -50.5t29.5 -130.5q0 -57 -15 -138t-42.5 -166.5t-78 -145t-111.5 -59.5zM168 37q41 0 77.5 53t59 128.5t35.5 151.5t13 130
q0 129 -69 129q-42 0 -78.5 -53t-58.5 -129.5t-34.5 -152.5t-12.5 -130q0 -127 68 -127zM159 -137q0 -16 -12 -28t-29 -12q-14 0 -23.5 9t-9.5 23q0 17 12.5 29t28.5 12q14 0 23.5 -9.5t9.5 -23.5z" />
    <glyph glyph-name="uni1ED9" unicode="&#x1ed9;" horiz-adv-x="367" 
d="M348 556h-30l-40 111l-84 -111h-34l99 144h51zM140 -12q-53 0 -82.5 36.5t-29.5 111.5q0 74 21 154t68 142.5t109 62.5q53 0 82.5 -36.5t29.5 -111.5q0 -74 -21 -154t-68 -142.5t-109 -62.5zM143 32q42 0 77 59t51 129.5t16 125.5q0 105 -64 105q-42 0 -77 -59t-51 -130
t-16 -126q0 -104 64 -104zM136 -137q0 -16 -12 -28t-29 -12q-14 0 -23.5 9t-9.5 23q0 17 12 29t29 12q14 0 23.5 -9.5t9.5 -23.5z" />
    <glyph glyph-name="uni1EDA" unicode="&#x1eda;" horiz-adv-x="415" 
d="M445 867l-130 -144h-37l110 144h57zM163 -12q-62 0 -91 50t-29 130q0 57 14.5 138.5t42.5 167t78 145t111 59.5q85 0 111 -99q43 30 54 69h-6q-12 0 -21 9.5t-9 22.5q0 16 12 28.5t29 12.5q16 0 26 -11t10 -31q0 -36 -26 -73t-62 -59q3 -24 3 -50q0 -57 -15 -138
t-42.5 -166.5t-78 -145t-111.5 -59.5zM168 37q41 0 77.5 53t59 128.5t35.5 151.5t13 130q0 129 -69 129q-42 0 -78.5 -53t-58.5 -129.5t-34.5 -152.5t-12.5 -130q0 -127 68 -127z" />
    <glyph glyph-name="uni1EDB" unicode="&#x1edb;" horiz-adv-x="367" 
d="M384 700l-130 -144h-37l110 144h57zM409 545q0 -34 -23.5 -69.5t-56.5 -57.5q9 -30 9 -71q0 -74 -21 -154t-68 -142.5t-109 -62.5q-53 0 -82.5 36.5t-29.5 111.5q0 74 21 154t68 142.5t109 62.5t90 -48q43 31 52 67h-6q-12 0 -20.5 9.5t-8.5 22.5q0 16 12 28.5t28 12.5
t26 -11t10 -31zM143 32q42 0 77 59t51 129.5t16 125.5q0 105 -64 105q-42 0 -77 -59t-51 -130t-16 -126q0 -104 64 -104z" />
    <glyph glyph-name="uni1EDC" unicode="&#x1edc;" horiz-adv-x="415" 
d="M163 -12q-62 0 -91 50t-29 130q0 57 14.5 138.5t42.5 167t78 145t111 59.5q85 0 111 -99q43 30 54 69h-6q-12 0 -21 9.5t-9 22.5q0 16 12 28.5t29 12.5q16 0 26 -11t10 -31q0 -36 -26 -73t-62 -59q3 -24 3 -50q0 -57 -15 -138t-42.5 -166.5t-78 -145t-111.5 -59.5z
M168 37q41 0 77.5 53t59 128.5t35.5 151.5t13 130q0 129 -69 129q-42 0 -78.5 -53t-58.5 -129.5t-34.5 -152.5t-12.5 -130q0 -127 68 -127zM346 723h-36l-65 144h54z" />
    <glyph glyph-name="uni1EDD" unicode="&#x1edd;" horiz-adv-x="367" 
d="M409 545q0 -34 -23.5 -69.5t-56.5 -57.5q9 -30 9 -71q0 -74 -21 -154t-68 -142.5t-109 -62.5q-53 0 -82.5 36.5t-29.5 111.5q0 74 21 154t68 142.5t109 62.5t90 -48q43 31 52 67h-6q-12 0 -20.5 9.5t-8.5 22.5q0 16 12 28.5t28 12.5t26 -11t10 -31zM143 32q42 0 77 59
t51 129.5t16 125.5q0 105 -64 105q-42 0 -77 -59t-51 -130t-16 -126q0 -104 64 -104zM287 556h-36l-65 144h54z" />
    <glyph glyph-name="uni1EDE" unicode="&#x1ede;" horiz-adv-x="415" 
d="M163 -12q-62 0 -91 50t-29 130q0 57 14.5 138.5t42.5 167t78 145t111 59.5q85 0 111 -99q43 30 54 69h-6q-12 0 -21 9.5t-9 22.5q0 16 12 28.5t29 12.5q16 0 26 -11t10 -31q0 -36 -26 -73t-62 -59q3 -24 3 -50q0 -57 -15 -138t-42.5 -166.5t-78 -145t-111.5 -59.5z
M168 37q41 0 77.5 53t59 128.5t35.5 151.5t13 130q0 129 -69 129q-42 0 -78.5 -53t-58.5 -129.5t-34.5 -152.5t-12.5 -130q0 -127 68 -127zM294 769l-24 10q20 41 57 41q22 0 34 -12t12 -33q0 -44 -38 -78h-31q40 35 40 73q2 24 -20 24q-19 0 -30 -25z" />
    <glyph glyph-name="uni1EDF" unicode="&#x1edf;" horiz-adv-x="367" 
d="M409 545q0 -34 -23.5 -69.5t-56.5 -57.5q9 -30 9 -71q0 -74 -21 -154t-68 -142.5t-109 -62.5q-53 0 -82.5 36.5t-29.5 111.5q0 74 21 154t68 142.5t109 62.5t90 -48q43 31 52 67h-6q-12 0 -20.5 9.5t-8.5 22.5q0 16 12 28.5t28 12.5t26 -11t10 -31zM143 32q42 0 77 59
t51 129.5t16 125.5q0 105 -64 105q-42 0 -77 -59t-51 -130t-16 -126q0 -104 64 -104zM233 599l-24 10q21 41 57 41q22 0 34 -12t12 -33q0 -44 -38 -78h-31q40 35 40 73q2 24 -20 24q-19 0 -30 -25z" />
    <glyph glyph-name="uni1EE0" unicode="&#x1ee0;" horiz-adv-x="415" 
d="M163 -12q-62 0 -91 50t-29 130q0 57 14.5 138.5t42.5 167t78 145t111 59.5q85 0 111 -99q43 30 54 69h-6q-12 0 -21 9.5t-9 22.5q0 16 12 28.5t29 12.5q16 0 26 -11t10 -31q0 -36 -26 -73t-62 -59q3 -24 3 -50q0 -57 -15 -138t-42.5 -166.5t-78 -145t-111.5 -59.5z
M168 37q41 0 77.5 53t59 128.5t35.5 151.5t13 130q0 129 -69 129q-42 0 -78.5 -53t-58.5 -129.5t-34.5 -152.5t-12.5 -130q0 -127 68 -127zM357 721q-21 0 -30.5 16.5t-10 35.5t-6 35.5t-18.5 16.5q-32 0 -53 -98h-31q29 134 91 134q21 0 31 -16.5t10.5 -35.5t6 -35.5
t18.5 -16.5q32 0 53 98h32q-30 -134 -93 -134z" />
    <glyph glyph-name="uni1EE1" unicode="&#x1ee1;" horiz-adv-x="367" 
d="M409 545q0 -34 -23.5 -69.5t-56.5 -57.5q9 -30 9 -71q0 -74 -21 -154t-68 -142.5t-109 -62.5q-53 0 -82.5 36.5t-29.5 111.5q0 74 21 154t68 142.5t109 62.5t90 -48q43 31 52 67h-6q-12 0 -20.5 9.5t-8.5 22.5q0 16 12 28.5t28 12.5t26 -11t10 -31zM143 32q42 0 77 59
t51 129.5t16 125.5q0 105 -64 105q-42 0 -77 -59t-51 -130t-16 -126q0 -104 64 -104zM280 554q-21 0 -30.5 16t-10 36t-6 36t-18.5 16q-32 0 -53 -98h-31q29 134 91 134q21 0 31 -16t10.5 -36t6 -36t18.5 -16q32 0 53 98h32q-30 -134 -93 -134z" />
    <glyph glyph-name="uni1EE2" unicode="&#x1ee2;" horiz-adv-x="415" 
d="M163 -12q-62 0 -91 50t-29 130q0 57 14.5 138.5t42.5 167t78 145t111 59.5q85 0 111 -99q43 30 54 69h-6q-12 0 -21 9.5t-9 22.5q0 16 12 28.5t29 12.5q16 0 26 -11t10 -31q0 -36 -26 -73t-62 -59q3 -24 3 -50q0 -57 -15 -138t-42.5 -166.5t-78 -145t-111.5 -59.5z
M168 37q41 0 77.5 53t59 128.5t35.5 151.5t13 130q0 129 -69 129q-42 0 -78.5 -53t-58.5 -129.5t-34.5 -152.5t-12.5 -130q0 -127 68 -127zM159 -137q0 -16 -12 -28t-29 -12q-14 0 -23.5 9t-9.5 23q0 17 12.5 29t28.5 12q14 0 23.5 -9.5t9.5 -23.5z" />
    <glyph glyph-name="uni1EE3" unicode="&#x1ee3;" horiz-adv-x="367" 
d="M409 545q0 -34 -23.5 -69.5t-56.5 -57.5q9 -30 9 -71q0 -74 -21 -154t-68 -142.5t-109 -62.5q-53 0 -82.5 36.5t-29.5 111.5q0 74 21 154t68 142.5t109 62.5t90 -48q43 31 52 67h-6q-12 0 -20.5 9.5t-8.5 22.5q0 16 12 28.5t28 12.5t26 -11t10 -31zM143 32q42 0 77 59
t51 129.5t16 125.5q0 105 -64 105q-42 0 -77 -59t-51 -130t-16 -126q0 -104 64 -104zM135 -137q0 -16 -12 -28t-29 -12q-14 0 -23.5 9t-9.5 23q0 17 12.5 29t28.5 12q14 0 23.5 -9.5t9.5 -23.5z" />
    <glyph glyph-name="uni1EE4" unicode="&#x1ee4;" horiz-adv-x="416" 
d="M170 -12q-56 0 -90.5 34t-34.5 95q0 25 5 47l111 503h53l-111 -505q-5 -20 -5 -39q0 -42 21 -64t55 -22q40 0 64 28.5t39 96.5l111 505h54l-111 -504q-20 -91 -59 -133t-102 -42zM159 -137q0 -16 -12 -28t-29 -12q-14 0 -23.5 9t-9.5 23q0 17 12.5 29t28.5 12
q14 0 23.5 -9.5t9.5 -23.5z" />
    <glyph glyph-name="uni1EE5" unicode="&#x1ee5;" 
d="M114 483h49l-85 -382q-4 -18 -4 -27q0 -42 41 -42q55 0 107 84l81 367h50l-107 -483h-50l15 66q-55 -78 -115 -78q-35 0 -54.5 18.5t-19.5 51.5q0 16 5 33zM132 -137q0 -16 -12 -28t-29 -12q-14 0 -23.5 9t-9.5 23q0 17 12 29t29 12q14 0 23.5 -9.5t9.5 -23.5z" />
    <glyph glyph-name="uni1EE6" unicode="&#x1ee6;" horiz-adv-x="416" 
d="M170 -12q-56 0 -90.5 34t-34.5 95q0 25 5 47l111 503h53l-111 -505q-5 -20 -5 -39q0 -42 21 -64t55 -22q40 0 64 28.5t39 96.5l111 505h54l-111 -504q-20 -91 -59 -133t-102 -42zM294 769l-24 10q20 41 57 41q22 0 34 -12t12 -33q0 -44 -38 -78h-31q40 35 40 73
q2 24 -20 24q-19 0 -30 -25z" />
    <glyph glyph-name="uni1EE7" unicode="&#x1ee7;" 
d="M114 483h49l-85 -382q-4 -18 -4 -27q0 -42 41 -42q55 0 107 84l81 367h50l-107 -483h-50l15 66q-55 -78 -115 -78q-35 0 -54.5 18.5t-19.5 51.5q0 16 5 33zM230 599l-24 10q20 41 57 41q22 0 34 -12t12 -33q0 -44 -38 -78h-31q40 35 40 73q2 24 -20 24q-19 0 -30 -25z
" />
    <glyph glyph-name="uni1EE8" unicode="&#x1ee8;" horiz-adv-x="416" 
d="M446 867l-130 -144h-37l110 144h57zM533 744q0 -39 -31.5 -79.5t-73.5 -59.5l-97 -442q-20 -91 -59 -133t-102 -42q-56 0 -90.5 34t-34.5 95q0 25 5 47l111 503h53l-111 -505q-5 -20 -5 -39q0 -42 21 -64t55 -22q40 0 64 28.5t39 96.5l111 505h54l-5 -23q43 29 55 70h-6
q-12 0 -21 9.5t-9 22.5q0 16 12 28t28 12t26.5 -11t10.5 -31z" />
    <glyph glyph-name="uni1EE9" unicode="&#x1ee9;" 
d="M381 700l-130 -144h-37l110 144h57zM434 547q0 -37 -28.5 -76t-68.5 -60l-91 -411h-50l15 66q-55 -78 -115 -78q-35 0 -54.5 18.5t-19.5 51.5q0 16 5 33l87 392h49l-85 -382q-4 -18 -4 -27q0 -42 41 -42q55 0 107 84l81 367h50l-7 -30q38 29 47 64h-7q-12 0 -20.5 9
t-8.5 22q0 17 12 29t28 12t26.5 -11t10.5 -31z" />
    <glyph glyph-name="uni1EEA" unicode="&#x1eea;" horiz-adv-x="416" 
d="M346 723h-36l-65 144h54zM533 744q0 -39 -31.5 -79.5t-73.5 -59.5l-97 -442q-20 -91 -59 -133t-102 -42q-56 0 -90.5 34t-34.5 95q0 25 5 47l111 503h53l-111 -505q-5 -20 -5 -39q0 -42 21 -64t55 -22q40 0 64 28.5t39 96.5l111 505h54l-5 -23q43 29 55 70h-6
q-12 0 -21 9.5t-9 22.5q0 16 12 28t28 12t26.5 -11t10.5 -31z" />
    <glyph glyph-name="uni1EEB" unicode="&#x1eeb;" 
d="M285 556h-36l-65 144h54zM434 547q0 -37 -28.5 -76t-68.5 -60l-91 -411h-50l15 66q-55 -78 -115 -78q-35 0 -54.5 18.5t-19.5 51.5q0 16 5 33l87 392h49l-85 -382q-4 -18 -4 -27q0 -42 41 -42q55 0 107 84l81 367h50l-7 -30q38 29 47 64h-7q-12 0 -20.5 9t-8.5 22
q0 17 12 29t28 12t26.5 -11t10.5 -31z" />
    <glyph glyph-name="uni1EEC" unicode="&#x1eec;" horiz-adv-x="416" 
d="M294 769l-24 10q20 41 57 41q22 0 34 -12t12 -33q0 -44 -38 -78h-31q40 35 40 73q2 24 -20 24q-19 0 -30 -25zM533 744q0 -39 -31.5 -79.5t-73.5 -59.5l-97 -442q-20 -91 -59 -133t-102 -42q-56 0 -90.5 34t-34.5 95q0 25 5 47l111 503h53l-111 -505q-5 -20 -5 -39
q0 -42 21 -64t55 -22q40 0 64 28.5t39 96.5l111 505h54l-5 -23q43 29 55 70h-6q-12 0 -21 9.5t-9 22.5q0 16 12 28t28 12t26.5 -11t10.5 -31z" />
    <glyph glyph-name="uni1EED" unicode="&#x1eed;" 
d="M230 599l-24 10q20 41 57 41q22 0 34 -12t12 -33q0 -44 -38 -78h-31q40 35 40 73q2 24 -20 24q-19 0 -30 -25zM434 547q0 -37 -28.5 -76t-68.5 -60l-91 -411h-50l15 66q-55 -78 -115 -78q-35 0 -54.5 18.5t-19.5 51.5q0 16 5 33l87 392h49l-85 -382q-4 -18 -4 -27
q0 -42 41 -42q55 0 107 84l81 367h50l-7 -30q38 29 47 64h-7q-12 0 -20.5 9t-8.5 22q0 17 12 29t28 12t26.5 -11t10.5 -31z" />
    <glyph glyph-name="uni1EEE" unicode="&#x1eee;" horiz-adv-x="416" 
d="M533 744q0 -39 -31.5 -79.5t-73.5 -59.5l-97 -442q-20 -91 -59 -133t-102 -42q-56 0 -90.5 34t-34.5 95q0 25 5 47l111 503h53l-111 -505q-5 -20 -5 -39q0 -42 21 -64t55 -22q40 0 64 28.5t39 96.5l111 505h54l-5 -23q43 29 55 70h-6q-12 0 -21 9.5t-9 22.5q0 16 12 28
t28 12t26.5 -11t10.5 -31zM358 721q-21 0 -30.5 16.5t-10 35.5t-6 35.5t-18.5 16.5q-32 0 -53 -98h-31q29 134 91 134q21 0 31 -16.5t10.5 -35.5t6 -35.5t18.5 -16.5q32 0 53 98h32q-30 -134 -93 -134z" />
    <glyph glyph-name="uni1EEF" unicode="&#x1eef;" 
d="M434 547q0 -37 -28.5 -76t-68.5 -60l-91 -411h-50l15 66q-55 -78 -115 -78q-35 0 -54.5 18.5t-19.5 51.5q0 16 5 33l87 392h49l-85 -382q-4 -18 -4 -27q0 -42 41 -42q55 0 107 84l81 367h50l-7 -30q38 29 47 64h-7q-12 0 -20.5 9t-8.5 22q0 17 12 29t28 12t26.5 -11
t10.5 -31zM287 554q-21 0 -30.5 16t-10 36t-6 36t-18.5 16q-32 0 -53 -98h-31q29 134 91 134q21 0 31 -16t10.5 -36t6 -36t18.5 -16q32 0 53 98h32q-30 -134 -93 -134z" />
    <glyph glyph-name="uni1EF0" unicode="&#x1ef0;" horiz-adv-x="416" 
d="M159 -137q0 -16 -12 -28t-29 -12q-14 0 -23.5 9t-9.5 23q0 17 12.5 29t28.5 12q14 0 23.5 -9.5t9.5 -23.5zM533 744q0 -39 -31.5 -79.5t-73.5 -59.5l-97 -442q-20 -91 -59 -133t-102 -42q-56 0 -90.5 34t-34.5 95q0 25 5 47l111 503h53l-111 -505q-5 -20 -5 -39
q0 -42 21 -64t55 -22q40 0 64 28.5t39 96.5l111 505h54l-5 -23q43 29 55 70h-6q-12 0 -21 9.5t-9 22.5q0 16 12 28t28 12t26.5 -11t10.5 -31z" />
    <glyph glyph-name="uni1EF1" unicode="&#x1ef1;" 
d="M132 -137q0 -16 -12 -28t-29 -12q-14 0 -23.5 9t-9.5 23q0 17 12 29t29 12q14 0 23.5 -9.5t9.5 -23.5zM434 547q0 -37 -28.5 -76t-68.5 -60l-91 -411h-50l15 66q-55 -78 -115 -78q-35 0 -54.5 18.5t-19.5 51.5q0 16 5 33l87 392h49l-85 -382q-4 -18 -4 -27q0 -42 41 -42
q55 0 107 84l81 367h50l-7 -30q38 29 47 64h-7q-12 0 -20.5 9t-8.5 22q0 17 12 29t28 12t26.5 -11t10.5 -31z" />
    <glyph glyph-name="Ygrave" unicode="&#x1ef2;" horiz-adv-x="347" 
d="M146 0h-53l63 286l-62 381h55l43 -323l188 323h59l-229 -381zM314 723h-36l-65 144h54z" />
    <glyph glyph-name="ygrave" unicode="&#x1ef3;" horiz-adv-x="302" 
d="M-64 -187l18 41q6 -6 23 -6q15 0 26 11t24 38l41 87l-2 499h51l-8 -419l179 419h55l-273 -597q-22 -46 -43.5 -64t-49.5 -18q-23 0 -41 9zM251 556h-36l-65 144h54z" />
    <glyph glyph-name="thinspace" unicode="&#x2009;" horiz-adv-x="35" 
 />
    <glyph glyph-name="endash" unicode="&#x2013;" horiz-adv-x="460" 
d="M424 219h-400l10 46h400z" />
    <glyph glyph-name="emdash" unicode="&#x2014;" horiz-adv-x="640" 
d="M604 219h-580l10 46h580z" />
    <glyph glyph-name="afii00208" unicode="&#x2015;" horiz-adv-x="460" 
d="M424 219h-400l10 46h400z" />
    <glyph glyph-name="quoteleft" unicode="&#x2018;" horiz-adv-x="218" 
d="M129 534q0 40 30 81t71 62l23 -25q-28 -14 -49 -37.5t-28 -46.5h7q13 0 23 -10.5t10 -24.5q0 -19 -14 -32.5t-32 -13.5t-29.5 12.5t-11.5 34.5z" />
    <glyph glyph-name="quoteright" unicode="&#x2019;" horiz-adv-x="218" 
d="M240 631q0 -41 -30 -82t-71 -62l-23 25q28 14 49 37.5t28 46.5h-7q-13 0 -23 10.5t-10 24.5q0 19 14 32.5t32 13.5t29.5 -12t11.5 -34z" />
    <glyph glyph-name="quotesinglbase" unicode="&#x201a;" horiz-adv-x="218" 
d="M106 28q0 -41 -30 -82t-71 -62l-23 26q28 14 49 37.5t28 46.5q-3 -1 -7 -1q-13 0 -23 10.5t-10 25.5q0 19 14 32.5t32 13.5t29.5 -12.5t11.5 -34.5z" />
    <glyph glyph-name="quotereversed" unicode="&#x201b;" horiz-adv-x="218" 
d="M138 592q0 41 18.5 63t40.5 22q20 0 30 -10.5t10 -25.5q0 -18 -13.5 -31t-32.5 -13q-11 0 -18 3q-4 -24 6 -51.5t30 -48.5l-27 -18q-44 47 -44 110z" />
    <glyph glyph-name="quotedblleft" unicode="&#x201c;" horiz-adv-x="357" 
d="M267 534q0 40 30 81t70 62l24 -25q-28 -14 -49.5 -37.5t-27.5 -46.5h6q13 0 23 -10.5t10 -24.5q0 -19 -13.5 -32.5t-31.5 -13.5t-29.5 12.5t-11.5 34.5zM130 534q0 40 30 81t70 62l23 -25q-27 -14 -48.5 -37.5t-28.5 -46.5h7q13 0 23 -10.5t10 -24.5q0 -19 -13.5 -32.5
t-31.5 -13.5t-29.5 12.5t-11.5 34.5z" />
    <glyph glyph-name="quotedblright" unicode="&#x201d;" horiz-adv-x="357" 
d="M240 631q0 -41 -30 -82t-71 -62l-23 25q28 14 49 37.5t28 46.5h-7q-13 0 -23 10.5t-10 24.5q0 19 14 32.5t32 13.5t29.5 -12t11.5 -34zM377 631q0 -41 -30 -82t-71 -62l-23 25q28 14 49 37.5t28 46.5h-7q-13 0 -23 10.5t-10 24.5q0 19 13.5 32.5t32.5 13.5q18 0 29.5 -12
t11.5 -34z" />
    <glyph glyph-name="quotedblbase" unicode="&#x201e;" horiz-adv-x="357" 
d="M106 28q0 -41 -30 -82t-71 -62l-23 26q28 14 49 37.5t28 46.5q-3 -1 -7 -1q-13 0 -23 10.5t-10 25.5q0 19 14 32.5t32 13.5t29.5 -12.5t11.5 -34.5zM243 28q0 -41 -30 -82t-71 -62l-23 26q28 14 49.5 37.5t27.5 46.5q-3 -1 -7 -1q-13 0 -23 10.5t-10 25.5q0 19 14 32.5
t32 13.5t29.5 -12.5t11.5 -34.5z" />
    <glyph glyph-name="dagger" unicode="&#x2020;" horiz-adv-x="256" 
d="M296 536l-88 4l-43 -213h-38l51 213l-90 -4l8 34l88 -3l21 110h38l-29 -110l90 3z" />
    <glyph glyph-name="daggerdbl" unicode="&#x2021;" horiz-adv-x="256" 
d="M304 570l-8 -34l-88 4l-49 -222l90 4l-8 -34l-88 3l-21 -111h-38l29 111l-90 -3l8 34l88 -4l49 222l-90 -4l8 34l88 -3l21 110h38l-29 -110z" />
    <glyph glyph-name="bullet" unicode="&#x2022;" horiz-adv-x="358" 
d="M282 252q0 -45 -34.5 -78t-79.5 -33q-40 0 -66 26t-26 66q0 45 34.5 78t79.5 33q39 0 65.5 -26.5t26.5 -65.5z" />
    <glyph glyph-name="ellipsis" unicode="&#x2026;" horiz-adv-x="652" 
d="M58 -10q-16 0 -27.5 11t-11.5 28q0 19 13.5 32.5t33.5 13.5q16 0 27 -11.5t11 -27.5q0 -19 -13.5 -32.5t-32.5 -13.5zM275 -10q-16 0 -27 11t-11 28q0 19 13.5 32.5t32.5 13.5q16 0 27.5 -11.5t11.5 -27.5q0 -19 -14 -32.5t-33 -13.5zM492 -10q-16 0 -27 11.5t-11 27.5
q0 19 13.5 32.5t32.5 13.5q16 0 27.5 -11.5t11.5 -27.5q0 -19 -13.5 -32.5t-33.5 -13.5z" />
    <glyph glyph-name="perthousand" unicode="&#x2030;" horiz-adv-x="828" 
d="M110 0h-36l418 667h37zM370 -12q-49 0 -74 34.5t-25 85.5q0 85 44 146t100 61q49 0 74 -34t25 -85q0 -85 -44.5 -146.5t-99.5 -61.5zM371 25q37 0 68.5 49.5t31.5 118.5q0 85 -57 85q-38 0 -69 -49t-31 -118q0 -86 57 -86zM187 350q-50 0 -75 34t-25 85q0 85 44.5 146.5
t99.5 61.5q50 0 75 -34.5t25 -84.5q0 -85 -44.5 -146.5t-99.5 -61.5zM188 387q37 0 68.5 49.5t31.5 117.5q0 86 -58 86q-37 0 -68.5 -49.5t-31.5 -117.5q0 -86 58 -86zM636 -12q-49 0 -74 34.5t-25 85.5q0 85 44 146t100 61q49 0 74 -34t25 -85q0 -85 -44.5 -146.5
t-99.5 -61.5zM637 25q37 0 68.5 49.5t31.5 118.5q0 85 -57 85q-38 0 -69 -49t-31 -118q0 -86 57 -86z" />
    <glyph glyph-name="guilsinglleft" unicode="&#x2039;" horiz-adv-x="196" 
d="M123 63h-44l-50 180l130 177h48l-133 -181z" />
    <glyph glyph-name="guilsinglright" unicode="&#x203a;" horiz-adv-x="196" 
d="M73 420h44l50 -180l-130 -177h-48l133 181z" />
    <glyph glyph-name="uni203E" unicode="&#x203e;" horiz-adv-x="244" 
d="M317 577h-244l8 36h243z" />
    <glyph glyph-name="fraction" unicode="&#x2044;" horiz-adv-x="108" 
d="M301 667l-419 -667h-36l418 667h37z" />
    <glyph glyph-name="zerosuperior" unicode="&#x2070;" horiz-adv-x="252" 
d="M320 706q0 -39 -10 -87.5t-28 -95t-48.5 -78t-67.5 -31.5q-42 0 -63.5 28.5t-21.5 93.5q0 54 16 118.5t53 118.5t86 54q84 0 84 -121zM278 715q0 76 -46 76t-77.5 -98t-31.5 -167q0 -76 46 -76t77.5 98t31.5 167z" />
    <glyph glyph-name="foursuperior" unicode="&#x2074;" horiz-adv-x="252" 
d="M289 529h-37l-24 -108h-41l23 108h-138l8 36l184 256h52l-56 -257h36zM217 564l46 201l-145 -201h99z" />
    <glyph glyph-name="fivesuperior" unicode="&#x2075;" horiz-adv-x="252" 
d="M288 583q0 -64 -35.5 -116.5t-89.5 -52.5q-73 0 -94 69l35 20q11 -53 62 -53q33 0 55.5 41.5t22.5 88.5q0 57 -45 57q-33 0 -64 -39l-29 13l46 210h176l-9 -36h-133l-31 -144q27 30 60 30q32 0 52.5 -22t20.5 -66z" />
    <glyph glyph-name="sixsuperior" unicode="&#x2076;" horiz-adv-x="252" 
d="M290 583q0 -58 -32 -113.5t-90 -55.5q-85 0 -85 112q0 36 9.5 84.5t27.5 98.5t51 84t73 34q62 0 82 -56l-32 -24q-10 44 -51 44q-17 0 -31.5 -10.5t-24.5 -25.5t-19.5 -39t-15 -42.5t-12.5 -44.5q-2 -8 -2 -14q30 57 80 57q32 0 52 -22.5t20 -66.5zM246 580q0 56 -46 56
q-40 0 -71 -65q-6 -28 -6 -48q0 -31 12 -52t36 -21q33 0 54 43.5t21 86.5z" />
    <glyph glyph-name="sevensuperior" unicode="&#x2077;" horiz-adv-x="226" 
d="M319 792l-188 -371h-43l187 364h-147l9 36h188z" />
    <glyph glyph-name="eightsuperior" unicode="&#x2078;" horiz-adv-x="252" 
d="M280 536q0 -52 -31.5 -87t-78.5 -35q-44 0 -71 22t-27 64q0 47 30 82t68 48q-46 28 -46 79t32 84.5t75 33.5q38 0 64.5 -21t26.5 -64q0 -39 -25 -72.5t-65 -46.5q19 -11 33.5 -35t14.5 -52zM278 741q0 51 -47 51q-29 0 -47.5 -27t-18.5 -59q0 -24 14 -42t26 -22
q32 10 52.5 35.5t20.5 63.5zM237 538q0 27 -13 47t-26 26q-29 -4 -55 -36t-26 -74q0 -23 14 -38t37 -15q28 0 48.5 26t20.5 64z" />
    <glyph glyph-name="ninesuperior" unicode="&#x2079;" horiz-adv-x="252" 
d="M112 659q0 58 32 113.5t90 55.5q85 0 85 -112q0 -36 -9.5 -84.5t-27.5 -98.5t-51 -84t-73 -34q-62 0 -82 56l32 24q10 -44 51 -44q17 0 31.5 10.5t24.5 25.5t19.5 39t15 42.5t12.5 44.5q2 8 2 14q-30 -57 -80 -57q-32 0 -52 22.5t-20 66.5zM156 662q0 -56 46 -56
q40 0 71 65q6 28 6 48q0 31 -12 52t-36 21q-33 0 -54 -43.5t-21 -86.5z" />
    <glyph glyph-name="parenleftsuperior" unicode="&#x207d;" horiz-adv-x="121" 
d="M136 365l-23 -9q-18 54 -18 142q0 200 135 388l19 -8q-122 -206 -122 -396q0 -80 9 -117z" />
    <glyph glyph-name="parenrightsuperior" unicode="&#x207e;" horiz-adv-x="121" 
d="M150 878l22 8q19 -57 19 -142q0 -199 -136 -388l-19 9q123 206 123 396q0 73 -9 117z" />
    <glyph glyph-name="nsuperior" unicode="&#x207f;" horiz-adv-x="277" 
d="M247 326h-41l52 239q3 12 3 19q0 30 -31 30q-35 0 -72 -58l-51 -230h-40l69 314h40l-9 -44q36 52 81 52q56 0 56 -48q0 -1 -3 -31z" />
    <glyph glyph-name="zeroinferior" unicode="&#x2080;" horiz-adv-x="252" 
d="M204 139q0 -39 -10 -87.5t-28 -95t-48.5 -78t-67.5 -31.5q-42 0 -63.5 28.5t-21.5 93.5q0 54 16 118.5t53 118.5t86 54q84 0 84 -121zM162 148q0 76 -46 76t-77.5 -98t-31.5 -167q0 -76 46 -76t77.5 98t31.5 167z" />
    <glyph glyph-name="oneinferior" unicode="&#x2081;" horiz-adv-x="203" 
d="M60 -146h-43l75 340l-71 -62l-22 27l111 95h38z" />
    <glyph glyph-name="twoinferior" unicode="&#x2082;" horiz-adv-x="252" 
d="M140 -146h-194l8 34q131 141 170.5 192.5t39.5 90.5q0 26 -14 39.5t-36 13.5q-41 0 -75 -50l-26 26q46 60 103 60q39 0 65.5 -23t26.5 -63q0 -48 -40 -101t-163 -183h142z" />
    <glyph glyph-name="threeinferior" unicode="&#x2083;" horiz-adv-x="252" 
d="M167 -23q0 -46 -30.5 -88t-84.5 -42q-37 0 -63.5 19t-35.5 52l35 21q14 -56 64 -56q35 0 54 33t19 72q0 27 -14.5 41t-34.5 14t-26 -1l9 36q5 -1 29 -1q31 0 53 26t22 67q0 24 -13 39t-37 15q-41 0 -74 -48l-26 24q43 60 103 60q43 0 66.5 -22.5t23.5 -64.5
q0 -38 -23.5 -73t-62.5 -43q47 -14 47 -80z" />
    <glyph glyph-name="fourinferior" unicode="&#x2084;" horiz-adv-x="252" 
d="M173 -38h-37l-24 -108h-41l23 108h-138l8 36l184 256h52l-56 -257h36zM101 -3l46 201l-145 -201h99z" />
    <glyph glyph-name="fiveinferior" unicode="&#x2085;" horiz-adv-x="252" 
d="M172 16q0 -64 -35.5 -116.5t-89.5 -52.5q-73 0 -94 69l35 20q11 -53 62 -53q33 0 55.5 41.5t22.5 88.5q0 57 -45 57q-33 0 -64 -39l-29 13l46 210h176l-9 -36h-133l-31 -144q27 30 60 30q32 0 52.5 -22t20.5 -66z" />
    <glyph glyph-name="sixinferior" unicode="&#x2086;" horiz-adv-x="252" 
d="M174 16q0 -58 -32 -113.5t-90 -55.5q-85 0 -85 112q0 36 9.5 84.5t27.5 98.5t51 84t73 34q62 0 82 -56l-32 -24q-10 44 -51 44q-17 0 -31.5 -10.5t-24.5 -25.5t-19.5 -39t-15 -42.5t-12.5 -44.5q-2 -8 -2 -14q30 57 80 57q32 0 52 -22.5t20 -66.5zM130 13q0 56 -46 56
q-40 0 -71 -65q-6 -28 -6 -48q0 -31 12 -52t36 -21q33 0 54 43.5t21 86.5z" />
    <glyph glyph-name="seveninferior" unicode="&#x2087;" horiz-adv-x="226" 
d="M203 225l-188 -371h-43l187 364h-147l9 36h188z" />
    <glyph glyph-name="eightinferior" unicode="&#x2088;" horiz-adv-x="252" 
d="M164 -31q0 -52 -31.5 -87t-78.5 -35q-44 0 -71 22t-27 64q0 47 30 82t68 48q-46 28 -46 79t32 84.5t75 33.5q38 0 64.5 -21t26.5 -64q0 -39 -25 -72.5t-65 -46.5q19 -11 33.5 -35t14.5 -52zM162 174q0 51 -47 51q-29 0 -47.5 -27t-18.5 -59q0 -24 14 -42t26 -22
q32 10 52.5 35.5t20.5 63.5zM121 -29q0 27 -13 47t-26 26q-29 -4 -55 -36t-26 -74q0 -23 14 -38t37 -15q28 0 48.5 26t20.5 64z" />
    <glyph glyph-name="nineinferior" unicode="&#x2089;" horiz-adv-x="252" 
d="M-4 92q0 58 32 113.5t90 55.5q85 0 85 -112q0 -36 -9.5 -84.5t-27.5 -98.5t-51 -84t-73 -34q-62 0 -82 56l32 24q10 -44 51 -44q17 0 31.5 10.5t24.5 25.5t19.5 39t15 42.5t12.5 44.5q2 8 2 14q-30 -57 -80 -57q-32 0 -52 22.5t-20 66.5zM40 95q0 -56 46 -56q40 0 71 65
q6 28 6 48q0 31 -12 52t-36 21q-33 0 -54 -43.5t-21 -86.5z" />
    <glyph glyph-name="parenleftinferior" unicode="&#x208d;" horiz-adv-x="121" 
d="M11 -202l-23 -9q-18 54 -18 142q0 200 135 388l19 -8q-122 -206 -122 -396q0 -80 9 -117z" />
    <glyph glyph-name="parenrightinferior" unicode="&#x208e;" horiz-adv-x="121" 
d="M25 311l22 8q19 -57 19 -142q0 -199 -136 -388l-19 9q123 206 123 396q0 73 -9 117z" />
    <glyph glyph-name="colonmonetary" unicode="&#x20a1;" horiz-adv-x="343" 
d="M155 -12q-27 0 -47 10l-42 -98h-40l52 118q-16 18 -26 40l-68 -158h-39l93 216q-3 24 -3 52q0 46 8.5 107.5t27.5 132.5t46.5 130.5t70 99t91.5 40.5l39 90h39l-41 -96q20 -6 34 -19l50 115h39l-64 -149q17 -31 22 -80l-51 -9l-2 16l-215 -501q12 -8 31 -8q48 0 97 86
l44 -22q-63 -113 -146 -113zM92 150q1 -45 11 -72l224 521q-11 19 -31 27zM257 626q-57 -18 -102 -136q-38 -100 -56 -231z" />
    <glyph glyph-name="frenchfranc" unicode="&#x20a3;" horiz-adv-x="359" 
d="M86 0h-53l33 151h-63l7 36h64l106 480h228l-10 -49h-175l-56 -252h168l-11 -48h-168l-29 -131h109l-8 -36h-109z" />
    <glyph glyph-name="lira" unicode="&#x20a4;" horiz-adv-x="361" 
d="M48 325l8 37h51q-10 37 -10 74q0 97 52.5 169t122.5 72q50 0 83 -29.5t37 -81.5l-48 -17q-9 81 -72 81q-44 0 -81 -57t-37 -140q0 -33 11 -71h103l-8 -37h-84q9 -34 9 -58q0 -3 -0.5 -10.5t-0.5 -10.5h58l-7 -36h-58q-12 -47 -40.5 -87.5t-59.5 -62.5q21 11 35 11
q23 0 55.5 -17t48.5 -17q38 0 68 36l14 -42q-38 -43 -92 -43q-34 0 -66 20t-52 20q-31 0 -77 -35l-14 42q44 25 81 73.5t49 101.5h-105l8 36h102v4q0 30 -13 75h-71z" />
    <glyph glyph-name="uni20A6" unicode="&#x20a6;" horiz-adv-x="452" 
d="M313 0h-52l-27 247h-94l-54 -247h-53l54 247h-63l8 36h63l24 109h-63l8 36h63l53 239h53l26 -239h94l53 239h54l-53 -239h60l-7 -36h-61l-24 -109h60l-8 -36h-60zM172 392l-24 -109h82l-12 109h-46zM263 392l13 -109h45l24 109h-82zM203 528l-23 -100h34zM280 247l11 -99
l22 99h-33z" />
    <glyph glyph-name="peseta" unicode="&#x20a7;" horiz-adv-x="421" 
d="M86 0h-54l100 454h-62l8 38h62l39 175h107q53 0 86 -39.5t33 -104.5q0 -11 -2 -31h61l-8 -38h-59q-16 -75 -64.5 -125t-122.5 -50h-63zM218 327q47 1 78 37t44 90h-155l-28 -127h61zM222 618l-28 -126h152q2 20 2 29q0 48 -20 72.5t-54 24.5h-52z" />
    <glyph glyph-name="rupee" unicode="&#x20a8;" horiz-adv-x="642" 
d="M450 -12q-84 0 -115 65l33 31q27 -55 85 -55q35 0 61 29.5t26 67.5q0 31 -19.5 60.5t-43.5 50t-43.5 53.5t-19.5 70q0 56 36 95.5t95 39.5q31 0 58.5 -15t43.5 -42l-32 -31q-9 22 -29.5 34.5t-43.5 12.5q-35 0 -57 -24t-22 -61q0 -23 13 -45.5t31.5 -41.5t37 -39.5
t31.5 -48t13 -58.5q0 -62 -39.5 -105t-99.5 -43zM285 0h-56l-30 279h-70l-62 -279h-53l147 667h105q55 0 89 -40t34 -101q0 -88 -40.5 -155t-100.5 -84zM139 327h59q63 0 97.5 59.5t34.5 136.5q0 95 -71 95h-55z" />
    <glyph glyph-name="uni20A9" unicode="&#x20a9;" horiz-adv-x="547" 
d="M355 0h-59l20 247h-84l-89 -247h-59l16 247h-71l8 36h66l7 109h-48l7 36h43l16 239h56l-21 -239h92l87 239h49l-19 -239h91l85 239h57l-90 -239h40l-7 -36h-46l-41 -109h63l-8 -36h-69zM160 392l-9 -109h51l40 109h-82zM369 392l-9 -109h51l39 109h-81zM284 392l-39 -109
h74l9 109h-44zM189 247h-41l-12 -148zM398 247h-41l-12 -148zM342 551l-45 -123h34z" />
    <glyph glyph-name="afii57636" unicode="&#x20aa;" horiz-adv-x="471" 
d="M259 0h-152l88 398h44l-79 -357h94q36 0 56.5 24.5t33.5 84.5l89 400h44l-87 -389q-18 -79 -48.5 -120t-82.5 -41zM128 550h110q110 0 110 -96q0 -22 -9 -71l-50 -232h-45l56 249q5 28 5 45q0 64 -67 64h-75l-112 -509h-44z" />
    <glyph glyph-name="dong" unicode="&#x20ab;" horiz-adv-x="382" 
d="M219 -129h-244l8 36h243zM211 495q28 0 51 -21.5t33 -63.5l28 128h-128l7 36h129l21 93h49l-21 -93h40l-7 -36h-41l-119 -538h-49l15 64q-45 -76 -101 -76q-44 0 -68 36t-24 102q0 47 12 107.5t33.5 120.5t58.5 100.5t81 40.5zM216 451q-42 0 -75.5 -63t-48 -135
t-14.5 -125q0 -96 59 -96q24 0 50.5 26.5t43.5 63.5l53 237q-3 39 -22.5 65.5t-45.5 26.5z" />
    <glyph glyph-name="Euro" unicode="&#x20ac;" horiz-adv-x="384" 
d="M175 -12q-57 0 -88.5 45t-31.5 135q0 36 4 75h-43l9 39h39q8 51 21 104h-37l9 40h39q32 110 83.5 181t121.5 71q53 0 81.5 -37.5t34.5 -101.5l-51 -9q-9 99 -70 99q-45 0 -81 -56.5t-61 -146.5h133l-9 -40h-135q-13 -60 -20 -104h132l-9 -39h-129q-5 -52 -5 -79
q0 -67 16.5 -97t51.5 -30q48 0 97 86l44 -22q-63 -113 -146 -113z" />
    <glyph glyph-name="afii61289" unicode="&#x2113;" horiz-adv-x="352" 
d="M185 534l-41 -185l115 94q52 41 75.5 69t23.5 57t-20.5 48.5t-51.5 19.5q-79 0 -101 -103zM288 416l-158 -128l-44 -201q-4 -20 -4 -26q0 -31 30 -31q18 0 33 17l14 -35q-24 -24 -58 -24q-69 0 -69 62q0 18 4 35l100 449q31 143 153 143q47 0 82 -26t35 -74
q0 -39 -26.5 -73.5t-91.5 -87.5z" />
    <glyph glyph-name="afii61352" unicode="&#x2116;" horiz-adv-x="696" 
d="M584 350q-88 0 -88 108q0 42 13.5 90.5t46.5 90t77 41.5q88 0 88 -108q0 -42 -13.5 -90.5t-46.5 -90t-77 -41.5zM585 385q23 0 42.5 21.5t30 53t16.5 61.5t6 52q0 71 -49 71q-30 0 -52.5 -37t-31.5 -78t-9 -72q0 -72 47 -72zM294 0h-52l-58 528l-117 -528h-53l147 667h53
l58 -519l115 519h54z" />
    <glyph glyph-name="published" unicode="&#x2117;" horiz-adv-x="778" 
d="M754 334q0 -142 -101.5 -243.5t-244.5 -101.5q-142 0 -243 101t-101 244t101 244t243 101q143 0 244.5 -101.5t101.5 -243.5zM726 334q0 130 -93.5 223.5t-224.5 93.5q-130 0 -223 -93t-93 -224t93 -224t223 -93q131 0 224.5 93.5t93.5 223.5zM589 435q0 -56 -40.5 -91.5
t-102.5 -35.5h-123l-38 -177h-33l89 405h128q52 0 86 -28t34 -73zM556 432q0 33 -25.5 53t-66.5 20h-97l-36 -166h121q48 0 76 25.5t28 67.5z" />
    <glyph glyph-name="servicemark" unicode="&#x2120;" horiz-adv-x="374" 
d="M382 447h-28l40 182l-95 -182h-8l-15 182l-40 -182h-28l48 220h42l10 -157l78 157h44zM181 513q0 -29 -19.5 -50.5t-47.5 -21.5q-33 0 -50 24l18 22q12 -19 33 -19q12 0 24 13t12 28q0 18 -25 44.5t-25 48.5q0 29 17.5 50t44.5 21q29 0 45 -18l-18 -24q-10 15 -29 15
q-11 0 -20.5 -10.5t-9.5 -26.5q0 -13 25 -42.5t25 -53.5z" />
    <glyph glyph-name="trademark" unicode="&#x2122;" horiz-adv-x="374" 
d="M384 447h-28l40 182l-95 -182h-8l-15 182l-40 -182h-28l48 220h43l10 -157l78 157h43zM217 641h-42l-43 -194h-28l43 194h-42l5 26h112z" />
    <glyph glyph-name="Omega" unicode="&#x2126;" horiz-adv-x="397" 
d="M5 49h77q-39 60 -39 158q0 58 15.5 135.5t43.5 154t74.5 129t101.5 52.5q59 0 91 -40t32 -136q0 -145 -51 -269.5t-115 -183.5h70l-10 -49h-116l10 49q61 47 108 193.5t47 256.5q0 69 -15 99t-51 30q-42 0 -78.5 -51.5t-58.5 -125.5t-34.5 -147t-12.5 -123q0 -90 27 -132
l-10 -49h-117z" />
    <glyph glyph-name="estimated" unicode="&#x212e;" horiz-adv-x="842" 
d="M829 324h-632q-4 0 -4 -5v-190q0 -15 9 -23q98 -103 240 -103q151 0 250 115h57q-54 -63 -135 -99.5t-174 -36.5q-161 0 -275.5 103t-114.5 248t114.5 248t275.5 103t275.5 -103t114.5 -248zM687 349v191q0 14 -10 24q-97 99 -236 99t-238 -102q-10 -10 -10 -24v-188
q0 -6 5 -6h485q4 0 4 6z" />
    <glyph glyph-name="onethird" unicode="&#x2153;" horiz-adv-x="576" 
d="M151 267h-43l75 340l-71 -62l-22 27l111 95h38zM517 667l-419 -667h-36l418 667h37zM523 123q0 -46 -30.5 -88t-84.5 -42q-37 0 -63.5 19t-35.5 52l35 21q14 -56 64 -56q35 0 54 33t19 72q0 27 -14.5 41t-34.5 14t-26 -1l9 36q5 -1 29 -1q31 0 53 26t22 67q0 24 -13 39
t-37 15q-41 0 -74 -48l-26 24q43 60 103 60q43 0 66.5 -22.5t23.5 -64.5q0 -38 -23.5 -73t-62.5 -43q47 -14 47 -80z" />
    <glyph glyph-name="twothirds" unicode="&#x2154;" horiz-adv-x="612" 
d="M231 267h-194l8 34q131 141 170.5 192.5t39.5 90.5q0 26 -14 39.5t-36 13.5q-41 0 -75 -50l-26 26q46 60 103 60q39 0 65.5 -23t26.5 -63q0 -48 -40 -101t-163 -183h142zM553 667l-419 -667h-36l418 667h37zM559 123q0 -46 -30.5 -88t-84.5 -42q-37 0 -63.5 19t-35.5 52
l35 21q14 -56 64 -56q35 0 54 33t19 72q0 27 -14.5 41t-34.5 14t-26 -1l9 36q5 -1 29 -1q31 0 53 26t22 67q0 24 -13 39t-37 15q-41 0 -74 -48l-26 24q43 60 103 60q43 0 66.5 -22.5t23.5 -64.5q0 -38 -23.5 -73t-62.5 -43q47 -14 47 -80z" />
    <glyph glyph-name="oneeighth" unicode="&#x215b;" horiz-adv-x="576" 
d="M151 267h-43l75 340l-71 -62l-22 27l111 95h38zM520 115q0 -52 -31.5 -87t-78.5 -35q-44 0 -71 22t-27 64q0 47 30 82t68 48q-46 28 -46 79t32 84.5t75 33.5q38 0 64.5 -21t26.5 -64q0 -39 -25 -72.5t-65 -46.5q19 -11 33.5 -35t14.5 -52zM518 320q0 51 -47 51
q-29 0 -47.5 -27t-18.5 -59q0 -24 14 -42t26 -22q32 10 52.5 35.5t20.5 63.5zM477 117q0 27 -13 47t-26 26q-29 -4 -55 -36t-26 -74q0 -23 14 -38t37 -15q28 0 48.5 26t20.5 64zM517 667l-419 -667h-36l418 667h37z" />
    <glyph glyph-name="threeeighths" unicode="&#x215c;" horiz-adv-x="612" 
d="M556 115q0 -52 -31.5 -87t-78.5 -35q-44 0 -71 22t-27 64q0 47 30 82t68 48q-46 28 -46 79t32 84.5t75 33.5q38 0 64.5 -21t26.5 -64q0 -39 -25 -72.5t-65 -46.5q19 -11 33.5 -35t14.5 -52zM554 320q0 51 -47 51q-29 0 -47.5 -27t-18.5 -59q0 -24 14 -42t26 -22
q32 10 52.5 35.5t20.5 63.5zM513 117q0 27 -13 47t-26 26q-29 -4 -55 -36t-26 -74q0 -23 14 -38t37 -15q28 0 48.5 26t20.5 64zM553 667l-419 -667h-36l418 667h37zM258 390q0 -46 -30.5 -88t-84.5 -42q-37 0 -63.5 19t-35.5 52l35 21q14 -56 64 -56q35 0 54 33t19 72
q0 27 -14.5 41t-34.5 14t-26 -1l9 36q5 -1 29 -1q31 0 53 26t22 67q0 24 -13 39t-37 15q-41 0 -74 -48l-26 24q43 60 103 60q43 0 66.5 -22.5t23.5 -64.5q0 -38 -23.5 -73t-62.5 -43q47 -14 47 -80z" />
    <glyph glyph-name="fiveeighths" unicode="&#x215d;" horiz-adv-x="611" 
d="M555 115q0 -52 -31.5 -87t-78.5 -35q-44 0 -71 22t-27 64q0 47 30 82t68 48q-46 28 -46 79t32 84.5t75 33.5q38 0 64.5 -21t26.5 -64q0 -39 -25 -72.5t-65 -46.5q19 -11 33.5 -35t14.5 -52zM553 320q0 51 -47 51q-29 0 -47.5 -27t-18.5 -59q0 -24 14 -42t26 -22
q32 10 52.5 35.5t20.5 63.5zM512 117q0 27 -13 47t-26 26q-29 -4 -55 -36t-26 -74q0 -23 14 -38t37 -15q28 0 48.5 26t20.5 64zM263 429q0 -64 -35.5 -116.5t-89.5 -52.5q-73 0 -94 69l35 20q11 -53 62 -53q33 0 55.5 41.5t22.5 88.5q0 57 -45 57q-33 0 -64 -39l-29 13
l46 210h176l-9 -36h-133l-31 -144q27 30 60 30q32 0 52.5 -22t20.5 -66zM552 667l-419 -667h-36l418 667h37z" />
    </font>
</defs>
</svg>
