<?xml version="1.0" standalone="no"?>
<!DOCTYPE svg PUBLIC "-//W3C//DTD SVG 1.1//EN" "http://www.w3.org/Graphics/SVG/1.1/DTD/svg11.dtd" >
<svg xmlns="http://www.w3.org/2000/svg" xmlns:xlink="http://www.w3.org/1999/xlink" version="1.1">
<metadata>
Created by FontForge 20170731 at Tue Nov 30 17:20:51 2010
 By ,,,
Copyright (c) Mark Simonson, 2005. All rights reserved.
</metadata>
<defs>
<font id="ProximaNovaExCn-SemiboldIt" horiz-adv-x="402" >
  <font-face 
    font-family="Proxima Nova ExCn Lt"
    font-weight="600"
    font-style="italic"
    font-stretch="normal"
    units-per-em="1000"
    panose-1="2 0 5 6 3 0 0 2 0 4"
    ascent="790"
    descent="-210"
    x-height="483"
    cap-height="667"
    bbox="-153 -272 830 886"
    underline-thickness="20"
    underline-position="-173"
    unicode-range="U+000D-FB04"
  />
<missing-glyph horiz-adv-x="464" 
d="M428 -90h-351v842h351v-842zM396 -60v782h-288v-782h288z" />
    <glyph glyph-name="f_f_j" unicode="ffj" horiz-adv-x="671" 
d="M344 0h-94l89 401h-46l18 82h46l13 63q28 131 133 131q35 0 63 -13l-32 -76q-9 6 -21 6q-38 0 -49 -48l-13 -63h63l-19 -82h-62zM421 -196q-50 0 -70 30l41 69q6 -16 25 -16q31 0 43 59l120 537h94l-120 -537q-17 -76 -47 -109t-86 -33zM646 546q-23 0 -38.5 15t-15.5 36
q0 30 21.5 49t46.5 19q23 0 38.5 -15.5t15.5 -36.5q0 -30 -21 -48.5t-47 -18.5zM105 0h-94l89 401h-46l18 82h46l13 63q28 131 133 131q59 0 85 -29l-41 -72q-12 18 -34 18q-37 0 -49 -48l-13 -63h63l-19 -82h-62z" />
    <glyph glyph-name="f_j" unicode="fj" horiz-adv-x="433" 
d="M105 0h-94l89 401h-46l18 82h46l13 63q28 131 133 131q35 0 63 -13l-32 -76q-9 6 -21 6q-38 0 -49 -48l-13 -63h63l-19 -82h-62zM183 -196q-50 0 -70 30l41 69q6 -16 25 -16q31 0 43 59l120 537h94l-120 -537q-17 -76 -47 -109t-86 -33zM408 546q-23 0 -38.5 15t-15.5 36
q0 30 21.5 49t46.5 19q23 0 38.5 -15.5t15.5 -36.5q0 -30 -21 -48.5t-47 -18.5z" />
    <glyph glyph-name="f_f" unicode="ff" horiz-adv-x="477" 
d="M105 0h-94l89 401h-46l18 82h46l13 63q28 131 133 131q59 0 85 -29l-41 -72q-12 18 -34 18q-37 0 -49 -48l-13 -63h63l-19 -82h-62zM344 0h-94l89 401h-46l18 82h46l13 63q28 131 133 131q59 0 85 -29l-41 -72q-12 18 -34 18q-37 0 -49 -48l-13 -63h63l-19 -82h-62z" />
    <glyph glyph-name="fi" unicode="fi" horiz-adv-x="433" 
d="M105 0h-94l89 401h-46l18 82h46l13 63q28 131 133 131q35 0 63 -13l-32 -76q-9 6 -21 6q-38 0 -49 -48l-13 -63h63l-19 -82h-62zM408 546q-23 0 -38.5 15t-15.5 36q0 30 21.5 49t46.5 19q23 0 38.5 -15.5t15.5 -36.5q0 -30 -21 -48.5t-47 -18.5zM329 0h-94l107 483h94z
" />
    <glyph glyph-name="fl" unicode="fl" horiz-adv-x="433" 
d="M105 0h-94l89 401h-46l18 82h46l13 63q28 131 133 131q35 0 63 -13l-32 -76q-9 6 -21 6q-38 0 -49 -48l-13 -63h63l-19 -82h-62zM329 0h-94l147 667h94z" />
    <glyph glyph-name="f_f_i" unicode="ffi" horiz-adv-x="671" 
d="M344 0h-94l89 401h-46l18 82h46l13 63q28 131 133 131q35 0 63 -13l-32 -76q-9 6 -21 6q-38 0 -49 -48l-13 -63h63l-19 -82h-62zM646 546q-23 0 -38.5 15t-15.5 36q0 30 21.5 49t46.5 19q23 0 38.5 -15.5t15.5 -36.5q0 -30 -21 -48.5t-47 -18.5zM567 0h-94l107 483h94z
M105 0h-94l89 401h-46l18 82h46l13 63q28 131 133 131q59 0 85 -29l-41 -72q-12 18 -34 18q-37 0 -49 -48l-13 -63h63l-19 -82h-62z" />
    <glyph glyph-name="f_f_l" unicode="ffl" horiz-adv-x="671" 
d="M344 0h-94l89 401h-46l18 82h46l13 63q28 131 133 131q35 0 63 -13l-32 -76q-9 6 -21 6q-38 0 -49 -48l-13 -63h63l-19 -82h-62zM567 0h-94l147 667h94zM105 0h-94l89 401h-46l18 82h46l13 63q28 131 133 131q59 0 85 -29l-41 -72q-12 18 -34 18q-37 0 -49 -48l-13 -63
h63l-19 -82h-62z" />
    <glyph glyph-name="f_b" unicode="fb" horiz-adv-x="645" 
d="M105 0h-94l89 401h-46l18 82h46l13 63q28 131 133 131q35 0 63 -13l-32 -76q-9 6 -21 6q-38 0 -49 -48l-13 -63h63l-19 -82h-62zM435 -12q-71 0 -92 77l-14 -65h-93l146 667h94l-54 -244q45 72 102 72q50 0 76 -38t26 -111q0 -49 -12 -108.5t-34.5 -116.5t-60.5 -95
t-84 -38zM416 71q35 0 62.5 51.5t39 110t11.5 102.5q0 77 -51 77q-19 0 -39.5 -19.5t-33.5 -47.5l-46 -206q3 -29 19 -48.5t38 -19.5z" />
    <glyph glyph-name="f_h" unicode="fh" horiz-adv-x="640" 
d="M105 0h-94l89 401h-46l18 82h46l13 63q28 131 133 131q35 0 63 -13l-32 -76q-9 6 -21 6q-38 0 -49 -48l-13 -63h63l-19 -82h-62zM537 0h-94l79 355q3 12 3 22q0 35 -34 35q-45 0 -88 -72l-74 -340h-94l147 667h94l-54 -246q54 74 120 74q40 0 62 -21.5t22 -56.5
q0 -10 -4 -30z" />
    <glyph glyph-name="f_k" unicode="fk" horiz-adv-x="623" 
d="M105 0h-94l89 401h-46l18 82h46l13 63q28 131 133 131q35 0 63 -13l-32 -76q-9 6 -21 6q-38 0 -49 -48l-13 -63h63l-19 -82h-62zM560 0h-100l-36 207l-70 -90l-25 -117h-94l147 667h94l-93 -420l177 236h105l-166 -215z" />
    <glyph glyph-name=".notdef" horiz-adv-x="464" 
d="M428 -90h-351v842h351v-842zM396 -60v782h-288v-782h288z" />
    <glyph glyph-name=".null" horiz-adv-x="0" 
 />
    <glyph glyph-name=".null" horiz-adv-x="0" 
 />
    <glyph glyph-name="nonmarkingreturn" horiz-adv-x="333" 
 />
    <glyph glyph-name="CR" unicode="&#xd;" horiz-adv-x="0" 
 />
    <glyph glyph-name="space" unicode=" " horiz-adv-x="167" 
 />
    <glyph glyph-name="exclam" unicode="!" horiz-adv-x="239" 
d="M150 198h-80l86 469h115zM71 -11q-24 0 -41 17t-17 42q0 28 20.5 49t49.5 21q25 0 42 -17.5t17 -41.5q0 -29 -21 -49.5t-50 -20.5z" />
    <glyph glyph-name="quotedbl" unicode="&#x22;" horiz-adv-x="366" 
d="M158 399h-43q16 204 16 214q2 28 19.5 46t43.5 18q20 0 34 -14t14 -35q0 -4 -1 -9t-3 -10t-2 -7zM318 399h-43q15 204 15 214q2 28 19.5 46t43.5 18q20 0 34 -14t14 -35q0 -11 -6 -26z" />
    <glyph glyph-name="numbersign" unicode="#" horiz-adv-x="441" 
d="M194 0h-73l82 177h-67l-80 -177h-72l80 177h-63l28 63h64l85 187h-65l27 62h65l81 178h72l-80 -178h66l80 178h72l-80 -178h63l-27 -62h-64l-86 -187h67l-28 -63h-67zM230 240l85 187h-65l-85 -187h65z" />
    <glyph glyph-name="dollar" unicode="$" horiz-adv-x="369" 
d="M81 -100l21 91q-84 15 -122 70l62 77q16 -25 43 -41t55 -16q36 0 63 30t27 79q0 31 -23 64t-50.5 59.5t-50.5 69t-23 89.5q0 79 49 137t121 67l21 92h73l-22 -96q57 -14 92 -54l-57 -77q-33 44 -85 44q-36 0 -59 -28t-23 -67q0 -23 15 -48t36.5 -49t42.5 -50t36 -61.5
t15 -74.5q0 -82 -45.5 -142.5t-117.5 -73.5l-21 -91h-73z" />
    <glyph glyph-name="percent" unicode="%" horiz-adv-x="580" 
d="M121 0h-46l423 667h47zM388 -12q-52 0 -80.5 35t-28.5 88q0 85 46 146t106 61q52 0 80.5 -35t28.5 -88q0 -85 -46.5 -146t-105.5 -61zM392 49q30 0 55.5 42t25.5 98q0 69 -46 69q-30 0 -56 -42.5t-26 -98.5q0 -68 47 -68zM188 347q-52 0 -80.5 35t-28.5 88q0 85 46 146
t105 61q52 0 80.5 -35t28.5 -88q0 -85 -46 -146t-105 -61zM192 407q29 0 55 42.5t26 98.5q0 68 -47 68q-30 0 -55.5 -42t-25.5 -98q0 -69 47 -69z" />
    <glyph glyph-name="ampersand" unicode="&#x26;" horiz-adv-x="426" 
d="M364 0h-95l-15 38q-58 -50 -120 -50q-57 0 -91.5 35.5t-34.5 100.5q0 61 23 111t51.5 78.5t72.5 60.5q-8 53 -8 94q0 85 45.5 147t105.5 62q46 0 74 -29t28 -85q0 -31 -10 -59.5t-21 -47t-37.5 -42.5t-39 -34t-46.5 -35q4 -19 19 -72l22 -76q24 43 60 125l69 -39
q-50 -109 -98 -174q25 -61 46 -109zM155 64q33 0 73 45q-17 48 -33 102q-13 43 -21 76q-69 -66 -69 -150q0 -32 13.5 -52.5t36.5 -20.5zM231 462q0 -23 1 -34q41 32 63 63t22 72q0 25 -6.5 34.5t-20.5 9.5q-23 0 -41 -45.5t-18 -99.5z" />
    <glyph glyph-name="quotesingle" unicode="'" horiz-adv-x="208" 
d="M158 399h-43q16 204 16 214q2 28 19.5 46t43.5 18q20 0 34 -14t14 -35q0 -4 -1 -9t-3 -10t-2 -7z" />
    <glyph glyph-name="parenleft" unicode="(" horiz-adv-x="237" 
d="M125 -176l-72 -23q-32 104 -32 224q0 353 227 660l60 -36q-86 -147 -138.5 -327t-52.5 -348q0 -76 8 -150z" />
    <glyph glyph-name="parenright" unicode=")" horiz-adv-x="237" 
d="M111 662l72 23q32 -106 32 -224q0 -353 -227 -660l-60 36q86 147 138.5 327t52.5 348q0 76 -8 150z" />
    <glyph glyph-name="asterisk" unicode="*" horiz-adv-x="313" 
d="M212 381h-52l31 116l-109 -50l-15 47l111 40l-88 61l35 41l81 -70l20 111h52l-31 -116l108 50l15 -47l-110 -40l88 -61l-36 -41l-81 70z" />
    <glyph glyph-name="plus" unicode="+" horiz-adv-x="381" 
d="M365 306h-127l-34 -149h-67l33 149h-127l13 62h128l31 143h68l-31 -143h127z" />
    <glyph glyph-name="comma" unicode="," horiz-adv-x="239" 
d="M145 52q0 -50 -37 -100t-90 -76l-36 38q29 14 54.5 37t34.5 47q-1 -1 -9 -1q-20 0 -34.5 14.5t-14.5 37.5q0 28 21.5 48.5t48.5 20.5q26 0 44 -17.5t18 -48.5z" />
    <glyph glyph-name="hyphen" unicode="-" horiz-adv-x="238" 
d="M199 201h-179l18 81h178z" />
    <glyph glyph-name="period" unicode="." horiz-adv-x="239" 
d="M71 -11q-25 0 -41.5 17t-16.5 42q0 28 20.5 49t49.5 21q25 0 42 -17.5t17 -41.5q0 -29 -21 -49.5t-50 -20.5z" />
    <glyph glyph-name="slash" unicode="/" horiz-adv-x="216" 
d="M11 -20h-70l303 707h71z" />
    <glyph glyph-name="zero" unicode="0" horiz-adv-x="436" 
d="M179 -12q-65 0 -104.5 51t-39.5 148q0 108 32 220t93.5 191t134.5 79q66 0 105.5 -50.5t39.5 -148.5q0 -108 -32 -220t-94 -191t-135 -79zM189 81q41 0 77 81.5t53.5 176t17.5 157.5q0 88 -52 88q-41 0 -77 -81.5t-53.5 -175.5t-17.5 -158q0 -88 52 -88z" />
    <glyph glyph-name="one" unicode="1" horiz-adv-x="324" 
d="M213 0h-104l117 531l-117 -101l-47 64l207 173h91z" />
    <glyph glyph-name="two" unicode="2" horiz-adv-x="419" 
d="M328 0h-336l23 106q31 34 70.5 76.5t62 66.5t50.5 55t43 49t33 40t26.5 36t16.5 30t11 29.5t3 26.5q0 32 -17.5 50.5t-47.5 18.5q-60 0 -109 -67l-56 67q76 93 175 93q73 0 119 -39.5t46 -109.5q0 -77 -55.5 -156t-221.5 -263q-11 -11 -16 -17h200z" />
    <glyph glyph-name="three" unicode="3" horiz-adv-x="418" 
d="M174 -12q-65 0 -115.5 35t-67.5 99l86 51q21 -92 97 -92q45 0 71 44.5t26 98.5q0 35 -20.5 53t-50.5 18q-25 0 -34 -2l21 95q7 -1 49 -1q45 0 70 39t25 91q0 67 -72 67q-58 0 -98 -62l-58 61q72 94 173 94q73 0 118 -37t45 -104q0 -70 -42 -127t-102 -70q79 -27 79 -126
q0 -90 -58 -157.5t-142 -67.5z" />
    <glyph glyph-name="four" unicode="4" horiz-adv-x="403" 
d="M283 0h-104l34 158h-218l22 101l285 408h128l-93 -417h52l-20 -92h-52zM233 250l65 289l-195 -289h130z" />
    <glyph glyph-name="five" unicode="5" horiz-adv-x="423" 
d="M174 -12q-135 0 -175 133l85 50q8 -43 31.5 -66.5t58.5 -23.5q43 0 76 57t33 125q0 34 -15.5 53.5t-45.5 19.5q-45 0 -87 -50l-72 29l79 352h311l-20 -92h-207l-44 -199q37 46 95 46q52 0 83.5 -39t31.5 -107q0 -114 -62 -201t-156 -87z" />
    <glyph glyph-name="six" unicode="6" horiz-adv-x="421" 
d="M184 -12q-76 0 -114 52t-38 142q0 60 16.5 139t48 161.5t89 138.5t128.5 56q48 0 85.5 -26t52.5 -70l-72 -66q-12 69 -72 69q-90 0 -147 -223q-1 -3 -5 -24q23 38 55 61.5t66 23.5q51 0 83.5 -37.5t32.5 -104.5t-23.5 -132.5t-73 -112.5t-112.5 -47zM188 81
q30 0 53.5 33.5t33.5 74.5t10 75q0 32 -13.5 52t-41.5 20q-48 0 -90 -86q-8 -42 -8 -80q0 -89 56 -89z" />
    <glyph glyph-name="seven" unicode="7" horiz-adv-x="364" 
d="M133 0h-115l282 575h-208l20 92h326l-16 -72z" />
    <glyph glyph-name="eight" unicode="8" horiz-adv-x="419" 
d="M179 -12q-171 0 -171 143q0 69 40 129.5t116 91.5q-30 19 -50 55.5t-20 77.5q0 77 56 134.5t132 57.5q67 0 114 -34.5t47 -106.5q0 -74 -42 -127t-103 -72q36 -23 55.5 -62t19.5 -82q0 -89 -54.5 -147t-139.5 -58zM239 378q39 15 68 50t29 92q0 30 -15 47t-43 17
q-35 0 -58.5 -35t-23.5 -84q0 -27 13 -51t30 -36zM178 81q36 0 64 38t28 92q0 37 -15.5 62.5t-31.5 33.5q-42 -13 -74 -55.5t-32 -99.5q0 -35 16.5 -53t44.5 -18z" />
    <glyph glyph-name="nine" unicode="9" horiz-adv-x="421" 
d="M276 678q76 0 114 -52t38 -142q0 -46 -9.5 -106.5t-32 -129.5t-53.5 -126t-80.5 -95t-106.5 -38q-48 0 -85.5 26t-53.5 70l72 66q5 -32 24 -50.5t48 -18.5q90 0 147 223q5 17 6 24q-51 -85 -122 -85q-51 0 -83 37.5t-32 104.5t23.5 132.5t73 112.5t112.5 47zM272 585
q-30 0 -53.5 -33.5t-33.5 -74.5t-10 -75q0 -72 54 -72q49 0 91 86q8 42 8 80q0 89 -56 89z" />
    <glyph glyph-name="colon" unicode=":" horiz-adv-x="239" 
d="M72 -11q-25 0 -42 17t-17 42q0 28 20.5 49t49.5 21q25 0 42 -17.5t17 -41.5q0 -29 -20.5 -49.5t-49.5 -20.5zM154 361q-25 0 -42 17t-17 42q0 28 20.5 49t49.5 21q25 0 42 -17.5t17 -41.5q0 -29 -20.5 -49.5t-49.5 -20.5z" />
    <glyph glyph-name="semicolon" unicode=";" horiz-adv-x="239" 
d="M145 52q0 -50 -37 -100t-90 -76l-36 38q29 14 54.5 37t34.5 47q-1 -1 -9 -1q-20 0 -34.5 14.5t-14.5 37.5q0 28 21.5 48.5t48.5 20.5q26 0 44 -17.5t18 -48.5zM154 361q-25 0 -42 17t-17 42q0 28 20.5 49t49.5 21q25 0 42 -17.5t17 -41.5q0 -29 -20.5 -49.5t-49.5 -20.5z
" />
    <glyph glyph-name="less" unicode="&#x3c;" horiz-adv-x="381" 
d="M332 158l-291 143l15 67l354 143l-17 -77l-271 -103l226 -103z" />
    <glyph glyph-name="equal" unicode="=" horiz-adv-x="381" 
d="M386 399h-323l14 62h322zM343 207h-323l14 62h323z" />
    <glyph glyph-name="greater" unicode="&#x3e;" horiz-adv-x="381" 
d="M364 301l-355 -143l18 77l272 102l-226 104l15 70l291 -143z" />
    <glyph glyph-name="question" unicode="?" horiz-adv-x="320" 
d="M199 223l-85 -31q-11 27 -11 62q0 39 16 72t39 57t46 45.5t39 47.5t16 54q0 24 -14.5 41.5t-40.5 17.5q-34 0 -61 -24l-30 70q56 43 121 43q58 0 95.5 -35t37.5 -86q0 -41 -18 -77t-43.5 -62.5t-51.5 -50.5t-44 -51t-18 -53t7 -40zM114 -11q-24 0 -41 17t-17 42
q0 28 21 49t49 21q25 0 42 -17.5t17 -41.5q0 -29 -21 -49.5t-50 -20.5z" />
    <glyph glyph-name="at" unicode="@" horiz-adv-x="620" 
d="M287 -70q-108 0 -170 76.5t-62 208.5q0 107 46 205t125 158.5t170 60.5q93 0 151 -65.5t58 -177.5q0 -128 -48 -219.5t-112 -91.5q-33 0 -54.5 18.5t-25.5 49.5l-1 8q-49 -76 -111 -76q-39 0 -66 29.5t-27 96.5q0 69 22.5 134.5t66.5 109.5t98 44q56 0 72 -69l11 53h84
l-56 -263q-3 -15 -3 -28q0 -41 29 -41q11 0 25 16.5t27 46t22 78t9 103.5q0 99 -47 153.5t-126 54.5q-80 0 -150.5 -57t-110.5 -146t-40 -184q0 -113 52 -182t147 -69q72 0 143 56l18 -28q-80 -63 -166 -63zM292 153q26 0 44.5 18.5t37.5 51.5l32 148q-12 59 -47 59
q-34 0 -60.5 -35.5t-38.5 -81.5t-12 -89q0 -71 44 -71z" />
    <glyph glyph-name="A" unicode="A" horiz-adv-x="398" 
d="M341 0h-104l7 136h-133l-52 -136h-110l283 667h120zM251 228l17 320l-124 -320h107z" />
    <glyph glyph-name="B" unicode="B" horiz-adv-x="431" 
d="M201 0h-198l147 667h145q70 0 109 -39.5t39 -100.5q0 -68 -36.5 -125t-95.5 -67q36 -11 54 -44.5t18 -74.5q0 -85 -48 -150.5t-134 -65.5zM245 386q40 0 63.5 39.5t23.5 82.5q0 67 -67 67h-31l-42 -189h53zM183 92q41 0 68 39.5t27 92.5q0 70 -68 70h-38l-45 -202h56z
" />
    <glyph glyph-name="C" unicode="C" horiz-adv-x="412" 
d="M191 -12q-75 0 -116 52.5t-41 149.5q0 49 9 109t30.5 127.5t51.5 123t77.5 92t103.5 36.5q73 0 108.5 -49.5t39.5 -125.5l-97 -19q-7 101 -58 101q-36 0 -67.5 -47t-50 -113.5t-29.5 -130.5t-11 -107q0 -106 56 -106q44 0 88 83l83 -36q-68 -140 -177 -140z" />
    <glyph glyph-name="D" unicode="D" horiz-adv-x="455" 
d="M153 0h-150l147 667h146q65 0 111 -54t46 -156q0 -33 -6 -76t-19 -96t-36.5 -102t-55 -91t-79 -67t-104.5 -25zM127 92h44q45 0 81 44.5t55 108t29 119.5t10 92q0 60 -20 89.5t-50 29.5h-42z" />
    <glyph glyph-name="E" unicode="E" horiz-adv-x="367" 
d="M276 0h-273l147 667h273l-20 -92h-169l-42 -189h162l-21 -92h-161l-45 -202h169z" />
    <glyph glyph-name="F" unicode="F" horiz-adv-x="365" 
d="M107 0h-104l147 667h273l-20 -92h-169l-42 -189h162l-21 -92h-161z" />
    <glyph glyph-name="G" unicode="G" horiz-adv-x="435" 
d="M191 -12q-76 0 -116.5 52.5t-40.5 149.5q0 67 16.5 147t48 158t86 130.5t121.5 52.5q72 0 106 -46.5t37 -116.5l-89 -21q-6 91 -61 91q-46 0 -84 -76.5t-56 -166t-18 -155.5q0 -57 13.5 -81.5t42.5 -24.5q35 0 73 49l28 131h-81l21 92h174l-58 -260q-68 -105 -163 -105z
" />
    <glyph glyph-name="H" unicode="H" horiz-adv-x="463" 
d="M353 0h-105l66 297h-142l-65 -297h-104l147 667h104l-61 -278h141l61 278h105z" />
    <glyph glyph-name="I" unicode="I" horiz-adv-x="218" 
d="M107 0h-104l147 667h104z" />
    <glyph glyph-name="J" unicode="J" horiz-adv-x="337" 
d="M82 -12q-79 0 -119 46l45 82q23 -35 66 -35q66 0 83 80l113 506h104l-113 -511q-20 -88 -62.5 -128t-116.5 -40z" />
    <glyph glyph-name="K" unicode="K" horiz-adv-x="448" 
d="M388 0h-111l-67 272l-63 -88l-40 -184h-104l147 667h104l-68 -310l215 310h121l-234 -315z" />
    <glyph glyph-name="L" unicode="L" horiz-adv-x="351" 
d="M276 0h-273l147 667h104l-127 -575h169z" />
    <glyph glyph-name="M" unicode="M" horiz-adv-x="591" 
d="M481 0h-103l98 445l-216 -445h-37l-17 445l-99 -445h-104l147 667h133l16 -393l193 393h136z" />
    <glyph glyph-name="N" unicode="N" horiz-adv-x="463" 
d="M353 0h-99l-57 409l-90 -409h-104l147 667h104l53 -396l88 396h105z" />
    <glyph glyph-name="O" unicode="O" horiz-adv-x="459" 
d="M191 -12q-79 0 -118 56t-39 146q0 62 16 140.5t46.5 158.5t86 134.5t123.5 54.5q78 0 117.5 -57t39.5 -147q0 -47 -9.5 -107.5t-31 -127.5t-51.5 -122.5t-77.5 -92t-102.5 -36.5zM197 81q46 0 84.5 77t56.5 166.5t18 152.5q0 108 -57 108q-46 0 -84.5 -77.5t-56 -167
t-17.5 -153.5q0 -106 56 -106z" />
    <glyph glyph-name="P" unicode="P" horiz-adv-x="418" 
d="M107 0h-104l147 667h148q66 0 106.5 -45t40.5 -117q0 -101 -59.5 -175.5t-166.5 -74.5h-56zM183 347h44q51 0 80 45.5t29 103.5q0 38 -17 58.5t-45 20.5h-40z" />
    <glyph glyph-name="Q" unicode="Q" horiz-adv-x="459" 
d="M191 -12q-79 0 -118 56t-39 146q0 62 16 140.5t46.5 158.5t86 134.5t123.5 54.5q78 0 117.5 -57t39.5 -147q0 -110 -44.5 -249.5t-125.5 -201.5l7 -44l-79 -14l-4 25q-18 -2 -26 -2zM197 81h5l-21 134l79 14l14 -86q36 63 59 164.5t23 169.5q0 108 -57 108
q-46 0 -84.5 -77.5t-56 -167t-17.5 -153.5q0 -106 56 -106z" />
    <glyph glyph-name="R" unicode="R" horiz-adv-x="438" 
d="M346 0h-109l-21 255h-53l-56 -255h-104l147 667h147q65 0 107 -46t42 -115q0 -82 -40 -148t-93 -84zM183 347h46q49 0 78 45.5t29 104.5q0 78 -61 78h-41z" />
    <glyph glyph-name="S" unicode="S" horiz-adv-x="378" 
d="M140 -12q-50 0 -93.5 20t-66.5 53l62 77q16 -25 43 -41t55 -16q36 0 63 30t27 79q0 31 -23 64t-50.5 59.5t-50.5 69t-23 89.5q0 86 57 146t136 60q90 0 141 -60l-57 -77q-33 44 -85 44q-36 0 -59 -28t-23 -67q0 -23 15 -48t36.5 -49t42.5 -50t36 -61.5t15 -74.5
q0 -92 -56 -155.5t-142 -63.5z" />
    <glyph glyph-name="T" unicode="T" horiz-adv-x="346" 
d="M171 0h-104l127 575h-103l20 92h310l-20 -92h-103z" />
    <glyph glyph-name="U" unicode="U" horiz-adv-x="464" 
d="M197 -12q-69 0 -113.5 42t-44.5 113q0 22 5 45l106 479h104l-108 -488q-3 -21 -3 -32q0 -32 17 -49.5t45 -17.5q32 0 52 23t32 76l107 488h104l-106 -483q-44 -196 -197 -196z" />
    <glyph glyph-name="V" unicode="V" horiz-adv-x="398" 
d="M205 0h-120l11 667h104l-28 -532l206 532h110z" />
    <glyph glyph-name="W" unicode="W" horiz-adv-x="587" 
d="M408 0h-107l42 466l-165 -466h-107l36 667h105l-45 -483l176 483h84l-37 -483l168 483h108z" />
    <glyph glyph-name="X" unicode="X" horiz-adv-x="408" 
d="M354 0h-110l-38 241l-139 -241h-120l221 345l-66 322h110l31 -230l129 230h121l-211 -332z" />
    <glyph glyph-name="Y" unicode="Y" horiz-adv-x="405" 
d="M201 0h-104l61 279l-68 388h107l31 -285l158 285h115l-239 -388z" />
    <glyph glyph-name="Z" unicode="Z" horiz-adv-x="360" 
d="M276 0h-299l19 89l277 486h-169l20 92h292l-19 -85l-280 -490h179z" />
    <glyph glyph-name="bracketleft" unicode="[" horiz-adv-x="195" 
d="M80 -190h-141l192 868h142l-14 -66h-72l-164 -736h72z" />
    <glyph glyph-name="backslash" unicode="\" horiz-adv-x="216" 
d="M89 -20v707h68v-707h-68z" />
    <glyph glyph-name="bracketright" unicode="]" horiz-adv-x="195" 
d="M63 -190h-142l15 66h72l163 736h-72l14 66h143z" />
    <glyph glyph-name="asciicircum" unicode="^" horiz-adv-x="334" 
d="M334 333h-68l-21 257l-134 -257h-73l187 334h70z" />
    <glyph glyph-name="underscore" unicode="_" horiz-adv-x="279" 
d="M204 -106h-284l15 66h284z" />
    <glyph glyph-name="grave" unicode="`" horiz-adv-x="164" 
d="M233 556h-61l-71 144h85z" />
    <glyph glyph-name="a" unicode="a" horiz-adv-x="406" 
d="M209 495q72 0 92 -77l15 65h93l-107 -483h-94l14 60q-45 -72 -102 -72q-50 0 -76 38t-26 111q0 49 12 108.5t34.5 116.5t60.5 95t84 38zM229 412q-35 0 -63 -51.5t-39.5 -110t-11.5 -102.5q0 -77 51 -77q19 0 39.5 19.5t33.5 47.5l46 206q-3 29 -19 48.5t-37 19.5z" />
    <glyph glyph-name="b" unicode="b" horiz-adv-x="406" 
d="M196 -12q-71 0 -92 77l-14 -65h-93l146 667h94l-54 -244q45 72 102 72q50 0 76 -38t26 -111q0 -49 -12 -108.5t-34.5 -116.5t-60.5 -95t-84 -38zM177 71q35 0 62.5 51.5t39 110t11.5 102.5q0 77 -51 77q-19 0 -39.5 -19.5t-33.5 -47.5l-46 -206q3 -29 19 -48.5t38 -19.5z
" />
    <glyph glyph-name="c" unicode="c" horiz-adv-x="333" 
d="M170 -12q-70 0 -109.5 44.5t-39.5 129.5q0 74 24.5 148.5t77 129.5t119.5 55q74 0 113 -49l-47 -70q-20 36 -60 36q-39 0 -70 -43t-45.5 -97.5t-14.5 -102.5q0 -98 72 -98q33 0 60 29l19 -74q-42 -38 -99 -38z" />
    <glyph glyph-name="d" unicode="d" horiz-adv-x="406" 
d="M209 495q72 0 92 -77l55 249h94l-148 -667h-94l14 60q-45 -72 -102 -72q-50 0 -76 38t-26 111q0 49 12 108.5t34.5 116.5t60.5 95t84 38zM229 412q-35 0 -63 -51.5t-39.5 -110t-11.5 -102.5q0 -77 51 -77q19 0 39.5 19.5t33.5 47.5l46 206q-3 29 -19 48.5t-37 19.5z" />
    <glyph glyph-name="e" unicode="e" horiz-adv-x="391" 
d="M174 -12q-73 0 -113.5 45t-40.5 130q0 34 7.5 76t25 87.5t42 83t61.5 61.5t80 24q138 0 138 -158q0 -50 -19 -126h-241q-6 -23 -6 -53q0 -40 19.5 -66.5t62.5 -26.5q45 0 85 47l36 -58q-58 -66 -137 -66zM127 278h153q8 32 8 60q0 35 -15.5 57.5t-43.5 22.5
q-41 0 -67 -43.5t-35 -96.5z" />
    <glyph glyph-name="f" unicode="f" horiz-adv-x="239" 
d="M105 0h-94l89 401h-46l18 82h46l13 63q28 131 133 131q59 0 85 -29l-41 -72q-12 18 -34 18q-37 0 -49 -48l-13 -63h63l-19 -82h-62z" />
    <glyph glyph-name="g" unicode="g" horiz-adv-x="406" 
d="M111 -196q-98 0 -146 59l51 73q32 -49 93 -49q74 0 98 110l19 76q-43 -72 -103 -72q-49 0 -76.5 36t-27.5 107q0 48 11 105t33 114t60.5 94.5t86.5 37.5q29 0 57 -20.5t35 -56.5l14 65h93l-105 -474q-26 -113 -74 -159t-119 -46zM168 84q20 0 40 19.5t34 47.5l43 193
q-4 27 -20.5 47.5t-37.5 20.5q-34 0 -61 -47.5t-38.5 -103.5t-11.5 -100q0 -77 52 -77z" />
    <glyph glyph-name="h" unicode="h" 
d="M298 0h-94l79 355q3 12 3 22q0 35 -34 35q-45 0 -88 -72l-74 -340h-94l147 667h94l-54 -246q54 74 120 74q40 0 62 -21.5t22 -56.5q0 -10 -4 -30z" />
    <glyph glyph-name="i" unicode="i" horiz-adv-x="194" 
d="M169 546q-23 0 -38.5 15t-15.5 36q0 30 21.5 49t46.5 19q23 0 38.5 -15.5t15.5 -36.5q0 -30 -21 -48.5t-47 -18.5zM90 0h-94l107 483h94z" />
    <glyph glyph-name="j" unicode="j" horiz-adv-x="194" 
d="M-56 -196q-50 0 -70 30l41 69q6 -16 25 -16q31 0 43 59l120 537h94l-120 -537q-17 -76 -47 -109t-86 -33zM169 546q-23 0 -38.5 15t-15.5 36q0 30 21.5 49t46.5 19q23 0 38.5 -15.5t15.5 -36.5q0 -30 -21 -48.5t-47 -18.5z" />
    <glyph glyph-name="k" unicode="k" horiz-adv-x="385" 
d="M321 0h-100l-36 207l-70 -90l-25 -117h-94l147 667h94l-93 -420l177 236h105l-166 -215z" />
    <glyph glyph-name="l" unicode="l" horiz-adv-x="194" 
d="M90 0h-94l147 667h94z" />
    <glyph glyph-name="m" unicode="m" horiz-adv-x="610" 
d="M506 0h-94l78 355q4 12 4 22q0 35 -34 35q-23 0 -47 -21.5t-41 -50.5l-74 -340h-94l79 355q3 18 3 23q0 34 -34 34q-44 0 -88 -72l-74 -340h-94l107 483h94l-14 -62q23 33 55 53.5t65 20.5q37 0 60.5 -20.5t23.5 -49.5q0 -5 -1 -10q55 80 124 80q39 0 62 -20.5t23 -56.5
q0 -15 -4 -31z" />
    <glyph glyph-name="n" unicode="n" 
d="M298 0h-94l79 355q3 15 3 22q0 35 -34 35q-45 0 -88 -72l-74 -340h-94l107 483h94l-14 -62q54 74 120 74q39 0 61.5 -21t22.5 -57q0 -18 -4 -30z" />
    <glyph glyph-name="o" unicode="o" 
d="M163 -12q-69 0 -106 43.5t-37 124.5q0 74 23.5 149.5t75 132.5t118.5 57q69 0 106 -43t37 -125q0 -74 -23.5 -149.5t-75 -132.5t-118.5 -57zM169 71q35 0 63 49.5t40.5 107t12.5 100.5q0 84 -53 84q-35 0 -63.5 -49.5t-41 -107.5t-12.5 -101q0 -83 54 -83z" />
    <glyph glyph-name="p" unicode="p" horiz-adv-x="406" 
d="M196 -12q-71 0 -92 77l-55 -249h-93l147 667h94l-14 -60q45 72 102 72q50 0 76 -38t26 -111q0 -49 -12 -108.5t-34.5 -116.5t-60.5 -95t-84 -38zM177 71q35 0 62.5 51.5t39 110t11.5 102.5q0 77 -51 77q-19 0 -39.5 -19.5t-33.5 -47.5l-46 -206q3 -29 19 -48.5t38 -19.5z
" />
    <glyph glyph-name="q" unicode="q" horiz-adv-x="406" 
d="M209 495q72 0 92 -77l14 65h94l-148 -667h-94l55 244q-45 -72 -102 -72q-50 0 -76 38t-26 111q0 49 12 108.5t34.5 116.5t60.5 95t84 38zM229 412q-35 0 -63 -51.5t-39.5 -110t-11.5 -102.5q0 -77 51 -77q19 0 39.5 19.5t33.5 47.5l46 206q-3 29 -19 48.5t-37 19.5z" />
    <glyph glyph-name="r" unicode="r" horiz-adv-x="268" 
d="M90 0h-94l107 483h94l-14 -65q44 76 127 76l-22 -94q-12 4 -25 4q-56 0 -100 -72z" />
    <glyph glyph-name="s" unicode="s" horiz-adv-x="330" 
d="M123 -12q-48 0 -87 19t-57 50l53 61q32 -55 93 -55q29 0 49 20.5t20 48.5q0 24 -22 47.5t-48 41t-48 50t-22 71.5q0 63 41.5 108t113.5 45q38 0 74 -17t58 -46l-51 -59q-10 19 -33.5 33t-49.5 14q-28 0 -45 -17t-17 -44q0 -21 22.5 -43.5t49 -41t49 -51.5t22.5 -73
q0 -67 -46 -114.5t-119 -47.5z" />
    <glyph glyph-name="t" unicode="t" horiz-adv-x="247" 
d="M128 -12q-99 0 -99 80q0 19 5 39l66 294h-47l18 82h47l29 132h94l-29 -132h63l-19 -82h-62l-62 -278q-4 -16 -4 -25q0 -27 28 -27q14 0 27 9l6 -75q-25 -17 -61 -17z" />
    <glyph glyph-name="u" unicode="u" 
d="M103 483h94l-79 -355q-3 -14 -3 -22q0 -35 34 -35q45 0 86 69l76 343h94l-107 -483h-94l14 62q-54 -74 -120 -74q-39 0 -61.5 21t-22.5 57q0 18 4 30z" />
    <glyph glyph-name="v" unicode="v" horiz-adv-x="357" 
d="M175 0h-102l-15 483h97l-8 -366l156 366h102z" />
    <glyph glyph-name="w" unicode="w" horiz-adv-x="579" 
d="M408 0h-98l3 355l-152 -355h-98l-1 483h94l-12 -354l148 354h91l-5 -354l145 354h101z" />
    <glyph glyph-name="x" unicode="x" horiz-adv-x="352" 
d="M291 0h-98l-30 173l-107 -173h-103l164 244l-52 239h97l26 -168l102 168h102l-159 -239z" />
    <glyph glyph-name="y" unicode="y" horiz-adv-x="357" 
d="M-57 -185l31 78q6 -6 23 -6q24 0 44 39l31 64l-14 493h97l-8 -364l156 364h102l-276 -577q-29 -58 -57 -80t-68 -22q-35 0 -61 11z" />
    <glyph glyph-name="z" unicode="z" horiz-adv-x="321" 
d="M237 0h-261l15 72l217 329h-143l18 82h257l-15 -69l-218 -332h148z" />
    <glyph glyph-name="braceleft" unicode="{" horiz-adv-x="212" 
d="M98 -190h-22q-37 0 -65 24.5t-29 63.5q0 15 4 27l49 222q2 10 2 19q0 49 -39 49l13 58q52 0 67 68l50 224q25 113 134 113h29l-15 -66h-29q-39 0 -49 -47l-53 -240q-8 -36 -22.5 -57t-42.5 -32q29 -14 29 -55q0 -18 -4 -34l-48 -219l-3 -18q0 -16 9 -25.5t21 -9.5h29z
" />
    <glyph glyph-name="bar" unicode="|" horiz-adv-x="179" 
d="M142 -20h-65v707h65v-707z" />
    <glyph glyph-name="braceright" unicode="}" horiz-adv-x="212" 
d="M113 678h22q37 0 65.5 -25t28.5 -64q0 -14 -4 -26l-49 -222q-2 -10 -2 -20q0 -48 39 -48l-13 -58q-52 0 -67 -68l-50 -224q-25 -113 -134 -113h-29l15 66h29q39 0 49 47l53 240q8 36 22.5 57t42.5 32q-29 14 -29 55q0 18 4 34l48 219l3 18q0 16 -8.5 25.5t-21.5 9.5h-29z
" />
    <glyph glyph-name="asciitilde" unicode="~" horiz-adv-x="407" 
d="M406 667l66 -6q-49 -242 -159 -242q-33 0 -50 19t-20.5 46.5t-4 54.5t-5 46t-19.5 19q-40 0 -82 -186l-66 7q49 241 160 241q40 0 57 -29t15.5 -64t3 -64t22.5 -29q40 0 82 187z" />
    <glyph glyph-name="nbspace" unicode="&#xa0;" horiz-adv-x="167" 
 />
    <glyph glyph-name="exclamdown" unicode="&#xa1;" horiz-adv-x="239" 
d="M89 285h80l-86 -469h-115zM168 494q24 0 41 -17t17 -42q0 -29 -21 -49.5t-49 -20.5q-25 0 -42 17.5t-17 41.5q0 29 21 49.5t50 20.5z" />
    <glyph glyph-name="cent" unicode="&#xa2;" horiz-adv-x="333" 
d="M98 -100l21 95q-98 29 -98 167q0 72 23 144.5t72.5 127.5t113.5 60l16 71h71l-18 -80q35 -14 56 -39l-47 -70q-11 18 -27 28l-74 -331q23 6 43 27l19 -74q-35 -31 -81 -37l-19 -89h-71zM118 169q0 -53 22 -78l69 309q-41 -27 -66 -97.5t-25 -133.5z" />
    <glyph glyph-name="sterling" unicode="&#xa3;" horiz-adv-x="405" 
d="M36 274l14 63h60q-17 55 -17 100q0 100 63 170t141 70q62 0 103.5 -34.5t43.5 -98.5l-90 -27q-5 74 -56 74q-37 0 -65.5 -49.5t-28.5 -117.5q0 -15 2.5 -29t7.5 -33.5t6 -24.5h73l-14 -63h-55q-6 -55 -32.5 -102.5t-62.5 -71.5q19 9 35 9q23 0 54 -14t48 -14q38 0 68 32
l12 -84q-39 -41 -99 -41q-39 0 -80 20.5t-64 20.5q-35 0 -82 -36l-17 73q51 30 85.5 83.5t34.5 108.5q0 11 -1 16h-87z" />
    <glyph glyph-name="currency" unicode="&#xa4;" horiz-adv-x="419" 
d="M199 100q-54 0 -90 28l-80 -65l-50 64l84 68q-10 35 -10 72q0 134 69 223l-54 70l65 53l52 -69q37 21 78 21q53 0 90 -27l82 67l51 -64l-87 -70q11 -36 11 -74q0 -130 -70 -221l55 -71l-65 -53l-53 69q-39 -21 -78 -21zM145 269q0 -86 62 -86q47 0 79 67t32 144
q0 88 -61 88q-48 0 -80 -68t-32 -145z" />
    <glyph glyph-name="yen" unicode="&#xa5;" horiz-adv-x="405" 
d="M202 0h-104l26 120h-129l14 62h128l22 97h-128l13 62h104l-57 326h107l31 -285l158 285h115l-201 -326h100l-13 -62h-125l-22 -97h125l-14 -62h-124z" />
    <glyph glyph-name="brokenbar" unicode="&#xa6;" horiz-adv-x="179" 
d="M142 -20h-65v316h65v-316zM142 371h-65v316h65v-316z" />
    <glyph glyph-name="section" unicode="&#xa7;" horiz-adv-x="331" 
d="M325 331q0 -50 -26 -88.5t-76 -58.5q47 -41 47 -99q0 -69 -45.5 -117.5t-114.5 -48.5q-111 0 -152 65l54 60q30 -54 92 -54q31 0 52.5 24t21.5 58q0 22 -14 40t-34 33t-40.5 32t-34.5 44t-14 60q0 50 29.5 88t80.5 49q-55 45 -55 109t44 107t105 43q95 0 141 -62l-52 -52
q-29 46 -84 46q-28 0 -46 -21t-18 -50q0 -21 14.5 -40t35 -34.5t40.5 -33t34.5 -43t14.5 -56.5zM237 309q0 40 -33 73q-76 -13 -76 -83q0 -48 47 -80q62 25 62 90z" />
    <glyph glyph-name="dieresis" unicode="&#xa8;" horiz-adv-x="272" 
d="M347 612q0 -23 -18.5 -41t-42.5 -18q-20 0 -34 13.5t-14 34.5q0 23 18.5 41t42.5 18q20 0 34 -13.5t14 -34.5zM194 612q0 -23 -18.5 -41t-42.5 -18q-20 0 -34 13.5t-14 34.5q0 23 18.5 41t42.5 18q20 0 34 -13.5t14 -34.5z" />
    <glyph glyph-name="copyright" unicode="&#xa9;" horiz-adv-x="778" 
d="M754 334q0 -142 -101.5 -243.5t-244.5 -101.5q-142 0 -243 101t-101 244t101 244t243 101q143 0 244.5 -101.5t101.5 -243.5zM721 334q0 128 -92.5 220t-220.5 92t-219.5 -92t-91.5 -220t91.5 -220t219.5 -92t220.5 92t92.5 220zM506 205l21 -30q-62 -53 -136 -53
q-87 0 -139.5 52.5t-52.5 132.5q0 100 71.5 170t163.5 70q108 0 157 -80l-33 -24q-37 69 -125 69q-74 0 -134 -59.5t-60 -144.5q0 -63 42 -107t110 -44q65 0 115 48z" />
    <glyph glyph-name="ordfeminine" unicode="&#xaa;" horiz-adv-x="304" 
d="M221 592q-33 0 -55.5 -54.5t-22.5 -106.5q0 -57 37 -57q27 0 52 45l28 132q-2 17 -13 29t-26 12zM280 640h70l-69 -314h-70l9 41q-31 -49 -73 -49q-76 0 -76 108q0 48 15 97.5t46.5 87t71.5 37.5q21 0 39.5 -12.5t27.5 -35.5z" />
    <glyph glyph-name="guillemotleft" unicode="&#xab;" horiz-adv-x="359" 
d="M152 63h-73l-50 180l130 177h77l-133 -181zM286 63h-73l-50 180l130 177h77l-133 -181z" />
    <glyph glyph-name="logicalnot" unicode="&#xac;" horiz-adv-x="381" 
d="M399 461l-56 -254h-64l42 192h-258l14 62h322z" />
    <glyph glyph-name="uni00AD" unicode="&#xad;" horiz-adv-x="238" 
d="M199 201h-179l18 81h178z" />
    <glyph glyph-name="registered" unicode="&#xae;" horiz-adv-x="494" 
d="M508 465q0 -88 -62.5 -150t-150.5 -62t-149.5 62t-61.5 150t62 150t150 62t150 -61.5t62 -150.5zM478 465q0 76 -53.5 129t-129.5 53t-128.5 -53t-52.5 -129q0 -75 53 -128.5t128 -53.5q76 0 129.5 53.5t53.5 128.5zM368 343h-39l-42 96h-45l-21 -96h-33l53 243h92
q31 0 51 -17.5t20 -46.5q0 -35 -25 -58.5t-55 -23.5zM369 518q0 19 -11.5 29t-30.5 10h-59l-20 -88h67q22 0 38 14t16 35z" />
    <glyph glyph-name="macron" unicode="&#xaf;" horiz-adv-x="254" 
d="M325 568h-253l12 57h253z" />
    <glyph glyph-name="degree" unicode="&#xb0;" horiz-adv-x="298" 
d="M343 550q0 -52 -37 -89t-90 -37q-52 0 -89 37t-37 89q0 53 37 90t89 37t89.5 -37.5t37.5 -89.5zM288 550q0 29 -21.5 50t-50.5 21t-49.5 -21t-20.5 -50t20 -49.5t49 -20.5q30 0 51.5 20.5t21.5 49.5z" />
    <glyph glyph-name="plusminus" unicode="&#xb1;" horiz-adv-x="381" 
d="M365 306h-127l-34 -149h-67l33 149h-127l13 62h128l31 143h68l-31 -143h127zM305 34h-323l14 62h322z" />
    <glyph glyph-name="twosuperior" unicode="&#xb2;" horiz-adv-x="281" 
d="M300 421h-232l13 58q130 117 170 163t40 81q0 21 -12.5 33t-33.5 12q-42 0 -77 -47l-37 47q52 59 119 59q49 0 82 -25.5t33 -71.5q0 -26 -9.5 -50t-40.5 -58.5t-55.5 -58.5t-88.5 -83h142z" />
    <glyph glyph-name="threesuperior" unicode="&#xb3;" horiz-adv-x="281" 
d="M326 542q0 -48 -35.5 -88t-93.5 -40q-44 0 -77 18.5t-46 51.5l55 40q16 -51 65 -51q29 0 45 25t16 54q0 22 -13 33.5t-33 11.5q-22 0 -28 -1l13 59q5 -1 32 -1q28 0 46 19t18 51q0 20 -12.5 32t-34.5 12q-41 0 -73 -42l-38 41q49 60 117 60q53 0 83.5 -24.5t30.5 -68.5
q0 -38 -24.5 -72t-66.5 -40q54 -16 54 -80z" />
    <glyph glyph-name="acute" unicode="&#xb4;" horiz-adv-x="164" 
d="M265 700l-135 -144h-63l111 144h87z" />
    <glyph glyph-name="mu" unicode="&#xb5;" horiz-adv-x="413" 
d="M92 7l-42 -191h-94l147 667h94l-79 -357q-12 -56 31 -56q45 0 86 69l76 344h94l-82 -368q-9 -44 18 -44q5 0 15 2l-10 -79q-20 -6 -46 -6q-43 0 -58.5 20t-11.5 65q-18 -39 -44.5 -62t-53.5 -23q-26 0 -40 19z" />
    <glyph glyph-name="paragraph" unicode="&#xb6;" horiz-adv-x="449" 
d="M310 -100h-52l160 716h-85l-160 -716h-51l94 423q-57 0 -97 44.5t-40 111.5q0 73 56.5 130.5t137.5 57.5h207z" />
    <glyph glyph-name="periodcentered" unicode="&#xb7;" horiz-adv-x="239" 
d="M113 180q-24 0 -41 17t-17 42q0 29 20.5 49.5t49.5 20.5q25 0 42 -17.5t17 -41.5q0 -29 -21 -49.5t-50 -20.5z" />
    <glyph glyph-name="cedilla" unicode="&#xb8;" horiz-adv-x="175" 
d="M-1 -193q-55 0 -88 38l28 39q24 -32 61 -32q20 0 32.5 13t12.5 31q0 24 -23 24q-15 0 -26 -13l-33 21l50 83h51l-41 -65q10 10 24 10q22 0 36 -16t14 -41q0 -39 -28.5 -65.5t-69.5 -26.5z" />
    <glyph glyph-name="onesuperior" unicode="&#xb9;" horiz-adv-x="232" 
d="M223 421h-73l66 302l-67 -57l-35 44l134 111h63z" />
    <glyph glyph-name="ordmasculine" unicode="&#xba;" horiz-adv-x="300" 
d="M180 318q-52 0 -79 31.5t-27 85.5q0 46 16 93t52 83.5t83 36.5q52 0 79 -31.5t27 -85.5q0 -46 -16 -93t-52 -83.5t-83 -36.5zM183 375q25 0 43.5 32.5t26 67t7.5 59.5q0 56 -39 56q-25 0 -43.5 -32t-26 -67t-7.5 -60q0 -56 39 -56z" />
    <glyph glyph-name="guillemotright" unicode="&#xbb;" horiz-adv-x="359" 
d="M73 420h73l50 -180l-130 -177h-77l133 181zM207 420h73l50 -180l-130 -177h-77l133 181z" />
    <glyph glyph-name="onequarter" unicode="&#xbc;" horiz-adv-x="617" 
d="M189 267h-73l66 302l-67 -57l-35 44l134 111h63zM570 95h-35l-21 -95h-72l20 95h-144l12 58l184 247h88l-54 -247h34zM475 153l36 162l-118 -162h82zM562 667l-424 -667h-46l423 667h47z" />
    <glyph glyph-name="onehalf" unicode="&#xbd;" horiz-adv-x="651" 
d="M189 267h-73l66 302l-67 -57l-35 44l134 111h63zM577 0h-232l13 58q130 117 170 163t40 81q0 21 -12.5 33t-33.5 12q-42 0 -77 -47l-37 47q52 59 119 59q49 0 82 -25.5t33 -71.5q0 -26 -9.5 -50t-40.5 -58.5t-55.5 -58.5t-88.5 -83h142zM562 667l-424 -667h-46l423 667
h47z" />
    <glyph glyph-name="threequarters" unicode="&#xbe;" horiz-adv-x="653" 
d="M606 95h-35l-21 -95h-72l20 95h-144l12 58l184 247h88l-54 -247h34zM511 153l36 162l-118 -162h82zM598 667l-424 -667h-46l423 667h47zM292 388q0 -48 -35.5 -88t-93.5 -40q-44 0 -77 18.5t-46 51.5l55 40q16 -51 65 -51q29 0 45 25t16 54q0 22 -13 33.5t-33 11.5
q-22 0 -28 -1l13 59q5 -1 32 -1q28 0 46 19t18 51q0 20 -12.5 32t-34.5 12q-41 0 -73 -42l-38 41q49 60 117 60q53 0 83.5 -24.5t30.5 -68.5q0 -38 -24.5 -72t-66.5 -40q54 -16 54 -80z" />
    <glyph glyph-name="questiondown" unicode="&#xbf;" horiz-adv-x="280" 
d="M119 260l86 30q10 -24 10 -61q0 -39 -16 -72t-38.5 -57t-45.5 -45.5t-39 -47.5t-16 -54q0 -25 14 -42t40 -17q34 0 61 23l30 -69q-54 -43 -120 -43q-59 0 -96.5 35t-37.5 86q0 50 27.5 94t60 71.5t60 62t27.5 66.5q0 25 -7 40zM204 493q25 0 41.5 -17t16.5 -42
q0 -28 -20.5 -48.5t-49.5 -20.5q-25 0 -42 17t-17 42q0 28 21 48.5t50 20.5z" />
    <glyph glyph-name="Agrave" unicode="&#xc0;" horiz-adv-x="398" 
d="M341 0h-104l7 136h-133l-52 -136h-110l283 667h120zM251 228l17 320l-124 -320h107zM346 723h-61l-71 144h85z" />
    <glyph glyph-name="Aacute" unicode="&#xc1;" horiz-adv-x="398" 
d="M341 0h-104l7 136h-133l-52 -136h-110l283 667h120zM251 228l17 320l-124 -320h107zM460 867l-135 -144h-63l111 144h87z" />
    <glyph glyph-name="Acircumflex" unicode="&#xc2;" horiz-adv-x="398" 
d="M414 723h-51l-36 98l-74 -98h-56l96 144h87zM341 0h-104l7 136h-133l-52 -136h-110l283 667h120zM251 228l17 320l-124 -320h107z" />
    <glyph glyph-name="Atilde" unicode="&#xc3;" horiz-adv-x="398" 
d="M341 0h-104l7 136h-133l-52 -136h-110l283 667h120zM251 228l17 320l-124 -320h107zM356 721q-21 0 -33.5 13t-16.5 28.5t-11 28.5t-18 13q-24 0 -41 -77h-51q30 134 99 134q21 0 34 -13t17 -28.5t11 -28.5t18 -13q24 0 41 77h51q-28 -134 -100 -134z" />
    <glyph glyph-name="Adieresis" unicode="&#xc4;" horiz-adv-x="398" 
d="M447 779q0 -23 -18.5 -41t-42.5 -18q-20 0 -34 13.5t-14 34.5q0 23 18.5 41t42.5 18q20 0 34 -13.5t14 -34.5zM294 779q0 -23 -18.5 -41t-42.5 -18q-20 0 -34 13.5t-14 34.5q0 23 18.5 41t42.5 18q20 0 34 -13.5t14 -34.5zM341 0h-104l7 136h-133l-52 -136h-110l283 667
h120zM251 228l17 320l-124 -320h107z" />
    <glyph glyph-name="Aring" unicode="&#xc5;" horiz-adv-x="398" 
d="M341 0h-104l7 136h-133l-52 -136h-110l283 667h120zM251 228l17 320l-124 -320h107zM307 693q-34 0 -55.5 22t-21.5 57q0 38 29 67t67 29q34 0 55.5 -22t21.5 -57q0 -38 -29 -67t-67 -29zM311 737q20 0 34.5 14.5t14.5 33.5q0 17 -10.5 28t-26.5 11q-20 0 -34.5 -14.5
t-14.5 -33.5q0 -17 10.5 -28t26.5 -11z" />
    <glyph glyph-name="AE" unicode="&#xc6;" horiz-adv-x="584" 
d="M494 0h-273l30 136h-116l-70 -136h-110l368 667h318l-20 -92h-168l-42 -189h162l-21 -92h-162l-44 -202h168zM272 228l68 309l-159 -309h91z" />
    <glyph glyph-name="Ccedilla" unicode="&#xc7;" horiz-adv-x="412" 
d="M142 -193q-55 0 -88 38l28 39q24 -32 61 -32q20 0 32.5 13t12.5 31q0 24 -23 24q-15 0 -26 -13l-33 21l39 66q-111 30 -111 196q0 49 9 109t30.5 127.5t51.5 123t77.5 92t103.5 36.5q73 0 108.5 -49.5t39.5 -125.5l-97 -19q-7 101 -58 101q-36 0 -67.5 -47t-50 -113.5
t-29.5 -130.5t-11 -107q0 -106 56 -106q44 0 88 83l83 -36q-68 -139 -176 -140l-26 -42q10 10 24 10q22 0 36 -16t14 -41q0 -39 -28.5 -65.5t-69.5 -26.5z" />
    <glyph glyph-name="Egrave" unicode="&#xc8;" horiz-adv-x="367" 
d="M276 0h-273l147 667h273l-20 -92h-169l-42 -189h162l-21 -92h-161l-45 -202h169zM340 723h-61l-71 144h85z" />
    <glyph glyph-name="Eacute" unicode="&#xc9;" horiz-adv-x="367" 
d="M454 867l-135 -144h-63l111 144h87zM276 0h-273l147 667h273l-20 -92h-169l-42 -189h162l-21 -92h-161l-45 -202h169z" />
    <glyph glyph-name="Ecircumflex" unicode="&#xca;" horiz-adv-x="367" 
d="M409 723h-51l-36 98l-74 -98h-56l96 144h87zM276 0h-273l147 667h273l-20 -92h-169l-42 -189h162l-21 -92h-161l-45 -202h169z" />
    <glyph glyph-name="Edieresis" unicode="&#xcb;" horiz-adv-x="367" 
d="M441 779q0 -23 -18.5 -41t-42.5 -18q-20 0 -34 13.5t-14 34.5q0 23 18.5 41t42.5 18q20 0 34 -13.5t14 -34.5zM288 779q0 -23 -18.5 -41t-42.5 -18q-20 0 -34 13.5t-14 34.5q0 23 18.5 41t42.5 18q20 0 34 -13.5t14 -34.5zM276 0h-273l147 667h273l-20 -92h-169l-42 -189
h162l-21 -92h-161l-45 -202h169z" />
    <glyph glyph-name="Igrave" unicode="&#xcc;" horiz-adv-x="218" 
d="M107 0h-104l147 667h104zM254 723h-61l-71 144h85z" />
    <glyph glyph-name="Iacute" unicode="&#xcd;" horiz-adv-x="218" 
d="M107 0h-104l147 667h104zM369 867l-135 -144h-63l111 144h87z" />
    <glyph glyph-name="Icircumflex" unicode="&#xce;" horiz-adv-x="218" 
d="M324 723h-51l-36 98l-74 -98h-56l96 144h87zM107 0h-104l147 667h104z" />
    <glyph glyph-name="Idieresis" unicode="&#xcf;" horiz-adv-x="218" 
d="M356 779q0 -23 -18.5 -41t-42.5 -18q-20 0 -34 13.5t-14 34.5q0 23 18.5 41t42.5 18q20 0 34 -13.5t14 -34.5zM203 779q0 -23 -18.5 -41t-42.5 -18q-20 0 -34 13.5t-14 34.5q0 23 18.5 41t42.5 18q20 0 34 -13.5t14 -34.5zM107 0h-104l147 667h104z" />
    <glyph glyph-name="Eth" unicode="&#xd0;" horiz-adv-x="476" 
d="M174 0h-150l64 291h-60l19 85h60l64 291h146q65 0 111 -54t46 -156q0 -33 -6 -76t-19 -96t-36.5 -102t-55 -91t-79 -67t-104.5 -25zM268 291h-76l-44 -199h44q45 0 81 44.5t55 108t29 119.5t10 92q0 60 -20 89.5t-50 29.5h-42l-44 -199h76z" />
    <glyph glyph-name="Ntilde" unicode="&#xd1;" horiz-adv-x="463" 
d="M389 721q-21 0 -33.5 13t-16.5 28.5t-11 28.5t-18 13q-24 0 -41 -77h-51q30 134 99 134q21 0 34 -13t17 -28.5t11 -28.5t18 -13q24 0 41 77h51q-28 -134 -100 -134zM353 0h-99l-57 409l-90 -409h-104l147 667h104l53 -396l88 396h105z" />
    <glyph glyph-name="Ograve" unicode="&#xd2;" horiz-adv-x="459" 
d="M375 723h-61l-71 144h85zM191 -12q-79 0 -118 56t-39 146q0 62 16 140.5t46.5 158.5t86 134.5t123.5 54.5q78 0 117.5 -57t39.5 -147q0 -47 -9.5 -107.5t-31 -127.5t-51.5 -122.5t-77.5 -92t-102.5 -36.5zM197 81q46 0 84.5 77t56.5 166.5t18 152.5q0 108 -57 108
q-46 0 -84.5 -77.5t-56 -167t-17.5 -153.5q0 -106 56 -106z" />
    <glyph glyph-name="Oacute" unicode="&#xd3;" horiz-adv-x="459" 
d="M491 867l-135 -144h-63l111 144h87zM191 -12q-79 0 -118 56t-39 146q0 62 16 140.5t46.5 158.5t86 134.5t123.5 54.5q78 0 117.5 -57t39.5 -147q0 -47 -9.5 -107.5t-31 -127.5t-51.5 -122.5t-77.5 -92t-102.5 -36.5zM197 81q46 0 84.5 77t56.5 166.5t18 152.5
q0 108 -57 108q-46 0 -84.5 -77.5t-56 -167t-17.5 -153.5q0 -106 56 -106z" />
    <glyph glyph-name="Ocircumflex" unicode="&#xd4;" horiz-adv-x="459" 
d="M444 723h-51l-36 98l-74 -98h-56l96 144h87zM191 -12q-79 0 -118 56t-39 146q0 62 16 140.5t46.5 158.5t86 134.5t123.5 54.5q78 0 117.5 -57t39.5 -147q0 -47 -9.5 -107.5t-31 -127.5t-51.5 -122.5t-77.5 -92t-102.5 -36.5zM197 81q46 0 84.5 77t56.5 166.5t18 152.5
q0 108 -57 108q-46 0 -84.5 -77.5t-56 -167t-17.5 -153.5q0 -106 56 -106z" />
    <glyph glyph-name="Otilde" unicode="&#xd5;" horiz-adv-x="459" 
d="M191 -12q-79 0 -118 56t-39 146q0 62 16 140.5t46.5 158.5t86 134.5t123.5 54.5q78 0 117.5 -57t39.5 -147q0 -47 -9.5 -107.5t-31 -127.5t-51.5 -122.5t-77.5 -92t-102.5 -36.5zM197 81q46 0 84.5 77t56.5 166.5t18 152.5q0 108 -57 108q-46 0 -84.5 -77.5t-56 -167
t-17.5 -153.5q0 -106 56 -106zM386 721q-21 0 -33.5 13t-16.5 28.5t-11 28.5t-18 13q-24 0 -41 -77h-51q30 134 99 134q21 0 34 -13t17 -28.5t11 -28.5t18 -13q24 0 41 77h51q-28 -134 -100 -134z" />
    <glyph glyph-name="Odieresis" unicode="&#xd6;" horiz-adv-x="459" 
d="M477 779q0 -23 -18.5 -41t-42.5 -18q-20 0 -34 13.5t-14 34.5q0 23 18.5 41t42.5 18q20 0 34 -13.5t14 -34.5zM324 779q0 -23 -18.5 -41t-42.5 -18q-20 0 -34 13.5t-14 34.5q0 23 18.5 41t42.5 18q20 0 34 -13.5t14 -34.5zM191 -12q-79 0 -118 56t-39 146q0 62 16 140.5
t46.5 158.5t86 134.5t123.5 54.5q78 0 117.5 -57t39.5 -147q0 -47 -9.5 -107.5t-31 -127.5t-51.5 -122.5t-77.5 -92t-102.5 -36.5zM197 81q46 0 84.5 77t56.5 166.5t18 152.5q0 108 -57 108q-46 0 -84.5 -77.5t-56 -167t-17.5 -153.5q0 -106 56 -106z" />
    <glyph glyph-name="multiply" unicode="&#xd7;" horiz-adv-x="381" 
d="M283 189l-79 101l-128 -105l-38 48l129 105l-79 101l49 40l78 -101l129 105l38 -48l-128 -105l78 -101z" />
    <glyph glyph-name="Oslash" unicode="&#xd8;" horiz-adv-x="459" 
d="M191 -12q-70 0 -111 47l-23 -35h-64l58 86q-17 42 -17 104t16 140.5t46.5 158.5t86 134.5t123.5 54.5q69 0 111 -49l25 38h64l-60 -89q17 -48 17 -104q0 -47 -9.5 -107.5t-31 -127.5t-51.5 -122.5t-77.5 -92t-102.5 -36.5zM299 585q-32 0 -61 -38.5t-48 -96.5
t-31.5 -117.5t-16.5 -111.5l209 310q-13 54 -52 54zM197 81q42 0 78 65.5t54.5 144.5t24.5 150l-208 -309q11 -51 51 -51z" />
    <glyph glyph-name="Ugrave" unicode="&#xd9;" horiz-adv-x="464" 
d="M197 -12q-69 0 -113.5 42t-44.5 113q0 22 5 45l106 479h104l-108 -488q-3 -21 -3 -32q0 -32 17 -49.5t45 -17.5q32 0 52 23t32 76l107 488h104l-106 -483q-44 -196 -197 -196zM376 723h-61l-71 144h85z" />
    <glyph glyph-name="Uacute" unicode="&#xda;" horiz-adv-x="464" 
d="M492 867l-135 -144h-63l111 144h87zM197 -12q-69 0 -113.5 42t-44.5 113q0 22 5 45l106 479h104l-108 -488q-3 -21 -3 -32q0 -32 17 -49.5t45 -17.5q32 0 52 23t32 76l107 488h104l-106 -483q-44 -196 -197 -196z" />
    <glyph glyph-name="Ucircumflex" unicode="&#xdb;" horiz-adv-x="464" 
d="M446 723h-51l-36 98l-74 -98h-56l96 144h87zM197 -12q-69 0 -113.5 42t-44.5 113q0 22 5 45l106 479h104l-108 -488q-3 -21 -3 -32q0 -32 17 -49.5t45 -17.5q32 0 52 23t32 76l107 488h104l-106 -483q-44 -196 -197 -196z" />
    <glyph glyph-name="Udieresis" unicode="&#xdc;" horiz-adv-x="464" 
d="M478 779q0 -23 -18.5 -41t-42.5 -18q-20 0 -34 13.5t-14 34.5q0 23 18.5 41t42.5 18q20 0 34 -13.5t14 -34.5zM325 779q0 -23 -18.5 -41t-42.5 -18q-20 0 -34 13.5t-14 34.5q0 23 18.5 41t42.5 18q20 0 34 -13.5t14 -34.5zM197 -12q-69 0 -113.5 42t-44.5 113q0 22 5 45
l106 479h104l-108 -488q-3 -21 -3 -32q0 -32 17 -49.5t45 -17.5q32 0 52 23t32 76l107 488h104l-106 -483q-44 -196 -197 -196z" />
    <glyph glyph-name="Yacute" unicode="&#xdd;" horiz-adv-x="405" 
d="M201 0h-104l61 279l-68 388h107l31 -285l158 285h115l-239 -388zM465 867l-135 -144h-63l111 144h87z" />
    <glyph glyph-name="Thorn" unicode="&#xde;" horiz-adv-x="418" 
d="M107 0h-104l147 667h104l-25 -115h43q65 0 106 -45t41 -116q0 -44 -13.5 -87t-39.5 -80.5t-71 -60.5t-102 -23h-55zM202 232q49 0 78.5 45t29.5 104q0 37 -16.5 58t-45.5 21h-40l-50 -228h44z" />
    <glyph glyph-name="germandbls" unicode="&#xdf;" horiz-adv-x="489" 
d="M453 149q0 -62 -44 -111.5t-114 -49.5q-96 0 -143 67l50 61q33 -52 83 -52q26 0 46 20t20 51q0 18 -12.5 35t-30.5 31.5t-36.5 31t-31 41t-12.5 54.5q0 35 14.5 62t35 43.5t40.5 30.5t34.5 32t14.5 41q0 26 -18.5 41.5t-50.5 15.5q-69 0 -90 -92l-111 -502h-93l110 502
q18 80 67.5 127.5t124.5 47.5q67 0 112.5 -36.5t45.5 -93.5q0 -41 -22 -72.5t-48 -47t-48 -37t-22 -45.5q0 -18 13.5 -34.5t32 -30.5t37.5 -30.5t32.5 -42.5t13.5 -58z" />
    <glyph glyph-name="agrave" unicode="&#xe0;" horiz-adv-x="406" 
d="M209 495q72 0 92 -77l15 65h93l-107 -483h-94l14 60q-45 -72 -102 -72q-50 0 -76 38t-26 111q0 49 12 108.5t34.5 116.5t60.5 95t84 38zM229 412q-35 0 -63 -51.5t-39.5 -110t-11.5 -102.5q0 -77 51 -77q19 0 39.5 19.5t33.5 47.5l46 206q-3 29 -19 48.5t-37 19.5z
M310 556h-61l-71 144h85z" />
    <glyph glyph-name="aacute" unicode="&#xe1;" horiz-adv-x="406" 
d="M209 495q72 0 92 -77l15 65h93l-107 -483h-94l14 60q-45 -72 -102 -72q-50 0 -76 38t-26 111q0 49 12 108.5t34.5 116.5t60.5 95t84 38zM229 412q-35 0 -63 -51.5t-39.5 -110t-11.5 -102.5q0 -77 51 -77q19 0 39.5 19.5t33.5 47.5l46 206q-3 29 -19 48.5t-37 19.5z
M424 700l-135 -144h-63l111 144h87z" />
    <glyph glyph-name="acircumflex" unicode="&#xe2;" horiz-adv-x="406" 
d="M209 495q72 0 92 -77l15 65h93l-107 -483h-94l14 60q-45 -72 -102 -72q-50 0 -76 38t-26 111q0 49 12 108.5t34.5 116.5t60.5 95t84 38zM229 412q-35 0 -63 -51.5t-39.5 -110t-11.5 -102.5q0 -77 51 -77q19 0 39.5 19.5t33.5 47.5l46 206q-3 29 -19 48.5t-37 19.5z
M378 556h-51l-36 98l-74 -98h-56l96 144h87z" />
    <glyph glyph-name="atilde" unicode="&#xe3;" horiz-adv-x="406" 
d="M209 495q72 0 92 -77l15 65h93l-107 -483h-94l14 60q-45 -72 -102 -72q-50 0 -76 38t-26 111q0 49 12 108.5t34.5 116.5t60.5 95t84 38zM229 412q-35 0 -63 -51.5t-39.5 -110t-11.5 -102.5q0 -77 51 -77q19 0 39.5 19.5t33.5 47.5l46 206q-3 29 -19 48.5t-37 19.5z
M320 554q-21 0 -33.5 13t-16.5 28.5t-11 28.5t-18 13q-24 0 -41 -77h-51q30 134 99 134q21 0 34 -13t17 -28.5t11 -28.5t18 -13q24 0 41 77h51q-28 -134 -100 -134z" />
    <glyph glyph-name="adieresis" unicode="&#xe4;" horiz-adv-x="406" 
d="M209 495q72 0 92 -77l15 65h93l-107 -483h-94l14 60q-45 -72 -102 -72q-50 0 -76 38t-26 111q0 49 12 108.5t34.5 116.5t60.5 95t84 38zM229 412q-35 0 -63 -51.5t-39.5 -110t-11.5 -102.5q0 -77 51 -77q19 0 39.5 19.5t33.5 47.5l46 206q-3 29 -19 48.5t-37 19.5z
M411 612q0 -23 -18.5 -41t-42.5 -18q-20 0 -34 13.5t-14 34.5q0 23 18.5 41t42.5 18q20 0 34 -13.5t14 -34.5zM258 612q0 -23 -18.5 -41t-42.5 -18q-20 0 -34 13.5t-14 34.5q0 23 18.5 41t42.5 18q20 0 34 -13.5t14 -34.5z" />
    <glyph glyph-name="aring" unicode="&#xe5;" horiz-adv-x="406" 
d="M209 495q72 0 92 -77l15 65h93l-107 -483h-94l14 60q-45 -72 -102 -72q-50 0 -76 38t-26 111q0 49 12 108.5t34.5 116.5t60.5 95t84 38zM229 412q-35 0 -63 -51.5t-39.5 -110t-11.5 -102.5q0 -77 51 -77q19 0 39.5 19.5t33.5 47.5l46 206q-3 29 -19 48.5t-37 19.5z
M275 533q-34 0 -55.5 22t-21.5 57q0 38 29 67t67 29q34 0 55.5 -22t21.5 -57q0 -38 -29 -67t-67 -29zM279 577q20 0 34.5 14.5t14.5 33.5q0 17 -10.5 28t-26.5 11q-20 0 -34.5 -14.5t-14.5 -33.5q0 -17 10.5 -28t26.5 -11z" />
    <glyph glyph-name="ae" unicode="&#xe6;" horiz-adv-x="626" 
d="M229 412q-35 0 -63 -51.5t-39.5 -110t-11.5 -102.5q0 -77 51 -77q19 0 39.5 19.5t33.5 47.5l46 206q-3 29 -19 48.5t-37 19.5zM322 87l-20 -87h-94l14 60q-45 -72 -102 -72q-50 0 -76 38t-26 111q0 49 12 108.5t34.5 116.5t60.5 95t84 38q72 0 92 -77l15 65h93l-13 -59
q45 71 106 71q107 -2 107 -151q0 -61 -19 -133h-240q-5 -24 -5 -53q0 -40 20.5 -66t62.5 -26q41 0 84 48l35 -65q-53 -61 -117 -61q-93 0 -108 99zM364 278h151q8 34 8 60q0 36 -14.5 58t-41.5 22q-41 0 -67.5 -43.5t-35.5 -96.5z" />
    <glyph glyph-name="ccedilla" unicode="&#xe7;" horiz-adv-x="333" 
d="M120 -193q-55 0 -88 38l28 39q24 -32 61 -32q20 0 32.5 13t12.5 31q0 24 -23 24q-15 0 -26 -13l-33 21l39 66q-102 28 -102 168q0 74 24.5 148.5t77 129.5t119.5 55q74 0 113 -49l-47 -70q-20 36 -60 36q-39 0 -70 -43t-45.5 -97.5t-14.5 -102.5q0 -98 72 -98q33 0 60 29
l19 -74q-42 -38 -99 -38l-26 -42q10 10 24 10q22 0 36 -16t14 -41q0 -39 -28.5 -65.5t-69.5 -26.5z" />
    <glyph glyph-name="egrave" unicode="&#xe8;" horiz-adv-x="391" 
d="M174 -12q-73 0 -113.5 45t-40.5 130q0 34 7.5 76t25 87.5t42 83t61.5 61.5t80 24q138 0 138 -158q0 -50 -19 -126h-241q-6 -23 -6 -53q0 -40 19.5 -66.5t62.5 -26.5q45 0 85 47l36 -58q-58 -66 -137 -66zM127 278h153q8 32 8 60q0 35 -15.5 57.5t-43.5 22.5
q-41 0 -67 -43.5t-35 -96.5zM314 556h-61l-71 144h85z" />
    <glyph glyph-name="eacute" unicode="&#xe9;" horiz-adv-x="391" 
d="M430 700l-135 -144h-63l111 144h87zM174 -12q-73 0 -113.5 45t-40.5 130q0 34 7.5 76t25 87.5t42 83t61.5 61.5t80 24q138 0 138 -158q0 -50 -19 -126h-241q-6 -23 -6 -53q0 -40 19.5 -66.5t62.5 -26.5q45 0 85 47l36 -58q-58 -66 -137 -66zM127 278h153q8 32 8 60
q0 35 -15.5 57.5t-43.5 22.5q-41 0 -67 -43.5t-35 -96.5z" />
    <glyph glyph-name="ecircumflex" unicode="&#xea;" horiz-adv-x="391" 
d="M383 556h-51l-36 98l-74 -98h-56l96 144h87zM174 -12q-73 0 -113.5 45t-40.5 130q0 34 7.5 76t25 87.5t42 83t61.5 61.5t80 24q138 0 138 -158q0 -50 -19 -126h-241q-6 -23 -6 -53q0 -40 19.5 -66.5t62.5 -26.5q45 0 85 47l36 -58q-58 -66 -137 -66zM127 278h153
q8 32 8 60q0 35 -15.5 57.5t-43.5 22.5q-41 0 -67 -43.5t-35 -96.5z" />
    <glyph glyph-name="edieresis" unicode="&#xeb;" horiz-adv-x="391" 
d="M416 612q0 -23 -18.5 -41t-42.5 -18q-20 0 -34 13.5t-14 34.5q0 23 18.5 41t42.5 18q20 0 34 -13.5t14 -34.5zM263 612q0 -23 -18.5 -41t-42.5 -18q-20 0 -34 13.5t-14 34.5q0 23 18.5 41t42.5 18q20 0 34 -13.5t14 -34.5zM174 -12q-73 0 -113.5 45t-40.5 130
q0 34 7.5 76t25 87.5t42 83t61.5 61.5t80 24q138 0 138 -158q0 -50 -19 -126h-241q-6 -23 -6 -53q0 -40 19.5 -66.5t62.5 -26.5q45 0 85 47l36 -58q-58 -66 -137 -66zM127 278h153q8 32 8 60q0 35 -15.5 57.5t-43.5 22.5q-41 0 -67 -43.5t-35 -96.5z" />
    <glyph glyph-name="igrave" unicode="&#xec;" horiz-adv-x="194" 
d="M90 0h-94l107 483h94zM206 556h-61l-71 144h85z" />
    <glyph glyph-name="iacute" unicode="&#xed;" horiz-adv-x="194" 
d="M320 700l-135 -144h-63l111 144h87zM90 0h-94l107 483h94z" />
    <glyph glyph-name="icircumflex" unicode="&#xee;" horiz-adv-x="194" 
d="M276 556h-51l-36 98l-74 -98h-56l96 144h87zM90 0h-94l107 483h94z" />
    <glyph glyph-name="idieresis" unicode="&#xef;" horiz-adv-x="194" 
d="M308 612q0 -23 -18.5 -41t-42.5 -18q-20 0 -34 13.5t-14 34.5q0 23 18.5 41t42.5 18q20 0 34 -13.5t14 -34.5zM155 612q0 -23 -18.5 -41t-42.5 -18q-20 0 -34 13.5t-14 34.5q0 23 18.5 41t42.5 18q20 0 34 -13.5t14 -34.5zM90 0h-94l107 483h94z" />
    <glyph glyph-name="eth" unicode="&#xf0;" 
d="M186 507l-11 48l105 31q-10 52 -22 81l93 29q13 -40 23 -82l70 21l11 -47l-71 -22q10 -60 10 -142q0 -69 -12.5 -141t-38 -140t-71.5 -111.5t-105 -43.5q-74 0 -111 44t-37 123q0 67 22 138t68 125t104 54q35 0 58 -20.5t30 -55.5q-2 69 -12 142zM169 71q25 0 47.5 26.5
t36 65t21 77.5t7.5 69q0 32 -13 56t-42 24q-34 0 -60.5 -45.5t-38.5 -98t-12 -91.5q0 -83 54 -83z" />
    <glyph glyph-name="ntilde" unicode="&#xf1;" 
d="M298 0h-94l79 355q3 15 3 22q0 35 -34 35q-45 0 -88 -72l-74 -340h-94l107 483h94l-14 -62q54 74 120 74q39 0 61.5 -21t22.5 -57q0 -18 -4 -30zM322 554q-21 0 -33.5 13t-16.5 28.5t-11 28.5t-18 13q-24 0 -41 -77h-51q30 134 99 134q21 0 34 -13t17 -28.5t11 -28.5
t18 -13q24 0 41 77h51q-28 -134 -100 -134z" />
    <glyph glyph-name="ograve" unicode="&#xf2;" 
d="M163 -12q-69 0 -106 43.5t-37 124.5q0 74 23.5 149.5t75 132.5t118.5 57q69 0 106 -43t37 -125q0 -74 -23.5 -149.5t-75 -132.5t-118.5 -57zM169 71q35 0 63 49.5t40.5 107t12.5 100.5q0 84 -53 84q-35 0 -63.5 -49.5t-41 -107.5t-12.5 -101q0 -83 54 -83zM311 556h-61
l-71 144h85z" />
    <glyph glyph-name="oacute" unicode="&#xf3;" 
d="M426 700l-135 -144h-63l111 144h87zM163 -12q-69 0 -106 43.5t-37 124.5q0 74 23.5 149.5t75 132.5t118.5 57q69 0 106 -43t37 -125q0 -74 -23.5 -149.5t-75 -132.5t-118.5 -57zM169 71q35 0 63 49.5t40.5 107t12.5 100.5q0 84 -53 84q-35 0 -63.5 -49.5t-41 -107.5
t-12.5 -101q0 -83 54 -83z" />
    <glyph glyph-name="ocircumflex" unicode="&#xf4;" 
d="M380 556h-51l-36 98l-74 -98h-56l96 144h87zM163 -12q-69 0 -106 43.5t-37 124.5q0 74 23.5 149.5t75 132.5t118.5 57q69 0 106 -43t37 -125q0 -74 -23.5 -149.5t-75 -132.5t-118.5 -57zM169 71q35 0 63 49.5t40.5 107t12.5 100.5q0 84 -53 84q-35 0 -63.5 -49.5
t-41 -107.5t-12.5 -101q0 -83 54 -83z" />
    <glyph glyph-name="otilde" unicode="&#xf5;" 
d="M163 -12q-69 0 -106 43.5t-37 124.5q0 74 23.5 149.5t75 132.5t118.5 57q69 0 106 -43t37 -125q0 -74 -23.5 -149.5t-75 -132.5t-118.5 -57zM169 71q35 0 63 49.5t40.5 107t12.5 100.5q0 84 -53 84q-35 0 -63.5 -49.5t-41 -107.5t-12.5 -101q0 -83 54 -83zM322 554
q-21 0 -33.5 13t-16.5 28.5t-11 28.5t-18 13q-24 0 -41 -77h-51q30 134 99 134q21 0 34 -13t17 -28.5t11 -28.5t18 -13q24 0 41 77h51q-28 -134 -100 -134z" />
    <glyph glyph-name="odieresis" unicode="&#xf6;" 
d="M413 612q0 -23 -18.5 -41t-42.5 -18q-20 0 -34 13.5t-14 34.5q0 23 18.5 41t42.5 18q20 0 34 -13.5t14 -34.5zM260 612q0 -23 -18.5 -41t-42.5 -18q-20 0 -34 13.5t-14 34.5q0 23 18.5 41t42.5 18q20 0 34 -13.5t14 -34.5zM163 -12q-69 0 -106 43.5t-37 124.5
q0 74 23.5 149.5t75 132.5t118.5 57q69 0 106 -43t37 -125q0 -74 -23.5 -149.5t-75 -132.5t-118.5 -57zM169 71q35 0 63 49.5t40.5 107t12.5 100.5q0 84 -53 84q-35 0 -63.5 -49.5t-41 -107.5t-12.5 -101q0 -83 54 -83z" />
    <glyph glyph-name="divide" unicode="&#xf7;" horiz-adv-x="374" 
d="M359 306h-316l13 62h316zM171 141q-20 0 -33.5 13.5t-13.5 32.5q0 23 16.5 39.5t39.5 16.5q19 0 33 -14t14 -33q0 -23 -16.5 -39t-39.5 -16zM235 429q-19 0 -32.5 13.5t-13.5 33.5q0 23 16.5 39t39.5 16q19 0 32.5 -13.5t13.5 -33.5q0 -23 -16.5 -39t-39.5 -16z" />
    <glyph glyph-name="oslash" unicode="&#xf8;" 
d="M42 0h-58l51 66q-15 38 -15 90q0 74 23.5 149.5t75 132.5t118.5 57q65 0 101 -38l21 26h58l-53 -68q16 -38 16 -88q0 -74 -23.5 -149.5t-75 -132.5t-118.5 -57q-65 0 -101 38zM232 412q-48 0 -80 -81.5t-37 -161.5l163 209q-12 34 -46 34zM169 71q47 0 79 82t36 159
l-162 -209q12 -32 47 -32z" />
    <glyph glyph-name="ugrave" unicode="&#xf9;" 
d="M103 483h94l-79 -355q-3 -14 -3 -22q0 -35 34 -35q45 0 86 69l76 343h94l-107 -483h-94l14 62q-54 -74 -120 -74q-39 0 -61.5 21t-22.5 57q0 18 4 30zM312 556h-61l-71 144h85z" />
    <glyph glyph-name="uacute" unicode="&#xfa;" 
d="M426 700l-135 -144h-63l111 144h87zM103 483h94l-79 -355q-3 -14 -3 -22q0 -35 34 -35q45 0 86 69l76 343h94l-107 -483h-94l14 62q-54 -74 -120 -74q-39 0 -61.5 21t-22.5 57q0 18 4 30z" />
    <glyph glyph-name="ucircumflex" unicode="&#xfb;" 
d="M380 556h-51l-36 98l-74 -98h-56l96 144h87zM103 483h94l-79 -355q-3 -14 -3 -22q0 -35 34 -35q45 0 86 69l76 343h94l-107 -483h-94l14 62q-54 -74 -120 -74q-39 0 -61.5 21t-22.5 57q0 18 4 30z" />
    <glyph glyph-name="udieresis" unicode="&#xfc;" 
d="M413 612q0 -23 -18.5 -41t-42.5 -18q-20 0 -34 13.5t-14 34.5q0 23 18.5 41t42.5 18q20 0 34 -13.5t14 -34.5zM260 612q0 -23 -18.5 -41t-42.5 -18q-20 0 -34 13.5t-14 34.5q0 23 18.5 41t42.5 18q20 0 34 -13.5t14 -34.5zM103 483h94l-79 -355q-3 -14 -3 -22
q0 -35 34 -35q45 0 86 69l76 343h94l-107 -483h-94l14 62q-54 -74 -120 -74q-39 0 -61.5 21t-22.5 57q0 18 4 30z" />
    <glyph glyph-name="yacute" unicode="&#xfd;" horiz-adv-x="357" 
d="M-57 -185l31 78q6 -6 23 -6q24 0 44 39l31 64l-14 493h97l-8 -364l156 364h102l-276 -577q-29 -58 -57 -80t-68 -22q-35 0 -61 11zM399 700l-135 -144h-63l111 144h87z" />
    <glyph glyph-name="thorn" unicode="&#xfe;" horiz-adv-x="406" 
d="M196 -12q-71 0 -92 77l-55 -249h-93l187 851h94l-54 -244q45 72 102 72q50 0 76 -38t26 -111q0 -49 -12 -108.5t-34.5 -116.5t-60.5 -95t-84 -38zM177 71q35 0 62.5 51.5t39 110t11.5 102.5q0 77 -51 77q-19 0 -39.5 -19.5t-33.5 -47.5l-46 -206q3 -29 19 -48.5t38 -19.5
z" />
    <glyph glyph-name="ydieresis" unicode="&#xff;" horiz-adv-x="357" 
d="M-57 -185l31 78q6 -6 23 -6q24 0 44 39l31 64l-14 493h97l-8 -364l156 364h102l-276 -577q-29 -58 -57 -80t-68 -22q-35 0 -61 11zM387 612q0 -23 -18.5 -41t-42.5 -18q-20 0 -34 13.5t-14 34.5q0 23 18.5 41t42.5 18q20 0 34 -13.5t14 -34.5zM234 612q0 -23 -18.5 -41
t-42.5 -18q-20 0 -34 13.5t-14 34.5q0 23 18.5 41t42.5 18q20 0 34 -13.5t14 -34.5z" />
    <glyph glyph-name="Amacron" unicode="&#x100;" horiz-adv-x="398" 
d="M341 0h-104l7 136h-133l-52 -136h-110l283 667h120zM251 228l17 320l-124 -320h107zM435 735h-253l12 57h253z" />
    <glyph glyph-name="amacron" unicode="&#x101;" horiz-adv-x="406" 
d="M209 495q72 0 92 -77l15 65h93l-107 -483h-94l14 60q-45 -72 -102 -72q-50 0 -76 38t-26 111q0 49 12 108.5t34.5 116.5t60.5 95t84 38zM229 412q-35 0 -63 -51.5t-39.5 -110t-11.5 -102.5q0 -77 51 -77q19 0 39.5 19.5t33.5 47.5l46 206q-3 29 -19 48.5t-37 19.5z
M399 568h-253l12 57h253z" />
    <glyph glyph-name="Abreve" unicode="&#x102;" horiz-adv-x="398" 
d="M341 0h-104l7 136h-133l-52 -136h-110l283 667h120zM251 228l17 320l-124 -320h107zM436 777q-59 -62 -135 -62t-109 62l50 35q18 -40 68 -40t84 40z" />
    <glyph glyph-name="abreve" unicode="&#x103;" horiz-adv-x="406" 
d="M209 495q72 0 92 -77l15 65h93l-107 -483h-94l14 60q-45 -72 -102 -72q-50 0 -76 38t-26 111q0 49 12 108.5t34.5 116.5t60.5 95t84 38zM229 412q-35 0 -63 -51.5t-39.5 -110t-11.5 -102.5q0 -77 51 -77q19 0 39.5 19.5t33.5 47.5l46 206q-3 29 -19 48.5t-37 19.5z
M400 610q-59 -62 -135 -62t-109 62l50 35q18 -40 68 -40t84 40z" />
    <glyph glyph-name="Aogonek" unicode="&#x104;" horiz-adv-x="398" 
d="M310 -112l37 -26q-28 -48 -75 -48q-31 0 -49.5 15.5t-18.5 46.5q0 67 69 124h-36l7 136h-133l-52 -136h-110l283 667h120l-11 -667q-87 -55 -87 -119q0 -23 23 -23q22 0 33 30zM251 228l17 320l-124 -320h107z" />
    <glyph glyph-name="aogonek" unicode="&#x105;" horiz-adv-x="406" 
d="M271 -112l37 -26q-28 -48 -75 -48q-31 0 -49.5 15.5t-18.5 46.5q0 67 69 124h-26l14 60q-45 -72 -102 -72q-50 0 -76 38t-26 111q0 49 12 108.5t34.5 116.5t60.5 95t84 38q72 0 92 -77l15 65h93l-107 -483q-87 -55 -87 -119q0 -23 23 -23q22 0 33 30zM229 412
q-35 0 -63 -51.5t-39.5 -110t-11.5 -102.5q0 -77 51 -77q19 0 39.5 19.5t33.5 47.5l46 206q-3 29 -19 48.5t-37 19.5z" />
    <glyph glyph-name="Cacute" unicode="&#x106;" horiz-adv-x="412" 
d="M490 872l-135 -144h-63l111 144h87zM191 -12q-75 0 -116 52.5t-41 149.5q0 49 9 109t30.5 127.5t51.5 123t77.5 92t103.5 36.5q73 0 108.5 -49.5t39.5 -125.5l-97 -19q-7 101 -58 101q-36 0 -67.5 -47t-50 -113.5t-29.5 -130.5t-11 -107q0 -106 56 -106q44 0 88 83
l83 -36q-68 -140 -177 -140z" />
    <glyph glyph-name="cacute" unicode="&#x107;" horiz-adv-x="333" 
d="M433 700l-135 -144h-63l111 144h87zM170 -12q-70 0 -109.5 44.5t-39.5 129.5q0 74 24.5 148.5t77 129.5t119.5 55q74 0 113 -49l-47 -70q-20 36 -60 36q-39 0 -70 -43t-45.5 -97.5t-14.5 -102.5q0 -98 72 -98q33 0 60 29l19 -74q-42 -38 -99 -38z" />
    <glyph glyph-name="Ccircumflex" unicode="&#x108;" horiz-adv-x="412" 
d="M444 723h-51l-36 98l-74 -98h-56l96 144h87zM191 -12q-75 0 -116 52.5t-41 149.5q0 49 9 109t30.5 127.5t51.5 123t77.5 92t103.5 36.5q73 0 108.5 -49.5t39.5 -125.5l-97 -19q-7 101 -58 101q-36 0 -67.5 -47t-50 -113.5t-29.5 -130.5t-11 -107q0 -106 56 -106
q44 0 88 83l83 -36q-68 -140 -177 -140z" />
    <glyph glyph-name="ccircumflex" unicode="&#x109;" horiz-adv-x="333" 
d="M387 556h-51l-36 98l-74 -98h-56l96 144h87zM170 -12q-70 0 -109.5 44.5t-39.5 129.5q0 74 24.5 148.5t77 129.5t119.5 55q74 0 113 -49l-47 -70q-20 36 -60 36q-39 0 -70 -43t-45.5 -97.5t-14.5 -102.5q0 -98 72 -98q33 0 60 29l19 -74q-42 -38 -99 -38z" />
    <glyph glyph-name="Cdotaccent" unicode="&#x10a;" horiz-adv-x="412" 
d="M191 -12q-75 0 -116 52.5t-41 149.5q0 49 9 109t30.5 127.5t51.5 123t77.5 92t103.5 36.5q73 0 108.5 -49.5t39.5 -125.5l-97 -19q-7 101 -58 101q-36 0 -67.5 -47t-50 -113.5t-29.5 -130.5t-11 -107q0 -106 56 -106q44 0 88 83l83 -36q-68 -140 -177 -140zM400 779
q0 -25 -18.5 -43t-42.5 -18q-21 0 -35 14t-14 35q0 24 18.5 42t43.5 18q21 0 34.5 -14t13.5 -34z" />
    <glyph glyph-name="cdotaccent" unicode="&#x10b;" horiz-adv-x="333" 
d="M170 -12q-70 0 -109.5 44.5t-39.5 129.5q0 74 24.5 148.5t77 129.5t119.5 55q74 0 113 -49l-47 -70q-20 36 -60 36q-39 0 -70 -43t-45.5 -97.5t-14.5 -102.5q0 -98 72 -98q33 0 60 29l19 -74q-42 -38 -99 -38zM344 612q0 -25 -18.5 -43t-42.5 -18q-21 0 -35 14t-14 35
q0 24 18.5 42t43.5 18q21 0 34.5 -14t13.5 -34z" />
    <glyph glyph-name="Ccaron" unicode="&#x10c;" horiz-adv-x="412" 
d="M382 723h-87l-35 144h52l34 -98l76 98h55zM191 -12q-75 0 -116 52.5t-41 149.5q0 49 9 109t30.5 127.5t51.5 123t77.5 92t103.5 36.5q73 0 108.5 -49.5t39.5 -125.5l-97 -19q-7 101 -58 101q-36 0 -67.5 -47t-50 -113.5t-29.5 -130.5t-11 -107q0 -106 56 -106q44 0 88 83
l83 -36q-68 -140 -177 -140z" />
    <glyph glyph-name="ccaron" unicode="&#x10d;" horiz-adv-x="333" 
d="M322 556h-87l-35 144h52l34 -98l76 98h55zM170 -12q-70 0 -109.5 44.5t-39.5 129.5q0 74 24.5 148.5t77 129.5t119.5 55q74 0 113 -49l-47 -70q-20 36 -60 36q-39 0 -70 -43t-45.5 -97.5t-14.5 -102.5q0 -98 72 -98q33 0 60 29l19 -74q-42 -38 -99 -38z" />
    <glyph glyph-name="Dcaron" unicode="&#x10e;" horiz-adv-x="455" 
d="M387 723h-87l-35 144h52l34 -98l76 98h55zM153 0h-150l147 667h146q65 0 111 -54t46 -156q0 -33 -6 -76t-19 -96t-36.5 -102t-55 -91t-79 -67t-104.5 -25zM127 92h44q45 0 81 44.5t55 108t29 119.5t10 92q0 60 -20 89.5t-50 29.5h-42z" />
    <glyph glyph-name="dcaron" unicode="&#x10f;" horiz-adv-x="506" 
d="M591 624q0 -43 -31.5 -85.5t-76.5 -65.5l-29 32q26 13 47.5 33.5t29.5 41.5q-1 -1 -8 -1q-16 0 -28 12t-12 31q0 23 17.5 40t39.5 17t36.5 -14.5t14.5 -40.5zM209 495q72 0 92 -77l55 249h94l-148 -667h-94l14 60q-45 -72 -102 -72q-50 0 -76 38t-26 111q0 49 12 108.5
t34.5 116.5t60.5 95t84 38zM229 412q-35 0 -63 -51.5t-39.5 -110t-11.5 -102.5q0 -77 51 -77q19 0 39.5 19.5t33.5 47.5l46 206q-3 29 -19 48.5t-37 19.5z" />
    <glyph glyph-name="Dcroat" unicode="&#x110;" horiz-adv-x="476" 
d="M174 0h-150l64 291h-60l19 85h60l64 291h146q65 0 111 -54t46 -156q0 -33 -6 -76t-19 -96t-36.5 -102t-55 -91t-79 -67t-104.5 -25zM268 291h-76l-44 -199h44q45 0 81 44.5t55 108t29 119.5t10 92q0 60 -20 89.5t-50 29.5h-42l-44 -199h76z" />
    <glyph glyph-name="dcroat" unicode="&#x111;" horiz-adv-x="406" 
d="M209 495q72 0 92 -77l25 115h-119l12 57h120l17 77h94l-17 -77h39l-12 -57h-40l-118 -533h-94l14 60q-45 -72 -102 -72q-50 0 -76 38t-26 111q0 49 12 108.5t34.5 116.5t60.5 95t84 38zM229 412q-35 0 -63 -51.5t-39.5 -110t-11.5 -102.5q0 -77 51 -77q19 0 39.5 19.5
t33.5 47.5l46 206q-3 29 -19 48.5t-37 19.5z" />
    <glyph glyph-name="Emacron" unicode="&#x112;" horiz-adv-x="367" 
d="M276 0h-273l147 667h273l-20 -92h-169l-42 -189h162l-21 -92h-161l-45 -202h169zM428 735h-253l12 57h253z" />
    <glyph glyph-name="emacron" unicode="&#x113;" horiz-adv-x="391" 
d="M174 -12q-73 0 -113.5 45t-40.5 130q0 34 7.5 76t25 87.5t42 83t61.5 61.5t80 24q138 0 138 -158q0 -50 -19 -126h-241q-6 -23 -6 -53q0 -40 19.5 -66.5t62.5 -26.5q45 0 85 47l36 -58q-58 -66 -137 -66zM127 278h153q8 32 8 60q0 35 -15.5 57.5t-43.5 22.5
q-41 0 -67 -43.5t-35 -96.5zM405 568h-253l12 57h253z" />
    <glyph glyph-name="Ebreve" unicode="&#x114;" horiz-adv-x="367" 
d="M276 0h-273l147 667h273l-20 -92h-169l-42 -189h162l-21 -92h-161l-45 -202h169zM429 777q-59 -62 -135 -62t-109 62l50 35q18 -40 68 -40t84 40z" />
    <glyph glyph-name="ebreve" unicode="&#x115;" horiz-adv-x="391" 
d="M174 -12q-73 0 -113.5 45t-40.5 130q0 34 7.5 76t25 87.5t42 83t61.5 61.5t80 24q138 0 138 -158q0 -50 -19 -126h-241q-6 -23 -6 -53q0 -40 19.5 -66.5t62.5 -26.5q45 0 85 47l36 -58q-58 -66 -137 -66zM127 278h153q8 32 8 60q0 35 -15.5 57.5t-43.5 22.5
q-41 0 -67 -43.5t-35 -96.5zM406 610q-59 -62 -135 -62t-109 62l50 35q18 -40 68 -40t84 40z" />
    <glyph glyph-name="Edotaccent" unicode="&#x116;" horiz-adv-x="367" 
d="M276 0h-273l147 667h273l-20 -92h-169l-42 -189h162l-21 -92h-161l-45 -202h169zM365 782q0 -25 -18.5 -43t-42.5 -18q-21 0 -35 14t-14 35q0 24 18.5 42t43.5 18q21 0 34.5 -14t13.5 -34z" />
    <glyph glyph-name="edotaccent" unicode="&#x117;" horiz-adv-x="391" 
d="M174 -12q-73 0 -113.5 45t-40.5 130q0 34 7.5 76t25 87.5t42 83t61.5 61.5t80 24q138 0 138 -158q0 -50 -19 -126h-241q-6 -23 -6 -53q0 -40 19.5 -66.5t62.5 -26.5q45 0 85 47l36 -58q-58 -66 -137 -66zM127 278h153q8 32 8 60q0 35 -15.5 57.5t-43.5 22.5
q-41 0 -67 -43.5t-35 -96.5zM340 612q0 -25 -18.5 -43t-42.5 -18q-21 0 -35 14t-14 35q0 24 18.5 42t43.5 18q21 0 34.5 -14t13.5 -34z" />
    <glyph glyph-name="Eogonek" unicode="&#x118;" horiz-adv-x="367" 
d="M276 0q-87 -55 -87 -119q0 -23 23 -23q22 0 33 30l37 -26q-28 -48 -75 -48q-31 0 -49.5 15.5t-18.5 46.5q0 67 69 124h-205l147 667h273l-20 -92h-169l-42 -189h162l-21 -92h-161l-45 -202h169z" />
    <glyph glyph-name="eogonek" unicode="&#x119;" horiz-adv-x="391" 
d="M205 -112l37 -26q-28 -48 -75 -48q-31 0 -49.5 15.5t-18.5 46.5q0 61 56 113q-65 6 -100 50.5t-35 123.5q0 34 7.5 76t25 87.5t42 83t61.5 61.5t80 24q138 0 138 -158q0 -50 -19 -126h-241q-6 -23 -6 -53q0 -40 19.5 -66.5t62.5 -26.5q45 0 85 47l36 -58q-32 -37 -75 -54
q-87 -55 -87 -119q0 -23 23 -23q22 0 33 30zM127 278h153q8 32 8 60q0 35 -15.5 57.5t-43.5 22.5q-41 0 -67 -43.5t-35 -96.5z" />
    <glyph glyph-name="Ecaron" unicode="&#x11a;" horiz-adv-x="367" 
d="M344 723h-87l-35 144h52l34 -98l76 98h55zM276 0h-273l147 667h273l-20 -92h-169l-42 -189h162l-21 -92h-161l-45 -202h169z" />
    <glyph glyph-name="ecaron" unicode="&#x11b;" horiz-adv-x="391" 
d="M321 556h-87l-35 144h52l34 -98l76 98h55zM174 -12q-73 0 -113.5 45t-40.5 130q0 34 7.5 76t25 87.5t42 83t61.5 61.5t80 24q138 0 138 -158q0 -50 -19 -126h-241q-6 -23 -6 -53q0 -40 19.5 -66.5t62.5 -26.5q45 0 85 47l36 -58q-58 -66 -137 -66zM127 278h153q8 32 8 60
q0 35 -15.5 57.5t-43.5 22.5q-41 0 -67 -43.5t-35 -96.5z" />
    <glyph glyph-name="Gcircumflex" unicode="&#x11c;" horiz-adv-x="435" 
d="M445 723h-51l-36 98l-74 -98h-56l96 144h87zM191 -12q-76 0 -116.5 52.5t-40.5 149.5q0 67 16.5 147t48 158t86 130.5t121.5 52.5q72 0 106 -46.5t37 -116.5l-89 -21q-6 91 -61 91q-46 0 -84 -76.5t-56 -166t-18 -155.5q0 -57 13.5 -81.5t42.5 -24.5q35 0 73 49l28 131
h-81l21 92h174l-58 -260q-68 -105 -163 -105z" />
    <glyph glyph-name="gcircumflex" unicode="&#x11d;" horiz-adv-x="406" 
d="M371 549h-51l-36 98l-74 -98h-56l96 144h87zM111 -196q-98 0 -146 59l51 73q32 -49 93 -49q74 0 98 110l19 76q-43 -72 -103 -72q-49 0 -76.5 36t-27.5 107q0 48 11 105t33 114t60.5 94.5t86.5 37.5q29 0 57 -20.5t35 -56.5l14 65h93l-105 -474q-26 -113 -74 -159
t-119 -46zM168 84q20 0 40 19.5t34 47.5l43 193q-4 27 -20.5 47.5t-37.5 20.5q-34 0 -61 -47.5t-38.5 -103.5t-11.5 -100q0 -77 52 -77z" />
    <glyph glyph-name="Gbreve" unicode="&#x11e;" horiz-adv-x="435" 
d="M191 -12q-76 0 -116.5 52.5t-40.5 149.5q0 67 16.5 147t48 158t86 130.5t121.5 52.5q72 0 106 -46.5t37 -116.5l-89 -21q-6 91 -61 91q-46 0 -84 -76.5t-56 -166t-18 -155.5q0 -57 13.5 -81.5t42.5 -24.5q35 0 73 49l28 131h-81l21 92h174l-58 -260q-68 -105 -163 -105z
M465 777q-59 -62 -135 -62t-109 62l50 35q18 -40 68 -40t84 40z" />
    <glyph glyph-name="gbreve" unicode="&#x11f;" horiz-adv-x="406" 
d="M111 -196q-98 0 -146 59l51 73q32 -49 93 -49q74 0 98 110l19 76q-43 -72 -103 -72q-49 0 -76.5 36t-27.5 107q0 48 11 105t33 114t60.5 94.5t86.5 37.5q29 0 57 -20.5t35 -56.5l14 65h93l-105 -474q-26 -113 -74 -159t-119 -46zM168 84q20 0 40 19.5t34 47.5l43 193
q-4 27 -20.5 47.5t-37.5 20.5q-34 0 -61 -47.5t-38.5 -103.5t-11.5 -100q0 -77 52 -77zM397 610q-59 -62 -135 -62t-109 62l50 35q18 -40 68 -40t84 40z" />
    <glyph glyph-name="Gdotaccent" unicode="&#x120;" horiz-adv-x="435" 
d="M191 -12q-76 0 -116.5 52.5t-40.5 149.5q0 67 16.5 147t48 158t86 130.5t121.5 52.5q72 0 106 -46.5t37 -116.5l-89 -21q-6 91 -61 91q-46 0 -84 -76.5t-56 -166t-18 -155.5q0 -57 13.5 -81.5t42.5 -24.5q35 0 73 49l28 131h-81l21 92h174l-58 -260q-68 -105 -163 -105z
M400 779q0 -25 -18.5 -43t-42.5 -18q-21 0 -35 14t-14 35q0 24 18.5 42t43.5 18q21 0 34.5 -14t13.5 -34z" />
    <glyph glyph-name="gdotaccent" unicode="&#x121;" horiz-adv-x="406" 
d="M111 -196q-98 0 -146 59l51 73q32 -49 93 -49q74 0 98 110l19 76q-43 -72 -103 -72q-49 0 -76.5 36t-27.5 107q0 48 11 105t33 114t60.5 94.5t86.5 37.5q29 0 57 -20.5t35 -56.5l14 65h93l-105 -474q-26 -113 -74 -159t-119 -46zM168 84q20 0 40 19.5t34 47.5l43 193
q-4 27 -20.5 47.5t-37.5 20.5q-34 0 -61 -47.5t-38.5 -103.5t-11.5 -100q0 -77 52 -77zM332 612q0 -25 -18.5 -43t-42.5 -18q-21 0 -35 14t-14 35q0 24 18.5 42t43.5 18q21 0 34.5 -14t13.5 -34z" />
    <glyph glyph-name="Gcommaaccent" unicode="&#x122;" horiz-adv-x="435" 
d="M198 -121q0 -43 -31.5 -85.5t-76.5 -65.5l-29 32q26 13 47.5 33.5t29.5 41.5q-1 -1 -8 -1q-16 0 -28 12t-12 31q0 23 17.5 40t39.5 17t36.5 -14.5t14.5 -40.5zM191 -12q-76 0 -116.5 52.5t-40.5 149.5q0 67 16.5 147t48 158t86 130.5t121.5 52.5q72 0 106 -46.5
t37 -116.5l-89 -21q-6 91 -61 91q-46 0 -84 -76.5t-56 -166t-18 -155.5q0 -57 13.5 -81.5t42.5 -24.5q35 0 73 49l28 131h-81l21 92h174l-58 -260q-68 -105 -163 -105z" />
    <glyph glyph-name="gcommaaccent" unicode="&#x123;" horiz-adv-x="406" 
d="M224 607q0 43 32 86t77 66l29 -32q-26 -13 -48 -33.5t-29 -41.5h7q17 0 29.5 -12t12.5 -32q0 -23 -18 -40t-41 -17q-22 0 -36.5 14.5t-14.5 41.5zM111 -196q-98 0 -146 59l51 73q32 -49 93 -49q74 0 98 110l19 76q-43 -72 -103 -72q-49 0 -76.5 36t-27.5 107q0 48 11 105
t33 114t60.5 94.5t86.5 37.5q29 0 57 -20.5t35 -56.5l14 65h93l-105 -474q-26 -113 -74 -159t-119 -46zM168 84q20 0 40 19.5t34 47.5l43 193q-4 27 -20.5 47.5t-37.5 20.5q-34 0 -61 -47.5t-38.5 -103.5t-11.5 -100q0 -77 52 -77z" />
    <glyph glyph-name="Hcircumflex" unicode="&#x124;" horiz-adv-x="463" 
d="M446 723h-51l-36 98l-74 -98h-56l96 144h87zM353 0h-105l66 297h-142l-65 -297h-104l147 667h104l-61 -278h141l61 278h105z" />
    <glyph glyph-name="hcircumflex" unicode="&#x125;" 
d="M417 723h-51l-36 98l-74 -98h-56l96 144h87zM298 0h-94l79 355q3 12 3 22q0 35 -34 35q-45 0 -88 -72l-74 -340h-94l147 667h94l-54 -246q54 74 120 74q40 0 62 -21.5t22 -56.5q0 -10 -4 -30z" />
    <glyph glyph-name="Hbar" unicode="&#x126;" horiz-adv-x="499" 
d="M371 0h-105l66 297h-142l-65 -297h-104l110 501h-56l13 57h56l24 109h104l-24 -109h141l24 109h105l-24 -109h54l-13 -57h-54zM211 389h141l24 112h-141z" />
    <glyph glyph-name="hbar" unicode="&#x127;" 
d="M298 0h-94l79 355q3 12 3 22q0 35 -34 35q-45 0 -88 -72l-74 -340h-94l117 532h-44l13 57h43l18 78h94l-17 -78h117l-12 -57h-118l-24 -111q54 74 120 74q40 0 62 -21.5t22 -56.5q0 -10 -4 -30z" />
    <glyph glyph-name="Itilde" unicode="&#x128;" horiz-adv-x="218" 
d="M107 0h-104l147 667h104zM266 721q-21 0 -33.5 13t-16.5 28.5t-11 28.5t-18 13q-24 0 -41 -77h-51q30 134 99 134q21 0 34 -13t17 -28.5t11 -28.5t18 -13q24 0 41 77h51q-28 -134 -100 -134z" />
    <glyph glyph-name="itilde" unicode="&#x129;" horiz-adv-x="194" 
d="M90 0h-94l107 483h94zM217 554q-21 0 -33.5 13t-16.5 28.5t-11 28.5t-18 13q-24 0 -41 -77h-51q30 134 99 134q21 0 34 -13t17 -28.5t11 -28.5t18 -13q24 0 41 77h51q-28 -134 -100 -134z" />
    <glyph glyph-name="Imacron" unicode="&#x12a;" horiz-adv-x="218" 
d="M107 0h-104l147 667h104zM344 735h-253l12 57h253z" />
    <glyph glyph-name="imacron" unicode="&#x12b;" horiz-adv-x="194" 
d="M90 0h-94l107 483h94zM296 568h-253l12 57h253z" />
    <glyph glyph-name="Ibreve" unicode="&#x12c;" horiz-adv-x="218" 
d="M107 0h-104l147 667h104zM345 777q-59 -62 -135 -62t-109 62l50 35q18 -40 68 -40t84 40z" />
    <glyph glyph-name="ibreve" unicode="&#x12d;" horiz-adv-x="194" 
d="M90 0h-94l107 483h94zM297 610q-59 -62 -135 -62t-109 62l50 35q18 -40 68 -40t84 40z" />
    <glyph glyph-name="Iogonek" unicode="&#x12e;" horiz-adv-x="218" 
d="M76 -112l37 -26q-28 -48 -75 -48q-31 0 -49.5 15.5t-18.5 46.5q0 66 69 124h-36l147 667h104l-147 -667q-87 -55 -87 -119q0 -23 23 -23q22 0 33 30z" />
    <glyph glyph-name="iogonek" unicode="&#x12f;" horiz-adv-x="194" 
d="M59 -112l37 -26q-28 -48 -75 -48q-31 0 -49.5 15.5t-18.5 46.5q0 66 69 124h-26l107 483h94l-107 -483q-87 -55 -87 -119q0 -23 23 -23q22 0 33 30zM169 546q-23 0 -38.5 15t-15.5 36q0 30 21.5 49t46.5 19q23 0 38.5 -15.5t15.5 -36.5q0 -30 -21 -48.5t-47 -18.5z" />
    <glyph glyph-name="Idotaccent" unicode="&#x130;" horiz-adv-x="218" 
d="M107 0h-104l147 667h104zM280 779q0 -25 -18.5 -43t-42.5 -18q-21 0 -35 14t-14 35q0 24 18.5 42t43.5 18q21 0 34.5 -14t13.5 -34z" />
    <glyph glyph-name="dotlessi" unicode="&#x131;" horiz-adv-x="194" 
d="M90 0h-94l107 483h94z" />
    <glyph glyph-name="IJ" unicode="&#x132;" horiz-adv-x="554" 
d="M107 0h-104l147 667h104zM300 -12q-79 0 -119 46l45 82q23 -35 66 -35q66 0 83 80l113 506h104l-113 -511q-20 -88 -62.5 -128t-116.5 -40z" />
    <glyph glyph-name="ij" unicode="&#x133;" horiz-adv-x="388" 
d="M169 546q-23 0 -38.5 15t-15.5 36q0 30 21.5 49t46.5 19q23 0 38.5 -15.5t15.5 -36.5q0 -30 -21 -48.5t-47 -18.5zM90 0h-94l107 483h94zM138 -196q-50 0 -70 30l41 69q6 -16 25 -16q31 0 43 59l120 537h94l-120 -537q-17 -76 -47 -109t-86 -33zM363 546q-23 0 -38.5 15
t-15.5 36q0 30 21.5 49t46.5 19q23 0 38.5 -15.5t15.5 -36.5q0 -30 -21 -48.5t-47 -18.5z" />
    <glyph glyph-name="Jcircumflex" unicode="&#x134;" horiz-adv-x="337" 
d="M442 723h-51l-36 98l-74 -98h-56l96 144h87zM82 -12q-79 0 -119 46l45 82q23 -35 66 -35q66 0 83 80l113 506h104l-113 -511q-20 -88 -62.5 -128t-116.5 -40z" />
    <glyph glyph-name="jcircumflex" unicode="&#x135;" horiz-adv-x="194" 
d="M276 556h-51l-36 98l-74 -98h-56l96 144h87zM-56 -196q-50 0 -70 30l41 69q6 -16 25 -16q31 0 43 59l120 537h94l-120 -537q-17 -76 -47 -109t-86 -33z" />
    <glyph glyph-name="Kcommaaccent" unicode="&#x136;" horiz-adv-x="448" 
d="M217 -121q0 -43 -31.5 -85.5t-76.5 -65.5l-29 32q26 13 47.5 33.5t29.5 41.5q-1 -1 -8 -1q-16 0 -28 12t-12 31q0 23 17.5 40t39.5 17t36.5 -14.5t14.5 -40.5zM388 0h-111l-67 272l-63 -88l-40 -184h-104l147 667h104l-68 -310l215 310h121l-234 -315z" />
    <glyph glyph-name="kcommaaccent" unicode="&#x137;" horiz-adv-x="385" 
d="M178 -121q0 -43 -31.5 -85.5t-76.5 -65.5l-29 32q26 13 47.5 33.5t29.5 41.5q-1 -1 -8 -1q-16 0 -28 12t-12 31q0 23 17.5 40t39.5 17t36.5 -14.5t14.5 -40.5zM321 0h-100l-36 207l-70 -90l-25 -117h-94l147 667h94l-93 -420l177 236h105l-166 -215z" />
    <glyph glyph-name="kgreenlandic" unicode="&#x138;" horiz-adv-x="385" 
d="M321 0h-100l-36 207l-70 -90l-25 -117h-94l107 483h94l-53 -236l177 236h105l-166 -215z" />
    <glyph glyph-name="Lacute" unicode="&#x139;" horiz-adv-x="351" 
d="M454 867l-135 -144h-63l111 144h87zM276 0h-273l147 667h104l-127 -575h169z" />
    <glyph glyph-name="lacute" unicode="&#x13a;" horiz-adv-x="194" 
d="M358 867l-135 -144h-63l111 144h87zM90 0h-94l147 667h94z" />
    <glyph glyph-name="Lcommaaccent" unicode="&#x13b;" horiz-adv-x="351" 
d="M174 -121q0 -43 -31.5 -85.5t-76.5 -65.5l-29 32q26 13 47.5 33.5t29.5 41.5q-1 -1 -8 -1q-16 0 -28 12t-12 31q0 23 17.5 40t39.5 17t36.5 -14.5t14.5 -40.5zM276 0h-273l147 667h104l-127 -575h169z" />
    <glyph glyph-name="lcommaaccent" unicode="&#x13c;" horiz-adv-x="194" 
d="M65 -121q0 -43 -31.5 -85.5t-76.5 -65.5l-29 32q26 13 47.5 33.5t29.5 41.5q-1 -1 -8 -1q-16 0 -28 12t-12 31q0 23 17.5 40t39.5 17t36.5 -14.5t14.5 -40.5zM90 0h-94l147 667h94z" />
    <glyph glyph-name="Lcaron" unicode="&#x13d;" horiz-adv-x="351" 
d="M402 625q0 -43 -31.5 -85.5t-76.5 -65.5l-29 32q26 13 47.5 33.5t29.5 41.5q-1 -1 -8 -1q-16 0 -28 12t-12 31q0 23 17.5 40t39.5 17t36.5 -14.5t14.5 -40.5zM276 0h-273l147 667h104l-127 -575h169z" />
    <glyph glyph-name="lcaron" unicode="&#x13e;" horiz-adv-x="293" 
d="M392 625q0 -43 -31.5 -85.5t-76.5 -65.5l-29 32q26 13 47.5 33.5t29.5 41.5q-1 -1 -8 -1q-16 0 -28 12t-12 31q0 23 17.5 40t39.5 17t36.5 -14.5t14.5 -40.5zM90 0h-94l147 667h94z" />
    <glyph glyph-name="Ldot" unicode="&#x13f;" horiz-adv-x="400" 
d="M276 0h-273l147 667h104l-127 -575h169zM324 277q-24 0 -41 17t-17 42q0 28 21 49t49 21q25 0 42 -17.5t17 -41.5q0 -29 -21 -49.5t-50 -20.5z" />
    <glyph glyph-name="ldot" unicode="&#x140;" horiz-adv-x="327" 
d="M90 0h-94l147 667h94zM254 180q-24 0 -41 17t-17 42q0 29 21 49.5t49 20.5q25 0 42 -17.5t17 -41.5q0 -29 -21 -49.5t-50 -20.5z" />
    <glyph glyph-name="Lslash" unicode="&#x141;" horiz-adv-x="362" 
d="M15 231l19 88l56 29l71 319h104l-58 -260l68 35l-19 -88l-68 -35l-50 -227h169l-20 -92h-273l57 259z" />
    <glyph glyph-name="lslash" unicode="&#x142;" horiz-adv-x="233" 
d="M18 246l16 72l59 29l70 320h94l-59 -267l58 30l-16 -71l-58 -29l-72 -330h-94l61 276z" />
    <glyph glyph-name="Nacute" unicode="&#x143;" horiz-adv-x="463" 
d="M494 867l-135 -144h-63l111 144h87zM353 0h-99l-57 409l-90 -409h-104l147 667h104l53 -396l88 396h105z" />
    <glyph glyph-name="nacute" unicode="&#x144;" 
d="M426 700l-135 -144h-63l111 144h87zM298 0h-94l79 355q3 15 3 22q0 35 -34 35q-45 0 -88 -72l-74 -340h-94l107 483h94l-14 -62q54 74 120 74q39 0 61.5 -21t22.5 -57q0 -18 -4 -30z" />
    <glyph glyph-name="Ncommaaccent" unicode="&#x145;" horiz-adv-x="463" 
d="M204 -121q0 -43 -31.5 -85.5t-76.5 -65.5l-29 32q26 13 47.5 33.5t29.5 41.5q-1 -1 -8 -1q-16 0 -28 12t-12 31q0 23 17.5 40t39.5 17t36.5 -14.5t14.5 -40.5zM353 0h-99l-57 409l-90 -409h-104l147 667h104l53 -396l88 396h105z" />
    <glyph glyph-name="ncommaaccent" unicode="&#x146;" 
d="M170 -121q0 -43 -31.5 -85.5t-76.5 -65.5l-29 32q26 13 47.5 33.5t29.5 41.5q-1 -1 -8 -1q-16 0 -28 12t-12 31q0 23 17.5 40t39.5 17t36.5 -14.5t14.5 -40.5zM298 0h-94l79 355q3 15 3 22q0 35 -34 35q-45 0 -88 -72l-74 -340h-94l107 483h94l-14 -62q54 74 120 74
q39 0 61.5 -21t22.5 -57q0 -18 -4 -30z" />
    <glyph glyph-name="Ncaron" unicode="&#x147;" horiz-adv-x="463" 
d="M384 723h-87l-35 144h52l34 -98l76 98h55zM353 0h-99l-57 409l-90 -409h-104l147 667h104l53 -396l88 396h105z" />
    <glyph glyph-name="ncaron" unicode="&#x148;" 
d="M315 556h-87l-35 144h52l34 -98l76 98h55zM298 0h-94l79 355q3 15 3 22q0 35 -34 35q-45 0 -88 -72l-74 -340h-94l107 483h94l-14 -62q54 74 120 74q39 0 61.5 -21t22.5 -57q0 -18 -4 -30z" />
    <glyph glyph-name="napostrophe" unicode="&#x149;" 
d="M241 696q0 -43 -31.5 -85.5t-76.5 -65.5l-29 32q26 13 47.5 33.5t29.5 41.5q-1 -1 -8 -1q-16 0 -28 12t-12 31q0 23 17.5 40t39.5 17t36.5 -14.5t14.5 -40.5zM298 0h-94l79 355q3 15 3 22q0 35 -34 35q-45 0 -88 -72l-74 -340h-94l107 483h94l-14 -62q54 74 120 74
q39 0 61.5 -21t22.5 -57q0 -18 -4 -30z" />
    <glyph glyph-name="Eng" unicode="&#x14a;" horiz-adv-x="463" 
d="M168 -196q-77 0 -119 46l43 78q23 -33 67 -33q67 0 84 80l9 43l-55 391l-90 -409h-104l147 667h104l53 -396l88 396h105l-154 -695q-20 -88 -62 -128t-116 -40z" />
    <glyph glyph-name="eng" unicode="&#x14b;" 
d="M383 387l-97 -440q-18 -79 -49 -111t-85 -32q-47 0 -70 30l41 69q6 -16 24 -16q31 0 45 60l91 408q3 21 3 22q0 35 -34 35q-22 0 -46.5 -21t-41.5 -51l-74 -340h-94l107 483h94l-15 -65q54 77 121 77q39 0 61.5 -21t22.5 -57q0 -12 -4 -30z" />
    <glyph glyph-name="Omacron" unicode="&#x14c;" horiz-adv-x="459" 
d="M465 735h-253l12 57h253zM191 -12q-79 0 -118 56t-39 146q0 62 16 140.5t46.5 158.5t86 134.5t123.5 54.5q78 0 117.5 -57t39.5 -147q0 -47 -9.5 -107.5t-31 -127.5t-51.5 -122.5t-77.5 -92t-102.5 -36.5zM197 81q46 0 84.5 77t56.5 166.5t18 152.5q0 108 -57 108
q-46 0 -84.5 -77.5t-56 -167t-17.5 -153.5q0 -106 56 -106z" />
    <glyph glyph-name="omacron" unicode="&#x14d;" 
d="M401 568h-253l12 57h253zM163 -12q-69 0 -106 43.5t-37 124.5q0 74 23.5 149.5t75 132.5t118.5 57q69 0 106 -43t37 -125q0 -74 -23.5 -149.5t-75 -132.5t-118.5 -57zM169 71q35 0 63 49.5t40.5 107t12.5 100.5q0 84 -53 84q-35 0 -63.5 -49.5t-41 -107.5t-12.5 -101
q0 -83 54 -83z" />
    <glyph glyph-name="Obreve" unicode="&#x14e;" horiz-adv-x="459" 
d="M191 -12q-79 0 -118 56t-39 146q0 62 16 140.5t46.5 158.5t86 134.5t123.5 54.5q78 0 117.5 -57t39.5 -147q0 -47 -9.5 -107.5t-31 -127.5t-51.5 -122.5t-77.5 -92t-102.5 -36.5zM197 81q46 0 84.5 77t56.5 166.5t18 152.5q0 108 -57 108q-46 0 -84.5 -77.5t-56 -167
t-17.5 -153.5q0 -106 56 -106zM466 777q-59 -62 -135 -62t-109 62l50 35q18 -40 68 -40t84 40z" />
    <glyph glyph-name="obreve" unicode="&#x14f;" 
d="M163 -12q-69 0 -106 43.5t-37 124.5q0 74 23.5 149.5t75 132.5t118.5 57q69 0 106 -43t37 -125q0 -74 -23.5 -149.5t-75 -132.5t-118.5 -57zM169 71q35 0 63 49.5t40.5 107t12.5 100.5q0 84 -53 84q-35 0 -63.5 -49.5t-41 -107.5t-12.5 -101q0 -83 54 -83zM402 610
q-59 -62 -135 -62t-109 62l50 35q18 -40 68 -40t84 40z" />
    <glyph glyph-name="Ohungarumlaut" unicode="&#x150;" horiz-adv-x="459" 
d="M394 867l-111 -144h-52l87 144h76zM517 867l-111 -144h-52l87 144h76zM191 -12q-79 0 -118 56t-39 146q0 62 16 140.5t46.5 158.5t86 134.5t123.5 54.5q78 0 117.5 -57t39.5 -147q0 -47 -9.5 -107.5t-31 -127.5t-51.5 -122.5t-77.5 -92t-102.5 -36.5zM197 81
q46 0 84.5 77t56.5 166.5t18 152.5q0 108 -57 108q-46 0 -84.5 -77.5t-56 -167t-17.5 -153.5q0 -106 56 -106z" />
    <glyph glyph-name="ohungarumlaut" unicode="&#x151;" 
d="M335 700l-111 -144h-52l87 144h76zM458 700l-111 -144h-52l87 144h76zM163 -12q-69 0 -106 43.5t-37 124.5q0 74 23.5 149.5t75 132.5t118.5 57q69 0 106 -43t37 -125q0 -74 -23.5 -149.5t-75 -132.5t-118.5 -57zM169 71q35 0 63 49.5t40.5 107t12.5 100.5q0 84 -53 84
q-35 0 -63.5 -49.5t-41 -107.5t-12.5 -101q0 -83 54 -83z" />
    <glyph glyph-name="OE" unicode="&#x152;" horiz-adv-x="616" 
d="M526 0h-273l12 57q-44 -69 -107 -69q-58 0 -91.5 54t-33.5 148q0 64 17 144t49 158.5t86.5 131.5t119.5 53q28 0 51.5 -15.5t31.5 -51.5l12 57h273l-20 -92h-168l-42 -189h162l-21 -92h-162l-44 -202h168zM294 185l66 297q-3 102 -56 102q-38 0 -71 -45t-52 -110.5
t-30 -130t-11 -111.5q0 -106 53 -106q26 0 53 27.5t48 76.5z" />
    <glyph glyph-name="oe" unicode="&#x153;" horiz-adv-x="632" 
d="M597 211h-238q-5 -20 -5 -53q0 -93 80 -93q42 0 83 48l36 -59q-60 -66 -135 -66q-101 0 -120 98q-60 -98 -137 -98q-70 0 -105.5 43.5t-35.5 124.5q0 78 24.5 154t75 130.5t115.5 54.5q87 0 112 -95q51 95 133 95q136 0 136 -158q0 -58 -19 -126zM373 278h149q8 28 8 60
q0 80 -57 80q-40 0 -65 -42t-35 -98zM281 328q0 84 -52 84q-35 0 -62.5 -48.5t-39.5 -106t-12 -103.5q0 -83 52 -83q27 0 49.5 29t36 71.5t21 84.5t7.5 72z" />
    <glyph glyph-name="Racute" unicode="&#x154;" horiz-adv-x="438" 
d="M482 867l-135 -144h-63l111 144h87zM346 0h-109l-21 255h-53l-56 -255h-104l147 667h147q65 0 107 -46t42 -115q0 -82 -40 -148t-93 -84zM183 347h46q49 0 78 45.5t29 104.5q0 78 -61 78h-41z" />
    <glyph glyph-name="racute" unicode="&#x155;" horiz-adv-x="268" 
d="M369 700l-135 -144h-63l111 144h87zM90 0h-94l107 483h94l-14 -65q44 76 127 76l-22 -94q-12 4 -25 4q-56 0 -100 -72z" />
    <glyph glyph-name="Rcommaaccent" unicode="&#x156;" horiz-adv-x="438" 
d="M193 -121q0 -43 -31.5 -85.5t-76.5 -65.5l-29 32q26 13 47.5 33.5t29.5 41.5q-1 -1 -8 -1q-16 0 -28 12t-12 31q0 23 17.5 40t39.5 17t36.5 -14.5t14.5 -40.5zM346 0h-109l-21 255h-53l-56 -255h-104l147 667h147q65 0 107 -46t42 -115q0 -82 -40 -148t-93 -84zM183 347
h46q49 0 78 45.5t29 104.5q0 78 -61 78h-41z" />
    <glyph glyph-name="rcommaaccent" unicode="&#x157;" horiz-adv-x="268" 
d="M124 -121q0 -43 -31.5 -85.5t-76.5 -65.5l-29 32q26 13 47.5 33.5t29.5 41.5q-1 -1 -8 -1q-16 0 -28 12t-12 31q0 23 17.5 40t39.5 17t36.5 -14.5t14.5 -40.5zM90 0h-94l107 483h94l-14 -65q44 76 127 76l-22 -94q-12 4 -25 4q-56 0 -100 -72z" />
    <glyph glyph-name="Rcaron" unicode="&#x158;" horiz-adv-x="438" 
d="M372 723h-87l-35 144h52l34 -98l76 98h55zM346 0h-109l-21 255h-53l-56 -255h-104l147 667h147q65 0 107 -46t42 -115q0 -82 -40 -148t-93 -84zM183 347h46q49 0 78 45.5t29 104.5q0 78 -61 78h-41z" />
    <glyph glyph-name="rcaron" unicode="&#x159;" horiz-adv-x="268" 
d="M267 556h-87l-35 144h52l34 -98l76 98h55zM90 0h-94l107 483h94l-14 -65q44 76 127 76l-22 -94q-12 4 -25 4q-56 0 -100 -72z" />
    <glyph glyph-name="Sacute" unicode="&#x15a;" horiz-adv-x="378" 
d="M451 867l-135 -144h-63l111 144h87zM140 -12q-50 0 -93.5 20t-66.5 53l62 77q16 -25 43 -41t55 -16q36 0 63 30t27 79q0 31 -23 64t-50.5 59.5t-50.5 69t-23 89.5q0 86 57 146t136 60q90 0 141 -60l-57 -77q-33 44 -85 44q-36 0 -59 -28t-23 -67q0 -23 15 -48t36.5 -49
t42.5 -50t36 -61.5t15 -74.5q0 -92 -56 -155.5t-142 -63.5z" />
    <glyph glyph-name="sacute" unicode="&#x15b;" horiz-adv-x="330" 
d="M388 700l-135 -144h-63l111 144h87zM123 -12q-48 0 -87 19t-57 50l53 61q32 -55 93 -55q29 0 49 20.5t20 48.5q0 24 -22 47.5t-48 41t-48 50t-22 71.5q0 63 41.5 108t113.5 45q38 0 74 -17t58 -46l-51 -59q-10 19 -33.5 33t-49.5 14q-28 0 -45 -17t-17 -44
q0 -21 22.5 -43.5t49 -41t49 -51.5t22.5 -73q0 -67 -46 -114.5t-119 -47.5z" />
    <glyph glyph-name="Scircumflex" unicode="&#x15c;" horiz-adv-x="378" 
d="M406 723h-51l-36 98l-74 -98h-56l96 144h87zM140 -12q-50 0 -93.5 20t-66.5 53l62 77q16 -25 43 -41t55 -16q36 0 63 30t27 79q0 31 -23 64t-50.5 59.5t-50.5 69t-23 89.5q0 86 57 146t136 60q90 0 141 -60l-57 -77q-33 44 -85 44q-36 0 -59 -28t-23 -67q0 -23 15 -48
t36.5 -49t42.5 -50t36 -61.5t15 -74.5q0 -92 -56 -155.5t-142 -63.5z" />
    <glyph glyph-name="scircumflex" unicode="&#x15d;" horiz-adv-x="330" 
d="M344 556h-51l-36 98l-74 -98h-56l96 144h87zM123 -12q-48 0 -87 19t-57 50l53 61q32 -55 93 -55q29 0 49 20.5t20 48.5q0 24 -22 47.5t-48 41t-48 50t-22 71.5q0 63 41.5 108t113.5 45q38 0 74 -17t58 -46l-51 -59q-10 19 -33.5 33t-49.5 14q-28 0 -45 -17t-17 -44
q0 -21 22.5 -43.5t49 -41t49 -51.5t22.5 -73q0 -67 -46 -114.5t-119 -47.5z" />
    <glyph glyph-name="Scedilla" unicode="&#x15e;" horiz-adv-x="378" 
d="M89 -193q-55 0 -88 38l28 39q24 -32 61 -32q20 0 32.5 13t12.5 31q0 24 -23 24q-15 0 -26 -13l-33 21l39 65q-76 16 -112 68l62 77q16 -25 43 -41t55 -16q36 0 63 30t27 79q0 31 -23 64t-50.5 59.5t-50.5 69t-23 89.5q0 86 57 146t136 60q90 0 141 -60l-57 -77
q-33 44 -85 44q-36 0 -59 -28t-23 -67q0 -23 15 -48t36.5 -49t42.5 -50t36 -61.5t15 -74.5q0 -92 -56 -155.5t-142 -63.5h-1l-26 -42q10 10 24 10q22 0 36 -16t14 -41q0 -39 -28.5 -65.5t-69.5 -26.5z" />
    <glyph glyph-name="scedilla" unicode="&#x15f;" horiz-adv-x="330" 
d="M72 -193q-55 0 -88 38l28 39q24 -32 61 -32q20 0 32.5 13t12.5 31q0 24 -23 24q-15 0 -26 -13l-33 21l39 66q-68 14 -96 63l53 61q32 -55 93 -55q29 0 49 20.5t20 48.5q0 24 -22 47.5t-48 41t-48 50t-22 71.5q0 63 41.5 108t113.5 45q38 0 74 -17t58 -46l-51 -59
q-10 19 -33.5 33t-49.5 14q-28 0 -45 -17t-17 -44q0 -21 22.5 -43.5t49 -41t49 -51.5t22.5 -73q0 -67 -46 -114.5t-119 -47.5h-1l-26 -42q10 10 24 10q22 0 36 -16t14 -41q0 -39 -28.5 -65.5t-69.5 -26.5z" />
    <glyph glyph-name="Scaron" unicode="&#x160;" horiz-adv-x="378" 
d="M342 723h-87l-35 144h52l34 -98l76 98h55zM140 -12q-50 0 -93.5 20t-66.5 53l62 77q16 -25 43 -41t55 -16q36 0 63 30t27 79q0 31 -23 64t-50.5 59.5t-50.5 69t-23 89.5q0 86 57 146t136 60q90 0 141 -60l-57 -77q-33 44 -85 44q-36 0 -59 -28t-23 -67q0 -23 15 -48
t36.5 -49t42.5 -50t36 -61.5t15 -74.5q0 -92 -56 -155.5t-142 -63.5z" />
    <glyph glyph-name="scaron" unicode="&#x161;" horiz-adv-x="330" 
d="M281 556h-87l-35 144h52l34 -98l76 98h55zM123 -12q-48 0 -87 19t-57 50l53 61q32 -55 93 -55q29 0 49 20.5t20 48.5q0 24 -22 47.5t-48 41t-48 50t-22 71.5q0 63 41.5 108t113.5 45q38 0 74 -17t58 -46l-51 -59q-10 19 -33.5 33t-49.5 14q-28 0 -45 -17t-17 -44
q0 -21 22.5 -43.5t49 -41t49 -51.5t22.5 -73q0 -67 -46 -114.5t-119 -47.5z" />
    <glyph glyph-name="Tcommaaccent" unicode="&#x162;" horiz-adv-x="346" 
d="M150 -121q0 -43 -31.5 -85.5t-76.5 -65.5l-29 32q26 13 47.5 33.5t29.5 41.5q-1 -1 -8 -1q-16 0 -28 12t-12 31q0 23 17.5 40t39.5 17t36.5 -14.5t14.5 -40.5zM171 0h-104l127 575h-103l20 92h310l-20 -92h-103z" />
    <glyph glyph-name="tcommaaccent" unicode="&#x163;" horiz-adv-x="247" 
d="M98 -121q0 -43 -31.5 -85.5t-76.5 -65.5l-29 32q26 13 47.5 33.5t29.5 41.5q-1 -1 -8 -1q-16 0 -28 12t-12 31q0 23 17.5 40t39.5 17t36.5 -14.5t14.5 -40.5zM128 -12q-99 0 -99 80q0 19 5 39l66 294h-47l18 82h47l29 132h94l-29 -132h63l-19 -82h-62l-62 -278
q-4 -16 -4 -25q0 -27 28 -27q14 0 27 9l6 -75q-25 -17 -61 -17z" />
    <glyph glyph-name="Tcaron" unicode="&#x164;" horiz-adv-x="346" 
d="M320 723h-87l-35 144h52l34 -98l76 98h55zM171 0h-104l127 575h-103l20 92h310l-20 -92h-103z" />
    <glyph glyph-name="tcaron" unicode="&#x165;" horiz-adv-x="284" 
d="M408 696q0 -43 -31.5 -85.5t-76.5 -65.5l-29 32q26 13 47.5 33.5t29.5 41.5q-1 -1 -8 -1q-16 0 -28 12t-12 31q0 23 17.5 40t39.5 17t36.5 -14.5t14.5 -40.5zM128 -12q-99 0 -99 80q0 19 5 39l66 294h-47l18 82h47l29 132h94l-29 -132h63l-19 -82h-62l-62 -278
q-4 -16 -4 -25q0 -27 28 -27q14 0 27 9l6 -75q-25 -17 -61 -17z" />
    <glyph glyph-name="Tbar" unicode="&#x166;" horiz-adv-x="346" 
d="M171 0h-104l62 283h-72l13 56h72l52 236h-103l20 92h310l-20 -92h-103l-52 -236h72l-12 -56h-73z" />
    <glyph glyph-name="tbar" unicode="&#x167;" horiz-adv-x="247" 
d="M128 -12q-99 0 -99 80q0 19 5 39l25 113h-46l12 57h47l28 124h-47l18 82h47l29 132h94l-29 -132h63l-19 -82h-62l-28 -124h36l-13 -57h-36l-21 -97q-4 -16 -4 -25q0 -27 28 -27q14 0 27 9l6 -75q-25 -17 -61 -17z" />
    <glyph glyph-name="Utilde" unicode="&#x168;" horiz-adv-x="464" 
d="M197 -12q-69 0 -113.5 42t-44.5 113q0 22 5 45l106 479h104l-108 -488q-3 -21 -3 -32q0 -32 17 -49.5t45 -17.5q32 0 52 23t32 76l107 488h104l-106 -483q-44 -196 -197 -196zM388 721q-21 0 -33.5 13t-16.5 28.5t-11 28.5t-18 13q-24 0 -41 -77h-51q30 134 99 134
q21 0 34 -13t17 -28.5t11 -28.5t18 -13q24 0 41 77h51q-28 -134 -100 -134z" />
    <glyph glyph-name="utilde" unicode="&#x169;" 
d="M103 483h94l-79 -355q-3 -14 -3 -22q0 -35 34 -35q45 0 86 69l76 343h94l-107 -483h-94l14 62q-54 -74 -120 -74q-39 0 -61.5 21t-22.5 57q0 18 4 30zM322 554q-21 0 -33.5 13t-16.5 28.5t-11 28.5t-18 13q-24 0 -41 -77h-51q30 134 99 134q21 0 34 -13t17 -28.5
t11 -28.5t18 -13q24 0 41 77h51q-28 -134 -100 -134z" />
    <glyph glyph-name="Umacron" unicode="&#x16a;" horiz-adv-x="464" 
d="M197 -12q-69 0 -113.5 42t-44.5 113q0 22 5 45l106 479h104l-108 -488q-3 -21 -3 -32q0 -32 17 -49.5t45 -17.5q32 0 52 23t32 76l107 488h104l-106 -483q-44 -196 -197 -196zM467 735h-253l12 57h253z" />
    <glyph glyph-name="umacron" unicode="&#x16b;" 
d="M103 483h94l-79 -355q-3 -14 -3 -22q0 -35 34 -35q45 0 86 69l76 343h94l-107 -483h-94l14 62q-54 -74 -120 -74q-39 0 -61.5 21t-22.5 57q0 18 4 30zM401 568h-253l12 57h253z" />
    <glyph glyph-name="Ubreve" unicode="&#x16c;" horiz-adv-x="464" 
d="M197 -12q-69 0 -113.5 42t-44.5 113q0 22 5 45l106 479h104l-108 -488q-3 -21 -3 -32q0 -32 17 -49.5t45 -17.5q32 0 52 23t32 76l107 488h104l-106 -483q-44 -196 -197 -196zM466 777q-59 -62 -135 -62t-109 62l50 35q18 -40 68 -40t84 40z" />
    <glyph glyph-name="ubreve" unicode="&#x16d;" 
d="M103 483h94l-79 -355q-3 -14 -3 -22q0 -35 34 -35q45 0 86 69l76 343h94l-107 -483h-94l14 62q-54 -74 -120 -74q-39 0 -61.5 21t-22.5 57q0 18 4 30zM402 610q-59 -62 -135 -62t-109 62l50 35q18 -40 68 -40t84 40z" />
    <glyph glyph-name="Uring" unicode="&#x16e;" horiz-adv-x="464" 
d="M340 693q-34 0 -55.5 22t-21.5 57q0 38 29 67t67 29q34 0 55.5 -22t21.5 -57q0 -38 -29 -67t-67 -29zM344 737q20 0 34.5 14.5t14.5 33.5q0 17 -10.5 28t-26.5 11q-20 0 -34.5 -14.5t-14.5 -33.5q0 -17 10.5 -28t26.5 -11zM197 -12q-69 0 -113.5 42t-44.5 113q0 22 5 45
l106 479h104l-108 -488q-3 -21 -3 -32q0 -32 17 -49.5t45 -17.5q32 0 52 23t32 76l107 488h104l-106 -483q-44 -196 -197 -196z" />
    <glyph glyph-name="uring" unicode="&#x16f;" 
d="M278 540q-34 0 -55.5 22t-21.5 57q0 38 29 67t67 29q34 0 55.5 -22t21.5 -57q0 -38 -29 -67t-67 -29zM282 584q20 0 34.5 14.5t14.5 33.5q0 17 -10.5 28t-26.5 11q-20 0 -34.5 -14.5t-14.5 -33.5q0 -17 10.5 -28t26.5 -11zM103 483h94l-79 -355q-3 -14 -3 -22
q0 -35 34 -35q45 0 86 69l76 343h94l-107 -483h-94l14 62q-54 -74 -120 -74q-39 0 -61.5 21t-22.5 57q0 18 4 30z" />
    <glyph glyph-name="Uhungarumlaut" unicode="&#x170;" horiz-adv-x="464" 
d="M197 -12q-69 0 -113.5 42t-44.5 113q0 22 5 45l106 479h104l-108 -488q-3 -21 -3 -32q0 -32 17 -49.5t45 -17.5q32 0 52 23t32 76l107 488h104l-106 -483q-44 -196 -197 -196zM397 867l-111 -144h-52l87 144h76zM520 867l-111 -144h-52l87 144h76z" />
    <glyph glyph-name="uhungarumlaut" unicode="&#x171;" 
d="M103 483h94l-79 -355q-3 -14 -3 -22q0 -35 34 -35q45 0 86 69l76 343h94l-107 -483h-94l14 62q-54 -74 -120 -74q-39 0 -61.5 21t-22.5 57q0 18 4 30zM335 700l-111 -144h-52l87 144h76zM458 700l-111 -144h-52l87 144h76z" />
    <glyph glyph-name="Uogonek" unicode="&#x172;" horiz-adv-x="464" 
d="M233 -112l37 -26q-28 -48 -75 -48q-31 0 -49.5 15.5t-18.5 46.5q0 59 56 113q-63 5 -103.5 46t-40.5 108q0 22 5 45l106 479h104l-108 -488q-3 -21 -3 -32q0 -32 17 -49.5t45 -17.5q32 0 52 23t32 76l107 488h104l-106 -483q-33 -148 -130 -184q-87 -55 -87 -119
q0 -23 23 -23q22 0 33 30z" />
    <glyph glyph-name="uogonek" unicode="&#x173;" 
d="M103 483h94l-79 -355q-3 -14 -3 -22q0 -35 34 -35q45 0 86 69l76 343h94l-107 -483q-87 -55 -87 -119q0 -23 23 -23q22 0 33 30l37 -26q-28 -48 -75 -48q-31 0 -49.5 15.5t-18.5 46.5q0 67 69 124h-26l14 62q-54 -74 -120 -74q-39 0 -61.5 21t-22.5 57q0 18 4 30z" />
    <glyph glyph-name="Wcircumflex" unicode="&#x174;" horiz-adv-x="587" 
d="M506 723h-51l-36 98l-74 -98h-56l96 144h87zM408 0h-107l42 466l-165 -466h-107l36 667h105l-45 -483l176 483h84l-37 -483l168 483h108z" />
    <glyph glyph-name="wcircumflex" unicode="&#x175;" horiz-adv-x="579" 
d="M464 556h-51l-36 98l-74 -98h-56l96 144h87zM408 0h-98l3 355l-152 -355h-98l-1 483h94l-12 -354l148 354h91l-5 -354l145 354h101z" />
    <glyph glyph-name="Ycircumflex" unicode="&#x176;" horiz-adv-x="405" 
d="M418 723h-51l-36 98l-74 -98h-56l96 144h87zM201 0h-104l61 279l-68 388h107l31 -285l158 285h115l-239 -388z" />
    <glyph glyph-name="ycircumflex" unicode="&#x177;" horiz-adv-x="357" 
d="M-57 -185l31 78q6 -6 23 -6q24 0 44 39l31 64l-14 493h97l-8 -364l156 364h102l-276 -577q-29 -58 -57 -80t-68 -22q-35 0 -61 11zM353 556h-51l-36 98l-74 -98h-56l96 144h87z" />
    <glyph glyph-name="Ydieresis" unicode="&#x178;" horiz-adv-x="405" 
d="M453 779q0 -23 -18.5 -41t-42.5 -18q-20 0 -34 13.5t-14 34.5q0 23 18.5 41t42.5 18q20 0 34 -13.5t14 -34.5zM300 779q0 -23 -18.5 -41t-42.5 -18q-20 0 -34 13.5t-14 34.5q0 23 18.5 41t42.5 18q20 0 34 -13.5t14 -34.5zM201 0h-104l61 279l-68 388h107l31 -285
l158 285h115l-239 -388z" />
    <glyph glyph-name="Zacute" unicode="&#x179;" horiz-adv-x="360" 
d="M438 867l-135 -144h-63l111 144h87zM276 0h-299l19 89l277 486h-169l20 92h292l-19 -85l-280 -490h179z" />
    <glyph glyph-name="zacute" unicode="&#x17a;" horiz-adv-x="321" 
d="M382 700l-135 -144h-63l111 144h87zM237 0h-261l15 72l217 329h-143l18 82h257l-15 -69l-218 -332h148z" />
    <glyph glyph-name="Zdotaccent" unicode="&#x17b;" horiz-adv-x="360" 
d="M276 0h-299l19 89l277 486h-169l20 92h292l-19 -85l-280 -490h179zM348 779q0 -25 -18.5 -43t-42.5 -18q-21 0 -35 14t-14 35q0 24 18.5 42t43.5 18q21 0 34.5 -14t13.5 -34z" />
    <glyph glyph-name="zdotaccent" unicode="&#x17c;" horiz-adv-x="321" 
d="M237 0h-261l15 72l217 329h-143l18 82h257l-15 -69l-218 -332h148zM294 612q0 -25 -18.5 -43t-42.5 -18q-21 0 -35 14t-14 35q0 24 18.5 42t43.5 18q21 0 34.5 -14t13.5 -34z" />
    <glyph glyph-name="Zcaron" unicode="&#x17d;" horiz-adv-x="360" 
d="M328 723h-87l-35 144h52l34 -98l76 98h55zM276 0h-299l19 89l277 486h-169l20 92h292l-19 -85l-280 -490h179z" />
    <glyph glyph-name="zcaron" unicode="&#x17e;" horiz-adv-x="321" 
d="M272 556h-87l-35 144h52l34 -98l76 98h55zM237 0h-261l15 72l217 329h-143l18 82h257l-15 -69l-218 -332h148z" />
    <glyph glyph-name="longs" unicode="&#x17f;" horiz-adv-x="239" 
d="M105 0h-94l89 401h-46l18 82h46l13 63q28 131 133 131q59 0 85 -29l-41 -72q-12 18 -34 18q-37 0 -49 -48z" />
    <glyph glyph-name="florin" unicode="&#x192;" horiz-adv-x="383" 
d="M69 -161h-106l90 409h-44v84h63l50 225q12 57 45.5 88.5t85.5 31.5q56 0 85 -26l-32 -79q-12 13 -33 13q-39 0 -50 -53l-44 -200h83v-84h-102z" />
    <glyph glyph-name="Ohorn" unicode="&#x1a0;" horiz-adv-x="459" 
d="M191 -12q-79 0 -118 56t-39 146q0 62 16 140.5t46.5 158.5t86 134.5t123.5 54.5q100 0 138 -96q37 27 49 58h-7q-16 0 -26.5 11t-10.5 29q0 21 16 36.5t37 15.5q20 0 33 -13.5t13 -37.5q0 -38 -26.5 -76.5t-65.5 -61.5q7 -38 7 -69q0 -47 -9.5 -107.5t-31 -127.5
t-51.5 -122.5t-77.5 -92t-102.5 -36.5zM197 81q46 0 84.5 77t56.5 166.5t18 152.5q0 108 -57 108q-46 0 -84.5 -77.5t-56 -167t-17.5 -153.5q0 -106 56 -106z" />
    <glyph glyph-name="ohorn" unicode="&#x1a1;" 
d="M450 547q0 -36 -24 -72.5t-61 -60.5q15 -40 15 -87q0 -74 -23.5 -149.5t-75 -132.5t-118.5 -57q-69 0 -106 43.5t-37 124.5q0 74 23.5 149.5t75 132.5t118.5 57q71 0 109 -47q37 27 49 58h-7q-16 0 -27 11t-11 29q0 21 16 36.5t37 15.5q20 0 33.5 -13.5t13.5 -37.5z
M169 71q35 0 63 49.5t40.5 107t12.5 100.5q0 84 -53 84q-35 0 -63.5 -49.5t-41 -107.5t-12.5 -101q0 -83 54 -83z" />
    <glyph glyph-name="Uhorn" unicode="&#x1af;" horiz-adv-x="464" 
d="M600 743q0 -41 -33.5 -84t-82.5 -65l-90 -410q-44 -196 -197 -196q-69 0 -113.5 42t-44.5 113q0 22 5 45l106 479h104l-108 -488q-3 -21 -3 -32q0 -32 17 -49.5t45 -17.5q32 0 52 23t32 76l107 488h104l-5 -23q38 28 50 59q-1 -1 -7 -1q-16 0 -27 11t-11 29q0 21 16 36.5
t37 15.5t34 -13t13 -38z" />
    <glyph glyph-name="uhorn" unicode="&#x1b0;" 
d="M479 555q0 -35 -24.5 -73t-63.5 -62l-93 -420h-94l14 62q-54 -74 -120 -74q-39 0 -61.5 21t-22.5 57q0 18 4 30l85 387h94l-79 -355q-3 -21 -3 -22q0 -35 34 -35q45 0 86 69l76 343h93q14 16 20 32q-1 -1 -7 -1q-15 0 -26 11t-11 29q0 21 16 36.5t37 15.5q20 0 33 -13.5
t13 -37.5z" />
    <glyph glyph-name="AEacute" unicode="&#x1fc;" horiz-adv-x="584" 
d="M591 867l-135 -144h-63l111 144h87zM494 0h-273l30 136h-116l-70 -136h-110l368 667h318l-20 -92h-168l-42 -189h162l-21 -92h-162l-44 -202h168zM272 228l68 309l-159 -309h91z" />
    <glyph glyph-name="aeacute" unicode="&#x1fd;" horiz-adv-x="626" 
d="M534 700l-135 -144h-63l111 144h87zM229 412q-35 0 -63 -51.5t-39.5 -110t-11.5 -102.5q0 -77 51 -77q19 0 39.5 19.5t33.5 47.5l46 206q-3 29 -19 48.5t-37 19.5zM322 87l-20 -87h-94l14 60q-45 -72 -102 -72q-50 0 -76 38t-26 111q0 49 12 108.5t34.5 116.5t60.5 95
t84 38q72 0 92 -77l15 65h93l-13 -59q45 71 106 71q107 -2 107 -151q0 -61 -19 -133h-240q-5 -24 -5 -53q0 -40 20.5 -66t62.5 -26q41 0 84 48l35 -65q-53 -61 -117 -61q-93 0 -108 99zM364 278h151q8 34 8 60q0 36 -14.5 58t-41.5 22q-41 0 -67.5 -43.5t-35.5 -96.5z" />
    <glyph glyph-name="Oslashacute" unicode="&#x1fe;" horiz-adv-x="459" 
d="M491 867l-135 -144h-63l111 144h87zM191 -12q-70 0 -111 47l-23 -35h-64l58 86q-17 42 -17 104t16 140.5t46.5 158.5t86 134.5t123.5 54.5q69 0 111 -49l25 38h64l-60 -89q17 -48 17 -104q0 -47 -9.5 -107.5t-31 -127.5t-51.5 -122.5t-77.5 -92t-102.5 -36.5zM299 585
q-32 0 -61 -38.5t-48 -96.5t-31.5 -117.5t-16.5 -111.5l209 310q-13 54 -52 54zM197 81q42 0 78 65.5t54.5 144.5t24.5 150l-208 -309q11 -51 51 -51z" />
    <glyph glyph-name="oslashacute" unicode="&#x1ff;" 
d="M426 700l-135 -144h-63l111 144h87zM42 0h-58l51 66q-15 38 -15 90q0 74 23.5 149.5t75 132.5t118.5 57q65 0 101 -38l21 26h58l-53 -68q16 -38 16 -88q0 -74 -23.5 -149.5t-75 -132.5t-118.5 -57q-65 0 -101 38zM232 412q-48 0 -80 -81.5t-37 -161.5l163 209
q-12 34 -46 34zM169 71q47 0 79 82t36 159l-162 -209q12 -32 47 -32z" />
    <glyph glyph-name="Scommaaccent" unicode="&#x218;" horiz-adv-x="378" 
d="M161 -121q0 -43 -31.5 -85.5t-76.5 -65.5l-29 32q26 13 47.5 33.5t29.5 41.5q-1 -1 -8 -1q-16 0 -28 12t-12 31q0 23 17.5 40t39.5 17t36.5 -14.5t14.5 -40.5zM140 -12q-50 0 -93.5 20t-66.5 53l62 77q16 -25 43 -41t55 -16q36 0 63 30t27 79q0 31 -23 64t-50.5 59.5
t-50.5 69t-23 89.5q0 86 57 146t136 60q90 0 141 -60l-57 -77q-33 44 -85 44q-36 0 -59 -28t-23 -67q0 -23 15 -48t36.5 -49t42.5 -50t36 -61.5t15 -74.5q0 -92 -56 -155.5t-142 -63.5z" />
    <glyph glyph-name="scommaaccent" unicode="&#x219;" horiz-adv-x="331" 
d="M133 -121q0 -43 -31.5 -85.5t-76.5 -65.5l-29 32q26 13 47.5 33.5t29.5 41.5q-1 -1 -8 -1q-16 0 -28 12t-12 31q0 23 17.5 40t39.5 17t36.5 -14.5t14.5 -40.5zM123 -12q-48 0 -87 19t-57 50l53 61q32 -55 93 -55q29 0 49 20.5t20 48.5q0 24 -22 47.5t-48 41t-48 50
t-22 71.5q0 63 41.5 108t113.5 45q38 0 74 -17t58 -46l-51 -59q-10 19 -33.5 33t-49.5 14q-28 0 -45 -17t-17 -44q0 -21 22.5 -43.5t49 -41t49 -51.5t22.5 -73q0 -67 -46 -114.5t-119 -47.5z" />
    <glyph glyph-name="uni021A" unicode="&#x21a;" horiz-adv-x="346" 
d="M150 -121q0 -43 -31.5 -85.5t-76.5 -65.5l-29 32q26 13 47.5 33.5t29.5 41.5q-1 -1 -8 -1q-16 0 -28 12t-12 31q0 23 17.5 40t39.5 17t36.5 -14.5t14.5 -40.5zM171 0h-104l127 575h-103l20 92h310l-20 -92h-103z" />
    <glyph glyph-name="uni021B" unicode="&#x21b;" horiz-adv-x="247" 
d="M98 -121q0 -43 -31.5 -85.5t-76.5 -65.5l-29 32q26 13 47.5 33.5t29.5 41.5q-1 -1 -8 -1q-16 0 -28 12t-12 31q0 23 17.5 40t39.5 17t36.5 -14.5t14.5 -40.5zM128 -12q-99 0 -99 80q0 19 5 39l66 294h-47l18 82h47l29 132h94l-29 -132h63l-19 -82h-62l-62 -278
q-4 -16 -4 -25q0 -27 28 -27q14 0 27 9l6 -75q-25 -17 -61 -17z" />
    <glyph glyph-name="uni0237" unicode="&#x237;" horiz-adv-x="194" 
d="M-56 -196q-50 0 -70 30l41 69q6 -16 25 -16q31 0 43 59l120 537h94l-120 -537q-17 -76 -47 -109t-86 -33z" />
    <glyph glyph-name="hsuperior" unicode="&#x2b0;" horiz-adv-x="300" 
d="M278 326h-70l49 222q3 12 3 17q0 24 -25 24q-28 0 -59 -47l-47 -216h-70l95 434h70l-35 -161q34 49 82 49q30 0 47 -15t17 -39q0 -1 -3 -25z" />
    <glyph glyph-name="uni02BC" unicode="&#x2bc;" horiz-adv-x="241" 
d="M269 611q0 -50 -37 -100t-90 -76l-36 37q29 15 54.5 38t34.5 46h-9q-20 0 -34.5 14.5t-14.5 37.5q0 28 21.5 48.5t48.5 20.5q26 0 44 -17.5t18 -48.5z" />
    <glyph glyph-name="circumflex" unicode="&#x2c6;" horiz-adv-x="217" 
d="M286 556h-51l-36 98l-74 -98h-56l96 144h87z" />
    <glyph glyph-name="caron" unicode="&#x2c7;" horiz-adv-x="217" 
d="M223 556h-87l-35 144h52l34 -98l76 98h55z" />
    <glyph glyph-name="uni02C9" unicode="&#x2c9;" horiz-adv-x="254" 
d="M330 591h-253l12 57h253z" />
    <glyph glyph-name="uni02CB" unicode="&#x2cb;" horiz-adv-x="164" 
d="M233 556h-61l-71 144h85z" />
    <glyph glyph-name="breve" unicode="&#x2d8;" horiz-adv-x="244" 
d="M325 610q-59 -62 -135 -62t-109 62l50 35q18 -40 68 -40t84 40z" />
    <glyph glyph-name="dotaccent" unicode="&#x2d9;" horiz-adv-x="134" 
d="M202 612q0 -25 -18.5 -43t-42.5 -18q-21 0 -35 14t-14 35q0 24 18.5 42t43.5 18q21 0 34.5 -14t13.5 -34z" />
    <glyph glyph-name="ring" unicode="&#x2da;" horiz-adv-x="172" 
d="M161 540q-34 0 -55.5 22t-21.5 57q0 38 29 67t67 29q34 0 55.5 -22t21.5 -57q0 -38 -29 -67t-67 -29zM165 584q20 0 34.5 14.5t14.5 33.5q0 17 -10.5 28t-26.5 11q-20 0 -34.5 -14.5t-14.5 -33.5q0 -17 10.5 -28t26.5 -11z" />
    <glyph glyph-name="ogonek" unicode="&#x2db;" horiz-adv-x="148" 
d="M27 -112l37 -26q-28 -48 -75 -48q-31 0 -49.5 15.5t-18.5 46.5q0 82 103 149l34 -25q-87 -55 -87 -119q0 -23 23 -23q22 0 33 30z" />
    <glyph glyph-name="tilde" unicode="&#x2dc;" horiz-adv-x="243" 
d="M241 554q-21 0 -33.5 13t-16.5 28.5t-11 28.5t-18 13q-24 0 -41 -77h-51q30 134 99 134q21 0 34 -13t17 -28.5t11 -28.5t18 -13q24 0 41 77h51q-28 -134 -100 -134z" />
    <glyph glyph-name="hungarumlaut" unicode="&#x2dd;" horiz-adv-x="252" 
d="M230 700l-111 -144h-52l87 144h76zM353 700l-111 -144h-52l87 144h76z" />
    <glyph glyph-name="hookabovecomb" unicode="&#x309;" horiz-adv-x="148" 
d="M217 733l-34 11q21 46 63 46q54 0 54 -51q0 -38 -32 -72h-43q33 31 34 63q3 24 -16 24q-15 0 -26 -21z" />
    <glyph glyph-name="uni037E" unicode="&#x37e;" horiz-adv-x="239" 
d="M145 52q0 -50 -37 -100t-90 -76l-36 38q29 14 54.5 37t34.5 47q-1 -1 -9 -1q-20 0 -34.5 14.5t-14.5 37.5q0 28 21.5 48.5t48.5 20.5q26 0 44 -17.5t18 -48.5zM154 361q-25 0 -42 17t-17 42q0 28 20.5 49t49.5 21q25 0 42 -17.5t17 -41.5q0 -29 -20.5 -49.5t-49.5 -20.5z
" />
    <glyph glyph-name="tonos" unicode="&#x384;" 
d="M221 561h-44l65 204h87z" />
    <glyph glyph-name="dieresistonos" unicode="&#x385;" 
d="M284 561h-45l66 204h87zM466 612q0 -23 -18.5 -41t-42.5 -18q-20 0 -34 13.5t-14 34.5q0 23 18.5 41t42.5 18q20 0 34 -13.5t14 -34.5zM212 612q0 -23 -18.5 -41t-42.5 -18q-20 0 -34 13.5t-14 34.5q0 23 18.5 41t42.5 18q20 0 34 -13.5t14 -34.5z" />
    <glyph glyph-name="Alphatonos" unicode="&#x386;" horiz-adv-x="398" 
d="M135 561h-44l65 204h87zM341 0h-104l7 136h-133l-52 -136h-110l283 667h120zM251 228l17 320l-124 -320h107z" />
    <glyph glyph-name="Epsilontonos" unicode="&#x388;" horiz-adv-x="406" 
d="M111 561h-44l65 204h87zM315 0h-273l147 667h273l-20 -92h-169l-42 -189h162l-21 -92h-161l-45 -202h169z" />
    <glyph glyph-name="Etatonos" unicode="&#x389;" horiz-adv-x="503" 
d="M111 561h-44l65 204h87zM392 0h-105l66 297h-142l-65 -297h-104l147 667h104l-61 -278h141l61 278h105z" />
    <glyph glyph-name="Iotatonos" unicode="&#x38a;" horiz-adv-x="257" 
d="M111 561h-44l65 204h87zM146 0h-104l147 667h104z" />
    <glyph glyph-name="Omicrontonos" unicode="&#x38c;" horiz-adv-x="477" 
d="M126 561h-44l65 204h87zM209 -12q-79 0 -118 56t-39 146q0 62 16 140.5t46.5 158.5t86 134.5t123.5 54.5q78 0 117.5 -57t39.5 -147q0 -47 -9.5 -107.5t-31 -127.5t-51.5 -122.5t-77.5 -92t-102.5 -36.5zM215 81q46 0 84.5 77t56.5 166.5t18 152.5q0 108 -57 108
q-46 0 -84.5 -77.5t-56 -167t-17.5 -153.5q0 -106 56 -106z" />
    <glyph glyph-name="Upsilontonos" unicode="&#x38e;" horiz-adv-x="486" 
d="M105 561h-44l65 204h87zM282 0h-104l61 279l-68 388h107l31 -285l158 285h115l-239 -388z" />
    <glyph glyph-name="Omegatonos" unicode="&#x38f;" horiz-adv-x="469" 
d="M126 561h-44l65 204h87zM28 92h84q-49 63 -49 163q0 59 17.5 130.5t48 137.5t80.5 110.5t107 44.5q75 0 120 -46t45 -146q0 -126 -46.5 -232t-113.5 -162h74l-20 -92h-153l20 92q52 41 91 170t39 215q0 56 -13 81.5t-44 25.5q-34 0 -64.5 -43t-50 -105.5t-30.5 -126.5
t-11 -111q0 -73 23 -106l-20 -92h-154z" />
    <glyph glyph-name="iotadieresistonos" unicode="&#x390;" horiz-adv-x="205" 
d="M186 561h-45l66 204h87zM368 612q0 -23 -18.5 -41t-42.5 -18q-20 0 -34 13.5t-14 34.5q0 23 18.5 41t42.5 18q20 0 34 -13.5t14 -34.5zM114 612q0 -23 -18.5 -41t-42.5 -18q-20 0 -34 13.5t-14 34.5q0 23 18.5 41t42.5 18q20 0 34 -13.5t14 -34.5zM92 -12q-52 0 -69 28
t-4 87l83 380h94l-81 -368q-9 -44 18 -44q5 0 15 2l-10 -79q-20 -6 -46 -6z" />
    <glyph glyph-name="Alpha" unicode="&#x391;" horiz-adv-x="398" 
d="M341 0h-104l7 136h-133l-52 -136h-110l283 667h120zM251 228l17 320l-124 -320h107z" />
    <glyph glyph-name="Beta" unicode="&#x392;" horiz-adv-x="431" 
d="M201 0h-198l147 667h145q70 0 109 -39.5t39 -100.5q0 -68 -36.5 -125t-95.5 -67q36 -11 54 -44.5t18 -74.5q0 -85 -48 -150.5t-134 -65.5zM245 386q40 0 63.5 39.5t23.5 82.5q0 67 -67 67h-31l-42 -189h53zM183 92q41 0 68 39.5t27 92.5q0 70 -68 70h-38l-45 -202h56z
" />
    <glyph glyph-name="Gamma" unicode="&#x393;" horiz-adv-x="365" 
d="M107 0h-104l147 667h273l-20 -92h-169z" />
    <glyph glyph-name="uni0394" unicode="&#x394;" horiz-adv-x="398" 
d="M341 0h-392l283 667h120zM244 92l24 456l-177 -456h153z" />
    <glyph glyph-name="Epsilon" unicode="&#x395;" horiz-adv-x="367" 
d="M276 0h-273l147 667h273l-20 -92h-169l-42 -189h162l-21 -92h-161l-45 -202h169z" />
    <glyph glyph-name="Zeta" unicode="&#x396;" horiz-adv-x="360" 
d="M276 0h-299l19 89l277 486h-169l20 92h292l-19 -85l-280 -490h179z" />
    <glyph glyph-name="Eta" unicode="&#x397;" horiz-adv-x="463" 
d="M353 0h-105l66 297h-142l-65 -297h-104l147 667h104l-61 -278h141l61 278h105z" />
    <glyph glyph-name="Theta" unicode="&#x398;" horiz-adv-x="459" 
d="M302 294h-124l20 92h124zM191 -12q-79 0 -118 56t-39 146q0 62 16 140.5t46.5 158.5t86 134.5t123.5 54.5q78 0 117.5 -57t39.5 -147q0 -47 -9.5 -107.5t-31 -127.5t-51.5 -122.5t-77.5 -92t-102.5 -36.5zM197 81q46 0 84.5 77t56.5 166.5t18 152.5q0 108 -57 108
q-46 0 -84.5 -77.5t-56 -167t-17.5 -153.5q0 -106 56 -106z" />
    <glyph glyph-name="Iota" unicode="&#x399;" horiz-adv-x="218" 
d="M107 0h-104l147 667h104z" />
    <glyph glyph-name="Kappa" unicode="&#x39a;" horiz-adv-x="448" 
d="M388 0h-111l-67 272l-63 -88l-40 -184h-104l147 667h104l-68 -310l215 310h121l-234 -315z" />
    <glyph glyph-name="Lambda" unicode="&#x39b;" horiz-adv-x="398" 
d="M341 0h-104l31 548l-209 -548h-110l283 667h120z" />
    <glyph glyph-name="Mu" unicode="&#x39c;" horiz-adv-x="591" 
d="M481 0h-103l98 445l-216 -445h-37l-17 445l-99 -445h-104l147 667h133l16 -393l193 393h136z" />
    <glyph glyph-name="Nu" unicode="&#x39d;" horiz-adv-x="463" 
d="M353 0h-99l-57 409l-90 -409h-104l147 667h104l53 -396l88 396h105z" />
    <glyph glyph-name="Xi" unicode="&#x39e;" horiz-adv-x="387" 
d="M421 575h-311l20 92h311zM294 0h-310l20 92h310zM352 294h-296l20 92h296z" />
    <glyph glyph-name="Omicron" unicode="&#x39f;" horiz-adv-x="459" 
d="M191 -12q-79 0 -118 56t-39 146q0 62 16 140.5t46.5 158.5t86 134.5t123.5 54.5q78 0 117.5 -57t39.5 -147q0 -47 -9.5 -107.5t-31 -127.5t-51.5 -122.5t-77.5 -92t-102.5 -36.5zM197 81q46 0 84.5 77t56.5 166.5t18 152.5q0 108 -57 108q-46 0 -84.5 -77.5t-56 -167
t-17.5 -153.5q0 -106 56 -106z" />
    <glyph glyph-name="Pi" unicode="&#x3a0;" horiz-adv-x="463" 
d="M353 0h-105l127 575h-142l-126 -575h-104l147 667h350z" />
    <glyph glyph-name="Rho" unicode="&#x3a1;" horiz-adv-x="418" 
d="M107 0h-104l147 667h148q66 0 106.5 -45t40.5 -117q0 -101 -59.5 -175.5t-166.5 -74.5h-56zM183 347h44q51 0 80 45.5t29 103.5q0 38 -17 58.5t-45 20.5h-40z" />
    <glyph glyph-name="Sigma" unicode="&#x3a3;" horiz-adv-x="337" 
d="M211 575l62 -238l-168 -245h166l-20 -92h-274l23 106l169 248l-62 231l18 82h273l-20 -92h-167z" />
    <glyph glyph-name="Tau" unicode="&#x3a4;" horiz-adv-x="346" 
d="M171 0h-104l127 575h-103l20 92h310l-20 -92h-103z" />
    <glyph glyph-name="Upsilon" unicode="&#x3a5;" horiz-adv-x="405" 
d="M201 0h-104l61 279l-68 388h107l31 -285l158 285h115l-239 -388z" />
    <glyph glyph-name="Phi" unicode="&#x3a6;" horiz-adv-x="625" 
d="M311 0h-105l16 69q-175 29 -175 213q0 51 18 103t53 98.5t93.5 78.5t131.5 38l15 67h105l-16 -71q174 -30 174 -212q0 -41 -11 -82.5t-34.5 -82t-57.5 -73t-83.5 -54.5t-108.5 -27zM157 282q0 -97 86 -119l78 341q-58 -11 -97 -49.5t-53 -82t-14 -90.5zM511 384
q0 97 -86 119l-77 -341q83 17 123 81.5t40 140.5z" />
    <glyph glyph-name="Chi" unicode="&#x3a7;" horiz-adv-x="408" 
d="M354 0h-110l-38 241l-139 -241h-120l221 345l-66 322h110l31 -230l129 230h121l-211 -332z" />
    <glyph glyph-name="Psi" unicode="&#x3a8;" horiz-adv-x="642" 
d="M319 0h-104l29 129q-167 25 -167 167q0 33 9 71l69 300h105l-72 -316q-6 -28 -6 -46q2 -70 83 -85l102 447h104l-102 -447q111 20 137 131l72 316h105l-76 -334q-22 -94 -93 -147t-167 -61z" />
    <glyph glyph-name="uni03A9" unicode="&#x3a9;" horiz-adv-x="447" 
d="M6 92h84q-49 63 -49 163q0 59 17.5 130.5t48 137.5t80.5 110.5t107 44.5q75 0 120 -46t45 -146q0 -126 -46.5 -232t-113.5 -162h74l-20 -92h-153l20 92q52 41 91 170t39 215q0 56 -13 81.5t-44 25.5q-34 0 -64.5 -43t-50 -105.5t-30.5 -126.5t-11 -111q0 -73 23 -106
l-20 -92h-154z" />
    <glyph glyph-name="Iotadieresis" unicode="&#x3aa;" horiz-adv-x="218" 
d="M107 0h-104l147 667h104zM361 796q0 -23 -18.5 -41t-42.5 -18q-20 0 -34 13.5t-14 34.5q0 23 18.5 41t42.5 18q20 0 34 -13.5t14 -34.5zM208 796q0 -23 -18.5 -41t-42.5 -18q-20 0 -34 13.5t-14 34.5q0 23 18.5 41t42.5 18q20 0 34 -13.5t14 -34.5z" />
    <glyph glyph-name="Upsilondieresis" unicode="&#x3ab;" horiz-adv-x="405" 
d="M201 0h-104l61 279l-68 388h107l31 -285l158 285h115l-239 -388zM455 796q0 -23 -18.5 -41t-42.5 -18q-20 0 -34 13.5t-14 34.5q0 23 18.5 41t42.5 18q20 0 34 -13.5t14 -34.5zM302 796q0 -23 -18.5 -41t-42.5 -18q-20 0 -34 13.5t-14 34.5q0 23 18.5 41t42.5 18
q20 0 34 -13.5t14 -34.5z" />
    <glyph glyph-name="alphatonos" unicode="&#x3ac;" horiz-adv-x="417" 
d="M294 561h-44l65 204h87zM360 73l-10 -79q-20 -6 -45 -6q-47 0 -63.5 20.5t-14.5 60.5q-47 -81 -107 -81q-49 0 -75.5 39.5t-26.5 109.5q0 49 12 108.5t34.5 116.5t60.5 95t84 38q72 0 92 -77l15 65h93l-81 -368q-9 -44 17 -44q5 0 15 2zM166 71q19 0 39.5 19.5t33.5 47.5
l46 206q-3 29 -19 48.5t-37 19.5q-35 0 -63 -51.5t-39.5 -110t-11.5 -102.5q0 -77 51 -77z" />
    <glyph glyph-name="epsilontonos" unicode="&#x3ad;" horiz-adv-x="366" 
d="M269 561h-44l65 204h87zM139 -12q-66 0 -101.5 32t-35.5 85q0 54 37.5 93.5t89.5 48.5q-32 7 -50.5 34.5t-18.5 60.5q0 68 54.5 110.5t131.5 42.5q101 0 138 -75l-59 -53q-23 52 -80 52q-41 0 -68.5 -22.5t-27.5 -61.5q0 -25 16 -39t45 -14h73l-17 -76h-76
q-38 0 -66 -18.5t-28 -66.5q0 -26 16 -41.5t44 -15.5q69 0 118 56l39 -58q-74 -74 -174 -74z" />
    <glyph glyph-name="etatonos" unicode="&#x3ae;" 
d="M286 561h-44l65 204h87zM258 -184h-94l119 539q3 15 3 22q0 35 -34 35q-45 0 -88 -72l-74 -340h-94l107 483h94l-14 -62q54 74 120 74q39 0 61.5 -21t22.5 -57q0 -18 -4 -30z" />
    <glyph glyph-name="iotatonos" unicode="&#x3af;" horiz-adv-x="205" 
d="M189 561h-44l65 204h87zM92 -12q-52 0 -69 28t-4 87l83 380h94l-81 -368q-9 -44 18 -44q5 0 15 2l-10 -79q-20 -6 -46 -6z" />
    <glyph glyph-name="upsilondieresistonos" unicode="&#x3b0;" 
d="M284 561h-45l66 204h87zM466 612q0 -23 -18.5 -41t-42.5 -18q-20 0 -34 13.5t-14 34.5q0 23 18.5 41t42.5 18q20 0 34 -13.5t14 -34.5zM212 612q0 -23 -18.5 -41t-42.5 -18q-20 0 -34 13.5t-14 34.5q0 23 18.5 41t42.5 18q20 0 34 -13.5t14 -34.5zM149 -12
q-70 0 -102.5 46t-14.5 127l70 322h94l-70 -322q-20 -90 36 -90q51 0 88 82.5t37 185.5q0 70 -14 124l95 32q18 -60 18 -147q0 -58 -13.5 -118t-40 -116t-74.5 -91t-109 -35z" />
    <glyph glyph-name="alpha" unicode="&#x3b1;" horiz-adv-x="417" 
d="M360 73l-10 -79q-20 -6 -45 -6q-47 0 -63.5 20.5t-14.5 60.5q-47 -81 -107 -81q-49 0 -75.5 39.5t-26.5 109.5q0 49 12 108.5t34.5 116.5t60.5 95t84 38q72 0 92 -77l15 65h93l-81 -368q-9 -44 17 -44q5 0 15 2zM166 71q19 0 39.5 19.5t33.5 47.5l46 206q-3 29 -19 48.5
t-37 19.5q-35 0 -63 -51.5t-39.5 -110t-11.5 -102.5q0 -77 51 -77z" />
    <glyph glyph-name="beta" unicode="&#x3b2;" horiz-adv-x="406" 
d="M196 -12q-71 0 -93 73l-53 -245h-94l141 646q25 115 79 165t121 50q129 0 129 -130q0 -67 -33 -125.5t-95 -76.5q67 -27 67 -126q0 -92 -49.5 -161.5t-119.5 -69.5zM190 459l-70 -322q2 -28 16.5 -47t36.5 -19q41 0 68 48.5t27 102.5q0 38 -14 57.5t-36 19.5h-17l18 83
h13q40 0 66.5 43.5t26.5 105.5t-40 62q-64 0 -95 -134z" />
    <glyph glyph-name="gamma" unicode="&#x3b3;" horiz-adv-x="357" 
d="M131 -184h-94l29 131q65 304 -19 536h103q45 -183 16 -348q87 148 130 348h94q-26 -117 -85.5 -244.5t-132.5 -230.5z" />
    <glyph glyph-name="delta" unicode="&#x3b4;" 
d="M156 -12q-72 0 -106 48t-34 121q0 86 38.5 150t113.5 121q-41 46 -41 102q0 64 47.5 106.5t119.5 42.5q87 0 127 -56l-54 -63q-23 44 -79 44q-29 0 -49.5 -19t-20.5 -46q0 -19 16 -38t38 -38.5t44.5 -44.5t38.5 -66.5t16 -92.5q0 -38 -14 -83t-39.5 -88t-68 -71.5
t-93.5 -28.5zM281 252q0 68 -57 123q-109 -87 -109 -212q0 -92 55 -92q49 0 80 63t31 118z" />
    <glyph glyph-name="epsilon" unicode="&#x3b5;" horiz-adv-x="366" 
d="M139 -12q-66 0 -101.5 32t-35.5 85q0 54 37.5 93.5t89.5 48.5q-32 7 -50.5 34.5t-18.5 60.5q0 68 54.5 110.5t131.5 42.5q101 0 138 -75l-59 -53q-23 52 -80 52q-41 0 -68.5 -22.5t-27.5 -61.5q0 -25 16 -39t45 -14h73l-17 -76h-76q-38 0 -66 -18.5t-28 -66.5
q0 -26 16 -41.5t44 -15.5q69 0 118 56l39 -58q-74 -74 -174 -74z" />
    <glyph glyph-name="zeta" unicode="&#x3b6;" horiz-adv-x="333" 
d="M163 -32q0 20 -25 20q-59 0 -93 43.5t-34 108.5q0 43 13 90.5t42 105t85 122.5t134 127h-172l18 82h266l-15 -69q-117 -98 -193 -218t-76 -218q0 -39 17.5 -65t53.5 -26q70 0 70 -63q0 -61 -77 -165h-89q75 85 75 125z" />
    <glyph glyph-name="eta" unicode="&#x3b7;" 
d="M258 -184h-94l119 539q3 15 3 22q0 35 -34 35q-45 0 -88 -72l-74 -340h-94l107 483h94l-14 -62q54 74 120 74q39 0 61.5 -21t22.5 -57q0 -18 -4 -30z" />
    <glyph glyph-name="theta" unicode="&#x3b8;" 
d="M165 -12q-63 0 -100.5 51t-37.5 149q0 108 30.5 220t90 191.5t129.5 79.5q63 0 100 -51.5t37 -149.5q0 -108 -30.5 -219.5t-89.5 -191t-129 -79.5zM170 71q36 0 67 63.5t54 159.5h-157q-14 -82 -14 -133q0 -90 50 -90zM271 596q-67 0 -120 -220h156q14 79 14 129
q0 91 -50 91z" />
    <glyph glyph-name="iota" unicode="&#x3b9;" horiz-adv-x="205" 
d="M92 -12q-52 0 -69 28t-4 87l83 380h94l-81 -368q-9 -44 18 -44q5 0 15 2l-10 -79q-20 -6 -46 -6z" />
    <glyph glyph-name="kappa" unicode="&#x3ba;" horiz-adv-x="385" 
d="M321 0h-100l-36 207l-70 -90l-25 -117h-94l107 483h94l-53 -236l177 236h105l-166 -215z" />
    <glyph glyph-name="lambda" unicode="&#x3bb;" horiz-adv-x="357" 
d="M131 590l3 82q21 7 50 7q48 0 70.5 -22t25.5 -80l18 -577h-97l9 364l-157 -364h-102l236 496v61q-2 21 -9.5 30t-23.5 9q-12 0 -23 -6z" />
    <glyph glyph-name="uni03BC" unicode="&#x3bc;" horiz-adv-x="413" 
d="M92 7l-42 -191h-94l147 667h94l-79 -357q-12 -56 31 -56q45 0 86 69l76 344h94l-82 -368q-9 -44 18 -44q5 0 15 2l-10 -79q-20 -6 -46 -6q-43 0 -58.5 20t-11.5 65q-18 -39 -44.5 -62t-53.5 -23q-26 0 -40 19z" />
    <glyph glyph-name="nu" unicode="&#x3bd;" horiz-adv-x="357" 
d="M167 0h-94l-16 483h100l-7 -377q101 168 146 377h94q-26 -119 -87.5 -249t-135.5 -234z" />
    <glyph glyph-name="xi" unicode="&#x3be;" horiz-adv-x="333" 
d="M141 -12q-61 0 -96.5 40t-35.5 102q0 72 36.5 124t100.5 73q-33 9 -49 37t-16 66q0 46 28 87t78 68h-67l18 82h251l-18 -82h-117q-33 -20 -53 -54t-20 -73q0 -37 16.5 -56.5t46.5 -19.5h75l-18 -82h-75q-46 0 -80.5 -39t-34.5 -105q0 -35 18 -60t55 -25q70 0 70 -63
q0 -61 -77 -165h-84q70 86 70 125q0 20 -22 20z" />
    <glyph glyph-name="omicron" unicode="&#x3bf;" 
d="M163 -12q-69 0 -106 43.5t-37 124.5q0 74 23.5 149.5t75 132.5t118.5 57q69 0 106 -43t37 -125q0 -74 -23.5 -149.5t-75 -132.5t-118.5 -57zM169 71q35 0 63 49.5t40.5 107t12.5 100.5q0 84 -53 84q-35 0 -63.5 -49.5t-41 -107.5t-12.5 -101q0 -83 54 -83z" />
    <glyph glyph-name="pi" unicode="&#x3c0;" horiz-adv-x="432" 
d="M313 0h-94l88 401h-114l-88 -401h-94l88 401h-47l18 82h396l-18 -82h-47z" />
    <glyph glyph-name="rho" unicode="&#x3c1;" horiz-adv-x="406" 
d="M196 -12q-71 0 -92 77l-54 -249h-94l93 426q25 112 79.5 182.5t129.5 70.5q63 0 96 -42.5t33 -114.5q0 -46 -12 -103.5t-34 -114t-60.5 -94.5t-84.5 -38zM177 71q35 0 62.5 51.5t39 110t11.5 102.5q0 77 -43 77q-34 0 -60.5 -46t-43.5 -124l-22 -103q2 -27 18 -47.5
t38 -20.5z" />
    <glyph glyph-name="sigma1" unicode="&#x3c2;" horiz-adv-x="327" 
d="M137 -12q-45 0 -80.5 46t-35.5 128q0 74 24.5 148.5t77 129.5t119.5 55q74 0 113 -49l-47 -70q-20 36 -60 36q-39 0 -70 -43t-45.5 -97.5t-14.5 -102.5q0 -49 18.5 -73.5t45.5 -24.5q70 0 70 -62t-77 -166h-87q76 85 76 125q0 20 -27 20z" />
    <glyph glyph-name="sigma" unicode="&#x3c3;" 
d="M372 298q0 -63 -21.5 -131.5t-71.5 -123.5t-116 -55q-69 0 -106 43.5t-37 124.5q0 75 25.5 148t81.5 126t130 53h182l-19 -83h-72q24 -41 24 -102zM283 318q0 57 -14 82h-23q-41 0 -72 -44t-45 -98.5t-14 -103.5q0 -83 54 -83q34 0 62 49t40 104t12 94z" />
    <glyph glyph-name="tau" unicode="&#x3c4;" horiz-adv-x="290" 
d="M140 -12q-52 0 -69 27.5t-4 87.5l65 298h-83l18 82h260l-18 -82h-83l-62 -281q-10 -49 17 -49q18 0 33 15l7 -72q-33 -26 -81 -26z" />
    <glyph glyph-name="upsilon" unicode="&#x3c5;" 
d="M149 -12q-70 0 -102.5 46t-14.5 127l70 322h94l-70 -322q-20 -90 36 -90q51 0 88 82.5t37 185.5q0 70 -14 124l95 32q18 -60 18 -147q0 -58 -13.5 -118t-40 -116t-74.5 -91t-109 -35z" />
    <glyph glyph-name="phi" unicode="&#x3c6;" horiz-adv-x="575" 
d="M553 299q0 -47 -17 -97t-49 -95.5t-86 -77.5t-122 -39l-38 -174h-94l38 177q-83 13 -123 65t-40 129q0 96 49.5 178.5t153.5 129.5l26 -73q-63 -32 -96.5 -93.5t-33.5 -132.5q0 -101 83 -120l92 419h46q106 0 158.5 -54.5t52.5 -141.5zM371 408l-73 -332q45 10 77.5 37.5
t48.5 61.5t23 63t7 52q0 49 -21 80.5t-62 37.5z" />
    <glyph glyph-name="chi" unicode="&#x3c7;" horiz-adv-x="352" 
d="M251 -184h-96l-17 242l-124 -242h-101l184 336l-33 331h95l15 -235l117 235h100l-178 -331z" />
    <glyph glyph-name="psi" unicode="&#x3c8;" horiz-adv-x="576" 
d="M241 -184h-94l39 177q-71 11 -110 50.5t-39 105.5q0 31 10 83l55 251h93l-57 -263q-8 -32 -8 -63q1 -69 74 -83l130 593h94l-130 -592q101 20 129 145l57 263h94l-61 -276q-23 -100 -85.5 -155t-152.5 -63z" />
    <glyph glyph-name="omega" unicode="&#x3c9;" horiz-adv-x="610" 
d="M588 316q0 -44 -12.5 -98t-36.5 -106.5t-65.5 -88t-91.5 -35.5t-78.5 30.5t-28.5 86.5q-50 -117 -141 -117q-56 0 -86.5 46t-30.5 117q0 107 50 204.5t125 139.5l57 -53q-60 -34 -97.5 -118t-37.5 -167q0 -86 40 -86q65 0 103 171l27 123h94l-27 -123q-38 -171 27 -171
q46 0 78.5 86.5t32.5 150.5q0 102 -40 134l79 53q29 -21 44.5 -71.5t15.5 -107.5z" />
    <glyph glyph-name="iotadieresis" unicode="&#x3ca;" horiz-adv-x="205" 
d="M314 612q0 -23 -18.5 -41t-42.5 -18q-20 0 -34 13.5t-14 34.5q0 23 18.5 41t42.5 18q20 0 34 -13.5t14 -34.5zM161 612q0 -23 -18.5 -41t-42.5 -18q-20 0 -34 13.5t-14 34.5q0 23 18.5 41t42.5 18q20 0 34 -13.5t14 -34.5zM92 -12q-52 0 -69 28t-4 87l83 380h94l-81 -368
q-9 -44 18 -44q5 0 15 2l-10 -79q-20 -6 -46 -6z" />
    <glyph glyph-name="upsilondieresis" unicode="&#x3cb;" 
d="M412 612q0 -23 -18.5 -41t-42.5 -18q-20 0 -34 13.5t-14 34.5q0 23 18.5 41t42.5 18q20 0 34 -13.5t14 -34.5zM259 612q0 -23 -18.5 -41t-42.5 -18q-20 0 -34 13.5t-14 34.5q0 23 18.5 41t42.5 18q20 0 34 -13.5t14 -34.5zM149 -12q-70 0 -102.5 46t-14.5 127l70 322h94
l-70 -322q-20 -90 36 -90q51 0 88 82.5t37 185.5q0 70 -14 124l95 32q18 -60 18 -147q0 -58 -13.5 -118t-40 -116t-74.5 -91t-109 -35z" />
    <glyph glyph-name="omicrontonos" unicode="&#x3cc;" 
d="M286 561h-44l65 204h87zM163 -12q-69 0 -106 43.5t-37 124.5q0 74 23.5 149.5t75 132.5t118.5 57q69 0 106 -43t37 -125q0 -74 -23.5 -149.5t-75 -132.5t-118.5 -57zM169 71q35 0 63 49.5t40.5 107t12.5 100.5q0 84 -53 84q-35 0 -63.5 -49.5t-41 -107.5t-12.5 -101
q0 -83 54 -83z" />
    <glyph glyph-name="upsilontonos" unicode="&#x3cd;" 
d="M287 561h-44l65 204h87zM149 -12q-70 0 -102.5 46t-14.5 127l70 322h94l-70 -322q-20 -90 36 -90q51 0 88 82.5t37 185.5q0 70 -14 124l95 32q18 -60 18 -147q0 -58 -13.5 -118t-40 -116t-74.5 -91t-109 -35z" />
    <glyph glyph-name="omegatonos" unicode="&#x3ce;" horiz-adv-x="610" 
d="M391 561h-44l65 204h87zM588 316q0 -44 -12.5 -98t-36.5 -106.5t-65.5 -88t-91.5 -35.5t-78.5 30.5t-28.5 86.5q-50 -117 -141 -117q-56 0 -86.5 46t-30.5 117q0 107 50 204.5t125 139.5l57 -53q-60 -34 -97.5 -118t-37.5 -167q0 -86 40 -86q65 0 103 171l27 123h94
l-27 -123q-38 -171 27 -171q46 0 78.5 86.5t32.5 150.5q0 102 -40 134l79 53q29 -21 44.5 -71.5t15.5 -107.5z" />
    <glyph glyph-name="afii10023" unicode="&#x401;" horiz-adv-x="367" 
d="M441 779q0 -23 -18.5 -41t-42.5 -18q-20 0 -34 13.5t-14 34.5q0 23 18.5 41t42.5 18q20 0 34 -13.5t14 -34.5zM288 779q0 -23 -18.5 -41t-42.5 -18q-20 0 -34 13.5t-14 34.5q0 23 18.5 41t42.5 18q20 0 34 -13.5t14 -34.5zM276 0h-273l147 667h273l-20 -92h-169l-42 -189
h162l-21 -92h-161l-45 -202h169z" />
    <glyph glyph-name="afii10051" unicode="&#x402;" horiz-adv-x="515" 
d="M238 -12l20 93q85 0 108 104l5 21q11 51 -9.5 82.5t-65.5 31.5q-35 0 -55 -5l-69 -315h-105l127 575h-103l20 92h310l-20 -92h-103l-37 -168q38 5 71 5q88 0 125 -59.5t18 -146.5l-5 -21q-22 -102 -86 -149.5t-146 -47.5z" />
    <glyph glyph-name="afii10052" unicode="&#x403;" horiz-adv-x="365" 
d="M462 867l-135 -144h-63l111 144h87zM107 0h-104l147 667h273l-20 -92h-169z" />
    <glyph glyph-name="afii10053" unicode="&#x404;" horiz-adv-x="412" 
d="M191 -12q-75 0 -116 52.5t-41 149.5q0 49 9 109t30.5 127.5t51.5 123t77.5 92t103.5 36.5q73 0 108.5 -49.5t39.5 -125.5l-97 -19q-7 101 -58 101q-76 0 -129 -199h184l-21 -92h-182q-10 -61 -10 -107q0 -106 56 -106q44 0 88 83l83 -36q-68 -140 -177 -140z" />
    <glyph glyph-name="afii10054" unicode="&#x405;" horiz-adv-x="378" 
d="M140 -12q-50 0 -93.5 20t-66.5 53l62 77q16 -25 43 -41t55 -16q36 0 63 30t27 79q0 31 -23 64t-50.5 59.5t-50.5 69t-23 89.5q0 86 57 146t136 60q90 0 141 -60l-57 -77q-33 44 -85 44q-36 0 -59 -28t-23 -67q0 -23 15 -48t36.5 -49t42.5 -50t36 -61.5t15 -74.5
q0 -92 -56 -155.5t-142 -63.5z" />
    <glyph glyph-name="afii10055" unicode="&#x406;" horiz-adv-x="218" 
d="M107 0h-104l147 667h104z" />
    <glyph glyph-name="afii10056" unicode="&#x407;" horiz-adv-x="218" 
d="M358 779q0 -23 -18.5 -41t-42.5 -18q-20 0 -34 13.5t-14 34.5q0 23 18.5 41t42.5 18q20 0 34 -13.5t14 -34.5zM205 779q0 -23 -18.5 -41t-42.5 -18q-20 0 -34 13.5t-14 34.5q0 23 18.5 41t42.5 18q20 0 34 -13.5t14 -34.5zM107 0h-104l147 667h104z" />
    <glyph glyph-name="afii10057" unicode="&#x408;" horiz-adv-x="337" 
d="M82 -12q-79 0 -119 46l45 82q23 -35 66 -35q66 0 83 80l113 506h104l-113 -511q-20 -88 -62.5 -128t-116.5 -40z" />
    <glyph glyph-name="afii10058" unicode="&#x409;" horiz-adv-x="664" 
d="M-35 -12l20 93q25 0 41 12.5t38.5 62t50.5 147.5l105 364h280l-56 -255h43q66 0 107 -45t41 -117q0 -64 -24 -119.5t-76.5 -93t-124.5 -37.5h-161l127 575h-79l-78 -273q-29 -100 -58.5 -164.5t-62 -96t-62.5 -42.5t-71 -11zM464 320h-40l-51 -228h44q51 0 80 45.5
t29 103.5q0 38 -17 58.5t-45 20.5z" />
    <glyph glyph-name="afii10059" unicode="&#x40a;" horiz-adv-x="664" 
d="M398 0h-161l66 297h-142l-66 -297h-103l146 667h104l-61 -278h142l61 278h104l-61 -278h44q66 0 106.5 -43t40.5 -114q0 -91 -60 -161.5t-160 -70.5zM447 297h-40l-46 -205h44q44 0 74 41t30 90q0 74 -62 74z" />
    <glyph glyph-name="afii10060" unicode="&#x40b;" horiz-adv-x="515" 
d="M313 0l46 206q11 53 -4 83.5t-59 30.5q-35 0 -55 -5l-69 -315h-105l127 575h-103l20 92h310l-20 -92h-103l-37 -168q38 5 71 5q87 0 118.5 -58.5t12.5 -147.5l-46 -206h-104z" />
    <glyph glyph-name="afii10061" unicode="&#x40c;" horiz-adv-x="448" 
d="M491 867l-135 -144h-63l111 144h87zM388 0h-111l-67 272l-63 -88l-40 -184h-104l147 667h104l-68 -310l215 310h121l-234 -315z" />
    <glyph glyph-name="afii10062" unicode="&#x40e;" horiz-adv-x="405" 
d="M32 -12q-51 0 -88 29l43 86q19 -20 53 -20q33 0 55 40l41 76l-47 468h109l25 -314l164 314h113l-312 -577q-31 -57 -69 -79.5t-87 -22.5zM437 777q-59 -62 -135 -62t-109 62l50 35q18 -40 68 -40t84 40z" />
    <glyph glyph-name="afii10145" unicode="&#x40f;" horiz-adv-x="463" 
d="M98 -128l28 128h-123l147 667h104l-126 -575h142l126 575h104l-147 -667h-123l-28 -128h-104z" />
    <glyph glyph-name="afii10017" unicode="&#x410;" horiz-adv-x="398" 
d="M341 0h-104l7 136h-133l-52 -136h-110l283 667h120zM251 228l17 320l-124 -320h107z" />
    <glyph glyph-name="afii10018" unicode="&#x411;" horiz-adv-x="418" 
d="M150 667h303l-20 -92h-199l-36 -163h44q66 0 106.5 -45t40.5 -117q0 -64 -24 -119.5t-76.5 -93t-124.5 -37.5h-161zM218 320h-40l-51 -228h44q51 0 80 45.5t29 103.5q0 38 -17 58.5t-45 20.5z" />
    <glyph glyph-name="afii10019" unicode="&#x412;" horiz-adv-x="431" 
d="M201 0h-198l147 667h145q70 0 109 -39.5t39 -100.5q0 -68 -36.5 -125t-95.5 -67q36 -11 54 -44.5t18 -74.5q0 -85 -48 -150.5t-134 -65.5zM245 386q40 0 63.5 39.5t23.5 82.5q0 67 -67 67h-31l-42 -189h53zM183 92q41 0 68 39.5t27 92.5q0 70 -68 70h-38l-45 -202h56z
" />
    <glyph glyph-name="afii10020" unicode="&#x413;" horiz-adv-x="365" 
d="M107 0h-104l147 667h273l-20 -92h-169z" />
    <glyph glyph-name="afii10021" unicode="&#x414;" horiz-adv-x="476" 
d="M-64 -123l44 204q21 5 33 11.5t30 30t36.5 73.5t42.5 133l97 338h280l-127 -575h57l-48 -215h-104l27 123h-238l-27 -123h-103zM296 575l-73 -254q-45 -158 -112 -229h157l107 483h-79z" />
    <glyph glyph-name="afii10022" unicode="&#x415;" horiz-adv-x="367" 
d="M276 0h-273l147 667h273l-20 -92h-169l-42 -189h162l-21 -92h-161l-45 -202h169z" />
    <glyph glyph-name="afii10024" unicode="&#x416;" horiz-adv-x="618" 
d="M76 0h-123l255 352l-96 315h109l68 -275l61 275h104l-55 -249l172 249h121l-234 -315l100 -352h-114l-61 275l-23 -31l-53 -244h-104l54 244l-6 20z" />
    <glyph glyph-name="afii10025" unicode="&#x417;" horiz-adv-x="418" 
d="M174 -12q-65 0 -115.5 35t-67.5 99l86 51q10 -45 34.5 -68.5t56.5 -23.5q46 0 73.5 43t27.5 89q0 81 -77 81h-66l21 92h64q57 0 86 39t29 92q0 30 -17.5 48.5t-49.5 18.5q-58 0 -98 -62l-58 61q72 94 173 94q73 0 118 -37t45 -104q0 -69 -48.5 -128t-110.5 -69
q49 -12 71.5 -47.5t22.5 -78.5q0 -90 -58 -157.5t-142 -67.5z" />
    <glyph glyph-name="afii10026" unicode="&#x418;" horiz-adv-x="463" 
d="M102 0h-99l147 667h105l-88 -396l229 396h104l-147 -667h-104l89 409z" />
    <glyph glyph-name="afii10027" unicode="&#x419;" horiz-adv-x="463" 
d="M102 0h-99l147 667h105l-88 -396l229 396h104l-147 -667h-104l89 409zM468 777q-59 -62 -135 -62t-109 62l50 35q18 -40 68 -40t84 40z" />
    <glyph glyph-name="afii10028" unicode="&#x41a;" horiz-adv-x="448" 
d="M388 0h-111l-67 272l-63 -88l-40 -184h-104l147 667h104l-68 -310l215 310h121l-234 -315z" />
    <glyph glyph-name="afii10029" unicode="&#x41b;" horiz-adv-x="463" 
d="M-37 -12l20 93q25 0 42 13t39.5 63.5t51.5 151.5l103 358h280l-146 -667h-105l126 575h-78l-78 -273q-28 -100 -58 -164.5t-62.5 -96t-63 -42.5t-71.5 -11z" />
    <glyph glyph-name="afii10030" unicode="&#x41c;" horiz-adv-x="591" 
d="M481 0h-103l98 445l-216 -445h-37l-17 445l-99 -445h-104l147 667h133l16 -393l193 393h136z" />
    <glyph glyph-name="afii10031" unicode="&#x41d;" horiz-adv-x="463" 
d="M353 0h-105l66 297h-142l-65 -297h-104l147 667h104l-61 -278h141l61 278h105z" />
    <glyph glyph-name="afii10032" unicode="&#x41e;" horiz-adv-x="459" 
d="M191 -12q-79 0 -118 56t-39 146q0 62 16 140.5t46.5 158.5t86 134.5t123.5 54.5q78 0 117.5 -57t39.5 -147q0 -47 -9.5 -107.5t-31 -127.5t-51.5 -122.5t-77.5 -92t-102.5 -36.5zM197 81q46 0 84.5 77t56.5 166.5t18 152.5q0 108 -57 108q-46 0 -84.5 -77.5t-56 -167
t-17.5 -153.5q0 -106 56 -106z" />
    <glyph glyph-name="afii10033" unicode="&#x41f;" horiz-adv-x="463" 
d="M353 0h-105l127 575h-142l-126 -575h-104l147 667h350z" />
    <glyph glyph-name="afii10034" unicode="&#x420;" horiz-adv-x="418" 
d="M107 0h-104l147 667h148q66 0 106.5 -45t40.5 -117q0 -101 -59.5 -175.5t-166.5 -74.5h-56zM183 347h44q51 0 80 45.5t29 103.5q0 38 -17 58.5t-45 20.5h-40z" />
    <glyph glyph-name="afii10035" unicode="&#x421;" horiz-adv-x="412" 
d="M191 -12q-75 0 -116 52.5t-41 149.5q0 49 9 109t30.5 127.5t51.5 123t77.5 92t103.5 36.5q73 0 108.5 -49.5t39.5 -125.5l-97 -19q-7 101 -58 101q-36 0 -67.5 -47t-50 -113.5t-29.5 -130.5t-11 -107q0 -106 56 -106q44 0 88 83l83 -36q-68 -140 -177 -140z" />
    <glyph glyph-name="afii10036" unicode="&#x422;" horiz-adv-x="346" 
d="M171 0h-104l127 575h-103l20 92h310l-20 -92h-103z" />
    <glyph glyph-name="afii10037" unicode="&#x423;" horiz-adv-x="405" 
d="M32 -12q-51 0 -88 29l43 86q19 -20 53 -20q33 0 55 40l41 76l-47 468h109l25 -314l164 314h113l-312 -577q-31 -57 -69 -79.5t-87 -22.5z" />
    <glyph glyph-name="afii10038" unicode="&#x424;" horiz-adv-x="625" 
d="M311 0h-105l16 69q-175 29 -175 213q0 51 18 103t53 98.5t93.5 78.5t131.5 38l15 67h105l-16 -71q174 -30 174 -212q0 -41 -11 -82.5t-34.5 -82t-57.5 -73t-83.5 -54.5t-108.5 -27zM157 282q0 -97 86 -119l78 341q-58 -11 -97 -49.5t-53 -82t-14 -90.5zM511 384
q0 97 -86 119l-77 -341q83 17 123 81.5t40 140.5z" />
    <glyph glyph-name="afii10039" unicode="&#x425;" horiz-adv-x="408" 
d="M354 0h-110l-38 241l-139 -241h-120l221 345l-66 322h110l31 -230l129 230h121l-211 -332z" />
    <glyph glyph-name="afii10040" unicode="&#x426;" horiz-adv-x="476" 
d="M278 -123l27 123h-302l147 667h104l-126 -575h142l126 575h104l-127 -575h57l-48 -215h-104z" />
    <glyph glyph-name="afii10041" unicode="&#x427;" horiz-adv-x="450" 
d="M241 667l-45 -206q-12 -52 3.5 -83t59.5 -31q33 0 54 5l69 315h105l-147 -667h-105l57 260q-38 -5 -70 -5q-87 0 -118.5 58.5t-11.5 147.5l45 206h104z" />
    <glyph glyph-name="afii10042" unicode="&#x428;" horiz-adv-x="658" 
d="M591 667h104l-147 -667h-546l147 667h104l-126 -575h117l126 575h104l-126 -575h117z" />
    <glyph glyph-name="afii10043" unicode="&#x429;" horiz-adv-x="671" 
d="M591 667h104l-127 -575h52l-48 -215h-104l27 123h-493l147 667h104l-126 -575h117l126 575h104l-126 -575h117z" />
    <glyph glyph-name="afii10044" unicode="&#x42a;" horiz-adv-x="482" 
d="M228 0h-161l126 575h-102l20 92h207l-56 -255h44q66 0 106.5 -45t40.5 -117q0 -64 -24 -119.5t-76.5 -93t-124.5 -37.5zM282 320h-40l-51 -228h44q51 0 80 45.5t29 103.5q0 38 -17 58.5t-45 20.5z" />
    <glyph glyph-name="afii10045" unicode="&#x42b;" horiz-adv-x="610" 
d="M500 0h-104l147 667h104zM150 667h104l-56 -255h44q66 0 106.5 -45t40.5 -117q0 -64 -24 -119.5t-76.5 -93t-124.5 -37.5h-161zM218 320h-40l-51 -228h44q51 0 80 45.5t29 103.5q0 38 -17 58.5t-45 20.5z" />
    <glyph glyph-name="afii10046" unicode="&#x42c;" horiz-adv-x="418" 
d="M150 667h104l-56 -255h44q66 0 106.5 -45t40.5 -117q0 -64 -24 -119.5t-76.5 -93t-124.5 -37.5h-161zM218 320h-40l-51 -228h44q51 0 80 45.5t29 103.5q0 38 -17 58.5t-45 20.5z" />
    <glyph glyph-name="afii10047" unicode="&#x42d;" horiz-adv-x="412" 
d="M259 678q75 0 116 -52.5t41 -149.5q0 -49 -9 -109t-30.5 -127.5t-51.5 -123t-77.5 -92t-103.5 -36.5q-73 0 -108.5 49.5t-39.5 125.5l97 19q7 -101 58 -101q42 0 76 61t56 152h-184l21 92h180q9 54 9 93q0 106 -56 106q-44 0 -88 -83l-83 36q68 140 177 140z" />
    <glyph glyph-name="afii10048" unicode="&#x42e;" horiz-adv-x="662" 
d="M395 -12q-79 0 -118 56t-39 146q0 46 9 107h-74l-66 -297h-104l147 667h104l-61 -278h74q33 123 94 206t149 83q78 0 117.5 -57t39.5 -147q0 -47 -9.5 -107.5t-31 -127.5t-51.5 -122.5t-77.5 -92t-102.5 -36.5zM401 81q46 0 84.5 77t56.5 166.5t18 152.5q0 108 -57 108
q-46 0 -84.5 -77.5t-56 -167t-17.5 -153.5q0 -106 56 -106z" />
    <glyph glyph-name="afii10049" unicode="&#x42f;" horiz-adv-x="438" 
d="M104 0h-120l160 285q-56 45 -56 132q0 101 59.5 175.5t166.5 74.5h160l-147 -667h-104l57 255h-42zM259 347h40l51 228h-44q-51 0 -80 -45.5t-29 -103.5q0 -38 17 -58.5t45 -20.5z" />
    <glyph glyph-name="afii10065" unicode="&#x430;" horiz-adv-x="406" 
d="M209 495q72 0 92 -77l15 65h93l-107 -483h-94l14 60q-45 -72 -102 -72q-50 0 -76 38t-26 111q0 49 12 108.5t34.5 116.5t60.5 95t84 38zM229 412q-35 0 -63 -51.5t-39.5 -110t-11.5 -102.5q0 -77 51 -77q19 0 39.5 19.5t33.5 47.5l46 206q-3 29 -19 48.5t-37 19.5z" />
    <glyph glyph-name="afii10066" unicode="&#x431;" 
d="M169 71q35 0 63 49.5t40.5 107t12.5 100.5q0 84 -53 84q-35 0 -63.5 -49.5t-41 -107.5t-12.5 -101q0 -83 54 -83zM163 -12q-69 0 -106 43.5t-37 124.5q0 86 50 254q50 173 227 211q50 11 57 46h94q-7 -33 -24.5 -57.5t-43 -38.5t-45 -21t-45.5 -13q-62 -14 -96 -38.5
t-50 -71.5q45 68 124 68q48 0 80 -44.5t32 -123.5q0 -74 -23.5 -149.5t-75 -132.5t-118.5 -57z" />
    <glyph glyph-name="afii10067" unicode="&#x432;" 
d="M185 0h-189l106 483h148q61 0 95.5 -26t35.5 -72q1 -48 -26.5 -87t-82.5 -52q66 -21 68 -85t-38.5 -112.5t-116.5 -48.5zM106 75h59q38 0 59 26t20 57q-1 52 -60 52h-48zM152 285h54q35 0 54 24t19 50q0 49 -57 49h-43z" />
    <glyph glyph-name="afii10068" unicode="&#x433;" horiz-adv-x="301" 
d="M335 483l-18 -82h-139l-88 -401h-94l106 483h233z" />
    <glyph glyph-name="afii10069" unicode="&#x434;" horiz-adv-x="415" 
d="M-64 -123l42 194q20 5 27.5 8.5t22.5 17t26 41.5t24 74l74 271h252l-88 -401h50l-46 -205h-94l27 123h-197l-27 -123h-93zM224 401l-53 -194q-24 -86 -71 -125h122l70 319h-68z" />
    <glyph glyph-name="afii10070" unicode="&#x435;" horiz-adv-x="391" 
d="M174 -12q-73 0 -113.5 45t-40.5 130q0 34 7.5 76t25 87.5t42 83t61.5 61.5t80 24q138 0 138 -158q0 -50 -19 -126h-241q-6 -23 -6 -53q0 -40 19.5 -66.5t62.5 -26.5q45 0 85 47l36 -58q-58 -66 -137 -66zM127 278h153q8 32 8 60q0 35 -15.5 57.5t-43.5 22.5
q-41 0 -67 -43.5t-35 -96.5z" />
    <glyph glyph-name="afii10072" unicode="&#x436;" horiz-adv-x="508" 
d="M64 0h-108l178 268l-70 215h97l56 -188l42 188h94l-37 -167l125 167h107l-166 -215l62 -268h-96l-37 210l-25 -32l-39 -178h-94l38 176l-7 22z" />
    <glyph glyph-name="afii10073" unicode="&#x437;" horiz-adv-x="366" 
d="M226 495q66 0 100.5 -32t34.5 -85q0 -54 -34.5 -91t-86.5 -46q32 -7 52.5 -37t20.5 -63q0 -68 -54.5 -110.5t-131.5 -42.5q-49 0 -87.5 20t-55.5 55l59 53q23 -52 85 -52q41 0 68.5 22.5t27.5 61.5q0 25 -18 41.5t-47 16.5h-73l17 76h76q37 0 62.5 21.5t25.5 58.5
q0 26 -15 41.5t-43 15.5q-66 0 -115 -56l-39 58q74 74 171 74z" />
    <glyph glyph-name="afii10074" unicode="&#x438;" 
d="M89 0h-93l106 483h94l-62 -282l171 282h99l-106 -483h-94l64 292z" />
    <glyph glyph-name="afii10075" unicode="&#x439;" 
d="M89 0h-93l106 483h94l-62 -282l171 282h99l-106 -483h-94l64 292zM401 610q-59 -62 -135 -62t-109 62l50 35q18 -40 68 -40t84 40z" />
    <glyph glyph-name="afii10076" unicode="&#x43a;" horiz-adv-x="385" 
d="M321 0h-100l-36 207l-70 -90l-25 -117h-94l107 483h94l-53 -236l177 236h105l-166 -215z" />
    <glyph glyph-name="afii10077" unicode="&#x43b;" 
d="M-40 -12l18 83q33 0 54.5 26t45.5 115l74 271h252l-106 -483h-94l88 401h-68l-53 -194q-34 -128 -84.5 -173.5t-126.5 -45.5z" />
    <glyph glyph-name="afii10078" unicode="&#x43c;" horiz-adv-x="509" 
d="M405 0h-92l64 294l-157 -294h-39l-27 294l-64 -294h-94l106 483h113l27 -271l148 271h121z" />
    <glyph glyph-name="afii10079" unicode="&#x43d;" 
d="M90 0h-94l106 483h94l-42 -190h114l42 190h94l-106 -483h-94l46 211h-114z" />
    <glyph glyph-name="afii10080" unicode="&#x43e;" 
d="M163 -12q-69 0 -106 43.5t-37 124.5q0 74 23.5 149.5t75 132.5t118.5 57q69 0 106 -43t37 -125q0 -74 -23.5 -149.5t-75 -132.5t-118.5 -57zM169 71q35 0 63 49.5t40.5 107t12.5 100.5q0 84 -53 84q-35 0 -63.5 -49.5t-41 -107.5t-12.5 -101q0 -83 54 -83z" />
    <glyph glyph-name="afii10081" unicode="&#x43f;" 
d="M298 0h-94l88 401h-114l-88 -401h-94l106 483h302z" />
    <glyph glyph-name="afii10082" unicode="&#x440;" horiz-adv-x="406" 
d="M196 -12q-71 0 -92 77l-55 -249h-93l147 667h94l-14 -60q45 72 102 72q50 0 76 -38t26 -111q0 -49 -12 -108.5t-34.5 -116.5t-60.5 -95t-84 -38zM177 71q35 0 62.5 51.5t39 110t11.5 102.5q0 77 -51 77q-19 0 -39.5 -19.5t-33.5 -47.5l-46 -206q3 -29 19 -48.5t38 -19.5z
" />
    <glyph glyph-name="afii10083" unicode="&#x441;" horiz-adv-x="333" 
d="M170 -12q-70 0 -109.5 44.5t-39.5 129.5q0 74 24.5 148.5t77 129.5t119.5 55q74 0 113 -49l-47 -70q-20 36 -60 36q-39 0 -70 -43t-45.5 -97.5t-14.5 -102.5q0 -98 72 -98q33 0 60 29l19 -74q-42 -38 -99 -38z" />
    <glyph glyph-name="afii10084" unicode="&#x442;" horiz-adv-x="290" 
d="M138 0h-94l88 401h-80l18 82h254l-18 -82h-80z" />
    <glyph glyph-name="afii10085" unicode="&#x443;" horiz-adv-x="357" 
d="M-57 -185l31 78q6 -6 23 -6q24 0 44 39l31 64l-14 493h97l-8 -364l156 364h102l-276 -577q-29 -58 -57 -80t-68 -22q-35 0 -61 11z" />
    <glyph glyph-name="afii10086" unicode="&#x444;" horiz-adv-x="610" 
d="M209 495q64 0 86 -78l55 250h94l-54 -244q45 72 100 72q94 0 94 -149q0 -49 -12 -108.5t-34 -116.5t-59 -95t-81 -38q-64 0 -86 78l-55 -250h-94l54 244q-45 -72 -100 -72q-94 0 -94 149q0 49 12 108.5t34 116.5t59 95t81 38zM233 412q-33 0 -60 -51.5t-39.5 -110.5
t-12.5 -102q0 -41 9.5 -59t34.5 -18q38 0 69 67l44 201q-7 73 -45 73zM374 71q33 0 60 51.5t39.5 110.5t12.5 102q0 41 -9.5 59t-34.5 18q-36 0 -69 -67l-44 -201q7 -73 45 -73z" />
    <glyph glyph-name="afii10087" unicode="&#x445;" horiz-adv-x="352" 
d="M291 0h-98l-30 173l-107 -173h-103l164 244l-52 239h97l26 -168l102 168h102l-159 -239z" />
    <glyph glyph-name="afii10088" unicode="&#x446;" horiz-adv-x="415" 
d="M227 -123l27 123h-257l105 483h94l-88 -401h114l88 401h94l-88 -401h50l-45 -205h-94z" />
    <glyph glyph-name="afii10089" unicode="&#x447;" horiz-adv-x="390" 
d="M90 483h94l-33 -154q-7 -28 3 -41.5t42 -13.5t60 15l42 194h94l-106 -483h-94l48 218q-41 -27 -93 -27q-67 0 -88.5 26t-8.5 81z" />
    <glyph glyph-name="afii10090" unicode="&#x448;" horiz-adv-x="584" 
d="M492 483h94l-106 -483h-483l105 483h94l-88 -401h101l88 401h94l-88 -401h101z" />
    <glyph glyph-name="afii10091" unicode="&#x449;" horiz-adv-x="597" 
d="M492 483h94l-88 -401h50l-45 -205h-94l27 123h-439l105 483h94l-88 -401h101l88 401h94l-88 -401h101z" />
    <glyph glyph-name="afii10092" unicode="&#x44a;" horiz-adv-x="425" 
d="M204 0h-160l88 401h-80l18 82h174l-40 -180h41q64 0 101.5 -31.5t37.5 -87.5q0 -71 -48 -127.5t-132 -56.5zM228 228h-40l-34 -153h51q36 0 57 31t21 67q0 55 -55 55z" />
    <glyph glyph-name="afii10093" unicode="&#x44b;" horiz-adv-x="546" 
d="M442 0h-94l106 483h94zM102 483h94l-40 -180h41q64 0 101.5 -31.5t37.5 -87.5q0 -71 -48 -127.5t-132 -56.5h-160zM180 228h-40l-34 -153h51q36 0 57 31t21 67q0 55 -55 55z" />
    <glyph glyph-name="afii10094" unicode="&#x44c;" horiz-adv-x="377" 
d="M102 483h94l-40 -180h41q64 0 101.5 -31.5t37.5 -87.5q0 -71 -48 -127.5t-132 -56.5h-160zM180 228h-40l-34 -153h51q36 0 57 31t21 67q0 55 -55 55z" />
    <glyph glyph-name="afii10095" unicode="&#x44d;" horiz-adv-x="333" 
d="M162 495q70 0 109.5 -44.5t39.5 -129.5q0 -74 -24.5 -148.5t-77 -129.5t-119.5 -55q-74 0 -113 49l43 64q20 -36 60 -36q38 0 68 39t48 99h-143l18 82h141q2 20 2 29q0 50 -20 77t-53 27t-60 -29l-19 71q42 35 100 35z" />
    <glyph glyph-name="afii10096" unicode="&#x44e;" horiz-adv-x="587" 
d="M348 -12q-69 0 -106 43.5t-37 124.5q0 26 3 55h-71l-47 -211h-93l105 483h94l-41 -190h71q26 87 76 144.5t120 57.5q69 0 106 -43t37 -125q0 -74 -23.5 -149.5t-75 -132.5t-118.5 -57zM354 71q35 0 63 49.5t40.5 107t12.5 100.5q0 84 -53 84q-35 0 -63.5 -49.5
t-41 -107.5t-12.5 -101q0 -83 54 -83z" />
    <glyph glyph-name="afii10097" unicode="&#x44f;" 
d="M87 0h-110l131 199q-54 33 -54 100q0 71 48 127.5t132 56.5h170l-106 -483h-94l40 180h-47zM210 255h50l34 153h-61q-36 0 -57 -31t-21 -67q0 -55 55 -55z" />
    <glyph glyph-name="afii10071" unicode="&#x451;" horiz-adv-x="391" 
d="M416 612q0 -23 -18.5 -41t-42.5 -18q-20 0 -34 13.5t-14 34.5q0 23 18.5 41t42.5 18q20 0 34 -13.5t14 -34.5zM263 612q0 -23 -18.5 -41t-42.5 -18q-20 0 -34 13.5t-14 34.5q0 23 18.5 41t42.5 18q20 0 34 -13.5t14 -34.5zM174 -12q-73 0 -113.5 45t-40.5 130
q0 34 7.5 76t25 87.5t42 83t61.5 61.5t80 24q138 0 138 -158q0 -50 -19 -126h-241q-6 -23 -6 -53q0 -40 19.5 -66.5t62.5 -26.5q45 0 85 47l36 -58q-58 -66 -137 -66zM127 278h153q8 32 8 60q0 35 -15.5 57.5t-43.5 22.5q-41 0 -67 -43.5t-35 -96.5z" />
    <glyph glyph-name="afii10099" unicode="&#x452;" horiz-adv-x="415" 
d="M338 533h-118l-25 -115q23 31 59.5 54t68.5 23q97 0 73 -108l-97 -441q-16 -73 -52.5 -107.5t-98.5 -34.5q-40 0 -53 27l42 72q5 -16 22 -16q34 0 46 59l91 410q12 56 -29 56q-23 0 -47.5 -20.5t-41.5 -49.5l-75 -342h-94l117 533h-41l12 57h42l17 77h94l-17 -77h117z
" />
    <glyph glyph-name="afii10100" unicode="&#x453;" horiz-adv-x="301" 
d="M398 700l-135 -144h-63l111 144h87zM335 483l-18 -82h-139l-88 -401h-94l106 483h233z" />
    <glyph glyph-name="afii10101" unicode="&#x454;" horiz-adv-x="333" 
d="M170 -12q-70 0 -109.5 44.5t-39.5 129.5q0 74 24.5 148.5t77 129.5t119.5 55q74 0 113 -49l-43 -64q-20 36 -60 36q-37 0 -67 -38t-48 -95h143l-18 -82h-142q-2 -12 -2 -34q0 -50 20 -77t53 -27t60 29l19 -71q-42 -35 -100 -35z" />
    <glyph glyph-name="afii10102" unicode="&#x455;" horiz-adv-x="330" 
d="M123 -12q-48 0 -87 19t-57 50l53 61q32 -55 93 -55q29 0 49 20.5t20 48.5q0 24 -22 47.5t-48 41t-48 50t-22 71.5q0 63 41.5 108t113.5 45q38 0 74 -17t58 -46l-51 -59q-10 19 -33.5 33t-49.5 14q-28 0 -45 -17t-17 -44q0 -21 22.5 -43.5t49 -41t49 -51.5t22.5 -73
q0 -67 -46 -114.5t-119 -47.5z" />
    <glyph glyph-name="afii10103" unicode="&#x456;" horiz-adv-x="194" 
d="M169 546q-23 0 -38.5 15t-15.5 36q0 30 21.5 49t46.5 19q23 0 38.5 -15.5t15.5 -36.5q0 -30 -21 -48.5t-47 -18.5zM90 0h-94l107 483h94z" />
    <glyph glyph-name="afii10104" unicode="&#x457;" horiz-adv-x="194" 
d="M309 612q0 -23 -18.5 -41t-42.5 -18q-20 0 -34 13.5t-14 34.5q0 23 18.5 41t42.5 18q20 0 34 -13.5t14 -34.5zM156 612q0 -23 -18.5 -41t-42.5 -18q-20 0 -34 13.5t-14 34.5q0 23 18.5 41t42.5 18q20 0 34 -13.5t14 -34.5zM90 0h-94l107 483h94z" />
    <glyph glyph-name="afii10105" unicode="&#x458;" horiz-adv-x="194" 
d="M-56 -196q-50 0 -70 30l41 69q6 -16 25 -16q31 0 43 59l120 537h94l-120 -537q-17 -76 -47 -109t-86 -33zM169 546q-23 0 -38.5 15t-15.5 36q0 30 21.5 49t46.5 19q23 0 38.5 -15.5t15.5 -36.5q0 -30 -21 -48.5t-47 -18.5z" />
    <glyph glyph-name="afii10106" unicode="&#x459;" horiz-adv-x="587" 
d="M-40 -12l18 83q33 0 54.5 26t45.5 115l74 271h252l-42 -190h47q81 0 114 -41t18 -107q-14 -64 -64.5 -104.5t-131.5 -40.5h-141l88 401h-68l-53 -194q-34 -128 -84.5 -173.5t-126.5 -45.5zM381 218h-36l-31 -143h36q79 0 95 71q7 33 -9 52.5t-55 19.5z" />
    <glyph glyph-name="afii10107" unicode="&#x45a;" horiz-adv-x="587" 
d="M90 0h-94l106 483h94l-42 -190h114l42 190h94l-42 -190h41q64 0 103 -30t39 -84q0 -70 -48.5 -124.5t-132.5 -54.5h-160l46 211h-114zM385 218h-40l-31 -143h51q36 0 57.5 29t21.5 64q0 50 -59 50z" />
    <glyph glyph-name="afii10108" unicode="&#x45b;" 
d="M298 0h-94l79 355q3 12 3 22q0 35 -34 35q-45 0 -88 -72l-74 -340h-94l117 532h-44l13 57h43l18 78h94l-17 -78h117l-12 -57h-118l-24 -111q54 74 120 74q40 0 62 -21.5t22 -56.5q0 -10 -4 -30z" />
    <glyph glyph-name="afii10109" unicode="&#x45c;" horiz-adv-x="385" 
d="M425 700l-135 -144h-63l111 144h87zM321 0h-100l-36 207l-70 -90l-25 -117h-94l107 483h94l-53 -236l177 236h105l-166 -215z" />
    <glyph glyph-name="afii10110" unicode="&#x45e;" horiz-adv-x="357" 
d="M-57 -185l31 78q6 -6 23 -6q24 0 44 39l31 64l-14 493h97l-8 -364l156 364h102l-276 -577q-29 -58 -57 -80t-68 -22q-35 0 -61 11zM378 610q-59 -62 -135 -62t-109 62l50 35q18 -40 68 -40t84 40z" />
    <glyph glyph-name="afii10193" unicode="&#x45f;" 
d="M72 -128l28 128h-103l105 483h94l-88 -401h114l88 401h94l-106 -483h-104l-28 -128h-94z" />
    <glyph glyph-name="afii10050" unicode="&#x490;" horiz-adv-x="365" 
d="M107 0h-104l147 667h169l29 128h104l-49 -220h-169z" />
    <glyph glyph-name="afii10098" unicode="&#x491;" horiz-adv-x="301" 
d="M178 401l-88 -401h-94l106 483h139l28 128h94l-46 -210h-139z" />
    <glyph glyph-name="uni1E02" unicode="&#x1e02;" horiz-adv-x="431" 
d="M201 0h-198l147 667h145q70 0 109 -39.5t39 -100.5q0 -68 -36.5 -125t-95.5 -67q36 -11 54 -44.5t18 -74.5q0 -85 -48 -150.5t-134 -65.5zM245 386q40 0 63.5 39.5t23.5 82.5q0 67 -67 67h-31l-42 -189h53zM183 92q41 0 68 39.5t27 92.5q0 70 -68 70h-38l-45 -202h56z
M389 779q0 -25 -18.5 -43t-42.5 -18q-21 0 -35 14t-14 35q0 24 18.5 42t43.5 18q21 0 34.5 -14t13.5 -34z" />
    <glyph glyph-name="uni1E03" unicode="&#x1e03;" horiz-adv-x="406" 
d="M196 -12q-71 0 -92 77l-14 -65h-93l146 667h94l-54 -244q45 72 102 72q50 0 76 -38t26 -111q0 -49 -12 -108.5t-34.5 -116.5t-60.5 -95t-84 -38zM177 71q35 0 62.5 51.5t39 110t11.5 102.5q0 77 -51 77q-19 0 -39.5 -19.5t-33.5 -47.5l-46 -206q3 -29 19 -48.5t38 -19.5z
M381 779q0 -25 -18.5 -43t-42.5 -18q-21 0 -35 14t-14 35q0 24 18.5 42t43.5 18q21 0 34.5 -14t13.5 -34z" />
    <glyph glyph-name="uni1E0A" unicode="&#x1e0a;" horiz-adv-x="455" 
d="M153 0h-150l147 667h146q65 0 111 -54t46 -156q0 -33 -6 -76t-19 -96t-36.5 -102t-55 -91t-79 -67t-104.5 -25zM127 92h44q45 0 81 44.5t55 108t29 119.5t10 92q0 60 -20 89.5t-50 29.5h-42zM407 779q0 -25 -18.5 -43t-42.5 -18q-21 0 -35 14t-14 35q0 24 18.5 42
t43.5 18q21 0 34.5 -14t13.5 -34z" />
    <glyph glyph-name="uni1E0B" unicode="&#x1e0b;" horiz-adv-x="406" 
d="M209 495q72 0 92 -77l55 249h94l-148 -667h-94l14 60q-45 -72 -102 -72q-50 0 -76 38t-26 111q0 49 12 108.5t34.5 116.5t60.5 95t84 38zM229 412q-35 0 -63 -51.5t-39.5 -110t-11.5 -102.5q0 -77 51 -77q19 0 39.5 19.5t33.5 47.5l46 206q-3 29 -19 48.5t-37 19.5z
M371 779q0 -25 -18.5 -43t-42.5 -18q-21 0 -35 14t-14 35q0 24 18.5 42t43.5 18q21 0 34.5 -14t13.5 -34z" />
    <glyph glyph-name="uni1E1E" unicode="&#x1e1e;" horiz-adv-x="365" 
d="M365 779q0 -25 -18.5 -43t-42.5 -18q-21 0 -35 14t-14 35q0 24 18.5 42t43.5 18q21 0 34.5 -14t13.5 -34zM107 0h-104l147 667h273l-20 -92h-169l-42 -189h162l-21 -92h-161z" />
    <glyph glyph-name="uni1E1F" unicode="&#x1e1f;" horiz-adv-x="239" 
d="M331 779q0 -25 -18.5 -43t-42.5 -18q-21 0 -35 14t-14 35q0 24 18.5 42t43.5 18q21 0 34.5 -14t13.5 -34zM105 0h-94l89 401h-46l18 82h46l13 63q28 131 133 131q59 0 85 -29l-41 -72q-12 18 -34 18q-37 0 -49 -48l-13 -63h63l-19 -82h-62z" />
    <glyph glyph-name="uni1E22" unicode="&#x1e22;" horiz-adv-x="463" 
d="M353 0h-105l66 297h-142l-65 -297h-104l147 667h104l-61 -278h141l61 278h105zM404 779q0 -25 -18.5 -43t-42.5 -18q-21 0 -35 14t-14 35q0 24 18.5 42t43.5 18q21 0 34.5 -14t13.5 -34z" />
    <glyph glyph-name="uni1E23" unicode="&#x1e23;" 
d="M298 0h-94l79 355q3 12 3 22q0 35 -34 35q-45 0 -88 -72l-74 -340h-94l147 667h94l-54 -246q54 74 120 74q40 0 62 -21.5t22 -56.5q0 -10 -4 -30zM374 779q0 -25 -18.5 -43t-42.5 -18q-21 0 -35 14t-14 35q0 24 18.5 42t43.5 18q21 0 34.5 -14t13.5 -34z" />
    <glyph glyph-name="uni1E56" unicode="&#x1e56;" horiz-adv-x="418" 
d="M107 0h-104l147 667h148q66 0 106.5 -45t40.5 -117q0 -101 -59.5 -175.5t-166.5 -74.5h-56zM183 347h44q51 0 80 45.5t29 103.5q0 38 -17 58.5t-45 20.5h-40zM393 779q0 -25 -18.5 -43t-42.5 -18q-21 0 -35 14t-14 35q0 24 18.5 42t43.5 18q21 0 34.5 -14t13.5 -34z" />
    <glyph glyph-name="uni1E57" unicode="&#x1e57;" horiz-adv-x="406" 
d="M196 -12q-71 0 -92 77l-55 -249h-93l147 667h94l-14 -60q45 72 102 72q50 0 76 -38t26 -111q0 -49 -12 -108.5t-34.5 -116.5t-60.5 -95t-84 -38zM177 71q35 0 62.5 51.5t39 110t11.5 102.5q0 77 -51 77q-19 0 -39.5 -19.5t-33.5 -47.5l-46 -206q3 -29 19 -48.5t38 -19.5z
M346 612q0 -25 -18.5 -43t-42.5 -18q-21 0 -35 14t-14 35q0 24 18.5 42t43.5 18q21 0 34.5 -14t13.5 -34z" />
    <glyph glyph-name="uni1E60" unicode="&#x1e60;" horiz-adv-x="378" 
d="M140 -12q-50 0 -93.5 20t-66.5 53l62 77q16 -25 43 -41t55 -16q36 0 63 30t27 79q0 31 -23 64t-50.5 59.5t-50.5 69t-23 89.5q0 86 57 146t136 60q90 0 141 -60l-57 -77q-33 44 -85 44q-36 0 -59 -28t-23 -67q0 -23 15 -48t36.5 -49t42.5 -50t36 -61.5t15 -74.5
q0 -92 -56 -155.5t-142 -63.5zM362 779q0 -25 -18.5 -43t-42.5 -18q-21 0 -35 14t-14 35q0 24 18.5 42t43.5 18q21 0 34.5 -14t13.5 -34z" />
    <glyph glyph-name="uni1E61" unicode="&#x1e61;" horiz-adv-x="330" 
d="M123 -12q-48 0 -87 19t-57 50l53 61q32 -55 93 -55q29 0 49 20.5t20 48.5q0 24 -22 47.5t-48 41t-48 50t-22 71.5q0 63 41.5 108t113.5 45q38 0 74 -17t58 -46l-51 -59q-10 19 -33.5 33t-49.5 14q-28 0 -45 -17t-17 -44q0 -21 22.5 -43.5t49 -41t49 -51.5t22.5 -73
q0 -67 -46 -114.5t-119 -47.5zM300 612q0 -25 -18.5 -43t-42.5 -18q-21 0 -35 14t-14 35q0 24 18.5 42t43.5 18q21 0 34.5 -14t13.5 -34z" />
    <glyph glyph-name="uni1E6A" unicode="&#x1e6a;" horiz-adv-x="346" 
d="M171 0h-104l127 575h-103l20 92h310l-20 -92h-103zM345 779q0 -25 -18.5 -43t-42.5 -18q-21 0 -35 14t-14 35q0 24 18.5 42t43.5 18q21 0 34.5 -14t13.5 -34z" />
    <glyph glyph-name="uni1E6B" unicode="&#x1e6b;" horiz-adv-x="247" 
d="M128 -12q-99 0 -99 80q0 19 5 39l66 294h-47l18 82h47l29 132h94l-29 -132h63l-19 -82h-62l-62 -278q-4 -16 -4 -25q0 -27 28 -27q14 0 27 9l6 -75q-25 -17 -61 -17zM283 779q0 -25 -18.5 -43t-42.5 -18q-21 0 -35 14t-14 35q0 24 18.5 42t43.5 18q21 0 34.5 -14
t13.5 -34z" />
    <glyph glyph-name="Wgrave" unicode="&#x1e80;" horiz-adv-x="587" 
d="M408 0h-107l42 466l-165 -466h-107l36 667h105l-45 -483l176 483h84l-37 -483l168 483h108zM435 723h-61l-71 144h85z" />
    <glyph glyph-name="wgrave" unicode="&#x1e81;" horiz-adv-x="579" 
d="M408 0h-98l3 355l-152 -355h-98l-1 483h94l-12 -354l148 354h91l-5 -354l145 354h101zM396 556h-61l-71 144h85z" />
    <glyph glyph-name="Wacute" unicode="&#x1e82;" horiz-adv-x="587" 
d="M550 867l-135 -144h-63l111 144h87zM408 0h-107l42 466l-165 -466h-107l36 667h105l-45 -483l176 483h84l-37 -483l168 483h108z" />
    <glyph glyph-name="wacute" unicode="&#x1e83;" horiz-adv-x="579" 
d="M510 700l-135 -144h-63l111 144h87zM408 0h-98l3 355l-152 -355h-98l-1 483h94l-12 -354l148 354h91l-5 -354l145 354h101z" />
    <glyph glyph-name="Wdieresis" unicode="&#x1e84;" horiz-adv-x="587" 
d="M538 779q0 -23 -18.5 -41t-42.5 -18q-20 0 -34 13.5t-14 34.5q0 23 18.5 41t42.5 18q20 0 34 -13.5t14 -34.5zM385 779q0 -23 -18.5 -41t-42.5 -18q-20 0 -34 13.5t-14 34.5q0 23 18.5 41t42.5 18q20 0 34 -13.5t14 -34.5zM408 0h-107l42 466l-165 -466h-107l36 667h105
l-45 -483l176 483h84l-37 -483l168 483h108z" />
    <glyph glyph-name="wdieresis" unicode="&#x1e85;" horiz-adv-x="579" 
d="M497 612q0 -23 -18.5 -41t-42.5 -18q-20 0 -34 13.5t-14 34.5q0 23 18.5 41t42.5 18q20 0 34 -13.5t14 -34.5zM344 612q0 -23 -18.5 -41t-42.5 -18q-20 0 -34 13.5t-14 34.5q0 23 18.5 41t42.5 18q20 0 34 -13.5t14 -34.5zM408 0h-98l3 355l-152 -355h-98l-1 483h94
l-12 -354l148 354h91l-5 -354l145 354h101z" />
    <glyph glyph-name="uni1EA0" unicode="&#x1ea0;" horiz-adv-x="398" 
d="M341 0h-104l7 136h-133l-52 -136h-110l283 667h120zM251 228l17 320l-124 -320h107zM170 -127q0 -25 -18.5 -43t-42.5 -18q-21 0 -35 14t-14 35q0 24 18.5 42t43.5 18q21 0 34.5 -14t13.5 -34z" />
    <glyph glyph-name="uni1EA1" unicode="&#x1ea1;" horiz-adv-x="406" 
d="M209 495q72 0 92 -77l15 65h93l-107 -483h-94l14 60q-45 -72 -102 -72q-50 0 -76 38t-26 111q0 49 12 108.5t34.5 116.5t60.5 95t84 38zM229 412q-35 0 -63 -51.5t-39.5 -110t-11.5 -102.5q0 -77 51 -77q19 0 39.5 19.5t33.5 47.5l46 206q-3 29 -19 48.5t-37 19.5z
M171 -127q0 -25 -18.5 -43t-42.5 -18q-21 0 -35 14t-14 35q0 24 18.5 42t43.5 18q21 0 34.5 -14t13.5 -34z" />
    <glyph glyph-name="uni1EA2" unicode="&#x1ea2;" horiz-adv-x="398" 
d="M341 0h-104l7 136h-133l-52 -136h-110l283 667h120zM251 228l17 320l-124 -320h107zM289 763l-34 11q21 46 63 46q54 0 54 -51q0 -38 -32 -72h-43q33 31 34 63q3 24 -16 24q-15 0 -26 -21z" />
    <glyph glyph-name="uni1EA3" unicode="&#x1ea3;" horiz-adv-x="406" 
d="M209 495q72 0 92 -77l15 65h93l-107 -483h-94l14 60q-45 -72 -102 -72q-50 0 -76 38t-26 111q0 49 12 108.5t34.5 116.5t60.5 95t84 38zM229 412q-35 0 -63 -51.5t-39.5 -110t-11.5 -102.5q0 -77 51 -77q19 0 39.5 19.5t33.5 47.5l46 206q-3 29 -19 48.5t-37 19.5z
M253 593l-34 11q21 46 63 46q54 0 54 -51q0 -38 -32 -72h-43q33 31 34 63q3 24 -16 24q-15 0 -26 -21z" />
    <glyph glyph-name="uni1EA4" unicode="&#x1ea4;" horiz-adv-x="398" 
d="M398 682h-51l-36 73l-74 -73h-56l96 108h87zM341 0h-104l7 136h-133l-52 -136h-110l283 667h120zM251 228l17 320l-124 -320h107zM583 843l-135 -108h-63l111 108h87z" />
    <glyph glyph-name="uni1EA5" unicode="&#x1ea5;" horiz-adv-x="406" 
d="M209 495q72 0 92 -77l15 65h93l-107 -483h-94l14 60q-45 -72 -102 -72q-50 0 -76 38t-26 111q0 49 12 108.5t34.5 116.5t60.5 95t84 38zM229 412q-35 0 -63 -51.5t-39.5 -110t-11.5 -102.5q0 -77 51 -77q19 0 39.5 19.5t33.5 47.5l46 206q-3 29 -19 48.5t-37 19.5z
M378 556h-51l-36 98l-74 -98h-56l96 144h87zM565 771l-135 -144h-63l111 144h87z" />
    <glyph glyph-name="uni1EA6" unicode="&#x1ea6;" horiz-adv-x="398" 
d="M398 682h-51l-36 73l-74 -73h-56l96 108h87zM341 0h-104l7 136h-133l-52 -136h-110l283 667h120zM251 228l17 320l-124 -320h107zM219 735h-61l-71 108h85z" />
    <glyph glyph-name="uni1EA7" unicode="&#x1ea7;" horiz-adv-x="406" 
d="M209 495q72 0 92 -77l15 65h93l-107 -483h-94l14 60q-45 -72 -102 -72q-50 0 -76 38t-26 111q0 49 12 108.5t34.5 116.5t60.5 95t84 38zM229 412q-35 0 -63 -51.5t-39.5 -110t-11.5 -102.5q0 -77 51 -77q19 0 39.5 19.5t33.5 47.5l46 206q-3 29 -19 48.5t-37 19.5z
M378 556h-51l-36 98l-74 -98h-56l96 144h87zM201 627h-61l-71 144h85z" />
    <glyph glyph-name="uni1EA8" unicode="&#x1ea8;" horiz-adv-x="398" 
d="M398 682h-51l-36 73l-74 -73h-56l96 108h87zM341 0h-104l7 136h-133l-52 -136h-110l283 667h120zM251 228l17 320l-124 -320h107zM380 806l-34 8q21 34 63 34q54 0 54 -38q0 -28 -32 -54h-43q32 23 34 47q3 18 -16 18q-16 0 -26 -15z" />
    <glyph glyph-name="uni1EA9" unicode="&#x1ea9;" horiz-adv-x="406" 
d="M209 495q72 0 92 -77l15 65h93l-107 -483h-94l14 60q-45 -72 -102 -72q-50 0 -76 38t-26 111q0 49 12 108.5t34.5 116.5t60.5 95t84 38zM229 412q-35 0 -63 -51.5t-39.5 -110t-11.5 -102.5q0 -77 51 -77q19 0 39.5 19.5t33.5 47.5l46 206q-3 29 -19 48.5t-37 19.5z
M378 556h-51l-36 98l-74 -98h-56l96 144h87zM358 733l-34 11q21 46 63 46q54 0 54 -51q0 -38 -32 -72h-43q33 31 34 63q3 24 -16 24q-16 0 -26 -21z" />
    <glyph glyph-name="uni1EAA" unicode="&#x1eaa;" horiz-adv-x="398" 
d="M395 678h-51l-36 49l-74 -49h-56l96 72h87zM341 0h-104l7 136h-133l-52 -136h-110l283 667h120zM251 228l17 320l-124 -320h107zM358 757q-21 0 -33.5 6.5t-16.5 14t-11 14t-18 6.5q-24 0 -41 -38h-51q30 67 99 67q21 0 34 -6.5t17 -14.5t11 -14.5t18 -6.5q24 0 41 39h51
q-28 -67 -100 -67z" />
    <glyph glyph-name="uni1EAB" unicode="&#x1eab;" horiz-adv-x="406" 
d="M209 495q72 0 92 -77l15 65h93l-107 -483h-94l14 60q-45 -72 -102 -72q-50 0 -76 38t-26 111q0 49 12 108.5t34.5 116.5t60.5 95t84 38zM229 412q-35 0 -63 -51.5t-39.5 -110t-11.5 -102.5q0 -77 51 -77q19 0 39.5 19.5t33.5 47.5l46 206q-3 29 -19 48.5t-37 19.5z
M371 523h-51l-36 98l-74 -98h-56l96 144h87zM349 682q-21 0 -33.5 13t-16.5 28.5t-11 28.5t-18 13q-24 0 -41 -77h-51q30 134 99 134q21 0 34 -13t17 -28.5t11 -28.5t18 -13q24 0 41 77h51q-28 -134 -100 -134z" />
    <glyph glyph-name="uni1EAC" unicode="&#x1eac;" horiz-adv-x="398" 
d="M341 0h-104l7 136h-133l-52 -136h-110l283 667h120zM251 228l17 320l-124 -320h107zM414 723h-51l-36 98l-74 -98h-56l96 144h87zM170 -127q0 -25 -18.5 -43t-42.5 -18q-21 0 -35 14t-14 35q0 24 18.5 42t43.5 18q21 0 34.5 -14t13.5 -34z" />
    <glyph glyph-name="uni1EAD" unicode="&#x1ead;" horiz-adv-x="406" 
d="M209 495q72 0 92 -77l15 65h93l-107 -483h-94l14 60q-45 -72 -102 -72q-50 0 -76 38t-26 111q0 49 12 108.5t34.5 116.5t60.5 95t84 38zM229 412q-35 0 -63 -51.5t-39.5 -110t-11.5 -102.5q0 -77 51 -77q19 0 39.5 19.5t33.5 47.5l46 206q-3 29 -19 48.5t-37 19.5z
M378 556h-51l-36 98l-74 -98h-56l96 144h87zM171 -127q0 -25 -18.5 -43t-42.5 -18q-21 0 -35 14t-14 35q0 24 18.5 42t43.5 18q21 0 34.5 -14t13.5 -34z" />
    <glyph glyph-name="uni1EAE" unicode="&#x1eae;" horiz-adv-x="398" 
d="M341 0h-104l7 136h-133l-52 -136h-110l283 667h120zM251 228l17 320l-124 -320h107zM454 836l-135 -93h-63l111 93h87zM425 725q-58 -48 -135 -48t-109 48l50 28q18 -32 68 -32t84 32z" />
    <glyph glyph-name="uni1EAF" unicode="&#x1eaf;" horiz-adv-x="406" 
d="M209 495q72 0 92 -77l15 65h93l-107 -483h-94l14 60q-45 -72 -102 -72q-50 0 -76 38t-26 111q0 49 12 108.5t34.5 116.5t60.5 95t84 38zM229 412q-35 0 -63 -51.5t-39.5 -110t-11.5 -102.5q0 -77 51 -77q19 0 39.5 19.5t33.5 47.5l46 206q-3 29 -19 48.5t-37 19.5z
M428 765l-135 -144h-63l111 144h87zM393 579q-59 -62 -135 -62t-109 62l50 35q18 -40 68 -40t84 40z" />
    <glyph glyph-name="uni1EB0" unicode="&#x1eb0;" horiz-adv-x="398" 
d="M341 0h-104l7 136h-133l-52 -136h-110l283 667h120zM251 228l17 320l-124 -320h107zM353 743h-61l-71 93h85zM425 725q-58 -48 -135 -48t-109 48l50 28q18 -32 68 -32t84 32z" />
    <glyph glyph-name="uni1EB1" unicode="&#x1eb1;" horiz-adv-x="406" 
d="M209 495q72 0 92 -77l15 65h93l-107 -483h-94l14 60q-45 -72 -102 -72q-50 0 -76 38t-26 111q0 49 12 108.5t34.5 116.5t60.5 95t84 38zM229 412q-35 0 -63 -51.5t-39.5 -110t-11.5 -102.5q0 -77 51 -77q19 0 39.5 19.5t33.5 47.5l46 206q-3 29 -19 48.5t-37 19.5z
M327 627h-61l-71 144h85zM393 579q-59 -62 -135 -62t-109 62l50 35q18 -40 68 -40t84 40z" />
    <glyph glyph-name="uni1EB2" unicode="&#x1eb2;" horiz-adv-x="398" 
d="M341 0h-104l7 136h-133l-52 -136h-110l283 667h120zM251 228l17 320l-124 -320h107zM297 788l-34 7q21 30 63 30q54 0 54 -33q0 -25 -32 -47h-43q33 21 34 41q1 7 -3 11t-13 4q-16 0 -26 -13zM425 725q-58 -48 -135 -48t-109 48l50 28q18 -32 68 -32t84 32z" />
    <glyph glyph-name="uni1EB3" unicode="&#x1eb3;" horiz-adv-x="406" 
d="M209 495q72 0 92 -77l15 65h93l-107 -483h-94l14 60q-45 -72 -102 -72q-50 0 -76 38t-26 111q0 49 12 108.5t34.5 116.5t60.5 95t84 38zM229 412q-35 0 -63 -51.5t-39.5 -110t-11.5 -102.5q0 -77 51 -77q19 0 39.5 19.5t33.5 47.5l46 206q-3 29 -19 48.5t-37 19.5z
M273 689l-34 11q21 46 63 46q54 0 54 -51q0 -38 -32 -72h-43q33 31 34 63q3 24 -16 24q-15 0 -26 -21zM393 579q-59 -62 -135 -62t-109 62l50 35q18 -40 68 -40t84 40z" />
    <glyph glyph-name="uni1EB4" unicode="&#x1eb4;" horiz-adv-x="398" 
d="M341 0h-104l7 136h-133l-52 -136h-110l283 667h120zM251 228l17 320l-124 -320h107zM427 719q-58 -40 -135 -40t-109 40l50 22q18 -26 68 -26t84 26zM358 757q-21 0 -33.5 6.5t-16.5 14t-11 14t-18 6.5q-24 0 -41 -38h-51q30 67 99 67q21 0 34 -6.5t17 -14.5t11 -14.5
t18 -6.5q24 0 41 39h51q-28 -67 -100 -67z" />
    <glyph glyph-name="uni1EB5" unicode="&#x1eb5;" horiz-adv-x="406" 
d="M209 495q72 0 92 -77l15 65h93l-107 -483h-94l14 60q-45 -72 -102 -72q-50 0 -76 38t-26 111q0 49 12 108.5t34.5 116.5t60.5 95t84 38zM229 412q-35 0 -63 -51.5t-39.5 -110t-11.5 -102.5q0 -77 51 -77q19 0 39.5 19.5t33.5 47.5l46 206q-3 29 -19 48.5t-37 19.5z
M393 579q-59 -62 -135 -62t-109 62l50 35q18 -40 68 -40t84 40zM337 631q-21 0 -33.5 13t-16.5 28.5t-11 28.5t-18 13q-24 0 -41 -77h-51q30 134 99 134q21 0 34 -13t17 -28.5t11 -28.5t18 -13q24 0 41 77h51q-28 -134 -100 -134z" />
    <glyph glyph-name="uni1EB6" unicode="&#x1eb6;" horiz-adv-x="398" 
d="M341 0h-104l7 136h-133l-52 -136h-110l283 667h120zM251 228l17 320l-124 -320h107zM170 -127q0 -25 -18.5 -43t-42.5 -18q-21 0 -35 14t-14 35q0 24 18.5 42t43.5 18q21 0 34.5 -14t13.5 -34zM435 777q-59 -62 -135 -62t-109 62l50 35q18 -40 68 -40t84 40z" />
    <glyph glyph-name="uni1EB7" unicode="&#x1eb7;" horiz-adv-x="406" 
d="M209 495q72 0 92 -77l15 65h93l-107 -483h-94l14 60q-45 -72 -102 -72q-50 0 -76 38t-26 111q0 49 12 108.5t34.5 116.5t60.5 95t84 38zM229 412q-35 0 -63 -51.5t-39.5 -110t-11.5 -102.5q0 -77 51 -77q19 0 39.5 19.5t33.5 47.5l46 206q-3 29 -19 48.5t-37 19.5z
M171 -127q0 -25 -18.5 -43t-42.5 -18q-21 0 -35 14t-14 35q0 24 18.5 42t43.5 18q21 0 34.5 -14t13.5 -34zM400 610q-59 -62 -135 -62t-109 62l50 35q18 -40 68 -40t84 40z" />
    <glyph glyph-name="uni1EB8" unicode="&#x1eb8;" horiz-adv-x="367" 
d="M276 0h-273l147 667h273l-20 -92h-169l-42 -189h162l-21 -92h-161l-45 -202h169zM164 -127q0 -25 -18.5 -43t-42.5 -18q-21 0 -35 14t-14 35q0 24 18.5 42t43.5 18q21 0 34.5 -14t13.5 -34z" />
    <glyph glyph-name="uni1EB9" unicode="&#x1eb9;" horiz-adv-x="391" 
d="M174 -12q-73 0 -113.5 45t-40.5 130q0 34 7.5 76t25 87.5t42 83t61.5 61.5t80 24q138 0 138 -158q0 -50 -19 -126h-241q-6 -23 -6 -53q0 -40 19.5 -66.5t62.5 -26.5q45 0 85 47l36 -58q-58 -66 -137 -66zM127 278h153q8 32 8 60q0 35 -15.5 57.5t-43.5 22.5
q-41 0 -67 -43.5t-35 -96.5zM177 -127q0 -25 -18.5 -43t-42.5 -18q-21 0 -35 14t-14 35q0 24 18.5 42t43.5 18q21 0 34.5 -14t13.5 -34z" />
    <glyph glyph-name="uni1EBA" unicode="&#x1eba;" horiz-adv-x="367" 
d="M276 0h-273l147 667h273l-20 -92h-169l-42 -189h162l-21 -92h-161l-45 -202h169zM283 763l-34 11q21 46 63 46q54 0 54 -51q0 -38 -32 -72h-43q33 31 34 63q3 24 -16 24q-15 0 -26 -21z" />
    <glyph glyph-name="uni1EBB" unicode="&#x1ebb;" horiz-adv-x="391" 
d="M174 -12q-73 0 -113.5 45t-40.5 130q0 34 7.5 76t25 87.5t42 83t61.5 61.5t80 24q138 0 138 -158q0 -50 -19 -126h-241q-6 -23 -6 -53q0 -40 19.5 -66.5t62.5 -26.5q45 0 85 47l36 -58q-58 -66 -137 -66zM127 278h153q8 32 8 60q0 35 -15.5 57.5t-43.5 22.5
q-41 0 -67 -43.5t-35 -96.5zM258 593l-34 11q21 46 63 46q54 0 54 -51q0 -38 -32 -72h-43q33 31 34 63q3 24 -16 24q-16 0 -26 -21z" />
    <glyph glyph-name="uni1EBC" unicode="&#x1ebc;" horiz-adv-x="367" 
d="M276 0h-273l147 667h273l-20 -92h-169l-42 -189h162l-21 -92h-161l-45 -202h169zM350 721q-21 0 -33.5 13t-16.5 28.5t-11 28.5t-18 13q-24 0 -41 -77h-51q30 134 99 134q21 0 34 -13t17 -28.5t11 -28.5t18 -13q24 0 41 77h51q-28 -134 -100 -134z" />
    <glyph glyph-name="uni1EBD" unicode="&#x1ebd;" horiz-adv-x="391" 
d="M174 -12q-73 0 -113.5 45t-40.5 130q0 34 7.5 76t25 87.5t42 83t61.5 61.5t80 24q138 0 138 -158q0 -50 -19 -126h-241q-6 -23 -6 -53q0 -40 19.5 -66.5t62.5 -26.5q45 0 85 47l36 -58q-58 -66 -137 -66zM127 278h153q8 32 8 60q0 35 -15.5 57.5t-43.5 22.5
q-41 0 -67 -43.5t-35 -96.5zM326 554q-21 0 -33.5 13t-16.5 28.5t-11 28.5t-18 13q-24 0 -41 -77h-51q30 134 99 134q21 0 34 -13t17 -28.5t11 -28.5t18 -13q24 0 41 77h51q-28 -134 -100 -134z" />
    <glyph glyph-name="uni1EBE" unicode="&#x1ebe;" horiz-adv-x="367" 
d="M392 682h-51l-36 73l-74 -73h-56l96 108h87zM578 843l-135 -108h-63l111 108h87zM276 0h-273l147 667h273l-20 -92h-169l-42 -189h162l-21 -92h-161l-45 -202h169z" />
    <glyph glyph-name="uni1EBF" unicode="&#x1ebf;" horiz-adv-x="391" 
d="M384 556h-51l-36 98l-74 -98h-56l96 144h87zM571 771l-135 -144h-63l111 144h87zM174 -12q-73 0 -113.5 45t-40.5 130q0 34 7.5 76t25 87.5t42 83t61.5 61.5t80 24q138 0 138 -158q0 -50 -19 -126h-241q-6 -23 -6 -53q0 -40 19.5 -66.5t62.5 -26.5q45 0 85 47l36 -58
q-58 -66 -137 -66zM127 278h153q8 32 8 60q0 35 -15.5 57.5t-43.5 22.5q-41 0 -67 -43.5t-35 -96.5z" />
    <glyph glyph-name="uni1EC0" unicode="&#x1ec0;" horiz-adv-x="367" 
d="M393 682h-51l-36 73l-74 -73h-56l96 108h87zM276 0h-273l147 667h273l-20 -92h-169l-42 -189h162l-21 -92h-161l-45 -202h169zM214 735h-61l-71 108h85z" />
    <glyph glyph-name="uni1EC1" unicode="&#x1ec1;" horiz-adv-x="391" 
d="M384 556h-51l-36 98l-74 -98h-56l96 144h87zM174 -12q-73 0 -113.5 45t-40.5 130q0 34 7.5 76t25 87.5t42 83t61.5 61.5t80 24q138 0 138 -158q0 -50 -19 -126h-241q-6 -23 -6 -53q0 -40 19.5 -66.5t62.5 -26.5q45 0 85 47l36 -58q-58 -66 -137 -66zM127 278h153
q8 32 8 60q0 35 -15.5 57.5t-43.5 22.5q-41 0 -67 -43.5t-35 -96.5zM207 627h-61l-71 144h85z" />
    <glyph glyph-name="uni1EC2" unicode="&#x1ec2;" horiz-adv-x="367" 
d="M392 682h-51l-36 73l-74 -73h-56l96 108h87zM276 0h-273l147 667h273l-20 -92h-169l-42 -189h162l-21 -92h-161l-45 -202h169zM375 806l-34 8q21 34 63 34q54 0 54 -38q0 -28 -32 -54h-43q32 23 34 47q3 18 -16 18q-15 0 -26 -15z" />
    <glyph glyph-name="uni1EC3" unicode="&#x1ec3;" horiz-adv-x="391" 
d="M384 556h-51l-36 98l-74 -98h-56l96 144h87zM174 -12q-73 0 -113.5 45t-40.5 130q0 34 7.5 76t25 87.5t42 83t61.5 61.5t80 24q138 0 138 -158q0 -50 -19 -126h-241q-6 -23 -6 -53q0 -40 19.5 -66.5t62.5 -26.5q45 0 85 47l36 -58q-58 -66 -137 -66zM127 278h153
q8 32 8 60q0 35 -15.5 57.5t-43.5 22.5q-41 0 -67 -43.5t-35 -96.5zM364 733l-34 11q21 46 63 46q54 0 54 -51q0 -38 -32 -72h-43q33 31 34 63q3 24 -16 24q-16 0 -26 -21z" />
    <glyph glyph-name="uni1EC4" unicode="&#x1ec4;" horiz-adv-x="367" 
d="M387 678h-51l-36 49l-74 -49h-56l96 72h87zM276 0h-273l147 667h273l-20 -92h-169l-42 -189h162l-21 -92h-161l-45 -202h169zM350 757q-21 0 -33.5 6.5t-16.5 14t-11 14t-18 6.5q-24 0 -41 -38h-51q30 67 99 67q21 0 34 -6.5t17 -14.5t11 -14.5t18 -6.5q24 0 41 39h51
q-28 -67 -100 -67z" />
    <glyph glyph-name="uni1EC5" unicode="&#x1ec5;" horiz-adv-x="391" 
d="M377 523h-51l-36 98l-74 -98h-56l96 144h87zM174 -12q-73 0 -113.5 45t-40.5 130q0 34 7.5 76t25 87.5t42 83t61.5 61.5t80 24q138 0 138 -158q0 -50 -19 -126h-241q-6 -23 -6 -53q0 -40 19.5 -66.5t62.5 -26.5q45 0 85 47l36 -58q-58 -66 -137 -66zM127 278h153
q8 32 8 60q0 35 -15.5 57.5t-43.5 22.5q-41 0 -67 -43.5t-35 -96.5zM354 682q-21 0 -33.5 13t-16.5 28.5t-11 28.5t-18 13q-24 0 -41 -77h-51q30 134 99 134q21 0 34 -13t17 -28.5t11 -28.5t18 -13q24 0 41 77h51q-28 -134 -100 -134z" />
    <glyph glyph-name="uni1EC6" unicode="&#x1ec6;" horiz-adv-x="367" 
d="M409 723h-51l-36 98l-74 -98h-56l96 144h87zM276 0h-273l147 667h273l-20 -92h-169l-42 -189h162l-21 -92h-161l-45 -202h169zM164 -127q0 -25 -18.5 -43t-42.5 -18q-21 0 -35 14t-14 35q0 24 18.5 42t43.5 18q21 0 34.5 -14t13.5 -34z" />
    <glyph glyph-name="uni1EC7" unicode="&#x1ec7;" horiz-adv-x="391" 
d="M383 556h-51l-36 98l-74 -98h-56l96 144h87zM174 -12q-73 0 -113.5 45t-40.5 130q0 34 7.5 76t25 87.5t42 83t61.5 61.5t80 24q138 0 138 -158q0 -50 -19 -126h-241q-6 -23 -6 -53q0 -40 19.5 -66.5t62.5 -26.5q45 0 85 47l36 -58q-58 -66 -137 -66zM127 278h153
q8 32 8 60q0 35 -15.5 57.5t-43.5 22.5q-41 0 -67 -43.5t-35 -96.5zM177 -127q0 -25 -18.5 -43t-42.5 -18q-21 0 -35 14t-14 35q0 24 18.5 42t43.5 18q21 0 34.5 -14t13.5 -34z" />
    <glyph glyph-name="uni1EC8" unicode="&#x1ec8;" horiz-adv-x="218" 
d="M107 0h-104l147 667h104zM198 763l-34 11q21 46 63 46q54 0 54 -51q0 -38 -32 -72h-43q33 31 34 63q3 24 -16 24q-16 0 -26 -21z" />
    <glyph glyph-name="uni1EC9" unicode="&#x1ec9;" horiz-adv-x="194" 
d="M90 0h-94l107 483h94zM148 593l-34 11q21 46 63 46q54 0 54 -51q0 -38 -32 -72h-43q33 31 34 63q3 24 -16 24q-16 0 -26 -21z" />
    <glyph glyph-name="uni1ECA" unicode="&#x1eca;" horiz-adv-x="218" 
d="M107 0h-104l147 667h104zM80 -127q0 -25 -18.5 -43t-42.5 -18q-21 0 -35 14t-14 35q0 24 18.5 42t43.5 18q21 0 34.5 -14t13.5 -34z" />
    <glyph glyph-name="uni1ECB" unicode="&#x1ecb;" horiz-adv-x="194" 
d="M169 546q-23 0 -38.5 15t-15.5 36q0 30 21.5 49t46.5 19q23 0 38.5 -15.5t15.5 -36.5q0 -30 -21 -48.5t-47 -18.5zM90 0h-94l107 483h94zM70 -127q0 -25 -18.5 -43t-42.5 -18q-21 0 -35 14t-14 35q0 24 18.5 42t43.5 18q21 0 34.5 -14t13.5 -34z" />
    <glyph glyph-name="uni1ECC" unicode="&#x1ecc;" horiz-adv-x="459" 
d="M191 -12q-79 0 -118 56t-39 146q0 62 16 140.5t46.5 158.5t86 134.5t123.5 54.5q78 0 117.5 -57t39.5 -147q0 -47 -9.5 -107.5t-31 -127.5t-51.5 -122.5t-77.5 -92t-102.5 -36.5zM197 81q46 0 84.5 77t56.5 166.5t18 152.5q0 108 -57 108q-46 0 -84.5 -77.5t-56 -167
t-17.5 -153.5q0 -106 56 -106zM200 -127q0 -25 -18.5 -43t-42.5 -18q-21 0 -35 14t-14 35q0 24 18.5 42t43.5 18q21 0 34.5 -14t13.5 -34z" />
    <glyph glyph-name="uni1ECD" unicode="&#x1ecd;" 
d="M163 -12q-69 0 -106 43.5t-37 124.5q0 74 23.5 149.5t75 132.5t118.5 57q69 0 106 -43t37 -125q0 -74 -23.5 -149.5t-75 -132.5t-118.5 -57zM169 71q35 0 63 49.5t40.5 107t12.5 100.5q0 84 -53 84q-35 0 -63.5 -49.5t-41 -107.5t-12.5 -101q0 -83 54 -83zM173 -127
q0 -25 -18.5 -43t-42.5 -18q-21 0 -35 14t-14 35q0 24 18.5 42t43.5 18q21 0 34.5 -14t13.5 -34z" />
    <glyph glyph-name="uni1ECE" unicode="&#x1ece;" horiz-adv-x="459" 
d="M191 -12q-79 0 -118 56t-39 146q0 62 16 140.5t46.5 158.5t86 134.5t123.5 54.5q78 0 117.5 -57t39.5 -147q0 -47 -9.5 -107.5t-31 -127.5t-51.5 -122.5t-77.5 -92t-102.5 -36.5zM197 81q46 0 84.5 77t56.5 166.5t18 152.5q0 108 -57 108q-46 0 -84.5 -77.5t-56 -167
t-17.5 -153.5q0 -106 56 -106zM319 763l-34 11q21 46 63 46q54 0 54 -51q0 -38 -32 -72h-43q33 31 34 63q3 24 -16 24q-15 0 -26 -21z" />
    <glyph glyph-name="uni1ECF" unicode="&#x1ecf;" 
d="M163 -12q-69 0 -106 43.5t-37 124.5q0 74 23.5 149.5t75 132.5t118.5 57q69 0 106 -43t37 -125q0 -74 -23.5 -149.5t-75 -132.5t-118.5 -57zM169 71q35 0 63 49.5t40.5 107t12.5 100.5q0 84 -53 84q-35 0 -63.5 -49.5t-41 -107.5t-12.5 -101q0 -83 54 -83zM255 593
l-34 11q21 46 63 46q54 0 54 -51q0 -38 -32 -72h-43q33 31 34 63q3 24 -16 24q-15 0 -26 -21z" />
    <glyph glyph-name="uni1ED0" unicode="&#x1ed0;" horiz-adv-x="459" 
d="M428 682h-51l-36 73l-74 -73h-56l96 108h87zM614 843l-135 -108h-63l111 108h87zM191 -12q-79 0 -118 56t-39 146q0 62 16 140.5t46.5 158.5t86 134.5t123.5 54.5q78 0 117.5 -57t39.5 -147q0 -47 -9.5 -107.5t-31 -127.5t-51.5 -122.5t-77.5 -92t-102.5 -36.5zM197 81
q46 0 84.5 77t56.5 166.5t18 152.5q0 108 -57 108q-46 0 -84.5 -77.5t-56 -167t-17.5 -153.5q0 -106 56 -106z" />
    <glyph glyph-name="uni1ED1" unicode="&#x1ed1;" 
d="M380 556h-51l-36 98l-74 -98h-56l96 144h87zM567 771l-135 -144h-63l111 144h87zM163 -12q-69 0 -106 43.5t-37 124.5q0 74 23.5 149.5t75 132.5t118.5 57q69 0 106 -43t37 -125q0 -74 -23.5 -149.5t-75 -132.5t-118.5 -57zM169 71q35 0 63 49.5t40.5 107t12.5 100.5
q0 84 -53 84q-35 0 -63.5 -49.5t-41 -107.5t-12.5 -101q0 -83 54 -83z" />
    <glyph glyph-name="uni1ED2" unicode="&#x1ed2;" horiz-adv-x="459" 
d="M428 682h-51l-36 73l-74 -73h-56l96 108h87zM191 -12q-79 0 -118 56t-39 146q0 62 16 140.5t46.5 158.5t86 134.5t123.5 54.5q78 0 117.5 -57t39.5 -147q0 -47 -9.5 -107.5t-31 -127.5t-51.5 -122.5t-77.5 -92t-102.5 -36.5zM197 81q46 0 84.5 77t56.5 166.5t18 152.5
q0 108 -57 108q-46 0 -84.5 -77.5t-56 -167t-17.5 -153.5q0 -106 56 -106zM249 735h-61l-71 108h85z" />
    <glyph glyph-name="uni1ED3" unicode="&#x1ed3;" 
d="M380 556h-51l-36 98l-74 -98h-56l96 144h87zM163 -12q-69 0 -106 43.5t-37 124.5q0 74 23.5 149.5t75 132.5t118.5 57q69 0 106 -43t37 -125q0 -74 -23.5 -149.5t-75 -132.5t-118.5 -57zM169 71q35 0 63 49.5t40.5 107t12.5 100.5q0 84 -53 84q-35 0 -63.5 -49.5
t-41 -107.5t-12.5 -101q0 -83 54 -83zM203 627h-61l-71 144h85z" />
    <glyph glyph-name="uni1ED4" unicode="&#x1ed4;" horiz-adv-x="459" 
d="M428 682h-51l-36 73l-74 -73h-56l96 108h87zM191 -12q-79 0 -118 56t-39 146q0 62 16 140.5t46.5 158.5t86 134.5t123.5 54.5q78 0 117.5 -57t39.5 -147q0 -47 -9.5 -107.5t-31 -127.5t-51.5 -122.5t-77.5 -92t-102.5 -36.5zM197 81q46 0 84.5 77t56.5 166.5t18 152.5
q0 108 -57 108q-46 0 -84.5 -77.5t-56 -167t-17.5 -153.5q0 -106 56 -106zM410 806l-34 8q21 34 63 34q54 0 54 -38q0 -28 -32 -54h-43q32 23 34 47q3 18 -16 18q-15 0 -26 -15z" />
    <glyph glyph-name="uni1ED5" unicode="&#x1ed5;" 
d="M380 556h-51l-36 98l-74 -98h-56l96 144h87zM163 -12q-69 0 -106 43.5t-37 124.5q0 74 23.5 149.5t75 132.5t118.5 57q69 0 106 -43t37 -125q0 -74 -23.5 -149.5t-75 -132.5t-118.5 -57zM169 71q35 0 63 49.5t40.5 107t12.5 100.5q0 84 -53 84q-35 0 -63.5 -49.5
t-41 -107.5t-12.5 -101q0 -83 54 -83zM360 733l-34 11q21 46 63 46q54 0 54 -51q0 -38 -32 -72h-43q33 31 34 63q3 24 -16 24q-16 0 -26 -21z" />
    <glyph glyph-name="uni1ED6" unicode="&#x1ed6;" horiz-adv-x="459" 
d="M423 678h-51l-36 49l-74 -49h-56l96 72h87zM191 -12q-79 0 -118 56t-39 146q0 62 16 140.5t46.5 158.5t86 134.5t123.5 54.5q78 0 117.5 -57t39.5 -147q0 -47 -9.5 -107.5t-31 -127.5t-51.5 -122.5t-77.5 -92t-102.5 -36.5zM197 81q46 0 84.5 77t56.5 166.5t18 152.5
q0 108 -57 108q-46 0 -84.5 -77.5t-56 -167t-17.5 -153.5q0 -106 56 -106zM386 757q-21 0 -33.5 6.5t-16.5 14t-11 14t-18 6.5q-24 0 -41 -38h-51q30 67 99 67q21 0 34 -6.5t17 -14.5t11 -14.5t18 -6.5q24 0 41 39h51q-28 -67 -100 -67z" />
    <glyph glyph-name="uni1ED7" unicode="&#x1ed7;" 
d="M372 523h-51l-36 98l-74 -98h-56l96 144h87zM163 -12q-69 0 -106 43.5t-37 124.5q0 74 23.5 149.5t75 132.5t118.5 57q69 0 106 -43t37 -125q0 -74 -23.5 -149.5t-75 -132.5t-118.5 -57zM169 71q35 0 63 49.5t40.5 107t12.5 100.5q0 84 -53 84q-35 0 -63.5 -49.5
t-41 -107.5t-12.5 -101q0 -83 54 -83zM350 682q-21 0 -33.5 13t-16.5 28.5t-11 28.5t-18 13q-24 0 -41 -77h-51q30 134 99 134q21 0 34 -13t17 -28.5t11 -28.5t18 -13q24 0 41 77h51q-28 -134 -100 -134z" />
    <glyph glyph-name="uni1ED8" unicode="&#x1ed8;" horiz-adv-x="459" 
d="M444 723h-51l-36 98l-74 -98h-56l96 144h87zM191 -12q-79 0 -118 56t-39 146q0 62 16 140.5t46.5 158.5t86 134.5t123.5 54.5q78 0 117.5 -57t39.5 -147q0 -47 -9.5 -107.5t-31 -127.5t-51.5 -122.5t-77.5 -92t-102.5 -36.5zM197 81q46 0 84.5 77t56.5 166.5t18 152.5
q0 108 -57 108q-46 0 -84.5 -77.5t-56 -167t-17.5 -153.5q0 -106 56 -106zM200 -127q0 -25 -18.5 -43t-42.5 -18q-21 0 -35 14t-14 35q0 24 18.5 42t43.5 18q21 0 34.5 -14t13.5 -34z" />
    <glyph glyph-name="uni1ED9" unicode="&#x1ed9;" 
d="M380 556h-51l-36 98l-74 -98h-56l96 144h87zM163 -12q-69 0 -106 43.5t-37 124.5q0 74 23.5 149.5t75 132.5t118.5 57q69 0 106 -43t37 -125q0 -74 -23.5 -149.5t-75 -132.5t-118.5 -57zM169 71q35 0 63 49.5t40.5 107t12.5 100.5q0 84 -53 84q-35 0 -63.5 -49.5
t-41 -107.5t-12.5 -101q0 -83 54 -83zM173 -127q0 -25 -18.5 -43t-42.5 -18q-21 0 -35 14t-14 35q0 24 18.5 42t43.5 18q21 0 34.5 -14t13.5 -34z" />
    <glyph glyph-name="uni1EDA" unicode="&#x1eda;" horiz-adv-x="459" 
d="M491 867l-135 -144h-63l111 144h87zM191 -12q-79 0 -118 56t-39 146q0 62 16 140.5t46.5 158.5t86 134.5t123.5 54.5q100 0 138 -96q37 27 49 58h-7q-16 0 -26.5 11t-10.5 29q0 21 16 36.5t37 15.5q20 0 33 -13.5t13 -37.5q0 -38 -26.5 -76.5t-65.5 -61.5q7 -38 7 -69
q0 -47 -9.5 -107.5t-31 -127.5t-51.5 -122.5t-77.5 -92t-102.5 -36.5zM197 81q46 0 84.5 77t56.5 166.5t18 152.5q0 108 -57 108q-46 0 -84.5 -77.5t-56 -167t-17.5 -153.5q0 -106 56 -106z" />
    <glyph glyph-name="uni1EDB" unicode="&#x1edb;" 
d="M426 700l-135 -144h-63l111 144h87zM450 547q0 -36 -24 -72.5t-61 -60.5q15 -40 15 -87q0 -74 -23.5 -149.5t-75 -132.5t-118.5 -57q-69 0 -106 43.5t-37 124.5q0 74 23.5 149.5t75 132.5t118.5 57q71 0 109 -47q37 27 49 58h-7q-16 0 -27 11t-11 29q0 21 16 36.5
t37 15.5q20 0 33.5 -13.5t13.5 -37.5zM169 71q35 0 63 49.5t40.5 107t12.5 100.5q0 84 -53 84q-35 0 -63.5 -49.5t-41 -107.5t-12.5 -101q0 -83 54 -83z" />
    <glyph glyph-name="uni1EDC" unicode="&#x1edc;" horiz-adv-x="459" 
d="M191 -12q-79 0 -118 56t-39 146q0 62 16 140.5t46.5 158.5t86 134.5t123.5 54.5q100 0 138 -96q37 27 49 58h-7q-16 0 -26.5 11t-10.5 29q0 21 16 36.5t37 15.5q20 0 33 -13.5t13 -37.5q0 -38 -26.5 -76.5t-65.5 -61.5q7 -38 7 -69q0 -47 -9.5 -107.5t-31 -127.5
t-51.5 -122.5t-77.5 -92t-102.5 -36.5zM197 81q46 0 84.5 77t56.5 166.5t18 152.5q0 108 -57 108q-46 0 -84.5 -77.5t-56 -167t-17.5 -153.5q0 -106 56 -106zM375 723h-61l-71 144h85z" />
    <glyph glyph-name="uni1EDD" unicode="&#x1edd;" 
d="M450 547q0 -36 -24 -72.5t-61 -60.5q15 -40 15 -87q0 -74 -23.5 -149.5t-75 -132.5t-118.5 -57q-69 0 -106 43.5t-37 124.5q0 74 23.5 149.5t75 132.5t118.5 57q71 0 109 -47q37 27 49 58h-7q-16 0 -27 11t-11 29q0 21 16 36.5t37 15.5q20 0 33.5 -13.5t13.5 -37.5z
M169 71q35 0 63 49.5t40.5 107t12.5 100.5q0 84 -53 84q-35 0 -63.5 -49.5t-41 -107.5t-12.5 -101q0 -83 54 -83zM311 556h-61l-71 144h85z" />
    <glyph glyph-name="uni1EDE" unicode="&#x1ede;" horiz-adv-x="459" 
d="M191 -12q-79 0 -118 56t-39 146q0 62 16 140.5t46.5 158.5t86 134.5t123.5 54.5q100 0 138 -96q37 27 49 58h-7q-16 0 -26.5 11t-10.5 29q0 21 16 36.5t37 15.5q20 0 33 -13.5t13 -37.5q0 -38 -26.5 -76.5t-65.5 -61.5q7 -38 7 -69q0 -47 -9.5 -107.5t-31 -127.5
t-51.5 -122.5t-77.5 -92t-102.5 -36.5zM197 81q46 0 84.5 77t56.5 166.5t18 152.5q0 108 -57 108q-46 0 -84.5 -77.5t-56 -167t-17.5 -153.5q0 -106 56 -106zM319 763l-34 11q21 46 63 46q54 0 54 -51q0 -38 -32 -72h-43q33 31 34 63q3 24 -16 24q-15 0 -26 -21z" />
    <glyph glyph-name="uni1EDF" unicode="&#x1edf;" 
d="M450 547q0 -36 -24 -72.5t-61 -60.5q15 -40 15 -87q0 -74 -23.5 -149.5t-75 -132.5t-118.5 -57q-69 0 -106 43.5t-37 124.5q0 74 23.5 149.5t75 132.5t118.5 57q71 0 109 -47q37 27 49 58h-7q-16 0 -27 11t-11 29q0 21 16 36.5t37 15.5q20 0 33.5 -13.5t13.5 -37.5z
M169 71q35 0 63 49.5t40.5 107t12.5 100.5q0 84 -53 84q-35 0 -63.5 -49.5t-41 -107.5t-12.5 -101q0 -83 54 -83zM255 593l-34 11q21 46 63 46q54 0 54 -51q0 -38 -32 -72h-43q33 31 34 63q3 24 -16 24q-15 0 -26 -21z" />
    <glyph glyph-name="uni1EE0" unicode="&#x1ee0;" horiz-adv-x="459" 
d="M191 -12q-79 0 -118 56t-39 146q0 62 16 140.5t46.5 158.5t86 134.5t123.5 54.5q100 0 138 -96q37 27 49 58h-7q-16 0 -26.5 11t-10.5 29q0 21 16 36.5t37 15.5q20 0 33 -13.5t13 -37.5q0 -38 -26.5 -76.5t-65.5 -61.5q7 -38 7 -69q0 -47 -9.5 -107.5t-31 -127.5
t-51.5 -122.5t-77.5 -92t-102.5 -36.5zM197 81q46 0 84.5 77t56.5 166.5t18 152.5q0 108 -57 108q-46 0 -84.5 -77.5t-56 -167t-17.5 -153.5q0 -106 56 -106zM386 721q-21 0 -33.5 13t-16.5 28.5t-11 28.5t-18 13q-24 0 -41 -77h-51q30 134 99 134q21 0 34 -13t17 -28.5
t11 -28.5t18 -13q24 0 41 77h51q-28 -134 -100 -134z" />
    <glyph glyph-name="uni1EE1" unicode="&#x1ee1;" 
d="M450 547q0 -36 -24 -72.5t-61 -60.5q15 -40 15 -87q0 -74 -23.5 -149.5t-75 -132.5t-118.5 -57q-69 0 -106 43.5t-37 124.5q0 74 23.5 149.5t75 132.5t118.5 57q71 0 109 -47q37 27 49 58h-7q-16 0 -27 11t-11 29q0 21 16 36.5t37 15.5q20 0 33.5 -13.5t13.5 -37.5z
M169 71q35 0 63 49.5t40.5 107t12.5 100.5q0 84 -53 84q-35 0 -63.5 -49.5t-41 -107.5t-12.5 -101q0 -83 54 -83zM291 554q-21 0 -33.5 13t-16.5 28.5t-11 28.5t-18 13q-24 0 -41 -77h-51q30 134 99 134q21 0 34 -13t17 -28.5t11 -28.5t18 -13q24 0 41 77h51
q-28 -134 -100 -134z" />
    <glyph glyph-name="uni1EE2" unicode="&#x1ee2;" horiz-adv-x="459" 
d="M191 -12q-79 0 -118 56t-39 146q0 62 16 140.5t46.5 158.5t86 134.5t123.5 54.5q100 0 138 -96q37 27 49 58h-7q-16 0 -26.5 11t-10.5 29q0 21 16 36.5t37 15.5q20 0 33 -13.5t13 -37.5q0 -38 -26.5 -76.5t-65.5 -61.5q7 -38 7 -69q0 -47 -9.5 -107.5t-31 -127.5
t-51.5 -122.5t-77.5 -92t-102.5 -36.5zM197 81q46 0 84.5 77t56.5 166.5t18 152.5q0 108 -57 108q-46 0 -84.5 -77.5t-56 -167t-17.5 -153.5q0 -106 56 -106zM200 -127q0 -25 -18.5 -43t-42.5 -18q-21 0 -35 14t-14 35q0 24 18.5 42t43.5 18q21 0 34.5 -14t13.5 -34z" />
    <glyph glyph-name="uni1EE3" unicode="&#x1ee3;" 
d="M450 547q0 -36 -24 -72.5t-61 -60.5q15 -40 15 -87q0 -74 -23.5 -149.5t-75 -132.5t-118.5 -57q-69 0 -106 43.5t-37 124.5q0 74 23.5 149.5t75 132.5t118.5 57q71 0 109 -47q37 27 49 58h-7q-16 0 -27 11t-11 29q0 21 16 36.5t37 15.5q20 0 33.5 -13.5t13.5 -37.5z
M169 71q35 0 63 49.5t40.5 107t12.5 100.5q0 84 -53 84q-35 0 -63.5 -49.5t-41 -107.5t-12.5 -101q0 -83 54 -83zM173 -127q0 -25 -18.5 -43t-42.5 -18q-21 0 -35 14t-14 35q0 24 18.5 42t43.5 18q21 0 34.5 -14t13.5 -34z" />
    <glyph glyph-name="uni1EE4" unicode="&#x1ee4;" horiz-adv-x="464" 
d="M197 -12q-69 0 -113.5 42t-44.5 113q0 22 5 45l106 479h104l-108 -488q-3 -21 -3 -32q0 -32 17 -49.5t45 -17.5q32 0 52 23t32 76l107 488h104l-106 -483q-44 -196 -197 -196zM201 -127q0 -25 -18.5 -43t-42.5 -18q-21 0 -35 14t-14 35q0 24 18.5 42t43.5 18
q21 0 34.5 -14t13.5 -34z" />
    <glyph glyph-name="uni1EE5" unicode="&#x1ee5;" 
d="M103 483h94l-79 -355q-3 -14 -3 -22q0 -35 34 -35q45 0 86 69l76 343h94l-107 -483h-94l14 62q-54 -74 -120 -74q-39 0 -61.5 21t-22.5 57q0 18 4 30zM172 -127q0 -25 -18.5 -43t-42.5 -18q-21 0 -35 14t-14 35q0 24 18.5 42t43.5 18q21 0 34.5 -14t13.5 -34z" />
    <glyph glyph-name="uni1EE6" unicode="&#x1ee6;" horiz-adv-x="464" 
d="M197 -12q-69 0 -113.5 42t-44.5 113q0 22 5 45l106 479h104l-108 -488q-3 -21 -3 -32q0 -32 17 -49.5t45 -17.5q32 0 52 23t32 76l107 488h104l-106 -483q-44 -196 -197 -196zM320 763l-34 11q21 46 63 46q54 0 54 -51q0 -38 -32 -72h-43q33 31 34 63q3 24 -16 24
q-16 0 -26 -21z" />
    <glyph glyph-name="uni1EE7" unicode="&#x1ee7;" 
d="M103 483h94l-79 -355q-3 -14 -3 -22q0 -35 34 -35q45 0 86 69l76 343h94l-107 -483h-94l14 62q-54 -74 -120 -74q-39 0 -61.5 21t-22.5 57q0 18 4 30zM255 593l-34 11q21 46 63 46q54 0 54 -51q0 -38 -32 -72h-43q33 31 34 63q3 24 -16 24q-15 0 -26 -21z" />
    <glyph glyph-name="uni1EE8" unicode="&#x1ee8;" horiz-adv-x="464" 
d="M492 867l-135 -144h-63l111 144h87zM600 743q0 -41 -33.5 -84t-82.5 -65l-90 -410q-44 -196 -197 -196q-69 0 -113.5 42t-44.5 113q0 22 5 45l106 479h104l-108 -488q-3 -21 -3 -32q0 -32 17 -49.5t45 -17.5q32 0 52 23t32 76l107 488h104l-5 -23q38 28 50 59
q-1 -1 -7 -1q-16 0 -27 11t-11 29q0 21 16 36.5t37 15.5t34 -13t13 -38z" />
    <glyph glyph-name="uni1EE9" unicode="&#x1ee9;" 
d="M426 700l-135 -144h-63l111 144h87zM479 555q0 -35 -24.5 -73t-63.5 -62l-93 -420h-94l14 62q-54 -74 -120 -74q-39 0 -61.5 21t-22.5 57q0 18 4 30l85 387h94l-79 -355q-3 -21 -3 -22q0 -35 34 -35q45 0 86 69l76 343h93q14 16 20 32q-1 -1 -7 -1q-15 0 -26 11t-11 29
q0 21 16 36.5t37 15.5q20 0 33 -13.5t13 -37.5z" />
    <glyph glyph-name="uni1EEA" unicode="&#x1eea;" horiz-adv-x="464" 
d="M376 723h-61l-71 144h85zM600 743q0 -41 -33.5 -84t-82.5 -65l-90 -410q-44 -196 -197 -196q-69 0 -113.5 42t-44.5 113q0 22 5 45l106 479h104l-108 -488q-3 -21 -3 -32q0 -32 17 -49.5t45 -17.5q32 0 52 23t32 76l107 488h104l-5 -23q38 28 50 59q-1 -1 -7 -1
q-16 0 -27 11t-11 29q0 21 16 36.5t37 15.5t34 -13t13 -38z" />
    <glyph glyph-name="uni1EEB" unicode="&#x1eeb;" 
d="M312 556h-61l-71 144h85zM479 555q0 -35 -24.5 -73t-63.5 -62l-93 -420h-94l14 62q-54 -74 -120 -74q-39 0 -61.5 21t-22.5 57q0 18 4 30l85 387h94l-79 -355q-3 -21 -3 -22q0 -35 34 -35q45 0 86 69l76 343h93q14 16 20 32q-1 -1 -7 -1q-15 0 -26 11t-11 29
q0 21 16 36.5t37 15.5q20 0 33 -13.5t13 -37.5z" />
    <glyph glyph-name="uni1EEC" unicode="&#x1eec;" horiz-adv-x="464" 
d="M320 763l-34 11q21 46 63 46q54 0 54 -51q0 -38 -32 -72h-43q33 31 34 63q3 24 -16 24q-16 0 -26 -21zM600 743q0 -41 -33.5 -84t-82.5 -65l-90 -410q-44 -196 -197 -196q-69 0 -113.5 42t-44.5 113q0 22 5 45l106 479h104l-108 -488q-3 -21 -3 -32q0 -32 17 -49.5
t45 -17.5q32 0 52 23t32 76l107 488h104l-5 -23q38 28 50 59q-1 -1 -7 -1q-16 0 -27 11t-11 29q0 21 16 36.5t37 15.5t34 -13t13 -38z" />
    <glyph glyph-name="uni1EED" unicode="&#x1eed;" 
d="M255 593l-34 11q21 46 63 46q54 0 54 -51q0 -38 -32 -72h-43q33 31 34 63q3 24 -16 24q-15 0 -26 -21zM479 555q0 -35 -24.5 -73t-63.5 -62l-93 -420h-94l14 62q-54 -74 -120 -74q-39 0 -61.5 21t-22.5 57q0 18 4 30l85 387h94l-79 -355q-3 -21 -3 -22q0 -35 34 -35
q45 0 86 69l76 343h93q14 16 20 32q-1 -1 -7 -1q-15 0 -26 11t-11 29q0 21 16 36.5t37 15.5q20 0 33 -13.5t13 -37.5z" />
    <glyph glyph-name="uni1EEE" unicode="&#x1eee;" horiz-adv-x="464" 
d="M600 743q0 -41 -33.5 -84t-82.5 -65l-90 -410q-44 -196 -197 -196q-69 0 -113.5 42t-44.5 113q0 22 5 45l106 479h104l-108 -488q-3 -21 -3 -32q0 -32 17 -49.5t45 -17.5q32 0 52 23t32 76l107 488h104l-5 -23q38 28 50 59q-1 -1 -7 -1q-16 0 -27 11t-11 29q0 21 16 36.5
t37 15.5t34 -13t13 -38zM388 721q-21 0 -33.5 13t-16.5 28.5t-11 28.5t-18 13q-24 0 -41 -77h-51q30 134 99 134q21 0 34 -13t17 -28.5t11 -28.5t18 -13q24 0 41 77h51q-28 -134 -100 -134z" />
    <glyph glyph-name="uni1EEF" unicode="&#x1eef;" 
d="M479 555q0 -35 -24.5 -73t-63.5 -62l-93 -420h-94l14 62q-54 -74 -120 -74q-39 0 -61.5 21t-22.5 57q0 18 4 30l85 387h94l-79 -355q-3 -21 -3 -22q0 -35 34 -35q45 0 86 69l76 343h93q14 16 20 32q-1 -1 -7 -1q-15 0 -26 11t-11 29q0 21 16 36.5t37 15.5q20 0 33 -13.5
t13 -37.5zM301 554q-21 0 -33.5 13t-16.5 28.5t-11 28.5t-18 13q-24 0 -41 -77h-51q30 134 99 134q21 0 34 -13t17 -28.5t11 -28.5t18 -13q24 0 41 77h51q-28 -134 -100 -134z" />
    <glyph glyph-name="uni1EF0" unicode="&#x1ef0;" horiz-adv-x="464" 
d="M201 -127q0 -25 -18.5 -43t-42.5 -18q-21 0 -35 14t-14 35q0 24 18.5 42t43.5 18q21 0 34.5 -14t13.5 -34zM600 743q0 -41 -33.5 -84t-82.5 -65l-90 -410q-44 -196 -197 -196q-69 0 -113.5 42t-44.5 113q0 22 5 45l106 479h104l-108 -488q-3 -21 -3 -32q0 -32 17 -49.5
t45 -17.5q32 0 52 23t32 76l107 488h104l-5 -23q38 28 50 59q-1 -1 -7 -1q-16 0 -27 11t-11 29q0 21 16 36.5t37 15.5t34 -13t13 -38z" />
    <glyph glyph-name="uni1EF1" unicode="&#x1ef1;" 
d="M172 -127q0 -25 -18.5 -43t-42.5 -18q-21 0 -35 14t-14 35q0 24 18.5 42t43.5 18q21 0 34.5 -14t13.5 -34zM479 555q0 -35 -24.5 -73t-63.5 -62l-93 -420h-94l14 62q-54 -74 -120 -74q-39 0 -61.5 21t-22.5 57q0 18 4 30l85 387h94l-79 -355q-3 -21 -3 -22q0 -35 34 -35
q45 0 86 69l76 343h93q14 16 20 32q-1 -1 -7 -1q-15 0 -26 11t-11 29q0 21 16 36.5t37 15.5q20 0 33 -13.5t13 -37.5z" />
    <glyph glyph-name="Ygrave" unicode="&#x1ef2;" horiz-adv-x="405" 
d="M201 0h-104l61 279l-68 388h107l31 -285l158 285h115l-239 -388zM350 723h-61l-71 144h85z" />
    <glyph glyph-name="ygrave" unicode="&#x1ef3;" horiz-adv-x="357" 
d="M-57 -185l31 78q6 -6 23 -6q24 0 44 39l31 64l-14 493h97l-8 -364l156 364h102l-276 -577q-29 -58 -57 -80t-68 -22q-35 0 -61 11zM285 556h-61l-71 144h85z" />
    <glyph glyph-name="thinspace" unicode="&#x2009;" horiz-adv-x="33" 
 />
    <glyph glyph-name="endash" unicode="&#x2013;" horiz-adv-x="460" 
d="M420 201h-400l18 81h400z" />
    <glyph glyph-name="emdash" unicode="&#x2014;" horiz-adv-x="640" 
d="M600 201h-580l18 81h580z" />
    <glyph glyph-name="afii00208" unicode="&#x2015;" horiz-adv-x="460" 
d="M420 201h-400l18 81h400z" />
    <glyph glyph-name="quoteleft" unicode="&#x2018;" horiz-adv-x="241" 
d="M109 502q0 49 37 99t90 76l36 -37q-29 -15 -54.5 -38t-34.5 -46h9q20 0 34.5 -14.5t14.5 -37.5q0 -28 -21.5 -48.5t-48.5 -20.5q-26 0 -44 17.5t-18 49.5z" />
    <glyph glyph-name="quoteright" unicode="&#x2019;" horiz-adv-x="241" 
d="M269 611q0 -50 -37 -100t-90 -76l-36 37q29 15 54.5 38t34.5 46h-9q-20 0 -34.5 14.5t-14.5 37.5q0 28 21.5 48.5t48.5 20.5q26 0 44 -17.5t18 -48.5z" />
    <glyph glyph-name="quotesinglbase" unicode="&#x201a;" horiz-adv-x="241" 
d="M145 52q0 -50 -37 -100t-90 -76l-36 38q29 14 54.5 37t34.5 47q-1 -1 -9 -1q-20 0 -34.5 14.5t-14.5 37.5q0 28 21.5 48.5t48.5 20.5q26 0 44 -17.5t18 -48.5z" />
    <glyph glyph-name="quotereversed" unicode="&#x201b;" horiz-adv-x="241" 
d="M122 565q0 53 26.5 82.5t58.5 29.5q28 0 44 -16.5t16 -38.5q0 -28 -19.5 -46.5t-48.5 -18.5q-15 0 -24 4q-3 -55 47 -104l-43 -27q-57 61 -57 135z" />
    <glyph glyph-name="quotedblleft" unicode="&#x201c;" horiz-adv-x="416" 
d="M285 502q0 49 37 99t90 76l36 -37q-29 -15 -54.5 -38t-34.5 -46h9q20 0 34.5 -14.5t14.5 -37.5q0 -28 -21.5 -48.5t-48.5 -20.5q-26 0 -44 17.5t-18 49.5zM111 502q0 49 37 99t90 76l35 -37q-29 -15 -54.5 -38t-34.5 -46h9q21 0 35.5 -14.5t14.5 -37.5q0 -28 -21.5 -48.5
t-48.5 -20.5q-26 0 -44 17.5t-18 49.5z" />
    <glyph glyph-name="quotedblright" unicode="&#x201d;" horiz-adv-x="416" 
d="M269 611q0 -50 -37 -100t-90 -76l-36 37q29 15 54.5 38t34.5 46h-9q-20 0 -34.5 14.5t-14.5 37.5q0 28 21.5 48.5t48.5 20.5q26 0 44 -17.5t18 -48.5zM443 611q0 -50 -37 -100t-90 -76l-35 37q29 15 54.5 38t34.5 46h-9q-21 0 -35.5 14.5t-14.5 37.5q0 28 21.5 48.5
t48.5 20.5q26 0 44 -17.5t18 -48.5z" />
    <glyph glyph-name="quotedblbase" unicode="&#x201e;" horiz-adv-x="416" 
d="M145 52q0 -50 -37 -100t-90 -76l-36 38q29 14 54.5 37t34.5 47q-1 -1 -9 -1q-20 0 -34.5 14.5t-14.5 37.5q0 28 21.5 48.5t48.5 20.5q26 0 44 -17.5t18 -48.5zM319 52q0 -50 -37 -100t-90 -76l-35 38q29 14 54.5 37t34.5 47q-2 -1 -9 -1q-21 0 -35.5 14.5t-14.5 37.5
q0 28 21.5 48.5t48.5 20.5q26 0 44 -17.5t18 -48.5z" />
    <glyph glyph-name="dagger" unicode="&#x2020;" horiz-adv-x="268" 
d="M309 528l-88 4l-42 -205h-55l50 205l-90 -4l11 50l89 -3l18 102h55l-27 -102l90 3z" />
    <glyph glyph-name="daggerdbl" unicode="&#x2021;" horiz-adv-x="268" 
d="M320 578l-11 -50l-88 4l-46 -206l90 4l-11 -50l-88 3l-20 -103h-55l28 103l-90 -3l11 50l88 -4l46 206l-90 -4l11 50l88 -3l19 102h55l-27 -102z" />
    <glyph glyph-name="bullet" unicode="&#x2022;" horiz-adv-x="358" 
d="M292 253q0 -49 -37.5 -85.5t-87.5 -36.5q-43 0 -72 28.5t-29 72.5q0 49 37.5 85.5t87.5 36.5q43 0 72 -29t29 -72z" />
    <glyph glyph-name="ellipsis" unicode="&#x2026;" horiz-adv-x="717" 
d="M71 -11q-25 0 -41.5 17t-16.5 42q0 28 20.5 49t49.5 21q25 0 42 -17.5t17 -41.5q0 -29 -21 -49.5t-50 -20.5zM310 -11q-25 0 -41.5 17t-16.5 42q0 28 21 49t49 21q25 0 42 -17.5t17 -41.5q0 -29 -21 -49.5t-50 -20.5zM549 -11q-25 0 -41.5 17t-16.5 42q0 28 20.5 49
t49.5 21q25 0 42 -17.5t17 -41.5q0 -29 -21 -49.5t-50 -20.5z" />
    <glyph glyph-name="perthousand" unicode="&#x2030;" horiz-adv-x="855" 
d="M121 0h-46l423 667h47zM388 -12q-52 0 -80.5 35t-28.5 88q0 85 46 146t106 61q52 0 80.5 -35t28.5 -88q0 -85 -46.5 -146t-105.5 -61zM392 49q30 0 55.5 42t25.5 98q0 69 -46 69q-30 0 -56 -42.5t-26 -98.5q0 -68 47 -68zM188 347q-52 0 -80.5 35t-28.5 88q0 85 46 146
t105 61q52 0 80.5 -35t28.5 -88q0 -85 -46 -146t-105 -61zM192 407q29 0 55 42.5t26 98.5q0 68 -47 68q-30 0 -55.5 -42t-25.5 -98q0 -69 47 -69zM664 -12q-52 0 -81 35.5t-29 87.5q0 85 46.5 146t105.5 61q52 0 80.5 -35t28.5 -88q0 -85 -46 -146t-105 -61zM667 49
q30 0 56 42t26 98q0 69 -47 69q-30 0 -55.5 -42t-25.5 -99q0 -68 46 -68z" />
    <glyph glyph-name="guilsinglleft" unicode="&#x2039;" horiz-adv-x="225" 
d="M152 63h-73l-50 180l130 177h77l-133 -181z" />
    <glyph glyph-name="guilsinglright" unicode="&#x203a;" horiz-adv-x="225" 
d="M73 420h73l50 -180l-130 -177h-77l133 181z" />
    <glyph glyph-name="uni203E" unicode="&#x203e;" horiz-adv-x="254" 
d="M325 568h-253l12 57h253z" />
    <glyph glyph-name="fraction" unicode="&#x2044;" horiz-adv-x="125" 
d="M317 667l-424 -667h-46l423 667h47z" />
    <glyph glyph-name="zerosuperior" unicode="&#x2070;" horiz-adv-x="281" 
d="M350 695q0 -39 -10.5 -85.5t-29.5 -91.5t-52.5 -74.5t-74.5 -29.5q-104 0 -104 132q0 39 10.5 85.5t29.5 91.5t52.5 74.5t74.5 29.5q104 0 104 -132zM279 708q0 60 -37 60q-38 0 -65 -87t-27 -148q0 -60 36 -60q27 0 49.5 47t33 100t10.5 88z" />
    <glyph glyph-name="foursuperior" unicode="&#x2074;" horiz-adv-x="281" 
d="M318 516h-35l-21 -95h-72l20 95h-144l12 58l184 247h88l-54 -247h34zM223 574l36 162l-118 -162h82z" />
    <glyph glyph-name="fivesuperior" unicode="&#x2075;" horiz-adv-x="281" 
d="M323 583q0 -68 -39.5 -118.5t-101.5 -50.5q-87 0 -120 70l55 38q15 -49 64 -49q28 0 47 32t19 69q0 48 -40 48q-34 0 -60 -36l-49 18l48 217h213l-13 -59h-141l-25 -115q26 29 61 29t58.5 -23.5t23.5 -69.5z" />
    <glyph glyph-name="sixsuperior" unicode="&#x2076;" horiz-adv-x="281" 
d="M324 584q0 -63 -37 -116.5t-99 -53.5q-51 0 -79.5 32.5t-28.5 92.5q0 58 18.5 121.5t61.5 115t100 51.5q66 0 97 -52l-48 -44q-13 37 -51 37q-58 0 -91 -130q-2 -6 -2 -11q29 53 80 53q34 0 56.5 -24t22.5 -72zM250 574q0 48 -40 48q-30 0 -56 -48q-5 -35 -5 -43
q0 -24 10 -41t29 -17q27 0 44.5 34t17.5 67z" />
    <glyph glyph-name="sevensuperior" unicode="&#x2077;" horiz-adv-x="255" 
d="M348 771l-188 -350h-71l187 341h-156l13 59h226z" />
    <glyph glyph-name="eightsuperior" unicode="&#x2078;" horiz-adv-x="281" 
d="M315 536q0 -53 -34 -87.5t-90 -34.5t-90 24t-34 70q0 44 29.5 78.5t69.5 45.5q-48 26 -48 78q0 53 36 85t86 32q47 0 81 -23t34 -68q0 -40 -25 -72t-67 -43q21 -10 36.5 -34t15.5 -51zM280 729q0 41 -39 41q-24 0 -39 -21t-15 -47q0 -19 11.5 -33.5t22.5 -18.5
q59 18 59 79zM243 541q0 22 -11 38.5t-22 21.5q-25 -4 -46 -29t-21 -58q0 -20 12 -32t31 -12q23 0 40 20.5t17 50.5z" />
    <glyph glyph-name="ninesuperior" unicode="&#x2079;" horiz-adv-x="281" 
d="M106 658q0 63 37 116.5t99 53.5q51 0 79.5 -32.5t28.5 -92.5q0 -58 -18.5 -121.5t-61.5 -115t-100 -51.5q-66 0 -97 52l48 44q13 -37 51 -37q58 0 91 130q2 6 2 11q-29 -53 -80 -53q-34 0 -56.5 24t-22.5 72zM180 668q0 -48 39 -48q31 0 57 48q5 35 5 43q0 25 -10 41.5
t-30 16.5q-26 0 -43.5 -34.5t-17.5 -66.5z" />
    <glyph glyph-name="parenleftsuperior" unicode="&#x207d;" horiz-adv-x="149" 
d="M163 373l-42 -17q-25 68 -25 154q0 197 142 376l35 -16q-55 -86 -88 -187t-33 -197q0 -74 11 -113z" />
    <glyph glyph-name="parenrightsuperior" unicode="&#x207e;" horiz-adv-x="149" 
d="M151 870l42 16q25 -66 25 -153q0 -196 -142 -377l-35 17q55 86 88 187t33 197q0 68 -11 113z" />
    <glyph glyph-name="nsuperior" unicode="&#x207f;" horiz-adv-x="301" 
d="M278 326h-70l49 222q3 12 3 17q0 24 -26 24q-27 0 -58 -47l-47 -216h-70l69 314h70l-9 -41q34 49 82 49q31 0 47.5 -14.5t16.5 -39.5q0 -1 -3 -25z" />
    <glyph glyph-name="zeroinferior" unicode="&#x2080;" horiz-adv-x="281" 
d="M234 128q0 -39 -10.5 -85.5t-29.5 -91.5t-52.5 -74.5t-74.5 -29.5q-104 0 -104 132q0 39 10.5 85.5t29.5 91.5t52.5 74.5t74.5 29.5q104 0 104 -132zM163 141q0 60 -37 60q-38 0 -65 -87t-27 -148q0 -60 36 -60q27 0 49.5 47t33 100t10.5 88z" />
    <glyph glyph-name="oneinferior" unicode="&#x2081;" horiz-adv-x="232" 
d="M98 -146h-73l66 302l-67 -57l-35 44l134 111h63z" />
    <glyph glyph-name="twoinferior" unicode="&#x2082;" horiz-adv-x="281" 
d="M175 -146h-232l13 58q130 117 170 163t40 81q0 21 -12.5 33t-33.5 12q-42 0 -77 -47l-37 47q52 59 119 59q49 0 82 -25.5t33 -71.5q0 -26 -9.5 -50t-40.5 -58.5t-55.5 -58.5t-88.5 -83h142z" />
    <glyph glyph-name="threeinferior" unicode="&#x2083;" horiz-adv-x="281" 
d="M201 -25q0 -48 -35.5 -88t-93.5 -40q-44 0 -77 18.5t-46 51.5l55 40q16 -51 65 -51q29 0 45 25t16 54q0 22 -13 33.5t-33 11.5q-22 0 -28 -1l13 59q5 -1 32 -1q28 0 46 19t18 51q0 20 -12.5 32t-34.5 12q-41 0 -73 -42l-38 41q49 60 117 60q53 0 83.5 -24.5t30.5 -68.5
q0 -38 -24.5 -72t-66.5 -40q54 -16 54 -80z" />
    <glyph glyph-name="fourinferior" unicode="&#x2084;" horiz-adv-x="281" 
d="M202 -51h-35l-21 -95h-72l20 95h-144l12 58l184 247h88l-54 -247h34zM107 7l36 162l-118 -162h82z" />
    <glyph glyph-name="fiveinferior" unicode="&#x2085;" horiz-adv-x="281" 
d="M207 16q0 -68 -39.5 -118.5t-101.5 -50.5q-87 0 -120 70l55 38q15 -49 64 -49q28 0 47 32t19 69q0 48 -40 48q-34 0 -60 -36l-49 18l48 217h213l-13 -59h-141l-25 -115q26 29 61 29t58.5 -23.5t23.5 -69.5z" />
    <glyph glyph-name="sixinferior" unicode="&#x2086;" horiz-adv-x="281" 
d="M208 17q0 -63 -37 -116.5t-99 -53.5q-51 0 -79.5 32.5t-28.5 92.5q0 58 18.5 121.5t61.5 115t100 51.5q66 0 97 -52l-48 -44q-13 37 -51 37q-58 0 -91 -130q-2 -6 -2 -11q29 53 80 53q34 0 56.5 -24t22.5 -72zM134 7q0 48 -40 48q-30 0 -56 -48q-5 -35 -5 -43
q0 -24 10 -41t29 -17q27 0 44.5 34t17.5 67z" />
    <glyph glyph-name="seveninferior" unicode="&#x2087;" horiz-adv-x="255" 
d="M232 204l-188 -350h-71l187 341h-156l13 59h226z" />
    <glyph glyph-name="eightinferior" unicode="&#x2088;" horiz-adv-x="281" 
d="M199 -31q0 -53 -34 -87.5t-90 -34.5t-90 24t-34 70q0 44 29.5 78.5t69.5 45.5q-48 26 -48 78q0 53 36 85t86 32q47 0 81 -23t34 -68q0 -40 -25 -72t-67 -43q21 -10 36.5 -34t15.5 -51zM164 162q0 41 -39 41q-24 0 -39 -21t-15 -47q0 -19 11.5 -33.5t22.5 -18.5
q59 18 59 79zM127 -26q0 22 -11 38.5t-22 21.5q-25 -4 -46 -29t-21 -58q0 -20 12 -32t31 -12q23 0 40 20.5t17 50.5z" />
    <glyph glyph-name="nineinferior" unicode="&#x2089;" horiz-adv-x="281" 
d="M-10 91q0 63 37 116.5t99 53.5q51 0 79.5 -32.5t28.5 -92.5q0 -58 -18.5 -121.5t-61.5 -115t-100 -51.5q-66 0 -97 52l48 44q13 -37 51 -37q58 0 91 130q2 6 2 11q-29 -53 -80 -53q-34 0 -56.5 24t-22.5 72zM64 101q0 -48 39 -48q31 0 57 48q5 35 5 43q0 25 -10 41.5
t-30 16.5q-26 0 -43.5 -34.5t-17.5 -66.5z" />
    <glyph glyph-name="parenleftinferior" unicode="&#x208d;" horiz-adv-x="149" 
d="M38 -194l-42 -17q-25 68 -25 154q0 197 142 376l35 -16q-55 -86 -88 -187t-33 -197q0 -74 11 -113z" />
    <glyph glyph-name="parenrightinferior" unicode="&#x208e;" horiz-adv-x="149" 
d="M26 303l42 16q25 -66 25 -153q0 -196 -142 -377l-35 17q55 86 88 187t33 197q0 68 -11 113z" />
    <glyph glyph-name="colonmonetary" unicode="&#x20a1;" horiz-adv-x="392" 
d="M186 -12q-11 0 -29 2l-39 -90h-58l46 108q-15 9 -28 22l-56 -130h-58l80 187q-15 42 -15 103q0 62 15.5 140t45.5 157.5t84 134t122 56.5l39 90h58l-42 -98q15 -6 31 -16l49 114h58l-68 -159q25 -45 28 -106l-97 -19q-7 101 -58 101q-36 0 -67.5 -47t-50 -113.5
t-29.5 -130.5t-11 -107q0 -106 56 -106q44 0 88 83l83 -36q-68 -140 -177 -140z" />
    <glyph glyph-name="frenchfranc" unicode="&#x20a3;" horiz-adv-x="380" 
d="M122 0h-104l28 127h-54l12 57h54l107 483h273l-20 -92h-169l-42 -189h162l-21 -92h-161l-25 -110h93l-13 -57h-92z" />
    <glyph glyph-name="lira" unicode="&#x20a4;" horiz-adv-x="405" 
d="M49 330l11 53h38q-5 27 -5 54q0 100 63 170t141 70q62 0 103.5 -34.5t43.5 -98.5l-90 -27q-5 74 -56 74q-37 0 -65.5 -49.5t-28.5 -117.5q0 -15 4 -41h95l-12 -53h-70q4 -22 4 -32q0 -12 -2 -32h54l-11 -53h-56q-29 -78 -81 -113q19 9 35 9q23 0 54 -14t48 -14
q38 0 68 32l12 -84q-39 -41 -99 -41q-39 0 -80 20.5t-64 20.5q-35 0 -82 -36l-17 73q40 23 71 62.5t43 84.5h-95l11 53h90q-1 17 -12 64h-63z" />
    <glyph glyph-name="uni20A6" unicode="&#x20a6;" horiz-adv-x="493" 
d="M368 0h-99l-34 238h-61l-52 -238h-104l52 238h-54l13 57h54l18 84h-53l12 57h54l51 231h104l31 -231h58l52 231h105l-51 -231h51l-12 -57h-52l-18 -84h51l-13 -57h-51zM205 379l-18 -84h40l-11 84h-11zM307 379l12 -84h8l19 84h-39z" />
    <glyph glyph-name="peseta" unicode="&#x20a7;" horiz-adv-x="468" 
d="M122 0h-104l95 432h-53l12 58h54l39 177h148q66 0 106.5 -45t40.5 -117q0 -3 -0.5 -8t-0.5 -7h53l-13 -58h-48q-19 -77 -75 -127t-142 -50h-56zM245 347q34 1 58.5 24.5t36.5 60.5h-123l-19 -85h47zM249 575l-19 -85h121v6q0 38 -17 58.5t-45 20.5h-40z" />
    <glyph glyph-name="rupee" unicode="&#x20a8;" horiz-adv-x="732" 
d="M525 -12q-48 0 -87 19t-57 50l53 61q32 -55 93 -55q29 0 49 20.5t20 48.5q0 24 -22 47.5t-48 41t-48 50t-22 71.5q0 63 41.5 108t113.5 45q38 0 74 -17t58 -46l-51 -59q-10 19 -33.5 33t-49.5 14q-28 0 -45 -17t-17 -44q0 -21 22.5 -43.5t49 -41t49 -51.5t22.5 -73
q0 -67 -46 -114.5t-119 -47.5zM346 0h-109l-21 255h-53l-56 -255h-104l147 667h147q65 0 107 -46t42 -115q0 -82 -40 -148t-93 -84zM183 347h46q49 0 78 45.5t29 104.5q0 78 -61 78h-41z" />
    <glyph glyph-name="uni20A9" unicode="&#x20a9;" horiz-adv-x="619" 
d="M424 0h-107l21 238h-60l-84 -238h-107l13 238h-75l13 57h65l4 84h-50l12 57h41l13 231h105l-22 -231h69l84 231h84l-18 -231h68l81 231h108l-90 -231h39l-12 -57h-49l-32 -84h62l-13 -57h-71zM201 379l-8 -84h30l31 84h-53zM414 295h30l29 84h-52zM328 379l-30 -84h45
l8 84h-23zM410 238l-4 -54l18 54h-14zM202 238h-14l-5 -54zM359 466l-11 -30h8z" />
    <glyph glyph-name="afii57636" unicode="&#x20aa;" horiz-adv-x="533" 
d="M301 0h-186l88 395h72l-73 -326h99q38 0 59 21t32 73l86 387h72l-87 -390q-37 -160 -162 -160zM117 550h143q60 0 99.5 -29t39.5 -88q0 -20 -8 -62l-47 -217h-73l52 231q4 26 4 35q0 61 -72 61h-81l-106 -481h-72z" />
    <glyph glyph-name="dong" unicode="&#x20ab;" horiz-adv-x="418" 
d="M239 -153h-253l12 57h253zM209 495q72 0 92 -77l25 115h-119l12 57h120l17 77h94l-17 -77h39l-12 -57h-40l-118 -533h-94l14 60q-45 -72 -102 -72q-50 0 -76 38t-26 111q0 49 12 108.5t34.5 116.5t60.5 95t84 38zM229 412q-35 0 -63 -51.5t-39.5 -110t-11.5 -102.5
q0 -77 51 -77q19 0 39.5 19.5t33.5 47.5l46 206q-3 29 -19 48.5t-37 19.5z" />
    <glyph glyph-name="Euro" unicode="&#x20ac;" horiz-adv-x="427" 
d="M206 -12q-75 0 -116 52.5t-41 149.5q0 13 2 43h-39l14 61h31q3 21 16 80h-29l14 62h33q36 107 93 174.5t137 67.5q73 0 108.5 -49.5t39.5 -125.5l-97 -19q-7 101 -58 101q-64 0 -114 -149h113l-14 -62h-117q-12 -54 -16 -80h115l-13 -61h-110q-2 -36 -2 -46
q0 -106 56 -106q44 0 88 83l83 -36q-68 -140 -177 -140z" />
    <glyph glyph-name="afii61289" unicode="&#x2113;" horiz-adv-x="407" 
d="M210 510l-35 -157l110 87q43 34 64 57.5t21 49.5t-18.5 42t-47.5 16q-74 0 -94 -95zM343 396l-191 -148l-30 -135q-3 -12 -3 -22q0 -27 27 -27q15 0 27 12l8 -69q-22 -19 -60 -19q-99 0 -99 77q0 21 4 42l90 403q37 167 198 167q62 0 104.5 -31.5t42.5 -86.5
q0 -41 -26.5 -76.5t-91.5 -86.5z" />
    <glyph glyph-name="afii61352" unicode="&#x2116;" horiz-adv-x="763" 
d="M644 350q-52 0 -79 31.5t-27 85.5q0 46 16 93t52 83.5t83 36.5q52 0 79 -31.5t27 -85.5q0 -46 -16 -93t-52 -83.5t-83 -36.5zM647 407q25 0 43.5 32.5t26 67t7.5 59.5q0 56 -39 56q-25 0 -43.5 -32t-26 -67t-7.5 -60q0 -56 39 -56zM353 0h-99l-57 409l-90 -409h-104
l147 667h104l53 -396l88 396h105z" />
    <glyph glyph-name="published" unicode="&#x2117;" horiz-adv-x="778" 
d="M754 334q0 -142 -101.5 -243.5t-244.5 -101.5q-142 0 -243 101t-101 244t101 244t243 101q143 0 244.5 -101.5t101.5 -243.5zM721 334q0 128 -92.5 220t-220.5 92t-219 -92t-91 -220t91 -220t219 -92t220.5 92t92.5 220zM593 432q0 -56 -42 -93t-104 -37h-122l-37 -171
h-40l89 405h133q52 0 87.5 -28.5t35.5 -75.5zM551 429q0 32 -23.5 51t-62.5 19h-96l-35 -160h120q43 0 70 25.5t27 64.5z" />
    <glyph glyph-name="servicemark" unicode="&#x2120;" horiz-adv-x="374" 
d="M382 447h-28l40 182l-95 -182h-8l-15 182l-40 -182h-28l48 220h42l10 -157l78 157h44zM181 513q0 -29 -19.5 -50.5t-47.5 -21.5q-33 0 -50 24l18 22q12 -19 33 -19q12 0 24 13t12 28q0 18 -25 44.5t-25 48.5q0 29 17.5 50t44.5 21q29 0 45 -18l-18 -24q-10 15 -29 15
q-11 0 -20.5 -10.5t-9.5 -26.5q0 -13 25 -42.5t25 -53.5z" />
    <glyph glyph-name="trademark" unicode="&#x2122;" horiz-adv-x="374" 
d="M384 447h-28l40 182l-95 -182h-8l-15 182l-40 -182h-28l48 220h43l10 -157l78 157h43zM217 641h-42l-43 -194h-28l43 194h-42l5 26h112z" />
    <glyph glyph-name="Omega" unicode="&#x2126;" horiz-adv-x="447" 
d="M6 92h84q-49 63 -49 163q0 59 17.5 130.5t48 137.5t80.5 110.5t107 44.5q75 0 120 -46t45 -146q0 -126 -46.5 -232t-113.5 -162h74l-20 -92h-153l20 92q52 41 91 170t39 215q0 56 -13 81.5t-44 25.5q-34 0 -64.5 -43t-50 -105.5t-30.5 -126.5t-11 -111q0 -73 23 -106
l-20 -92h-154z" />
    <glyph glyph-name="estimated" unicode="&#x212e;" horiz-adv-x="842" 
d="M829 324h-632q-4 0 -4 -5v-190q0 -15 9 -23q98 -103 240 -103q151 0 250 115h57q-54 -63 -135 -99.5t-174 -36.5q-161 0 -275.5 103t-114.5 248t114.5 248t275.5 103t275.5 -103t114.5 -248zM687 349v191q0 14 -10 24q-97 99 -236 99t-238 -102q-10 -10 -10 -24v-188
q0 -6 5 -6h485q4 0 4 6z" />
    <glyph glyph-name="onethird" unicode="&#x2153;" horiz-adv-x="651" 
d="M189 267h-73l66 302l-67 -57l-35 44l134 111h63zM562 667l-424 -667h-46l423 667h47zM603 121q0 -48 -35.5 -88t-93.5 -40q-44 0 -77 18.5t-46 51.5l55 40q16 -51 65 -51q29 0 45 25t16 54q0 22 -13 33.5t-33 11.5q-22 0 -28 -1l13 59q5 -1 32 -1q28 0 46 19t18 51
q0 20 -12.5 32t-34.5 12q-41 0 -73 -42l-38 41q49 60 117 60q53 0 83.5 -24.5t30.5 -68.5q0 -38 -24.5 -72t-66.5 -40q54 -16 54 -80z" />
    <glyph glyph-name="twothirds" unicode="&#x2154;" horiz-adv-x="687" 
d="M266 267h-232l13 58q130 117 170 163t40 81q0 21 -12.5 33t-33.5 12q-42 0 -77 -47l-37 47q52 59 119 59q49 0 82 -25.5t33 -71.5q0 -26 -9.5 -50t-40.5 -58.5t-55.5 -58.5t-88.5 -83h142zM598 667l-424 -667h-46l423 667h47zM639 121q0 -48 -35.5 -88t-93.5 -40
q-44 0 -77 18.5t-46 51.5l55 40q16 -51 65 -51q29 0 45 25t16 54q0 22 -13 33.5t-33 11.5q-22 0 -28 -1l13 59q5 -1 32 -1q28 0 46 19t18 51q0 20 -12.5 32t-34.5 12q-41 0 -73 -42l-38 41q49 60 117 60q53 0 83.5 -24.5t30.5 -68.5q0 -38 -24.5 -72t-66.5 -40
q54 -16 54 -80z" />
    <glyph glyph-name="oneeighth" unicode="&#x215b;" horiz-adv-x="651" 
d="M189 267h-73l66 302l-67 -57l-35 44l134 111h63zM601 115q0 -53 -34 -87.5t-90 -34.5t-90 24t-34 70q0 44 29.5 78.5t69.5 45.5q-48 26 -48 78q0 53 36 85t86 32q47 0 81 -23t34 -68q0 -40 -25 -72t-67 -43q21 -10 36.5 -34t15.5 -51zM566 308q0 41 -39 41q-24 0 -39 -21
t-15 -47q0 -19 11.5 -33.5t22.5 -18.5q59 18 59 79zM529 120q0 22 -11 38.5t-22 21.5q-25 -4 -46 -29t-21 -58q0 -20 12 -32t31 -12q23 0 40 20.5t17 50.5zM562 667l-424 -667h-46l423 667h47z" />
    <glyph glyph-name="threeeighths" unicode="&#x215c;" horiz-adv-x="687" 
d="M637 115q0 -53 -34 -87.5t-90 -34.5t-90 24t-34 70q0 44 29.5 78.5t69.5 45.5q-48 26 -48 78q0 53 36 85t86 32q47 0 81 -23t34 -68q0 -40 -25 -72t-67 -43q21 -10 36.5 -34t15.5 -51zM602 308q0 41 -39 41q-24 0 -39 -21t-15 -47q0 -19 11.5 -33.5t22.5 -18.5
q59 18 59 79zM565 120q0 22 -11 38.5t-22 21.5q-25 -4 -46 -29t-21 -58q0 -20 12 -32t31 -12q23 0 40 20.5t17 50.5zM598 667l-424 -667h-46l423 667h47zM292 388q0 -48 -35.5 -88t-93.5 -40q-44 0 -77 18.5t-46 51.5l55 40q16 -51 65 -51q29 0 45 25t16 54q0 22 -13 33.5
t-33 11.5q-22 0 -28 -1l13 59q5 -1 32 -1q28 0 46 19t18 51q0 20 -12.5 32t-34.5 12q-41 0 -73 -42l-38 41q49 60 117 60q53 0 83.5 -24.5t30.5 -68.5q0 -38 -24.5 -72t-66.5 -40q54 -16 54 -80z" />
    <glyph glyph-name="fiveeighths" unicode="&#x215d;" horiz-adv-x="683" 
d="M633 115q0 -53 -34 -87.5t-90 -34.5t-90 24t-34 70q0 44 29.5 78.5t69.5 45.5q-48 26 -48 78q0 53 36 85t86 32q47 0 81 -23t34 -68q0 -40 -25 -72t-67 -43q21 -10 36.5 -34t15.5 -51zM598 308q0 41 -39 41q-24 0 -39 -21t-15 -47q0 -19 11.5 -33.5t22.5 -18.5
q59 18 59 79zM561 120q0 22 -11 38.5t-22 21.5q-25 -4 -46 -29t-21 -58q0 -20 12 -32t31 -12q23 0 40 20.5t17 50.5zM298 429q0 -68 -39.5 -118.5t-101.5 -50.5q-87 0 -120 70l55 38q15 -49 64 -49q28 0 47 32t19 69q0 48 -40 48q-34 0 -60 -36l-49 18l48 217h213l-13 -59
h-141l-25 -115q26 29 61 29t58.5 -23.5t23.5 -69.5zM594 667l-424 -667h-46l423 667h47z" />
    </font>
</defs>
</svg>
