<?xml version="1.0" standalone="no"?>
<!DOCTYPE svg PUBLIC "-//W3C//DTD SVG 1.1//EN" "http://www.w3.org/Graphics/SVG/1.1/DTD/svg11.dtd" >
<svg xmlns="http://www.w3.org/2000/svg" xmlns:xlink="http://www.w3.org/1999/xlink" version="1.1">
<metadata>
Created by FontForge 20170731 at Tue Nov 30 17:21:02 2010
 By ,,,
Copyright (c) Mark Simonson, 2005. All rights reserved.
</metadata>
<defs>
<font id="ProximaNovaExCn-Thin" horiz-adv-x="342" >
  <font-face 
    font-family="Proxima Nova ExCn Th"
    font-weight="250"
    font-stretch="normal"
    units-per-em="1000"
    panose-1="2 0 5 6 3 0 0 2 0 4"
    ascent="790"
    descent="-210"
    x-height="483"
    cap-height="667"
    bbox="-101 -258 811 886"
    underline-thickness="20"
    underline-position="-173"
    unicode-range="U+000D-FB04"
  />
<missing-glyph horiz-adv-x="495" 
d="M423 -90h-351v842h351v-842zM391 -60v782h-288v-782h288z" />
    <glyph glyph-name="f_f_j" unicode="ffj" horiz-adv-x="564" 
d="M108 0h-30v456h-50v27h50v107q0 39 21.5 63t57.5 24t56 -27l-20 -23q-16 23 -36 23q-49 0 -49 -60v-107h70v-27h-70v-456zM310 0h-30v456h-50v27h50v107q0 38 21.5 62.5t52.5 24.5q21 0 37 -14l-15 -22q-7 9 -22 9q-20 0 -32 -16t-12 -44v-107h70v-27h-70v-456zM484 566
q-11 0 -20 8.5t-9 20.5t9 20.5t20 8.5q12 0 20.5 -8.5t8.5 -20.5t-8.5 -20.5t-20.5 -8.5zM435 -196q-41 0 -57 38l27 14q10 -25 30 -25q34 0 34 73v579h30v-579q0 -100 -64 -100z" />
    <glyph glyph-name="f_j" unicode="fj" horiz-adv-x="362" 
d="M108 0h-30v456h-50v27h50v107q0 38 21.5 62.5t52.5 24.5q21 0 37 -14l-15 -22q-8 9 -22 9q-20 0 -32 -16t-12 -44v-107h70v-27h-70v-456zM282 566q-11 0 -20 8.5t-9 20.5t9 20.5t20 8.5q12 0 20.5 -8.5t8.5 -20.5t-8.5 -20.5t-20.5 -8.5zM233 -196q-41 0 -57 38l27 14
q10 -25 30 -25q34 0 34 73v579h30v-579q0 -100 -64 -100z" />
    <glyph glyph-name="f_f" unicode="ff" horiz-adv-x="404" 
d="M108 0h-30v456h-50v27h50v107q0 39 21.5 63t57.5 24t56 -27l-20 -23q-16 23 -36 23q-49 0 -49 -60v-107h70v-27h-70v-456zM310 0h-30v456h-50v27h50v107q0 39 21.5 63t57.5 24t56 -27l-20 -23q-16 23 -36 23q-49 0 -49 -60v-107h70v-27h-70v-456z" />
    <glyph glyph-name="fi" unicode="fi" horiz-adv-x="362" 
d="M108 0h-30v456h-50v27h50v107q0 38 21.5 62.5t52.5 24.5q21 0 37 -14l-15 -22q-8 9 -22 9q-20 0 -32 -16t-12 -44v-107h70v-27h-70v-456zM282 566q-11 0 -20 8.5t-9 20.5t9 20.5t20 8.5q12 0 20.5 -8.5t8.5 -20.5t-8.5 -20.5t-20.5 -8.5zM297 0h-30v483h30v-483z" />
    <glyph glyph-name="fl" unicode="fl" horiz-adv-x="362" 
d="M108 0h-30v456h-50v27h50v107q0 38 21.5 62.5t52.5 24.5q21 0 37 -14l-15 -22q-8 9 -22 9q-20 0 -32 -16t-12 -44v-107h70v-27h-70v-456zM297 0h-30v667h30v-667z" />
    <glyph glyph-name="f_f_i" unicode="ffi" horiz-adv-x="564" 
d="M108 0h-30v456h-50v27h50v107q0 39 21.5 63t57.5 24t56 -27l-20 -23q-16 23 -36 23q-49 0 -49 -60v-107h70v-27h-70v-456zM310 0h-30v456h-50v27h50v107q0 38 21.5 62.5t52.5 24.5q21 0 37 -14l-15 -22q-7 9 -22 9q-20 0 -32 -16t-12 -44v-107h70v-27h-70v-456zM484 566
q-11 0 -20 8.5t-9 20.5t9 20.5t20 8.5q12 0 20.5 -8.5t8.5 -20.5t-8.5 -20.5t-20.5 -8.5zM499 0h-30v483h30v-483z" />
    <glyph glyph-name="f_f_l" unicode="ffl" horiz-adv-x="564" 
d="M108 0h-30v456h-50v27h50v107q0 39 21.5 63t57.5 24t56 -27l-20 -23q-16 23 -36 23q-49 0 -49 -60v-107h70v-27h-70v-456zM310 0h-30v456h-50v27h50v107q0 38 21.5 62.5t52.5 24.5q21 0 37 -14l-15 -22q-7 9 -22 9q-20 0 -32 -16t-12 -44v-107h70v-27h-70v-456zM499 0
h-30v667h30v-667z" />
    <glyph glyph-name="f_b" unicode="fb" horiz-adv-x="553" 
d="M108 0h-30v456h-50v27h50v107q0 38 21.5 62.5t52.5 24.5q21 0 37 -14l-15 -22q-8 9 -22 9q-20 0 -32 -16t-12 -44v-107h70v-27h-70v-456zM297 115q9 -40 34.5 -70t53.5 -30q88 0 88 226q0 227 -88 227q-27 0 -53 -31t-35 -71v-251zM297 0h-30v667h30v-256
q14 41 38.5 62.5t49.5 21.5q62 0 91.5 -70t29.5 -184q0 -74 -11.5 -129t-39.5 -89.5t-70 -34.5q-24 0 -48.5 22.5t-39.5 59.5v-70z" />
    <glyph glyph-name="f_h" unicode="fh" horiz-adv-x="544" 
d="M108 0h-30v456h-50v27h50v107q0 38 21.5 62.5t52.5 24.5q21 0 37 -14l-15 -22q-8 9 -22 9q-20 0 -32 -16t-12 -44v-107h70v-27h-70v-456zM479 0h-30v394q0 74 -53 74q-30 0 -57 -27.5t-42 -66.5v-374h-30v667h30v-256q18 37 45 60.5t58 23.5q42 0 60.5 -23.5t18.5 -77.5
v-394z" />
    <glyph glyph-name="f_k" unicode="fk" horiz-adv-x="527" 
d="M108 0h-30v456h-50v27h50v107q0 38 21.5 62.5t52.5 24.5q21 0 37 -14l-15 -22q-8 9 -22 9q-20 0 -32 -16t-12 -44v-107h70v-27h-70v-456zM503 0h-32l-108 242l-66 -110v-132h-30v667h30v-489l179 305h31l-128 -218z" />
    <glyph glyph-name=".notdef" horiz-adv-x="495" 
d="M423 -90h-351v842h351v-842zM391 -60v782h-288v-782h288z" />
    <glyph glyph-name=".null" horiz-adv-x="0" 
 />
    <glyph glyph-name=".null" horiz-adv-x="0" 
 />
    <glyph glyph-name="nonmarkingreturn" horiz-adv-x="333" 
 />
    <glyph glyph-name="CR" unicode="&#xd;" horiz-adv-x="0" 
 />
    <glyph glyph-name="space" unicode=" " horiz-adv-x="180" 
 />
    <glyph glyph-name="exclam" unicode="!" horiz-adv-x="208" 
d="M114 161h-20l-11 506h42zM104 -9q-14 0 -23.5 9.5t-9.5 23.5q0 13 10 22.5t23 9.5t23 -9.5t10 -22.5q0 -14 -9.5 -23.5t-23.5 -9.5z" />
    <glyph glyph-name="quotedbl" unicode="&#x22;" horiz-adv-x="290" 
d="M99 443h-22q-15 197 -15 208t8 18.5t18 7.5t18 -7.5t8 -18.5zM213 443h-22q-15 197 -15 208t7.5 18.5t18.5 7.5t18.5 -7.5t7.5 -18.5z" />
    <glyph glyph-name="numbersign" unicode="#" horiz-adv-x="395" 
d="M191 0h-33l46 191h-78l-44 -191h-33l45 191h-76l6 29h77l53 227h-77l5 29h78l44 191h33l-44 -191h77l44 191h32l-44 -191h75l-5 -29h-77l-53 -227h78l-6 -29h-79zM209 220l54 227h-77l-53 -227h76z" />
    <glyph glyph-name="dollar" unicode="$" horiz-adv-x="304" 
d="M145 -12q-70 0 -118 57l24 26q16 -24 42 -38.5t52 -14.5h5v317q-36 36 -52.5 55t-34.5 58.5t-18 83.5q0 59 30 97.5t75 46.5v92h32v-91q51 -3 85 -40l-19 -25q-29 32 -66 35v-295q31 -33 48.5 -56t33.5 -63.5t16 -85.5q0 -57 -26.5 -99t-71.5 -55v-93h-32v88h-5zM77 532
q0 -43 19 -77t54 -71v261q-31 -8 -52 -38t-21 -75zM248 147q0 80 -66 155v-276q30 13 48 45t18 76z" />
    <glyph glyph-name="percent" unicode="%" horiz-adv-x="555" 
d="M149 351q-51 0 -82 45.5t-31 116.5q0 72 31 118t82 46q52 0 82.5 -46t30.5 -118q0 -71 -30.5 -116.5t-82.5 -45.5zM159 0h-32l269 667h33zM406 -12q-51 0 -82 45.5t-31 116.5q0 72 31 118t82 46t82 -46t31 -118q0 -71 -31 -116.5t-82 -45.5zM149 378q37 0 58.5 39
t21.5 96q0 58 -21.5 97.5t-58.5 39.5t-58.5 -39.5t-21.5 -97.5q0 -57 21.5 -96t58.5 -39zM406 15q37 0 58.5 39t21.5 96q0 58 -21.5 97.5t-58.5 39.5t-58.5 -39.5t-21.5 -97.5q0 -57 21.5 -96t58.5 -39z" />
    <glyph glyph-name="ampersand" unicode="&#x26;" horiz-adv-x="358" 
d="M345 0h-39l-46 81q-45 -93 -106 -93q-48 0 -77.5 44.5t-29.5 120.5q0 68 21.5 115t61.5 95q-34 94 -34 154q0 75 21.5 117.5t62.5 42.5q31 0 52.5 -33t21.5 -85q0 -42 -14 -79.5t-27 -56.5t-41 -53q-5 -7 -8 -10q20 -57 46 -112q26 -58 46 -95q20 61 38 160l30 -11
q-20 -114 -49 -186q25 -43 70 -116zM153 18q48 0 89 97q-38 71 -55 110q-23 47 -46 105q-59 -81 -59 -177q0 -67 20 -101t51 -34zM131 517q0 -54 23 -126q35 43 52.5 80t17.5 88q0 44 -13 66t-31 22q-49 0 -49 -130z" />
    <glyph glyph-name="quotesingle" unicode="'" horiz-adv-x="176" 
d="M99 443h-22q-15 197 -15 208t8 18.5t18 7.5t18 -7.5t8 -18.5z" />
    <glyph glyph-name="parenleft" unicode="(" horiz-adv-x="167" 
d="M150 -192l-18 -7q-85 206 -85 442t85 442l18 -6q-68 -217 -68 -436t68 -435z" />
    <glyph glyph-name="parenright" unicode=")" horiz-adv-x="167" 
d="M35 -199l-18 7q68 216 68 435t-68 436l18 6q85 -206 85 -442t-85 -442z" />
    <glyph glyph-name="asterisk" unicode="*" horiz-adv-x="288" 
d="M159 409h-30l6 119l-100 -65l-15 26l106 54l-106 54l15 26l100 -65l-6 119h30l-6 -119l100 65l15 -26l-106 -54l106 -54l-15 -26l-100 65z" />
    <glyph glyph-name="plus" unicode="+" horiz-adv-x="374" 
d="M345 322h-142v-162h-32v162h-142v30h142v156h32v-156h142v-30z" />
    <glyph glyph-name="comma" unicode="," horiz-adv-x="208" 
d="M141 3q0 -36 -18 -69.5t-44 -51.5l-22 18q24 18 38.5 43.5t14.5 48.5q-5 -1 -7 -1q-14 0 -23 9.5t-9 23.5q0 13 9 22.5t23 9.5q16 0 27 -14t11 -39z" />
    <glyph glyph-name="hyphen" unicode="-" horiz-adv-x="230" 
d="M200 227h-170v30h170v-30z" />
    <glyph glyph-name="period" unicode="." horiz-adv-x="208" 
d="M104 -9q-14 0 -23.5 9.5t-9.5 23.5q0 13 10 22.5t23 9.5t23 -9.5t10 -22.5q0 -14 -9.5 -23.5t-23.5 -9.5z" />
    <glyph glyph-name="slash" unicode="/" horiz-adv-x="177" 
d="M30 -20h-30l147 707h30z" />
    <glyph glyph-name="zero" unicode="0" horiz-adv-x="377" 
d="M189 -12q-136 0 -136 345q0 344 136 344q135 0 135 -344q0 -345 -135 -345zM189 18q27 0 46.5 22t29.5 52t15.5 77t7 82t1.5 82t-1.5 82t-7 82t-15.5 77t-29.5 51.5t-46.5 21.5q-33 0 -55 -29.5t-31 -82.5t-12 -97.5t-3 -104.5q0 -39 1 -67.5t4 -69t9.5 -69t17.5 -55
t28.5 -40.5t40.5 -14z" />
    <glyph glyph-name="one" unicode="1" horiz-adv-x="243" 
d="M171 0h-32v621l-105 -115l-22 23l129 138h30v-667z" />
    <glyph glyph-name="two" unicode="2" horiz-adv-x="348" 
d="M295 0h-235v28q131 253 165.5 341.5t34.5 159.5q0 52 -23.5 85t-59.5 33q-62 0 -95 -92l-31 14q24 56 52 82t74 26q54 0 86 -41.5t32 -106.5q0 -69 -37.5 -165.5t-163.5 -333.5h201v-30z" />
    <glyph glyph-name="three" unicode="3" horiz-adv-x="347" 
d="M164 -12q-45 0 -78 32.5t-50 82.5l31 13q36 -98 97 -98q95 0 95 160q0 83 -29.5 117.5t-67.5 34.5q-28 0 -34 -1v32q8 -1 34 -1q40 0 65 36t25 103q0 148 -87 148q-34 0 -54.5 -23.5t-36.5 -66.5l-31 13q16 50 49.5 78.5t72.5 28.5q56 0 89.5 -43t33.5 -131
q0 -55 -22 -99t-62 -59q37 -9 63.5 -56t26.5 -112q0 -86 -31 -137.5t-99 -51.5z" />
    <glyph glyph-name="four" unicode="4" horiz-adv-x="310" 
d="M243 0h-32v195h-199v33l189 439h42v-442h55v-30h-55v-195zM211 225v391l-168 -391h168z" />
    <glyph glyph-name="five" unicode="5" horiz-adv-x="348" 
d="M174 -12q-53 0 -79.5 28.5t-47.5 86.5l32 11q13 -49 35 -72.5t60 -23.5q43 0 67 53.5t24 126.5q0 182 -83 182q-28 0 -48 -14.5t-44 -54.5l-27 16v340h214v-30h-182v-284q34 57 87 57q55 0 86.5 -54.5t31.5 -157.5q0 -85 -34.5 -147.5t-91.5 -62.5z" />
    <glyph glyph-name="six" unicode="6" horiz-adv-x="350" 
d="M184 -12q-41 0 -68.5 29t-40.5 83t-17.5 108t-4.5 125q0 70 5 123.5t19 107.5t44 83.5t74 29.5q38 0 67 -25.5t43 -70.5l-28 -15q-25 81 -82 81q-107 0 -107 -324v-19q14 44 39 73t61 29q53 0 86 -53.5t33 -156.5q0 -85 -29.5 -146.5t-93.5 -61.5zM184 18q88 0 88 178
q0 180 -85 180q-64 0 -98 -130q3 -228 95 -228z" />
    <glyph glyph-name="seven" unicode="7" horiz-adv-x="278" 
d="M112 0h-33l141 637h-196v30h230v-22z" />
    <glyph glyph-name="eight" unicode="8" horiz-adv-x="348" 
d="M174 -12q-61 0 -93.5 44.5t-32.5 121.5q0 62 31.5 113.5t68.5 76.5q-34 24 -63.5 69t-29.5 103q0 77 33 119t86 42q54 0 86.5 -42t32.5 -119q0 -57 -29 -102.5t-63 -69.5q36 -26 67.5 -77t31.5 -112q0 -77 -33 -122t-93 -45zM174 359q7 3 18.5 13t27.5 28.5t27 49.5
t11 66q0 61 -21 96t-63 35t-63 -35t-21 -96q0 -35 11 -66t27 -49.5t27.5 -28.5t18.5 -13zM174 18q41 0 66 36t25 101q0 48 -20 90.5t-40 62.5t-31 22q-11 -2 -31 -22t-40 -63t-20 -91q0 -64 25 -100t66 -36z" />
    <glyph glyph-name="nine" unicode="9" horiz-adv-x="350" 
d="M155 -11q-38 0 -67 25.5t-43 70.5l28 15q25 -81 82 -81q107 0 107 324v19q-14 -44 -39 -73t-61 -29q-53 0 -86 53.5t-33 156.5q0 85 29.5 146.5t93.5 61.5q41 0 68.5 -29t40.5 -83t17.5 -108t4.5 -125q0 -70 -5 -123.5t-19 -107.5t-44 -83.5t-74 -29.5zM163 290
q64 0 98 130q-3 228 -95 228q-88 0 -88 -178q0 -180 85 -180z" />
    <glyph glyph-name="colon" unicode=":" horiz-adv-x="208" 
d="M104 425q-13 0 -23 9.5t-10 22.5t9.5 23t23.5 10t23.5 -10t9.5 -23t-10 -22.5t-23 -9.5zM104 -9q-14 0 -23.5 9.5t-9.5 23.5q0 13 10 22.5t23 9.5t23 -9.5t10 -22.5q0 -14 -9.5 -23.5t-23.5 -9.5z" />
    <glyph glyph-name="semicolon" unicode=";" horiz-adv-x="208" 
d="M104 425q-13 0 -23 9.5t-10 22.5t9.5 23t23.5 10t23.5 -10t9.5 -23t-10 -22.5t-23 -9.5zM141 3q0 -36 -18 -69.5t-44 -51.5l-22 18q24 18 38.5 43.5t14.5 48.5q-5 -1 -7 -1q-14 0 -23 9.5t-9 23.5q0 13 9 22.5t23 9.5q16 0 27 -14t11 -39z" />
    <glyph glyph-name="less" unicode="&#x3c;" horiz-adv-x="374" 
d="M345 166l-316 158v21l316 158v-36l-275 -133l275 -132v-36z" />
    <glyph glyph-name="equal" unicode="=" horiz-adv-x="374" 
d="M345 418h-316v30h316v-30zM345 220h-316v30h316v-30z" />
    <glyph glyph-name="greater" unicode="&#x3e;" horiz-adv-x="374" 
d="M345 324l-316 -158v36l275 132l-275 133v36l316 -158v-21z" />
    <glyph glyph-name="question" unicode="?" horiz-adv-x="302" 
d="M148 169q-28 35 -28 80q0 43 18.5 80.5t40.5 61.5t40.5 63.5t18.5 84.5q0 41 -26 75t-67 34q-42 0 -78 -36l-19 25q37 41 97 41q52 0 88.5 -41t36.5 -98q0 -48 -18.5 -90t-40.5 -66.5t-40.5 -60t-18.5 -73.5q0 -37 23 -60zM155 -9q-13 0 -23 9.5t-10 23.5q0 13 10 22.5
t23 9.5t23 -9.5t10 -22.5q0 -14 -10 -23.5t-23 -9.5z" />
    <glyph glyph-name="at" unicode="@" horiz-adv-x="569" 
d="M256 -70q-97 0 -159 77.5t-62 208.5q0 106 43 203.5t116 158.5t154 61q85 0 135.5 -65t50.5 -182q0 -129 -42 -218t-90 -89q-31 0 -48 20.5t-17 51.5v6q-47 -78 -103 -78q-36 0 -62 28.5t-26 90.5q0 69 21 136t63 113.5t93 46.5q28 0 46.5 -22t24.5 -56l12 60h30
l-63 -299q-3 -15 -3 -22q-1 -29 6 -39t24 -10q18 0 41.5 29.5t43.5 97.5t20 153q0 105 -43.5 161t-113.5 56q-73 0 -138.5 -57.5t-103.5 -148.5t-38 -187q0 -119 54.5 -188t137.5 -69q68 0 128 57l14 -23q-68 -63 -146 -63zM234 112q24 0 46.5 16.5t34.5 32.5t31 46l40 183
q-15 83 -63 83q-43 0 -77.5 -46t-50.5 -106t-16 -117q0 -92 55 -92z" />
    <glyph glyph-name="A" unicode="A" horiz-adv-x="312" 
d="M300 0h-33l-32 179h-158l-32 -179h-33l125 667h38zM230 209l-74 411l-74 -411h148z" />
    <glyph glyph-name="B" unicode="B" horiz-adv-x="360" 
d="M172 0h-100v667h96q60 0 95 -44.5t35 -125.5q0 -120 -78 -153q38 -7 62.5 -55.5t24.5 -108.5q0 -87 -34 -133.5t-101 -46.5zM168 358q95 0 95 139q0 140 -95 140h-64v-279h64zM172 30q100 0 100 149q0 64 -24 106.5t-76 42.5h-68v-298h68z" />
    <glyph glyph-name="C" unicode="C" horiz-adv-x="357" 
d="M198 -12q-52 0 -85.5 48t-46.5 122t-13 175t13 175t46.5 122t85.5 48q79 0 113 -103l-30 -12q-15 43 -33 64t-50 21q-56 0 -83 -87t-27 -228t27 -228t83 -87q35 0 54 27t32 78l30 -12q-29 -123 -116 -123z" />
    <glyph glyph-name="D" unicode="D" horiz-adv-x="386" 
d="M165 0h-93v667h93q86 0 127 -90t41 -244q0 -155 -41 -244t-127 -89zM165 30q133 0 133 303q0 304 -133 304h-61v-607h61z" />
    <glyph glyph-name="E" unicode="E" horiz-adv-x="330" 
d="M282 0h-210v667h210v-30h-178v-279h171v-30h-171v-298h178v-30z" />
    <glyph glyph-name="F" unicode="F" horiz-adv-x="330" 
d="M104 0h-32v667h210v-30h-178v-279h171v-30h-171v-328z" />
    <glyph glyph-name="G" unicode="G" horiz-adv-x="375" 
d="M198 -12q-74 0 -109.5 92.5t-35.5 252.5q0 161 35.5 253t109.5 92q79 0 113 -103l-30 -12q-15 43 -33 64t-50 21q-58 0 -84 -86.5t-26 -228.5q0 -141 26 -228t84 -87q56 0 81 51v221h-101v30h133v-259q-38 -73 -113 -73z" />
    <glyph glyph-name="H" unicode="H" horiz-adv-x="395" 
d="M323 0h-32v328h-187v-328h-32v667h32v-309h187v309h32v-667z" />
    <glyph glyph-name="I" unicode="I" horiz-adv-x="176" 
d="M104 0h-32v667h32v-667z" />
    <glyph glyph-name="J" unicode="J" horiz-adv-x="298" 
d="M109 -12q-61 0 -103 54l24 23q32 -47 79 -47q85 0 85 103v546h32v-546q0 -133 -117 -133z" />
    <glyph glyph-name="K" unicode="K" horiz-adv-x="372" 
d="M354 0h-39l-164 319l-47 -88v-231h-32v667h32v-380l198 380h39l-174 -319z" />
    <glyph glyph-name="L" unicode="L" horiz-adv-x="306" 
d="M282 0h-210v667h32v-637h178v-30z" />
    <glyph glyph-name="M" unicode="M" horiz-adv-x="508" 
d="M436 0h-32v609l-141 -609h-18l-141 609v-609h-32v667h52l130 -557l131 557h51v-667z" />
    <glyph glyph-name="N" unicode="N" horiz-adv-x="395" 
d="M323 0h-32l-187 575v-575h-32v667h32l187 -569v569h32v-667z" />
    <glyph glyph-name="O" unicode="O" horiz-adv-x="396" 
d="M198 -12q-53 0 -86.5 49.5t-46 123t-12.5 172.5t12.5 172.5t46 123t86.5 49.5t86.5 -49.5t46 -123t12.5 -172.5t-12.5 -172.5t-46 -123t-86.5 -49.5zM198 18q57 0 83.5 88.5t26.5 226.5q0 139 -26.5 227t-83.5 88t-83.5 -88t-26.5 -227q0 -138 26.5 -226.5t83.5 -88.5z
" />
    <glyph glyph-name="P" unicode="P" horiz-adv-x="341" 
d="M104 0h-32v667h100q67 0 101 -53.5t34 -135.5t-34 -135.5t-101 -53.5h-68v-289zM171 319q50 0 75.5 43.5t25.5 115.5t-25.5 115.5t-75.5 43.5h-67v-318h67z" />
    <glyph glyph-name="Q" unicode="Q" horiz-adv-x="396" 
d="M198 -12q-53 0 -86.5 49.5t-46 123t-12.5 172.5t12.5 172.5t46 123t86.5 49.5t86.5 -49.5t46 -123t12.5 -172.5q0 -220 -62 -301l21 -55l-29 -12l-16 42q-27 -19 -59 -19zM198 18q27 0 47 20l-61 162l30 12l53 -142q41 82 41 263q0 139 -26.5 227t-83.5 88t-83.5 -88
t-26.5 -227q0 -138 26.5 -226.5t83.5 -88.5z" />
    <glyph glyph-name="R" unicode="R" horiz-adv-x="366" 
d="M313 0h-36l-99 289h-74v-289h-32v667h100q61 0 98 -50t37 -139q0 -83 -29 -128t-69 -56zM171 319q50 0 75.5 43.5t25.5 115.5t-25.5 115.5t-75.5 43.5h-67v-318h67z" />
    <glyph glyph-name="S" unicode="S" horiz-adv-x="319" 
d="M145 -12q-70 0 -118 57l24 26q16 -24 42 -38.5t52 -14.5q43 0 73 35.5t30 93.5q0 50 -21 91t-50.5 71t-59.5 59.5t-51 71.5t-21 92q0 66 37 106t88 40q59 0 97 -41l-19 -25q-32 36 -78 36q-38 0 -65.5 -32t-27.5 -84q0 -42 21 -79.5t50.5 -67t59.5 -61.5t51 -77.5
t21 -99.5q0 -68 -37.5 -113.5t-97.5 -45.5z" />
    <glyph glyph-name="T" unicode="T" horiz-adv-x="287" 
d="M159 0h-32v637h-109v30h251v-30h-110v-637z" />
    <glyph glyph-name="U" unicode="U" horiz-adv-x="396" 
d="M198 -12q-126 0 -126 166v513h32v-513q0 -136 94 -136t94 136v513h32v-513q0 -166 -126 -166z" />
    <glyph glyph-name="V" unicode="V" horiz-adv-x="312" 
d="M175 0h-38l-125 667h33l111 -620l111 620h33z" />
    <glyph glyph-name="W" unicode="W" horiz-adv-x="490" 
d="M366 0h-38l-83 587l-83 -587h-38l-100 667h35l84 -604l85 604h34l85 -604l84 604h35z" />
    <glyph glyph-name="X" unicode="X" horiz-adv-x="308" 
d="M300 0h-36l-110 302l-110 -302h-36l128 338l-121 329h37l102 -291l102 291h37l-121 -328z" />
    <glyph glyph-name="Y" unicode="Y" horiz-adv-x="322" 
d="M177 0h-32v289l-143 378h36l123 -339l125 339h34l-143 -378v-289z" />
    <glyph glyph-name="Z" unicode="Z" horiz-adv-x="309" 
d="M273 0h-237v31l197 606h-197v30h230v-30l-198 -607h205v-30z" />
    <glyph glyph-name="bracketleft" unicode="[" horiz-adv-x="162" 
d="M145 -190h-111v868h111v-30h-81v-808h81v-30z" />
    <glyph glyph-name="backslash" unicode="\" horiz-adv-x="177" 
d="M148 -20l-147 707h30l147 -707h-30z" />
    <glyph glyph-name="bracketright" unicode="]" horiz-adv-x="162" 
d="M128 -190h-111v30h81v808h-81v30h111v-868z" />
    <glyph glyph-name="asciicircum" unicode="^" horiz-adv-x="324" 
d="M305 333h-32l-111 303l-111 -303h-32l130 334h26z" />
    <glyph glyph-name="underscore" unicode="_" horiz-adv-x="279" 
d="M282 -70h-285v30h285v-30z" />
    <glyph glyph-name="grave" unicode="`" horiz-adv-x="119" 
d="M119 556h-24l-95 144h41z" />
    <glyph glyph-name="a" unicode="a" 
d="M277 0h-30v53q-31 -65 -88 -65q-54 0 -86 45t-32 116t32 116t86 45q58 0 88 -63v101q0 62 -17 91t-60 29q-51 0 -93 -54l-18 23q54 58 111 58q59 0 83 -35t24 -111v-349zM159 15q63 0 88 73v120q-25 75 -88 75q-42 0 -63.5 -39t-21.5 -95t21.5 -95t63.5 -39z" />
    <glyph glyph-name="b" unicode="b" horiz-adv-x="351" 
d="M95 115q9 -40 34.5 -70t53.5 -30q88 0 88 226q0 227 -88 227q-27 0 -53 -31t-35 -71v-251zM95 0h-30v667h30v-256q14 41 38.5 62.5t49.5 21.5q62 0 91.5 -70t29.5 -184q0 -74 -11.5 -129t-39.5 -89.5t-70 -34.5q-24 0 -48.5 22.5t-39.5 59.5v-70z" />
    <glyph glyph-name="c" unicode="c" horiz-adv-x="294" 
d="M183 -12q-67 0 -101.5 71.5t-34.5 182.5t34.5 182t101.5 71q46 0 84 -45l-21 -21q-29 39 -64 39q-54 0 -78 -65t-24 -161t24 -161.5t78 -65.5q36 0 64 39l21 -21q-33 -45 -84 -45z" />
    <glyph glyph-name="d" unicode="d" horiz-adv-x="351" 
d="M286 0h-30v70q-15 -37 -39.5 -59.5t-48.5 -22.5q-42 0 -70 34.5t-39.5 89.5t-11.5 129q0 114 29.5 184t91.5 70q25 0 49.5 -21.5t38.5 -62.5v256h30v-667zM168 15q28 0 53.5 30t34.5 70v251q-9 40 -34.5 71t-53.5 31q-88 0 -88 -227q0 -226 88 -226z" />
    <glyph glyph-name="e" unicode="e" horiz-adv-x="346" 
d="M193 -12q-75 0 -110.5 69.5t-35.5 184.5q0 113 31.5 183t97.5 70q68 0 98.5 -70.5t30.5 -182.5v-10h-225q0 -100 29.5 -158.5t83.5 -58.5q48 0 79 68l28 -14q-40 -81 -107 -81zM272 259q0 53 -7.5 96.5t-30 78t-58.5 34.5q-27 0 -47 -20.5t-30 -53.5t-14.5 -66.5
t-4.5 -68.5h192z" />
    <glyph glyph-name="f" unicode="f" horiz-adv-x="202" 
d="M108 0h-30v456h-50v27h50v107q0 39 21.5 63t57.5 24t56 -27l-20 -23q-16 23 -36 23q-49 0 -49 -60v-107h70v-27h-70v-456z" />
    <glyph glyph-name="g" unicode="g" horiz-adv-x="351" 
d="M164 -196q-66 0 -110 47l20 26q37 -46 90 -46q92 0 92 126v113q-15 -37 -39.5 -60.5t-48.5 -23.5q-62 0 -91.5 69.5t-29.5 184.5q0 114 29.5 184.5t91.5 70.5q25 0 49.5 -21.5t38.5 -62.5v72h30v-526q0 -153 -122 -153zM168 13q28 0 53.5 31t34.5 71v251q-9 40 -34.5 71
t-53.5 31q-88 0 -88 -228q0 -227 88 -227z" />
    <glyph glyph-name="h" unicode="h" 
d="M277 0h-30v394q0 74 -53 74q-30 0 -57 -27.5t-42 -66.5v-374h-30v667h30v-256q18 37 45 60.5t58 23.5q42 0 60.5 -23.5t18.5 -77.5v-394z" />
    <glyph glyph-name="i" unicode="i" horiz-adv-x="160" 
d="M80 566q-11 0 -20 8.5t-9 20.5t9 20.5t20 8.5q12 0 20.5 -8.5t8.5 -20.5t-8.5 -20.5t-20.5 -8.5zM95 0h-30v483h30v-483z" />
    <glyph glyph-name="j" unicode="j" horiz-adv-x="160" 
d="M80 566q-11 0 -20 8.5t-9 20.5t9 20.5t20 8.5q12 0 20.5 -8.5t8.5 -20.5t-8.5 -20.5t-20.5 -8.5zM31 -196q-41 0 -57 38l27 14q10 -25 30 -25q34 0 34 73v579h30v-579q0 -100 -64 -100z" />
    <glyph glyph-name="k" unicode="k" horiz-adv-x="325" 
d="M301 0h-32l-108 242l-66 -110v-132h-30v667h30v-489l179 305h31l-128 -218z" />
    <glyph glyph-name="l" unicode="l" horiz-adv-x="160" 
d="M95 0h-30v667h30v-667z" />
    <glyph glyph-name="m" unicode="m" horiz-adv-x="524" 
d="M459 0h-30v394q0 74 -53 74q-30 0 -57.5 -27.5t-41.5 -66.5v-374h-30v394q0 74 -53 74q-30 0 -57 -27.5t-42 -66.5v-374h-30v483h30v-72q18 37 45 60.5t58 23.5q37 0 57.5 -22.5t20.5 -61.5q17 36 45 60t59 24q79 0 79 -101v-394z" />
    <glyph glyph-name="n" unicode="n" 
d="M277 0h-30v394q0 74 -53 74q-30 0 -57 -27.5t-42 -66.5v-374h-30v483h30v-72q18 37 45 60.5t58 23.5q41 0 60 -24.5t19 -76.5v-394z" />
    <glyph glyph-name="o" unicode="o" horiz-adv-x="352" 
d="M176 -12q-46 0 -76 37t-41.5 91.5t-11.5 125.5t11.5 125t41.5 91t76 37q68 0 98.5 -71t30.5 -182t-30.5 -182.5t-98.5 -71.5zM176 15q96 0 96 227q0 226 -96 226t-96 -226q0 -227 96 -227z" />
    <glyph glyph-name="p" unicode="p" horiz-adv-x="351" 
d="M183 -12q-25 0 -49.5 21.5t-38.5 62.5v-256h-30v667h30v-70q15 37 39.5 59.5t48.5 22.5q42 0 70 -34.5t39.5 -89.5t11.5 -129q0 -114 -29.5 -184t-91.5 -70zM183 15q88 0 88 227q0 226 -88 226q-28 0 -53.5 -30t-34.5 -70v-251q9 -40 35 -71t53 -31z" />
    <glyph glyph-name="q" unicode="q" horiz-adv-x="351" 
d="M168 15q28 0 53.5 31t34.5 71v251q-9 40 -34.5 70t-53.5 30q-88 0 -88 -226q0 -227 88 -227zM168 -12q-62 0 -91.5 70t-29.5 184q0 74 11.5 129t39.5 89.5t70 34.5q24 0 48.5 -22.5t39.5 -59.5v70h30v-667h-30v256q-14 -41 -38.5 -62.5t-49.5 -21.5z" />
    <glyph glyph-name="r" unicode="r" horiz-adv-x="227" 
d="M95 0h-30v483h30v-85q20 47 46.5 70.5t68.5 23.5v-36q-5 1 -15 1q-33 0 -59 -27.5t-41 -68.5v-361z" />
    <glyph glyph-name="s" unicode="s" horiz-adv-x="278" 
d="M137 -12q-68 0 -109 59l22 21q36 -53 87 -53q32 0 55.5 25t23.5 65q0 37 -18 66.5t-43.5 50t-51 42t-43.5 53.5t-18 73q0 46 30.5 75.5t74.5 29.5q57 0 93 -51l-20 -20q-28 44 -73 44q-34 0 -54.5 -22.5t-20.5 -55.5q0 -35 18 -63t43.5 -49t51 -43t43.5 -55t18 -75
q0 -52 -32 -84.5t-77 -32.5z" />
    <glyph glyph-name="t" unicode="t" horiz-adv-x="212" 
d="M142 -12q-64 0 -64 88v380h-52v27h52v132h30v-132h70v-27h-70v-380q0 -32 7.5 -46.5t26.5 -14.5q21 0 36 21l21 -18q-25 -30 -57 -30z" />
    <glyph glyph-name="u" unicode="u" 
d="M277 0h-30v70q-39 -82 -103 -82q-42 0 -60.5 23.5t-18.5 77.5v394h30v-394q0 -74 53 -74q31 0 58 26.5t41 65.5v376h30v-483z" />
    <glyph glyph-name="v" unicode="v" horiz-adv-x="279" 
d="M156 0h-35l-105 483h33l90 -448l91 448h33z" />
    <glyph glyph-name="w" unicode="w" horiz-adv-x="484" 
d="M364 0h-30l-92 440l-92 -440h-30l-100 483h33l82 -436l89 436h36l89 -436l82 436h33z" />
    <glyph glyph-name="x" unicode="x" horiz-adv-x="286" 
d="M266 0h-33l-90 217l-90 -217h-33l106 245l-100 238h33l84 -209l84 209h33l-100 -238z" />
    <glyph glyph-name="y" unicode="y" horiz-adv-x="279" 
d="M27 -189l7 27q10 -7 24 -7q18 0 27 11.5t17 42.5l23 97l-109 501h33l90 -443l91 443h33l-137 -606q-9 -40 -25.5 -56.5t-42.5 -16.5q-19 0 -31 7z" />
    <glyph glyph-name="z" unicode="z" horiz-adv-x="275" 
d="M234 0h-193v27l158 429h-158v27h189v-27l-156 -429h160v-27z" />
    <glyph glyph-name="braceleft" unicode="{" horiz-adv-x="187" 
d="M170 -190h-32q-31 0 -55 26t-24 67v254q0 30 -13.5 51t-38.5 21v30q25 0 38.5 21t13.5 51v254q0 41 24 67t55 26h32v-30h-32q-21 0 -35 -17.5t-14 -45.5v-254q0 -68 -45 -87q45 -19 45 -87v-254q0 -27 14 -45t35 -18h32v-30z" />
    <glyph glyph-name="bar" unicode="|" horiz-adv-x="174" 
d="M102 -20h-30v707h30v-707z" />
    <glyph glyph-name="braceright" unicode="}" horiz-adv-x="187" 
d="M17 -190v30h32q21 0 35 18t14 45v254q0 68 45 87q-45 19 -45 87v254q0 28 -14 45.5t-35 17.5h-32v30h32q31 0 55 -26t24 -67v-254q0 -30 13.5 -51t38.5 -21v-30q-25 0 -38.5 -21t-13.5 -51v-254q0 -41 -24 -67t-55 -26h-32z" />
    <glyph glyph-name="asciitilde" unicode="~" horiz-adv-x="376" 
d="M318 667l30 -3q-3 -37 -5.5 -62.5t-9.5 -60.5t-16.5 -56t-27 -36.5t-39.5 -15.5q-31 0 -49.5 31.5t-23.5 69.5t-17.5 69.5t-33.5 31.5q-31 0 -44 -45.5t-24 -158.5l-30 5q3 46 7.5 78.5t14.5 71t29.5 59t46.5 20.5q31 0 49.5 -31.5t23.5 -70t17.5 -70t33.5 -31.5
q31 0 44 45.5t24 159.5z" />
    <glyph glyph-name="nbspace" unicode="&#xa0;" horiz-adv-x="180" 
 />
    <glyph glyph-name="exclamdown" unicode="&#xa1;" horiz-adv-x="208" 
d="M83 -184l11 506h20l11 -506h-42zM71 459q0 13 9.5 23t23.5 10t23.5 -10t9.5 -23t-10 -22.5t-23 -9.5t-23 9.5t-10 22.5z" />
    <glyph glyph-name="cent" unicode="&#xa2;" horiz-adv-x="294" 
d="M165 -100v90q-59 9 -88.5 78.5t-29.5 173.5t29.5 173t88.5 78v72h30v-71q36 -3 72 -44l-21 -21q-25 32 -51 38v-451q28 5 51 38l21 -21q-31 -41 -72 -44v-89h-30zM80 242q0 -206 85 -225v449q-85 -21 -85 -224z" />
    <glyph glyph-name="sterling" unicode="&#xa3;" 
d="M30 267v30h85q-2 4 -20 37t-23.5 47t-13 47t-7.5 67q0 75 33.5 128.5t95.5 53.5q86 0 115 -98l-25 -16q-14 39 -34.5 61.5t-55.5 22.5q-38 0 -67 -42t-29 -112q0 -43 9 -74.5t31.5 -72.5t26.5 -49h78v-30h-67q10 -32 10 -65q0 -43 -21 -87.5t-52 -71.5q19 11 39 11
q23 0 54 -18t47 -18q19 0 37 11.5t27 26.5l21 -24q-11 -18 -36 -31t-50 -13q-32 0 -58.5 20t-44.5 20q-29 0 -72 -35l-19 29q44 30 70 79.5t26 101.5q0 31 -12 64h-98z" />
    <glyph glyph-name="currency" unicode="&#xa4;" horiz-adv-x="348" 
d="M174 98q-56 0 -88 47l-69 -70l-22 22l76 76q-26 59 -26 160q0 100 27 161l-77 77l22 22l70 -72q32 46 87 46q54 0 86 -46l71 72l22 -22l-77 -76q27 -61 27 -162q0 -104 -28 -164l78 -77l-22 -22l-72 72q-33 -44 -85 -44zM174 133q96 0 96 200q0 199 -96 199t-96 -199
q0 -200 96 -200z" />
    <glyph glyph-name="yen" unicode="&#xa5;" horiz-adv-x="322" 
d="M177 0h-32v129h-126v30h126v130h-126v30h114l-131 348h36l123 -339l125 339h34l-132 -348h114v-30h-125v-130h125v-30h-125v-129z" />
    <glyph glyph-name="brokenbar" unicode="&#xa6;" horiz-adv-x="174" 
d="M102 -20h-30v316h30v-316zM102 371h-30v316h30v-316z" />
    <glyph glyph-name="section" unicode="&#xa7;" horiz-adv-x="278" 
d="M246 287q0 -82 -73 -111q73 -63 73 -140q0 -48 -30.5 -82.5t-78.5 -34.5q-36 0 -60 13.5t-49 45.5l22 21q35 -53 87 -53q33 0 56 27t23 63q0 37 -18 66t-43.5 50t-51 42.5t-43.5 53.5t-18 73q0 36 22.5 67t65.5 37q-49 38 -68.5 72t-19.5 75q0 47 30.5 76t69.5 29
q57 0 98 -51l-22 -20q-19 26 -35.5 35t-40.5 9q-30 0 -50 -22.5t-20 -55.5q0 -34 18 -62t43.5 -49t51 -43t43.5 -55.5t18 -75.5zM216 287q0 14 -2 26.5t-7 23.5t-9 18.5t-12 16.5t-11.5 12.5t-12.5 11.5l-9 9q-81 -12 -81 -84q0 -35 18.5 -64t61.5 -63q64 31 64 93z" />
    <glyph glyph-name="dieresis" unicode="&#xa8;" horiz-adv-x="252" 
d="M215 598q0 -11 -8.5 -19.5t-19.5 -8.5t-19.5 8.5t-8.5 19.5t8.5 19.5t19.5 8.5t19.5 -8.5t8.5 -19.5zM93 598q0 -11 -8.5 -19.5t-19.5 -8.5t-19.5 8.5t-8.5 19.5t8.5 19.5t19.5 8.5t19.5 -8.5t8.5 -19.5z" />
    <glyph glyph-name="copyright" unicode="&#xa9;" horiz-adv-x="778" 
d="M734 334q0 -142 -101 -243.5t-244 -101.5t-244 101.5t-101 243.5t101 243.5t244 101.5t244 -101.5t101 -243.5zM708 334q0 131 -94 225t-225 94t-225 -94t-94 -225t94 -225t225 -94t225 94t94 225zM513 204l20 -20q-56 -65 -143 -65t-148 62.5t-61 152.5q0 92 60.5 154
t148.5 62t143 -64l-20 -20q-19 26 -53 41.5t-70 15.5q-73 0 -126.5 -52.5t-53.5 -136.5q0 -80 54 -134t126 -54q36 0 70 16t53 42z" />
    <glyph glyph-name="ordfeminine" unicode="&#xaa;" horiz-adv-x="261" 
d="M209 326h-28v34q-23 -42 -65 -42q-38 0 -60.5 29t-22.5 76t22.5 75.5t60.5 28.5q42 0 65 -41v63q0 72 -55 72q-37 0 -66 -37l-15 23q38 41 84 41q45 0 62.5 -27t17.5 -86v-209zM120 340q43 0 61 46v73q-18 46 -61 46q-28 0 -43 -23.5t-15 -58.5t15 -59t43 -24z" />
    <glyph glyph-name="guillemotleft" unicode="&#xab;" horiz-adv-x="273" 
d="M243 63h-33l-90 180l90 177h33l-90 -177zM153 63h-33l-90 180l90 177h33l-90 -177z" />
    <glyph glyph-name="logicalnot" unicode="&#xac;" horiz-adv-x="374" 
d="M345 448v-228h-32v198h-284v30h316z" />
    <glyph glyph-name="uni00AD" unicode="&#xad;" horiz-adv-x="230" 
d="M200 227h-170v30h170v-30z" />
    <glyph glyph-name="registered" unicode="&#xae;" horiz-adv-x="494" 
d="M459 465q0 -88 -62 -150t-150 -62t-150 62t-62 150t62 150t150 62q89 0 150.5 -61.5t61.5 -150.5zM433 465q0 78 -54.5 132t-131.5 54t-131.5 -54t-54.5 -132q0 -77 54.5 -131.5t131.5 -54.5t131.5 54.5t54.5 131.5zM343 343h-37l-63 96h-47v-96h-29v243h99
q31 0 52.5 -20.5t21.5 -53.5q0 -35 -22.5 -53.5t-39.5 -18.5zM310 512q0 20 -14 33.5t-30 13.5h-70v-92h70q16 0 30 13.5t14 31.5z" />
    <glyph glyph-name="macron" unicode="&#xaf;" horiz-adv-x="240" 
d="M240 581h-240v27h240v-27z" />
    <glyph glyph-name="degree" unicode="&#xb0;" horiz-adv-x="273" 
d="M247 566q0 -46 -32.5 -78t-78.5 -32t-78 32t-32 78t32 78.5t78 32.5t78.5 -32.5t32.5 -78.5zM217 566q0 33 -24 57t-57 24t-56.5 -24t-23.5 -57t23.5 -56.5t56.5 -23.5t57 23.5t24 56.5z" />
    <glyph glyph-name="plusminus" unicode="&#xb1;" horiz-adv-x="374" 
d="M345 322h-142v-162h-32v162h-142v30h142v156h32v-156h142v-30zM345 60h-316v30h316v-30z" />
    <glyph glyph-name="twosuperior" unicode="&#xb2;" horiz-adv-x="240" 
d="M211 421h-177v24q95 148 120 196t25 90q0 32 -16 51t-41 19q-46 0 -69 -54l-23 16q33 64 92 64q39 0 63.5 -26t24.5 -70q0 -42 -26.5 -94t-114.5 -190h142v-26z" />
    <glyph glyph-name="threesuperior" unicode="&#xb3;" horiz-adv-x="240" 
d="M214 528q0 -51 -24 -82.5t-71 -31.5q-65 0 -94 68l24 15q24 -57 69 -57q65 0 65 89q0 46 -20 66t-47 20q-20 0 -24 -1v27q5 -1 23 -1q28 0 46 20.5t18 58.5q0 82 -60 82q-42 0 -66 -52l-24 15q14 29 38 46t52 17q40 0 65 -26.5t25 -78.5q0 -33 -16.5 -59.5t-42.5 -34.5
q25 -6 44.5 -33.5t19.5 -66.5z" />
    <glyph glyph-name="acute" unicode="&#xb4;" horiz-adv-x="119" 
d="M119 700l-95 -144h-24l78 144h41z" />
    <glyph glyph-name="mu" unicode="&#xb5;" horiz-adv-x="349" 
d="M95 14v-198h-30v667h30v-394q0 -37 15.5 -56.5t41.5 -19.5q30 0 55 27t40 67v376h30v-407q0 -32 7.5 -46.5t26.5 -14.5q8 0 14 1l3 -26q-8 -2 -17 -2q-32 0 -47 20t-17 62q-36 -82 -95 -82q-38 0 -57 26z" />
    <glyph glyph-name="paragraph" unicode="&#xb6;" horiz-adv-x="449" 
d="M357 -100h-30v737h-98v-737h-30v423q-71 0 -121.5 50.5t-50.5 121.5t50.5 121.5t121.5 50.5h158v-767z" />
    <glyph glyph-name="periodcentered" unicode="&#xb7;" horiz-adv-x="208" 
d="M137 245q0 -13 -9.5 -23t-23.5 -10t-23.5 10t-9.5 23t10 22.5t23 9.5t23 -9.5t10 -22.5z" />
    <glyph glyph-name="cedilla" unicode="&#xb8;" horiz-adv-x="151" 
d="M70 -187q-37 0 -70 28l13 26q28 -27 57 -27q21 0 36.5 13.5t15.5 35.5q0 40 -33 40q-16 0 -31 -15l-21 12l31 85h30l-27 -70q11 10 29 10q21 0 36 -17t15 -45q0 -32 -23.5 -54t-57.5 -22z" />
    <glyph glyph-name="onesuperior" unicode="&#xb9;" horiz-adv-x="190" 
d="M130 421h-30v360l-62 -67l-18 19l83 88h27v-400z" />
    <glyph glyph-name="ordmasculine" unicode="&#xba;" horiz-adv-x="272" 
d="M136 318q-49 0 -73.5 47t-24.5 118t24.5 118t73.5 47t73.5 -47t24.5 -118t-24.5 -118t-73.5 -47zM136 344q68 0 68 139q0 138 -68 138q-36 0 -52 -39.5t-16 -98.5t16 -99t52 -40z" />
    <glyph glyph-name="guillemotright" unicode="&#xbb;" horiz-adv-x="273" 
d="M153 243l-90 -180h-33l90 180l-90 177h33zM243 243l-90 -180h-33l90 180l-90 177h33z" />
    <glyph glyph-name="onequarter" unicode="&#xbc;" horiz-adv-x="514" 
d="M405 667l-270 -667h-32l269 667h33zM496 113h-38v-113h-29v113h-135v27l127 260h37v-261h38v-26zM429 139v222l-108 -222h108zM130 267h-30v360l-62 -67l-18 19l83 88h27v-400z" />
    <glyph glyph-name="onehalf" unicode="&#xbd;" horiz-adv-x="544" 
d="M405 667l-270 -667h-32l269 667h33zM515 0h-177v24q95 148 120 196t25 90q0 32 -16 51t-41 19q-46 0 -69 -54l-23 16q33 64 92 64q39 0 63.5 -26t24.5 -70q0 -42 -26.5 -94t-114.5 -190h142v-26zM130 267h-30v360l-62 -67l-18 19l83 88h27v-400z" />
    <glyph glyph-name="threequarters" unicode="&#xbe;" horiz-adv-x="550" 
d="M441 667l-270 -667h-32l269 667h33zM532 113h-38v-113h-29v113h-135v27l127 260h37v-261h38v-26zM465 139v222l-108 -222h108zM214 374q0 -51 -24 -82.5t-71 -31.5q-65 0 -94 68l24 15q24 -57 69 -57q65 0 65 89q0 46 -20 66t-47 20q-20 0 -24 -1v27q5 -1 23 -1
q28 0 46 20.5t18 58.5q0 82 -60 82q-42 0 -66 -52l-24 15q14 29 38 46t52 17q40 0 65 -26.5t25 -78.5q0 -33 -16.5 -59.5t-42.5 -34.5q25 -6 44.5 -33.5t19.5 -66.5z" />
    <glyph glyph-name="questiondown" unicode="&#xbf;" horiz-adv-x="256" 
d="M154 311q28 -35 28 -80q0 -43 -18.5 -80.5t-40.5 -61.5t-40.5 -63.5t-18.5 -84.5q0 -41 26 -75t67 -34q42 0 78 36l19 -25q-37 -41 -97 -41q-52 0 -88.5 41t-36.5 98q0 48 18.5 90t40.5 66.5t40.5 60t18.5 73.5q0 37 -23 60zM147 492q13 0 23 -10t10 -23t-10 -22.5
t-23 -9.5t-23 9.5t-10 22.5t10 23t23 10z" />
    <glyph glyph-name="Agrave" unicode="&#xc0;" horiz-adv-x="312" 
d="M186 723h-24l-95 144h41zM300 0h-33l-32 179h-158l-32 -179h-33l125 667h38zM230 209l-74 411l-74 -411h148z" />
    <glyph glyph-name="Aacute" unicode="&#xc1;" horiz-adv-x="312" 
d="M245 867l-95 -144h-24l78 144h41zM300 0h-33l-32 179h-158l-32 -179h-33l125 667h38zM230 209l-74 411l-74 -411h148z" />
    <glyph glyph-name="Acircumflex" unicode="&#xc2;" horiz-adv-x="312" 
d="M244 723h-23l-66 116l-63 -116h-23l68 144h36zM300 0h-33l-32 179h-158l-32 -179h-33l125 667h38zM230 209l-74 411l-74 -411h148z" />
    <glyph glyph-name="Atilde" unicode="&#xc3;" horiz-adv-x="312" 
d="M194 721q-19 0 -31 17.5t-15.5 39t-11.5 39t-20 17.5q-38 0 -38 -107h-22q0 134 63 134q19 0 31 -17.5t15.5 -39t11.5 -39t20 -17.5q38 0 38 107h22q0 -134 -63 -134zM300 0h-33l-32 179h-158l-32 -179h-33l125 667h38zM230 209l-74 411l-74 -411h148z" />
    <glyph glyph-name="Adieresis" unicode="&#xc4;" horiz-adv-x="312" 
d="M245 765q0 -11 -8.5 -19.5t-19.5 -8.5t-19.5 8.5t-8.5 19.5t8.5 19.5t19.5 8.5t19.5 -8.5t8.5 -19.5zM123 765q0 -11 -8.5 -19.5t-19.5 -8.5t-19.5 8.5t-8.5 19.5t8.5 19.5t19.5 8.5t19.5 -8.5t8.5 -19.5zM300 0h-33l-32 179h-158l-32 -179h-33l125 667h38zM230 209
l-74 411l-74 -411h148z" />
    <glyph glyph-name="Aring" unicode="&#xc5;" horiz-adv-x="312" 
d="M157 692q-32 0 -55 23t-23 55t23 55t55 23t54.5 -23t22.5 -55t-22.5 -55t-54.5 -23zM157 716q23 0 38.5 16t15.5 38t-15.5 38t-38.5 16t-38.5 -16t-15.5 -38t15.5 -38t38.5 -16zM300 0h-33l-32 179h-158l-32 -179h-33l125 667h38zM230 209l-74 411l-74 -411h148z" />
    <glyph glyph-name="AE" unicode="&#xc6;" horiz-adv-x="509" 
d="M456 0h-210v179h-136l-55 -179h-33l211 667h223v-30h-178v-279h171v-30h-171v-298h178v-30zM246 209v411l-127 -411h127z" />
    <glyph glyph-name="Ccedilla" unicode="&#xc7;" horiz-adv-x="357" 
d="M193 -183q-37 0 -70 28l13 26q28 -27 57 -27q21 0 36.5 13.5t15.5 35.5q0 40 -33 40q-16 0 -31 -15l-21 12l21 59q-128 20 -128 344q0 101 13 175t46.5 122t85.5 48q79 0 113 -103l-30 -12q-15 43 -33 64t-50 21q-56 0 -83 -87t-27 -228t27 -228t83 -87q35 0 54 27t32 78
l30 -12q-26 -113 -103 -122l-17 -44q11 10 29 10q21 0 36 -17t15 -45q0 -32 -23.5 -54t-57.5 -22z" />
    <glyph glyph-name="Egrave" unicode="&#xc8;" horiz-adv-x="330" 
d="M207 723h-24l-95 144h41zM282 0h-210v667h210v-30h-178v-279h171v-30h-171v-298h178v-30z" />
    <glyph glyph-name="Eacute" unicode="&#xc9;" horiz-adv-x="330" 
d="M266 867l-95 -144h-24l78 144h41zM282 0h-210v667h210v-30h-178v-279h171v-30h-171v-298h178v-30z" />
    <glyph glyph-name="Ecircumflex" unicode="&#xca;" horiz-adv-x="330" 
d="M268 723h-23l-66 116l-63 -116h-23l68 144h36zM282 0h-210v667h210v-30h-178v-279h171v-30h-171v-298h178v-30z" />
    <glyph glyph-name="Edieresis" unicode="&#xcb;" horiz-adv-x="330" 
d="M267 765q0 -11 -8.5 -19.5t-19.5 -8.5t-19.5 8.5t-8.5 19.5t8.5 19.5t19.5 8.5t19.5 -8.5t8.5 -19.5zM145 765q0 -11 -8.5 -19.5t-19.5 -8.5t-19.5 8.5t-8.5 19.5t8.5 19.5t19.5 8.5t19.5 -8.5t8.5 -19.5zM282 0h-210v667h210v-30h-178v-279h171v-30h-171v-298h178v-30z
" />
    <glyph glyph-name="Igrave" unicode="&#xcc;" horiz-adv-x="176" 
d="M118 723h-24l-95 144h41zM104 0h-32v667h32v-667z" />
    <glyph glyph-name="Iacute" unicode="&#xcd;" horiz-adv-x="176" 
d="M177 867l-95 -144h-24l78 144h41zM104 0h-32v667h32v-667z" />
    <glyph glyph-name="Icircumflex" unicode="&#xce;" horiz-adv-x="176" 
d="M177 723h-23l-66 116l-63 -116h-23l68 144h36zM104 0h-32v667h32v-667z" />
    <glyph glyph-name="Idieresis" unicode="&#xcf;" horiz-adv-x="176" 
d="M180 765q0 -11 -8.5 -19.5t-19.5 -8.5t-19.5 8.5t-8.5 19.5t8.5 19.5t19.5 8.5t19.5 -8.5t8.5 -19.5zM58 765q0 -11 -8.5 -19.5t-19.5 -8.5t-19.5 8.5t-8.5 19.5t8.5 19.5t19.5 8.5t19.5 -8.5t8.5 -19.5zM104 0h-32v667h32v-667z" />
    <glyph glyph-name="Eth" unicode="&#xd0;" horiz-adv-x="402" 
d="M181 0h-93v318h-62v30h62v319h93q86 0 127 -90t41 -244q0 -155 -41 -244t-127 -89zM218 318h-98v-288h61q133 0 133 303q0 304 -133 304h-61v-289h98v-30z" />
    <glyph glyph-name="Ntilde" unicode="&#xd1;" horiz-adv-x="395" 
d="M231 721q-19 0 -31 17.5t-15.5 39t-11.5 39t-20 17.5q-38 0 -38 -107h-22q0 134 63 134q19 0 31 -17.5t15.5 -39t11.5 -39t20 -17.5q38 0 38 107h22q0 -134 -63 -134zM323 0h-32l-187 575v-575h-32v667h32l187 -569v569h32v-667z" />
    <glyph glyph-name="Ograve" unicode="&#xd2;" horiz-adv-x="396" 
d="M228 723h-24l-95 144h41zM198 -12q-53 0 -86.5 49.5t-46 123t-12.5 172.5t12.5 172.5t46 123t86.5 49.5t86.5 -49.5t46 -123t12.5 -172.5t-12.5 -172.5t-46 -123t-86.5 -49.5zM198 18q57 0 83.5 88.5t26.5 226.5q0 139 -26.5 227t-83.5 88t-83.5 -88t-26.5 -227
q0 -138 26.5 -226.5t83.5 -88.5z" />
    <glyph glyph-name="Oacute" unicode="&#xd3;" horiz-adv-x="396" 
d="M287 867l-95 -144h-24l78 144h41zM198 -12q-53 0 -86.5 49.5t-46 123t-12.5 172.5t12.5 172.5t46 123t86.5 49.5t86.5 -49.5t46 -123t12.5 -172.5t-12.5 -172.5t-46 -123t-86.5 -49.5zM198 18q57 0 83.5 88.5t26.5 226.5q0 139 -26.5 227t-83.5 88t-83.5 -88t-26.5 -227
q0 -138 26.5 -226.5t83.5 -88.5z" />
    <glyph glyph-name="Ocircumflex" unicode="&#xd4;" horiz-adv-x="396" 
d="M286 723h-23l-66 116l-63 -116h-23l68 144h36zM198 -12q-53 0 -86.5 49.5t-46 123t-12.5 172.5t12.5 172.5t46 123t86.5 49.5t86.5 -49.5t46 -123t12.5 -172.5t-12.5 -172.5t-46 -123t-86.5 -49.5zM198 18q57 0 83.5 88.5t26.5 226.5q0 139 -26.5 227t-83.5 88t-83.5 -88
t-26.5 -227q0 -138 26.5 -226.5t83.5 -88.5z" />
    <glyph glyph-name="Otilde" unicode="&#xd5;" horiz-adv-x="396" 
d="M236 721q-19 0 -31 17.5t-15.5 39t-11.5 39t-20 17.5q-38 0 -38 -107h-22q0 134 63 134q19 0 31 -17.5t15.5 -39t11.5 -39t20 -17.5q38 0 38 107h22q0 -134 -63 -134zM198 -12q-53 0 -86.5 49.5t-46 123t-12.5 172.5t12.5 172.5t46 123t86.5 49.5t86.5 -49.5t46 -123
t12.5 -172.5t-12.5 -172.5t-46 -123t-86.5 -49.5zM198 18q57 0 83.5 88.5t26.5 226.5q0 139 -26.5 227t-83.5 88t-83.5 -88t-26.5 -227q0 -138 26.5 -226.5t83.5 -88.5z" />
    <glyph glyph-name="Odieresis" unicode="&#xd6;" horiz-adv-x="396" 
d="M286 765q0 -11 -8.5 -19.5t-19.5 -8.5t-19.5 8.5t-8.5 19.5t8.5 19.5t19.5 8.5t19.5 -8.5t8.5 -19.5zM164 765q0 -11 -8.5 -19.5t-19.5 -8.5t-19.5 8.5t-8.5 19.5t8.5 19.5t19.5 8.5t19.5 -8.5t8.5 -19.5zM198 -12q-53 0 -86.5 49.5t-46 123t-12.5 172.5t12.5 172.5
t46 123t86.5 49.5t86.5 -49.5t46 -123t12.5 -172.5t-12.5 -172.5t-46 -123t-86.5 -49.5zM198 18q57 0 83.5 88.5t26.5 226.5q0 139 -26.5 227t-83.5 88t-83.5 -88t-26.5 -227q0 -138 26.5 -226.5t83.5 -88.5z" />
    <glyph glyph-name="multiply" unicode="&#xd7;" horiz-adv-x="374" 
d="M299 200l-112 113l-112 -113l-22 22l113 112l-113 112l22 22l112 -113l112 113l22 -22l-113 -112l113 -112z" />
    <glyph glyph-name="Oslash" unicode="&#xd8;" horiz-adv-x="396" 
d="M198 -12q-54 0 -89 52l-14 -40h-33l27 77q-36 89 -36 256q0 99 12.5 172.5t46 123t86.5 49.5q55 0 88 -52l15 41h33l-28 -78q37 -91 37 -256q0 -99 -12.5 -172.5t-46 -123t-86.5 -49.5zM198 18q57 0 83.5 88.5t26.5 226.5q0 125 -20 205l-164 -458q27 -62 74 -62zM88 333
q0 -129 20 -205l164 458q-28 62 -74 62q-57 0 -83.5 -88t-26.5 -227z" />
    <glyph glyph-name="Ugrave" unicode="&#xd9;" horiz-adv-x="396" 
d="M228 723h-24l-95 144h41zM198 -12q-126 0 -126 166v513h32v-513q0 -136 94 -136t94 136v513h32v-513q0 -166 -126 -166z" />
    <glyph glyph-name="Uacute" unicode="&#xda;" horiz-adv-x="396" 
d="M287 867l-95 -144h-24l78 144h41zM198 -12q-126 0 -126 166v513h32v-513q0 -136 94 -136t94 136v513h32v-513q0 -166 -126 -166z" />
    <glyph glyph-name="Ucircumflex" unicode="&#xdb;" horiz-adv-x="396" 
d="M285 723h-23l-66 116l-63 -116h-23l68 144h36zM198 -12q-126 0 -126 166v513h32v-513q0 -136 94 -136t94 136v513h32v-513q0 -166 -126 -166z" />
    <glyph glyph-name="Udieresis" unicode="&#xdc;" horiz-adv-x="396" 
d="M286 765q0 -11 -8.5 -19.5t-19.5 -8.5t-19.5 8.5t-8.5 19.5t8.5 19.5t19.5 8.5t19.5 -8.5t8.5 -19.5zM164 765q0 -11 -8.5 -19.5t-19.5 -8.5t-19.5 8.5t-8.5 19.5t8.5 19.5t19.5 8.5t19.5 -8.5t8.5 -19.5zM198 -12q-126 0 -126 166v513h32v-513q0 -136 94 -136t94 136
v513h32v-513q0 -166 -126 -166z" />
    <glyph glyph-name="Yacute" unicode="&#xdd;" horiz-adv-x="322" 
d="M250 867l-95 -144h-24l78 144h41zM177 0h-32v289l-143 378h36l123 -339l125 339h34l-143 -378v-289z" />
    <glyph glyph-name="Thorn" unicode="&#xde;" horiz-adv-x="341" 
d="M104 0h-32v667h32v-129h68q67 0 101 -54t34 -136t-34 -135t-101 -53h-68v-160zM171 190q51 0 76 43t25 115q0 73 -25.5 116.5t-75.5 43.5h-67v-318h67z" />
    <glyph glyph-name="germandbls" unicode="&#xdf;" horiz-adv-x="396" 
d="M379 105q0 -50 -31.5 -83.5t-77.5 -33.5q-64 0 -109 59l22 24q40 -56 87 -56q30 0 54.5 25.5t24.5 64.5q0 37 -18 65.5t-43.5 48.5t-51 40.5t-43.5 52t-18 72.5q0 29 16 54t35.5 41t35.5 40t16 51q0 33 -23.5 56.5t-60.5 23.5q-38 0 -62 -27t-24 -79v-544h-30v544
q0 60 32.5 96.5t83.5 36.5t81.5 -30.5t30.5 -76.5q0 -33 -16 -60t-34.5 -42t-34.5 -37t-16 -47q0 -35 18 -62.5t43.5 -47.5t51 -41t43.5 -53.5t18 -74.5z" />
    <glyph glyph-name="agrave" unicode="&#xe0;" 
d="M277 0h-30v53q-31 -65 -88 -65q-54 0 -86 45t-32 116t32 116t86 45q58 0 88 -63v101q0 62 -17 91t-60 29q-51 0 -93 -54l-18 23q54 58 111 58q59 0 83 -35t24 -111v-349zM159 15q63 0 88 73v120q-25 75 -88 75q-42 0 -63.5 -39t-21.5 -95t21.5 -95t63.5 -39zM200 556h-24
l-95 144h41z" />
    <glyph glyph-name="aacute" unicode="&#xe1;" 
d="M277 0h-30v53q-31 -65 -88 -65q-54 0 -86 45t-32 116t32 116t86 45q58 0 88 -63v101q0 62 -17 91t-60 29q-51 0 -93 -54l-18 23q54 58 111 58q59 0 83 -35t24 -111v-349zM159 15q63 0 88 73v120q-25 75 -88 75q-42 0 -63.5 -39t-21.5 -95t21.5 -95t63.5 -39zM259 700
l-95 -144h-24l78 144h41z" />
    <glyph glyph-name="acircumflex" unicode="&#xe2;" 
d="M277 0h-30v53q-31 -65 -88 -65q-54 0 -86 45t-32 116t32 116t86 45q58 0 88 -63v101q0 62 -17 91t-60 29q-51 0 -93 -54l-18 23q54 58 111 58q59 0 83 -35t24 -111v-349zM159 15q63 0 88 73v120q-25 75 -88 75q-42 0 -63.5 -39t-21.5 -95t21.5 -95t63.5 -39zM260 556h-23
l-66 116l-63 -116h-23l68 144h36z" />
    <glyph glyph-name="atilde" unicode="&#xe3;" 
d="M277 0h-30v53q-31 -65 -88 -65q-54 0 -86 45t-32 116t32 116t86 45q58 0 88 -63v101q0 62 -17 91t-60 29q-51 0 -93 -54l-18 23q54 58 111 58q59 0 83 -35t24 -111v-349zM159 15q63 0 88 73v120q-25 75 -88 75q-42 0 -63.5 -39t-21.5 -95t21.5 -95t63.5 -39zM210 554
q-19 0 -31 17.5t-15.5 39t-11.5 39t-20 17.5q-38 0 -38 -107h-22q0 134 63 134q19 0 31 -17.5t15.5 -39t11.5 -39t20 -17.5q38 0 38 107h22q0 -134 -63 -134z" />
    <glyph glyph-name="adieresis" unicode="&#xe4;" 
d="M277 0h-30v53q-31 -65 -88 -65q-54 0 -86 45t-32 116t32 116t86 45q58 0 88 -63v101q0 62 -17 91t-60 29q-51 0 -93 -54l-18 23q54 58 111 58q59 0 83 -35t24 -111v-349zM159 15q63 0 88 73v120q-25 75 -88 75q-42 0 -63.5 -39t-21.5 -95t21.5 -95t63.5 -39zM259 598
q0 -11 -8.5 -19.5t-19.5 -8.5t-19.5 8.5t-8.5 19.5t8.5 19.5t19.5 8.5t19.5 -8.5t8.5 -19.5zM137 598q0 -11 -8.5 -19.5t-19.5 -8.5t-19.5 8.5t-8.5 19.5t8.5 19.5t19.5 8.5t19.5 -8.5t8.5 -19.5z" />
    <glyph glyph-name="aring" unicode="&#xe5;" 
d="M277 0h-30v53q-31 -65 -88 -65q-54 0 -86 45t-32 116t32 116t86 45q58 0 88 -63v101q0 62 -17 91t-60 29q-51 0 -93 -54l-18 23q54 58 111 58q59 0 83 -35t24 -111v-349zM159 15q63 0 88 73v120q-25 75 -88 75q-42 0 -63.5 -39t-21.5 -95t21.5 -95t63.5 -39zM171 553
q-32 0 -55 23t-23 55t23 55t55 23t54.5 -23t22.5 -55t-22.5 -55t-54.5 -23zM171 577q23 0 38.5 15.5t15.5 38.5t-15.5 38.5t-38.5 15.5t-38.5 -15.5t-15.5 -38.5t15.5 -38.5t38.5 -15.5z" />
    <glyph glyph-name="ae" unicode="&#xe6;" horiz-adv-x="543" 
d="M502 232h-218q0 -100 28.5 -158.5t80.5 -58.5q21 0 41.5 18t34.5 50l28 -14q-41 -81 -107 -81q-48 0 -75 29.5t-45 80.5q-27 -110 -107 -110q-57 0 -89.5 44.5t-32.5 115.5q0 72 32.5 117t89.5 45q59 0 91 -63v101q0 61 -18 90.5t-62 29.5q-54 0 -97 -54l-18 23
q54 58 111 58q97 0 106 -99q11 43 35.5 71t61.5 28q68 0 98.5 -70.5t30.5 -182.5v-10zM284 259h185q0 53 -7 96.5t-29 78t-57 34.5q-26 0 -45 -20.5t-29 -53.5t-14 -66.5t-4 -68.5zM254 184v24q-27 75 -92 75q-41 0 -64.5 -35.5t-23.5 -98.5t23.5 -98.5t64.5 -35.5
q43 0 67.5 44t24.5 125z" />
    <glyph glyph-name="ccedilla" unicode="&#xe7;" horiz-adv-x="294" 
d="M180 -185q-37 0 -70 28l13 26q28 -27 57 -27q21 0 36.5 13.5t15.5 35.5q0 40 -33 40q-16 0 -31 -15l-21 12l22 61q-60 8 -91 78t-31 175q0 111 34.5 182t101.5 71q46 0 84 -45l-21 -21q-29 39 -64 39q-54 0 -78 -65t-24 -161t24 -161.5t78 -65.5q36 0 64 39l21 -21
q-29 -39 -69 -44l-17 -46q11 10 29 10q21 0 36 -17t15 -45q0 -32 -23.5 -54t-57.5 -22z" />
    <glyph glyph-name="egrave" unicode="&#xe8;" horiz-adv-x="346" 
d="M193 -12q-75 0 -110.5 69.5t-35.5 184.5q0 113 31.5 183t97.5 70q68 0 98.5 -70.5t30.5 -182.5v-10h-225q0 -100 29.5 -158.5t83.5 -58.5q48 0 79 68l28 -14q-40 -81 -107 -81zM272 259q0 53 -7.5 96.5t-30 78t-58.5 34.5q-27 0 -47 -20.5t-30 -53.5t-14.5 -66.5
t-4.5 -68.5h192zM206 556h-24l-95 144h41z" />
    <glyph glyph-name="eacute" unicode="&#xe9;" horiz-adv-x="346" 
d="M193 -12q-75 0 -110.5 69.5t-35.5 184.5q0 113 31.5 183t97.5 70q68 0 98.5 -70.5t30.5 -182.5v-10h-225q0 -100 29.5 -158.5t83.5 -58.5q48 0 79 68l28 -14q-40 -81 -107 -81zM272 259q0 53 -7.5 96.5t-30 78t-58.5 34.5q-27 0 -47 -20.5t-30 -53.5t-14.5 -66.5
t-4.5 -68.5h192zM265 700l-95 -144h-24l78 144h41z" />
    <glyph glyph-name="ecircumflex" unicode="&#xea;" horiz-adv-x="346" 
d="M193 -12q-75 0 -110.5 69.5t-35.5 184.5q0 113 31.5 183t97.5 70q68 0 98.5 -70.5t30.5 -182.5v-10h-225q0 -100 29.5 -158.5t83.5 -58.5q48 0 79 68l28 -14q-40 -81 -107 -81zM272 259q0 53 -7.5 96.5t-30 78t-58.5 34.5q-27 0 -47 -20.5t-30 -53.5t-14.5 -66.5
t-4.5 -68.5h192zM265 556h-23l-66 116l-63 -116h-23l68 144h36z" />
    <glyph glyph-name="edieresis" unicode="&#xeb;" horiz-adv-x="346" 
d="M193 -12q-75 0 -110.5 69.5t-35.5 184.5q0 113 31.5 183t97.5 70q68 0 98.5 -70.5t30.5 -182.5v-10h-225q0 -100 29.5 -158.5t83.5 -58.5q48 0 79 68l28 -14q-40 -81 -107 -81zM272 259q0 53 -7.5 96.5t-30 78t-58.5 34.5q-27 0 -47 -20.5t-30 -53.5t-14.5 -66.5
t-4.5 -68.5h192zM264 598q0 -11 -8.5 -19.5t-19.5 -8.5t-19.5 8.5t-8.5 19.5t8.5 19.5t19.5 8.5t19.5 -8.5t8.5 -19.5zM142 598q0 -11 -8.5 -19.5t-19.5 -8.5t-19.5 8.5t-8.5 19.5t8.5 19.5t19.5 8.5t19.5 -8.5t8.5 -19.5z" />
    <glyph glyph-name="igrave" unicode="&#xec;" horiz-adv-x="160" 
d="M110 556h-24l-95 144h41zM95 0h-30v483h30v-483z" />
    <glyph glyph-name="iacute" unicode="&#xed;" horiz-adv-x="160" 
d="M169 700l-95 -144h-24l78 144h41zM95 0h-30v483h30v-483z" />
    <glyph glyph-name="icircumflex" unicode="&#xee;" horiz-adv-x="160" 
d="M168 556h-23l-66 116l-63 -116h-23l68 144h36zM95 0h-30v483h30v-483z" />
    <glyph glyph-name="idieresis" unicode="&#xef;" horiz-adv-x="160" 
d="M169 598q0 -11 -8.5 -19.5t-19.5 -8.5t-19.5 8.5t-8.5 19.5t8.5 19.5t19.5 8.5t19.5 -8.5t8.5 -19.5zM47 598q0 -11 -8.5 -19.5t-19.5 -8.5t-19.5 8.5t-8.5 19.5t8.5 19.5t19.5 8.5t19.5 -8.5t8.5 -19.5zM95 0h-30v483h30v-483z" />
    <glyph glyph-name="eth" unicode="&#xf0;" horiz-adv-x="352" 
d="M103 526l-12 25l101 45q-22 43 -36 66l29 16q19 -33 36 -69l73 33l11 -24l-73 -33q73 -169 73 -343q0 -111 -30.5 -182.5t-98.5 -71.5q-46 0 -76 37t-41.5 91.5t-11.5 125.5t11.5 125t41.5 91t76 37q50 0 75 -55q-19 66 -48 131zM176 15q96 0 96 227q0 226 -96 226
t-96 -226q0 -227 96 -227z" />
    <glyph glyph-name="ntilde" unicode="&#xf1;" 
d="M277 0h-30v394q0 74 -53 74q-30 0 -57 -27.5t-42 -66.5v-374h-30v483h30v-72q18 37 45 60.5t58 23.5q41 0 60 -24.5t19 -76.5v-394zM211 554q-19 0 -31 17.5t-15.5 39t-11.5 39t-20 17.5q-38 0 -38 -107h-22q0 134 63 134q19 0 31 -17.5t15.5 -39t11.5 -39t20 -17.5
q38 0 38 107h22q0 -134 -63 -134z" />
    <glyph glyph-name="ograve" unicode="&#xf2;" horiz-adv-x="352" 
d="M176 -12q-46 0 -76 37t-41.5 91.5t-11.5 125.5t11.5 125t41.5 91t76 37q68 0 98.5 -71t30.5 -182t-30.5 -182.5t-98.5 -71.5zM176 15q96 0 96 227q0 226 -96 226t-96 -226q0 -227 96 -227zM207 556h-24l-95 144h41z" />
    <glyph glyph-name="oacute" unicode="&#xf3;" horiz-adv-x="352" 
d="M176 -12q-46 0 -76 37t-41.5 91.5t-11.5 125.5t11.5 125t41.5 91t76 37q68 0 98.5 -71t30.5 -182t-30.5 -182.5t-98.5 -71.5zM176 15q96 0 96 227q0 226 -96 226t-96 -226q0 -227 96 -227zM265 700l-95 -144h-24l78 144h41z" />
    <glyph glyph-name="ocircumflex" unicode="&#xf4;" horiz-adv-x="352" 
d="M176 -12q-46 0 -76 37t-41.5 91.5t-11.5 125.5t11.5 125t41.5 91t76 37q68 0 98.5 -71t30.5 -182t-30.5 -182.5t-98.5 -71.5zM176 15q96 0 96 227q0 226 -96 226t-96 -226q0 -227 96 -227zM264 556h-23l-66 116l-63 -116h-23l68 144h36z" />
    <glyph glyph-name="otilde" unicode="&#xf5;" horiz-adv-x="352" 
d="M176 -12q-46 0 -76 37t-41.5 91.5t-11.5 125.5t11.5 125t41.5 91t76 37q68 0 98.5 -71t30.5 -182t-30.5 -182.5t-98.5 -71.5zM176 15q96 0 96 227q0 226 -96 226t-96 -226q0 -227 96 -227zM214 554q-19 0 -31 17.5t-15.5 39t-11.5 39t-20 17.5q-38 0 -38 -107h-22
q0 134 63 134q19 0 31 -17.5t15.5 -39t11.5 -39t20 -17.5q38 0 38 107h22q0 -134 -63 -134z" />
    <glyph glyph-name="odieresis" unicode="&#xf6;" horiz-adv-x="352" 
d="M176 -12q-46 0 -76 37t-41.5 91.5t-11.5 125.5t11.5 125t41.5 91t76 37q68 0 98.5 -71t30.5 -182t-30.5 -182.5t-98.5 -71.5zM176 15q96 0 96 227q0 226 -96 226t-96 -226q0 -227 96 -227zM266 598q0 -11 -8.5 -19.5t-19.5 -8.5t-19.5 8.5t-8.5 19.5t8.5 19.5t19.5 8.5
t19.5 -8.5t8.5 -19.5zM144 598q0 -11 -8.5 -19.5t-19.5 -8.5t-19.5 8.5t-8.5 19.5t8.5 19.5t19.5 8.5t19.5 -8.5t8.5 -19.5z" />
    <glyph glyph-name="divide" unicode="&#xf7;" horiz-adv-x="374" 
d="M222 475q0 -13 -10 -23t-23 -10t-23 10t-10 23t10 23t23 10t23 -10t10 -23zM345 322h-316v30h316v-30zM222 193q0 -13 -10 -23t-23 -10t-23 10t-10 23t10 23t23 10t23 -10t10 -23z" />
    <glyph glyph-name="oslash" unicode="&#xf8;" horiz-adv-x="352" 
d="M86 0h-29l23 54q-33 66 -33 188q0 71 11.5 125t41.5 91t76 37q48 0 78 -38l12 26h29l-23 -54q33 -65 33 -187q0 -111 -30.5 -182.5t-98.5 -71.5q-48 0 -79 39zM176 15q96 0 96 227q0 93 -17 148l-144 -331q24 -44 65 -44zM80 242q0 -94 17 -149l143 331q-23 44 -64 44
q-96 0 -96 -226z" />
    <glyph glyph-name="ugrave" unicode="&#xf9;" 
d="M277 0h-30v70q-39 -82 -103 -82q-42 0 -60.5 23.5t-18.5 77.5v394h30v-394q0 -74 53 -74q31 0 58 26.5t41 65.5v376h30v-483zM201 556h-24l-95 144h41z" />
    <glyph glyph-name="uacute" unicode="&#xfa;" 
d="M277 0h-30v70q-39 -82 -103 -82q-42 0 -60.5 23.5t-18.5 77.5v394h30v-394q0 -74 53 -74q31 0 58 26.5t41 65.5v376h30v-483zM260 700l-95 -144h-24l78 144h41z" />
    <glyph glyph-name="ucircumflex" unicode="&#xfb;" 
d="M277 0h-30v70q-39 -82 -103 -82q-42 0 -60.5 23.5t-18.5 77.5v394h30v-394q0 -74 53 -74q31 0 58 26.5t41 65.5v376h30v-483zM260 556h-23l-66 116l-63 -116h-23l68 144h36z" />
    <glyph glyph-name="udieresis" unicode="&#xfc;" 
d="M277 0h-30v70q-39 -82 -103 -82q-42 0 -60.5 23.5t-18.5 77.5v394h30v-394q0 -74 53 -74q31 0 58 26.5t41 65.5v376h30v-483zM262 598q0 -11 -8.5 -19.5t-19.5 -8.5t-19.5 8.5t-8.5 19.5t8.5 19.5t19.5 8.5t19.5 -8.5t8.5 -19.5zM140 598q0 -11 -8.5 -19.5t-19.5 -8.5
t-19.5 8.5t-8.5 19.5t8.5 19.5t19.5 8.5t19.5 -8.5t8.5 -19.5z" />
    <glyph glyph-name="yacute" unicode="&#xfd;" horiz-adv-x="279" 
d="M27 -189l7 27q10 -7 24 -7q18 0 27 11.5t17 42.5l23 97l-109 501h33l90 -443l91 443h33l-137 -606q-9 -40 -25.5 -56.5t-42.5 -16.5q-19 0 -31 7zM228 700l-95 -144h-24l78 144h41z" />
    <glyph glyph-name="thorn" unicode="&#xfe;" horiz-adv-x="351" 
d="M183 -12q-60 0 -88 79v-251h-30v851h30v-249q31 77 88 77q42 0 70 -34.5t39.5 -89.5t11.5 -129q0 -114 -29.5 -184t-91.5 -70zM183 15q88 0 88 227q0 226 -88 226q-28 0 -53.5 -30t-34.5 -70v-251q9 -40 35 -71t53 -31z" />
    <glyph glyph-name="ydieresis" unicode="&#xff;" horiz-adv-x="279" 
d="M27 -189l7 27q10 -7 24 -7q18 0 27 11.5t17 42.5l23 97l-109 501h33l90 -443l91 443h33l-137 -606q-9 -40 -25.5 -56.5t-42.5 -16.5q-19 0 -31 7zM228 598q0 -11 -8.5 -19.5t-19.5 -8.5t-19.5 8.5t-8.5 19.5t8.5 19.5t19.5 8.5t19.5 -8.5t8.5 -19.5zM106 598
q0 -11 -8.5 -19.5t-19.5 -8.5t-19.5 8.5t-8.5 19.5t8.5 19.5t19.5 8.5t19.5 -8.5t8.5 -19.5z" />
    <glyph glyph-name="Amacron" unicode="&#x100;" horiz-adv-x="312" 
d="M300 0h-33l-32 179h-158l-32 -179h-33l125 667h38zM230 209l-74 411l-74 -411h148zM276 748h-240v27h240v-27z" />
    <glyph glyph-name="amacron" unicode="&#x101;" 
d="M277 0h-30v53q-31 -65 -88 -65q-54 0 -86 45t-32 116t32 116t86 45q58 0 88 -63v101q0 62 -17 91t-60 29q-51 0 -93 -54l-18 23q54 58 111 58q59 0 83 -35t24 -111v-349zM159 15q63 0 88 73v120q-25 75 -88 75q-42 0 -63.5 -39t-21.5 -95t21.5 -95t63.5 -39zM291 581
h-240v27h240v-27z" />
    <glyph glyph-name="Abreve" unicode="&#x102;" horiz-adv-x="312" 
d="M300 0h-33l-32 179h-158l-32 -179h-33l125 667h38zM230 209l-74 411l-74 -411h148zM271 784q-42 -58 -115 -58t-115 58l22 18q14 -22 40 -35.5t53 -13.5t53 13.5t40 35.5z" />
    <glyph glyph-name="abreve" unicode="&#x103;" 
d="M277 0h-30v53q-31 -65 -88 -65q-54 0 -86 45t-32 116t32 116t86 45q58 0 88 -63v101q0 62 -17 91t-60 29q-51 0 -93 -54l-18 23q54 58 111 58q59 0 83 -35t24 -111v-349zM159 15q63 0 88 73v120q-25 75 -88 75q-42 0 -63.5 -39t-21.5 -95t21.5 -95t63.5 -39zM286 617
q-42 -58 -115 -58t-115 58l22 18q14 -22 40 -35.5t53 -13.5t53 13.5t40 35.5z" />
    <glyph glyph-name="Aogonek" unicode="&#x104;" horiz-adv-x="312" 
d="M298 -122l25 -11q-14 -53 -63 -53q-28 0 -44.5 18t-16.5 53q0 70 66 123l-30 171h-158l-32 -179h-33l125 667h38l125 -667q-72 -49 -72 -115q0 -44 32 -44q30 0 38 37zM230 209l-74 411l-74 -411h148z" />
    <glyph glyph-name="aogonek" unicode="&#x105;" 
d="M275 -122l25 -11q-14 -53 -63 -53q-28 0 -44.5 18t-16.5 53q0 75 71 127v41q-31 -65 -88 -65q-54 0 -86 45t-32 116t32 116t86 45q58 0 88 -63v101q0 62 -17 91t-60 29q-51 0 -93 -54l-18 23q54 58 111 58q59 0 83 -35t24 -111v-349q-72 -49 -72 -115q0 -44 32 -44
q30 0 38 37zM159 15q63 0 88 73v120q-25 75 -88 75q-42 0 -63.5 -39t-21.5 -95t21.5 -95t63.5 -39z" />
    <glyph glyph-name="Cacute" unicode="&#x106;" horiz-adv-x="357" 
d="M198 -12q-52 0 -85.5 48t-46.5 122t-13 175t13 175t46.5 122t85.5 48q79 0 113 -103l-30 -12q-15 43 -33 64t-50 21q-56 0 -83 -87t-27 -228t27 -228t83 -87q35 0 54 27t32 78l30 -12q-29 -123 -116 -123zM287 867l-95 -144h-24l78 144h41z" />
    <glyph glyph-name="cacute" unicode="&#x107;" horiz-adv-x="294" 
d="M183 -12q-67 0 -101.5 71.5t-34.5 182.5t34.5 182t101.5 71q46 0 84 -45l-21 -21q-29 39 -64 39q-54 0 -78 -65t-24 -161t24 -161.5t78 -65.5q36 0 64 39l21 -21q-33 -45 -84 -45zM272 700l-95 -144h-24l78 144h41z" />
    <glyph glyph-name="Ccircumflex" unicode="&#x108;" horiz-adv-x="357" 
d="M198 -12q-52 0 -85.5 48t-46.5 122t-13 175t13 175t46.5 122t85.5 48q79 0 113 -103l-30 -12q-15 43 -33 64t-50 21q-56 0 -83 -87t-27 -228t27 -228t83 -87q35 0 54 27t32 78l30 -12q-29 -123 -116 -123zM287 723h-23l-66 116l-63 -116h-23l68 144h36z" />
    <glyph glyph-name="ccircumflex" unicode="&#x109;" horiz-adv-x="294" 
d="M183 -12q-67 0 -101.5 71.5t-34.5 182.5t34.5 182t101.5 71q46 0 84 -45l-21 -21q-29 39 -64 39q-54 0 -78 -65t-24 -161t24 -161.5t78 -65.5q36 0 64 39l21 -21q-33 -45 -84 -45zM271 556h-23l-66 116l-63 -116h-23l68 144h36z" />
    <glyph glyph-name="Cdotaccent" unicode="&#x10a;" horiz-adv-x="357" 
d="M198 -12q-52 0 -85.5 48t-46.5 122t-13 175t13 175t46.5 122t85.5 48q79 0 113 -103l-30 -12q-15 43 -33 64t-50 21q-56 0 -83 -87t-27 -228t27 -228t83 -87q35 0 54 27t32 78l30 -12q-29 -123 -116 -123zM198 733q-11 0 -20 8.5t-9 20.5t9 20.5t20 8.5q12 0 20.5 -8.5
t8.5 -20.5t-8.5 -20.5t-20.5 -8.5z" />
    <glyph glyph-name="cdotaccent" unicode="&#x10b;" horiz-adv-x="294" 
d="M183 -12q-67 0 -101.5 71.5t-34.5 182.5t34.5 182t101.5 71q46 0 84 -45l-21 -21q-29 39 -64 39q-54 0 -78 -65t-24 -161t24 -161.5t78 -65.5q36 0 64 39l21 -21q-33 -45 -84 -45zM185 566q-11 0 -20 8.5t-9 20.5t9 20.5t20 8.5q12 0 20.5 -8.5t8.5 -20.5t-8.5 -20.5
t-20.5 -8.5z" />
    <glyph glyph-name="Ccaron" unicode="&#x10c;" horiz-adv-x="357" 
d="M198 -12q-52 0 -85.5 48t-46.5 122t-13 175t13 175t46.5 122t85.5 48q79 0 113 -103l-30 -12q-15 43 -33 64t-50 21q-56 0 -83 -87t-27 -228t27 -228t83 -87q35 0 54 27t32 78l30 -12q-29 -123 -116 -123zM219 723h-36l-71 144h23l66 -116l63 116h23z" />
    <glyph glyph-name="ccaron" unicode="&#x10d;" horiz-adv-x="294" 
d="M183 -12q-67 0 -101.5 71.5t-34.5 182.5t34.5 182t101.5 71q46 0 84 -45l-21 -21q-29 39 -64 39q-54 0 -78 -65t-24 -161t24 -161.5t78 -65.5q36 0 64 39l21 -21q-33 -45 -84 -45zM203 556h-36l-71 144h23l66 -116l63 116h23z" />
    <glyph glyph-name="Dcaron" unicode="&#x10e;" horiz-adv-x="386" 
d="M165 0h-93v667h93q86 0 127 -90t41 -244q0 -155 -41 -244t-127 -89zM165 30q133 0 133 303q0 304 -133 304h-61v-607h61zM207 723h-36l-71 144h23l66 -116l63 116h23z" />
    <glyph glyph-name="dcaron" unicode="&#x10f;" horiz-adv-x="407" 
d="M286 0h-30v70q-15 -37 -39.5 -59.5t-48.5 -22.5q-42 0 -70 34.5t-39.5 89.5t-11.5 129q0 114 29.5 184t91.5 70q25 0 49.5 -21.5t38.5 -62.5v256h30v-667zM168 15q28 0 53.5 30t34.5 70v251q-9 40 -34.5 71t-53.5 31q-88 0 -88 -227q0 -226 88 -226zM410 626
q0 -36 -18 -69.5t-44 -51.5l-22 18q24 18 38.5 43.5t14.5 48.5q-5 -1 -7 -1q-14 0 -23 9.5t-9 23.5q0 13 9 22.5t23 9.5q16 0 27 -14t11 -39z" />
    <glyph glyph-name="Dcroat" unicode="&#x110;" horiz-adv-x="402" 
d="M181 0h-93v318h-62v30h62v319h93q86 0 127 -90t41 -244q0 -155 -41 -244t-127 -89zM218 318h-98v-288h61q133 0 133 303q0 304 -133 304h-61v-289h98v-30z" />
    <glyph glyph-name="dcroat" unicode="&#x111;" horiz-adv-x="351" 
d="M286 0h-30v70q-15 -37 -39.5 -59.5t-48.5 -22.5q-42 0 -70 34.5t-39.5 89.5t-11.5 129q0 114 29.5 184t91.5 70q25 0 49.5 -21.5t38.5 -62.5v130h-120v27h120v99h30v-99h54v-27h-54v-541zM168 15q28 0 53.5 30t34.5 70v251q-9 40 -34.5 71t-53.5 31q-88 0 -88 -227
q0 -226 88 -226z" />
    <glyph glyph-name="Emacron" unicode="&#x112;" horiz-adv-x="330" 
d="M282 0h-210v667h210v-30h-178v-279h171v-30h-171v-298h178v-30zM299 748h-240v27h240v-27z" />
    <glyph glyph-name="emacron" unicode="&#x113;" horiz-adv-x="346" 
d="M193 -12q-75 0 -110.5 69.5t-35.5 184.5q0 113 31.5 183t97.5 70q68 0 98.5 -70.5t30.5 -182.5v-10h-225q0 -100 29.5 -158.5t83.5 -58.5q48 0 79 68l28 -14q-40 -81 -107 -81zM272 259q0 53 -7.5 96.5t-30 78t-58.5 34.5q-27 0 -47 -20.5t-30 -53.5t-14.5 -66.5
t-4.5 -68.5h192zM293 581h-240v27h240v-27z" />
    <glyph glyph-name="Ebreve" unicode="&#x114;" horiz-adv-x="330" 
d="M282 0h-210v667h210v-30h-178v-279h171v-30h-171v-298h178v-30zM295 784q-42 -58 -115 -58t-115 58l22 18q14 -22 40 -35.5t53 -13.5t53 13.5t40 35.5z" />
    <glyph glyph-name="ebreve" unicode="&#x115;" horiz-adv-x="346" 
d="M193 -12q-75 0 -110.5 69.5t-35.5 184.5q0 113 31.5 183t97.5 70q68 0 98.5 -70.5t30.5 -182.5v-10h-225q0 -100 29.5 -158.5t83.5 -58.5q48 0 79 68l28 -14q-40 -81 -107 -81zM272 259q0 53 -7.5 96.5t-30 78t-58.5 34.5q-27 0 -47 -20.5t-30 -53.5t-14.5 -66.5
t-4.5 -68.5h192zM292 617q-42 -58 -115 -58t-115 58l22 18q14 -22 40 -35.5t53 -13.5t53 13.5t40 35.5z" />
    <glyph glyph-name="Edotaccent" unicode="&#x116;" horiz-adv-x="330" 
d="M282 0h-210v667h210v-30h-178v-279h171v-30h-171v-298h178v-30zM186 733q-11 0 -20 8.5t-9 20.5t9 20.5t20 8.5q12 0 20.5 -8.5t8.5 -20.5t-8.5 -20.5t-20.5 -8.5z" />
    <glyph glyph-name="edotaccent" unicode="&#x117;" horiz-adv-x="346" 
d="M193 -12q-75 0 -110.5 69.5t-35.5 184.5q0 113 31.5 183t97.5 70q68 0 98.5 -70.5t30.5 -182.5v-10h-225q0 -100 29.5 -158.5t83.5 -58.5q48 0 79 68l28 -14q-40 -81 -107 -81zM272 259q0 53 -7.5 96.5t-30 78t-58.5 34.5q-27 0 -47 -20.5t-30 -53.5t-14.5 -66.5
t-4.5 -68.5h192zM176 566q-11 0 -20 8.5t-9 20.5t9 20.5t20 8.5q12 0 20.5 -8.5t8.5 -20.5t-8.5 -20.5t-20.5 -8.5z" />
    <glyph glyph-name="Eogonek" unicode="&#x118;" horiz-adv-x="330" 
d="M280 -122l25 -11q-14 -53 -63 -53q-28 0 -44.5 18t-16.5 53q0 64 56 115h-165v667h210v-30h-178v-279h171v-30h-171v-298h178v-30q-72 -49 -72 -115q0 -44 32 -44q30 0 38 37z" />
    <glyph glyph-name="eogonek" unicode="&#x119;" horiz-adv-x="346" 
d="M238 -122l25 -11q-14 -53 -63 -53q-28 0 -44.5 18t-16.5 53q0 55 44 103q-70 5 -103 74t-33 180q0 113 31.5 183t97.5 70q68 0 98.5 -70.5t30.5 -182.5v-10h-225q0 -100 29.5 -158.5t83.5 -58.5q48 0 79 68l28 -14q-27 -52 -60 -69q-72 -49 -72 -115q0 -44 32 -44
q30 0 38 37zM272 259q0 53 -7.5 96.5t-30 78t-58.5 34.5q-27 0 -47 -20.5t-30 -53.5t-14.5 -66.5t-4.5 -68.5h192z" />
    <glyph glyph-name="Ecaron" unicode="&#x11a;" horiz-adv-x="330" 
d="M282 0h-210v667h210v-30h-178v-279h171v-30h-171v-298h178v-30zM195 723h-36l-71 144h23l66 -116l63 116h23z" />
    <glyph glyph-name="ecaron" unicode="&#x11b;" horiz-adv-x="346" 
d="M193 -12q-75 0 -110.5 69.5t-35.5 184.5q0 113 31.5 183t97.5 70q68 0 98.5 -70.5t30.5 -182.5v-10h-225q0 -100 29.5 -158.5t83.5 -58.5q48 0 79 68l28 -14q-40 -81 -107 -81zM272 259q0 53 -7.5 96.5t-30 78t-58.5 34.5q-27 0 -47 -20.5t-30 -53.5t-14.5 -66.5
t-4.5 -68.5h192zM195 556h-36l-71 144h23l66 -116l63 116h23z" />
    <glyph glyph-name="Gcircumflex" unicode="&#x11c;" horiz-adv-x="375" 
d="M198 -12q-74 0 -109.5 92.5t-35.5 252.5q0 161 35.5 253t109.5 92q79 0 113 -103l-30 -12q-15 43 -33 64t-50 21q-58 0 -84 -86.5t-26 -228.5q0 -141 26 -228t84 -87q56 0 81 51v221h-101v30h133v-259q-38 -73 -113 -73zM287 723h-23l-66 116l-63 -116h-23l68 144h36z
" />
    <glyph glyph-name="gcircumflex" unicode="&#x11d;" horiz-adv-x="351" 
d="M164 -196q-66 0 -110 47l20 26q37 -46 90 -46q92 0 92 126v113q-15 -37 -39.5 -60.5t-48.5 -23.5q-62 0 -91.5 69.5t-29.5 184.5q0 114 29.5 184.5t91.5 70.5q25 0 49.5 -21.5t38.5 -62.5v72h30v-526q0 -153 -122 -153zM168 13q28 0 53.5 31t34.5 71v251q-9 40 -34.5 71
t-53.5 31q-88 0 -88 -228q0 -227 88 -227zM262 556h-23l-66 116l-63 -116h-23l68 144h36z" />
    <glyph glyph-name="Gbreve" unicode="&#x11e;" horiz-adv-x="375" 
d="M198 -12q-74 0 -109.5 92.5t-35.5 252.5q0 161 35.5 253t109.5 92q79 0 113 -103l-30 -12q-15 43 -33 64t-50 21q-58 0 -84 -86.5t-26 -228.5q0 -141 26 -228t84 -87q56 0 81 51v221h-101v30h133v-259q-38 -73 -113 -73zM315 784q-42 -58 -115 -58t-115 58l22 18
q14 -22 40 -35.5t53 -13.5t53 13.5t40 35.5z" />
    <glyph glyph-name="gbreve" unicode="&#x11f;" horiz-adv-x="351" 
d="M164 -196q-66 0 -110 47l20 26q37 -46 90 -46q92 0 92 126v113q-15 -37 -39.5 -60.5t-48.5 -23.5q-62 0 -91.5 69.5t-29.5 184.5q0 114 29.5 184.5t91.5 70.5q25 0 49.5 -21.5t38.5 -62.5v72h30v-526q0 -153 -122 -153zM168 13q28 0 53.5 31t34.5 71v251q-9 40 -34.5 71
t-53.5 31q-88 0 -88 -228q0 -227 88 -227zM290 617q-42 -58 -115 -58t-115 58l22 18q14 -22 40 -35.5t53 -13.5t53 13.5t40 35.5z" />
    <glyph glyph-name="Gdotaccent" unicode="&#x120;" horiz-adv-x="375" 
d="M198 -12q-74 0 -109.5 92.5t-35.5 252.5q0 161 35.5 253t109.5 92q79 0 113 -103l-30 -12q-15 43 -33 64t-50 21q-58 0 -84 -86.5t-26 -228.5q0 -141 26 -228t84 -87q56 0 81 51v221h-101v30h133v-259q-38 -73 -113 -73zM199 733q-11 0 -20 8.5t-9 20.5t9 20.5t20 8.5
q12 0 20.5 -8.5t8.5 -20.5t-8.5 -20.5t-20.5 -8.5z" />
    <glyph glyph-name="gdotaccent" unicode="&#x121;" horiz-adv-x="351" 
d="M164 -196q-66 0 -110 47l20 26q37 -46 90 -46q92 0 92 126v113q-15 -37 -39.5 -60.5t-48.5 -23.5q-62 0 -91.5 69.5t-29.5 184.5q0 114 29.5 184.5t91.5 70.5q25 0 49.5 -21.5t38.5 -62.5v72h30v-526q0 -153 -122 -153zM168 13q28 0 53.5 31t34.5 71v251q-9 40 -34.5 71
t-53.5 31q-88 0 -88 -228q0 -227 88 -227zM171 566q-11 0 -20 8.5t-9 20.5t9 20.5t20 8.5q12 0 20.5 -8.5t8.5 -20.5t-8.5 -20.5t-20.5 -8.5z" />
    <glyph glyph-name="Gcommaaccent" unicode="&#x122;" horiz-adv-x="375" 
d="M198 -12q-74 0 -109.5 92.5t-35.5 252.5q0 161 35.5 253t109.5 92q79 0 113 -103l-30 -12q-15 43 -33 64t-50 21q-58 0 -84 -86.5t-26 -228.5q0 -141 26 -228t84 -87q56 0 81 51v221h-101v30h133v-259q-38 -73 -113 -73zM237 -137q0 -36 -18 -69.5t-44 -51.5l-22 18
q24 18 38.5 43.5t14.5 48.5q-5 -1 -7 -1q-14 0 -23 9.5t-9 23.5q0 13 9 22.5t23 9.5q16 0 27 -14t11 -39z" />
    <glyph glyph-name="gcommaaccent" unicode="&#x123;" horiz-adv-x="351" 
d="M133 610q0 40 18.5 76.5t41.5 52.5l24 -19q-24 -18 -38.5 -43.5t-14.5 -48.5q2 1 4 1q12 0 22.5 -10t10.5 -23t-9.5 -22.5t-23.5 -9.5q-16 0 -25.5 13t-9.5 33zM164 -196q-66 0 -110 47l20 26q37 -46 90 -46q92 0 92 126v113q-15 -37 -39.5 -60.5t-48.5 -23.5
q-62 0 -91.5 69.5t-29.5 184.5q0 114 29.5 184.5t91.5 70.5q25 0 49.5 -21.5t38.5 -62.5v72h30v-526q0 -153 -122 -153zM168 13q28 0 53.5 31t34.5 71v251q-9 40 -34.5 71t-53.5 31q-88 0 -88 -228q0 -227 88 -227z" />
    <glyph glyph-name="Hcircumflex" unicode="&#x124;" horiz-adv-x="395" 
d="M323 0h-32v328h-187v-328h-32v667h32v-309h187v309h32v-667zM285 723h-23l-66 116l-63 -116h-23l68 144h36z" />
    <glyph glyph-name="hcircumflex" unicode="&#x125;" 
d="M277 0h-30v394q0 74 -53 74q-30 0 -57 -27.5t-42 -66.5v-374h-30v667h30v-256q18 37 45 60.5t58 23.5q42 0 60.5 -23.5t18.5 -77.5v-394zM259 723h-23l-66 116l-63 -116h-23l68 144h36z" />
    <glyph glyph-name="Hbar" unicode="&#x126;" horiz-adv-x="446" 
d="M349 0h-32v328h-187v-328h-32v501h-72v27h72v139h32v-139h187v139h32v-139h71v-27h-71v-501zM130 358h187v143h-187v-143z" />
    <glyph glyph-name="hbar" unicode="&#x127;" horiz-adv-x="358" 
d="M230 541h-119v-130q18 37 45 60.5t58 23.5q42 0 60.5 -23.5t18.5 -77.5v-394h-30v394q0 74 -53 74q-30 0 -57 -27.5t-42 -66.5v-374h-30v541h-55v27h55v99h30v-99h119v-27z" />
    <glyph glyph-name="Itilde" unicode="&#x128;" horiz-adv-x="176" 
d="M104 0h-32v667h32v-667zM126 721q-19 0 -31 17.5t-15.5 39t-11.5 39t-20 17.5q-38 0 -38 -107h-22q0 134 63 134q19 0 31 -17.5t15.5 -39t11.5 -39t20 -17.5q38 0 38 107h22q0 -134 -63 -134z" />
    <glyph glyph-name="itilde" unicode="&#x129;" horiz-adv-x="160" 
d="M95 0h-30v483h30v-483zM118 554q-19 0 -31 17.5t-15.5 39t-11.5 39t-20 17.5q-38 0 -38 -107h-22q0 134 63 134q19 0 31 -17.5t15.5 -39t11.5 -39t20 -17.5q38 0 38 107h22q0 -134 -63 -134z" />
    <glyph glyph-name="Imacron" unicode="&#x12a;" horiz-adv-x="176" 
d="M104 0h-32v667h32v-667zM208 748h-240v27h240v-27z" />
    <glyph glyph-name="imacron" unicode="&#x12b;" horiz-adv-x="160" 
d="M95 0h-30v483h30v-483zM200 581h-240v27h240v-27z" />
    <glyph glyph-name="Ibreve" unicode="&#x12c;" horiz-adv-x="176" 
d="M104 0h-32v667h32v-667zM203 784q-42 -58 -115 -58t-115 58l22 18q14 -22 40 -35.5t53 -13.5t53 13.5t40 35.5z" />
    <glyph glyph-name="ibreve" unicode="&#x12d;" horiz-adv-x="160" 
d="M95 0h-30v483h30v-483zM195 617q-42 -58 -115 -58t-115 58l22 18q14 -22 40 -35.5t53 -13.5t53 13.5t40 35.5z" />
    <glyph glyph-name="Iogonek" unicode="&#x12e;" horiz-adv-x="176" 
d="M102 -122l25 -11q-14 -53 -63 -53q-28 0 -44.5 18t-16.5 53q0 73 69 125v657h32v-667q-72 -49 -72 -115q0 -44 32 -44q30 0 38 37z" />
    <glyph glyph-name="iogonek" unicode="&#x12f;" horiz-adv-x="160" 
d="M93 -122l25 -11q-14 -53 -63 -53q-28 0 -44.5 18t-16.5 53q0 75 71 127v471h30v-483q-72 -49 -72 -115q0 -44 32 -44q30 0 38 37zM80 566q-11 0 -20 8.5t-9 20.5t9 20.5t20 8.5q12 0 20.5 -8.5t8.5 -20.5t-8.5 -20.5t-20.5 -8.5z" />
    <glyph glyph-name="Idotaccent" unicode="&#x130;" horiz-adv-x="176" 
d="M104 0h-32v667h32v-667zM88 733q-11 0 -20 8.5t-9 20.5t9 20.5t20 8.5q12 0 20.5 -8.5t8.5 -20.5t-8.5 -20.5t-20.5 -8.5z" />
    <glyph glyph-name="dotlessi" unicode="&#x131;" horiz-adv-x="160" 
d="M95 0h-30v483h30v-483z" />
    <glyph glyph-name="IJ" unicode="&#x132;" horiz-adv-x="474" 
d="M104 0h-32v667h32v-667zM285 -12q-61 0 -103 54l24 23q32 -47 79 -47q85 0 85 103v546h32v-546q0 -133 -117 -133z" />
    <glyph glyph-name="ij" unicode="&#x133;" horiz-adv-x="320" 
d="M80 566q-11 0 -20 8.5t-9 20.5t9 20.5t20 8.5q12 0 20.5 -8.5t8.5 -20.5t-8.5 -20.5t-20.5 -8.5zM95 0h-30v483h30v-483zM240 566q-11 0 -20 8.5t-9 20.5t9 20.5t20 8.5q12 0 20.5 -8.5t8.5 -20.5t-8.5 -20.5t-20.5 -8.5zM191 -196q-41 0 -57 38l27 14q10 -25 30 -25
q34 0 34 73v579h30v-579q0 -100 -64 -100z" />
    <glyph glyph-name="Jcircumflex" unicode="&#x134;" horiz-adv-x="298" 
d="M109 -12q-61 0 -103 54l24 23q32 -47 79 -47q85 0 85 103v546h32v-546q0 -133 -117 -133zM297 723h-23l-66 116l-63 -116h-23l68 144h36z" />
    <glyph glyph-name="jcircumflex" unicode="&#x135;" horiz-adv-x="160" 
d="M169 556h-23l-66 116l-63 -116h-23l68 144h36zM31 -196q-41 0 -57 38l27 14q10 -25 30 -25q34 0 34 73v579h30v-579q0 -100 -64 -100z" />
    <glyph glyph-name="Kcommaaccent" unicode="&#x136;" horiz-adv-x="372" 
d="M354 0h-39l-164 319l-47 -88v-231h-32v667h32v-380l198 380h39l-174 -319zM230 -137q0 -36 -18 -69.5t-44 -51.5l-22 18q24 18 38.5 43.5t14.5 48.5q-5 -1 -7 -1q-14 0 -23 9.5t-9 23.5q0 13 9 22.5t23 9.5q16 0 27 -14t11 -39z" />
    <glyph glyph-name="kcommaaccent" unicode="&#x137;" horiz-adv-x="325" 
d="M301 0h-32l-108 242l-66 -110v-132h-30v667h30v-489l179 305h31l-128 -218zM206 -137q0 -36 -18 -69.5t-44 -51.5l-22 18q24 18 38.5 43.5t14.5 48.5q-5 -1 -7 -1q-14 0 -23 9.5t-9 23.5q0 13 9 22.5t23 9.5q16 0 27 -14t11 -39z" />
    <glyph glyph-name="kgreenlandic" unicode="&#x138;" horiz-adv-x="325" 
d="M301 0h-32l-108 242l-66 -110v-132h-30v483h30v-305l179 305h31l-128 -218z" />
    <glyph glyph-name="Lacute" unicode="&#x139;" horiz-adv-x="306" 
d="M282 0h-210v667h32v-637h178v-30zM266 867l-95 -144h-24l78 144h41z" />
    <glyph glyph-name="lacute" unicode="&#x13a;" horiz-adv-x="160" 
d="M95 0h-30v667h30v-667zM169 867l-95 -144h-24l78 144h41z" />
    <glyph glyph-name="Lcommaaccent" unicode="&#x13b;" horiz-adv-x="306" 
d="M282 0h-210v667h32v-637h178v-30zM217 -137q0 -36 -18 -69.5t-44 -51.5l-22 18q24 18 38.5 43.5t14.5 48.5q-5 -1 -7 -1q-14 0 -23 9.5t-9 23.5q0 13 9 22.5t23 9.5q16 0 27 -14t11 -39z" />
    <glyph glyph-name="lcommaaccent" unicode="&#x13c;" horiz-adv-x="160" 
d="M95 0h-30v667h30v-667zM124 -137q0 -36 -18 -69.5t-44 -51.5l-22 18q24 18 38.5 43.5t14.5 48.5q-5 -1 -7 -1q-14 0 -23 9.5t-9 23.5q0 13 9 22.5t23 9.5q16 0 27 -14t11 -39z" />
    <glyph glyph-name="Lcaron" unicode="&#x13d;" horiz-adv-x="306" 
d="M282 0h-210v667h32v-637h178v-30zM236 626q0 -36 -18 -69.5t-44 -51.5l-22 18q24 18 38.5 43.5t14.5 48.5q-5 -1 -7 -1q-14 0 -23 9.5t-9 23.5q0 13 9 22.5t23 9.5q16 0 27 -14t11 -39z" />
    <glyph glyph-name="lcaron" unicode="&#x13e;" horiz-adv-x="214" 
d="M95 0h-30v667h30v-667zM236 626q0 -36 -18 -69.5t-44 -51.5l-22 18q24 18 38.5 43.5t14.5 48.5q-5 -1 -7 -1q-14 0 -23 9.5t-9 23.5q0 13 9 22.5t23 9.5q16 0 27 -14t11 -39z" />
    <glyph glyph-name="Ldot" unicode="&#x13f;" horiz-adv-x="306" 
d="M282 0h-210v667h32v-637h178v-30zM273 342q0 -14 -9.5 -23.5t-23.5 -9.5t-23.5 9.5t-9.5 23.5q0 13 10 22.5t23 9.5t23 -9.5t10 -22.5z" />
    <glyph glyph-name="ldot" unicode="&#x140;" horiz-adv-x="228" 
d="M95 0h-30v667h30v-667zM227 245q0 -13 -9.5 -23t-23.5 -10t-23.5 10t-9.5 23t10 22.5t23 9.5t23 -9.5t10 -22.5z" />
    <glyph glyph-name="Lslash" unicode="&#x141;" horiz-adv-x="322" 
d="M26 272v34l62 36v325h32v-307l62 37v-34l-62 -37v-296h178v-30h-210v308z" />
    <glyph glyph-name="lslash" unicode="&#x142;" horiz-adv-x="206" 
d="M26 285v32l62 35v315h30v-298l62 36v-32l-62 -36v-337h-30v320z" />
    <glyph glyph-name="Nacute" unicode="&#x143;" horiz-adv-x="395" 
d="M323 0h-32l-187 575v-575h-32v667h32l187 -569v569h32v-667zM286 867l-95 -144h-24l78 144h41z" />
    <glyph glyph-name="nacute" unicode="&#x144;" 
d="M277 0h-30v394q0 74 -53 74q-30 0 -57 -27.5t-42 -66.5v-374h-30v483h30v-72q18 37 45 60.5t58 23.5q41 0 60 -24.5t19 -76.5v-394zM260 700l-95 -144h-24l78 144h41z" />
    <glyph glyph-name="Ncommaaccent" unicode="&#x145;" horiz-adv-x="395" 
d="M323 0h-32l-187 575v-575h-32v667h32l187 -569v569h32v-667zM241 -137q0 -36 -18 -69.5t-44 -51.5l-22 18q24 18 38.5 43.5t14.5 48.5q-5 -1 -7 -1q-14 0 -23 9.5t-9 23.5q0 13 9 22.5t23 9.5q16 0 27 -14t11 -39z" />
    <glyph glyph-name="ncommaaccent" unicode="&#x146;" 
d="M277 0h-30v394q0 74 -53 74q-30 0 -57 -27.5t-42 -66.5v-374h-30v483h30v-72q18 37 45 60.5t58 23.5q41 0 60 -24.5t19 -76.5v-394zM215 -137q0 -36 -18 -69.5t-44 -51.5l-22 18q24 18 38.5 43.5t14.5 48.5q-5 -1 -7 -1q-14 0 -23 9.5t-9 23.5q0 13 9 22.5t23 9.5
q16 0 27 -14t11 -39z" />
    <glyph glyph-name="Ncaron" unicode="&#x147;" horiz-adv-x="395" 
d="M323 0h-32l-187 575v-575h-32v667h32l187 -569v569h32v-667zM217 723h-36l-71 144h23l66 -116l63 116h23z" />
    <glyph glyph-name="ncaron" unicode="&#x148;" 
d="M277 0h-30v394q0 74 -53 74q-30 0 -57 -27.5t-42 -66.5v-374h-30v483h30v-72q18 37 45 60.5t58 23.5q41 0 60 -24.5t19 -76.5v-394zM190 556h-36l-71 144h23l66 -116l63 116h23z" />
    <glyph glyph-name="napostrophe" unicode="&#x149;" 
d="M277 0h-30v394q0 74 -53 74q-30 0 -57 -27.5t-42 -66.5v-374h-30v483h30v-72q18 37 45 60.5t58 23.5q41 0 60 -24.5t19 -76.5v-394zM127 672q0 -36 -18 -69.5t-44 -51.5l-22 18q24 18 38.5 43.5t14.5 48.5q-5 -1 -7 -1q-14 0 -23 9.5t-9 23.5q0 13 9 22.5t23 9.5
q16 0 27 -14t11 -39z" />
    <glyph glyph-name="Eng" unicode="&#x14a;" horiz-adv-x="395" 
d="M206 -196q-61 0 -103 54l24 23q32 -47 79 -47q85 0 85 103v63l-187 575v-575h-32v667h32l187 -569v569h32v-730q0 -133 -117 -133z" />
    <glyph glyph-name="eng" unicode="&#x14b;" 
d="M277 394v-490q0 -100 -64 -100q-41 0 -57 38l27 14q10 -25 30 -25q34 0 34 73v490q0 74 -53 74q-30 0 -57 -27.5t-42 -66.5v-374h-30v483h30v-72q18 37 45 60.5t58 23.5q41 0 60 -24.5t19 -76.5z" />
    <glyph glyph-name="Omacron" unicode="&#x14c;" horiz-adv-x="396" 
d="M198 -12q-53 0 -86.5 49.5t-46 123t-12.5 172.5t12.5 172.5t46 123t86.5 49.5t86.5 -49.5t46 -123t12.5 -172.5t-12.5 -172.5t-46 -123t-86.5 -49.5zM198 18q57 0 83.5 88.5t26.5 226.5q0 139 -26.5 227t-83.5 88t-83.5 -88t-26.5 -227q0 -138 26.5 -226.5t83.5 -88.5z
M318 748h-240v27h240v-27z" />
    <glyph glyph-name="omacron" unicode="&#x14d;" horiz-adv-x="352" 
d="M176 -12q-46 0 -76 37t-41.5 91.5t-11.5 125.5t11.5 125t41.5 91t76 37q68 0 98.5 -71t30.5 -182t-30.5 -182.5t-98.5 -71.5zM176 15q96 0 96 227q0 226 -96 226t-96 -226q0 -227 96 -227zM296 581h-240v27h240v-27z" />
    <glyph glyph-name="Obreve" unicode="&#x14e;" horiz-adv-x="396" 
d="M198 -12q-53 0 -86.5 49.5t-46 123t-12.5 172.5t12.5 172.5t46 123t86.5 49.5t86.5 -49.5t46 -123t12.5 -172.5t-12.5 -172.5t-46 -123t-86.5 -49.5zM198 18q57 0 83.5 88.5t26.5 226.5q0 139 -26.5 227t-83.5 88t-83.5 -88t-26.5 -227q0 -138 26.5 -226.5t83.5 -88.5z
M312 784q-42 -58 -115 -58t-115 58l22 18q14 -22 40 -35.5t53 -13.5t53 13.5t40 35.5z" />
    <glyph glyph-name="obreve" unicode="&#x14f;" horiz-adv-x="352" 
d="M176 -12q-46 0 -76 37t-41.5 91.5t-11.5 125.5t11.5 125t41.5 91t76 37q68 0 98.5 -71t30.5 -182t-30.5 -182.5t-98.5 -71.5zM176 15q96 0 96 227q0 226 -96 226t-96 -226q0 -227 96 -227zM291 617q-42 -58 -115 -58t-115 58l22 18q14 -22 40 -35.5t53 -13.5t53 13.5
t40 35.5z" />
    <glyph glyph-name="Ohungarumlaut" unicode="&#x150;" horiz-adv-x="396" 
d="M198 -12q-53 0 -86.5 49.5t-46 123t-12.5 172.5t12.5 172.5t46 123t86.5 49.5t86.5 -49.5t46 -123t12.5 -172.5t-12.5 -172.5t-46 -123t-86.5 -49.5zM198 18q57 0 83.5 88.5t26.5 226.5q0 139 -26.5 227t-83.5 88t-83.5 -88t-26.5 -227q0 -138 26.5 -226.5t83.5 -88.5z
M222 867l-75 -144h-20l58 144h37zM328 867l-75 -144h-20l58 144h37z" />
    <glyph glyph-name="ohungarumlaut" unicode="&#x151;" horiz-adv-x="352" 
d="M176 -12q-46 0 -76 37t-41.5 91.5t-11.5 125.5t11.5 125t41.5 91t76 37q68 0 98.5 -71t30.5 -182t-30.5 -182.5t-98.5 -71.5zM176 15q96 0 96 227q0 226 -96 226t-96 -226q0 -227 96 -227zM200 700l-75 -144h-20l58 144h37zM306 700l-75 -144h-20l58 144h37z" />
    <glyph glyph-name="OE" unicode="&#x152;" horiz-adv-x="561" 
d="M508 0h-210v80q-34 -92 -100 -92q-145 0 -145 345q0 344 145 344q67 0 100 -90v80h210v-30h-178v-279h171v-30h-171v-298h178v-30zM298 167v333q-26 147 -100 147q-110 0 -110 -314q0 -315 110 -315q36 0 62 39.5t38 109.5z" />
    <glyph glyph-name="oe" unicode="&#x153;" horiz-adv-x="571" 
d="M530 232h-225q0 -100 29.5 -158.5t83.5 -58.5q48 0 79 68l28 -14q-41 -81 -107 -81q-97 0 -128 129q-28 -129 -114 -129q-46 0 -76 37t-41.5 91.5t-11.5 125.5t11.5 125t41.5 91t76 37q84 0 113 -124q26 124 112 124q68 0 98.5 -70.5t30.5 -182.5v-10zM305 259h192
q0 53 -7.5 96.5t-30 78t-58.5 34.5q-27 0 -47 -20.5t-30 -53.5t-14.5 -66.5t-4.5 -68.5zM272 242q0 226 -96 226t-96 -226q0 -44 4.5 -81.5t14.5 -72t29.5 -54.5t47.5 -20q96 0 96 228z" />
    <glyph glyph-name="Racute" unicode="&#x154;" horiz-adv-x="366" 
d="M313 0h-36l-99 289h-74v-289h-32v667h100q61 0 98 -50t37 -139q0 -83 -29 -128t-69 -56zM171 319q50 0 75.5 43.5t25.5 115.5t-25.5 115.5t-75.5 43.5h-67v-318h67zM278 867l-95 -144h-24l78 144h41z" />
    <glyph glyph-name="racute" unicode="&#x155;" horiz-adv-x="227" 
d="M95 0h-30v483h30v-85q20 47 46.5 70.5t68.5 23.5v-36q-5 1 -15 1q-33 0 -59 -27.5t-41 -68.5v-361zM226 700l-95 -144h-24l78 144h41z" />
    <glyph glyph-name="Rcommaaccent" unicode="&#x156;" horiz-adv-x="366" 
d="M313 0h-36l-99 289h-74v-289h-32v667h100q61 0 98 -50t37 -139q0 -83 -29 -128t-69 -56zM171 319q50 0 75.5 43.5t25.5 115.5t-25.5 115.5t-75.5 43.5h-67v-318h67zM224 -137q0 -36 -18 -69.5t-44 -51.5l-22 18q24 18 38.5 43.5t14.5 48.5q-5 -1 -7 -1q-14 0 -23 9.5
t-9 23.5q0 13 9 22.5t23 9.5q16 0 27 -14t11 -39z" />
    <glyph glyph-name="rcommaaccent" unicode="&#x157;" horiz-adv-x="227" 
d="M95 0h-30v483h30v-85q20 47 46.5 70.5t68.5 23.5v-36q-5 1 -15 1q-33 0 -59 -27.5t-41 -68.5v-361zM157 -137q0 -36 -18 -69.5t-44 -51.5l-22 18q24 18 38.5 43.5t14.5 48.5q-5 -1 -7 -1q-14 0 -23 9.5t-9 23.5q0 13 9 22.5t23 9.5q16 0 27 -14t11 -39z" />
    <glyph glyph-name="Rcaron" unicode="&#x158;" horiz-adv-x="366" 
d="M313 0h-36l-99 289h-74v-289h-32v667h100q61 0 98 -50t37 -139q0 -83 -29 -128t-69 -56zM171 319q50 0 75.5 43.5t25.5 115.5t-25.5 115.5t-75.5 43.5h-67v-318h67zM200 723h-36l-71 144h23l66 -116l63 116h23z" />
    <glyph glyph-name="rcaron" unicode="&#x159;" horiz-adv-x="227" 
d="M95 0h-30v483h30v-85q20 47 46.5 70.5t68.5 23.5v-36q-5 1 -15 1q-33 0 -59 -27.5t-41 -68.5v-361zM153 556h-36l-71 144h23l66 -116l63 116h23z" />
    <glyph glyph-name="Sacute" unicode="&#x15a;" horiz-adv-x="319" 
d="M145 -12q-70 0 -118 57l24 26q16 -24 42 -38.5t52 -14.5q43 0 73 35.5t30 93.5q0 50 -21 91t-50.5 71t-59.5 59.5t-51 71.5t-21 92q0 66 37 106t88 40q59 0 97 -41l-19 -25q-32 36 -78 36q-38 0 -65.5 -32t-27.5 -84q0 -42 21 -79.5t50.5 -67t59.5 -61.5t51 -77.5
t21 -99.5q0 -68 -37.5 -113.5t-97.5 -45.5zM258 867l-95 -144h-24l78 144h41z" />
    <glyph glyph-name="sacute" unicode="&#x15b;" horiz-adv-x="278" 
d="M137 -12q-68 0 -109 59l22 21q36 -53 87 -53q32 0 55.5 25t23.5 65q0 37 -18 66.5t-43.5 50t-51 42t-43.5 53.5t-18 73q0 46 30.5 75.5t74.5 29.5q57 0 93 -51l-20 -20q-28 44 -73 44q-34 0 -54.5 -22.5t-20.5 -55.5q0 -35 18 -63t43.5 -49t51 -43t43.5 -55t18 -75
q0 -52 -32 -84.5t-77 -32.5zM231 700l-95 -144h-24l78 144h41z" />
    <glyph glyph-name="Scircumflex" unicode="&#x15c;" horiz-adv-x="319" 
d="M257 723h-23l-66 116l-63 -116h-23l68 144h36zM145 -12q-70 0 -118 57l24 26q16 -24 42 -38.5t52 -14.5q43 0 73 35.5t30 93.5q0 50 -21 91t-50.5 71t-59.5 59.5t-51 71.5t-21 92q0 66 37 106t88 40q59 0 97 -41l-19 -25q-32 36 -78 36q-38 0 -65.5 -32t-27.5 -84
q0 -42 21 -79.5t50.5 -67t59.5 -61.5t51 -77.5t21 -99.5q0 -68 -37.5 -113.5t-97.5 -45.5z" />
    <glyph glyph-name="scircumflex" unicode="&#x15d;" horiz-adv-x="278" 
d="M137 -12q-68 0 -109 59l22 21q36 -53 87 -53q32 0 55.5 25t23.5 65q0 37 -18 66.5t-43.5 50t-51 42t-43.5 53.5t-18 73q0 46 30.5 75.5t74.5 29.5q57 0 93 -51l-20 -20q-28 44 -73 44q-34 0 -54.5 -22.5t-20.5 -55.5q0 -35 18 -63t43.5 -49t51 -43t43.5 -55t18 -75
q0 -52 -32 -84.5t-77 -32.5zM232 556h-23l-66 116l-63 -116h-23l68 144h36z" />
    <glyph glyph-name="Scedilla" unicode="&#x15e;" horiz-adv-x="319" 
d="M140 -187q-37 0 -70 28l13 26q28 -27 57 -27q21 0 36.5 13.5t15.5 35.5q0 40 -33 40q-16 0 -31 -15l-21 12l23 63q-63 6 -103 56l24 26q16 -24 42 -38.5t52 -14.5q43 0 73 35.5t30 93.5q0 50 -21 91t-50.5 71t-59.5 59.5t-51 71.5t-21 92q0 66 37 106t88 40q59 0 97 -41
l-19 -25q-32 36 -78 36q-38 0 -65.5 -32t-27.5 -84q0 -42 21 -79.5t50.5 -67t59.5 -61.5t51 -77.5t21 -99.5q0 -64 -33.5 -108.5t-87.5 -49.5l-18 -48q11 10 29 10q21 0 36 -17t15 -45q0 -32 -23.5 -54t-57.5 -22z" />
    <glyph glyph-name="scedilla" unicode="&#x15f;" horiz-adv-x="278" 
d="M130 -187q-37 0 -70 28l13 26q28 -27 57 -27q21 0 36.5 13.5t15.5 35.5q0 40 -33 40q-16 0 -31 -15l-21 12l23 63q-56 6 -92 58l22 21q36 -53 87 -53q32 0 55.5 25t23.5 65q0 37 -18 66.5t-43.5 50t-51 42t-43.5 53.5t-18 73q0 46 30.5 75.5t74.5 29.5q57 0 93 -51
l-20 -20q-28 44 -73 44q-34 0 -54.5 -22.5t-20.5 -55.5q0 -35 18 -63t43.5 -49t51 -43t43.5 -55t18 -75q0 -48 -28 -79.5t-69 -36.5l-18 -48q11 10 29 10q21 0 36 -17t15 -45q0 -32 -23.5 -54t-57.5 -22z" />
    <glyph glyph-name="Scaron" unicode="&#x160;" horiz-adv-x="319" 
d="M189 723h-36l-71 144h23l66 -116l63 116h23zM145 -12q-70 0 -118 57l24 26q16 -24 42 -38.5t52 -14.5q43 0 73 35.5t30 93.5q0 50 -21 91t-50.5 71t-59.5 59.5t-51 71.5t-21 92q0 66 37 106t88 40q59 0 97 -41l-19 -25q-32 36 -78 36q-38 0 -65.5 -32t-27.5 -84
q0 -42 21 -79.5t50.5 -67t59.5 -61.5t51 -77.5t21 -99.5q0 -68 -37.5 -113.5t-97.5 -45.5z" />
    <glyph glyph-name="scaron" unicode="&#x161;" horiz-adv-x="278" 
d="M137 -12q-68 0 -109 59l22 21q36 -53 87 -53q32 0 55.5 25t23.5 65q0 37 -18 66.5t-43.5 50t-51 42t-43.5 53.5t-18 73q0 46 30.5 75.5t74.5 29.5q57 0 93 -51l-20 -20q-28 44 -73 44q-34 0 -54.5 -22.5t-20.5 -55.5q0 -35 18 -63t43.5 -49t51 -43t43.5 -55t18 -75
q0 -52 -32 -84.5t-77 -32.5zM164 556h-36l-71 144h23l66 -116l63 116h23z" />
    <glyph glyph-name="Tcommaaccent" unicode="&#x162;" horiz-adv-x="287" 
d="M159 0h-32v637h-109v30h251v-30h-110v-637zM187 -137q0 -36 -18 -69.5t-44 -51.5l-22 18q24 18 38.5 43.5t14.5 48.5q-5 -1 -7 -1q-14 0 -23 9.5t-9 23.5q0 13 9 22.5t23 9.5q16 0 27 -14t11 -39z" />
    <glyph glyph-name="tcommaaccent" unicode="&#x163;" horiz-adv-x="212" 
d="M142 -12q-64 0 -64 88v380h-52v27h52v132h30v-132h70v-27h-70v-380q0 -32 7.5 -46.5t26.5 -14.5q21 0 36 21l21 -18q-25 -30 -57 -30zM150 -137q0 -36 -18 -69.5t-44 -51.5l-22 18q24 18 38.5 43.5t14.5 48.5q-5 -1 -7 -1q-14 0 -23 9.5t-9 23.5q0 13 9 22.5t23 9.5
q16 0 27 -14t11 -39z" />
    <glyph glyph-name="Tcaron" unicode="&#x164;" horiz-adv-x="287" 
d="M159 0h-32v637h-109v30h251v-30h-110v-637zM163 723h-36l-71 144h23l66 -116l63 116h23z" />
    <glyph glyph-name="tcaron" unicode="&#x165;" horiz-adv-x="212" 
d="M142 -12q-64 0 -64 88v380h-52v27h52v132h30v-132h70v-27h-70v-380q0 -32 7.5 -46.5t26.5 -14.5q21 0 36 21l21 -18q-25 -30 -57 -30zM244 672q0 -36 -18 -69.5t-44 -51.5l-22 18q24 18 38.5 43.5t14.5 48.5q-5 -1 -7 -1q-14 0 -23 9.5t-9 23.5q0 13 9 22.5t23 9.5
q16 0 27 -14t11 -39z" />
    <glyph glyph-name="Tbar" unicode="&#x166;" horiz-adv-x="287" 
d="M159 0h-32v321h-80v27h80v289h-109v30h251v-30h-110v-289h80v-27h-80v-321z" />
    <glyph glyph-name="tbar" unicode="&#x167;" horiz-adv-x="212" 
d="M146 242h-38v-166q0 -32 7.5 -46.5t26.5 -14.5q21 0 36 21l21 -18q-25 -30 -57 -30q-64 0 -64 88v166h-52v27h52v187h-52v27h52v132h30v-132h70v-27h-70v-187h38v-27z" />
    <glyph glyph-name="Utilde" unicode="&#x168;" horiz-adv-x="396" 
d="M198 -12q-126 0 -126 166v513h32v-513q0 -136 94 -136t94 136v513h32v-513q0 -166 -126 -166zM236 721q-19 0 -31 17.5t-15.5 39t-11.5 39t-20 17.5q-38 0 -38 -107h-22q0 134 63 134q19 0 31 -17.5t15.5 -39t11.5 -39t20 -17.5q38 0 38 107h22q0 -134 -63 -134z" />
    <glyph glyph-name="utilde" unicode="&#x169;" 
d="M277 0h-30v70q-39 -82 -103 -82q-42 0 -60.5 23.5t-18.5 77.5v394h30v-394q0 -74 53 -74q31 0 58 26.5t41 65.5v376h30v-483zM208 554q-19 0 -31 17.5t-15.5 39t-11.5 39t-20 17.5q-38 0 -38 -107h-22q0 134 63 134q19 0 31 -17.5t15.5 -39t11.5 -39t20 -17.5
q38 0 38 107h22q0 -134 -63 -134z" />
    <glyph glyph-name="Umacron" unicode="&#x16a;" horiz-adv-x="396" 
d="M198 -12q-126 0 -126 166v513h32v-513q0 -136 94 -136t94 136v513h32v-513q0 -166 -126 -166zM318 748h-240v27h240v-27z" />
    <glyph glyph-name="umacron" unicode="&#x16b;" 
d="M277 0h-30v70q-39 -82 -103 -82q-42 0 -60.5 23.5t-18.5 77.5v394h30v-394q0 -74 53 -74q31 0 58 26.5t41 65.5v376h30v-483zM291 581h-240v27h240v-27z" />
    <glyph glyph-name="Ubreve" unicode="&#x16c;" horiz-adv-x="396" 
d="M198 -12q-126 0 -126 166v513h32v-513q0 -136 94 -136t94 136v513h32v-513q0 -166 -126 -166zM314 784q-42 -58 -115 -58t-115 58l22 18q14 -22 40 -35.5t53 -13.5t53 13.5t40 35.5z" />
    <glyph glyph-name="ubreve" unicode="&#x16d;" 
d="M277 0h-30v70q-39 -82 -103 -82q-42 0 -60.5 23.5t-18.5 77.5v394h30v-394q0 -74 53 -74q31 0 58 26.5t41 65.5v376h30v-483zM286 617q-42 -58 -115 -58t-115 58l22 18q14 -22 40 -35.5t53 -13.5t53 13.5t40 35.5z" />
    <glyph glyph-name="Uring" unicode="&#x16e;" horiz-adv-x="396" 
d="M198 -12q-126 0 -126 166v513h32v-513q0 -136 94 -136t94 136v513h32v-513q0 -166 -126 -166zM198 720q-32 0 -55 23t-23 55t23 55t55 23t54.5 -23t22.5 -55t-22.5 -55t-54.5 -23zM198 744q22 0 38 16t16 38t-16 38t-38 16t-38 -16t-16 -38t16 -38t38 -16z" />
    <glyph glyph-name="uring" unicode="&#x16f;" 
d="M277 0h-30v70q-39 -82 -103 -82q-42 0 -60.5 23.5t-18.5 77.5v394h30v-394q0 -74 53 -74q31 0 58 26.5t41 65.5v376h30v-483zM171 553q-32 0 -55 23t-23 55t23 55t55 23t54.5 -23t22.5 -55t-22.5 -55t-54.5 -23zM171 577q23 0 38.5 15.5t15.5 38.5t-15.5 38.5t-38.5 15.5
t-38.5 -15.5t-15.5 -38.5t15.5 -38.5t38.5 -15.5z" />
    <glyph glyph-name="Uhungarumlaut" unicode="&#x170;" horiz-adv-x="396" 
d="M198 -12q-126 0 -126 166v513h32v-513q0 -136 94 -136t94 136v513h32v-513q0 -166 -126 -166zM222 867l-75 -144h-20l58 144h37zM328 867l-75 -144h-20l58 144h37z" />
    <glyph glyph-name="uhungarumlaut" unicode="&#x171;" 
d="M277 0h-30v70q-39 -82 -103 -82q-42 0 -60.5 23.5t-18.5 77.5v394h30v-394q0 -74 53 -74q31 0 58 26.5t41 65.5v376h30v-483zM195 700l-75 -144h-20l58 144h37zM301 700l-75 -144h-20l58 144h37z" />
    <glyph glyph-name="Uogonek" unicode="&#x172;" horiz-adv-x="396" 
d="M198 -12q-126 0 -126 166v513h32v-513q0 -136 94 -136t94 136v513h32v-513q0 -124 -70 -155q-70 -48 -70 -114q0 -44 32 -44q30 0 38 37l25 -11q-14 -53 -63 -53q-28 0 -44.5 18t-16.5 53q0 57 44 103h-1z" />
    <glyph glyph-name="uogonek" unicode="&#x173;" 
d="M275 -122l25 -11q-14 -53 -63 -53q-28 0 -44.5 18t-16.5 53q0 75 71 127v58q-39 -82 -103 -82q-42 0 -60.5 23.5t-18.5 77.5v394h30v-394q0 -74 53 -74q31 0 58 26.5t41 65.5v376h30v-483q-72 -49 -72 -115q0 -44 32 -44q30 0 38 37z" />
    <glyph glyph-name="Wcircumflex" unicode="&#x174;" horiz-adv-x="490" 
d="M366 0h-38l-83 587l-83 -587h-38l-100 667h35l84 -604l85 604h34l85 -604l84 604h35zM333 723h-23l-66 116l-63 -116h-23l68 144h36z" />
    <glyph glyph-name="wcircumflex" unicode="&#x175;" horiz-adv-x="484" 
d="M364 0h-30l-92 440l-92 -440h-30l-100 483h33l82 -436l89 436h36l89 -436l82 436h33zM329 556h-23l-66 116l-63 -116h-23l68 144h36z" />
    <glyph glyph-name="Ycircumflex" unicode="&#x176;" horiz-adv-x="322" 
d="M249 723h-23l-66 116l-63 -116h-23l68 144h36zM177 0h-32v289l-143 378h36l123 -339l125 339h34l-143 -378v-289z" />
    <glyph glyph-name="ycircumflex" unicode="&#x177;" horiz-adv-x="279" 
d="M27 -189l7 27q10 -7 24 -7q18 0 27 11.5t17 42.5l23 97l-109 501h33l90 -443l91 443h33l-137 -606q-9 -40 -25.5 -56.5t-42.5 -16.5q-19 0 -31 7zM227 556h-23l-66 116l-63 -116h-23l68 144h36z" />
    <glyph glyph-name="Ydieresis" unicode="&#x178;" horiz-adv-x="322" 
d="M254 765q0 -11 -8.5 -19.5t-19.5 -8.5t-19.5 8.5t-8.5 19.5t8.5 19.5t19.5 8.5t19.5 -8.5t8.5 -19.5zM132 765q0 -11 -8.5 -19.5t-19.5 -8.5t-19.5 8.5t-8.5 19.5t8.5 19.5t19.5 8.5t19.5 -8.5t8.5 -19.5zM177 0h-32v289l-143 378h36l123 -339l125 339h34l-143 -378v-289
z" />
    <glyph glyph-name="Zacute" unicode="&#x179;" horiz-adv-x="309" 
d="M273 0h-237v31l197 606h-197v30h230v-30l-198 -607h205v-30zM243 867l-95 -144h-24l78 144h41z" />
    <glyph glyph-name="zacute" unicode="&#x17a;" horiz-adv-x="275" 
d="M234 0h-193v27l158 429h-158v27h189v-27l-156 -429h160v-27zM226 700l-95 -144h-24l78 144h41z" />
    <glyph glyph-name="Zdotaccent" unicode="&#x17b;" horiz-adv-x="309" 
d="M273 0h-237v31l197 606h-197v30h230v-30l-198 -607h205v-30zM154 733q-11 0 -20 8.5t-9 20.5t9 20.5t20 8.5q12 0 20.5 -8.5t8.5 -20.5t-8.5 -20.5t-20.5 -8.5z" />
    <glyph glyph-name="zdotaccent" unicode="&#x17c;" horiz-adv-x="275" 
d="M234 0h-193v27l158 429h-158v27h189v-27l-156 -429h160v-27zM137 566q-11 0 -20 8.5t-9 20.5t9 20.5t20 8.5q12 0 20.5 -8.5t8.5 -20.5t-8.5 -20.5t-20.5 -8.5z" />
    <glyph glyph-name="Zcaron" unicode="&#x17d;" horiz-adv-x="309" 
d="M175 723h-36l-71 144h23l66 -116l63 116h23zM273 0h-237v31l197 606h-197v30h230v-30l-198 -607h205v-30z" />
    <glyph glyph-name="zcaron" unicode="&#x17e;" horiz-adv-x="275" 
d="M234 0h-193v27l158 429h-158v27h189v-27l-156 -429h160v-27zM155 556h-36l-71 144h23l66 -116l63 116h23z" />
    <glyph glyph-name="longs" unicode="&#x17f;" horiz-adv-x="202" 
d="M108 0h-30v456h-50v27h50v107q0 39 21.5 63t57.5 24t56 -27l-20 -23q-16 23 -36 23q-49 0 -49 -60v-590z" />
    <glyph glyph-name="florin" unicode="&#x192;" horiz-adv-x="335" 
d="M62 -161h-32l94 428h-50v30h57l65 293q8 39 35 63t63 24q35 0 51 -26l-24 -20q-9 16 -31 16q-49 0 -62 -60l-64 -290h100v-30h-107z" />
    <glyph glyph-name="Ohorn" unicode="&#x1a0;" horiz-adv-x="396" 
d="M198 -12q-53 0 -86.5 49.5t-46 123t-12.5 172.5t12.5 172.5t46 123t86.5 49.5q78 0 114 -106q39 39 39 80q-5 -1 -7 -1q-14 0 -23 9.5t-9 23.5q0 13 9 22.5t23 9.5q16 0 27 -14t11 -39q0 -36 -18 -69t-43 -51q22 -81 22 -210q0 -99 -12.5 -172.5t-46 -123t-86.5 -49.5z
M198 18q57 0 83.5 88.5t26.5 226.5q0 139 -26.5 227t-83.5 88t-83.5 -88t-26.5 -227q0 -138 26.5 -226.5t83.5 -88.5z" />
    <glyph glyph-name="ohorn" unicode="&#x1a1;" horiz-adv-x="352" 
d="M333 529q0 -33 -15.5 -64.5t-38.5 -50.5q26 -64 26 -172q0 -111 -30.5 -182.5t-98.5 -71.5q-46 0 -76 37t-41.5 91.5t-11.5 125.5t11.5 125t41.5 91t76 37q57 0 90 -54q36 38 36 77q-5 -1 -7 -1q-14 0 -23 9.5t-9 23.5q0 13 9 22.5t23 9.5q16 0 27 -14t11 -39zM176 15
q96 0 96 227q0 226 -96 226t-96 -226q0 -227 96 -227z" />
    <glyph glyph-name="Uhorn" unicode="&#x1af;" horiz-adv-x="396" 
d="M415 730q0 -40 -24 -78.5t-67 -63.5v-434q0 -166 -126 -166t-126 166v513h32v-513q0 -136 94 -136t94 136v513h32v-46q26 17 43 46t17 52q-5 -1 -7 -1q-14 0 -23 9.5t-9 23.5q0 13 9 22.5t23 9.5q16 0 27 -14t11 -39z" />
    <glyph glyph-name="uhorn" unicode="&#x1b0;" 
d="M277 0h-30v70q-39 -82 -103 -82q-42 0 -60.5 23.5t-18.5 77.5v394h30v-394q0 -74 53 -74q31 0 58 26.5t41 65.5v376h30v-56q23 18 37 44.5t14 46.5q-5 -1 -7 -1q-14 0 -23 9.5t-9 23.5q0 13 9 22.5t23 9.5q16 0 27 -14t11 -39q0 -38 -21.5 -74.5t-60.5 -62.5v-392z" />
    <glyph glyph-name="AEacute" unicode="&#x1fc;" horiz-adv-x="509" 
d="M456 0h-210v179h-136l-55 -179h-33l211 667h223v-30h-178v-279h171v-30h-171v-298h178v-30zM246 209v411l-127 -411h127zM352 867l-95 -144h-24l78 144h41z" />
    <glyph glyph-name="aeacute" unicode="&#x1fd;" horiz-adv-x="543" 
d="M502 232h-218q0 -100 28.5 -158.5t80.5 -58.5q21 0 41.5 18t34.5 50l28 -14q-41 -81 -107 -81q-48 0 -75 29.5t-45 80.5q-27 -110 -107 -110q-57 0 -89.5 44.5t-32.5 115.5q0 72 32.5 117t89.5 45q59 0 91 -63v101q0 61 -18 90.5t-62 29.5q-54 0 -97 -54l-18 23
q54 58 111 58q97 0 106 -99q11 43 35.5 71t61.5 28q68 0 98.5 -70.5t30.5 -182.5v-10zM284 259h185q0 53 -7 96.5t-29 78t-57 34.5q-26 0 -45 -20.5t-29 -53.5t-14 -66.5t-4 -68.5zM254 184v24q-27 75 -92 75q-41 0 -64.5 -35.5t-23.5 -98.5t23.5 -98.5t64.5 -35.5
q43 0 67.5 44t24.5 125zM353 700l-95 -144h-24l78 144h41z" />
    <glyph glyph-name="Oslashacute" unicode="&#x1fe;" horiz-adv-x="396" 
d="M287 867l-95 -144h-24l78 144h41zM198 -12q-54 0 -89 52l-14 -40h-33l27 77q-36 89 -36 256q0 99 12.5 172.5t46 123t86.5 49.5q55 0 88 -52l15 41h33l-28 -78q37 -91 37 -256q0 -99 -12.5 -172.5t-46 -123t-86.5 -49.5zM198 18q57 0 83.5 88.5t26.5 226.5q0 125 -20 205
l-164 -458q27 -62 74 -62zM88 333q0 -129 20 -205l164 458q-28 62 -74 62q-57 0 -83.5 -88t-26.5 -227z" />
    <glyph glyph-name="oslashacute" unicode="&#x1ff;" horiz-adv-x="352" 
d="M265 700l-95 -144h-24l78 144h41zM86 0h-29l23 54q-33 66 -33 188q0 71 11.5 125t41.5 91t76 37q48 0 78 -38l12 26h29l-23 -54q33 -65 33 -187q0 -111 -30.5 -182.5t-98.5 -71.5q-48 0 -79 39zM176 15q96 0 96 227q0 93 -17 148l-144 -331q24 -44 65 -44zM80 242
q0 -94 17 -149l143 331q-23 44 -64 44q-96 0 -96 -226z" />
    <glyph glyph-name="Scommaaccent" unicode="&#x218;" horiz-adv-x="319" 
d="M145 -12q-70 0 -118 57l24 26q16 -24 42 -38.5t52 -14.5q43 0 73 35.5t30 93.5q0 50 -21 91t-50.5 71t-59.5 59.5t-51 71.5t-21 92q0 66 37 106t88 40q59 0 97 -41l-19 -25q-32 36 -78 36q-38 0 -65.5 -32t-27.5 -84q0 -42 21 -79.5t50.5 -67t59.5 -61.5t51 -77.5
t21 -99.5q0 -68 -37.5 -113.5t-97.5 -45.5zM195 -137q0 -36 -18 -69.5t-44 -51.5l-22 18q24 18 38.5 43.5t14.5 48.5q-5 -1 -7 -1q-14 0 -23 9.5t-9 23.5q0 13 9 22.5t23 9.5q16 0 27 -14t11 -39z" />
    <glyph glyph-name="scommaaccent" unicode="&#x219;" horiz-adv-x="278" 
d="M137 -12q-68 0 -109 59l22 21q36 -53 87 -53q32 0 55.5 25t23.5 65q0 37 -18 66.5t-43.5 50t-51 42t-43.5 53.5t-18 73q0 46 30.5 75.5t74.5 29.5q57 0 93 -51l-20 -20q-28 44 -73 44q-34 0 -54.5 -22.5t-20.5 -55.5q0 -35 18 -63t43.5 -49t51 -43t43.5 -55t18 -75
q0 -52 -32 -84.5t-77 -32.5zM181 -137q0 -36 -18 -69.5t-44 -51.5l-22 18q24 18 38.5 43.5t14.5 48.5q-5 -1 -7 -1q-14 0 -23 9.5t-9 23.5q0 13 9 22.5t23 9.5q16 0 27 -14t11 -39z" />
    <glyph glyph-name="uni021A" unicode="&#x21a;" horiz-adv-x="287" 
d="M159 0h-32v637h-109v30h251v-30h-110v-637zM187 -137q0 -36 -18 -69.5t-44 -51.5l-22 18q24 18 38.5 43.5t14.5 48.5q-5 -1 -7 -1q-14 0 -23 9.5t-9 23.5q0 13 9 22.5t23 9.5q16 0 27 -14t11 -39z" />
    <glyph glyph-name="uni021B" unicode="&#x21b;" horiz-adv-x="212" 
d="M142 -12q-64 0 -64 88v380h-52v27h52v132h30v-132h70v-27h-70v-380q0 -32 7.5 -46.5t26.5 -14.5q21 0 36 21l21 -18q-25 -30 -57 -30zM150 -137q0 -36 -18 -69.5t-44 -51.5l-22 18q24 18 38.5 43.5t14.5 48.5q-5 -1 -7 -1q-14 0 -23 9.5t-9 23.5q0 13 9 22.5t23 9.5
q16 0 27 -14t11 -39z" />
    <glyph glyph-name="uni0237" unicode="&#x237;" horiz-adv-x="160" 
d="M31 -196q-41 0 -57 38l27 14q10 -25 30 -25q34 0 34 73v579h30v-579q0 -100 -64 -100z" />
    <glyph glyph-name="hsuperior" unicode="&#x2b0;" horiz-adv-x="267" 
d="M215 326h-28v247q0 52 -39 52q-20 0 -38.5 -17.5t-29.5 -41.5v-240h-28v434h28v-166q12 22 32.5 38t41.5 16q32 0 46.5 -17t14.5 -55v-250z" />
    <glyph glyph-name="uni02BC" unicode="&#x2bc;" horiz-adv-x="208" 
d="M141 624q0 -36 -18 -69.5t-44 -51.5l-22 18q24 18 38.5 43.5t14.5 48.5q-5 -1 -7 -1q-14 0 -23 9.5t-9 23.5q0 13 9 22.5t23 9.5q16 0 27 -14t11 -39z" />
    <glyph glyph-name="circumflex" unicode="&#x2c6;" horiz-adv-x="175" 
d="M175 556h-23l-66 116l-63 -116h-23l68 144h36z" />
    <glyph glyph-name="caron" unicode="&#x2c7;" horiz-adv-x="175" 
d="M107 556h-36l-71 144h23l66 -116l63 116h23z" />
    <glyph glyph-name="uni02C9" unicode="&#x2c9;" horiz-adv-x="240" 
d="M240 591h-240v27h240v-27z" />
    <glyph glyph-name="uni02CB" unicode="&#x2cb;" horiz-adv-x="119" 
d="M119 556h-24l-95 144h41z" />
    <glyph glyph-name="breve" unicode="&#x2d8;" horiz-adv-x="230" 
d="M230 617q-42 -58 -115 -58t-115 58l22 18q14 -22 40 -35.5t53 -13.5t53 13.5t40 35.5z" />
    <glyph glyph-name="dotaccent" unicode="&#x2d9;" horiz-adv-x="58" 
d="M29 566q-11 0 -20 8.5t-9 20.5t9 20.5t20 8.5q12 0 20.5 -8.5t8.5 -20.5t-8.5 -20.5t-20.5 -8.5z" />
    <glyph glyph-name="ring" unicode="&#x2da;" horiz-adv-x="155" 
d="M78 553q-32 0 -55 23t-23 55t23 55t55 23t54.5 -23t22.5 -55t-22.5 -55t-54.5 -23zM78 577q22 0 38 15.5t16 38.5t-16 38.5t-38 15.5t-38 -15.5t-16 -38.5t16 -38.5t38 -15.5z" />
    <glyph glyph-name="ogonek" unicode="&#x2db;" horiz-adv-x="124" 
d="M99 -122l25 -11q-14 -53 -63 -53q-28 0 -44.5 18t-16.5 53q0 77 78 132l23 -17q-72 -49 -72 -115q0 -44 32 -44q30 0 38 37z" />
    <glyph glyph-name="tilde" unicode="&#x2dc;" horiz-adv-x="201" 
d="M138 554q-19 0 -31 17.5t-15.5 39t-11.5 39t-20 17.5q-38 0 -38 -107h-22q0 134 63 134q19 0 31 -17.5t15.5 -39t11.5 -39t20 -17.5q38 0 38 107h22q0 -134 -63 -134z" />
    <glyph glyph-name="hungarumlaut" unicode="&#x2dd;" horiz-adv-x="201" 
d="M95 700l-75 -144h-20l58 144h37zM201 700l-75 -144h-20l58 144h37z" />
    <glyph glyph-name="hookabovecomb" unicode="&#x309;" horiz-adv-x="124" 
d="M34 742l-21 6q10 42 50 42q49 0 49 -57q0 -35 -23 -66h-25q25 31 25 66t-26 35q-23 0 -29 -26z" />
    <glyph glyph-name="uni037E" unicode="&#x37e;" horiz-adv-x="208" 
d="M104 425q-13 0 -23 9.5t-10 22.5t9.5 23t23.5 10t23.5 -10t9.5 -23t-10 -22.5t-23 -9.5zM141 3q0 -36 -18 -69.5t-44 -51.5l-22 18q24 18 38.5 43.5t14.5 48.5q-5 -1 -7 -1q-14 0 -23 9.5t-9 23.5q0 13 9 22.5t23 9.5q16 0 27 -14t11 -39z" />
    <glyph glyph-name="tonos" unicode="&#x384;" horiz-adv-x="176" 
d="M119 575h-22l17 190h52z" />
    <glyph glyph-name="dieresistonos" unicode="&#x385;" 
d="M177 575h-22l17 190h52zM297 598q0 -11 -8.5 -19.5t-19.5 -8.5t-19.5 8.5t-8.5 19.5t8.5 19.5t19.5 8.5t19.5 -8.5t8.5 -19.5zM101 598q0 -11 -8.5 -19.5t-19.5 -8.5t-19.5 8.5t-8.5 19.5t8.5 19.5t19.5 8.5t19.5 -8.5t8.5 -19.5z" />
    <glyph glyph-name="Alphatonos" unicode="&#x386;" horiz-adv-x="312" 
d="M68 575h-22l17 190h52zM300 0h-33l-32 179h-158l-32 -179h-33l125 667h38zM230 209l-74 411l-74 -411h148z" />
    <glyph glyph-name="Epsilontonos" unicode="&#x388;" horiz-adv-x="330" 
d="M12 575h-22l17 190h52zM282 0h-210v667h210v-30h-178v-279h171v-30h-171v-298h178v-30z" />
    <glyph glyph-name="Etatonos" unicode="&#x389;" horiz-adv-x="395" 
d="M12 575h-22l17 190h52zM323 0h-32v328h-187v-328h-32v667h32v-309h187v309h32v-667z" />
    <glyph glyph-name="Iotatonos" unicode="&#x38a;" horiz-adv-x="176" 
d="M12 575h-22l17 190h52zM104 0h-32v667h32v-667z" />
    <glyph glyph-name="Omicrontonos" unicode="&#x38c;" horiz-adv-x="396" 
d="M38 575h-22l17 190h52zM198 -12q-53 0 -86.5 49.5t-46 123t-12.5 172.5t12.5 172.5t46 123t86.5 49.5t86.5 -49.5t46 -123t12.5 -172.5t-12.5 -172.5t-46 -123t-86.5 -49.5zM198 18q57 0 83.5 88.5t26.5 226.5q0 139 -26.5 227t-83.5 88t-83.5 -88t-26.5 -227
q0 -138 26.5 -226.5t83.5 -88.5z" />
    <glyph glyph-name="Upsilontonos" unicode="&#x38e;" horiz-adv-x="361" 
d="M2 575h-22l17 190h52zM216 0h-32v289l-143 378h36l123 -339l125 339h34l-143 -378v-289z" />
    <glyph glyph-name="Omegatonos" unicode="&#x38f;" horiz-adv-x="376" 
d="M38 575h-22l17 190h52zM52 30h70q-30 37 -54.5 112.5t-24.5 190.5q0 164 36 254.5t109 90.5t109 -90.5t36 -254.5q0 -115 -24.5 -190.5t-54.5 -112.5h70v-30h-100v30q28 26 51 98.5t23 204.5q0 314 -110 314t-110 -314q0 -132 23 -204.5t51 -98.5v-30h-100v30z" />
    <glyph glyph-name="iotadieresistonos" unicode="&#x390;" horiz-adv-x="167" 
d="M129 -12q-64 0 -64 88v407h30v-407q0 -32 7.5 -46.5t26.5 -14.5q8 0 14 1l3 -26q-8 -2 -17 -2zM90 575h-22l17 190h52zM210 598q0 -11 -8.5 -19.5t-19.5 -8.5t-19.5 8.5t-8.5 19.5t8.5 19.5t19.5 8.5t19.5 -8.5t8.5 -19.5zM14 598q0 -11 -8.5 -19.5t-19.5 -8.5t-19.5 8.5
t-8.5 19.5t8.5 19.5t19.5 8.5t19.5 -8.5t8.5 -19.5z" />
    <glyph glyph-name="Alpha" unicode="&#x391;" horiz-adv-x="312" 
d="M300 0h-33l-32 179h-158l-32 -179h-33l125 667h38zM230 209l-74 411l-74 -411h148z" />
    <glyph glyph-name="Beta" unicode="&#x392;" horiz-adv-x="360" 
d="M172 0h-100v667h96q60 0 95 -44.5t35 -125.5q0 -120 -78 -153q38 -7 62.5 -55.5t24.5 -108.5q0 -87 -34 -133.5t-101 -46.5zM168 358q95 0 95 139q0 140 -95 140h-64v-279h64zM172 30q100 0 100 149q0 64 -24 106.5t-76 42.5h-68v-298h68z" />
    <glyph glyph-name="Gamma" unicode="&#x393;" horiz-adv-x="330" 
d="M104 0h-32v667h210v-30h-178v-637z" />
    <glyph glyph-name="uni0394" unicode="&#x394;" horiz-adv-x="352" 
d="M340 0h-328l145 667h38zM301 30l-125 590l-125 -590h250z" />
    <glyph glyph-name="Epsilon" unicode="&#x395;" horiz-adv-x="330" 
d="M282 0h-210v667h210v-30h-178v-279h171v-30h-171v-298h178v-30z" />
    <glyph glyph-name="Zeta" unicode="&#x396;" horiz-adv-x="309" 
d="M273 0h-237v31l197 606h-197v30h230v-30l-198 -607h205v-30z" />
    <glyph glyph-name="Eta" unicode="&#x397;" horiz-adv-x="395" 
d="M323 0h-32v328h-187v-328h-32v667h32v-309h187v309h32v-667z" />
    <glyph glyph-name="Theta" unicode="&#x398;" horiz-adv-x="396" 
d="M278 328h-160v30h160v-30zM198 -12q-53 0 -86.5 49.5t-46 123t-12.5 172.5t12.5 172.5t46 123t86.5 49.5t86.5 -49.5t46 -123t12.5 -172.5t-12.5 -172.5t-46 -123t-86.5 -49.5zM198 18q57 0 83.5 88.5t26.5 226.5q0 139 -26.5 227t-83.5 88t-83.5 -88t-26.5 -227
q0 -138 26.5 -226.5t83.5 -88.5z" />
    <glyph glyph-name="Iota" unicode="&#x399;" horiz-adv-x="176" 
d="M104 0h-32v667h32v-667z" />
    <glyph glyph-name="Kappa" unicode="&#x39a;" horiz-adv-x="372" 
d="M354 0h-39l-164 319l-47 -88v-231h-32v667h32v-380l198 380h39l-174 -319z" />
    <glyph glyph-name="Lambda" unicode="&#x39b;" horiz-adv-x="312" 
d="M300 0h-33l-111 620l-111 -620h-33l125 667h38z" />
    <glyph glyph-name="Mu" unicode="&#x39c;" horiz-adv-x="508" 
d="M436 0h-32v609l-141 -609h-18l-141 609v-609h-32v667h52l130 -557l131 557h51v-667z" />
    <glyph glyph-name="Nu" unicode="&#x39d;" horiz-adv-x="395" 
d="M323 0h-32l-187 575v-575h-32v667h32l187 -569v569h32v-667z" />
    <glyph glyph-name="Xi" unicode="&#x39e;" horiz-adv-x="348" 
d="M300 637h-251v30h251v-30zM299 0h-251v30h251v-30zM293 328h-237v30h237v-30z" />
    <glyph glyph-name="Omicron" unicode="&#x39f;" horiz-adv-x="396" 
d="M198 -12q-53 0 -86.5 49.5t-46 123t-12.5 172.5t12.5 172.5t46 123t86.5 49.5t86.5 -49.5t46 -123t12.5 -172.5t-12.5 -172.5t-46 -123t-86.5 -49.5zM198 18q57 0 83.5 88.5t26.5 226.5q0 139 -26.5 227t-83.5 88t-83.5 -88t-26.5 -227q0 -138 26.5 -226.5t83.5 -88.5z
" />
    <glyph glyph-name="Pi" unicode="&#x3a0;" horiz-adv-x="395" 
d="M323 0h-32v637h-187v-637h-32v667h251v-667z" />
    <glyph glyph-name="Rho" unicode="&#x3a1;" horiz-adv-x="341" 
d="M104 0h-32v667h100q67 0 101 -53.5t34 -135.5t-34 -135.5t-101 -53.5h-68v-289zM171 319q50 0 75.5 43.5t25.5 115.5t-25.5 115.5t-75.5 43.5h-67v-318h67z" />
    <glyph glyph-name="Sigma" unicode="&#x3a3;" horiz-adv-x="294" 
d="M81 637l118 -292l-119 -315h178v-30h-210v31l118 313l-118 293v30h210v-30h-177z" />
    <glyph glyph-name="Tau" unicode="&#x3a4;" horiz-adv-x="287" 
d="M159 0h-32v637h-109v30h251v-30h-110v-637z" />
    <glyph glyph-name="Upsilon" unicode="&#x3a5;" horiz-adv-x="322" 
d="M177 0h-32v289l-143 378h36l123 -339l125 339h34l-143 -378v-289z" />
    <glyph glyph-name="Phi" unicode="&#x3a6;" horiz-adv-x="524" 
d="M278 0h-32v64q-53 3 -91.5 26.5t-60 62t-31.5 83.5t-10 97t10 97t31.5 83t60 61.5t91.5 26.5v66h32v-66q101 -6 147 -81.5t46 -186.5q0 -71 -17 -127t-62 -97t-114 -45v-64zM88 333q0 -64 14 -114t51 -85.5t93 -39.5v477q-83 -6 -120.5 -72t-37.5 -166zM436 333
q0 64 -14.5 114t-51.5 85t-92 39v-477q81 6 119.5 73t38.5 166z" />
    <glyph glyph-name="Chi" unicode="&#x3a7;" horiz-adv-x="308" 
d="M300 0h-36l-110 302l-110 -302h-36l128 338l-121 329h37l102 -291l102 291h37l-121 -328z" />
    <glyph glyph-name="Psi" unicode="&#x3a8;" horiz-adv-x="518" 
d="M275 0h-32v124q-171 10 -171 209v334h32v-334q0 -169 139 -179v513h32v-513q139 10 139 179v334h32v-334q0 -199 -171 -209v-124z" />
    <glyph glyph-name="uni03A9" unicode="&#x3a9;" horiz-adv-x="376" 
d="M52 30h70q-30 37 -54.5 112.5t-24.5 190.5q0 164 36 254.5t109 90.5t109 -90.5t36 -254.5q0 -115 -24.5 -190.5t-54.5 -112.5h70v-30h-100v30q28 26 51 98.5t23 204.5q0 314 -110 314t-110 -314q0 -132 23 -204.5t51 -98.5v-30h-100v30z" />
    <glyph glyph-name="Iotadieresis" unicode="&#x3aa;" horiz-adv-x="176" 
d="M104 0h-32v667h32v-667zM177 782q0 -11 -8.5 -19.5t-19.5 -8.5t-19.5 8.5t-8.5 19.5t8.5 19.5t19.5 8.5t19.5 -8.5t8.5 -19.5zM55 782q0 -11 -8.5 -19.5t-19.5 -8.5t-19.5 8.5t-8.5 19.5t8.5 19.5t19.5 8.5t19.5 -8.5t8.5 -19.5z" />
    <glyph glyph-name="Upsilondieresis" unicode="&#x3ab;" horiz-adv-x="322" 
d="M177 0h-32v289l-143 378h36l123 -339l125 339h34l-143 -378v-289zM250 782q0 -11 -8.5 -19.5t-19.5 -8.5t-19.5 8.5t-8.5 19.5t8.5 19.5t19.5 8.5t19.5 -8.5t8.5 -19.5zM128 782q0 -11 -8.5 -19.5t-19.5 -8.5t-19.5 8.5t-8.5 19.5t8.5 19.5t19.5 8.5t19.5 -8.5t8.5 -19.5
z" />
    <glyph glyph-name="alphatonos" unicode="&#x3ac;" horiz-adv-x="358" 
d="M334 16l3 -26q-8 -2 -17 -2q-62 0 -64 82q-15 -37 -39.5 -59.5t-48.5 -22.5q-42 0 -70 34.5t-39.5 89.5t-11.5 129q0 114 29.5 184t91.5 70q25 0 49.5 -21.5t38.5 -62.5v72h30v-407q0 -32 7 -46.5t26 -14.5q9 0 15 1zM168 15q28 0 53.5 30t34.5 70v251q-9 40 -34.5 71
t-53.5 31q-88 0 -88 -227q0 -226 88 -226zM186 575h-22l17 190h52z" />
    <glyph glyph-name="epsilontonos" unicode="&#x3ad;" horiz-adv-x="327" 
d="M176 -12q-64 0 -96.5 39.5t-32.5 99.5q0 47 25.5 79t62.5 39q-39 11 -61 46t-22 76q0 56 37 92t92 36q82 0 115 -81l-29 -14q-25 68 -86 68q-43 0 -69.5 -27t-26.5 -74q0 -50 26 -79t65 -29h64v-27h-64q-96 0 -96 -104q0 -50 26 -81.5t70 -31.5q64 0 96 68l28 -14
q-38 -81 -124 -81zM171 575h-22l17 190h52z" />
    <glyph glyph-name="etatonos" unicode="&#x3ae;" 
d="M277 -184h-30v578q0 74 -53 74q-30 0 -57 -27.5t-42 -66.5v-374h-30v483h30v-72q18 37 45 60.5t58 23.5q41 0 60 -24.5t19 -76.5v-578zM178 575h-22l17 190h52z" />
    <glyph glyph-name="iotatonos" unicode="&#x3af;" horiz-adv-x="167" 
d="M129 -12q-64 0 -64 88v407h30v-407q0 -32 7.5 -46.5t26.5 -14.5q8 0 14 1l3 -26q-8 -2 -17 -2zM91 575h-22l17 190h52z" />
    <glyph glyph-name="upsilondieresistonos" unicode="&#x3b0;" horiz-adv-x="347" 
d="M171 -12q-61 0 -83.5 40.5t-22.5 115.5v339h30v-339q0 -67 17.5 -98t58.5 -31q96 0 96 227q0 127 -59 239l27 14q65 -119 65 -253q0 -111 -30.5 -182.5t-98.5 -71.5zM179 575h-22l17 190h52zM299 598q0 -11 -8.5 -19.5t-19.5 -8.5t-19.5 8.5t-8.5 19.5t8.5 19.5t19.5 8.5
t19.5 -8.5t8.5 -19.5zM103 598q0 -11 -8.5 -19.5t-19.5 -8.5t-19.5 8.5t-8.5 19.5t8.5 19.5t19.5 8.5t19.5 -8.5t8.5 -19.5z" />
    <glyph glyph-name="alpha" unicode="&#x3b1;" horiz-adv-x="358" 
d="M334 16l3 -26q-8 -2 -17 -2q-62 0 -64 82q-15 -37 -39.5 -59.5t-48.5 -22.5q-42 0 -70 34.5t-39.5 89.5t-11.5 129q0 114 29.5 184t91.5 70q25 0 49.5 -21.5t38.5 -62.5v72h30v-407q0 -32 7 -46.5t26 -14.5q9 0 15 1zM168 15q28 0 53.5 30t34.5 70v251q-9 40 -34.5 71
t-53.5 31q-88 0 -88 -227q0 -226 88 -226z" />
    <glyph glyph-name="beta" unicode="&#x3b2;" horiz-adv-x="351" 
d="M95 461v-346q9 -40 35.5 -70t57.5 -30q40 0 61.5 45t21.5 108q0 80 -28.5 121.5t-70.5 41.5h-19v27h19q40 0 64 37.5t24 107.5q0 72 -19.5 109.5t-53.5 37.5q-92 0 -92 -189zM95 70v-254h-30v645q0 216 122 216q106 0 106 -174q0 -56 -19.5 -99.5t-59.5 -58.5
q37 -9 63.5 -57.5t26.5 -119.5q0 -83 -31.5 -131.5t-84.5 -48.5q-28 0 -53 22t-40 60z" />
    <glyph glyph-name="gamma" unicode="&#x3b3;" horiz-adv-x="279" 
d="M154 -184h-30v170q0 280 -118 497h35q103 -210 108 -427q34 83 54 199.5t20 227.5h30q0 -250 -99 -481v-186z" />
    <glyph glyph-name="delta" unicode="&#x3b4;" horiz-adv-x="352" 
d="M176 -12q-67 0 -98 60.5t-31 148.5q0 137 103 236q-36 34 -55 65.5t-19 75.5q0 46 30.5 75.5t74.5 29.5q57 0 93 -51l-20 -20q-28 44 -73 44q-34 0 -54.5 -22.5t-20.5 -55.5q0 -31 14.5 -58.5t37 -47.5t48 -46t48 -53.5t37 -72t14.5 -98.5q0 -56 -11 -101t-41.5 -77
t-76.5 -32zM275 197q0 52 -17 95.5t-36 66.5t-51 53q-91 -80 -91 -214q0 -33 4.5 -62.5t14.5 -58t30 -45.5t47 -17q28 0 48 17t31 45t15.5 58t4.5 62z" />
    <glyph glyph-name="epsilon" unicode="&#x3b5;" horiz-adv-x="327" 
d="M176 -12q-64 0 -96.5 39.5t-32.5 99.5q0 47 25.5 79t62.5 39q-39 11 -61 46t-22 76q0 56 37 92t92 36q82 0 115 -81l-29 -14q-25 68 -86 68q-43 0 -69.5 -27t-26.5 -74q0 -50 26 -79t65 -29h64v-27h-64q-96 0 -96 -104q0 -50 26 -81.5t70 -31.5q64 0 96 68l28 -14
q-38 -81 -124 -81z" />
    <glyph glyph-name="zeta" unicode="&#x3b6;" horiz-adv-x="294" 
d="M226 -49q0 21 -9 29t-30 8q-68 0 -104 57.5t-36 133.5q0 132 42.5 243.5t138.5 217.5h-173v27h204v-27q-97 -113 -138 -224t-41 -237q0 -26 5 -52.5t16.5 -52.5t33.5 -42.5t51 -16.5q73 0 73 -64q0 -44 -42 -108h-38q47 66 47 108z" />
    <glyph glyph-name="eta" unicode="&#x3b7;" 
d="M277 -184h-30v578q0 74 -53 74q-30 0 -57 -27.5t-42 -66.5v-374h-30v483h30v-72q18 37 45 60.5t58 23.5q41 0 60 -24.5t19 -76.5v-578z" />
    <glyph glyph-name="theta" unicode="&#x3b8;" horiz-adv-x="352" 
d="M176 -12q-71 0 -100 87.5t-29 258.5t29 258t100 87q72 0 100.5 -86.5t28.5 -258.5q0 -84 -6 -144.5t-20.5 -107.5t-40 -70.5t-62.5 -23.5zM176 15q53 0 74 78t22 229h-192q1 -150 22 -228.5t74 -78.5zM176 652q-53 0 -74 -78t-22 -225h192q-1 148 -22 225.5t-74 77.5z
" />
    <glyph glyph-name="iota" unicode="&#x3b9;" horiz-adv-x="167" 
d="M129 -12q-64 0 -64 88v407h30v-407q0 -32 7.5 -46.5t26.5 -14.5q8 0 14 1l3 -26q-8 -2 -17 -2z" />
    <glyph glyph-name="kappa" unicode="&#x3ba;" horiz-adv-x="325" 
d="M301 0h-32l-108 242l-66 -110v-132h-30v483h30v-305l179 305h31l-128 -218z" />
    <glyph glyph-name="lambda" unicode="&#x3bb;" horiz-adv-x="279" 
d="M34 645l-7 27q12 7 31 7q26 0 42.5 -16.5t25.5 -56.5l137 -606h-33l-91 443l-90 -443h-33l109 501l-23 97q-8 31 -17 42.5t-27 11.5q-14 0 -24 -7z" />
    <glyph glyph-name="uni03BC" unicode="&#x3bc;" horiz-adv-x="349" 
d="M95 14v-198h-30v667h30v-394q0 -37 15.5 -56.5t41.5 -19.5q30 0 55 27t40 67v376h30v-407q0 -32 7.5 -46.5t26.5 -14.5q8 0 14 1l3 -26q-8 -2 -17 -2q-32 0 -47 20t-17 62q-36 -82 -95 -82q-38 0 -57 26z" />
    <glyph glyph-name="nu" unicode="&#x3bd;" horiz-adv-x="279" 
d="M153 0h-32l-105 483h33l92 -448q82 202 82 448h30q0 -253 -100 -483z" />
    <glyph glyph-name="xi" unicode="&#x3be;" horiz-adv-x="294" 
d="M187 -12q-68 0 -104 57t-36 132q0 65 26.5 112t63.5 56q-40 15 -62 59t-22 98q0 84 68 138h-66v27h192v-27h-100q-61 -47 -61 -138q0 -67 26.5 -105t66.5 -38h61v-27h-61q-45 0 -72 -38.5t-27 -116.5q0 -25 5 -51t16.5 -52t33.5 -42.5t51 -16.5q73 0 73 -64
q0 -44 -42 -108h-38q47 66 47 108q0 21 -9 29t-30 8z" />
    <glyph glyph-name="omicron" unicode="&#x3bf;" horiz-adv-x="352" 
d="M176 -12q-46 0 -76 37t-41.5 91.5t-11.5 125.5t11.5 125t41.5 91t76 37q68 0 98.5 -71t30.5 -182t-30.5 -182.5t-98.5 -71.5zM176 15q96 0 96 227q0 226 -96 226t-96 -226q0 -227 96 -227z" />
    <glyph glyph-name="pi" unicode="&#x3c0;" horiz-adv-x="368" 
d="M290 0h-30v456h-152v-456h-30v456h-52v27h316v-27h-52v-456z" />
    <glyph glyph-name="rho" unicode="&#x3c1;" horiz-adv-x="351" 
d="M183 -12q-25 0 -49.5 21.5t-38.5 62.5v-256h-30v426q0 111 28 182t90 71q42 0 70 -34.5t39.5 -89.5t11.5 -129q0 -114 -29.5 -184t-91.5 -70zM183 15q88 0 88 227q0 226 -88 226q-48 0 -68 -65.5t-20 -160.5v-125q9 -40 35 -71t53 -31z" />
    <glyph glyph-name="sigma1" unicode="&#x3c2;" horiz-adv-x="284" 
d="M183 -12q-67 0 -101.5 71.5t-34.5 182.5t34.5 182t101.5 71q46 0 84 -45l-21 -21q-29 39 -64 39q-54 0 -78 -65t-24 -161t24 -161.5t78 -65.5q39 0 56 -15t17 -49q0 -44 -42 -108h-33q47 66 47 108q0 21 -9.5 29t-34.5 8z" />
    <glyph glyph-name="sigma" unicode="&#x3c3;" horiz-adv-x="352" 
d="M305 232q0 -67 -11 -119t-41.5 -88.5t-76.5 -36.5t-76 37t-41.5 91.5t-11.5 125.5q0 67 12 117.5t45.5 87t87.5 36.5h145v-27h-98q66 -84 66 -224zM272 232q0 157 -70 224h-10q-112 0 -112 -214q0 -227 96 -227q28 0 48 19.5t29.5 53t14 68.5t4.5 76z" />
    <glyph glyph-name="tau" unicode="&#x3c4;" horiz-adv-x="237" 
d="M167 -12q-64 0 -64 88v380h-88v27h207v-27h-89v-380q0 -32 7.5 -46.5t26.5 -14.5q21 0 36 21l21 -18q-25 -30 -57 -30z" />
    <glyph glyph-name="upsilon" unicode="&#x3c5;" horiz-adv-x="347" 
d="M171 -12q-61 0 -83.5 40.5t-22.5 115.5v339h30v-339q0 -67 17.5 -98t58.5 -31q96 0 96 227q0 127 -59 239l27 14q65 -119 65 -253q0 -111 -30.5 -182.5t-98.5 -71.5z" />
    <glyph glyph-name="phi" unicode="&#x3c6;" horiz-adv-x="464" 
d="M417 242q0 -107 -40 -177t-130 -76v-173h-30v173q-89 6 -129.5 76.5t-40.5 176.5q0 194 115 253l14 -24q-54 -29 -75 -85t-21 -144q0 -42 6.5 -78.5t21 -70t42.5 -54t67 -24.5v480h15q98 0 141.5 -71t43.5 -182zM384 242q0 92 -31.5 155.5t-105.5 70.5v-453q75 7 106 71
t31 156z" />
    <glyph glyph-name="chi" unicode="&#x3c7;" horiz-adv-x="286" 
d="M266 -184h-30l-93 305l-93 -305h-30l106 338l-100 329h30l87 -294l87 294h30l-100 -329z" />
    <glyph glyph-name="psi" unicode="&#x3c8;" horiz-adv-x="464" 
d="M247 -184h-30v173q-84 4 -118 56t-34 167v271h30v-271q0 -107 28.5 -150t93.5 -47v652h30v-652q63 4 92.5 47.5t29.5 149.5v271h30v-271q0 -115 -34.5 -167t-117.5 -56v-173z" />
    <glyph glyph-name="omega" unicode="&#x3c9;" horiz-adv-x="524" 
d="M477 242q0 -112 -27.5 -183t-87.5 -71q-76 0 -100 111q-24 -111 -100 -111q-60 0 -87.5 71t-27.5 183q0 76 30 151.5t85 101.5l14 -24q-51 -27 -73.5 -93.5t-22.5 -135.5q0 -227 83 -227q84 0 84 227v124h30v-124q0 -227 84 -227q83 0 83 227q0 69 -22.5 135.5
t-73.5 93.5l14 24q55 -26 85 -101.5t30 -151.5z" />
    <glyph glyph-name="iotadieresis" unicode="&#x3ca;" horiz-adv-x="167" 
d="M129 -12q-64 0 -64 88v407h30v-407q0 -32 7.5 -46.5t26.5 -14.5q8 0 14 1l3 -26q-8 -2 -17 -2zM173 598q0 -11 -8.5 -19.5t-19.5 -8.5t-19.5 8.5t-8.5 19.5t8.5 19.5t19.5 8.5t19.5 -8.5t8.5 -19.5zM51 598q0 -11 -8.5 -19.5t-19.5 -8.5t-19.5 8.5t-8.5 19.5t8.5 19.5
t19.5 8.5t19.5 -8.5t8.5 -19.5z" />
    <glyph glyph-name="upsilondieresis" unicode="&#x3cb;" horiz-adv-x="347" 
d="M171 -12q-61 0 -83.5 40.5t-22.5 115.5v339h30v-339q0 -67 17.5 -98t58.5 -31q96 0 96 227q0 127 -59 239l27 14q65 -119 65 -253q0 -111 -30.5 -182.5t-98.5 -71.5zM262 598q0 -11 -8.5 -19.5t-19.5 -8.5t-19.5 8.5t-8.5 19.5t8.5 19.5t19.5 8.5t19.5 -8.5t8.5 -19.5z
M140 598q0 -11 -8.5 -19.5t-19.5 -8.5t-19.5 8.5t-8.5 19.5t8.5 19.5t19.5 8.5t19.5 -8.5t8.5 -19.5z" />
    <glyph glyph-name="omicrontonos" unicode="&#x3cc;" horiz-adv-x="352" 
d="M176 -12q-46 0 -76 37t-41.5 91.5t-11.5 125.5t11.5 125t41.5 91t76 37q68 0 98.5 -71t30.5 -182t-30.5 -182.5t-98.5 -71.5zM176 15q96 0 96 227q0 226 -96 226t-96 -226q0 -227 96 -227zM183 575h-22l17 190h52z" />
    <glyph glyph-name="upsilontonos" unicode="&#x3cd;" horiz-adv-x="347" 
d="M171 -12q-61 0 -83.5 40.5t-22.5 115.5v339h30v-339q0 -67 17.5 -98t58.5 -31q96 0 96 227q0 127 -59 239l27 14q65 -119 65 -253q0 -111 -30.5 -182.5t-98.5 -71.5zM181 575h-22l17 190h52z" />
    <glyph glyph-name="omegatonos" unicode="&#x3ce;" horiz-adv-x="524" 
d="M477 242q0 -112 -27.5 -183t-87.5 -71q-76 0 -100 111q-24 -111 -100 -111q-60 0 -87.5 71t-27.5 183q0 76 30 151.5t85 101.5l14 -24q-51 -27 -73.5 -93.5t-22.5 -135.5q0 -227 83 -227q84 0 84 227v124h30v-124q0 -227 84 -227q83 0 83 227q0 69 -22.5 135.5
t-73.5 93.5l14 24q55 -26 85 -101.5t30 -151.5zM269 575h-22l17 190h52z" />
    <glyph glyph-name="afii10023" unicode="&#x401;" horiz-adv-x="330" 
d="M282 0h-210v667h210v-30h-178v-279h171v-30h-171v-298h178v-30zM266 765q0 -11 -8.5 -19.5t-19.5 -8.5t-19.5 8.5t-8.5 19.5t8.5 19.5t19.5 8.5t19.5 -8.5t8.5 -19.5zM144 765q0 -11 -8.5 -19.5t-19.5 -8.5t-19.5 8.5t-8.5 19.5t8.5 19.5t19.5 8.5t19.5 -8.5t8.5 -19.5z
" />
    <glyph glyph-name="afii10051" unicode="&#x402;" horiz-adv-x="417" 
d="M245 -12v30q44 0 64.5 29.5t20.5 106.5v102q0 72 -27.5 115.5t-80.5 43.5q-35 0 -63 -10v-405h-32v637h-109v30h251v-30h-110v-202q27 10 63 10q70 0 105 -53t35 -136v-102q0 -90 -30 -128t-87 -38z" />
    <glyph glyph-name="afii10052" unicode="&#x403;" horiz-adv-x="330" 
d="M104 0h-32v667h210v-30h-178v-637zM266 867l-95 -144h-24l78 144h41z" />
    <glyph glyph-name="afii10053" unicode="&#x404;" horiz-adv-x="357" 
d="M198 -12q-52 0 -85.5 48t-46.5 122t-13 175t13 175t46.5 122t85.5 48q79 0 113 -103l-30 -12q-15 43 -33 64t-50 21q-53 0 -80.5 -79.5t-29.5 -210.5h187v-30h-187q0 -139 27 -224.5t83 -85.5q35 0 54 27t32 78l30 -12q-29 -123 -116 -123z" />
    <glyph glyph-name="afii10054" unicode="&#x405;" horiz-adv-x="319" 
d="M145 -12q-70 0 -118 57l24 26q16 -24 42 -38.5t52 -14.5q43 0 73 35.5t30 93.5q0 50 -21 91t-50.5 71t-59.5 59.5t-51 71.5t-21 92q0 66 37 106t88 40q59 0 97 -41l-19 -25q-32 36 -78 36q-38 0 -65.5 -32t-27.5 -84q0 -42 21 -79.5t50.5 -67t59.5 -61.5t51 -77.5
t21 -99.5q0 -68 -37.5 -113.5t-97.5 -45.5z" />
    <glyph glyph-name="afii10055" unicode="&#x406;" horiz-adv-x="176" 
d="M104 0h-32v667h32v-667z" />
    <glyph glyph-name="afii10056" unicode="&#x407;" horiz-adv-x="176" 
d="M104 0h-32v667h32v-667zM177 765q0 -11 -8.5 -19.5t-19.5 -8.5t-19.5 8.5t-8.5 19.5t8.5 19.5t19.5 8.5t19.5 -8.5t8.5 -19.5zM55 765q0 -11 -8.5 -19.5t-19.5 -8.5t-19.5 8.5t-8.5 19.5t8.5 19.5t19.5 8.5t19.5 -8.5t8.5 -19.5z" />
    <glyph glyph-name="afii10057" unicode="&#x408;" horiz-adv-x="298" 
d="M109 -12q-61 0 -103 54l24 23q32 -47 79 -47q85 0 85 103v546h32v-546q0 -133 -117 -133z" />
    <glyph glyph-name="afii10058" unicode="&#x409;" horiz-adv-x="560" 
d="M17 -12v30q30 0 49 19t33.5 81.5t21.5 177.5l22 371h180v-289h68q67 0 101 -53.5t34 -135.5t-34 -135.5t-101 -53.5h-100v637h-118l-21 -345q-6 -99 -17.5 -161.5t-30 -92.5t-38 -40t-49.5 -10zM390 348h-67v-318h67q50 0 75.5 43.5t25.5 115.5t-25.5 115.5t-75.5 43.5z
" />
    <glyph glyph-name="afii10059" unicode="&#x40a;" horiz-adv-x="560" 
d="M72 0v667h32v-309h187v309h32v-309h68q67 0 101 -50.5t34 -128.5t-34 -128.5t-101 -50.5h-100v328h-187v-328h-32zM323 30h67q50 0 75.5 40.5t25.5 108.5t-25.5 108.5t-75.5 40.5h-67v-298z" />
    <glyph glyph-name="afii10060" unicode="&#x40b;" horiz-adv-x="417" 
d="M330 0v256q0 72 -27.5 115.5t-80.5 43.5q-35 0 -63 -10v-405h-32v637h-109v30h251v-30h-110v-202q27 10 63 10q70 0 105 -53t35 -136v-256h-32z" />
    <glyph glyph-name="afii10061" unicode="&#x40c;" horiz-adv-x="372" 
d="M354 0h-39l-164 319l-47 -88v-231h-32v667h32v-380l198 380h39l-174 -319zM274 867l-95 -144h-24l78 144h41z" />
    <glyph glyph-name="afii10062" unicode="&#x40e;" horiz-adv-x="322" 
d="M63 -12q-36 0 -61 15l14 29q20 -14 47 -14q25 0 36.5 12t19.5 42l25 89l-142 506h33l126 -448l126 448h33l-169 -602q-22 -77 -88 -77zM276 784q-42 -58 -115 -58t-115 58l22 18q14 -22 40 -35.5t53 -13.5t53 13.5t40 35.5z" />
    <glyph glyph-name="afii10145" unicode="&#x40f;" horiz-adv-x="395" 
d="M72 0v667h32v-637h187v637h32v-667h-110v-130h-32v130h-109z" />
    <glyph glyph-name="afii10017" unicode="&#x410;" horiz-adv-x="312" 
d="M300 0h-33l-32 179h-158l-32 -179h-33l125 667h38zM230 209l-74 411l-74 -411h148z" />
    <glyph glyph-name="afii10018" unicode="&#x411;" horiz-adv-x="341" 
d="M72 667h200v-30h-168v-259h68q67 0 101 -53.5t34 -135.5t-34 -135.5t-101 -53.5h-100v667zM171 348h-67v-318h67q50 0 75.5 43.5t25.5 115.5t-25.5 115.5t-75.5 43.5z" />
    <glyph glyph-name="afii10019" unicode="&#x412;" horiz-adv-x="360" 
d="M172 0h-100v667h96q60 0 95 -44.5t35 -125.5q0 -120 -78 -153q38 -7 62.5 -55.5t24.5 -108.5q0 -87 -34 -133.5t-101 -46.5zM168 358q95 0 95 139q0 140 -95 140h-64v-279h64zM172 30q100 0 100 149q0 64 -24 106.5t-76 42.5h-68v-298h68z" />
    <glyph glyph-name="afii10020" unicode="&#x413;" horiz-adv-x="330" 
d="M104 0h-32v667h210v-30h-178v-637z" />
    <glyph glyph-name="afii10021" unicode="&#x414;" horiz-adv-x="423" 
d="M17 -123v151q24 2 38 11t28.5 35.5t23.5 80.5t14 141l22 371h180v-637h64v-153h-32v123h-306v-123h-32zM152 292q-13 -214 -66 -262h205v607h-118z" />
    <glyph glyph-name="afii10022" unicode="&#x415;" horiz-adv-x="330" 
d="M282 0h-210v667h210v-30h-178v-279h171v-30h-171v-298h178v-30z" />
    <glyph glyph-name="afii10024" unicode="&#x416;" horiz-adv-x="508" 
d="M47 0h-39l187 348l-174 319h39l178 -342v342h32v-342l178 342h39l-174 -319l187 -348h-39l-164 319l-27 -51v-268h-32v268l-27 51z" />
    <glyph glyph-name="afii10025" unicode="&#x417;" horiz-adv-x="347" 
d="M164 -12q-45 0 -78 32.5t-50 82.5l31 13q36 -98 97 -98q95 0 95 160q0 83 -29.5 117.5t-67.5 34.5h-74v30h74q40 0 65 36t25 103q0 148 -87 148q-34 0 -54.5 -23.5t-36.5 -66.5l-31 13q16 50 49.5 78.5t72.5 28.5q56 0 89.5 -43t33.5 -131q0 -55 -22 -99t-62 -59
q37 -9 63.5 -56t26.5 -112q0 -86 -31 -137.5t-99 -51.5z" />
    <glyph glyph-name="afii10026" unicode="&#x418;" horiz-adv-x="395" 
d="M104 0h-32v667h32v-569l187 569h32v-667h-32v575z" />
    <glyph glyph-name="afii10027" unicode="&#x419;" horiz-adv-x="395" 
d="M104 0h-32v667h32v-569l187 569h32v-667h-32v575zM312 784q-42 -58 -115 -58t-115 58l22 18q14 -22 40 -35.5t53 -13.5t53 13.5t40 35.5z" />
    <glyph glyph-name="afii10028" unicode="&#x41a;" horiz-adv-x="372" 
d="M354 0h-39l-164 319l-47 -88v-231h-32v667h32v-380l198 380h39l-174 -319z" />
    <glyph glyph-name="afii10029" unicode="&#x41b;" horiz-adv-x="395" 
d="M17 -12v30q30 0 49 19t33.5 81.5t21.5 177.5l22 371h180v-667h-32v637h-118l-21 -345q-6 -99 -17.5 -161.5t-30 -92.5t-38 -40t-49.5 -10z" />
    <glyph glyph-name="afii10030" unicode="&#x41c;" horiz-adv-x="508" 
d="M436 0h-32v609l-141 -609h-18l-141 609v-609h-32v667h52l130 -557l131 557h51v-667z" />
    <glyph glyph-name="afii10031" unicode="&#x41d;" horiz-adv-x="395" 
d="M323 0h-32v328h-187v-328h-32v667h32v-309h187v309h32v-667z" />
    <glyph glyph-name="afii10032" unicode="&#x41e;" horiz-adv-x="396" 
d="M198 -12q-53 0 -86.5 49.5t-46 123t-12.5 172.5t12.5 172.5t46 123t86.5 49.5t86.5 -49.5t46 -123t12.5 -172.5t-12.5 -172.5t-46 -123t-86.5 -49.5zM198 18q57 0 83.5 88.5t26.5 226.5q0 139 -26.5 227t-83.5 88t-83.5 -88t-26.5 -227q0 -138 26.5 -226.5t83.5 -88.5z
" />
    <glyph glyph-name="afii10033" unicode="&#x41f;" horiz-adv-x="395" 
d="M323 0h-32v637h-187v-637h-32v667h251v-667z" />
    <glyph glyph-name="afii10034" unicode="&#x420;" horiz-adv-x="341" 
d="M104 0h-32v667h100q67 0 101 -53.5t34 -135.5t-34 -135.5t-101 -53.5h-68v-289zM171 319q50 0 75.5 43.5t25.5 115.5t-25.5 115.5t-75.5 43.5h-67v-318h67z" />
    <glyph glyph-name="afii10035" unicode="&#x421;" horiz-adv-x="357" 
d="M198 -12q-52 0 -85.5 48t-46.5 122t-13 175t13 175t46.5 122t85.5 48q79 0 113 -103l-30 -12q-15 43 -33 64t-50 21q-56 0 -83 -87t-27 -228t27 -228t83 -87q35 0 54 27t32 78l30 -12q-29 -123 -116 -123z" />
    <glyph glyph-name="afii10036" unicode="&#x422;" horiz-adv-x="287" 
d="M159 0h-32v637h-109v30h251v-30h-110v-637z" />
    <glyph glyph-name="afii10037" unicode="&#x423;" horiz-adv-x="322" 
d="M63 -12q-36 0 -61 15l14 29q20 -14 47 -14q25 0 36.5 12t19.5 42l25 89l-142 506h33l126 -448l126 448h33l-169 -602q-22 -77 -88 -77z" />
    <glyph glyph-name="afii10038" unicode="&#x424;" horiz-adv-x="524" 
d="M278 0h-32v64q-53 3 -91.5 26.5t-60 62t-31.5 83.5t-10 97t10 97t31.5 83t60 61.5t91.5 26.5v66h32v-66q101 -6 147 -81.5t46 -186.5q0 -71 -17 -127t-62 -97t-114 -45v-64zM88 333q0 -64 14 -114t51 -85.5t93 -39.5v477q-83 -6 -120.5 -72t-37.5 -166zM436 333
q0 64 -14.5 114t-51.5 85t-92 39v-477q81 6 119.5 73t38.5 166z" />
    <glyph glyph-name="afii10039" unicode="&#x425;" horiz-adv-x="308" 
d="M300 0h-36l-110 302l-110 -302h-36l128 338l-121 329h37l102 -291l102 291h37l-121 -328z" />
    <glyph glyph-name="afii10040" unicode="&#x426;" horiz-adv-x="423" 
d="M355 -123v123h-283v667h32v-637h187v637h32v-637h64v-153h-32z" />
    <glyph glyph-name="afii10041" unicode="&#x427;" horiz-adv-x="362" 
d="M87 667v-189q0 -72 27.5 -115.5t80.5 -43.5q35 0 63 10v338h32v-667h-32v299q-27 -10 -63 -10q-70 0 -105 53t-35 136v189h32z" />
    <glyph glyph-name="afii10042" unicode="&#x428;" horiz-adv-x="585" 
d="M481 667h32v-667h-438v667h32v-637h171v637h32v-637h171v637z" />
    <glyph glyph-name="afii10043" unicode="&#x429;" horiz-adv-x="613" 
d="M481 667h32v-637h64v-153h-32v123h-470v667h32v-637h171v637h32v-637h171v637z" />
    <glyph glyph-name="afii10044" unicode="&#x42a;" horiz-adv-x="396" 
d="M227 0h-100v637h-109v30h141v-289h68q67 0 101 -53.5t34 -135.5t-34 -135.5t-101 -53.5zM226 348h-67v-318h67q50 0 75.5 43.5t25.5 115.5t-25.5 115.5t-75.5 43.5z" />
    <glyph glyph-name="afii10045" unicode="&#x42b;" horiz-adv-x="492" 
d="M72 667h32v-289h68q67 0 101 -53.5t34 -135.5t-34 -135.5t-101 -53.5h-100v667zM171 348h-67v-318h67q50 0 75.5 43.5t25.5 115.5t-25.5 115.5t-75.5 43.5zM420 0h-32v667h32v-667z" />
    <glyph glyph-name="afii10046" unicode="&#x42c;" horiz-adv-x="341" 
d="M72 667h32v-289h68q67 0 101 -53.5t34 -135.5t-34 -135.5t-101 -53.5h-100v667zM171 348h-67v-318h67q50 0 75.5 43.5t25.5 115.5t-25.5 115.5t-75.5 43.5z" />
    <glyph glyph-name="afii10047" unicode="&#x42d;" horiz-adv-x="357" 
d="M159 -12q-87 0 -116 123l30 12q13 -51 32 -78t54 -27q55 0 82 85t28 225h-187v30h187q-2 131 -29.5 210.5t-80.5 79.5q-32 0 -50 -21t-33 -64l-30 12q34 103 113 103q52 0 85.5 -48t46.5 -122t13 -175t-13 -175t-46.5 -122t-85.5 -48z" />
    <glyph glyph-name="afii10048" unicode="&#x42e;" horiz-adv-x="540" 
d="M342 -12q-76 0 -110.5 94t-34.5 246h-93v-328h-32v667h32v-309h93q6 320 145 320q53 0 86.5 -49.5t46 -123t12.5 -172.5t-12.5 -172.5t-46 -123t-86.5 -49.5zM342 18q57 0 83.5 88.5t26.5 226.5q0 139 -26.5 227t-83.5 88t-83.5 -88t-26.5 -227q0 -138 26.5 -226.5
t83.5 -88.5z" />
    <glyph glyph-name="afii10049" unicode="&#x42f;" horiz-adv-x="366" 
d="M89 0h-36l104 294q-40 11 -69 56t-29 128q0 89 37 139t98 50h100v-667h-32v289h-74zM195 319h67v318h-67q-50 0 -75.5 -43.5t-25.5 -115.5t25.5 -115.5t75.5 -43.5z" />
    <glyph glyph-name="afii10065" unicode="&#x430;" 
d="M277 0h-30v53q-31 -65 -88 -65q-54 0 -86 45t-32 116t32 116t86 45q58 0 88 -63v101q0 62 -17 91t-60 29q-51 0 -93 -54l-18 23q54 58 111 58q59 0 83 -35t24 -111v-349zM159 15q63 0 88 73v120q-25 75 -88 75q-42 0 -63.5 -39t-21.5 -95t21.5 -95t63.5 -39z" />
    <glyph glyph-name="afii10066" unicode="&#x431;" horiz-adv-x="352" 
d="M176 15q96 0 96 228q0 225 -96 225q-51 0 -73.5 -63.5t-22.5 -161.5q0 -228 96 -228zM176 -12q-65 0 -97 74.5t-32 201.5q0 64 1.5 104t6 81.5t14 65.5t25 46t38.5 34.5t55 20.5q77 20 77 51h30q0 -26 -22.5 -45t-76.5 -34q-64 -18 -87 -59.5t-31 -133.5q32 100 103 100
q63 0 94 -71.5t31 -180.5t-32.5 -182t-96.5 -73z" />
    <glyph glyph-name="afii10067" unicode="&#x432;" horiz-adv-x="330" 
d="M169 0h-104v483h101q50 0 80 -32.5t30 -91.5q0 -84 -60 -109q30 -9 48.5 -43.5t18.5 -75.5q0 -131 -114 -131zM169 25q81 0 81 105q0 45 -19.5 75.5t-61.5 30.5h-74v-211h74zM166 262q76 0 76 97q0 99 -76 99h-71v-196h71z" />
    <glyph glyph-name="afii10068" unicode="&#x433;" horiz-adv-x="275" 
d="M247 483v-27h-152v-456h-30v483h182z" />
    <glyph glyph-name="afii10069" unicode="&#x434;" horiz-adv-x="369" 
d="M21 -123v148q33 4 51.5 44.5t28.5 163.5l21 250h155v-456h60v-150h-30v123h-256v-123h-30zM150 456l-19 -229q-14 -163 -54 -200h170v429h-97z" />
    <glyph glyph-name="afii10070" unicode="&#x435;" horiz-adv-x="346" 
d="M193 -12q-75 0 -110.5 69.5t-35.5 184.5q0 113 31.5 183t97.5 70q68 0 98.5 -70.5t30.5 -182.5v-10h-225q0 -100 29.5 -158.5t83.5 -58.5q48 0 79 68l28 -14q-40 -81 -107 -81zM272 259q0 53 -7.5 96.5t-30 78t-58.5 34.5q-27 0 -47 -20.5t-30 -53.5t-14.5 -66.5
t-4.5 -68.5h192z" />
    <glyph glyph-name="afii10072" unicode="&#x436;" horiz-adv-x="420" 
d="M56 0h-32l124 265l-128 218h31l144 -246v246h30v-246l144 246h31l-128 -218l124 -265h-32l-108 242l-31 -52v-190h-30v190l-31 52z" />
    <glyph glyph-name="afii10073" unicode="&#x437;" horiz-adv-x="327" 
d="M151 -12q-86 0 -124 81l28 14q32 -68 96 -68q44 0 70 31.5t26 81.5q0 104 -96 104h-64v27h64q39 0 65 29t26 79q0 47 -26.5 74t-69.5 27q-61 0 -86 -68l-29 14q33 81 115 81q55 0 92 -36t37 -92q0 -41 -22 -76t-61 -46q37 -7 62.5 -39t25.5 -79q0 -60 -32.5 -99.5
t-96.5 -39.5z" />
    <glyph glyph-name="afii10074" unicode="&#x438;" 
d="M102 0h-37v483h30v-411l145 411h37v-483h-30v416z" />
    <glyph glyph-name="afii10075" unicode="&#x439;" 
d="M102 0h-37v483h30v-411l145 411h37v-483h-30v416zM286 617q-42 -58 -115 -58t-115 58l22 18q14 -22 40 -35.5t53 -13.5t53 13.5t40 35.5z" />
    <glyph glyph-name="afii10076" unicode="&#x43a;" horiz-adv-x="325" 
d="M301 0h-32l-108 242l-66 -110v-132h-30v483h30v-305l179 305h31l-128 -218z" />
    <glyph glyph-name="afii10077" unicode="&#x43b;" 
d="M21 -12v27q31 0 50 46.5t30 171.5l21 250h155v-483h-30v456h-97l-19 -229q-11 -137 -37.5 -188t-72.5 -51z" />
    <glyph glyph-name="afii10078" unicode="&#x43c;" horiz-adv-x="435" 
d="M370 0h-30v431l-113 -431h-19l-113 431v-431h-30v483h47l106 -402l106 402h46v-483z" />
    <glyph glyph-name="afii10079" unicode="&#x43d;" 
d="M95 0h-30v483h30v-218h152v218h30v-483h-30v238h-152v-238z" />
    <glyph glyph-name="afii10080" unicode="&#x43e;" horiz-adv-x="352" 
d="M176 -12q-46 0 -76 37t-41.5 91.5t-11.5 125.5t11.5 125t41.5 91t76 37q68 0 98.5 -71t30.5 -182t-30.5 -182.5t-98.5 -71.5zM176 15q96 0 96 227q0 226 -96 226t-96 -226q0 -227 96 -227z" />
    <glyph glyph-name="afii10081" unicode="&#x43f;" 
d="M277 0h-30v456h-152v-456h-30v483h212v-483z" />
    <glyph glyph-name="afii10082" unicode="&#x440;" horiz-adv-x="351" 
d="M183 -12q-25 0 -49.5 21.5t-38.5 62.5v-256h-30v667h30v-70q15 37 39.5 59.5t48.5 22.5q42 0 70 -34.5t39.5 -89.5t11.5 -129q0 -114 -29.5 -184t-91.5 -70zM183 15q88 0 88 227q0 226 -88 226q-28 0 -53.5 -30t-34.5 -70v-251q9 -40 35 -71t53 -31z" />
    <glyph glyph-name="afii10083" unicode="&#x441;" horiz-adv-x="294" 
d="M183 -12q-67 0 -101.5 71.5t-34.5 182.5t34.5 182t101.5 71q46 0 84 -45l-21 -21q-29 39 -64 39q-54 0 -78 -65t-24 -161t24 -161.5t78 -65.5q36 0 64 39l21 -21q-33 -45 -84 -45z" />
    <glyph glyph-name="afii10084" unicode="&#x442;" horiz-adv-x="258" 
d="M144 0h-30v456h-86v27h202v-27h-86v-456z" />
    <glyph glyph-name="afii10085" unicode="&#x443;" horiz-adv-x="279" 
d="M27 -189l7 27q10 -7 24 -7q18 0 27 11.5t17 42.5l23 97l-109 501h33l90 -443l91 443h33l-137 -606q-9 -40 -25.5 -56.5t-42.5 -16.5q-19 0 -31 7z" />
    <glyph glyph-name="afii10086" unicode="&#x444;" horiz-adv-x="484" 
d="M151 495q23 0 43.5 -19.5t32.5 -59.5v251h30v-249q12 36 33 56.5t43 20.5q53 0 78.5 -69.5t25.5 -183.5t-25.5 -184t-78.5 -70q-23 0 -43.5 19.5t-32.5 59.5v-251h-30v249q-12 -36 -33 -56.5t-43 -20.5q-53 0 -78.5 69.5t-25.5 183.5t25.5 184t78.5 70zM152 468
q-74 0 -74 -227q0 -226 74 -226q24 0 45.5 30t29.5 70v251q-8 40 -29.5 71t-45.5 31zM332 15q74 0 74 227q0 226 -74 226q-24 0 -45.5 -30t-29.5 -70v-251q8 -40 29.5 -71t45.5 -31z" />
    <glyph glyph-name="afii10087" unicode="&#x445;" horiz-adv-x="286" 
d="M266 0h-33l-90 217l-90 -217h-33l106 245l-100 238h33l84 -209l84 209h33l-100 -238z" />
    <glyph glyph-name="afii10088" unicode="&#x446;" horiz-adv-x="369" 
d="M307 -123v123h-242v483h30v-456h152v456h30v-456h60v-150h-30z" />
    <glyph glyph-name="afii10089" unicode="&#x447;" horiz-adv-x="333" 
d="M56 483h30v-195q0 -74 61 -74q25 0 51 11t40 25v233h30v-483h-30v223q-40 -36 -95 -36q-47 0 -67 24t-20 77v195z" />
    <glyph glyph-name="afii10090" unicode="&#x448;" horiz-adv-x="494" 
d="M399 483h30v-483h-364v483h30v-456h137v456h30v-456h137v456z" />
    <glyph glyph-name="afii10091" unicode="&#x449;" horiz-adv-x="521" 
d="M399 483h30v-456h60v-150h-30v123h-394v483h30v-456h137v456h30v-456h137v456z" />
    <glyph glyph-name="afii10092" unicode="&#x44a;" horiz-adv-x="379" 
d="M218 0h-104v456h-86v27h116v-206h74q56 0 85 -39t29 -99t-29 -99.5t-85 -39.5zM217 251h-73v-224h73q40 0 61 31t21 81q0 51 -20.5 81.5t-61.5 30.5z" />
    <glyph glyph-name="afii10093" unicode="&#x44b;" horiz-adv-x="460" 
d="M65 483h30v-206h74q56 0 85 -39t29 -99t-29 -99.5t-85 -39.5h-104v483zM168 251h-73v-224h73q40 0 61 31t21 81q0 51 -20.5 81.5t-61.5 30.5zM395 0h-30v483h30v-483z" />
    <glyph glyph-name="afii10094" unicode="&#x44c;" horiz-adv-x="330" 
d="M65 483h30v-206h74q56 0 85 -39t29 -99t-29 -99.5t-85 -39.5h-104v483zM168 251h-73v-224h73q40 0 61 31t21 81q0 51 -20.5 81.5t-61.5 30.5z" />
    <glyph glyph-name="afii10095" unicode="&#x44d;" horiz-adv-x="294" 
d="M111 -12q-51 0 -84 45l21 21q28 -39 64 -39q52 0 76 62t26 155h-152v27h152q-6 209 -102 209q-35 0 -64 -39l-21 21q38 45 84 45q67 0 101.5 -71t34.5 -182t-34.5 -182.5t-101.5 -71.5z" />
    <glyph glyph-name="afii10096" unicode="&#x44e;" horiz-adv-x="476" 
d="M300 -12q-67 0 -98 70.5t-31 179.5h-76v-238h-30v483h30v-218h76q2 101 33.5 165.5t95.5 64.5q68 0 98.5 -71t30.5 -182t-30.5 -182.5t-98.5 -71.5zM300 15q96 0 96 227q0 226 -96 226t-96 -226q0 -227 96 -227z" />
    <glyph glyph-name="afii10097" unicode="&#x44f;" 
d="M88 0h-35l86 211q-34 8 -57 42.5t-23 90.5q0 61 30 100t84 39h104v-483h-30v206h-79zM174 232h73v224h-73q-40 0 -61 -31t-21 -81q0 -51 20.5 -81.5t61.5 -30.5z" />
    <glyph glyph-name="afii10071" unicode="&#x451;" horiz-adv-x="346" 
d="M193 -12q-75 0 -110.5 69.5t-35.5 184.5q0 113 31.5 183t97.5 70q68 0 98.5 -70.5t30.5 -182.5v-10h-225q0 -100 29.5 -158.5t83.5 -58.5q48 0 79 68l28 -14q-40 -81 -107 -81zM272 259q0 53 -7.5 96.5t-30 78t-58.5 34.5q-27 0 -47 -20.5t-30 -53.5t-14.5 -66.5
t-4.5 -68.5h192zM266 598q0 -11 -8.5 -19.5t-19.5 -8.5t-19.5 8.5t-8.5 19.5t8.5 19.5t19.5 8.5t19.5 -8.5t8.5 -19.5zM144 598q0 -11 -8.5 -19.5t-19.5 -8.5t-19.5 8.5t-8.5 19.5t8.5 19.5t19.5 8.5t19.5 -8.5t8.5 -19.5z" />
    <glyph glyph-name="afii10099" unicode="&#x452;" horiz-adv-x="358" 
d="M230 541h-119v-130q18 37 45 60.5t58 23.5q42 0 60.5 -23.5t18.5 -77.5v-490q0 -100 -64 -100q-41 0 -57 38l27 14q10 -25 30 -25q34 0 34 73v490q0 74 -53 74q-30 0 -57 -27.5t-42 -66.5v-374h-30v541h-55v27h55v99h30v-99h119v-27z" />
    <glyph glyph-name="afii10100" unicode="&#x453;" horiz-adv-x="275" 
d="M247 483v-27h-152v-456h-30v483h182zM246 700l-95 -144h-24l78 144h41z" />
    <glyph glyph-name="afii10101" unicode="&#x454;" horiz-adv-x="294" 
d="M183 -12q-67 0 -101.5 71.5t-34.5 182.5t34.5 182t101.5 71q46 0 84 -45l-21 -21q-29 39 -64 39q-52 0 -76 -59.5t-26 -149.5h152v-27h-152q1 -93 25 -155t77 -62q36 0 64 39l21 -21q-33 -45 -84 -45z" />
    <glyph glyph-name="afii10102" unicode="&#x455;" horiz-adv-x="278" 
d="M137 -12q-68 0 -109 59l22 21q36 -53 87 -53q32 0 55.5 25t23.5 65q0 37 -18 66.5t-43.5 50t-51 42t-43.5 53.5t-18 73q0 46 30.5 75.5t74.5 29.5q57 0 93 -51l-20 -20q-28 44 -73 44q-34 0 -54.5 -22.5t-20.5 -55.5q0 -35 18 -63t43.5 -49t51 -43t43.5 -55t18 -75
q0 -52 -32 -84.5t-77 -32.5z" />
    <glyph glyph-name="afii10103" unicode="&#x456;" horiz-adv-x="160" 
d="M80 566q-11 0 -20 8.5t-9 20.5t9 20.5t20 8.5q12 0 20.5 -8.5t8.5 -20.5t-8.5 -20.5t-20.5 -8.5zM95 0h-30v483h30v-483z" />
    <glyph glyph-name="afii10104" unicode="&#x457;" horiz-adv-x="160" 
d="M95 0h-30v483h30v-483zM169 598q0 -11 -8.5 -19.5t-19.5 -8.5t-19.5 8.5t-8.5 19.5t8.5 19.5t19.5 8.5t19.5 -8.5t8.5 -19.5zM47 598q0 -11 -8.5 -19.5t-19.5 -8.5t-19.5 8.5t-8.5 19.5t8.5 19.5t19.5 8.5t19.5 -8.5t8.5 -19.5z" />
    <glyph glyph-name="afii10105" unicode="&#x458;" horiz-adv-x="160" 
d="M80 566q-11 0 -20 8.5t-9 20.5t9 20.5t20 8.5q12 0 20.5 -8.5t8.5 -20.5t-8.5 -20.5t-20.5 -8.5zM31 -196q-41 0 -57 38l27 14q10 -25 30 -25q34 0 34 73v579h30v-579q0 -100 -64 -100z" />
    <glyph glyph-name="afii10106" unicode="&#x459;" horiz-adv-x="512" 
d="M21 -12v27q31 0 50 46.5t30 171.5l21 250h155v-206h74q56 0 85 -39t29 -99t-29 -99.5t-85 -39.5h-104v456h-97l-19 -229q-11 -137 -37.5 -188t-72.5 -51zM350 251h-73v-224h73q40 0 61 31t21 81q0 51 -20.5 81.5t-61.5 30.5z" />
    <glyph glyph-name="afii10107" unicode="&#x45a;" horiz-adv-x="512" 
d="M95 0h-30v483h30v-218h152v218h30v-218h74q56 0 85 -37t29 -95q0 -57 -29 -95t-85 -38h-104v238h-152v-238zM350 238h-73v-211h73q40 0 61 29t21 77t-20.5 76.5t-61.5 28.5z" />
    <glyph glyph-name="afii10108" unicode="&#x45b;" horiz-adv-x="358" 
d="M230 541h-119v-130q18 37 45 60.5t58 23.5q42 0 60.5 -23.5t18.5 -77.5v-394h-30v394q0 74 -53 74q-30 0 -57 -27.5t-42 -66.5v-374h-30v541h-55v27h55v99h30v-99h119v-27z" />
    <glyph glyph-name="afii10109" unicode="&#x45c;" horiz-adv-x="325" 
d="M301 0h-32l-108 242l-66 -110v-132h-30v483h30v-305l179 305h31l-128 -218zM252 700l-95 -144h-24l78 144h41z" />
    <glyph glyph-name="afii10110" unicode="&#x45e;" horiz-adv-x="279" 
d="M27 -189l7 27q10 -7 24 -7q18 0 27 11.5t17 42.5l23 97l-109 501h33l90 -443l91 443h33l-137 -606q-9 -40 -25.5 -56.5t-42.5 -16.5q-19 0 -31 7zM254 617q-42 -58 -115 -58t-115 58l22 18q14 -22 40 -35.5t53 -13.5t53 13.5t40 35.5z" />
    <glyph glyph-name="afii10193" unicode="&#x45f;" 
d="M156 -119v119h-91v483h30v-456h152v456h30v-483h-91v-119h-30z" />
    <glyph glyph-name="afii10050" unicode="&#x490;" horiz-adv-x="330" 
d="M104 637v-637h-32v667h178v124h32v-154h-178z" />
    <glyph glyph-name="afii10098" unicode="&#x491;" horiz-adv-x="275" 
d="M95 456v-456h-30v483h152v119h30v-146h-152z" />
    <glyph glyph-name="uni1E02" unicode="&#x1e02;" horiz-adv-x="360" 
d="M172 0h-100v667h96q60 0 95 -44.5t35 -125.5q0 -120 -78 -153q38 -7 62.5 -55.5t24.5 -108.5q0 -87 -34 -133.5t-101 -46.5zM168 358q95 0 95 139q0 140 -95 140h-64v-279h64zM172 30q100 0 100 149q0 64 -24 106.5t-76 42.5h-68v-298h68zM180 733q-11 0 -20 8.5t-9 20.5
t9 20.5t20 8.5q12 0 20.5 -8.5t8.5 -20.5t-8.5 -20.5t-20.5 -8.5z" />
    <glyph glyph-name="uni1E03" unicode="&#x1e03;" horiz-adv-x="351" 
d="M95 115q9 -40 34.5 -70t53.5 -30q88 0 88 226q0 227 -88 227q-27 0 -53 -31t-35 -71v-251zM95 0h-30v667h30v-256q14 41 38.5 62.5t49.5 21.5q62 0 91.5 -70t29.5 -184q0 -74 -11.5 -129t-39.5 -89.5t-70 -34.5q-24 0 -48.5 22.5t-39.5 59.5v-70zM185 733q-11 0 -20 8.5
t-9 20.5t9 20.5t20 8.5q12 0 20.5 -8.5t8.5 -20.5t-8.5 -20.5t-20.5 -8.5z" />
    <glyph glyph-name="uni1E0A" unicode="&#x1e0a;" horiz-adv-x="386" 
d="M165 0h-93v667h93q86 0 127 -90t41 -244q0 -155 -41 -244t-127 -89zM165 30q133 0 133 303q0 304 -133 304h-61v-607h61zM193 733q-11 0 -20 8.5t-9 20.5t9 20.5t20 8.5q12 0 20.5 -8.5t8.5 -20.5t-8.5 -20.5t-20.5 -8.5z" />
    <glyph glyph-name="uni1E0B" unicode="&#x1e0b;" horiz-adv-x="351" 
d="M286 0h-30v70q-15 -37 -39.5 -59.5t-48.5 -22.5q-42 0 -70 34.5t-39.5 89.5t-11.5 129q0 114 29.5 184t91.5 70q25 0 49.5 -21.5t38.5 -62.5v256h30v-667zM168 15q28 0 53.5 30t34.5 70v251q-9 40 -34.5 71t-53.5 31q-88 0 -88 -227q0 -226 88 -226zM167 733
q-11 0 -20 8.5t-9 20.5t9 20.5t20 8.5q12 0 20.5 -8.5t8.5 -20.5t-8.5 -20.5t-20.5 -8.5z" />
    <glyph glyph-name="uni1E1E" unicode="&#x1e1e;" horiz-adv-x="330" 
d="M104 0h-32v667h210v-30h-178v-279h171v-30h-171v-328zM181 733q-11 0 -20 8.5t-9 20.5t9 20.5t20 8.5q12 0 20.5 -8.5t8.5 -20.5t-8.5 -20.5t-20.5 -8.5z" />
    <glyph glyph-name="uni1E1F" unicode="&#x1e1f;" horiz-adv-x="202" 
d="M108 0h-30v456h-50v27h50v107q0 39 21.5 63t57.5 24t56 -27l-20 -23q-16 23 -36 23q-49 0 -49 -60v-107h70v-27h-70v-456zM155 733q-11 0 -20 8.5t-9 20.5t9 20.5t20 8.5q12 0 20.5 -8.5t8.5 -20.5t-8.5 -20.5t-20.5 -8.5z" />
    <glyph glyph-name="uni1E22" unicode="&#x1e22;" horiz-adv-x="395" 
d="M323 0h-32v328h-187v-328h-32v667h32v-309h187v309h32v-667zM197 733q-11 0 -20 8.5t-9 20.5t9 20.5t20 8.5q12 0 20.5 -8.5t8.5 -20.5t-8.5 -20.5t-20.5 -8.5z" />
    <glyph glyph-name="uni1E23" unicode="&#x1e23;" 
d="M277 0h-30v394q0 74 -53 74q-30 0 -57 -27.5t-42 -66.5v-374h-30v667h30v-256q18 37 45 60.5t58 23.5q42 0 60.5 -23.5t18.5 -77.5v-394zM171 733q-11 0 -20 8.5t-9 20.5t9 20.5t20 8.5q12 0 20.5 -8.5t8.5 -20.5t-8.5 -20.5t-20.5 -8.5z" />
    <glyph glyph-name="uni1E56" unicode="&#x1e56;" horiz-adv-x="341" 
d="M104 0h-32v667h100q67 0 101 -53.5t34 -135.5t-34 -135.5t-101 -53.5h-68v-289zM171 319q50 0 75.5 43.5t25.5 115.5t-25.5 115.5t-75.5 43.5h-67v-318h67zM170 733q-11 0 -20 8.5t-9 20.5t9 20.5t20 8.5q12 0 20.5 -8.5t8.5 -20.5t-8.5 -20.5t-20.5 -8.5z" />
    <glyph glyph-name="uni1E57" unicode="&#x1e57;" horiz-adv-x="351" 
d="M183 -12q-25 0 -49.5 21.5t-38.5 62.5v-256h-30v667h30v-70q15 37 39.5 59.5t48.5 22.5q42 0 70 -34.5t39.5 -89.5t11.5 -129q0 -114 -29.5 -184t-91.5 -70zM183 15q88 0 88 227q0 226 -88 226q-28 0 -53.5 -30t-34.5 -70v-251q9 -40 35 -71t53 -31zM185 566
q-11 0 -20 8.5t-9 20.5t9 20.5t20 8.5q12 0 20.5 -8.5t8.5 -20.5t-8.5 -20.5t-20.5 -8.5z" />
    <glyph glyph-name="uni1E60" unicode="&#x1e60;" horiz-adv-x="319" 
d="M145 -12q-70 0 -118 57l24 26q16 -24 42 -38.5t52 -14.5q43 0 73 35.5t30 93.5q0 50 -21 91t-50.5 71t-59.5 59.5t-51 71.5t-21 92q0 66 37 106t88 40q59 0 97 -41l-19 -25q-32 36 -78 36q-38 0 -65.5 -32t-27.5 -84q0 -42 21 -79.5t50.5 -67t59.5 -61.5t51 -77.5
t21 -99.5q0 -68 -37.5 -113.5t-97.5 -45.5zM159 733q-11 0 -20 8.5t-9 20.5t9 20.5t20 8.5q12 0 20.5 -8.5t8.5 -20.5t-8.5 -20.5t-20.5 -8.5z" />
    <glyph glyph-name="uni1E61" unicode="&#x1e61;" horiz-adv-x="278" 
d="M137 -12q-68 0 -109 59l22 21q36 -53 87 -53q32 0 55.5 25t23.5 65q0 37 -18 66.5t-43.5 50t-51 42t-43.5 53.5t-18 73q0 46 30.5 75.5t74.5 29.5q57 0 93 -51l-20 -20q-28 44 -73 44q-34 0 -54.5 -22.5t-20.5 -55.5q0 -35 18 -63t43.5 -49t51 -43t43.5 -55t18 -75
q0 -52 -32 -84.5t-77 -32.5zM139 566q-11 0 -20 8.5t-9 20.5t9 20.5t20 8.5q12 0 20.5 -8.5t8.5 -20.5t-8.5 -20.5t-20.5 -8.5z" />
    <glyph glyph-name="uni1E6A" unicode="&#x1e6a;" horiz-adv-x="287" 
d="M159 0h-32v637h-109v30h251v-30h-110v-637zM143 733q-11 0 -20 8.5t-9 20.5t9 20.5t20 8.5q12 0 20.5 -8.5t8.5 -20.5t-8.5 -20.5t-20.5 -8.5z" />
    <glyph glyph-name="uni1E6B" unicode="&#x1e6b;" horiz-adv-x="212" 
d="M142 -12q-64 0 -64 88v380h-52v27h52v132h30v-132h70v-27h-70v-380q0 -32 7.5 -46.5t26.5 -14.5q21 0 36 21l21 -18q-25 -30 -57 -30zM93 733q-11 0 -20 8.5t-9 20.5t9 20.5t20 8.5q12 0 20.5 -8.5t8.5 -20.5t-8.5 -20.5t-20.5 -8.5z" />
    <glyph glyph-name="Wgrave" unicode="&#x1e80;" horiz-adv-x="490" 
d="M366 0h-38l-83 587l-83 -587h-38l-100 667h35l84 -604l85 604h34l85 -604l84 604h35zM275 723h-24l-95 144h41z" />
    <glyph glyph-name="wgrave" unicode="&#x1e81;" horiz-adv-x="484" 
d="M364 0h-30l-92 440l-92 -440h-30l-100 483h33l82 -436l89 436h36l89 -436l82 436h33zM272 556h-24l-95 144h41z" />
    <glyph glyph-name="Wacute" unicode="&#x1e82;" horiz-adv-x="490" 
d="M366 0h-38l-83 587l-83 -587h-38l-100 667h35l84 -604l85 604h34l85 -604l84 604h35zM346 867l-95 -144h-24l78 144h41z" />
    <glyph glyph-name="wacute" unicode="&#x1e83;" horiz-adv-x="484" 
d="M364 0h-30l-92 440l-92 -440h-30l-100 483h33l82 -436l89 436h36l89 -436l82 436h33zM331 700l-95 -144h-24l78 144h41z" />
    <glyph glyph-name="Wdieresis" unicode="&#x1e84;" horiz-adv-x="490" 
d="M366 0h-38l-83 587l-83 -587h-38l-100 667h35l84 -604l85 604h34l85 -604l84 604h35zM334 765q0 -11 -8.5 -19.5t-19.5 -8.5t-19.5 8.5t-8.5 19.5t8.5 19.5t19.5 8.5t19.5 -8.5t8.5 -19.5zM212 765q0 -11 -8.5 -19.5t-19.5 -8.5t-19.5 8.5t-8.5 19.5t8.5 19.5t19.5 8.5
t19.5 -8.5t8.5 -19.5z" />
    <glyph glyph-name="wdieresis" unicode="&#x1e85;" horiz-adv-x="484" 
d="M364 0h-30l-92 440l-92 -440h-30l-100 483h33l82 -436l89 436h36l89 -436l82 436h33zM331 598q0 -11 -8.5 -19.5t-19.5 -8.5t-19.5 8.5t-8.5 19.5t8.5 19.5t19.5 8.5t19.5 -8.5t8.5 -19.5zM209 598q0 -11 -8.5 -19.5t-19.5 -8.5t-19.5 8.5t-8.5 19.5t8.5 19.5t19.5 8.5
t19.5 -8.5t8.5 -19.5z" />
    <glyph glyph-name="uni1EA0" unicode="&#x1ea0;" horiz-adv-x="312" 
d="M300 0h-33l-32 179h-158l-32 -179h-33l125 667h38zM230 209l-74 411l-74 -411h148zM156 -173q-11 0 -20 8.5t-9 20.5t9 20.5t20 8.5q12 0 20.5 -8.5t8.5 -20.5t-8.5 -20.5t-20.5 -8.5z" />
    <glyph glyph-name="uni1EA1" unicode="&#x1ea1;" 
d="M277 0h-30v53q-31 -65 -88 -65q-54 0 -86 45t-32 116t32 116t86 45q58 0 88 -63v101q0 62 -17 91t-60 29q-51 0 -93 -54l-18 23q54 58 111 58q59 0 83 -35t24 -111v-349zM159 15q63 0 88 73v120q-25 75 -88 75q-42 0 -63.5 -39t-21.5 -95t21.5 -95t63.5 -39zM170 -173
q-11 0 -20 8.5t-9 20.5t9 20.5t20 8.5q12 0 20.5 -8.5t8.5 -20.5t-8.5 -20.5t-20.5 -8.5z" />
    <glyph glyph-name="uni1EA2" unicode="&#x1ea2;" horiz-adv-x="312" 
d="M300 0h-33l-32 179h-158l-32 -179h-33l125 667h38zM230 209l-74 411l-74 -411h148zM127 772l-21 6q10 42 50 42q49 0 49 -57q0 -35 -23 -66h-25q25 31 25 66t-26 35q-22 0 -29 -26z" />
    <glyph glyph-name="uni1EA3" unicode="&#x1ea3;" 
d="M277 0h-30v53q-31 -65 -88 -65q-54 0 -86 45t-32 116t32 116t86 45q58 0 88 -63v101q0 62 -17 91t-60 29q-51 0 -93 -54l-18 23q54 58 111 58q59 0 83 -35t24 -111v-349zM159 15q63 0 88 73v120q-25 75 -88 75q-42 0 -63.5 -39t-21.5 -95t21.5 -95t63.5 -39zM142 602
l-21 6q10 42 50 42q49 0 49 -57q0 -35 -23 -66h-25q25 31 25 66t-26 35q-23 0 -29 -26z" />
    <glyph glyph-name="uni1EA4" unicode="&#x1ea4;" horiz-adv-x="312" 
d="M244 682h-23l-66 87l-63 -87h-23l68 108h36zM300 0h-33l-32 179h-158l-32 -179h-33l125 667h38zM230 209l-74 411l-74 -411h148zM339 843l-95 -108h-24l78 108h41z" />
    <glyph glyph-name="uni1EA5" unicode="&#x1ea5;" 
d="M277 0h-30v53q-31 -65 -88 -65q-54 0 -86 45t-32 116t32 116t86 45q58 0 88 -63v101q0 62 -17 91t-60 29q-51 0 -93 -54l-18 23q54 58 111 58q59 0 83 -35t24 -111v-349zM159 15q63 0 88 73v120q-25 75 -88 75q-42 0 -63.5 -39t-21.5 -95t21.5 -95t63.5 -39zM260 556h-23
l-66 116l-63 -116h-23l68 144h36zM353 771l-95 -144h-24l78 144h41z" />
    <glyph glyph-name="uni1EA6" unicode="&#x1ea6;" horiz-adv-x="312" 
d="M244 682h-23l-66 87l-63 -87h-23l68 108h36zM300 0h-33l-32 179h-158l-32 -179h-33l125 667h38zM230 209l-74 411l-74 -411h148zM92 735h-24l-95 108h41z" />
    <glyph glyph-name="uni1EA7" unicode="&#x1ea7;" 
d="M277 0h-30v53q-31 -65 -88 -65q-54 0 -86 45t-32 116t32 116t86 45q58 0 88 -63v101q0 62 -17 91t-60 29q-51 0 -93 -54l-18 23q54 58 111 58q59 0 83 -35t24 -111v-349zM159 15q63 0 88 73v120q-25 75 -88 75q-42 0 -63.5 -39t-21.5 -95t21.5 -95t63.5 -39zM260 556h-23
l-66 116l-63 -116h-23l68 144h36zM109 627h-24l-95 144h41z" />
    <glyph glyph-name="uni1EA8" unicode="&#x1ea8;" horiz-adv-x="312" 
d="M244 682h-23l-66 87l-63 -87h-23l68 108h36zM300 0h-33l-32 179h-158l-32 -179h-33l125 667h38zM230 209l-74 411l-74 -411h148zM209 798l-21 5q10 31 50 31q49 0 49 -42q0 -27 -23 -50h-25q25 24 25 50t-26 26q-22 0 -29 -20z" />
    <glyph glyph-name="uni1EA9" unicode="&#x1ea9;" 
d="M277 0h-30v53q-31 -65 -88 -65q-54 0 -86 45t-32 116t32 116t86 45q58 0 88 -63v101q0 62 -17 91t-60 29q-51 0 -93 -54l-18 23q54 58 111 58q59 0 83 -35t24 -111v-349zM159 15q63 0 88 73v120q-25 75 -88 75q-42 0 -63.5 -39t-21.5 -95t21.5 -95t63.5 -39zM260 556h-23
l-66 116l-63 -116h-23l68 144h36zM198 742l-21 6q10 42 50 42q49 0 49 -57q0 -35 -23 -66h-25q25 31 25 66t-26 35q-23 0 -29 -26z" />
    <glyph glyph-name="uni1EAA" unicode="&#x1eaa;" horiz-adv-x="312" 
d="M244 678h-23l-66 58l-63 -58h-23l68 72h36zM300 0h-33l-32 179h-158l-32 -179h-33l125 667h38zM230 209l-74 411l-74 -411h148zM193 757q-19 0 -31 8.5t-15.5 19.5t-11.5 19.5t-20 8.5q-38 0 -38 -53h-22q0 67 63 67q19 0 31 -9t15.5 -19.5t11.5 -19.5t20 -9q38 0 38 54
h22q0 -67 -63 -67z" />
    <glyph glyph-name="uni1EAB" unicode="&#x1eab;" 
d="M277 0h-30v53q-31 -65 -88 -65q-54 0 -86 45t-32 116t32 116t86 45q58 0 88 -63v101q0 62 -17 91t-60 29q-51 0 -93 -54l-18 23q54 58 111 58q59 0 83 -35t24 -111v-349zM159 15q63 0 88 73v120q-25 75 -88 75q-42 0 -63.5 -39t-21.5 -95t21.5 -95t63.5 -39zM260 523h-23
l-66 116l-63 -116h-23l68 144h36zM208 682q-19 0 -31 17.5t-15.5 39t-11.5 39t-20 17.5q-38 0 -38 -107h-22q0 134 63 134q19 0 31 -17.5t15.5 -39t11.5 -39t20 -17.5q38 0 38 107h22q0 -134 -63 -134z" />
    <glyph glyph-name="uni1EAC" unicode="&#x1eac;" horiz-adv-x="312" 
d="M300 0h-33l-32 179h-158l-32 -179h-33l125 667h38zM230 209l-74 411l-74 -411h148zM156 -173q-11 0 -20 8.5t-9 20.5t9 20.5t20 8.5q12 0 20.5 -8.5t8.5 -20.5t-8.5 -20.5t-20.5 -8.5zM244 723h-23l-66 116l-63 -116h-23l68 144h36z" />
    <glyph glyph-name="uni1EAD" unicode="&#x1ead;" 
d="M277 0h-30v53q-31 -65 -88 -65q-54 0 -86 45t-32 116t32 116t86 45q58 0 88 -63v101q0 62 -17 91t-60 29q-51 0 -93 -54l-18 23q54 58 111 58q59 0 83 -35t24 -111v-349zM159 15q63 0 88 73v120q-25 75 -88 75q-42 0 -63.5 -39t-21.5 -95t21.5 -95t63.5 -39zM170 -173
q-11 0 -20 8.5t-9 20.5t9 20.5t20 8.5q12 0 20.5 -8.5t8.5 -20.5t-8.5 -20.5t-20.5 -8.5zM258 556h-23l-66 116l-63 -116h-23l68 144h36z" />
    <glyph glyph-name="uni1EAE" unicode="&#x1eae;" horiz-adv-x="312" 
d="M300 0h-33l-32 179h-158l-32 -179h-33l125 667h38zM230 209l-74 411l-74 -411h148zM271 747q-42 -58 -115 -58t-115 58l22 18q14 -22 40 -35.5t53 -13.5t53 13.5t40 35.5zM244 843l-95 -108h-24l78 108h41z" />
    <glyph glyph-name="uni1EAF" unicode="&#x1eaf;" 
d="M277 0h-30v53q-31 -65 -88 -65q-54 0 -86 45t-32 116t32 116t86 45q58 0 88 -63v101q0 62 -17 91t-60 29q-51 0 -93 -54l-18 23q54 58 111 58q59 0 83 -35t24 -111v-349zM159 15q63 0 88 73v120q-25 75 -88 75q-42 0 -63.5 -39t-21.5 -95t21.5 -95t63.5 -39zM286 589
q-42 -58 -115 -58t-115 58l22 18q14 -22 40 -35.5t53 -13.5t53 13.5t40 35.5zM259 756l-95 -144h-24l78 144h41z" />
    <glyph glyph-name="uni1EB0" unicode="&#x1eb0;" horiz-adv-x="312" 
d="M300 0h-33l-32 179h-158l-32 -179h-33l125 667h38zM230 209l-74 411l-74 -411h148zM271 747q-42 -58 -115 -58t-115 58l22 18q14 -22 40 -35.5t53 -13.5t53 13.5t40 35.5zM190 735h-24l-95 108h41z" />
    <glyph glyph-name="uni1EB1" unicode="&#x1eb1;" 
d="M277 0h-30v53q-31 -65 -88 -65q-54 0 -86 45t-32 116t32 116t86 45q58 0 88 -63v101q0 62 -17 91t-60 29q-51 0 -93 -54l-18 23q54 58 111 58q59 0 83 -35t24 -111v-349zM159 15q63 0 88 73v120q-25 75 -88 75q-42 0 -63.5 -39t-21.5 -95t21.5 -95t63.5 -39zM286 589
q-42 -58 -115 -58t-115 58l22 18q14 -22 40 -35.5t53 -13.5t53 13.5t40 35.5zM199 612h-24l-95 144h41z" />
    <glyph glyph-name="uni1EB2" unicode="&#x1eb2;" horiz-adv-x="312" 
d="M300 0h-33l-32 179h-158l-32 -179h-33l125 667h38zM230 209l-74 411l-74 -411h148zM271 747q-42 -58 -115 -58t-115 58l22 18q14 -22 40 -35.5t53 -13.5t53 13.5t40 35.5zM128 796l-21 5q10 31 50 31q49 0 49 -42q0 -27 -23 -50h-25q25 24 25 50t-26 26q-22 0 -29 -20z
" />
    <glyph glyph-name="uni1EB3" unicode="&#x1eb3;" 
d="M277 0h-30v53q-31 -65 -88 -65q-54 0 -86 45t-32 116t32 116t86 45q58 0 88 -63v101q0 62 -17 91t-60 29q-51 0 -93 -54l-18 23q54 58 111 58q59 0 83 -35t24 -111v-349zM159 15q63 0 88 73v120q-25 75 -88 75q-42 0 -63.5 -39t-21.5 -95t21.5 -95t63.5 -39zM286 589
q-42 -58 -115 -58t-115 58l22 18q14 -22 40 -35.5t53 -13.5t53 13.5t40 35.5zM144 682l-21 6q10 42 50 42q49 0 49 -57q0 -35 -23 -66h-25q25 31 25 66t-26 35q-23 0 -29 -26z" />
    <glyph glyph-name="uni1EB4" unicode="&#x1eb4;" horiz-adv-x="312" 
d="M270 733q-42 -44 -115 -44t-115 44l22 13q14 -16 40.5 -26.5t52.5 -10.5t52.5 10.5t40.5 26.5zM300 0h-33l-32 179h-158l-32 -179h-33l125 667h38zM230 209l-74 411l-74 -411h148zM193 757q-19 0 -31 8.5t-15.5 19.5t-11.5 19.5t-20 8.5q-38 0 -38 -53h-22q0 67 63 67
q19 0 31 -9t15.5 -19.5t11.5 -19.5t20 -9q38 0 38 54h22q0 -67 -63 -67z" />
    <glyph glyph-name="uni1EB5" unicode="&#x1eb5;" 
d="M277 0h-30v53q-31 -65 -88 -65q-54 0 -86 45t-32 116t32 116t86 45q58 0 88 -63v101q0 62 -17 91t-60 29q-51 0 -93 -54l-18 23q54 58 111 58q59 0 83 -35t24 -111v-349zM159 15q63 0 88 73v120q-25 75 -88 75q-42 0 -63.5 -39t-21.5 -95t21.5 -95t63.5 -39zM286 589
q-42 -58 -115 -58t-115 58l22 18q14 -22 40 -35.5t53 -13.5t53 13.5t40 35.5zM204 636q-19 0 -31 17.5t-15.5 39t-11.5 39t-20 17.5q-38 0 -38 -107h-22q0 134 63 134q19 0 31 -17.5t15.5 -39t11.5 -39t20 -17.5q38 0 38 107h22q0 -134 -63 -134z" />
    <glyph glyph-name="uni1EB6" unicode="&#x1eb6;" horiz-adv-x="312" 
d="M300 0h-33l-32 179h-158l-32 -179h-33l125 667h38zM230 209l-74 411l-74 -411h148zM271 784q-42 -58 -115 -58t-115 58l22 18q14 -22 40 -35.5t53 -13.5t53 13.5t40 35.5zM156 -173q-11 0 -20 8.5t-9 20.5t9 20.5t20 8.5q12 0 20.5 -8.5t8.5 -20.5t-8.5 -20.5t-20.5 -8.5
z" />
    <glyph glyph-name="uni1EB7" unicode="&#x1eb7;" 
d="M277 0h-30v53q-31 -65 -88 -65q-54 0 -86 45t-32 116t32 116t86 45q58 0 88 -63v101q0 62 -17 91t-60 29q-51 0 -93 -54l-18 23q54 58 111 58q59 0 83 -35t24 -111v-349zM159 15q63 0 88 73v120q-25 75 -88 75q-42 0 -63.5 -39t-21.5 -95t21.5 -95t63.5 -39zM286 617
q-42 -58 -115 -58t-115 58l22 18q14 -22 40 -35.5t53 -13.5t53 13.5t40 35.5zM170 -173q-11 0 -20 8.5t-9 20.5t9 20.5t20 8.5q12 0 20.5 -8.5t8.5 -20.5t-8.5 -20.5t-20.5 -8.5z" />
    <glyph glyph-name="uni1EB8" unicode="&#x1eb8;" horiz-adv-x="330" 
d="M282 0h-210v667h210v-30h-178v-279h171v-30h-171v-298h178v-30zM186 -173q-11 0 -20 8.5t-9 20.5t9 20.5t20 8.5q12 0 20.5 -8.5t8.5 -20.5t-8.5 -20.5t-20.5 -8.5z" />
    <glyph glyph-name="uni1EB9" unicode="&#x1eb9;" horiz-adv-x="346" 
d="M193 -12q-75 0 -110.5 69.5t-35.5 184.5q0 113 31.5 183t97.5 70q68 0 98.5 -70.5t30.5 -182.5v-10h-225q0 -100 29.5 -158.5t83.5 -58.5q48 0 79 68l28 -14q-40 -81 -107 -81zM272 259q0 53 -7.5 96.5t-30 78t-58.5 34.5q-27 0 -47 -20.5t-30 -53.5t-14.5 -66.5
t-4.5 -68.5h192zM176 -173q-11 0 -20 8.5t-9 20.5t9 20.5t20 8.5q12 0 20.5 -8.5t8.5 -20.5t-8.5 -20.5t-20.5 -8.5z" />
    <glyph glyph-name="uni1EBA" unicode="&#x1eba;" horiz-adv-x="330" 
d="M282 0h-210v667h210v-30h-178v-279h171v-30h-171v-298h178v-30zM136 772l-21 6q10 42 50 42q49 0 49 -57q0 -35 -23 -66h-25q25 31 25 66t-26 35q-23 0 -29 -26z" />
    <glyph glyph-name="uni1EBB" unicode="&#x1ebb;" horiz-adv-x="346" 
d="M193 -12q-75 0 -110.5 69.5t-35.5 184.5q0 113 31.5 183t97.5 70q68 0 98.5 -70.5t30.5 -182.5v-10h-225q0 -100 29.5 -158.5t83.5 -58.5q48 0 79 68l28 -14q-40 -81 -107 -81zM272 259q0 53 -7.5 96.5t-30 78t-58.5 34.5q-27 0 -47 -20.5t-30 -53.5t-14.5 -66.5
t-4.5 -68.5h192zM144 602l-21 6q10 42 50 42q49 0 49 -57q0 -35 -23 -66h-25q25 31 25 66t-26 35q-23 0 -29 -26z" />
    <glyph glyph-name="uni1EBC" unicode="&#x1ebc;" horiz-adv-x="330" 
d="M282 0h-210v667h210v-30h-178v-279h171v-30h-171v-298h178v-30zM212 721q-19 0 -31 17.5t-15.5 39t-11.5 39t-20 17.5q-38 0 -38 -107h-22q0 134 63 134q19 0 31 -17.5t15.5 -39t11.5 -39t20 -17.5q38 0 38 107h22q0 -134 -63 -134z" />
    <glyph glyph-name="uni1EBD" unicode="&#x1ebd;" horiz-adv-x="346" 
d="M193 -12q-75 0 -110.5 69.5t-35.5 184.5q0 113 31.5 183t97.5 70q68 0 98.5 -70.5t30.5 -182.5v-10h-225q0 -100 29.5 -158.5t83.5 -58.5q48 0 79 68l28 -14q-40 -81 -107 -81zM272 259q0 53 -7.5 96.5t-30 78t-58.5 34.5q-27 0 -47 -20.5t-30 -53.5t-14.5 -66.5
t-4.5 -68.5h192zM215 554q-19 0 -31 17.5t-15.5 39t-11.5 39t-20 17.5q-38 0 -38 -107h-22q0 134 63 134q19 0 31 -17.5t15.5 -39t11.5 -39t20 -17.5q38 0 38 107h22q0 -134 -63 -134z" />
    <glyph glyph-name="uni1EBE" unicode="&#x1ebe;" horiz-adv-x="330" 
d="M282 0h-210v667h210v-30h-178v-279h171v-30h-171v-298h178v-30zM362 843l-95 -108h-24l78 108h41zM267 682h-23l-66 87l-63 -87h-23l68 108h36z" />
    <glyph glyph-name="uni1EBF" unicode="&#x1ebf;" horiz-adv-x="346" 
d="M193 -12q-75 0 -110.5 69.5t-35.5 184.5q0 113 31.5 183t97.5 70q68 0 98.5 -70.5t30.5 -182.5v-10h-225q0 -100 29.5 -158.5t83.5 -58.5q48 0 79 68l28 -14q-40 -81 -107 -81zM272 259q0 53 -7.5 96.5t-30 78t-58.5 34.5q-27 0 -47 -20.5t-30 -53.5t-14.5 -66.5
t-4.5 -68.5h192zM260 556h-23l-66 116l-63 -116h-23l68 144h36zM353 771l-95 -144h-24l78 144h41z" />
    <glyph glyph-name="uni1EC0" unicode="&#x1ec0;" horiz-adv-x="330" 
d="M282 0h-210v667h210v-30h-178v-279h171v-30h-171v-298h178v-30zM113 735h-24l-95 108h41zM265 682h-23l-66 87l-63 -87h-23l68 108h36z" />
    <glyph glyph-name="uni1EC1" unicode="&#x1ec1;" horiz-adv-x="346" 
d="M193 -12q-75 0 -110.5 69.5t-35.5 184.5q0 113 31.5 183t97.5 70q68 0 98.5 -70.5t30.5 -182.5v-10h-225q0 -100 29.5 -158.5t83.5 -58.5q48 0 79 68l28 -14q-40 -81 -107 -81zM272 259q0 53 -7.5 96.5t-30 78t-58.5 34.5q-27 0 -47 -20.5t-30 -53.5t-14.5 -66.5
t-4.5 -68.5h192zM109 627h-24l-95 144h41zM260 556h-23l-66 116l-63 -116h-23l68 144h36z" />
    <glyph glyph-name="uni1EC2" unicode="&#x1ec2;" horiz-adv-x="330" 
d="M282 0h-210v667h210v-30h-178v-279h171v-30h-171v-298h178v-30zM264 682h-23l-66 87l-63 -87h-23l68 108h36zM229 798l-21 5q10 31 50 31q49 0 49 -42q0 -27 -23 -50h-25q25 24 25 50t-26 26q-22 0 -29 -20z" />
    <glyph glyph-name="uni1EC3" unicode="&#x1ec3;" horiz-adv-x="346" 
d="M193 -12q-75 0 -110.5 69.5t-35.5 184.5q0 113 31.5 183t97.5 70q68 0 98.5 -70.5t30.5 -182.5v-10h-225q0 -100 29.5 -158.5t83.5 -58.5q48 0 79 68l28 -14q-40 -81 -107 -81zM272 259q0 53 -7.5 96.5t-30 78t-58.5 34.5q-27 0 -47 -20.5t-30 -53.5t-14.5 -66.5
t-4.5 -68.5h192zM260 556h-23l-66 116l-63 -116h-23l68 144h36zM198 742l-21 6q10 42 50 42q49 0 49 -57q0 -35 -23 -66h-25q25 31 25 66t-26 35q-23 0 -29 -26z" />
    <glyph glyph-name="uni1EC4" unicode="&#x1ec4;" horiz-adv-x="330" 
d="M282 0h-210v667h210v-30h-178v-279h171v-30h-171v-298h178v-30zM263 678h-23l-66 58l-63 -58h-23l68 72h36zM212 757q-19 0 -31 8.5t-15.5 19.5t-11.5 19.5t-20 8.5q-38 0 -38 -53h-22q0 67 63 67q19 0 31 -9t15.5 -19.5t11.5 -19.5t20 -9q38 0 38 54h22q0 -67 -63 -67z
" />
    <glyph glyph-name="uni1EC5" unicode="&#x1ec5;" horiz-adv-x="346" 
d="M193 -12q-75 0 -110.5 69.5t-35.5 184.5q0 113 31.5 183t97.5 70q68 0 98.5 -70.5t30.5 -182.5v-10h-225q0 -100 29.5 -158.5t83.5 -58.5q48 0 79 68l28 -14q-40 -81 -107 -81zM272 259q0 53 -7.5 96.5t-30 78t-58.5 34.5q-27 0 -47 -20.5t-30 -53.5t-14.5 -66.5
t-4.5 -68.5h192zM260 523h-23l-66 116l-63 -116h-23l68 144h36zM208 682q-19 0 -31 17.5t-15.5 39t-11.5 39t-20 17.5q-38 0 -38 -107h-22q0 134 63 134q19 0 31 -17.5t15.5 -39t11.5 -39t20 -17.5q38 0 38 107h22q0 -134 -63 -134z" />
    <glyph glyph-name="uni1EC6" unicode="&#x1ec6;" horiz-adv-x="330" 
d="M282 0h-210v667h210v-30h-178v-279h171v-30h-171v-298h178v-30zM186 -173q-11 0 -20 8.5t-9 20.5t9 20.5t20 8.5q12 0 20.5 -8.5t8.5 -20.5t-8.5 -20.5t-20.5 -8.5zM268 723h-23l-66 116l-63 -116h-23l68 144h36z" />
    <glyph glyph-name="uni1EC7" unicode="&#x1ec7;" horiz-adv-x="346" 
d="M193 -12q-75 0 -110.5 69.5t-35.5 184.5q0 113 31.5 183t97.5 70q68 0 98.5 -70.5t30.5 -182.5v-10h-225q0 -100 29.5 -158.5t83.5 -58.5q48 0 79 68l28 -14q-40 -81 -107 -81zM272 259q0 53 -7.5 96.5t-30 78t-58.5 34.5q-27 0 -47 -20.5t-30 -53.5t-14.5 -66.5
t-4.5 -68.5h192zM176 -173q-11 0 -20 8.5t-9 20.5t9 20.5t20 8.5q12 0 20.5 -8.5t8.5 -20.5t-8.5 -20.5t-20.5 -8.5zM264 556h-23l-66 116l-63 -116h-23l68 144h36z" />
    <glyph glyph-name="uni1EC8" unicode="&#x1ec8;" horiz-adv-x="176" 
d="M104 0h-32v667h32v-667zM59 772l-21 6q10 42 50 42q49 0 49 -57q0 -35 -23 -66h-25q25 31 25 66t-26 35q-22 0 -29 -26z" />
    <glyph glyph-name="uni1EC9" unicode="&#x1ec9;" horiz-adv-x="160" 
d="M95 0h-30v483h30v-483zM51 602l-21 6q10 42 50 42q49 0 49 -57q0 -35 -23 -66h-25q25 31 25 66t-26 35q-22 0 -29 -26z" />
    <glyph glyph-name="uni1ECA" unicode="&#x1eca;" horiz-adv-x="176" 
d="M104 0h-32v667h32v-667zM87 -173q-11 0 -20 8.5t-9 20.5t9 20.5t20 8.5q12 0 20.5 -8.5t8.5 -20.5t-8.5 -20.5t-20.5 -8.5z" />
    <glyph glyph-name="uni1ECB" unicode="&#x1ecb;" horiz-adv-x="160" 
d="M80 566q-11 0 -20 8.5t-9 20.5t9 20.5t20 8.5q12 0 20.5 -8.5t8.5 -20.5t-8.5 -20.5t-20.5 -8.5zM95 0h-30v483h30v-483zM80 -173q-11 0 -20 8.5t-9 20.5t9 20.5t20 8.5q12 0 20.5 -8.5t8.5 -20.5t-8.5 -20.5t-20.5 -8.5z" />
    <glyph glyph-name="uni1ECC" unicode="&#x1ecc;" horiz-adv-x="396" 
d="M198 -12q-53 0 -86.5 49.5t-46 123t-12.5 172.5t12.5 172.5t46 123t86.5 49.5t86.5 -49.5t46 -123t12.5 -172.5t-12.5 -172.5t-46 -123t-86.5 -49.5zM198 18q57 0 83.5 88.5t26.5 226.5q0 139 -26.5 227t-83.5 88t-83.5 -88t-26.5 -227q0 -138 26.5 -226.5t83.5 -88.5z
M200 -173q-11 0 -20 8.5t-9 20.5t9 20.5t20 8.5q12 0 20.5 -8.5t8.5 -20.5t-8.5 -20.5t-20.5 -8.5z" />
    <glyph glyph-name="uni1ECD" unicode="&#x1ecd;" horiz-adv-x="352" 
d="M176 -12q-46 0 -76 37t-41.5 91.5t-11.5 125.5t11.5 125t41.5 91t76 37q68 0 98.5 -71t30.5 -182t-30.5 -182.5t-98.5 -71.5zM176 15q96 0 96 227q0 226 -96 226t-96 -226q0 -227 96 -227zM178 -173q-11 0 -20 8.5t-9 20.5t9 20.5t20 8.5q12 0 20.5 -8.5t8.5 -20.5
t-8.5 -20.5t-20.5 -8.5z" />
    <glyph glyph-name="uni1ECE" unicode="&#x1ece;" horiz-adv-x="396" 
d="M198 -12q-53 0 -86.5 49.5t-46 123t-12.5 172.5t12.5 172.5t46 123t86.5 49.5t86.5 -49.5t46 -123t12.5 -172.5t-12.5 -172.5t-46 -123t-86.5 -49.5zM198 18q57 0 83.5 88.5t26.5 226.5q0 139 -26.5 227t-83.5 88t-83.5 -88t-26.5 -227q0 -138 26.5 -226.5t83.5 -88.5z
M171 772l-21 6q10 42 50 42q49 0 49 -57q0 -35 -23 -66h-25q25 31 25 66t-26 35q-22 0 -29 -26z" />
    <glyph glyph-name="uni1ECF" unicode="&#x1ecf;" horiz-adv-x="352" 
d="M176 -12q-46 0 -76 37t-41.5 91.5t-11.5 125.5t11.5 125t41.5 91t76 37q68 0 98.5 -71t30.5 -182t-30.5 -182.5t-98.5 -71.5zM176 15q96 0 96 227q0 226 -96 226t-96 -226q0 -227 96 -227zM148 602l-21 6q10 42 50 42q49 0 49 -57q0 -35 -23 -66h-25q25 31 25 66t-26 35
q-23 0 -29 -26z" />
    <glyph glyph-name="uni1ED0" unicode="&#x1ed0;" horiz-adv-x="396" 
d="M198 -12q-53 0 -86.5 49.5t-46 123t-12.5 172.5t12.5 172.5t46 123t86.5 49.5t86.5 -49.5t46 -123t12.5 -172.5t-12.5 -172.5t-46 -123t-86.5 -49.5zM198 18q57 0 83.5 88.5t26.5 226.5q0 139 -26.5 227t-83.5 88t-83.5 -88t-26.5 -227q0 -138 26.5 -226.5t83.5 -88.5z
M283 682h-23l-66 87l-63 -87h-23l68 108h36zM378 843l-95 -108h-24l78 108h41z" />
    <glyph glyph-name="uni1ED1" unicode="&#x1ed1;" horiz-adv-x="352" 
d="M176 -12q-46 0 -76 37t-41.5 91.5t-11.5 125.5t11.5 125t41.5 91t76 37q68 0 98.5 -71t30.5 -182t-30.5 -182.5t-98.5 -71.5zM176 15q96 0 96 227q0 226 -96 226t-96 -226q0 -227 96 -227zM260 556h-23l-66 116l-63 -116h-23l68 144h36zM353 771l-95 -144h-24l78 144h41z
" />
    <glyph glyph-name="uni1ED2" unicode="&#x1ed2;" horiz-adv-x="396" 
d="M198 -12q-53 0 -86.5 49.5t-46 123t-12.5 172.5t12.5 172.5t46 123t86.5 49.5t86.5 -49.5t46 -123t12.5 -172.5t-12.5 -172.5t-46 -123t-86.5 -49.5zM198 18q57 0 83.5 88.5t26.5 226.5q0 139 -26.5 227t-83.5 88t-83.5 -88t-26.5 -227q0 -138 26.5 -226.5t83.5 -88.5z
M129 735h-24l-95 108h41zM281 682h-23l-66 87l-63 -87h-23l68 108h36z" />
    <glyph glyph-name="uni1ED3" unicode="&#x1ed3;" horiz-adv-x="352" 
d="M176 -12q-46 0 -76 37t-41.5 91.5t-11.5 125.5t11.5 125t41.5 91t76 37q68 0 98.5 -71t30.5 -182t-30.5 -182.5t-98.5 -71.5zM176 15q96 0 96 227q0 226 -96 226t-96 -226q0 -227 96 -227zM109 627h-24l-95 144h41zM260 556h-23l-66 116l-63 -116h-23l68 144h36z" />
    <glyph glyph-name="uni1ED4" unicode="&#x1ed4;" horiz-adv-x="396" 
d="M198 -12q-53 0 -86.5 49.5t-46 123t-12.5 172.5t12.5 172.5t46 123t86.5 49.5t86.5 -49.5t46 -123t12.5 -172.5t-12.5 -172.5t-46 -123t-86.5 -49.5zM198 18q57 0 83.5 88.5t26.5 226.5q0 139 -26.5 227t-83.5 88t-83.5 -88t-26.5 -227q0 -138 26.5 -226.5t83.5 -88.5z
M282 682h-23l-66 87l-63 -87h-23l68 108h36zM247 798l-21 5q10 31 50 31q49 0 49 -42q0 -27 -23 -50h-25q25 24 25 50t-26 26q-22 0 -29 -20z" />
    <glyph glyph-name="uni1ED5" unicode="&#x1ed5;" horiz-adv-x="352" 
d="M176 -12q-46 0 -76 37t-41.5 91.5t-11.5 125.5t11.5 125t41.5 91t76 37q68 0 98.5 -71t30.5 -182t-30.5 -182.5t-98.5 -71.5zM176 15q96 0 96 227q0 226 -96 226t-96 -226q0 -227 96 -227zM260 556h-23l-66 116l-63 -116h-23l68 144h36zM198 742l-21 6q10 42 50 42
q49 0 49 -57q0 -35 -23 -66h-25q25 31 25 66t-26 35q-23 0 -29 -26z" />
    <glyph glyph-name="uni1ED6" unicode="&#x1ed6;" horiz-adv-x="396" 
d="M198 -12q-53 0 -86.5 49.5t-46 123t-12.5 172.5t12.5 172.5t46 123t86.5 49.5t86.5 -49.5t46 -123t12.5 -172.5t-12.5 -172.5t-46 -123t-86.5 -49.5zM198 18q57 0 83.5 88.5t26.5 226.5q0 139 -26.5 227t-83.5 88t-83.5 -88t-26.5 -227q0 -138 26.5 -226.5t83.5 -88.5z
M287 678h-23l-66 58l-63 -58h-23l68 72h36zM236 757q-19 0 -31 8.5t-15.5 19.5t-11.5 19.5t-20 8.5q-38 0 -38 -53h-22q0 67 63 67q19 0 31 -9t15.5 -19.5t11.5 -19.5t20 -9q38 0 38 54h22q0 -67 -63 -67z" />
    <glyph glyph-name="uni1ED7" unicode="&#x1ed7;" horiz-adv-x="352" 
d="M176 -12q-46 0 -76 37t-41.5 91.5t-11.5 125.5t11.5 125t41.5 91t76 37q68 0 98.5 -71t30.5 -182t-30.5 -182.5t-98.5 -71.5zM176 15q96 0 96 227q0 226 -96 226t-96 -226q0 -227 96 -227zM266 523h-23l-66 116l-63 -116h-23l68 144h36zM214 682q-19 0 -31 17.5t-15.5 39
t-11.5 39t-20 17.5q-38 0 -38 -107h-22q0 134 63 134q19 0 31 -17.5t15.5 -39t11.5 -39t20 -17.5q38 0 38 107h22q0 -134 -63 -134z" />
    <glyph glyph-name="uni1ED8" unicode="&#x1ed8;" horiz-adv-x="396" 
d="M198 -12q-53 0 -86.5 49.5t-46 123t-12.5 172.5t12.5 172.5t46 123t86.5 49.5t86.5 -49.5t46 -123t12.5 -172.5t-12.5 -172.5t-46 -123t-86.5 -49.5zM198 18q57 0 83.5 88.5t26.5 226.5q0 139 -26.5 227t-83.5 88t-83.5 -88t-26.5 -227q0 -138 26.5 -226.5t83.5 -88.5z
M200 -173q-11 0 -20 8.5t-9 20.5t9 20.5t20 8.5q12 0 20.5 -8.5t8.5 -20.5t-8.5 -20.5t-20.5 -8.5zM286 723h-23l-66 116l-63 -116h-23l68 144h36z" />
    <glyph glyph-name="uni1ED9" unicode="&#x1ed9;" horiz-adv-x="352" 
d="M176 -12q-46 0 -76 37t-41.5 91.5t-11.5 125.5t11.5 125t41.5 91t76 37q68 0 98.5 -71t30.5 -182t-30.5 -182.5t-98.5 -71.5zM176 15q96 0 96 227q0 226 -96 226t-96 -226q0 -227 96 -227zM178 -173q-11 0 -20 8.5t-9 20.5t9 20.5t20 8.5q12 0 20.5 -8.5t8.5 -20.5
t-8.5 -20.5t-20.5 -8.5zM263 556h-23l-66 116l-63 -116h-23l68 144h36z" />
    <glyph glyph-name="uni1EDA" unicode="&#x1eda;" horiz-adv-x="396" 
d="M198 -12q-53 0 -86.5 49.5t-46 123t-12.5 172.5t12.5 172.5t46 123t86.5 49.5q78 0 114 -106q39 39 39 80q-5 -1 -7 -1q-14 0 -23 9.5t-9 23.5q0 13 9 22.5t23 9.5q16 0 27 -14t11 -39q0 -36 -18 -69t-43 -51q22 -81 22 -210q0 -99 -12.5 -172.5t-46 -123t-86.5 -49.5z
M198 18q57 0 83.5 88.5t26.5 226.5q0 139 -26.5 227t-83.5 88t-83.5 -88t-26.5 -227q0 -138 26.5 -226.5t83.5 -88.5zM287 867l-95 -144h-24l78 144h41z" />
    <glyph glyph-name="uni1EDB" unicode="&#x1edb;" horiz-adv-x="352" 
d="M333 529q0 -33 -15.5 -64.5t-38.5 -50.5q26 -64 26 -172q0 -111 -30.5 -182.5t-98.5 -71.5q-46 0 -76 37t-41.5 91.5t-11.5 125.5t11.5 125t41.5 91t76 37q57 0 90 -54q36 38 36 77q-5 -1 -7 -1q-14 0 -23 9.5t-9 23.5q0 13 9 22.5t23 9.5q16 0 27 -14t11 -39zM176 15
q96 0 96 227q0 226 -96 226t-96 -226q0 -227 96 -227zM265 700l-95 -144h-24l78 144h41z" />
    <glyph glyph-name="uni1EDC" unicode="&#x1edc;" horiz-adv-x="396" 
d="M198 -12q-53 0 -86.5 49.5t-46 123t-12.5 172.5t12.5 172.5t46 123t86.5 49.5q78 0 114 -106q39 39 39 80q-5 -1 -7 -1q-14 0 -23 9.5t-9 23.5q0 13 9 22.5t23 9.5q16 0 27 -14t11 -39q0 -36 -18 -69t-43 -51q22 -81 22 -210q0 -99 -12.5 -172.5t-46 -123t-86.5 -49.5z
M198 18q57 0 83.5 88.5t26.5 226.5q0 139 -26.5 227t-83.5 88t-83.5 -88t-26.5 -227q0 -138 26.5 -226.5t83.5 -88.5zM228 723h-24l-95 144h41z" />
    <glyph glyph-name="uni1EDD" unicode="&#x1edd;" horiz-adv-x="352" 
d="M333 529q0 -33 -15.5 -64.5t-38.5 -50.5q26 -64 26 -172q0 -111 -30.5 -182.5t-98.5 -71.5q-46 0 -76 37t-41.5 91.5t-11.5 125.5t11.5 125t41.5 91t76 37q57 0 90 -54q36 38 36 77q-5 -1 -7 -1q-14 0 -23 9.5t-9 23.5q0 13 9 22.5t23 9.5q16 0 27 -14t11 -39zM176 15
q96 0 96 227q0 226 -96 226t-96 -226q0 -227 96 -227zM207 556h-24l-95 144h41z" />
    <glyph glyph-name="uni1EDE" unicode="&#x1ede;" horiz-adv-x="396" 
d="M198 -12q-53 0 -86.5 49.5t-46 123t-12.5 172.5t12.5 172.5t46 123t86.5 49.5q78 0 114 -106q39 39 39 80q-5 -1 -7 -1q-14 0 -23 9.5t-9 23.5q0 13 9 22.5t23 9.5q16 0 27 -14t11 -39q0 -36 -18 -69t-43 -51q22 -81 22 -210q0 -99 -12.5 -172.5t-46 -123t-86.5 -49.5z
M198 18q57 0 83.5 88.5t26.5 226.5q0 139 -26.5 227t-83.5 88t-83.5 -88t-26.5 -227q0 -138 26.5 -226.5t83.5 -88.5zM169 772l-21 6q10 42 50 42q49 0 49 -57q0 -35 -23 -66h-25q25 31 25 66t-26 35q-22 0 -29 -26z" />
    <glyph glyph-name="uni1EDF" unicode="&#x1edf;" horiz-adv-x="352" 
d="M333 529q0 -33 -15.5 -64.5t-38.5 -50.5q26 -64 26 -172q0 -111 -30.5 -182.5t-98.5 -71.5q-46 0 -76 37t-41.5 91.5t-11.5 125.5t11.5 125t41.5 91t76 37q57 0 90 -54q36 38 36 77q-5 -1 -7 -1q-14 0 -23 9.5t-9 23.5q0 13 9 22.5t23 9.5q16 0 27 -14t11 -39zM176 15
q96 0 96 227q0 226 -96 226t-96 -226q0 -227 96 -227zM147 602l-21 6q10 42 50 42q49 0 49 -57q0 -35 -23 -66h-25q25 31 25 66t-26 35q-22 0 -29 -26z" />
    <glyph glyph-name="uni1EE0" unicode="&#x1ee0;" horiz-adv-x="396" 
d="M198 -12q-53 0 -86.5 49.5t-46 123t-12.5 172.5t12.5 172.5t46 123t86.5 49.5q78 0 114 -106q39 39 39 80q-5 -1 -7 -1q-14 0 -23 9.5t-9 23.5q0 13 9 22.5t23 9.5q16 0 27 -14t11 -39q0 -36 -18 -69t-43 -51q22 -81 22 -210q0 -99 -12.5 -172.5t-46 -123t-86.5 -49.5z
M198 18q57 0 83.5 88.5t26.5 226.5q0 139 -26.5 227t-83.5 88t-83.5 -88t-26.5 -227q0 -138 26.5 -226.5t83.5 -88.5zM236 721q-19 0 -31 17.5t-15.5 39t-11.5 39t-20 17.5q-38 0 -38 -107h-22q0 134 63 134q19 0 31 -17.5t15.5 -39t11.5 -39t20 -17.5q38 0 38 107h22
q0 -134 -63 -134z" />
    <glyph glyph-name="uni1EE1" unicode="&#x1ee1;" horiz-adv-x="352" 
d="M333 529q0 -33 -15.5 -64.5t-38.5 -50.5q26 -64 26 -172q0 -111 -30.5 -182.5t-98.5 -71.5q-46 0 -76 37t-41.5 91.5t-11.5 125.5t11.5 125t41.5 91t76 37q57 0 90 -54q36 38 36 77q-5 -1 -7 -1q-14 0 -23 9.5t-9 23.5q0 13 9 22.5t23 9.5q16 0 27 -14t11 -39zM176 15
q96 0 96 227q0 226 -96 226t-96 -226q0 -227 96 -227zM213 554q-19 0 -31 17.5t-15.5 39t-11.5 39t-20 17.5q-38 0 -38 -107h-22q0 134 63 134q19 0 31 -17.5t15.5 -39t11.5 -39t20 -17.5q38 0 38 107h22q0 -134 -63 -134z" />
    <glyph glyph-name="uni1EE2" unicode="&#x1ee2;" horiz-adv-x="396" 
d="M198 -12q-53 0 -86.5 49.5t-46 123t-12.5 172.5t12.5 172.5t46 123t86.5 49.5q78 0 114 -106q39 39 39 80q-5 -1 -7 -1q-14 0 -23 9.5t-9 23.5q0 13 9 22.5t23 9.5q16 0 27 -14t11 -39q0 -36 -18 -69t-43 -51q22 -81 22 -210q0 -99 -12.5 -172.5t-46 -123t-86.5 -49.5z
M198 18q57 0 83.5 88.5t26.5 226.5q0 139 -26.5 227t-83.5 88t-83.5 -88t-26.5 -227q0 -138 26.5 -226.5t83.5 -88.5zM200 -173q-11 0 -20 8.5t-9 20.5t9 20.5t20 8.5q12 0 20.5 -8.5t8.5 -20.5t-8.5 -20.5t-20.5 -8.5z" />
    <glyph glyph-name="uni1EE3" unicode="&#x1ee3;" horiz-adv-x="352" 
d="M333 529q0 -33 -15.5 -64.5t-38.5 -50.5q26 -64 26 -172q0 -111 -30.5 -182.5t-98.5 -71.5q-46 0 -76 37t-41.5 91.5t-11.5 125.5t11.5 125t41.5 91t76 37q57 0 90 -54q36 38 36 77q-5 -1 -7 -1q-14 0 -23 9.5t-9 23.5q0 13 9 22.5t23 9.5q16 0 27 -14t11 -39zM176 15
q96 0 96 227q0 226 -96 226t-96 -226q0 -227 96 -227zM178 -173q-11 0 -20 8.5t-9 20.5t9 20.5t20 8.5q12 0 20.5 -8.5t8.5 -20.5t-8.5 -20.5t-20.5 -8.5z" />
    <glyph glyph-name="uni1EE4" unicode="&#x1ee4;" horiz-adv-x="396" 
d="M198 -12q-126 0 -126 166v513h32v-513q0 -136 94 -136t94 136v513h32v-513q0 -166 -126 -166zM200 -173q-11 0 -20 8.5t-9 20.5t9 20.5t20 8.5q12 0 20.5 -8.5t8.5 -20.5t-8.5 -20.5t-20.5 -8.5z" />
    <glyph glyph-name="uni1EE5" unicode="&#x1ee5;" 
d="M277 0h-30v70q-39 -82 -103 -82q-42 0 -60.5 23.5t-18.5 77.5v394h30v-394q0 -74 53 -74q31 0 58 26.5t41 65.5v376h30v-483zM172 -173q-11 0 -20 8.5t-9 20.5t9 20.5t20 8.5q12 0 20.5 -8.5t8.5 -20.5t-8.5 -20.5t-20.5 -8.5z" />
    <glyph glyph-name="uni1EE6" unicode="&#x1ee6;" horiz-adv-x="396" 
d="M198 -12q-126 0 -126 166v513h32v-513q0 -136 94 -136t94 136v513h32v-513q0 -166 -126 -166zM169 772l-21 6q10 42 50 42q49 0 49 -57q0 -35 -23 -66h-25q25 31 25 66t-26 35q-22 0 -29 -26z" />
    <glyph glyph-name="uni1EE7" unicode="&#x1ee7;" 
d="M277 0h-30v70q-39 -82 -103 -82q-42 0 -60.5 23.5t-18.5 77.5v394h30v-394q0 -74 53 -74q31 0 58 26.5t41 65.5v376h30v-483zM142 602l-21 6q10 42 50 42q49 0 49 -57q0 -35 -23 -66h-25q25 31 25 66t-26 35q-23 0 -29 -26z" />
    <glyph glyph-name="uni1EE8" unicode="&#x1ee8;" horiz-adv-x="396" 
d="M415 730q0 -40 -24 -78.5t-67 -63.5v-434q0 -166 -126 -166t-126 166v513h32v-513q0 -136 94 -136t94 136v513h32v-46q26 17 43 46t17 52q-5 -1 -7 -1q-14 0 -23 9.5t-9 23.5q0 13 9 22.5t23 9.5q16 0 27 -14t11 -39zM287 867l-95 -144h-24l78 144h41z" />
    <glyph glyph-name="uni1EE9" unicode="&#x1ee9;" 
d="M277 0h-30v70q-39 -82 -103 -82q-42 0 -60.5 23.5t-18.5 77.5v394h30v-394q0 -74 53 -74q31 0 58 26.5t41 65.5v376h30v-56q23 18 37 44.5t14 46.5q-5 -1 -7 -1q-14 0 -23 9.5t-9 23.5q0 13 9 22.5t23 9.5q16 0 27 -14t11 -39q0 -38 -21.5 -74.5t-60.5 -62.5v-392z
M260 700l-95 -144h-24l78 144h41z" />
    <glyph glyph-name="uni1EEA" unicode="&#x1eea;" horiz-adv-x="396" 
d="M415 730q0 -40 -24 -78.5t-67 -63.5v-434q0 -166 -126 -166t-126 166v513h32v-513q0 -136 94 -136t94 136v513h32v-46q26 17 43 46t17 52q-5 -1 -7 -1q-14 0 -23 9.5t-9 23.5q0 13 9 22.5t23 9.5q16 0 27 -14t11 -39zM228 723h-24l-95 144h41z" />
    <glyph glyph-name="uni1EEB" unicode="&#x1eeb;" 
d="M277 0h-30v70q-39 -82 -103 -82q-42 0 -60.5 23.5t-18.5 77.5v394h30v-394q0 -74 53 -74q31 0 58 26.5t41 65.5v376h30v-56q23 18 37 44.5t14 46.5q-5 -1 -7 -1q-14 0 -23 9.5t-9 23.5q0 13 9 22.5t23 9.5q16 0 27 -14t11 -39q0 -38 -21.5 -74.5t-60.5 -62.5v-392z
M201 556h-24l-95 144h41z" />
    <glyph glyph-name="uni1EEC" unicode="&#x1eec;" horiz-adv-x="396" 
d="M415 730q0 -40 -24 -78.5t-67 -63.5v-434q0 -166 -126 -166t-126 166v513h32v-513q0 -136 94 -136t94 136v513h32v-46q26 17 43 46t17 52q-5 -1 -7 -1q-14 0 -23 9.5t-9 23.5q0 13 9 22.5t23 9.5q16 0 27 -14t11 -39zM169 772l-21 6q10 42 50 42q49 0 49 -57
q0 -35 -23 -66h-25q25 31 25 66t-26 35q-22 0 -29 -26z" />
    <glyph glyph-name="uni1EED" unicode="&#x1eed;" 
d="M277 0h-30v70q-39 -82 -103 -82q-42 0 -60.5 23.5t-18.5 77.5v394h30v-394q0 -74 53 -74q31 0 58 26.5t41 65.5v376h30v-56q23 18 37 44.5t14 46.5q-5 -1 -7 -1q-14 0 -23 9.5t-9 23.5q0 13 9 22.5t23 9.5q16 0 27 -14t11 -39q0 -38 -21.5 -74.5t-60.5 -62.5v-392z
M142 602l-21 6q10 42 50 42q49 0 49 -57q0 -35 -23 -66h-25q25 31 25 66t-26 35q-23 0 -29 -26z" />
    <glyph glyph-name="uni1EEE" unicode="&#x1eee;" horiz-adv-x="396" 
d="M415 730q0 -40 -24 -78.5t-67 -63.5v-434q0 -166 -126 -166t-126 166v513h32v-513q0 -136 94 -136t94 136v513h32v-46q26 17 43 46t17 52q-5 -1 -7 -1q-14 0 -23 9.5t-9 23.5q0 13 9 22.5t23 9.5q16 0 27 -14t11 -39zM235 721q-19 0 -31 17.5t-15.5 39t-11.5 39t-20 17.5
q-38 0 -38 -107h-22q0 134 63 134q19 0 31 -17.5t15.5 -39t11.5 -39t20 -17.5q38 0 38 107h22q0 -134 -63 -134z" />
    <glyph glyph-name="uni1EEF" unicode="&#x1eef;" 
d="M277 0h-30v70q-39 -82 -103 -82q-42 0 -60.5 23.5t-18.5 77.5v394h30v-394q0 -74 53 -74q31 0 58 26.5t41 65.5v376h30v-56q23 18 37 44.5t14 46.5q-5 -1 -7 -1q-14 0 -23 9.5t-9 23.5q0 13 9 22.5t23 9.5q16 0 27 -14t11 -39q0 -38 -21.5 -74.5t-60.5 -62.5v-392z
M208 554q-19 0 -31 17.5t-15.5 39t-11.5 39t-20 17.5q-38 0 -38 -107h-22q0 134 63 134q19 0 31 -17.5t15.5 -39t11.5 -39t20 -17.5q38 0 38 107h22q0 -134 -63 -134z" />
    <glyph glyph-name="uni1EF0" unicode="&#x1ef0;" horiz-adv-x="396" 
d="M415 730q0 -40 -24 -78.5t-67 -63.5v-434q0 -166 -126 -166t-126 166v513h32v-513q0 -136 94 -136t94 136v513h32v-46q26 17 43 46t17 52q-5 -1 -7 -1q-14 0 -23 9.5t-9 23.5q0 13 9 22.5t23 9.5q16 0 27 -14t11 -39zM200 -173q-11 0 -20 8.5t-9 20.5t9 20.5t20 8.5
q12 0 20.5 -8.5t8.5 -20.5t-8.5 -20.5t-20.5 -8.5z" />
    <glyph glyph-name="uni1EF1" unicode="&#x1ef1;" 
d="M277 0h-30v70q-39 -82 -103 -82q-42 0 -60.5 23.5t-18.5 77.5v394h30v-394q0 -74 53 -74q31 0 58 26.5t41 65.5v376h30v-56q23 18 37 44.5t14 46.5q-5 -1 -7 -1q-14 0 -23 9.5t-9 23.5q0 13 9 22.5t23 9.5q16 0 27 -14t11 -39q0 -38 -21.5 -74.5t-60.5 -62.5v-392z
M172 -173q-11 0 -20 8.5t-9 20.5t9 20.5t20 8.5q12 0 20.5 -8.5t8.5 -20.5t-8.5 -20.5t-20.5 -8.5z" />
    <glyph glyph-name="Ygrave" unicode="&#x1ef2;" horiz-adv-x="322" 
d="M177 0h-32v289l-143 378h36l123 -339l125 339h34l-143 -378v-289zM191 723h-24l-95 144h41z" />
    <glyph glyph-name="ygrave" unicode="&#x1ef3;" horiz-adv-x="279" 
d="M27 -189l7 27q10 -7 24 -7q18 0 27 11.5t17 42.5l23 97l-109 501h33l90 -443l91 443h33l-137 -606q-9 -40 -25.5 -56.5t-42.5 -16.5q-19 0 -31 7zM169 556h-24l-95 144h41z" />
    <glyph glyph-name="thinspace" unicode="&#x2009;" horiz-adv-x="36" 
 />
    <glyph glyph-name="endash" unicode="&#x2013;" horiz-adv-x="460" 
d="M430 227h-400v30h400v-30z" />
    <glyph glyph-name="emdash" unicode="&#x2014;" horiz-adv-x="640" 
d="M610 227h-580v30h580v-30z" />
    <glyph glyph-name="afii00208" unicode="&#x2015;" horiz-adv-x="460" 
d="M430 227h-400v30h400v-30z" />
    <glyph glyph-name="quoteleft" unicode="&#x2018;" horiz-adv-x="208" 
d="M69 556q0 36 18 69.5t44 51.5l22 -18q-24 -18 -38.5 -43.5t-14.5 -48.5q5 1 7 1q14 0 23 -9.5t9 -23.5q0 -13 -9 -22.5t-23 -9.5q-16 0 -27 14t-11 39z" />
    <glyph glyph-name="quoteright" unicode="&#x2019;" horiz-adv-x="208" 
d="M141 624q0 -36 -18 -69.5t-44 -51.5l-22 18q24 18 38.5 43.5t14.5 48.5q-5 -1 -7 -1q-14 0 -23 9.5t-9 23.5q0 13 9 22.5t23 9.5q16 0 27 -14t11 -39z" />
    <glyph glyph-name="quotesinglbase" unicode="&#x201a;" horiz-adv-x="208" 
d="M141 3q0 -36 -18 -69.5t-44 -51.5l-22 18q24 18 38.5 43.5t14.5 48.5q-5 -1 -7 -1q-14 0 -23 9.5t-9 23.5q0 13 9 22.5t23 9.5q16 0 27 -14t11 -39z" />
    <glyph glyph-name="quotereversed" unicode="&#x201b;" horiz-adv-x="208" 
d="M67 624q0 25 11 39t27 14q14 0 23 -9.5t9 -22.5q0 -14 -9 -23.5t-23 -9.5l-7 1q0 -23 14.5 -48.5t38.5 -43.5l-22 -18q-26 18 -44 51.5t-18 69.5z" />
    <glyph glyph-name="quotedblleft" unicode="&#x201c;" horiz-adv-x="331" 
d="M67 556q0 36 18 69.5t44 51.5l22 -18q-24 -18 -38.5 -43.5t-14.5 -48.5q5 1 7 1q14 0 23 -9.5t9 -23.5q0 -13 -9 -22.5t-23 -9.5q-16 0 -27 14t-11 39zM190 556q0 36 18 69.5t44 51.5l22 -18q-24 -18 -38.5 -43.5t-14.5 -48.5q5 1 7 1q14 0 23 -9.5t9 -23.5
q0 -13 -9 -22.5t-23 -9.5q-16 0 -27 14t-11 39z" />
    <glyph glyph-name="quotedblright" unicode="&#x201d;" horiz-adv-x="331" 
d="M264 624q0 -36 -18 -69.5t-44 -51.5l-22 18q24 18 38.5 43.5t14.5 48.5q-5 -1 -7 -1q-14 0 -23 9.5t-9 23.5q0 13 9 22.5t23 9.5q16 0 27 -14t11 -39zM141 624q0 -36 -18 -69.5t-44 -51.5l-22 18q24 18 38.5 43.5t14.5 48.5q-5 -1 -7 -1q-14 0 -23 9.5t-9 23.5
q0 13 9 22.5t23 9.5q16 0 27 -14t11 -39z" />
    <glyph glyph-name="quotedblbase" unicode="&#x201e;" horiz-adv-x="331" 
d="M141 3q0 -36 -18 -69.5t-44 -51.5l-22 18q24 18 38.5 43.5t14.5 48.5q-5 -1 -7 -1q-14 0 -23 9.5t-9 23.5q0 13 9 22.5t23 9.5q16 0 27 -14t11 -39zM264 3q0 -36 -18 -69.5t-44 -51.5l-22 18q24 18 38.5 43.5t14.5 48.5q-5 -1 -7 -1q-14 0 -23 9.5t-9 23.5q0 13 9 22.5
t23 9.5q16 0 27 -14t11 -39z" />
    <glyph glyph-name="dagger" unicode="&#x2020;" horiz-adv-x="251" 
d="M226 539l-89 4l4 -216h-31l4 216l-89 -4v27l89 -3l-4 114h31l-4 -114l89 3v-27z" />
    <glyph glyph-name="daggerdbl" unicode="&#x2021;" horiz-adv-x="251" 
d="M226 566v-27l-89 4v-229l89 4v-27l-89 3l4 -114h-31l4 114l-89 -3v27l89 -4v229l-89 -4v27l89 -3l-4 114h31l-4 -114z" />
    <glyph glyph-name="bullet" unicode="&#x2022;" horiz-adv-x="358" 
d="M278 242q0 -40 -29 -68.5t-69 -28.5t-69 28.5t-29 68.5t29 69t69 29t69 -29t29 -69z" />
    <glyph glyph-name="ellipsis" unicode="&#x2026;" horiz-adv-x="624" 
d="M137 24q0 -14 -9.5 -23.5t-23.5 -9.5t-23.5 9.5t-9.5 23.5q0 13 10 22.5t23 9.5t23 -9.5t10 -22.5zM345 24q0 -14 -9.5 -23.5t-23.5 -9.5t-23.5 9.5t-9.5 23.5q0 13 10 22.5t23 9.5t23 -9.5t10 -22.5zM553 24q0 -14 -9.5 -23.5t-23.5 -9.5t-23.5 9.5t-9.5 23.5
q0 13 10 22.5t23 9.5t23 -9.5t10 -22.5z" />
    <glyph glyph-name="perthousand" unicode="&#x2030;" horiz-adv-x="817" 
d="M262 513q0 -71 -30.5 -116.5t-82.5 -45.5q-51 0 -82 45.5t-31 116.5q0 72 31 118t82 46q52 0 82.5 -46t30.5 -118zM429 667l-270 -667h-32l269 667h33zM519 150q0 -71 -31 -116.5t-82 -45.5t-82 45.5t-31 116.5q0 72 31 118t82 46t82 -46t31 -118zM229 513
q0 58 -21.5 97.5t-58.5 39.5t-58.5 -39.5t-21.5 -97.5q0 -57 21.5 -96t58.5 -39t58.5 39t21.5 96zM486 150q0 58 -21.5 97.5t-58.5 39.5t-58.5 -39.5t-21.5 -97.5q0 -57 21.5 -96t58.5 -39t58.5 39t21.5 96zM781 150q0 -71 -31 -116.5t-82 -45.5t-82 45.5t-31 116.5
q0 72 31 118t82 46t82 -46t31 -118zM748 150q0 58 -21.5 97.5t-58.5 39.5t-58.5 -39.5t-21.5 -97.5q0 -57 21.5 -96t58.5 -39t58.5 39t21.5 96z" />
    <glyph glyph-name="guilsinglleft" unicode="&#x2039;" horiz-adv-x="183" 
d="M153 63h-33l-90 180l90 177h33l-90 -177z" />
    <glyph glyph-name="guilsinglright" unicode="&#x203a;" horiz-adv-x="183" 
d="M153 243l-90 -180h-33l90 180l-90 177h33z" />
    <glyph glyph-name="uni203E" unicode="&#x203e;" horiz-adv-x="240" 
d="M240 581h-240v27h240v-27z" />
    <glyph glyph-name="fraction" unicode="&#x2044;" horiz-adv-x="100" 
d="M201 667l-270 -667h-32l269 667h33z" />
    <glyph glyph-name="zerosuperior" unicode="&#x2070;" horiz-adv-x="240" 
d="M220 621q0 -38 -4.5 -71.5t-15 -65.5t-30.5 -51t-49 -19q-38 0 -62 34.5t-31.5 77.5t-7.5 95t7.5 95t31.5 77t62 34q29 0 49 -18.5t30.5 -50.5t15 -65.5t4.5 -71.5zM188 621q0 180 -67 180q-69 0 -69 -180q0 -181 69 -181q67 0 67 181z" />
    <glyph glyph-name="foursuperior" unicode="&#x2074;" horiz-adv-x="240" 
d="M222 534h-38v-113h-29v113h-135v27l127 260h37v-261h38v-26zM155 560v222l-108 -222h108z" />
    <glyph glyph-name="fivesuperior" unicode="&#x2075;" horiz-adv-x="240" 
d="M212 542q0 -53 -26 -90.5t-67 -37.5q-36 0 -57 17t-36 51l24 14q22 -56 69 -56q28 0 45.5 30t17.5 72q0 50 -16 76t-44 26q-34 0 -62 -41l-23 11v207h159v-26h-130v-161q23 35 62 35q37 0 60.5 -33.5t23.5 -93.5z" />
    <glyph glyph-name="sixsuperior" unicode="&#x2076;" horiz-adv-x="240" 
d="M214 540q0 -51 -23 -88.5t-68 -37.5q-98 0 -98 207q0 41 5 75.5t16 65t32.5 48t51.5 17.5q54 0 77 -54l-20 -18q-19 46 -57 46q-74 0 -74 -180v-15q9 26 28 44t45 18q38 0 61.5 -33t23.5 -95zM183 540q0 102 -59 102q-43 0 -68 -72q6 -130 66 -130q31 0 46 29t15 71z" />
    <glyph glyph-name="sevensuperior" unicode="&#x2077;" horiz-adv-x="213" 
d="M193 801l-105 -380h-30l105 374h-143v26h173v-20z" />
    <glyph glyph-name="eightsuperior" unicode="&#x2078;" horiz-adv-x="240" 
d="M212 516q0 -47 -24.5 -74.5t-67.5 -27.5q-44 0 -68.5 27t-24.5 75q0 37 21 67.5t48 43.5q-25 12 -44.5 39t-19.5 62q0 47 25 73t63 26t63 -26t25 -73q0 -35 -20 -61.5t-45 -39.5q27 -13 48 -43.5t21 -67.5zM178 726q0 35 -15.5 55t-42.5 20q-28 0 -43 -20t-15 -55
q0 -37 21.5 -59.5t36.5 -27.5q15 5 36.5 27.5t21.5 59.5zM182 518q0 40 -24 68t-38 29q-15 -1 -38.5 -29t-23.5 -69q0 -36 17.5 -57t44.5 -21t44.5 21t17.5 58z" />
    <glyph glyph-name="ninesuperior" unicode="&#x2079;" horiz-adv-x="240" 
d="M28 701q0 51 23.5 88.5t67.5 37.5q98 0 98 -207q0 -206 -105 -206q-54 0 -77 54l20 18q19 -46 57 -46q74 0 74 181v14q-9 -25 -28.5 -43.5t-44.5 -18.5q-38 0 -61.5 33t-23.5 95zM59 701q0 -102 59 -102q23 0 40.5 21.5t26.5 51.5q-3 129 -66 129q-31 0 -45.5 -29
t-14.5 -71z" />
    <glyph glyph-name="parenleftsuperior" unicode="&#x207d;" horiz-adv-x="109" 
d="M99 361l-13 -5q-58 124 -58 265t58 265l13 -5q-47 -131 -47 -260t47 -260z" />
    <glyph glyph-name="parenrightsuperior" unicode="&#x207e;" horiz-adv-x="109" 
d="M80 621q0 -141 -58 -265l-13 5q47 126 47 260t-47 260l13 5q58 -124 58 -265z" />
    <glyph glyph-name="nsuperior" unicode="&#x207f;" horiz-adv-x="267" 
d="M215 326h-28v246q0 53 -39 53q-20 0 -38.5 -17.5t-29.5 -41.5v-240h-28v314h28v-46q12 22 32.5 38t41.5 16t34 -5.5t18.5 -18t7 -23.5t1.5 -29v-246z" />
    <glyph glyph-name="zeroinferior" unicode="&#x2080;" horiz-adv-x="240" 
d="M220 54q0 -38 -4.5 -71.5t-15 -65.5t-30.5 -51t-49 -19q-38 0 -62 34.5t-31.5 77.5t-7.5 95t7.5 95t31.5 77t62 34q29 0 49 -18.5t30.5 -50.5t15 -65.5t4.5 -71.5zM188 54q0 180 -67 180q-69 0 -69 -180q0 -181 69 -181q67 0 67 181z" />
    <glyph glyph-name="oneinferior" unicode="&#x2081;" horiz-adv-x="190" 
d="M130 -146h-30v360l-62 -67l-18 19l83 88h27v-400z" />
    <glyph glyph-name="twoinferior" unicode="&#x2082;" horiz-adv-x="240" 
d="M211 -146h-177v24q95 148 120 196t25 90q0 32 -16 51t-41 19q-46 0 -69 -54l-23 16q33 64 92 64q39 0 63.5 -26t24.5 -70q0 -42 -26.5 -94t-114.5 -190h142v-26z" />
    <glyph glyph-name="threeinferior" unicode="&#x2083;" horiz-adv-x="240" 
d="M214 -39q0 -51 -24 -82.5t-71 -31.5q-65 0 -94 68l24 15q24 -57 69 -57q65 0 65 89q0 46 -20 66t-47 20q-20 0 -24 -1v27q5 -1 23 -1q28 0 46 20.5t18 58.5q0 82 -60 82q-42 0 -66 -52l-24 15q14 29 38 46t52 17q40 0 65 -26.5t25 -78.5q0 -33 -16.5 -59.5t-42.5 -34.5
q25 -6 44.5 -33.5t19.5 -66.5z" />
    <glyph glyph-name="fourinferior" unicode="&#x2084;" horiz-adv-x="240" 
d="M222 -33h-38v-113h-29v113h-135v27l127 260h37v-261h38v-26zM155 -7v222l-108 -222h108z" />
    <glyph glyph-name="fiveinferior" unicode="&#x2085;" horiz-adv-x="240" 
d="M212 -25q0 -53 -26 -90.5t-67 -37.5q-36 0 -57 17t-36 51l24 14q22 -56 69 -56q28 0 45.5 30t17.5 72q0 50 -16 76t-44 26q-34 0 -62 -41l-23 11v207h159v-26h-130v-161q23 35 62 35q37 0 60.5 -33.5t23.5 -93.5z" />
    <glyph glyph-name="sixinferior" unicode="&#x2086;" horiz-adv-x="240" 
d="M214 -27q0 -51 -23 -88.5t-68 -37.5q-98 0 -98 207q0 41 5 75.5t16 65t32.5 48t51.5 17.5q54 0 77 -54l-20 -18q-19 46 -57 46q-74 0 -74 -180v-15q9 26 28 44t45 18q38 0 61.5 -33t23.5 -95zM183 -27q0 102 -59 102q-43 0 -68 -72q6 -130 66 -130q31 0 46 29t15 71z" />
    <glyph glyph-name="seveninferior" unicode="&#x2087;" horiz-adv-x="213" 
d="M193 234l-105 -380h-30l105 374h-143v26h173v-20z" />
    <glyph glyph-name="eightinferior" unicode="&#x2088;" horiz-adv-x="240" 
d="M212 -51q0 -47 -24.5 -74.5t-67.5 -27.5q-44 0 -68.5 27t-24.5 75q0 37 21 67.5t48 43.5q-25 12 -44.5 39t-19.5 62q0 47 25 73t63 26t63 -26t25 -73q0 -35 -20 -61.5t-45 -39.5q27 -13 48 -43.5t21 -67.5zM178 159q0 35 -15.5 55t-42.5 20q-28 0 -43 -20t-15 -55
q0 -37 21.5 -59.5t36.5 -27.5q15 5 36.5 27.5t21.5 59.5zM182 -49q0 40 -24 68t-38 29q-15 -1 -38.5 -29t-23.5 -69q0 -36 17.5 -57t44.5 -21t44.5 21t17.5 58z" />
    <glyph glyph-name="nineinferior" unicode="&#x2089;" horiz-adv-x="240" 
d="M28 134q0 51 23.5 88.5t67.5 37.5q98 0 98 -207q0 -206 -105 -206q-54 0 -77 54l20 18q19 -46 57 -46q74 0 74 181v14q-9 -25 -28.5 -43.5t-44.5 -18.5q-38 0 -61.5 33t-23.5 95zM59 134q0 -102 59 -102q23 0 40.5 21.5t26.5 51.5q-3 129 -66 129q-31 0 -45.5 -29
t-14.5 -71z" />
    <glyph glyph-name="parenleftinferior" unicode="&#x208d;" horiz-adv-x="109" 
d="M99 -206l-13 -5q-58 124 -58 265t58 265l13 -5q-47 -131 -47 -260t47 -260z" />
    <glyph glyph-name="parenrightinferior" unicode="&#x208e;" horiz-adv-x="109" 
d="M80 54q0 -141 -58 -265l-13 5q47 126 47 260t-47 260l13 5q58 -124 58 -265z" />
    <glyph glyph-name="colonmonetary" unicode="&#x20a1;" horiz-adv-x="322" 
d="M188 -12q-26 0 -47 12l-21 -100h-30l25 120q-18 18 -35 55l-36 -175h-30l48 232q-19 83 -19 201q0 328 133 344l19 91h30l-19 -92q23 -3 42 -17l23 109h30l-28 -135q16 -23 28 -58l-30 -12l-8 22l-115 -553q17 -14 40 -14q35 0 54 27t32 78l30 -12q-29 -123 -116 -123z
M94 143q10 -49 30 -81l117 561q-17 20 -41 24zM78 333q0 -61 4 -105l87 417q-46 -15 -68.5 -99.5t-22.5 -212.5z" />
    <glyph glyph-name="frenchfranc" unicode="&#x20a3;" horiz-adv-x="350" 
d="M124 0h-32v161h-66v27h66v479h210v-30h-178v-279h171v-30h-171v-140h118v-27h-118v-161z" />
    <glyph glyph-name="lira" unicode="&#x20a4;" 
d="M30 323v30h55q-34 68 -34 142q0 75 33.5 128.5t95.5 53.5q86 0 115 -98l-25 -16q-14 39 -34.5 61.5t-55.5 22.5q-38 0 -67 -42t-29 -112q0 -73 37 -140h108v-30h-91q24 -49 31 -85h60v-30h-57v-6q0 -43 -21 -87.5t-52 -71.5q19 11 39 11q23 0 54 -18t47 -18q19 0 37 11.5
t27 26.5l21 -24q-11 -18 -36 -31t-50 -13q-32 0 -58.5 20t-44.5 20q-29 0 -72 -35l-19 29q44 30 70 79.5t26 101.5v5h-110v30h106q-7 34 -35 85h-71z" />
    <glyph glyph-name="uni20A6" unicode="&#x20a6;" horiz-adv-x="435" 
d="M343 0h-32l-82 251h-105v-251h-32v251h-66v27h66v119h-66v27h66v243h32l79 -243h108v243h32v-243h66v-27h-66v-119h66v-27h-66v-251zM212 397l39 -119h60v119h-99zM124 397v-119h96l-38 119h-58zM260 251l51 -153v153h-51zM124 575v-151h49z" />
    <glyph glyph-name="peseta" unicode="&#x20a7;" horiz-adv-x="401" 
d="M391 462h-65q-3 -76 -37 -124.5t-97 -48.5h-68v-289h-32v462h-66v30h66v175h100q63 0 97.5 -49t37.5 -126h64v-30zM124 637v-145h168q-2 66 -27.5 105.5t-73.5 39.5h-67zM191 319q48 0 73 38.5t28 104.5h-168v-143h67z" />
    <glyph glyph-name="rupee" unicode="&#x20a8;" horiz-adv-x="604" 
d="M313 0h-36l-99 289h-74v-289h-32v667h100q61 0 98 -50t37 -139q0 -83 -29 -128t-69 -56zM171 319q50 0 75.5 43.5t25.5 115.5t-25.5 115.5t-75.5 43.5h-67v-318h67zM463 -12q-68 0 -109 59l22 21q36 -53 87 -53q32 0 55.5 25t23.5 65q0 37 -18 66.5t-43.5 50t-51 42
t-43.5 53.5t-18 73q0 46 30.5 75.5t74.5 29.5q57 0 93 -51l-20 -20q-28 44 -73 44q-34 0 -54.5 -22.5t-20.5 -55.5q0 -35 18 -63t43.5 -49t51 -43t43.5 -55t18 -75q0 -52 -32 -84.5t-77 -32.5z" />
    <glyph glyph-name="uni20A9" unicode="&#x20a9;" horiz-adv-x="516" 
d="M379 0h-38l-35 251h-96l-35 -251h-38l-38 251h-69v27h65l-18 119h-47v27h43l-36 243h35l33 -243h102l34 243h34l34 -243h101l34 243h35l-37 -243h44v-27h-48l-18 -119h66v-27h-70zM109 397l17 -119h60l17 119h-94zM313 397l16 -119h61l16 119h-93zM231 397l-17 -119h88
l-17 119h-54zM333 251l27 -188l26 188h-53zM130 251l26 -188l26 188h-52zM258 587l-23 -163h46z" />
    <glyph glyph-name="afii57636" unicode="&#x20aa;" horiz-adv-x="444" 
d="M269 0h-111v399h32v-370h79q41 0 59.5 25.5t18.5 89.5v406h32v-338q0 -124 -20.5 -168t-89.5 -44zM176 550q69 0 89.5 -44t20.5 -168v-188h-32v256q0 64 -18.5 89.5t-59.5 25.5h-79v-521h-32v550h111z" />
    <glyph glyph-name="dong" unicode="&#x20ab;" horiz-adv-x="366" 
d="M286 0h-30v70q-15 -37 -39.5 -59.5t-48.5 -22.5q-42 0 -70 34.5t-39.5 89.5t-11.5 129q0 114 29.5 184t91.5 70q25 0 49.5 -21.5t38.5 -62.5v130h-120v27h120v99h30v-99h54v-27h-54v-541zM168 15q28 0 53.5 30t34.5 70v251q-9 40 -34.5 71t-53.5 31q-88 0 -88 -227
q0 -226 88 -226zM290 -119h-240v27h240v-27z" />
    <glyph glyph-name="Euro" unicode="&#x20ac;" horiz-adv-x="366" 
d="M207 -12q-125 0 -142 259h-47v30h45q-1 18 -1 56q0 39 1 58h-45v30h47q8 118 42.5 187.5t99.5 69.5q79 0 113 -103l-30 -12q-15 43 -33 64t-50 21q-91 0 -107 -227h137v-30h-139q-1 -19 -1 -58q0 -38 1 -56h139v-30h-137q15 -229 107 -229q35 0 54 27t32 78l30 -12
q-29 -123 -116 -123z" />
    <glyph glyph-name="afii61289" unicode="&#x2113;" horiz-adv-x="328" 
d="M108 307v-231q0 -35 8 -48t26 -13q21 0 36 21l21 -18q-24 -30 -57 -30q-64 0 -64 88v468q0 59 31.5 96t84.5 37q45 0 78.5 -27.5t33.5 -79.5q0 -36 -17.5 -68t-63.5 -78zM108 348l96 96q42 42 58 69.5t16 56.5q0 34 -24.5 57t-59.5 23q-40 0 -63 -28.5t-23 -77.5v-196z
" />
    <glyph glyph-name="afii61352" unicode="&#x2116;" horiz-adv-x="667" 
d="M323 0h-32l-187 575v-575h-32v667h32l187 -569v569h32v-667zM531 350q-49 0 -73.5 47t-24.5 118t24.5 118t73.5 47t73.5 -47t24.5 -118t-24.5 -118t-73.5 -47zM531 376q68 0 68 139q0 138 -68 138q-36 0 -52 -39.5t-16 -98.5t16 -99t52 -40z" />
    <glyph glyph-name="published" unicode="&#x2117;" horiz-adv-x="778" 
d="M734 334q0 -142 -101 -243.5t-244 -101.5t-244 101.5t-101 243.5t101 243.5t244 101.5t244 -101.5t101 -243.5zM708 334q0 131 -94 225t-225 94t-225 -94t-94 -225t94 -225t225 -94t225 94t94 225zM545 422q0 -52 -36 -82t-89 -30h-112v-179h-29v405h141q53 0 89 -30.5
t36 -83.5zM516 422q0 40 -26 62.5t-70 22.5h-112v-168h112q44 0 70 22t26 61z" />
    <glyph glyph-name="servicemark" unicode="&#x2120;" horiz-adv-x="374" 
d="M337 447h-28v182l-55 -182h-8l-55 182v-182h-28v220h43l44 -157l44 157h43v-220zM122 501q0 -26 -15.5 -43t-40.5 -17q-32 0 -51 21l14 25q16 -19 34 -19q12 0 21 9t9 24q0 17 -11.5 30.5t-24.5 22t-24.5 25t-11.5 37.5q0 25 15 41t39 16q25 0 43 -16l-12 -24
q-12 13 -29 13q-11 0 -18.5 -8t-7.5 -22t11 -26.5t24.5 -21.5t24.5 -26.5t11 -40.5z" />
    <glyph glyph-name="trademark" unicode="&#x2122;" horiz-adv-x="374" 
d="M339 447h-28v182l-55 -182h-8l-55 182v-182h-28v220h43l44 -157l44 157h43v-220zM129 641h-42v-194h-28v194h-42v26h112v-26z" />
    <glyph glyph-name="Omega" unicode="&#x2126;" horiz-adv-x="376" 
d="M52 30h70q-30 37 -54.5 112.5t-24.5 190.5q0 164 36 254.5t109 90.5t109 -90.5t36 -254.5q0 -115 -24.5 -190.5t-54.5 -112.5h70v-30h-100v30q28 26 51 98.5t23 204.5q0 314 -110 314t-110 -314q0 -132 23 -204.5t51 -98.5v-30h-100v30z" />
    <glyph glyph-name="estimated" unicode="&#x212e;" horiz-adv-x="842" 
d="M811 324h-632q-5 0 -5 -5v-190q0 -14 9 -23q98 -103 240 -103q151 0 250 115h57q-54 -63 -135 -99.5t-174 -36.5q-161 0 -275.5 103t-114.5 248t114.5 248t275.5 103t275.5 -103t114.5 -248v-9zM668 349v191q0 14 -10 24q-97 99 -235 99q-140 0 -239 -102
q-10 -10 -10 -24v-188q0 -6 5 -6h485q4 0 4 6z" />
    <glyph glyph-name="onethird" unicode="&#x2153;" horiz-adv-x="544" 
d="M405 667l-270 -667h-32l269 667h33zM518 107q0 -51 -24 -82.5t-71 -31.5q-65 0 -94 68l24 15q24 -57 69 -57q65 0 65 89q0 46 -20 66t-47 20q-20 0 -24 -1v27q5 -1 23 -1q28 0 46 20.5t18 58.5q0 82 -60 82q-42 0 -66 -52l-24 15q14 29 38 46t52 17q40 0 65 -26.5
t25 -78.5q0 -33 -16.5 -59.5t-42.5 -34.5q25 -6 44.5 -33.5t19.5 -66.5zM130 267h-30v360l-62 -67l-18 19l83 88h27v-400z" />
    <glyph glyph-name="twothirds" unicode="&#x2154;" horiz-adv-x="580" 
d="M441 667l-270 -667h-32l269 667h33zM554 107q0 -51 -24 -82.5t-71 -31.5q-65 0 -94 68l24 15q24 -57 69 -57q65 0 65 89q0 46 -20 66t-47 20q-20 0 -24 -1v27q5 -1 23 -1q28 0 46 20.5t18 58.5q0 82 -60 82q-42 0 -66 -52l-24 15q14 29 38 46t52 17q40 0 65 -26.5
t25 -78.5q0 -33 -16.5 -59.5t-42.5 -34.5q25 -6 44.5 -33.5t19.5 -66.5zM211 267h-177v24q95 148 120 196t25 90q0 32 -16 51t-41 19q-46 0 -69 -54l-23 16q33 64 92 64q39 0 63.5 -26t24.5 -70q0 -42 -26.5 -94t-114.5 -190h142v-26z" />
    <glyph glyph-name="oneeighth" unicode="&#x215b;" horiz-adv-x="544" 
d="M405 667l-270 -667h-32l269 667h33zM516 95q0 -47 -24.5 -74.5t-67.5 -27.5q-44 0 -68.5 27t-24.5 75q0 37 21 67.5t48 43.5q-25 12 -44.5 39t-19.5 62q0 47 25 73t63 26t63 -26t25 -73q0 -35 -20 -61.5t-45 -39.5q27 -13 48 -43.5t21 -67.5zM482 305q0 35 -15.5 55
t-42.5 20q-28 0 -43 -20t-15 -55q0 -37 21.5 -59.5t36.5 -27.5q15 5 36.5 27.5t21.5 59.5zM486 97q0 40 -24 68t-38 29q-15 -1 -38.5 -29t-23.5 -69q0 -36 17.5 -57t44.5 -21t44.5 21t17.5 58zM130 267h-30v360l-62 -67l-18 19l83 88h27v-400z" />
    <glyph glyph-name="threeeighths" unicode="&#x215c;" horiz-adv-x="580" 
d="M441 667l-270 -667h-32l269 667h33zM552 95q0 -47 -24.5 -74.5t-67.5 -27.5q-44 0 -68.5 27t-24.5 75q0 37 21 67.5t48 43.5q-25 12 -44.5 39t-19.5 62q0 47 25 73t63 26t63 -26t25 -73q0 -35 -20 -61.5t-45 -39.5q27 -13 48 -43.5t21 -67.5zM518 305q0 35 -15.5 55
t-42.5 20q-28 0 -43 -20t-15 -55q0 -37 21.5 -59.5t36.5 -27.5q15 5 36.5 27.5t21.5 59.5zM522 97q0 40 -24 68t-38 29q-15 -1 -38.5 -29t-23.5 -69q0 -36 17.5 -57t44.5 -21t44.5 21t17.5 58zM214 374q0 -51 -24 -82.5t-71 -31.5q-65 0 -94 68l24 15q24 -57 69 -57
q65 0 65 89q0 46 -20 66t-47 20q-20 0 -24 -1v27q5 -1 23 -1q28 0 46 20.5t18 58.5q0 82 -60 82q-42 0 -66 -52l-24 15q14 29 38 46t52 17q40 0 65 -26.5t25 -78.5q0 -33 -16.5 -59.5t-42.5 -34.5q25 -6 44.5 -33.5t19.5 -66.5z" />
    <glyph glyph-name="fiveeighths" unicode="&#x215d;" horiz-adv-x="580" 
d="M441 667l-270 -667h-32l269 667h33zM552 95q0 -47 -24.5 -74.5t-67.5 -27.5q-44 0 -68.5 27t-24.5 75q0 37 21 67.5t48 43.5q-25 12 -44.5 39t-19.5 62q0 47 25 73t63 26t63 -26t25 -73q0 -35 -20 -61.5t-45 -39.5q27 -13 48 -43.5t21 -67.5zM518 305q0 35 -15.5 55
t-42.5 20q-28 0 -43 -20t-15 -55q0 -37 21.5 -59.5t36.5 -27.5q15 5 36.5 27.5t21.5 59.5zM522 97q0 40 -24 68t-38 29q-15 -1 -38.5 -29t-23.5 -69q0 -36 17.5 -57t44.5 -21t44.5 21t17.5 58zM212 388q0 -53 -26 -90.5t-67 -37.5q-36 0 -57 17t-36 51l24 14q22 -56 69 -56
q28 0 45.5 30t17.5 72q0 50 -16 76t-44 26q-34 0 -62 -41l-23 11v207h159v-26h-130v-161q23 35 62 35q37 0 60.5 -33.5t23.5 -93.5z" />
    <glyph glyph-name="seveneighths" unicode="&#x215e;" horiz-adv-x="527" 
d="M388 667l-270 -667h-32l269 667h33zM499 95q0 -47 -24.5 -74.5t-67.5 -27.5q-44 0 -68.5 27t-24.5 75q0 37 21 67.5t48 43.5q-25 12 -44.5 39t-19.5 62q0 47 25 73t63 26t63 -26t25 -73q0 -35 -20 -61.5t-45 -39.5q27 -13 48 -43.5t21 -67.5zM465 305q0 35 -15.5 55
t-42.5 20q-28 0 -43 -20t-15 -55q0 -37 21.5 -59.5t36.5 -27.5q15 5 36.5 27.5t21.5 59.5zM469 97q0 40 -24 68t-38 29q-15 -1 -38.5 -29t-23.5 -69q0 -36 17.5 -57t44.5 -21t44.5 21t17.5 58zM193 647l-105 -380h-30l105 374h-143v26h173v-20z" />
    <glyph glyph-name="arrowleft" unicode="&#x2190;" horiz-adv-x="582" 
d="M538 211h-269l12 -130l-281 205l281 204l-12 -129h269v-150z" />
    <glyph glyph-name="arrowup" unicode="&#x2191;" horiz-adv-x="582" 
d="M216 17v269l-130 -12l205 281l204 -281l-129 12v-269h-150z" />
    <glyph glyph-name="arrowright" unicode="&#x2192;" horiz-adv-x="582" 
d="M584 286l-281 -205l12 130h-268v150h268l-12 129z" />
    <glyph glyph-name="arrowdown" unicode="&#x2193;" horiz-adv-x="582" 
d="M366 555v-269l130 12l-205 -281l-204 281l129 -12v269h150z" />
    <glyph glyph-name="partialdiff" unicode="&#x2202;" horiz-adv-x="352" 
d="M176 -12q-46 0 -76 37t-41.5 91.5t-11.5 125.5t11.5 125t41.5 91t76 37q50 0 75 -55q-36 130 -94 222l28 16q57 -96 88.5 -210t31.5 -226q0 -111 -30.5 -182.5t-98.5 -71.5zM176 15q96 0 96 227q0 226 -96 226t-96 -226q0 -227 96 -227z" />
    <glyph glyph-name="Delta" unicode="&#x2206;" horiz-adv-x="352" 
d="M340 0h-328l145 667h38zM301 30l-125 590l-125 -590h250z" />
    <glyph glyph-name="product" unicode="&#x220f;" horiz-adv-x="348" 
d="M274 -90h-32v727h-137v-727h-32v727h-55v30h312v-30h-56v-727z" />
    <glyph glyph-name="summation" unicode="&#x2211;" horiz-adv-x="294" 
d="M81 637l118 -337l-119 -360h178v-30h-210v31l118 358l-118 338v30h210v-30h-177z" />
    <glyph glyph-name="minus" unicode="&#x2212;" horiz-adv-x="374" 
d="M345 322h-316v30h316v-30z" />
    <glyph glyph-name="uni2215" unicode="&#x2215;" horiz-adv-x="100" 
d="M201 667l-270 -667h-32l269 667h33z" />
    <glyph glyph-name="uni2219" unicode="&#x2219;" horiz-adv-x="208" 
d="M137 245q0 -13 -9.5 -23t-23.5 -10t-23.5 10t-9.5 23t10 22.5t23 9.5t23 -9.5t10 -22.5z" />
    <glyph glyph-name="radical" unicode="&#x221a;" horiz-adv-x="464" 
d="M289 0h-35l-76 331l-128 -28l-6 29l154 34l74 -331l146 632h28z" />
    <glyph glyph-name="infinity" unicode="&#x221e;" horiz-adv-x="467" 
d="M132 180q-50 0 -76.5 46t-26.5 109t26.5 109t76.5 46q65 0 101 -114q36 114 102 114q50 0 76.5 -46t26.5 -109t-26.5 -109t-76.5 -46q-66 0 -102 114q-36 -114 -101 -114zM330 211q37 0 56.5 34.5t19.5 89.5t-19.5 90t-56.5 35q-49 0 -82 -125q33 -124 82 -124zM137 211
q47 0 82 124q-35 125 -82 125q-37 0 -56.5 -35t-19.5 -90t19.5 -89.5t56.5 -34.5z" />
    <glyph glyph-name="integral" unicode="&#x222b;" horiz-adv-x="226" 
d="M49 -100h-32v30h32q21 0 35 18t14 45v682q0 41 24 67t55 26h32v-30h-32q-21 0 -35 -17.5t-14 -45.5v-682q0 -41 -24 -67t-55 -26z" />
    <glyph glyph-name="approxequal" unicode="&#x2248;" horiz-adv-x="374" 
d="M29 220v33q34 -18 79 -18q34 0 76 16t81 16q43 0 80 -15v-33q-35 18 -80 18q-33 0 -75 -16t-82 -16q-42 0 -79 15zM29 416v33q34 -18 79 -18q34 0 76 16t81 16q43 0 80 -15v-33q-35 18 -80 18q-33 0 -75 -16t-82 -16q-42 0 -79 15z" />
    <glyph glyph-name="notequal" unicode="&#x2260;" horiz-adv-x="374" 
d="M105 93h-32l51 127h-95v30h108l68 168h-176v30h188l51 126h33l-51 -126h95v-30h-108l-68 -168h176v-30h-188z" />
    <glyph glyph-name="lessequal" unicode="&#x2264;" horiz-adv-x="374" 
d="M345 166l-316 158v21l316 158v-36l-275 -133l275 -132v-36zM345 60h-316v30h316v-30z" />
    <glyph glyph-name="greaterequal" unicode="&#x2265;" horiz-adv-x="374" 
d="M345 324l-316 -158v36l275 132l-275 133v36l316 -158v-21zM345 60h-316v30h316v-30z" />
    <glyph glyph-name="triangleright" unicode="&#x22b2;" horiz-adv-x="587" 
d="M589 286l-535 -309v618z" />
    <glyph glyph-name="triangleleft" unicode="&#x22b3;" horiz-adv-x="587" 
d="M535 595v-618l-535 309z" />
    <glyph glyph-name="dotmath" unicode="&#x22c5;" horiz-adv-x="208" 
d="M137 245q0 -13 -9.5 -23t-23.5 -10t-23.5 10t-9.5 23t10 22.5t23 9.5t23 -9.5t10 -22.5z" />
    <glyph glyph-name="uni2318" unicode="&#x2318;" horiz-adv-x="667" 
d="M233 154v81h-80q-34 0 -56.5 -23.5t-22.5 -57.5t23 -58t56 -24q34 0 57 24t23 58zM233 432v82q0 34 -22.5 57.5t-56.5 23.5t-57 -23.5t-23 -57.5t23 -58t57 -24h79zM265 265h137v137h-137v-137zM593 154q0 34 -22.5 57.5t-56.5 23.5h-80v-81q0 -34 23 -58t57 -24
q33 0 56 24t23 58zM593 514q0 34 -22.5 57.5t-56.5 23.5t-57 -23.5t-23 -57.5v-82h80q33 0 56 24t23 58zM625 154q0 -46 -32.5 -79t-78.5 -33t-79 33t-33 79v81h-137v-81q0 -46 -33 -79t-79 -33t-78.5 33t-32.5 79t32.5 78.5t78.5 32.5h80v137h-79q-46 0 -79 33t-33 79
t33 78.5t79 32.5t78.5 -32.5t32.5 -78.5v-82h137v82q0 46 33 78.5t79 32.5t78.5 -32.5t32.5 -78.5t-32.5 -79t-78.5 -33h-80v-137h80q46 0 78.5 -32.5t32.5 -78.5z" />
    <glyph glyph-name="blacksquare" unicode="&#x25a0;" horiz-adv-x="661" 
d="M618 0h-571v572h571v-572z" />
    <glyph glyph-name="triagup" unicode="&#x25b2;" horiz-adv-x="616" 
d="M617 29l-619 1l309 535z" />
    <glyph glyph-name="triagdn" unicode="&#x25bc;" horiz-adv-x="616" 
d="M617 510l-310 -535l-309 535h619z" />
    <glyph glyph-name="lozenge" unicode="&#x25ca;" horiz-adv-x="375" 
d="M198 0h-21l-158 334l158 333h21l158 -333zM188 41l132 293l-133 292l-132 -292z" />
    <glyph glyph-name="circlesolid" unicode="&#x25cf;" horiz-adv-x="695" 
d="M644 285q0 -123 -87 -210t-210 -87t-210 87t-87 210t87 210t210 87t210 -87t87 -210z" />
    <glyph glyph-name="blackstar" unicode="&#x2605;" horiz-adv-x="759" 
d="M759 421l-235 -171l90 -275l-235 170l-234 -170l89 275l-234 171h290l89 276l90 -276h290z" />
    <glyph glyph-name="ballotbox" unicode="&#x2610;" horiz-adv-x="661" 
d="M616 0h-571v572h571v-572zM584 30v512h-508v-512h508z" />
    <glyph glyph-name="boxchecked" unicode="&#x2611;" horiz-adv-x="661" 
d="M665 698l-69 -126h20v-572h-571v572h515l78 145zM584 30v512h-4l-244 -451l-202 246l25 23l173 -215l212 397h-468v-512h508z" />
    <glyph glyph-name="diamond" unicode="&#x2666;" horiz-adv-x="501" 
d="M501 285l-251 -250l-250 250l250 251z" />
    <glyph glyph-name="checkmark" unicode="&#x2713;" horiz-adv-x="531" 
d="M531 698l-329 -607l-202 246l25 23l173 -215l306 572z" />
    <glyph glyph-name="perthousand.onum" unicode="&#xf628;" horiz-adv-x="670" 
d="M219 426q0 -59 -26.5 -97t-70.5 -38q-43 0 -69 38t-26 97t26 97.5t69 38.5q44 0 70.5 -38.5t26.5 -97.5zM424 123q0 -59 -26.5 -97t-69.5 -38t-69.5 38t-26.5 97t26.5 97.5t69.5 38.5t69.5 -38.5t26.5 -97.5zM361 549l-241 -549h-32l240 549h33zM186 426q0 48 -17 79.5
t-47 31.5t-47 -31.5t-17 -79.5q0 -47 17 -78.5t47 -31.5t47 31t17 79zM393 123q0 47 -18 79t-47 32q-30 0 -47.5 -32t-17.5 -79q0 -46 17.5 -78t47.5 -32q29 0 47 32t18 78zM643 123q0 -59 -26.5 -97t-69.5 -38t-69.5 38t-26.5 97t26.5 97.5t69.5 38.5t69.5 -38.5
t26.5 -97.5zM612 123q0 47 -18 79t-47 32q-30 0 -47.5 -32t-17.5 -79q0 -46 17.5 -78t47.5 -32q29 0 47 32t18 78z" />
    <glyph glyph-name="uniF637" unicode="&#xf637;" horiz-adv-x="267" 
d="M215 326h-28v247q0 52 -39 52q-20 0 -38.5 -17.5t-29.5 -41.5v-240h-28v434h28v-166q12 22 32.5 38t41.5 16q32 0 46.5 -17t14.5 -55v-250z" />
    <glyph glyph-name="zero.tzero" unicode="&#xf638;" horiz-adv-x="348" 
d="M174 -12q-56 0 -88 56l-15 -44h-33l30 84q-30 85 -30 249q0 344 136 344q53 0 86 -54l16 44h33l-30 -84q30 -85 30 -250q0 -345 -135 -345zM174 18q27 0 46.5 22t29.5 52t15.5 77t7 82t1.5 82q0 127 -14 198l-160 -448q25 -65 74 -65zM73 333q0 -131 13 -198l160 448
q-25 64 -72 64q-33 0 -55 -29.5t-31 -82.5t-12 -97.5t-3 -104.5z" />
    <glyph glyph-name="zero.tnum" unicode="&#xf639;" horiz-adv-x="348" 
d="M174 -12q-136 0 -136 345q0 344 136 344q135 0 135 -344q0 -345 -135 -345zM174 18q27 0 46.5 22t29.5 52t15.5 77t7 82t1.5 82t-1.5 82t-7 82t-15.5 77t-29.5 51.5t-46.5 21.5q-33 0 -55 -29.5t-31 -82.5t-12 -97.5t-3 -104.5q0 -39 1 -67.5t4 -69t9.5 -69t17.5 -55
t28.5 -40.5t40.5 -14z" />
    <glyph glyph-name="two.tnum" unicode="&#xf63a;" horiz-adv-x="348" 
d="M293 0h-235v28q131 253 165.5 341.5t34.5 159.5q0 52 -23.5 85t-59.5 33q-62 0 -95 -92l-31 14q24 56 52 82t74 26q54 0 86 -41.5t32 -106.5q0 -69 -37.5 -165.5t-163.5 -333.5h201v-30z" />
    <glyph glyph-name="three.tnum" unicode="&#xf63b;" horiz-adv-x="348" 
d="M165 -12q-45 0 -78 32.5t-50 82.5l31 13q36 -98 97 -98q95 0 95 160q0 83 -29.5 117.5t-67.5 34.5q-28 0 -34 -1v32q8 -1 34 -1q40 0 65 36t25 103q0 148 -87 148q-34 0 -54.5 -23.5t-36.5 -66.5l-31 13q16 50 49.5 78.5t72.5 28.5q56 0 89.5 -43t33.5 -131
q0 -55 -22 -99t-62 -59q37 -9 63.5 -56t26.5 -112q0 -86 -31 -137.5t-99 -51.5z" />
    <glyph glyph-name="four.tnum" unicode="&#xf63c;" horiz-adv-x="348" 
d="M262 0h-32v195h-199v33l189 439h42v-442h55v-30h-55v-195zM230 225v391l-168 -391h168z" />
    <glyph glyph-name="five.tnum" unicode="&#xf63d;" horiz-adv-x="348" 
d="M174 -12q-53 0 -79.5 28.5t-47.5 86.5l32 11q13 -49 35 -72.5t60 -23.5q43 0 67 53.5t24 126.5q0 182 -83 182q-28 0 -48 -14.5t-44 -54.5l-27 16v340h214v-30h-182v-284q34 57 87 57q55 0 86.5 -54.5t31.5 -157.5q0 -85 -34.5 -147.5t-91.5 -62.5z" />
    <glyph glyph-name="six.tnum" unicode="&#xf63e;" horiz-adv-x="348" 
d="M182 -12q-41 0 -68.5 29t-40.5 83t-17.5 108t-4.5 125q0 70 5 123.5t19 107.5t44 83.5t74 29.5q38 0 67 -25.5t43 -70.5l-28 -15q-25 81 -82 81q-107 0 -107 -324v-19q14 44 39 73t61 29q53 0 86 -53.5t33 -156.5q0 -85 -29.5 -146.5t-93.5 -61.5zM182 18q88 0 88 178
q0 180 -85 180q-64 0 -98 -130q3 -228 95 -228z" />
    <glyph glyph-name="seven.tnum" unicode="&#xf63f;" horiz-adv-x="348" 
d="M147 0h-33l141 637h-196v30h230v-22z" />
    <glyph glyph-name="eight.tnum" unicode="&#xf640;" horiz-adv-x="348" 
d="M174 -12q-61 0 -93.5 44.5t-32.5 121.5q0 62 31.5 113.5t68.5 76.5q-34 24 -63.5 69t-29.5 103q0 77 33 119t86 42q54 0 86.5 -42t32.5 -119q0 -57 -29 -102.5t-63 -69.5q36 -26 67.5 -77t31.5 -112q0 -77 -33 -122t-93 -45zM174 359q7 3 18.5 13t27.5 28.5t27 49.5
t11 66q0 61 -21 96t-63 35t-63 -35t-21 -96q0 -35 11 -66t27 -49.5t27.5 -28.5t18.5 -13zM174 18q41 0 66 36t25 101q0 48 -20 90.5t-40 62.5t-31 22q-11 -2 -31 -22t-40 -63t-20 -91q0 -64 25 -100t66 -36z" />
    <glyph glyph-name="nine.tnum" unicode="&#xf641;" horiz-adv-x="348" 
d="M155 -11q-38 0 -67 25.5t-43 70.5l28 15q25 -81 82 -81q107 0 107 324v19q-14 -44 -39 -73t-61 -29q-53 0 -86 53.5t-33 156.5q0 85 29.5 146.5t93.5 61.5q41 0 68.5 -29t40.5 -83t17.5 -108t4.5 -125q0 -70 -5 -123.5t-19 -107.5t-44 -83.5t-74 -29.5zM163 290
q64 0 98 130q-3 228 -95 228q-88 0 -88 -178q0 -180 85 -180z" />
    <glyph glyph-name="percent.onum" unicode="&#xf642;" horiz-adv-x="450" 
d="M219 426q0 -59 -26.5 -97t-70.5 -38q-43 0 -69 38t-26 97t26 97.5t69 38.5q44 0 70.5 -38.5t26.5 -97.5zM424 123q0 -59 -26.5 -97t-69.5 -38t-69.5 38t-26.5 97t26.5 97.5t69.5 38.5t69.5 -38.5t26.5 -97.5zM363 550l-242 -550h-32l241 550h33zM186 426q0 48 -17 79.5
t-47 31.5t-47 -31.5t-17 -79.5q0 -47 17 -78.5t47 -31.5t47 31t17 79zM393 123q0 47 -18 79t-47 32q-30 0 -47.5 -32t-17.5 -79q0 -46 17.5 -78t47.5 -32q29 0 47 32t18 78z" />
    </font>
</defs>
</svg>
